  0
SECTION
  2
HEADER
  9
$ACADVER
  1
AC1009
  9
$INSBASE
 10
0.0
 20
0.0
 30
0.0
  9
$EXTMIN
 10
-0.0491798848283907
 20
-0.0341696470272837
 30
-0.0000000000000153
  9
$EXTMAX
 10
806.04920522070518
 20
560.03418725011761
 30
0.0
  9
$LIMMIN
 10
0.0
 20
0.0
  9
$LIMMAX
 10
806.0
 20
560.00000000000011
  9
$ORTHOMODE
 70
     1
  9
$REGENMODE
 70
     1
  9
$FILLMODE
 70
     1
  9
$QTEXTMODE
 70
     0
  9
$MIRRTEXT
 70
     1
  9
$DRAGMODE
 70
     2
  9
$LTSCALE
 40
2.0
  9
$OSMODE
 70
   431
  9
$ATTMODE
 70
     1
  9
$TEXTSIZE
 40
2.5
  9
$TRACEWID
 40
1.0
  9
$TEXTSTYLE
  7
STANDARD
  9
$CLAYER
  8
0
  9
$CELTYPE
  6
BYLAYER
  9
$CECOLOR
 62
   256
  9
$DIMSCALE
 40
5.0
  9
$DIMASZ
 40
2.5
  9
$DIMEXO
 40
1.0
  9
$DIMDLI
 40
10.0
  9
$DIMRND
 40
0.0
  9
$DIMDLE
 40
0.0
  9
$DIMEXE
 40
1.0
  9
$DIMTP
 40
0.1
  9
$DIMTM
 40
0.1
  9
$DIMTXT
 40
3.5
  9
$DIMCEN
 40
0.0
  9
$DIMTSZ
 40
0.0
  9
$DIMTOL
 70
     0
  9
$DIMLIM
 70
     0
  9
$DIMTIH
 70
     0
  9
$DIMTOH
 70
     0
  9
$DIMSE1
 70
     0
  9
$DIMSE2
 70
     0
  9
$DIMTAD
 70
     3
  9
$DIMZIN
 70
     8
  9
$DIMBLK
  1
OPEN30
  9
$DIMASO
 70
     1
  9
$DIMSHO
 70
     1
  9
$DIMPOST
  1

  9
$DIMAPOST
  1
"
  9
$DIMALT
 70
     0
  9
$DIMALTD
 70
     2
  9
$DIMALTF
 40
0.0393701
  9
$DIMLFAC
 40
1.0
  9
$DIMTOFL
 70
     1
  9
$DIMTVP
 40
0.0
  9
$DIMTIX
 70
     0
  9
$DIMSOXD
 70
     0
  9
$DIMSAH
 70
     0
  9
$DIMBLK1
  1
OPEN30
  9
$DIMBLK2
  1
OPEN30
  9
$DIMSTYLE
  2
AM_JIS
  9
$DIMCLRD
 70
   256
  9
$DIMCLRE
 70
   256
  9
$DIMCLRT
 70
     2
  9
$DIMTFAC
 40
0.71
  9
$DIMGAP
 40
1.5
  9
$LUNITS
 70
     2
  9
$LUPREC
 70
     2
  9
$SKETCHINC
 40
1.0
  9
$FILLETRAD
 40
15.0
  9
$AUNITS
 70
     0
  9
$AUPREC
 70
     0
  9
$MENU
  1
.
  9
$ELEVATION
 40
0.0
  9
$PELEVATION
 40
0.0
  9
$THICKNESS
 40
0.0
  9
$LIMCHECK
 70
     0
  9
$BLIPMODE
 70
     0
  9
$CHAMFERA
 40
15.0
  9
$CHAMFERB
 40
15.0
  9
$SKPOLY
 70
     0
  9
$TDCREATE
 40
2452629.7636367008
  9
$TDUPDATE
 40
2455510.5846467251
  9
$TDINDWG
 40
0.79383125
  9
$TDUSRTIMER
 40
0.79383125
  9
$USRTIMER
 70
     1
  9
$ANGBASE
 50
0.0
  9
$ANGDIR
 70
     0
  9
$PDMODE
 70
     0
  9
$PDSIZE
 40
0.0
  9
$PLINEWID
 40
0.0
  9
$COORDS
 70
     0
  9
$SPLFRAME
 70
     0
  9
$SPLINETYPE
 70
     6
  9
$SPLINESEGS
 70
     8
  9
$ATTDIA
 70
     1
  9
$ATTREQ
 70
     1
  9
$HANDLING
 70
     1
  9
$HANDSEED
  5
47CC
  9
$SURFTAB1
 70
     6
  9
$SURFTAB2
 70
     6
  9
$SURFTYPE
 70
     6
  9
$SURFU
 70
     6
  9
$SURFV
 70
     6
  9
$UCSNAME
  2

  9
$UCSORG
 10
0.0
 20
0.0
 30
0.0
  9
$UCSXDIR
 10
1.0
 20
0.0
 30
0.0
  9
$UCSYDIR
 10
0.0
 20
1.0
 30
0.0
  9
$PUCSNAME
  2

  9
$PUCSORG
 10
0.0
 20
0.0
 30
0.0
  9
$PUCSXDIR
 10
1.0
 20
0.0
 30
0.0
  9
$PUCSYDIR
 10
0.0
 20
1.0
 30
0.0
  9
$USERI1
 70
     0
  9
$USERI2
 70
     0
  9
$USERI3
 70
     0
  9
$USERI4
 70
     0
  9
$USERI5
 70
     0
  9
$USERR1
 40
0.0
  9
$USERR2
 40
0.0
  9
$USERR3
 40
0.0
  9
$USERR4
 40
0.0
  9
$USERR5
 40
0.0
  9
$WORLDVIEW
 70
     1
  9
$SHADEDGE
 70
     3
  9
$SHADEDIF
 70
    70
  9
$TILEMODE
 70
     1
  9
$MAXACTVP
 70
    64
  9
$PLIMCHECK
 70
     0
  9
$PEXTMIN
 10
1.0000000000000000E+020
 20
1.0000000000000000E+020
 30
1.0000000000000000E+020
  9
$PEXTMAX
 10
-1.0000000000000000E+020
 20
-1.0000000000000000E+020
 30
-1.0000000000000000E+020
  9
$PLIMMIN
 10
0.0
 20
0.0
  9
$PLIMMAX
 10
420.0
 20
297.0
  9
$UNITMODE
 70
     0
  9
$VISRETAIN
 70
     1
  9
$PLINEGEN
 70
     0
  9
$PSLTSCALE
 70
     1
  0
ENDSEC
  0
SECTION
  2
TABLES
  0
TABLE
  2
VPORT
 70
     3
  0
VPORT
  2
*ACTIVE
 70
     0
 10
0.0
 20
0.0
 11
1.0
 21
1.0
 12
403.00001266793851
 22
280.00000880154511
 13
-85.0
 23
0.0
 14
5.0
 24
5.0
 15
20.0
 25
20.0
 16
0.0
 26
0.0
 36
1.0
 17
0.0
 27
0.0
 37
0.0
 40
564.39878233707122
 41
1.4890322580645159
 42
50.0
 43
0.0
 44
0.0
 50
0.0
 51
0.0
 71
     0
 72
   100
 73
     1
 74
     3
 75
     0
 76
     0
 77
     0
 78
     0
  0
ENDTAB
  0
TABLE
  2
LTYPE
 70
    22
  0
LTYPE
  2
CONTINUOUS
 70
     0
  3
Solid line
 72
    65
 73
     0
 40
0.0
  0
LTYPE
  2
AM_ISO02W050
 70
     0
  3
__ __ __ __ __ __ __ __ __ __ __ __ __ __ __
 72
    65
 73
     2
 40
7.5
 49
6.0
 49
-1.5
  0
LTYPE
  2
AM_ISO08W050
 70
     0
  3
____ . ____ . ____ . ____ . ____ . ____ . ____
 72
    65
 73
     4
 40
18.0
 49
12.0
 49
-1.5
 49
3.0
 49
-1.5
  0
LTYPE
  2
AM_ISO09W050
 70
     0
  3
_____ . . _____ . . _____ . . ____ .. ____
 72
    65
 73
     6
 40
22.5
 49
12.0
 49
-1.5
 49
3.0
 49
-1.5
 49
3.0
 49
-1.5
  0
LTYPE
  2
AMCONSTR
 70
     0
  3
_______________________
 72
    65
 73
     2
 40
9999.0
 49
9999.0
 49
0.0
  0
LTYPE
  2
AM_ISO02W050X2
 70
     0
  3
 _ _ _ _ _ _ _ _ _ _ _ _
 72
    65
 73
     2
 40
3.75
 49
3.0
 49
-0.75
  0
LTYPE
  2
AM_ISO08W050X2
 70
     0
  3
__ . __ . __ . __ . __ . __
 72
    65
 73
     4
 40
9.0
 49
6.0
 49
-0.75
 49
1.5
 49
-0.75
  0
LTYPE
  2
AMZIGZAG
 70
     0
  3
/\/-/\/-/\/-/\/-/\/-/\/
 72
    65
 73
     2
 40
11.0001
 49
0.0001
 49
-11.0
  0
LTYPE
  2
HIDDEN
 70
     0
  3
Hidden __ __ __ __ __ __ __ __ __ __ __ __ __ _
 72
    65
 73
     2
 40
9.5249999999999986
 49
6.3499999999999988
 49
-3.1749999999999989
  0
LTYPE
  2
PHANTOM2
 70
     0
  3
Phantom (.5x) ___ _ _ ___ _ _ ___ _ _ ___ _ _
 72
    65
 73
     6
 40
31.75
 49
15.875
 49
-3.1749999999999989
 49
3.1749999999999989
 49
-3.1749999999999989
 49
3.1749999999999989
 49
-3.1749999999999989
  0
LTYPE
  2
CENTER
 70
     0
  3
__ . __
 72
    65
 73
     4
 40
7.0
 49
4.0
 49
-1.0
 49
1.0
 49
-1.0
  0
LTYPE
  2
ACJISTGB
 70
     0
  3
__ . . __ . .
 72
    65
 73
     6
 40
9.0
 49
4.0
 49
-1.0
 49
1.0
 49
-1.0
 49
1.0
 49
-1.0
  0
LTYPE
  2
ACJISTGL
 70
     0
  3
_ _ _ _ _
 72
    65
 73
     2
 40
3.0
 49
2.0
 49
-1.0
  0
LTYPE
  2
ACISOWELD
 70
     0
  3
_ _ _ _ _
 72
    65
 73
     2
 40
2.0
 49
2.0
 49
-1.0
  0
LTYPE
  2
ACISOTGB
 70
     0
  3
__ . . __ . .
 72
    65
 73
     6
 40
9.0
 49
4.0
 49
-1.0
 49
1.0
 49
-1.0
 49
1.0
 49
-1.0
  0
LTYPE
  2
ACISOTGL
 70
     0
  3
_ _ _ _ _
 72
    65
 73
     2
 40
3.0
 49
2.0
 49
-1.0
  0
LTYPE
  2
GEN3
 70
     0
  3
-- -- -- -- -- -- -- -- -- -- -- -- -- -- --
 72
    65
 73
     2
 40
6.25
 49
4.75
 49
-1.5
  0
LTYPE
  2
GEN7
 70
     0
  3
____ . ____ . ____ . ____ . ____ . ____ . ____
 72
    65
 73
     4
 40
13.75
 49
9.75
 49
-1.5
 49
1.0
 49
-1.5
  0
LTYPE
  2
GEN3A
 70
     0
  3
 - - - - -
 72
    65
 73
     2
 40
3.125
 49
2.25
 49
-0.875
  0
LTYPE
  2
GEN7A
 70
     0
  3
__ . __ . __
 72
    65
 73
     4
 40
6.875
 49
4.75
 49
-0.875
 49
0.375
 49
-0.875
  0
LTYPE
  2
GEN4A
 70
     0
  3
_____ . . _____ . . _____ . . ____ .. ____
 72
    65
 73
     6
 40
16.25
 49
9.75
 49
-1.5
 49
1.0
 49
-1.5
 49
1.0
 49
-1.5
  0
LTYPE
  2
GENZIGZAG
 70
     0
  3
/\/-/\/-/\/-/\/-/\/-/\/
 72
    65
 73
     2
 40
12.0001
 49
0.0001
 49
-12.0
  0
ENDTAB
  0
TABLE
  2
LAYER
 70
    13
  0
LAYER
  2
0
 70
     0
 62
     7
  6
CONTINUOUS
  0
LAYER
  2
AM_5
 70
     0
 62
     3
  6
CONTINUOUS
  0
LAYER
  2
DEFPOINTS
 70
     0
 62
     7
  6
CONTINUOUS
  0
LAYER
  2
RAHM2
 70
     0
 62
     1
  6
CONTINUOUS
  0
LAYER
  2
7A
 70
     0
 62
     4
  6
GEN7A
  0
LAYER
  2
AM_12
 70
     0
 62
     7
  6
CONTINUOUS
  0
LAYER
  2
AM_PAREF
 70
     0
 62
     4
  6
CONTINUOUS
  0
LAYER
  2
ﾋ_ｽ
 70
     0
 62
     8
  6
CONTINUOUS
  0
LAYER
  2
ﾋ_ｽ0
 70
     0
 62
     8
  6
AM_ISO02W050X2
  0
LAYER
  2
ｼｬ_ｼ
 70
     0
 62
     7
  6
CONTINUOUS
  0
LAYER
  2
ｼｬ_ｼ取付台
 70
     0
 62
     2
  6
CONTINUOUS
  0
LAYER
  2
ｼｬ_ｼ取付台0
 70
     0
 62
     2
  6
AM_ISO02W050X2
  0
LAYER
  2
ｼｬ_ｼ0
 70
     0
 62
     7
  6
AM_ISO02W050X2
  0
ENDTAB
  0
TABLE
  2
STYLE
 70
    11
  0
STYLE
  2
STANDARD
 70
     0
 40
0.0
 41
1.0
 50
0.0
 71
     0
 42
2.5
  3
ISOCP.SHX
  4
EXTFONT.SHX
  0
STYLE
  2
USER1
 70
     0
 40
0.0
 41
1.0
 50
0.0
 71
     0
 42
2.5
  3
TXT.SHX
  4

  0
STYLE
  2
USER2
 70
     0
 40
0.0
 41
1.0
 50
0.0
 71
     0
 42
2.5
  3
SIMPLEX.SHX
  4

  0
STYLE
  2
USER3
 70
     0
 40
0.0
 41
1.0
 50
0.0
 71
     0
 42
2.5
  3
ITALIC.SHX
  4

  0
STYLE
  2

 70
     1
 40
0.0
 41
1.0
 50
0.0
 71
     0
 42
2.5
  3
ltypeshp.shx
  4

  0
STYLE
  2
ACJISTS
 70
     0
 40
1.0
 41
1.0
 50
0.0
 71
     0
 42
2.5
  3
isocp.shx
  4
bigfont.shx
  0
STYLE
  2
ACJISGDT
 70
     0
 40
0.0
 41
1.0
 50
0.0
 71
     0
 42
2.5
  3
amgdt.shx
  4

  0
STYLE
  2
ACISOTS
 70
     0
 40
1.0
 41
1.0
 50
0.0
 71
     0
 42
2.5
  3
isocp.shx
  4
extfont.shx
  0
STYLE
  2
ACISOGDT
 70
     0
 40
0.0
 41
1.0
 50
0.0
 71
     0
 42
2.5
  3
amgdt.shx
  4

  0
STYLE
  2

 70
     1
 40
0.0
 41
1.0
 50
0.0
 71
     0
 42
2.5
  3
genltshp.shx
  4

  0
STYLE
  2
TAKACHI1
 70
     0
 40
2.5
 41
1.0
 50
0.0
 71
     0
 42
2.5
  3
txt
  4

  0
ENDTAB
  0
TABLE
  2
VIEW
 70
     6
  0
VIEW
  2
AM_VIEW1
 70
     0
 40
322.06451612903231
 10
201.5
 20
398.96774193548401
 41
403.0
 11
0.0
 21
0.0
 31
1.0
 12
0.0
 22
0.0
 32
0.0
 42
50.0
 43
0.0
 44
0.0
 50
0.0
 71
     0
  0
VIEW
  2
AM_VIEW2
 70
     0
 40
322.06451612903231
 10
604.49999999999989
 20
398.96774193548401
 41
403.0
 11
0.0
 21
0.0
 31
1.0
 12
0.0
 22
0.0
 32
0.0
 42
50.0
 43
0.0
 44
0.0
 50
0.0
 71
     0
  0
VIEW
  2
AM_VIEW3
 70
     0
 40
322.06451612903231
 10
201.5
 20
161.0322580645161
 41
403.0
 11
0.0
 21
0.0
 31
1.0
 12
0.0
 22
0.0
 32
0.0
 42
50.0
 43
0.0
 44
0.0
 50
0.0
 71
     0
  0
VIEW
  2
AM_VIEW4
 70
     0
 40
322.06451612903231
 10
604.49999999999989
 20
161.0322580645161
 41
403.0
 11
0.0
 21
0.0
 31
1.0
 12
0.0
 22
0.0
 32
0.0
 42
50.0
 43
0.0
 44
0.0
 50
0.0
 71
     0
  0
VIEW
  2
AM_VIEW5
 70
     0
 40
322.06451612903231
 10
403.0
 20
280.00000000000011
 41
403.0
 11
0.0
 21
0.0
 31
1.0
 12
0.0
 22
0.0
 32
0.0
 42
50.0
 43
0.0
 44
0.0
 50
0.0
 71
     0
  0
VIEW
  2
AM_VIEW6
 70
     0
 40
644.12259096774187
 10
403.0
 20
280.00000000000011
 41
805.99193999999977
 11
0.0
 21
0.0
 31
1.0
 12
0.0
 22
0.0
 32
0.0
 42
50.0
 43
0.0
 44
0.0
 50
0.0
 71
     0
  0
ENDTAB
  0
TABLE
  2
UCS
 70
     0
  0
ENDTAB
  0
TABLE
  2
APPID
 70
    37
  0
APPID
  2
ACAD
 70
     0
  0
APPID
  2
MCAD_NO_VIS
 70
     0
  0
APPID
  2
ACAD_TEMP_GRAPHIC
 70
     0
  0
APPID
  2
RAK
 70
     0
  0
APPID
  2
GENIUS_GENODEF_13
 70
     0
  0
APPID
  2
GENIUS_GENOBJ-N-FIL_13
 70
     0
  0
APPID
  2
GENIUS_GENREC_14
 70
     0
  0
APPID
  2
GENIUS_GENOBJ-N-REC_13
 70
     0
  0
APPID
  2
GENIUS_GENOBJ-N-HTC_13
 70
     0
  0
APPID
  2
GENIUS_GENHATCH_13
 70
     0
  0
APPID
  2
GENIUS_GENDTOL_13
 70
     0
  0
APPID
  2
GENIUS_GENDIMSH_14
 70
     0
  0
APPID
  2
AD_DRAW
 70
     0
  0
APPID
  2
ACATTRIBSERVICES
 70
     0
  0
APPID
  2
DESIGNERASSEMBLIES
 70
     0
  0
APPID
  2
ACADM_DIM_EDIT
 70
     0
  0
APPID
  2
AMDT_DM_ADJ
 70
     0
  0
APPID
  2
GENIUS_GENCFG_13
 70
     0
  0
APPID
  2
GENIUS_GENCFG0_13
 70
     0
  0
APPID
  2
GENIUS_GENCFG1_13
 70
     0
  0
APPID
  2
GENIUS_GENCFG2_13
 70
     0
  0
APPID
  2
GENIUS_GENCFG3_13
 70
     0
  0
APPID
  2
GENIUS_GENCFG4_13
 70
     0
  0
APPID
  2
GENIUS_GEVCFG0_13
 70
     0
  0
APPID
  2
GENIUS_GENOENT_13
 70
     0
  0
APPID
  2
GENIUS_GENOBJ-N-CRS_13
 70
     0
  0
APPID
  2
GENIUS_GENOREF_13
 70
     0
  0
APPID
  2
GENIUS_GENOLIS_13
 70
     0
  0
APPID
  2
GENIUS_GENOBJ-N-TIT_13
 70
     0
  0
APPID
  2
GENIUS_GENTITLE_13
 70
     0
  0
APPID
  2
GENIUS_GENSCREG_15
 70
     0
  0
APPID
  2
GENIUS_GENOBJ-N-SDF_13
 70
     0
  0
APPID
  2
GENIUS_GENOBJ-N-CEN_13
 70
     0
  0
APPID
  2
GENIUS_GENOBJ-N-ZOO_13
 70
     0
  0
APPID
  2
GENIUS_GENZOO_17
 70
     0
  0
APPID
  2
GEV_VCCNULL_SWITCH_OFF
 70
     0
  0
APPID
  2
GENIUS_GENSCREG_13
 70
     0
  0
ENDTAB
  0
TABLE
  2
DIMSTYLE
 70
    24
  0
DIMSTYLE
  2
ISO-25
 70
     0
  3

  4

  5

  6

  7

 40
1.0
 41
2.5
 42
0.625
 43
3.75
 44
1.25
 45
0.0
 46
0.0
 47
0.0
 48
0.0
140
2.5
141
2.5
142
0.0
143
0.03937007874016
144
1.0
145
0.0
146
1.0
147
0.625
 71
     0
 72
     0
 73
     0
 74
     0
 75
     0
 76
     0
 77
     1
 78
     8
170
     0
171
     3
172
     1
173
     0
174
     0
175
     0
176
     0
177
     0
178
     0
  0
DIMSTYLE
  2
AM_JIS
 70
     0
  3

  4
"
  5
OPEN30
  6

  7

 40
1.0
 41
2.5
 42
1.0
 43
10.0
 44
1.0
 45
0.0
 46
0.0
 47
0.1
 48
0.1
140
3.5
141
0.0
142
0.0
143
0.0393701
144
1.0
145
0.0
146
0.71
147
1.5
 71
     0
 72
     0
 73
     0
 74
     0
 75
     0
 76
     0
 77
     3
 78
     8
170
     0
171
     2
172
     1
173
     0
174
     0
175
     0
176
   256
177
   256
178
     2
  0
DIMSTYLE
  2
AM_JIS$3
 70
     0
  3

  4
"
  5
OPEN30
  6
OPEN30
  7
OPEN30
 40
1.0
 41
2.5
 42
1.0
 43
10.0
 44
1.0
 45
0.0
 46
0.0
 47
0.1
 48
0.1
140
3.5
141
0.0
142
0.0
143
0.0393701
144
1.0
145
0.0
146
0.71
147
1.5
 71
     0
 72
     0
 73
     0
 74
     1
 75
     0
 76
     0
 77
     3
 78
     8
170
     0
171
     2
172
     0
173
     0
174
     0
175
     0
176
   256
177
   256
178
     2
  0
DIMSTYLE
  2
AM_JIS$4
 70
     0
  3

  4
"
  5
OPEN30
  6
OPEN30
  7
OPEN30
 40
1.0
 41
2.5
 42
1.0
 43
10.0
 44
1.0
 45
0.0
 46
0.0
 47
0.1
 48
0.1
140
3.5
141
0.0
142
0.0
143
0.0393701
144
1.0
145
0.0
146
0.71
147
1.5
 71
     0
 72
     0
 73
     0
 74
     1
 75
     0
 76
     0
 77
     3
 78
     8
170
     0
171
     2
172
     0
173
     0
174
     0
175
     0
176
   256
177
   256
178
     2
  0
DIMSTYLE
  2
AM_JIS$6
 70
     0
  3

  4
"
  5
OPEN30
  6
OPEN30
  7
OPEN30
 40
1.0
 41
2.5
 42
1.0
 43
10.0
 44
1.0
 45
0.0
 46
0.0
 47
0.1
 48
0.1
140
3.5
141
0.0
142
0.0
143
0.0393701
144
1.0
145
0.0
146
0.71
147
1.5
 71
     0
 72
     0
 73
     0
 74
     0
 75
     0
 76
     0
 77
     0
 78
     8
170
     0
171
     2
172
     1
173
     0
174
     0
175
     0
176
   256
177
   256
178
     2
  0
DIMSTYLE
  2
AM_JIS$7
 70
     0
  3

  4
"
  5
OPEN30
  6
OPEN30
  7
OPEN30
 40
1.0
 41
2.5
 42
1.0
 43
10.0
 44
1.0
 45
0.0
 46
0.0
 47
0.1
 48
0.1
140
5.0
141
0.0
142
0.0
143
0.0393701
144
1.0
145
0.0
146
0.71
147
1.5
 71
     0
 72
     0
 73
     0
 74
     0
 75
     0
 76
     0
 77
     3
 78
     8
170
     0
171
     2
172
     1
173
     0
174
     0
175
     0
176
   256
177
   256
178
     2
  0
DIMSTYLE
  2
AM_JIS$SF
 70
     0
  3

  4
"
  5
OPEN30
  6
OPEN30
  7
OPEN30
 40
1.0
 41
2.5
 42
1.0
 43
10.0
 44
1.0
 45
0.0
 46
0.0
 47
0.1
 48
0.1
140
3.5
141
0.0
142
0.0
143
0.0393701
144
1.0
145
0.0
146
0.71
147
1.5
 71
     0
 72
     0
 73
     0
 74
     0
 75
     1
 76
     1
 77
     3
 78
     8
170
     0
171
     2
172
     1
173
     0
174
     0
175
     0
176
   256
177
   256
178
     2
  0
DIMSTYLE
  2
AM_JIS$SH
 70
     0
  3

  4
"
  5
OPEN30
  6
GENAXEH
  7
OPEN30
 40
1.0
 41
2.5
 42
1.0
 43
10.0
 44
1.0
 45
0.0
 46
0.0
 47
0.1
 48
0.1
140
3.5
141
0.0
142
0.0
143
0.0393701
144
2.0
145
0.0
146
0.71
147
1.5
 71
     0
 72
     0
 73
     0
 74
     0
 75
     1
 76
     1
 77
     3
 78
     8
170
     0
171
     2
172
     1
173
     1
174
     0
175
     0
176
   256
177
   256
178
     2
  0
DIMSTYLE
  2
AM_ISO
 70
     0
  3

  4
"
  5
OPEN30
  6

  7

 40
1.0
 41
2.5
 42
1.0
 43
10.0
 44
1.0
 45
0.0
 46
0.0
 47
0.1
 48
0.1
140
3.5
141
0.0
142
0.0
143
0.0393701
144
1.0
145
0.0
146
0.71
147
1.5
 71
     0
 72
     0
 73
     0
 74
     0
 75
     0
 76
     0
 77
     1
 78
     8
170
     0
171
     2
172
     1
173
     0
174
     0
175
     0
176
   256
177
   256
178
     2
  0
DIMSTYLE
  2
AM_ISO$3
 70
     0
  3

  4
"
  5
OPEN30
  6

  7

 40
1.0
 41
2.5
 42
1.0
 43
10.0
 44
1.0
 45
0.0
 46
0.0
 47
0.1
 48
0.1
140
3.5
141
0.0
142
0.0
143
0.0393701
144
1.0
145
0.0
146
0.71
147
1.5
 71
     0
 72
     0
 73
     0
 74
     1
 75
     0
 76
     0
 77
     1
 78
     8
170
     0
171
     2
172
     0
173
     0
174
     0
175
     0
176
   256
177
   256
178
     2
  0
DIMSTYLE
  2
AM_ISO$4
 70
     0
  3

  4
"
  5
OPEN30
  6

  7

 40
1.0
 41
2.5
 42
1.0
 43
10.0
 44
1.0
 45
0.0
 46
0.0
 47
0.1
 48
0.1
140
3.5
141
0.0
142
0.0
143
0.0393701
144
1.0
145
0.0
146
0.71
147
1.5
 71
     0
 72
     0
 73
     0
 74
     1
 75
     0
 76
     0
 77
     1
 78
     8
170
     0
171
     2
172
     0
173
     0
174
     0
175
     0
176
   256
177
   256
178
     2
  0
DIMSTYLE
  2
AM_ISO$6
 70
     0
  3

  4
"
  5
OPEN30
  6

  7

 40
1.0
 41
2.5
 42
1.0
 43
10.0
 44
1.0
 45
0.0
 46
0.0
 47
0.1
 48
0.1
140
3.5
141
0.0
142
0.0
143
0.0393701
144
1.0
145
0.0
146
0.71
147
1.5
 71
     0
 72
     0
 73
     0
 74
     0
 75
     0
 76
     0
 77
     0
 78
     8
170
     0
171
     2
172
     1
173
     0
174
     0
175
     0
176
   256
177
   256
178
     2
  0
DIMSTYLE
  2
AM_ISO$7
 70
     0
  3

  4
"
  5
OPEN30
  6

  7

 40
1.0
 41
2.5
 42
1.0
 43
10.0
 44
1.0
 45
0.0
 46
0.0
 47
0.1
 48
0.1
140
5.0
141
0.0
142
0.0
143
0.0393701
144
1.0
145
0.0
146
0.71
147
1.5
 71
     0
 72
     0
 73
     0
 74
     0
 75
     0
 76
     0
 77
     1
 78
     8
170
     0
171
     2
172
     1
173
     0
174
     0
175
     0
176
   256
177
   256
178
     2
  0
DIMSTYLE
  2
AM_ISO$SF
 70
     0
  3

  4
"
  5
OPEN30
  6

  7

 40
1.0
 41
2.5
 42
1.0
 43
10.0
 44
1.0
 45
0.0
 46
0.0
 47
0.1
 48
0.1
140
3.5
141
0.0
142
0.0
143
0.0393701
144
1.0
145
0.0
146
0.71
147
1.5
 71
     0
 72
     0
 73
     0
 74
     0
 75
     1
 76
     1
 77
     1
 78
     8
170
     0
171
     2
172
     1
173
     0
174
     0
175
     0
176
   256
177
   256
178
     2
  0
DIMSTYLE
  2
AM_ISO$SH
 70
     0
  3

  4
"
  5

  6
GENAXEH
  7
OPEN30
 40
1.0
 41
2.5
 42
1.0
 43
10.0
 44
1.0
 45
0.0
 46
0.0
 47
0.1
 48
0.1
140
3.5
141
0.0
142
0.0
143
0.0393701
144
2.0
145
0.0
146
0.71
147
1.5
 71
     0
 72
     0
 73
     0
 74
     0
 75
     1
 76
     1
 77
     1
 78
     8
170
     0
171
     2
172
     1
173
     1
174
     0
175
     0
176
   256
177
   256
178
     2
  0
DIMSTYLE
  2
GEN-ISO
 70
     0
  3

  4
"
  5
OPEN30
  6

  7

 40
1.0
 41
2.5
 42
1.0
 43
10.0
 44
1.0
 45
0.0
 46
0.0
 47
0.1
 48
0.1
140
3.5
141
0.0
142
0.0
143
0.0393701
144
1.0
145
0.0
146
0.71
147
1.5
 71
     0
 72
     0
 73
     0
 74
     0
 75
     0
 76
     0
 77
     1
 78
     8
170
     0
171
     2
172
     1
173
     0
174
     0
175
     0
176
   256
177
   256
178
     2
  0
DIMSTYLE
  2
GEN-ISO-POS
 70
     0
  3

  4
"
  5
OPEN30
  6

  7

 40
1.0
 41
2.5
 42
1.0
 43
10.0
 44
1.0
 45
0.0
 46
0.0
 47
0.1
 48
0.1
140
5.0
141
0.0
142
0.0
143
0.0393701
144
1.0
145
0.0
146
0.71
147
1.5
 71
     0
 72
     0
 73
     0
 74
     0
 75
     0
 76
     0
 77
     0
 78
     8
170
     0
171
     2
172
     0
173
     0
174
     0
175
     0
176
   256
177
   256
178
     2
  0
DIMSTYLE
  2
GEN-ISO-AXE-F
 70
     0
  3

  4
"
  5
OPEN30
  6

  7

 40
1.0
 41
2.5
 42
1.0
 43
10.0
 44
1.0
 45
0.0
 46
0.0
 47
0.1
 48
0.1
140
3.5
141
0.0
142
0.0
143
0.0393701
144
1.0
145
0.0
146
0.71
147
1.5
 71
     0
 72
     0
 73
     0
 74
     0
 75
     1
 76
     1
 77
     1
 78
     8
170
     0
171
     2
172
     1
173
     0
174
     0
175
     0
176
   256
177
   256
178
     2
  0
DIMSTYLE
  2
GEN-ISO-AXE-H
 70
     0
  3

  4
"
  5
OPEN30
  6

  7

 40
1.0
 41
2.5
 42
1.0
 43
10.0
 44
1.0
 45
0.0
 46
0.0
 47
0.1
 48
0.1
140
3.5
141
0.0
142
0.0
143
0.0393701
144
2.0
145
0.0
146
0.71
147
1.5
 71
     0
 72
     0
 73
     0
 74
     0
 75
     1
 76
     1
 77
     1
 78
     8
170
     0
171
     2
172
     1
173
     0
174
     0
175
     0
176
   256
177
   256
178
     2
  0
DIMSTYLE
  2
GEN-ISO$3
 70
     0
  3

  4
"
  5

  6

  7

 40
1.0
 41
2.5
 42
1.0
 43
10.0
 44
1.0
 45
0.0
 46
0.0
 47
0.1
 48
0.1
140
3.5
141
0.0
142
0.0
143
0.0393701
144
1.0
145
0.0
146
0.71
147
1.5
 71
     0
 72
     0
 73
     0
 74
     1
 75
     0
 76
     0
 77
     1
 78
     8
170
     0
171
     2
172
     0
173
     0
174
     0
175
     0
176
   256
177
   256
178
     2
  0
DIMSTYLE
  2
GEN-ISO$4
 70
     0
  3

  4
"
  5

  6

  7

 40
1.0
 41
2.5
 42
1.0
 43
10.0
 44
1.0
 45
0.0
 46
0.0
 47
0.1
 48
0.1
140
3.5
141
0.0
142
0.0
143
0.0393701
144
1.0
145
0.0
146
0.71
147
1.5
 71
     0
 72
     0
 73
     0
 74
     1
 75
     0
 76
     0
 77
     1
 78
     8
170
     0
171
     2
172
     0
173
     0
174
     0
175
     0
176
   256
177
   256
178
     2
  0
DIMSTYLE
  2
GEN-ISO$6
 70
     0
  3

  4
"
  5

  6

  7

 40
1.0
 41
2.5
 42
1.0
 43
10.0
 44
1.0
 45
0.0
 46
0.0
 47
0.1
 48
0.1
140
3.5
141
0.0
142
0.0
143
0.0393701
144
1.0
145
0.0
146
0.71
147
1.5
 71
     0
 72
     0
 73
     0
 74
     0
 75
     0
 76
     0
 77
     0
 78
     8
170
     0
171
     2
172
     0
173
     0
174
     0
175
     0
176
   256
177
   256
178
     2
  0
DIMSTYLE
  2
AM_ANSI
 70
     0
  3

  4
mm
  5

  6

  7

 40
1.0
 41
0.1
 42
0.05
 43
0.5
 44
0.1
 45
0.0
 46
0.0
 47
0.1
 48
0.1
140
0.12
141
0.0
142
0.0
143
25.399999999999999
144
1.0
145
0.0
146
0.71
147
0.06
 71
     0
 72
     0
 73
     1
 74
     1
 75
     0
 76
     0
 77
     0
 78
     7
170
     0
171
     2
172
     0
173
     0
174
     0
175
     0
176
   256
177
   256
178
     2
  0
DIMSTYLE
  2
AM_JIS$0
 70
     0
  3

  4
"
  5
OPEN30
  6

  7

 40
1.0
 41
2.5
 42
1.0
 43
10.0
 44
1.0
 45
0.0
 46
0.0
 47
0.1
 48
0.1
140
3.5
141
0.0
142
0.0
143
0.0393701
144
1.0
145
0.0
146
0.71
147
1.5
 71
     0
 72
     0
 73
     0
 74
     0
 75
     0
 76
     0
 77
     3
 78
     8
170
     0
171
     2
172
     1
173
     0
174
     0
175
     0
176
   256
177
   256
178
     2
  0
ENDTAB
  0
ENDSEC
  0
SECTION
  2
BLOCKS
  0
BLOCK
  8
0
  2
$MODEL_SPACE
 70
     0
 10
0.0
 20
0.0
 30
0.0
  3
$MODEL_SPACE
  1

  0
ENDBLK
  5
21
  8
0
  0
BLOCK
 67
     1
  8
0
  2
$PAPER_SPACE
 70
     0
 10
0.0
 20
0.0
 30
0.0
  3
$PAPER_SPACE
  1

  0
ENDBLK
  5
1D
 67
     1
  8
0
  0
BLOCK
  8
0
  2
_OPEN30
 70
     0
 10
0.0
 20
0.0
 30
0.0
  3
_OPEN30
  1

  0
LINE
  5
39DE
  8
0
  6
BYBLOCK
 62
     0
 10
-1.0
 20
0.26794919
 30
0.0
 11
0.0
 21
0.0
 31
0.0
  0
LINE
  5
39DF
  8
0
  6
BYBLOCK
 62
     0
 10
0.0
 20
0.0
 30
0.0
 11
-1.0
 21
-0.26794919
 31
0.0
  0
LINE
  5
39E0
  8
0
  6
BYBLOCK
 62
     0
 10
0.0
 20
0.0
 30
0.0
 11
-1.0
 21
0.0
 31
0.0
  0
ENDBLK
  5
39E1
  8
0
  0
BLOCK
  8
0
  2
GENAXEH
 70
     0
 10
0.0
 20
0.0
 30
0.0
  3
GENAXEH
  1

  0
LINE
  5
39EA
  8
0
 10
-1.0
 20
0.0
 30
0.0
 11
1.0
 21
0.0
 31
0.0
  0
ENDBLK
  5
39EB
  8
0
  0
BLOCK
  8
0
  2
TAKACHI-A3
 70
     0
 10
0.0
 20
0.0
 30
0.0
  3
TAKACHI-A3
  1

  0
POLYLINE
  5
249B
  8
0
 66
     1
 10
0.0
 20
0.0
 30
0.0
 70
     1
1001
GENIUS_GENREC_14
1002
{
1000
PYDIR
1011
10.000000000000011
1021
0.0
1031
0.0
1021
280.0
1031
0.0
1002
}
1002
{
1000
PXDIR
1011
410.0
1021
0.0
1031
0.0
1021
0.0
1031
0.0
1002
}
1002
{
1000
PORI
1011
10.0
1021
0.0
1031
0.0
1021
0.0
1031
0.0
1002
}
1002
{
1000
PINS
1011
210.0
1021
0.0
1031
0.0
1021
139.99999999999989
1031
0.0
1002
}
1002
{
1000
HVAL
1000
280
1002
}
1002
{
1000
H
1070
     2
1002
}
1002
{
1000
WVAL
1000
400
1002
}
1002
{
1000
W
1070
     2
1002
}
1002
{
1000
C
1070
     4
1002
}
1001
GENIUS_GENODEF_13
1002
{
1000
HIER
1070
     0
1002
}
1002
{
1000
MANEDIT
1070
     0
1002
}
1002
{
1000
NOSEL
1070
     0
1002
}
1002
{
1000
BEHIND
1070
     0
1002
}
1002
{
1000
REACTOR
1002
}
1001
GENIUS_GENOBJ-N-REC_13
1002
{
1000
OWNER
1000
GEN
1002
}
  0
VERTEX
  5
4625
  8
0
 10
10.0
 20
0.0
 30
0.0
  0
VERTEX
  5
4626
  8
0
 10
410.0
 20
0.0
 30
0.0
  0
VERTEX
  5
4627
  8
0
 10
410.0
 20
280.0
 30
0.0
  0
VERTEX
  5
4628
  8
0
 10
10.00000000000003
 20
280.0
 30
0.0
  0
SEQEND
  5
4629
  8
0
  0
TEXT
  5
249C
  8
0
 10
15.00000000000003
 20
50.0
 30
0.0
 40
2.5
  1
!GENTITLE-LL
  0
TEXT
  5
249D
  8
0
 10
410.0
 20
0.0
 30
0.0
 40
2.5
  1
!GENTITLE-INSERT
  0
TEXT
  5
249E
  8
0
 10
405.0
 20
275.0
 30
0.0
 40
2.5
  1
!GENTITLE-RU
  0
TEXT
  5
249F
  8
0
 10
410.0
 20
280.0
 30
0.0
 40
2.5
  1
!GENTITLE-MAX
  0
LINE
  5
24A0
  8
0
 10
375.0
 20
280.0
 30
0.0
 11
375.0
 21
275.0
 31
0.0
  0
LINE
  5
24A1
  8
0
 10
375.0
 20
275.0
 30
0.0
 11
410.0
 21
275.0
 31
0.0
  0
INSERT
  5
24A2
  8
0
  2
*U32
 10
0.0
 20
0.0
 30
0.0
  0
ENDBLK
  5
24A5
  8
0
  0
BLOCK
  8
0
  2
TAKACHI-TITLE
 70
     2
 10
0.0
 20
0.0
 30
0.0
  3
TAKACHI-TITLE
  1

  0
LINE
  5
24B0
  8
RAHM2
 10
-195.0
 20
30.000000000000028
 30
0.0
 11
-94.0
 21
30.000000000000028
 31
0.0
  0
LINE
  5
24B1
  8
RAHM2
 10
-195.0
 20
35.000000000000028
 30
0.0
 11
-94.0
 21
35.000000000000028
 31
0.0
  0
LINE
  5
24B2
  8
RAHM2
 10
-195.0
 20
40.000000000000021
 30
0.0
 11
-94.0
 21
40.000000000000021
 31
0.0
  0
LINE
  5
24B3
  8
RAHM2
 10
-195.0
 20
45.000000000000021
 30
0.0
 11
-94.0
 21
45.000000000000021
 31
0.0
  0
LINE
  5
24B4
  8
0
 10
-195.0
 20
7.0
 30
0.0
 11
-94.0
 21
7.0
 31
0.0
  0
LINE
  5
24B5
  8
0
 10
-195.0
 20
19.999999999999972
 30
0.0
 11
-94.0
 21
19.999999999999972
 31
0.0
  0
ATTDEF
  5
24B6
  8
0
 10
-183.24385271456069
 20
8.6175171910947483
 30
0.0
 40
2.5
  1

 11
-183.24385271456069
 21
8.6175171910947483
 31
0.0
  3
サブタイトル
  2
GEN-TITLE-DES2
 70
     0
 74
     1
  0
ATTDEF
  5
24B7
  8
0
 10
-183.24385271456069
 20
1.6175171910947479
 30
0.0
 40
3.0
  1

 11
-183.24385271456069
 21
1.6175171910947479
 31
0.0
  3
図番
  2
GEN-TITLE-NR
 70
     0
 74
     1
  0
INSERT
  5
24B8
  8
0
  2
*U33
 10
0.0
 20
0.0
 30
0.0
  0
ATTDEF
  5
24B9
  8
0
 10
-183.24385271456069
 20
13.873952861685011
 30
0.0
 40
4.0
  1

 11
-183.24385271456069
 21
13.873952861685011
 31
0.0
  3
品名
  2
GEN-TITLE-DES1
 70
     0
 74
     1
  0
LINE
  5
24BA
  8
RAHM2
 10
-187.57512886940361
 20
30.400000000000041
 30
0.0
 11
-190.0
 21
34.60000000000003
 31
0.0
  0
LINE
  5
24BB
  8
RAHM2
 10
-190.0
 20
34.60000000000003
 30
0.0
 11
-192.42487113059639
 21
30.400000000000041
 31
0.0
  0
LINE
  5
24BC
  8
RAHM2
 10
-185.0
 20
50.000000000000028
 30
0.0
 11
-185.0
 21
19.99999999999994
 31
0.0
  0
LINE
  5
24BD
  8
RAHM2
 10
-192.42487113059639
 20
30.400000000000041
 30
0.0
 11
-187.57512886940361
 21
30.400000000000041
 31
0.0
  0
INSERT
  5
24BE
  8
0
  2
*U34
 10
0.0
 20
0.0
 30
0.0
  0
INSERT
  5
24BF
  8
0
  2
*U35
 10
0.0
 20
0.0
 30
0.0
  0
LINE
  5
24C0
  8
RAHM2
 10
-192.42487113059639
 20
45.400000000000027
 30
0.0
 11
-187.57512886940361
 21
45.400000000000027
 31
0.0
  0
LINE
  5
24C1
  8
RAHM2
 10
-187.57512886940361
 20
45.400000000000027
 30
0.0
 11
-190.0
 21
49.600000000000023
 31
0.0
  0
LINE
  5
24C2
  8
RAHM2
 10
-192.42487113059639
 20
40.400000000000027
 30
0.0
 11
-187.57512886940361
 21
40.400000000000027
 31
0.0
  0
LINE
  5
24C3
  8
RAHM2
 10
-187.57512886940361
 20
40.400000000000027
 30
0.0
 11
-190.0
 21
44.600000000000023
 31
0.0
  0
LINE
  5
24C4
  8
RAHM2
 10
-192.42487113059639
 20
35.400000000000041
 30
0.0
 11
-187.57512886940361
 21
35.400000000000041
 31
0.0
  0
LINE
  5
24C5
  8
RAHM2
 10
-187.57512886940361
 20
35.400000000000041
 30
0.0
 11
-190.0
 21
39.600000000000023
 31
0.0
  0
LINE
  5
24C6
  8
RAHM2
 10
-190.0
 20
39.600000000000023
 30
0.0
 11
-192.42487113059639
 21
35.400000000000041
 31
0.0
  0
LINE
  5
24C7
  8
RAHM2
 10
-190.0
 20
44.600000000000023
 30
0.0
 11
-192.42487113059639
 21
40.400000000000027
 31
0.0
  0
LINE
  5
24C8
  8
RAHM2
 10
-190.0
 20
49.600000000000023
 30
0.0
 11
-192.42487113059639
 21
45.400000000000027
 31
0.0
  0
LINE
  5
24C9
  8
RAHM2
 10
-129.0
 20
50.000000000000028
 30
0.0
 11
-129.0
 21
19.99999999999994
 31
0.0
  0
INSERT
  5
24CA
  8
0
  2
*U36
 10
0.0
 20
0.0
 30
0.0
  0
LINE
  5
24CB
  8
0
 10
-34.0
 20
50.0
 30
0.0
 11
-34.0
 21
0.0
 31
0.0
  0
LINE
  5
24CC
  8
0
 10
-94.0
 20
50.0
 30
0.0
 11
-94.0
 21
0.0
 31
0.0
  0
INSERT
  5
24CD
  8
0
  2
*U37
 10
0.0
 20
0.0
 30
0.0
  0
LINE
  5
24CE
  8
0
 10
-94.0
 20
10.0
 30
0.0
 11
-34.0
 21
10.0
 31
0.0
  0
ATTDEF
  5
24CF
  8
0
 10
-58.014051197997453
 20
39.255005561783491
 30
0.0
 40
3.0
  1

 72
     2
 11
-58.014051197997453
 21
39.255005561783491
 31
0.0
  3
尺度
  2
GEN-TITLE-SCA
 70
     0
  0
ATTDEF
  5
24D0
  8
0
 10
-77.002849666490064
 20
30.621807879434751
 30
0.0
 40
3.0
  1

 11
-77.002849666490064
 21
30.621807879434751
 31
0.0
  3
材質
  2
GEN-TITLE-MAT1
 70
     0
 74
     1
  0
ATTDEF
  5
24D1
  8
0
 10
-77.002849666490064
 20
20.621807879434751
 30
0.0
 40
3.0
  1

 11
-77.002849666490064
 21
20.621807879434751
 31
0.0
  3
表面処理
  2
GEN-TITLE-MAT2
 70
     0
 74
     1
  0
ATTDEF
  5
24D2
  8
0
 10
-77.002849666490064
 20
11.61751719109475
 30
0.0
 40
3.0
  1

 11
-77.002849666490064
 21
11.61751719109475
 31
0.0
  3
日付
  2
GEN-TITLE-DAT
 70
     0
 74
     1
  0
LINE
  5
24D3
  8
0
 10
-94.0
 20
37.5
 30
0.0
 11
-34.0
 21
37.5
 31
0.0
  0
LINE
  5
24D4
  8
0
 10
-94.0
 20
27.5
 30
0.0
 11
-34.0
 21
27.5
 31
0.0
  0
LINE
  5
24D5
  8
0
 10
-94.0
 20
17.5
 30
0.0
 11
-34.0
 21
17.5
 31
0.0
  0
LINE
  5
24D6
  8
RAHM2
 10
-109.0
 20
50.000000000000028
 30
0.0
 11
-109.0
 21
19.99999999999994
 31
0.0
  0
INSERT
  5
24D7
  8
0
  2
*U38
 10
0.0
 20
0.0
 30
0.0
  0
INSERT
  5
24D8
  8
0
  2
*U39
 10
0.0
 20
0.0
 30
0.0
  0
INSERT
  5
24D9
  8
0
  2
*U40
 10
0.0
 20
0.0
 30
0.0
  0
INSERT
  5
24DA
  8
0
  2
*U41
 10
0.0
 20
0.0
 30
0.0
  0
INSERT
  5
24DB
  8
0
  2
*U42
 10
0.0
 20
0.0
 30
0.0
  0
INSERT
  5
24DC
  8
0
  2
*U43
 10
0.0
 20
0.0
 30
0.0
  0
INSERT
  5
24DD
  8
0
  2
*U44
 10
0.0
 20
0.0
 30
0.0
  0
INSERT
  5
24DE
  8
0
  2
*U45
 10
0.0
 20
0.0
 30
0.0
  0
LINE
  5
24DF
  8
7A
 10
-89.0
 20
43.75
 30
0.0
 11
-75.218691599714703
 21
43.75
 31
0.0
1001
GENIUS_GENOREF_13
1005
24F2
  0
LINE
  5
24E0
  8
0
 10
-84.0
 20
45.75
 30
0.0
 11
-76.0
 21
46.749999999999993
 31
0.0
  0
LINE
  5
24E1
  8
0
 10
-76.0
 20
40.75
 30
0.0
 11
-84.0
 21
41.749999999999993
 31
0.0
  0
LINE
  5
24E2
  8
7A
 10
-89.0
 20
43.75
 30
0.0
 11
-89.0
 21
47.324786644731482
 31
0.0
1001
GENIUS_GENOREF_13
1005
24F2
  0
CIRCLE
  5
24E3
  8
0
 10
-89.0
 20
43.75
 30
0.0
 40
2.0
  0
CIRCLE
  5
24E4
  8
0
 10
-89.0
 20
43.75
 30
0.0
 40
3.0
  0
LINE
  5
24E5
  8
0
 10
-84.0
 20
41.749999999999993
 30
0.0
 11
-84.0
 21
45.75
 31
0.0
  0
INSERT
  5
24E6
  8
0
  2
*U46
 10
0.0
 20
0.0
 30
0.0
  0
LINE
  5
24E7
  8
7A
 10
-89.0
 20
43.75
 30
0.0
 11
-92.723037371251166
 21
43.75
 31
0.0
1001
GENIUS_GENOREF_13
1005
24F2
  0
LINE
  5
24E8
  8
7A
 10
-89.0
 20
43.75
 30
0.0
 11
-89.0
 21
40.039917242284787
 31
0.0
1001
GENIUS_GENOREF_13
1005
24F2
  0
LINE
  5
24E9
  8
0
 10
-76.0
 20
46.749999999999993
 30
0.0
 11
-76.0
 21
40.75
 31
0.0
  0
LINE
  5
24EA
  8
0
 10
-74.0
 20
50.0
 30
0.0
 11
-74.0
 21
37.5
 31
0.0
  0
INSERT
  5
24EB
  8
0
  2
*U47
 10
0.0
 20
0.0
 30
0.0
  0
ATTDEF
  5
24EC
  8
0
 10
-37.76317379391503
 20
39.255005561783491
 30
0.0
 40
3.0
  1

 72
     2
 11
-37.76317379391503
 21
39.255005561783491
 31
0.0
  3
数量
  2
GEN-TITLE-QTY
 70
     0
  0
LINE
  5
24ED
  8
0
 10
-34.0
 20
25.0
 30
0.0
 11
0.0
 21
25.0
 31
0.0
  0
LINE
  5
24EE
  8
0
 10
-54.0
 20
50.0
 30
0.0
 11
-54.0
 21
37.5
 31
0.0
  0
INSERT
  5
24EF
  8
0
  2
*U48
 10
0.0
 20
0.0
 30
0.0
  0
INSERT
  5
24F0
  8
0
  2
*U49
 10
0.0
 20
0.0
 30
0.0
  0
INSERT
  5
24F1
  8
0
  2
*U50
 10
0.0
 20
0.0
 30
0.0
  0
POINT
  5
24F2
  8
0
 10
-320.5355579819676
 20
-138.11048412682541
 30
0.0
1001
GENIUS_GENODEF_13
1002
{
1000
HIER
1070
    10
1002
}
1002
{
1000
MANEDIT
1070
     0
1002
}
1002
{
1000
NOSEL
1070
     0
1002
}
1002
{
1000
BEHIND
1070
     0
1002
}
1002
{
1000
REACTOR
1002
}
1001
GENIUS_GENOBJ-N-CRS_13
1002
{
1000
OWNER
1000
GEN
1002
}
1001
GENIUS_GENOENT_13
1002
{
1000
MYREF
1005
24F2
1002
}
1002
{
1000
GRP
1005
0
1002
}
1001
GENIUS_GENOLIS_13
1002
{
1000
ENT
1005
24E8
1005
24E7
1005
24E2
1005
24DF
1002
}
  0
LINE
  5
24F3
  8
RAHM2
 10
-190.0
 20
29.600000000000019
 30
0.0
 11
-192.42487113059639
 21
25.400000000000041
 31
0.0
  0
LINE
  5
24F4
  8
RAHM2
 10
-187.57512886940361
 20
25.400000000000041
 30
0.0
 11
-190.0
 21
29.600000000000019
 31
0.0
  0
LINE
  5
24F5
  8
RAHM2
 10
-192.42487113059639
 20
25.400000000000041
 30
0.0
 11
-187.57512886940361
 21
25.400000000000041
 31
0.0
  0
LINE
  5
24F6
  8
RAHM2
 10
-195.0
 20
25.000000000000028
 30
0.0
 11
-94.0
 21
25.000000000000028
 31
0.0
  0
INSERT
  5
24F7
  8
0
  2
*U51
 10
0.0
 20
0.0
 30
0.0
  0
TEXT
  5
24F8
  8
RAHM2
 10
-190.8155863565801
 20
25.650000000000031
 30
0.0
 40
2.5
  1
1
 72
     1
 11
-190.19058635658021
 21
25.650000000000031
 31
0.0
 73
     1
  0
TEXT
  5
24F9
  8
RAHM2
 10
-190.9183316929134
 20
30.650000000000031
 30
0.0
 40
2.5
  1
2
 72
     1
 11
-190.0
 21
30.650000000000031
 31
0.0
 73
     1
  0
TEXT
  5
24FA
  8
RAHM2
 10
-190.92677669529661
 20
35.650000000000013
 30
0.0
 40
2.5
  1
3
 72
     1
 11
-190.0
 21
35.650000000000013
 31
0.0
 73
     1
  0
TEXT
  5
24FB
  8
RAHM2
 10
-191.0
 20
40.650000000000027
 30
0.0
 40
2.5
  1
4
 72
     1
 11
-190.0
 21
40.650000000000027
 31
0.0
 73
     1
  0
TEXT
  5
24FC
  8
RAHM2
 10
-190.92677669529661
 20
45.650000000000027
 30
0.0
 40
2.5
  1
5
 72
     1
 11
-190.0
 21
45.650000000000027
 31
0.0
 73
     1
  0
LINE
  5
24FD
  8
0
 10
-17.0
 20
50.0
 30
0.0
 11
-17.0
 21
0.0
 31
0.0
  0
LINE
  5
24FE
  8
0
 10
-195.0
 20
0.0
 30
0.0
 11
0.0
 21
0.0
 31
0.0
1001
GENIUS_GENREC_14
1002
{
1000
PYDIR
1011
-184.0
1021
0.0
1031
0.0
1021
50.0
1031
0.0
1002
}
1002
{
1000
PXDIR
1011
0.0
1021
0.0
1031
0.0
1021
0.0
1031
0.0
1002
}
1002
{
1000
PORI
1011
-184.0
1021
0.0
1031
0.0
1021
0.0
1031
0.0
1002
}
1002
{
1000
PINS
1011
-100.5
1021
0.0
1031
0.0
1021
25.0
1031
0.0
1002
}
1002
{
1000
HVAL
1000
50
1002
}
1002
{
1000
H
1070
     2
1002
}
1002
{
1000
WVAL
1000
167
1002
}
1002
{
1000
W
1070
     2
1002
}
1002
{
1000
C
1070
     4
1002
}
1001
GENIUS_GENODEF_13
1002
{
1000
HIER
1070
     0
1002
}
1002
{
1000
MANEDIT
1070
     0
1002
}
1002
{
1000
NOSEL
1070
     0
1002
}
1002
{
1000
BEHIND
1070
     0
1002
}
1002
{
1000
REACTOR
1002
}
1001
GENIUS_GENOBJ-N-REC_13
1002
{
1000
OWNER
1000
GEN
1002
}
  0
LINE
  5
24FF
  8
0
 10
0.0
 20
0.0
 30
0.0
 11
0.0
 21
50.0
 31
0.0
1001
GENIUS_GENREC_14
1002
{
1000
PYDIR
1011
-184.0
1021
0.0
1031
0.0
1021
50.0
1031
0.0
1002
}
1002
{
1000
PXDIR
1011
0.0
1021
0.0
1031
0.0
1021
0.0
1031
0.0
1002
}
1002
{
1000
PORI
1011
-184.0
1021
0.0
1031
0.0
1021
0.0
1031
0.0
1002
}
1002
{
1000
PINS
1011
-100.5
1021
0.0
1031
0.0
1021
25.0
1031
0.0
1002
}
1002
{
1000
HVAL
1000
50
1002
}
1002
{
1000
H
1070
     2
1002
}
1002
{
1000
WVAL
1000
167
1002
}
1002
{
1000
W
1070
     2
1002
}
1002
{
1000
C
1070
     4
1002
}
1001
GENIUS_GENODEF_13
1002
{
1000
HIER
1070
     0
1002
}
1002
{
1000
MANEDIT
1070
     0
1002
}
1002
{
1000
NOSEL
1070
     0
1002
}
1002
{
1000
BEHIND
1070
     0
1002
}
1002
{
1000
REACTOR
1002
}
1001
GENIUS_GENOBJ-N-REC_13
1002
{
1000
OWNER
1000
GEN
1002
}
  0
LINE
  5
2500
  8
0
 10
0.0
 20
50.0
 30
0.0
 11
-195.0
 21
50.000000000000028
 31
0.0
1001
GENIUS_GENREC_14
1002
{
1000
PYDIR
1011
-184.0
1021
0.0
1031
0.0
1021
50.0
1031
0.0
1002
}
1002
{
1000
PXDIR
1011
0.0
1021
0.0
1031
0.0
1021
0.0
1031
0.0
1002
}
1002
{
1000
PORI
1011
-184.0
1021
0.0
1031
0.0
1021
0.0
1031
0.0
1002
}
1002
{
1000
PINS
1011
-100.5
1021
0.0
1031
0.0
1021
25.0
1031
0.0
1002
}
1002
{
1000
HVAL
1000
50
1002
}
1002
{
1000
H
1070
     2
1002
}
1002
{
1000
WVAL
1000
167
1002
}
1002
{
1000
W
1070
     2
1002
}
1002
{
1000
C
1070
     4
1002
}
1001
GENIUS_GENODEF_13
1002
{
1000
HIER
1070
     0
1002
}
1002
{
1000
MANEDIT
1070
     0
1002
}
1002
{
1000
NOSEL
1070
     0
1002
}
1002
{
1000
BEHIND
1070
     0
1002
}
1002
{
1000
REACTOR
1002
}
1001
GENIUS_GENOBJ-N-REC_13
1002
{
1000
OWNER
1000
GEN
1002
}
  0
LINE
  5
2501
  8
0
 10
-195.0
 20
50.000000000000028
 30
0.0
 11
-195.0
 21
0.0
 31
0.0
1001
GENIUS_GENREC_14
1002
{
1000
PYDIR
1011
-195.0
1021
0.0
1031
0.0
1021
50.0
1031
0.0
1002
}
1002
{
1000
PXDIR
1011
-11.0
1021
0.0
1031
0.0
1021
0.0
1031
0.0
1002
}
1002
{
1000
PORI
1011
-195.0
1021
0.0
1031
0.0
1021
0.0
1031
0.0
1002
}
1002
{
1000
PINS
1011
-111.5
1021
0.0
1031
0.0
1021
25.0
1031
0.0
1002
}
1002
{
1000
HVAL
1000
50
1002
}
1002
{
1000
H
1070
     2
1002
}
1002
{
1000
WVAL
1000
167
1002
}
1002
{
1000
W
1070
     2
1002
}
1002
{
1000
C
1070
     4
1002
}
1001
GENIUS_GENODEF_13
1002
{
1000
HIER
1070
     0
1002
}
1002
{
1000
MANEDIT
1070
     0
1002
}
1002
{
1000
NOSEL
1070
     0
1002
}
1002
{
1000
BEHIND
1070
     0
1002
}
1002
{
1000
REACTOR
1002
}
1001
GENIUS_GENOBJ-N-REC_13
1002
{
1000
OWNER
1000
GEN
1002
}
  0
INSERT
  5
2502
  8
0
  2
*U52
 10
0.0
 20
0.0
 30
0.0
  0
INSERT
  5
2503
  8
0
  2
*U53
 10
0.0
 20
0.0
 30
0.0
  0
ENDBLK
  5
2506
  8
0
  0
BLOCK
  8
0
  2
TAKACHI-A4
 70
     0
 10
0.0
 20
0.0
 30
0.0
  3
TAKACHI-A4
  1

  0
TEXT
  5
3072
  8
0
 10
10.0
 20
54.999999999999943
 30
0.0
 40
2.5
  1
!GENTITLE-LL
  0
TEXT
  5
3073
  8
0
 10
215.0
 20
15.0
 30
0.0
 40
2.5
  1
!GENTITLE-INSERT
  0
TEXT
  5
3074
  8
0
 10
215.0
 20
285.00000000000011
 30
0.0
 40
2.5
  1
!GENTITLE-RU
  0
TEXT
  5
3075
  8
0
 10
215.00000000000011
 20
290.0
 30
0.0
 40
2.5
  1
!GENTITLE-MAX
  0
LINE
  5
3076
  8
0
 10
215.0
 20
290.00000000000011
 30
0.0
 11
20.000000000000028
 21
290.0
 31
0.0
1001
GENIUS_GENREC_14
1002
{
1000
PYDIR
1011
15.00000000000003
1021
0.0
1031
0.0
1021
295.0
1031
0.0
1002
}
1002
{
1000
PXDIR
1011
215.0
1021
0.0
1031
0.0
1021
15.0
1031
0.0
1002
}
1002
{
1000
PORI
1011
15.0
1021
0.0
1031
0.0
1021
15.0
1031
0.0
1002
}
1002
{
1000
PINS
1011
115.0
1021
0.0
1031
0.0
1021
155.0
1031
0.0
1002
}
1002
{
1000
HVAL
1000
280
1002
}
1002
{
1000
H
1070
     2
1002
}
1002
{
1000
WVAL
1000
200
1002
}
1002
{
1000
W
1070
     2
1002
}
1002
{
1000
C
1070
     4
1002
}
  0
LINE
  5
3077
  8
0
 10
20.000000000000028
 20
290.0
 30
0.0
 11
19.999999999999972
 21
15.0
 31
0.0
1001
GENIUS_GENREC_14
1002
{
1000
PYDIR
1011
15.00000000000003
1021
0.0
1031
0.0
1021
295.0
1031
0.0
1002
}
1002
{
1000
PXDIR
1011
215.0
1021
0.0
1031
0.0
1021
15.0
1031
0.0
1002
}
1002
{
1000
PORI
1011
15.0
1021
0.0
1031
0.0
1021
15.0
1031
0.0
1002
}
1002
{
1000
PINS
1011
115.0
1021
0.0
1031
0.0
1021
155.0
1031
0.0
1002
}
1002
{
1000
HVAL
1000
280
1002
}
1002
{
1000
H
1070
     2
1002
}
1002
{
1000
WVAL
1000
200
1002
}
1002
{
1000
W
1070
     2
1002
}
1002
{
1000
C
1070
     4
1002
}
  0
LINE
  5
3078
  8
0
 10
19.999999999999972
 20
15.0
 30
0.0
 11
215.0
 21
15.0
 31
0.0
1001
GENIUS_GENREC_14
1002
{
1000
PYDIR
1011
15.00000000000003
1021
0.0
1031
0.0
1021
295.0
1031
0.0
1002
}
1002
{
1000
PXDIR
1011
215.0
1021
0.0
1031
0.0
1021
15.0
1031
0.0
1002
}
1002
{
1000
PORI
1011
15.0
1021
0.0
1031
0.0
1021
15.0
1031
0.0
1002
}
1002
{
1000
PINS
1011
115.0
1021
0.0
1031
0.0
1021
155.0
1031
0.0
1002
}
1002
{
1000
HVAL
1000
280
1002
}
1002
{
1000
H
1070
     2
1002
}
1002
{
1000
WVAL
1000
200
1002
}
1002
{
1000
W
1070
     2
1002
}
1002
{
1000
C
1070
     4
1002
}
  0
LINE
  5
3079
  8
0
 10
215.0
 20
15.0
 30
0.0
 11
215.00000000000011
 21
290.00000000000011
 31
0.0
1001
GENIUS_GENREC_14
1002
{
1000
PYDIR
1011
15.00000000000003
1021
0.0
1031
0.0
1021
295.0
1031
0.0
1002
}
1002
{
1000
PXDIR
1011
215.0
1021
0.0
1031
0.0
1021
15.0
1031
0.0
1002
}
1002
{
1000
PORI
1011
15.0
1021
0.0
1031
0.0
1021
15.0
1031
0.0
1002
}
1002
{
1000
PINS
1011
115.0
1021
0.0
1031
0.0
1021
155.0
1031
0.0
1002
}
1002
{
1000
HVAL
1000
280
1002
}
1002
{
1000
H
1070
     2
1002
}
1002
{
1000
WVAL
1000
200
1002
}
1002
{
1000
W
1070
     2
1002
}
1002
{
1000
C
1070
     4
1002
}
  0
LINE
  5
307A
  8
0
 10
180.00000000000011
 20
290.00000000000011
 30
0.0
 11
180.00000000000011
 21
285.00000000000011
 31
0.0
  0
LINE
  5
307B
  8
0
 10
180.00000000000011
 20
285.00000000000011
 30
0.0
 11
215.00000000000011
 21
285.00000000000011
 31
0.0
  0
INSERT
  5
307C
  8
0
  2
*U54
 10
0.0
 20
0.0
 30
0.0
  0
ENDBLK
  5
307F
  8
0
  0
BLOCK
  8
0
  2
TK-A3
 70
     0
 10
0.0
 20
0.0
 30
0.0
  3
TK-A3
  1

  0
LINE
  5
3CF8
  8
0
 10
359.0
 20
280.0
 30
0.0
 11
359.0
 21
275.0
 31
0.0
  0
TEXT
  8
0
  40
2.5
  5
47C8
  72
0
  71
0
 10
402.359
 20
272.859
 30
0.000000
  1
(文書番号：TY-34)2008.02.08
  0
LINE
  5
3CFA
  8
0
 10
359.0
 20
275.0
 30
0.0
 11
403.0
 21
275.0
 31
0.0
  0
TEXT
  5
3CFB
  8
0
 10
403.0
 20
0.0
 30
0.0
 40
2.5
  1
!GENTITLE-INSERT
  0
TEXT
  5
3CFC
  8
0
 10
0.0
 20
0.0
 30
0.0
 40
2.5
  1
!GENTITLE-LL
  0
TEXT
  5
3CFD
  8
0
 10
403.0
 20
280.0
 30
0.0
 40
2.5
  1
!GENTITLE-MAX
  0
ENDBLK
  5
3D01
  8
0
  0
BLOCK
  8
0
  2
TK-TITLE
 70
     2
 10
0.0
 20
0.0
 30
0.0
  3
TK-TITLE
  1

  0
LINE
  5
3D06
  8
0
 10
-167.0
 20
12.499999999999959
 30
0.0
 11
-193.00000000000011
 21
12.499999999999959
 31
0.0
  0
LINE
  5
3D07
  8
0
 10
-167.0
 20
37.499999999999979
 30
0.0
 11
-193.00000000000011
 21
37.499999999999979
 31
0.0
  0
ATTDEF
  5
3D08
  8
0
 10
-180.2171951662138
 20
3.5883425376106639
 30
0.0
 40
3.0
  1

 72
     1
 11
-180.2171951662138
 21
3.5883425376106639
 31
0.0
  3
日付
  2
GEN-TITLE-DAT
 70
     0
 74
     1
  0
INSERT
  5
3D09
  8
0
  2
*U55
 10
0.0
 20
0.0
 30
0.0
  0
ATTDEF
  5
3D0A
  8
0
 10
-177.824739614424
 20
28.299999999999979
 30
0.0
 40
3.0
  1

 72
     2
 11
-177.824739614424
 21
28.299999999999979
 31
0.0
  3
尺度
  2
GEN-TITLE-SCA
 70
     0
 74
     1
  0
INSERT
  5
3D0B
  8
0
  2
*U56
 10
0.0
 20
0.0
 30
0.0
  0
INSERT
  5
3D0C
  8
0
  2
*U57
 10
0.0
 20
0.0
 30
0.0
  0
ATTDEF
  5
3D0D
  8
0
 10
-175.6127409126095
 20
15.79999999999994
 30
0.0
 40
3.0
  1

 72
     2
 11
-175.6127409126095
 21
15.79999999999994
 31
0.0
  3
数量
  2
GEN-TITLE-QTY
 70
     0
 74
     1
  0
LINE
  5
3D0E
  8
0
 10
-193.00000000000011
 20
49.999999999999993
 30
0.0
 11
-193.00000000000011
 21
-0.0000000000000142
 31
0.0
  0
LINE
  5
3D0F
  8
7A
 10
-184.71674187457961
 20
43.74999999999995
 30
0.0
 11
-170.93543347429431
 21
43.74999999999995
 31
0.0
1001
GENIUS_GENOREF_13
1005
3D5D
  0
LINE
  5
3D10
  8
0
 10
-179.71674187457961
 20
45.749999999999943
 30
0.0
 11
-171.71674187457961
 21
46.74999999999995
 31
0.0
  0
LINE
  5
3D11
  8
0
 10
-171.71674187457961
 20
40.749999999999943
 30
0.0
 11
-179.71674187457961
 21
41.74999999999995
 31
0.0
  0
LINE
  5
3D12
  8
7A
 10
-184.71674187457961
 20
43.74999999999995
 30
0.0
 11
-184.71674187457961
 21
47.324786644731439
 31
0.0
1001
GENIUS_GENOREF_13
1005
3D5D
  0
CIRCLE
  5
3D13
  8
0
 10
-184.71674187457961
 20
43.74999999999995
 30
0.0
 40
2.0
  0
CIRCLE
  5
3D14
  8
0
 10
-184.71674187457961
 20
43.74999999999995
 30
0.0
 40
3.0
  0
LINE
  5
3D15
  8
0
 10
-179.71674187457961
 20
41.74999999999995
 30
0.0
 11
-179.71674187457961
 21
45.749999999999943
 31
0.0
  0
LINE
  5
3D16
  8
7A
 10
-184.71674187457961
 20
43.74999999999995
 30
0.0
 11
-188.43977924583069
 21
43.74999999999995
 31
0.0
1001
GENIUS_GENOREF_13
1005
3D5D
  0
LINE
  5
3D17
  8
7A
 10
-184.71674187457961
 20
43.74999999999995
 30
0.0
 11
-184.71674187457961
 21
40.03991724228473
 31
0.0
1001
GENIUS_GENOREF_13
1005
3D5D
  0
LINE
  5
3D18
  8
0
 10
-171.71674187457961
 20
46.74999999999995
 30
0.0
 11
-171.71674187457961
 21
40.749999999999943
 31
0.0
  0
LINE
  5
3D19
  8
0
 10
-167.0
 20
24.999999999999972
 30
0.0
 11
-193.00000000000011
 21
24.999999999999972
 31
0.0
  0
LINE
  5
3D1A
  8
0
 10
-167.0
 20
39.999999999999908
 30
0.0
 11
-96.0
 21
39.999999999999922
 31
0.0
  0
INSERT
  5
3D1B
  8
0
  2
*U58
 10
0.0
 20
0.0
 30
0.0
  0
INSERT
  5
3D1C
  8
0
  2
*U59
 10
0.0
 20
0.0
 30
0.0
  0
ATTDEF
  5
3D1D
  8
0
 10
-148.96186758352911
 20
33.299999999999912
 30
0.0
 40
3.0
  1

  3
表面処理
  2
GEN-TITLE-MAT2
 70
     0
  0
ATTDEF
  5
3D1E
  8
0
 10
-148.96186758352911
 20
43.299999999999912
 30
0.0
 40
3.0
  1

  3
材質
  2
GEN-TITLE-MAT1
 70
     0
  0
INSERT
  5
3D1F
  8
0
  2
*U60
 10
0.0
 20
0.0
 30
0.0
  0
LINE
  5
3D20
  8
0
 10
-167.0
 20
29.999999999999918
 30
0.0
 11
-96.0
 21
29.999999999999918
 31
0.0
  0
INSERT
  5
3D21
  8
0
  2
*U61
 10
0.0
 20
0.0
 30
0.0
  0
INSERT
  5
3D22
  8
0
  2
*U62
 10
0.0
 20
0.0
 30
0.0
  0
LINE
  5
3D23
  8
0
 10
-149.25000000000011
 20
19.999999999999929
 30
0.0
 11
-149.25000000000011
 21
-0.0000000000000462
 31
0.0
  0
LINE
  5
3D24
  8
0
 10
-167.0
 20
49.99999999999995
 30
0.0
 11
-167.0
 21
-0.0000000000000497
 31
0.0
  0
INSERT
  5
3D25
  8
0
  2
*U63
 10
0.0
 20
0.0
 30
0.0
  0
LINE
  5
3D26
  8
0
 10
-131.50000000000011
 20
19.999999999999929
 30
0.0
 11
-131.50000000000011
 21
-0.0000000000000533
 31
0.0
  0
LINE
  5
3D27
  8
0
 10
-113.75
 20
19.999999999999929
 30
0.0
 11
-113.75
 21
-0.0000000000000533
 31
0.0
  0
LINE
  5
3D28
  8
0
 10
-167.0
 20
19.999999999999929
 30
0.0
 11
-96.0
 21
19.999999999999929
 31
0.0
  0
INSERT
  5
3D29
  8
0
  2
*U64
 10
0.0
 20
0.0
 30
0.0
  0
INSERT
  5
3D2A
  8
0
  2
*U65
 10
0.0
 20
0.0
 30
0.0
  0
LINE
  5
3D2B
  8
0
 10
-21.175419266257109
 20
0.0
 30
0.0
 11
-21.17541926625734
 21
7.0
 31
0.0
  0
LINE
  5
3D2C
  8
RAHM2
 10
-96.0
 20
29.999999999999918
 30
0.0
 11
0.0000000000001137
 21
30.000000000000028
 31
0.0
  0
LINE
  5
3D2D
  8
RAHM2
 10
-96.0
 20
35.000000000000028
 30
0.0
 11
0.0000000000001137
 21
35.000000000000028
 31
0.0
  0
LINE
  5
3D2E
  8
RAHM2
 10
-96.0
 20
39.999999999999929
 30
0.0
 11
0.0000000000001137
 21
40.000000000000021
 31
0.0
  0
LINE
  5
3D2F
  8
RAHM2
 10
-96.0
 20
45.000000000000021
 30
0.0
 11
0.0000000000001137
 21
45.000000000000021
 31
0.0
  0
LINE
  5
3D30
  8
0
 10
-96.0
 20
7.0
 30
0.0
 11
0.0000000000001137
 21
7.0
 31
0.0
  0
LINE
  5
3D31
  8
0
 10
-96.0
 20
19.999999999999972
 30
0.0
 11
0.0000000000001137
 21
19.999999999999972
 31
0.0
  0
INSERT
  5
3D32
  8
0
  2
*U66
 10
0.0
 20
0.0
 30
0.0
  0
LINE
  5
3D33
  8
RAHM2
 10
-88.575128869403557
 20
30.40000000000002
 30
0.0
 11
-91.0
 21
34.600000000000009
 31
0.0
  0
LINE
  5
3D34
  8
RAHM2
 10
-91.0
 20
34.600000000000009
 30
0.0
 11
-93.424871130596443
 21
30.40000000000002
 31
0.0
  0
LINE
  5
3D35
  8
RAHM2
 10
-86.0
 20
50.000000000000007
 30
0.0
 11
-86.0
 21
19.999999999999929
 31
0.0
  0
LINE
  5
3D36
  8
RAHM2
 10
-93.424871130596443
 20
30.40000000000002
 30
0.0
 11
-88.575128869403557
 21
30.40000000000002
 31
0.0
  0
INSERT
  5
3D37
  8
0
  2
*U67
 10
0.0
 20
0.0
 30
0.0
  0
INSERT
  5
3D38
  8
0
  2
*U68
 10
0.0
 20
0.0
 30
0.0
  0
LINE
  5
3D39
  8
RAHM2
 10
-93.424871130596443
 20
45.400000000000013
 30
0.0
 11
-88.575128869403557
 21
45.400000000000013
 31
0.0
  0
LINE
  5
3D3A
  8
RAHM2
 10
-88.575128869403557
 20
45.400000000000013
 30
0.0
 11
-91.0
 21
49.600000000000001
 31
0.0
  0
LINE
  5
3D3B
  8
RAHM2
 10
-93.424871130596443
 20
40.400000000000013
 30
0.0
 11
-88.575128869403557
 21
40.400000000000013
 31
0.0
  0
LINE
  5
3D3C
  8
RAHM2
 10
-88.575128869403557
 20
40.400000000000013
 30
0.0
 11
-91.0
 21
44.600000000000001
 31
0.0
  0
LINE
  5
3D3D
  8
RAHM2
 10
-93.424871130596443
 20
35.40000000000002
 30
0.0
 11
-88.575128869403557
 21
35.40000000000002
 31
0.0
  0
LINE
  5
3D3E
  8
RAHM2
 10
-88.575128869403557
 20
35.40000000000002
 30
0.0
 11
-91.0
 21
39.600000000000009
 31
0.0
  0
LINE
  5
3D3F
  8
RAHM2
 10
-91.0
 20
39.600000000000009
 30
0.0
 11
-93.424871130596443
 21
35.40000000000002
 31
0.0
  0
LINE
  5
3D40
  8
RAHM2
 10
-91.0
 20
44.600000000000001
 30
0.0
 11
-93.424871130596443
 21
40.400000000000013
 31
0.0
  0
LINE
  5
3D41
  8
RAHM2
 10
-91.0
 20
49.600000000000001
 30
0.0
 11
-93.424871130596443
 21
45.400000000000013
 31
0.0
  0
LINE
  5
3D42
  8
RAHM2
 10
-31.820819410689069
 20
50.000000000000028
 30
0.0
 11
-31.820819410689179
 21
19.99999999999994
 31
0.0
  0
INSERT
  5
3D43
  8
0
  2
*U69
 10
0.0
 20
0.0
 30
0.0
  0
LINE
  5
3D44
  8
RAHM2
 10
-11.82081941068907
 20
50.000000000000028
 30
0.0
 11
-11.82081941068907
 21
19.99999999999994
 31
0.0
  0
INSERT
  5
3D45
  8
0
  2
*U70
 10
0.0
 20
0.0
 30
0.0
  0
INSERT
  5
3D46
  8
0
  2
*U71
 10
0.0
 20
0.0
 30
0.0
  0
INSERT
  5
3D47
  8
0
  2
*U72
 10
0.0
 20
0.0
 30
0.0
  0
INSERT
  5
3D48
  8
0
  2
*U73
 10
0.0
 20
0.0
 30
0.0
  0
INSERT
  5
3D49
  8
0
  2
*U74
 10
0.0
 20
0.0
 30
0.0
  0
INSERT
  5
3D4A
  8
0
  2
*U75
 10
0.0
 20
0.0
 30
0.0
  0
LINE
  5
3D4B
  8
RAHM2
 10
-91.0
 20
29.600000000000009
 30
0.0
 11
-93.424871130596443
 21
25.40000000000002
 31
0.0
  0
LINE
  5
3D4C
  8
RAHM2
 10
-88.575128869403557
 20
25.40000000000002
 30
0.0
 11
-91.0
 21
29.600000000000009
 31
0.0
  0
LINE
  5
3D4D
  8
RAHM2
 10
-93.424871130596443
 20
25.40000000000002
 30
0.0
 11
-88.575128869403557
 21
25.40000000000002
 31
0.0
  0
LINE
  5
3D4E
  8
RAHM2
 10
-96.0
 20
25.0
 30
0.0
 11
0.0000000000001137
 21
25.000000000000028
 31
0.0
  0
INSERT
  5
3D4F
  8
0
  2
*U76
 10
0.0
 20
0.0
 30
0.0
  0
TEXT
  5
3D50
  8
RAHM2
 10
-91.815586356580184
 20
25.65000000000002
 30
0.0
 40
2.5
  1
1
 72
     1
 11
-91.190586356580184
 21
25.65000000000002
 31
0.0
 73
     1
  0
TEXT
  5
3D51
  8
RAHM2
 10
-91.918331692913384
 20
30.65000000000002
 30
0.0
 40
2.5
  1
2
 72
     1
 11
-91.0
 21
30.65000000000002
 31
0.0
 73
     1
  0
TEXT
  5
3D52
  8
RAHM2
 10
-91.926776695296624
 20
35.649999999999991
 30
0.0
 40
2.5
  1
3
 72
     1
 11
-91.0
 21
35.649999999999991
 31
0.0
 73
     1
  0
TEXT
  5
3D53
  8
RAHM2
 10
-92.0
 20
40.65000000000002
 30
0.0
 40
2.5
  1
4
 72
     1
 11
-91.0
 21
40.65000000000002
 31
0.0
 73
     1
  0
TEXT
  5
3D54
  8
RAHM2
 10
-91.926776695296624
 20
45.65000000000002
 30
0.0
 40
2.5
  1
5
 72
     1
 11
-91.0
 21
45.65000000000002
 31
0.0
 73
     1
  0
LINE
  5
3D55
  8
0
 10
-193.00000000000011
 20
0.0
 30
0.0
 11
0.0
 21
0.0
 31
0.0
1001
GENIUS_GENREC_14
1002
{
1000
PYDIR
1011
-184.0
1021
0.0
1031
0.0
1021
50.0
1031
0.0
1002
}
1002
{
1000
PXDIR
1011
0.0
1021
0.0
1031
0.0
1021
0.0
1031
0.0
1002
}
1002
{
1000
PORI
1011
-184.0
1021
0.0
1031
0.0
1021
0.0
1031
0.0
1002
}
1002
{
1000
PINS
1011
-100.5
1021
0.0
1031
0.0
1021
25.0
1031
0.0
1002
}
1002
{
1000
HVAL
1000
50
1002
}
1002
{
1000
H
1070
     2
1002
}
1002
{
1000
WVAL
1000
167
1002
}
1002
{
1000
W
1070
     2
1002
}
1002
{
1000
C
1070
     4
1002
}
1001
GENIUS_GENODEF_13
1002
{
1000
HIER
1070
     0
1002
}
1002
{
1000
MANEDIT
1070
     0
1002
}
1002
{
1000
NOSEL
1070
     0
1002
}
1002
{
1000
BEHIND
1070
     0
1002
}
1002
{
1000
REACTOR
1002
}
1001
GENIUS_GENOBJ-N-REC_13
1002
{
1000
OWNER
1000
GEN
1002
}
  0
LINE
  5
3D56
  8
0
 10
0.0
 20
50.0
 30
0.0
 11
-193.00000000000011
 21
50.000000000000021
 31
0.0
1001
GENIUS_GENREC_14
1002
{
1000
PYDIR
1011
-184.0
1021
0.0
1031
0.0
1021
50.0
1031
0.0
1002
}
1002
{
1000
PXDIR
1011
0.0
1021
0.0
1031
0.0
1021
0.0
1031
0.0
1002
}
1002
{
1000
PORI
1011
-184.0
1021
0.0
1031
0.0
1021
0.0
1031
0.0
1002
}
1002
{
1000
PINS
1011
-100.5
1021
0.0
1031
0.0
1021
25.0
1031
0.0
1002
}
1002
{
1000
HVAL
1000
50
1002
}
1002
{
1000
H
1070
     2
1002
}
1002
{
1000
WVAL
1000
167
1002
}
1002
{
1000
W
1070
     2
1002
}
1002
{
1000
C
1070
     4
1002
}
1001
GENIUS_GENODEF_13
1002
{
1000
HIER
1070
     0
1002
}
1002
{
1000
MANEDIT
1070
     0
1002
}
1002
{
1000
NOSEL
1070
     0
1002
}
1002
{
1000
BEHIND
1070
     0
1002
}
1002
{
1000
REACTOR
1002
}
1001
GENIUS_GENOBJ-N-REC_13
1002
{
1000
OWNER
1000
GEN
1002
}
  0
LINE
  5
3D57
  8
0
 10
-96.0
 20
50.000000000000007
 30
0.0
 11
-96.0
 21
-0.0000000000000142
 31
0.0
1001
GENIUS_GENREC_14
1002
{
1000
PYDIR
1011
-96.0
1021
0.0
1031
0.0
1021
49.999999999999993
1031
0.0
1002
}
1002
{
1000
PXDIR
1011
88.0
1021
0.0
1031
0.0
1021
-0.0000000000000142
1031
0.0
1002
}
1002
{
1000
PORI
1011
-96.0
1021
0.0
1031
0.0
1021
-0.0000000000000142
1031
0.0
1002
}
1002
{
1000
PINS
1011
-12.5
1021
0.0
1031
0.0
1021
24.999999999999989
1031
0.0
1002
}
1002
{
1000
HVAL
1000
50
1002
}
1002
{
1000
H
1070
     2
1002
}
1002
{
1000
WVAL
1000
167
1002
}
1002
{
1000
W
1070
     2
1002
}
1002
{
1000
C
1070
     4
1002
}
1001
GENIUS_GENODEF_13
1002
{
1000
HIER
1070
     0
1002
}
1002
{
1000
MANEDIT
1070
     0
1002
}
1002
{
1000
NOSEL
1070
     0
1002
}
1002
{
1000
BEHIND
1070
     0
1002
}
1002
{
1000
REACTOR
1002
}
1001
GENIUS_GENOBJ-N-REC_13
1002
{
1000
OWNER
1000
GEN
1002
}
  0
ATTDEF
  5
3D58
  8
0
 10
-84.0
 20
1.9999999999999569
 30
0.0
 40
3.0
  1

  3
図番
  2
GEN-TITLE-NR1
 70
     0
  0
ATTDEF
  5
3D59
  8
0
 10
-84.0
 20
9.1499999999999488
 30
0.0
 40
2.5
  1

  3
サブタイトル
  2
GEN-TITLE-DES2
 70
     0
  0
LINE
  5
3D5A
  8
0
 10
0.0
 20
0.0
 30
0.0
 11
0.0
 21
50.0
 31
0.0
1001
GENIUS_GENREC_14
1002
{
1000
PYDIR
1011
-414.0
1021
0.0
1031
0.0
1021
291.0
1031
0.0
1002
}
1002
{
1000
PXDIR
1011
6.0
1021
0.0
1031
0.0
1021
-6.0
1031
0.0
1002
}
1002
{
1000
PORI
1011
-414.0
1021
0.0
1031
0.0
1021
-6.0
1031
0.0
1002
}
1002
{
1000
PINS
1011
-414.0
1021
0.0
1031
0.0
1021
-6.0
1031
0.0
1002
}
1002
{
1000
HVAL
1000
297
1002
}
1002
{
1000
H
1070
     2
1002
}
1002
{
1000
WVAL
1000
420
1002
}
1002
{
1000
W
1070
     2
1002
}
1002
{
1000
C
1070
     1
1002
}
1001
GENIUS_GENODEF_13
1002
{
1000
HIER
1070
     0
1002
}
1002
{
1000
MANEDIT
1070
     0
1002
}
1002
{
1000
NOSEL
1070
     0
1002
}
1002
{
1000
BEHIND
1070
     0
1002
}
1002
{
1000
OTHER
1070
     0
1002
}
1002
{
1000
REACTOR
1002
}
1001
GENIUS_GENOBJ-N-REC_13
1002
{
1000
OWNER
1000
GEN
1002
}
  0
ATTDEF
  5
3D5B
  8
0
 10
-84.142519015853296
 20
12.82790432564377
 30
0.0
 40
3.5
  1

  3
品名
  2
GEN-TITLE-DES1
 70
     0
  0
ATTDEF
  5
3D5C
  8
0
 10
-8.0023091895458265
 20
1.705189434395036
 30
0.0
 40
2.5
  1

  3
Rev.
  2
GEN-TITLE-NR2
 70
     0
  0
POINT
  5
3D5D
  8
0
 10
-418.53555798196749
 20
-138.11048412682541
 30
0.0
1001
GENIUS_GENODEF_13
1002
{
1000
HIER
1070
    10
1002
}
1002
{
1000
MANEDIT
1070
     0
1002
}
1002
{
1000
NOSEL
1070
     0
1002
}
1002
{
1000
BEHIND
1070
     0
1002
}
1002
{
1000
REACTOR
1002
}
1001
GENIUS_GENOBJ-N-CRS_13
1002
{
1000
OWNER
1000
GEN
1002
}
1001
GENIUS_GENOENT_13
1002
{
1000
MYREF
1005
3D5D
1002
}
1002
{
1000
GRP
1005
0
1002
}
1001
GENIUS_GENOLIS_13
1002
{
1000
ENT
1005
3D17
1005
3D16
1005
3D12
1005
3D0F
1002
}
  0
ENDBLK
  5
3D60
  8
0
  0
BLOCK
  8
0
  2
A$C2B84214F
 70
     0
 10
0.0
 20
0.0
 30
0.0
  3
A$C2B84214F
  1

  0
LINE
  5
3F17
  8
ﾋ_ｽ
 10
0.0
 20
-3.1499999999999768
 30
0.0
 11
0.0
 21
3.1500000000000341
 31
0.0
  0
ARC
  5
3F18
  8
ﾋ_ｽ
 10
0.0999999999999091
 20
1.326839681057435
 30
0.0
 40
0.1
 50
179.9999999999967
 51
283.49573328080749
1001
GENIUS_GENODEF_13
1002
{
1000
HIER
1070
     0
1002
}
1002
{
1000
MANEDIT
1070
     0
1002
}
1002
{
1000
NOSEL
1070
     0
1002
}
1002
{
1000
BEHIND
1070
     0
1002
}
1002
{
1000
OTHER
1070
     0
1002
}
1002
{
1000
REACTOR
1002
}
1001
GENIUS_GENOBJ-N-FIL_13
1002
{
1000
OWNER
1000
GEN
1002
}
  0
ARC
  5
3F19
  8
ﾋ_ｽ
 10
0.0999999999999091
 20
-1.3268396810574921
 30
0.0
 40
0.1
 50
76.504266719192529
 51
179.9999999999967
1001
GENIUS_GENODEF_13
1002
{
1000
HIER
1070
     0
1002
}
1002
{
1000
MANEDIT
1070
     0
1002
}
1002
{
1000
NOSEL
1070
     0
1002
}
1002
{
1000
BEHIND
1070
     0
1002
}
1002
{
1000
OTHER
1070
     0
1002
}
1002
{
1000
REACTOR
1002
}
1001
GENIUS_GENOBJ-N-FIL_13
1002
{
1000
OWNER
1000
GEN
1002
}
  0
LINE
  5
3F1A
  8
ﾋ_ｽ
 10
0.1233372952474383
 20
1.2296009508593211
 30
0.0
 11
1.249999999999772
 21
1.5
 31
0.0
  0
LINE
  5
3F1B
  8
ﾋ_ｽ
 10
0.1233372952474383
 20
-1.229600950859435
 30
0.0
 11
1.249999999999545
 21
-1.5
 31
0.0
  0
LINE
  5
3F1C
  8
ﾋ_ｽ
 10
1.249999999999545
 20
-1.5
 30
0.0
 11
1.249999999999772
 21
1.5
 31
0.0
  0
LINE
  5
3F1D
  8
ﾋ_ｽ
 10
1.249999999999545
 20
-1.5
 30
0.0
 11
6.0
 21
-1.5
 31
0.0
  0
LINE
  5
3F1E
  8
ﾋ_ｽ
 10
6.0
 20
1.5
 30
0.0
 11
1.249999999999772
 21
1.5
 31
0.0
  0
LINE
  5
3F1F
  8
ﾋ_ｽ0
 10
0.0
 20
-1.199999999999988
 30
0.0
 11
6.0
 21
-1.199999999999988
 31
0.0
  0
LINE
  5
3F20
  8
ﾋ_ｽ0
 10
0.0
 20
1.199999999999988
 30
0.0
 11
6.0
 21
1.199999999999988
 31
0.0
  0
LINE
  5
3F21
  8
ﾋ_ｽ
 10
0.0
 20
3.1500000000000341
 30
0.0
 11
-1.2999999999999541
 21
3.0362647374163312
 31
0.0
  0
LINE
  5
3F22
  8
ﾋ_ｽ
 10
0.0
 20
-3.1499999999999768
 30
0.0
 11
-1.2999999999999541
 21
-3.0362647374162739
 31
0.0
  0
LINE
  5
3F23
  8
ﾋ_ｽ
 10
-1.2999999999999541
 20
3.0362647374163312
 30
0.0
 11
-1.2999999999999541
 21
-3.0362647374162739
 31
0.0
  0
ARC
  5
3F24
  8
ﾋ_ｽ
 10
6.0824196297312483
 20
0.0000000000000568
 30
0.0
 40
7.9824196297310488
 50
157.64346058573031
 51
202.35653941426961
  0
LINE
  5
3F25
  8
ﾋ_ｽ
 10
6.0
 20
1.5
 30
0.0
 11
6.0
 21
-1.5
 31
0.0
  0
ENDBLK
  5
3F28
  8
0
  0
BLOCK
  8
0
  2
A$C68F65B5E
 70
     0
 10
0.0
 20
0.0
 30
0.0
  3
A$C68F65B5E
  1

  0
CIRCLE
  5
3F2E
  8
ﾋ_ｽ
 10
0.0
 20
0.0
 30
0.0
 40
3.1499999999994519
  0
LINE
  5
3F2F
  8
ﾋ_ｽ
 10
0.4204545454545042
 20
-1.8500000000000221
 30
0.0
 11
-0.4204545454545042
 21
-1.8500000000000221
 31
0.0
  0
LINE
  5
3F30
  8
ﾋ_ｽ
 10
-0.4204545454545042
 20
1.8500000000000221
 30
0.0
 11
0.4204545454545042
 21
1.8500000000000221
 31
0.0
  0
LINE
  5
3F31
  8
ﾋ_ｽ
 10
-1.850000000000136
 20
0.420454545454561
 30
0.0
 11
-1.5977272727272971
 21
0.420454545454561
 31
0.0
  0
LINE
  5
3F32
  8
ﾋ_ｽ
 10
-0.4204545454545042
 20
1.5977272727272971
 30
0.0
 11
-0.4204545454545042
 21
1.8500000000000221
 31
0.0
  0
ARC
  5
3F33
  8
ﾋ_ｽ
 10
-1.5977272727272971
 20
1.5977272727272971
 30
0.0
 40
1.177272727272711
 50
270.0
 51
0.0
  0
ARC
  5
3F34
  8
ﾋ_ｽ
 10
-1.5977272727270699
 20
-1.597727272727183
 30
0.0
 40
1.177272727272711
 50
0.0
 51
90.0
  0
LINE
  5
3F35
  8
ﾋ_ｽ
 10
-1.850000000000136
 20
-0.4204545454545042
 30
0.0
 11
-1.850000000000136
 21
0.4204545454546178
 31
0.0
  0
LINE
  5
3F36
  8
ﾋ_ｽ
 10
-1.5977272727272971
 20
-0.4204545454545042
 30
0.0
 11
-1.850000000000136
 21
-0.4204545454545042
 31
0.0
  0
LINE
  5
3F37
  8
ﾋ_ｽ
 10
-0.4204545454545042
 20
-1.8499999999999091
 30
0.0
 11
-0.4204545454545042
 21
-1.597727272727183
 31
0.0
  0
ARC
  5
3F38
  8
ﾋ_ｽ
 10
1.5977272727272971
 20
-1.597727272727183
 30
0.0
 40
1.177272727272711
 50
90.0
 51
180.0
  0
LINE
  5
3F39
  8
ﾋ_ｽ
 10
0.4204545454545042
 20
-1.597727272727183
 30
0.0
 11
0.4204545454545042
 21
-1.8500000000000221
 31
0.0
  0
LINE
  5
3F3A
  8
ﾋ_ｽ
 10
1.8499999999999091
 20
-0.4204545454545042
 30
0.0
 11
1.5977272727272971
 21
-0.4204545454545042
 31
0.0
  0
LINE
  5
3F3B
  8
ﾋ_ｽ
 10
1.8499999999999091
 20
0.4204545454545042
 30
0.0
 11
1.8499999999999091
 21
-0.4204545454545042
 31
0.0
  0
ARC
  5
3F3C
  8
ﾋ_ｽ
 10
1.5977272727270699
 20
1.5977272727272971
 30
0.0
 40
1.177272727272711
 50
180.0
 51
270.0
  0
LINE
  5
3F3D
  8
ﾋ_ｽ
 10
1.5977272727270699
 20
0.420454545454561
 30
0.0
 11
1.850000000000136
 21
0.420454545454561
 31
0.0
  0
LINE
  5
3F3E
  8
ﾋ_ｽ
 10
0.4204545454545042
 20
1.8500000000000221
 30
0.0
 11
0.4204545454545042
 21
1.597727272727411
 31
0.0
  0
ENDBLK
  5
3F41
  8
0
  0
BLOCK
  8
0
  2
A$C1ABF00C0
 70
     0
 10
0.0
 20
0.0
 30
0.0
  3
A$C1ABF00C0
  1

  0
CIRCLE
  5
3F47
  8
ﾋ_ｽ
 10
0.0
 20
0.0
 30
0.0
 40
2.9999999999975859
  0
ARC
  5
3F48
  8
ﾋ_ｽ
 10
-1.554545454545404
 20
1.5545454545454609
 30
0.0
 40
1.1454545454545391
 50
270.0
 51
0.0
  0
ARC
  5
3F49
  8
ﾋ_ｽ
 10
-1.554545454545404
 20
-1.554545454545404
 30
0.0
 40
1.1454545454545391
 50
0.0
 51
90.0
  0
LINE
  5
3F4A
  8
ﾋ_ｽ
 10
-1.7999999999999541
 20
0.4090909090908781
 30
0.0
 11
-1.554545454545404
 21
0.4090909090908781
 31
0.0
  0
LINE
  5
3F4B
  8
ﾋ_ｽ
 10
-1.7999999999999541
 20
-0.4090909090908781
 30
0.0
 11
-1.7999999999999541
 21
0.4090909090908781
 31
0.0
  0
LINE
  5
3F4C
  8
ﾋ_ｽ
 10
-1.554545454545404
 20
-0.4090909090908781
 30
0.0
 11
-1.7999999999999541
 21
-0.4090909090908781
 31
0.0
  0
LINE
  5
3F4D
  8
ﾋ_ｽ
 10
-0.4090909090907644
 20
1.5545454545454609
 30
0.0
 11
-0.4090909090907644
 21
1.800000000000068
 31
0.0
  0
LINE
  5
3F4E
  8
ﾋ_ｽ
 10
-0.4090909090907644
 20
-1.7999999999999541
 30
0.0
 11
-0.4090909090907644
 21
-1.554545454545404
 31
0.0
  0
ARC
  5
3F4F
  8
ﾋ_ｽ
 10
1.5545454545456321
 20
-1.554545454545404
 30
0.0
 40
1.1454545454545391
 50
90.0
 51
180.0
  0
LINE
  5
3F50
  8
ﾋ_ｽ
 10
0.4090909090909918
 20
-1.800000000000068
 30
0.0
 11
-0.4090909090907644
 21
-1.800000000000068
 31
0.0
  0
LINE
  5
3F51
  8
ﾋ_ｽ
 10
0.4090909090909918
 20
-1.554545454545404
 30
0.0
 11
0.4090909090909918
 21
-1.800000000000068
 31
0.0
  0
LINE
  5
3F52
  8
ﾋ_ｽ
 10
1.7999999999999541
 20
-0.4090909090908781
 30
0.0
 11
1.5545454545456321
 21
-0.4090909090908781
 31
0.0
  0
LINE
  5
3F53
  8
ﾋ_ｽ
 10
1.7999999999999541
 20
0.409090909090935
 30
0.0
 11
1.7999999999999541
 21
-0.4090909090908781
 31
0.0
  0
ARC
  5
3F54
  8
ﾋ_ｽ
 10
1.554545454545404
 20
1.5545454545454609
 30
0.0
 40
1.1454545454545391
 50
180.0
 51
270.0
  0
LINE
  5
3F55
  8
ﾋ_ｽ
 10
1.554545454545404
 20
0.4090909090908781
 30
0.0
 11
1.7999999999999541
 21
0.4090909090908781
 31
0.0
  0
LINE
  5
3F56
  8
ﾋ_ｽ
 10
0.4090909090909918
 20
1.800000000000068
 30
0.0
 11
0.4090909090909918
 21
1.554545454545518
 31
0.0
  0
LINE
  5
3F57
  8
ﾋ_ｽ
 10
-0.4090909090907644
 20
1.800000000000068
 30
0.0
 11
0.4090909090909918
 21
1.800000000000068
 31
0.0
  0
ENDBLK
  5
3F5A
  8
0
  0
BLOCK
  8
0
  2
A$C6A810163
 70
     0
 10
0.0
 20
0.0
 30
0.0
  3
A$C6A810163
  1

  0
LINE
  5
3F60
  8
ﾋ_ｽ
 10
2.7500000000002269
 20
-1.4999999999998861
 30
0.0
 11
10.0
 21
-1.500000000000056
 31
0.0
  0
LINE
  5
3F61
  8
ﾋ_ｽ
 10
10.0
 20
1.5
 30
0.0
 11
2.75
 21
1.500000000000056
 31
0.0
  0
LINE
  5
3F62
  8
ﾋ_ｽ0
 10
2.1242640687119092
 20
1.25
 30
0.0
 11
10.0
 21
1.25
 31
0.0
  0
LINE
  5
3F63
  8
ﾋ_ｽ0
 10
10.0
 20
-1.2499999999999429
 30
0.0
 11
2.1242640687121361
 21
-1.2499999999998861
 31
0.0
  0
LINE
  5
3F64
  8
ﾋ_ｽ
 10
1.912132034356091
 20
1.337867965644022
 30
0.0
 11
0.25
 21
3.0
 31
0.0
  0
LINE
  5
3F65
  8
ﾋ_ｽ
 10
0.25
 20
-3.0
 30
0.0
 11
0.25
 21
3.0
 31
0.0
  0
LINE
  5
3F66
  8
ﾋ_ｽ
 10
0.0
 20
3.0
 30
0.0
 11
0.0
 21
-3.0
 31
0.0
  0
LINE
  5
3F67
  8
ﾋ_ｽ
 10
0.25
 20
-3.0
 30
0.0
 11
1.912132034356091
 21
-1.3378679656439649
 31
0.0
  0
LINE
  5
3F68
  8
ﾋ_ｽ
 10
0.0
 20
-3.0
 30
0.0
 11
0.25
 21
-3.0
 31
0.0
  0
LINE
  5
3F69
  8
ﾋ_ｽ0
 10
1.75
 20
-1.5
 30
0.0
 11
1.75
 21
1.5
 31
0.0
  0
LINE
  5
3F6A
  8
ﾋ_ｽ
 10
2.0380053120384209
 20
-1.2626684373460639
 30
0.0
 11
2.75
 21
-1.5
 31
0.0
  0
LINE
  5
3F6B
  8
ﾋ_ｽ
 10
2.75
 20
-1.5
 30
0.0
 11
2.75
 21
1.5
 31
0.0
  0
LINE
  5
3F6C
  8
ﾋ_ｽ
 10
2.75
 20
1.5
 30
0.0
 11
2.0380053120384209
 21
1.2626684373461781
 31
0.0
  0
LINE
  5
3F6D
  8
ﾋ_ｽ
 10
0.0
 20
3.0
 30
0.0
 11
0.2500000000002274
 21
3.0
 31
0.0
  0
ARC
  5
3F6E
  8
ﾋ_ｽ
 10
2.1242640687121361
 20
-1.5499999999999541
 30
0.0
 40
0.3
 50
90.0
 51
134.99999999999301
1001
GENIUS_GENOBJ-N-FIL_13
1002
{
1000
OWNER
1000
GEN
1002
}
1001
GENIUS_GENODEF_13
1002
{
1000
HIER
1070
     0
1002
}
1002
{
1000
MANEDIT
1070
     0
1002
}
1002
{
1000
NOSEL
1070
     0
1002
}
1002
{
1000
BEHIND
1070
     0
1002
}
1002
{
1000
OTHER
1070
     0
1002
}
1002
{
1000
REACTOR
1002
}
  0
ARC
  5
3F6F
  8
ﾋ_ｽ
 10
2.1242640687119092
 20
1.5500000000000109
 30
0.0
 40
0.3
 50
225.00000000000691
 51
270.0
1001
GENIUS_GENODEF_13
1002
{
1000
HIER
1070
     0
1002
}
1002
{
1000
MANEDIT
1070
     0
1002
}
1002
{
1000
NOSEL
1070
     0
1002
}
1002
{
1000
BEHIND
1070
     0
1002
}
1002
{
1000
OTHER
1070
     0
1002
}
1002
{
1000
REACTOR
1002
}
1001
GENIUS_GENOBJ-N-FIL_13
1002
{
1000
OWNER
1000
GEN
1002
}
  0
LINE
  5
3F70
  8
ﾋ_ｽ
 10
10.0
 20
-1.500000000000056
 30
0.0
 11
10.0
 21
1.5
 31
0.0
  0
ENDBLK
  5
3F73
  8
0
  0
BLOCK
  8
0
  2
A$C09FA6B72
 70
     0
 10
0.0
 20
0.0
 30
0.0
  3
A$C09FA6B72
  1

  0
CIRCLE
  5
3F79
  8
ﾋ_ｽ
 10
0.0
 20
0.0
 30
0.0
 40
2.2999999999999989
  0
CIRCLE
  5
3F7A
  8
ﾋ_ｽ
 10
0.0
 20
0.0
 30
0.0
 40
1.229367061317385
  0
LINE
  5
3F7B
  8
ﾋ_ｽ
 10
-2.75
 20
-1.5877132402714551
 30
0.0
 11
0.0
 21
-3.175426480543023
 31
0.0
  0
LINE
  5
3F7C
  8
ﾋ_ｽ
 10
0.0
 20
-3.175426480543023
 30
0.0
 11
2.75
 21
-1.587713240271398
 31
0.0
  0
LINE
  5
3F7D
  8
ﾋ_ｽ
 10
2.75
 20
-1.587713240271398
 30
0.0
 11
2.75
 21
1.5877132402714551
 31
0.0
  0
LINE
  5
3F7E
  8
ﾋ_ｽ
 10
2.75
 20
1.5877132402714551
 30
0.0
 11
0.0
 21
3.1754264805429102
 31
0.0
  0
LINE
  5
3F7F
  8
ﾋ_ｽ
 10
0.0
 20
3.1754264805429102
 30
0.0
 11
-2.75
 21
1.5877132402712839
 31
0.0
  0
LINE
  5
3F80
  8
ﾋ_ｽ
 10
-2.75
 20
1.5877132402712839
 30
0.0
 11
-2.75
 21
-1.5877132402714551
 31
0.0
  0
CIRCLE
  5
3F81
  8
ﾋ_ｽ0
 10
0.0
 20
0.0
 30
0.0
 40
1.5
  0
ENDBLK
  5
3F84
  8
0
  0
BLOCK
  8
0
  2
A$C6C857347
 70
     0
 10
0.0
 20
0.0
 30
0.0
  3
A$C6C857347
  1

  0
ARC
  5
3F8A
  8
ﾋ_ｽ
 10
1.374999999999772
 20
-1.8240971075905461
 30
0.0
 40
3.9642894864552431
 50
69.705445160769088
 51
110.2945548392309
  0
ARC
  5
3F8B
  8
ﾋ_ｽ
 10
1.374999999999772
 20
4.2240971075906373
 30
0.0
 40
3.9642894864552569
 50
249.70544516076919
 51
290.2945548392309
  0
LINE
  5
3F8C
  8
ﾋ_ｽ
 10
-2.2999999999999541
 20
2.4000000000000901
 30
0.0
 11
2.2999999999999541
 21
2.4000000000000901
 31
0.0
  0
LINE
  5
3F8D
  8
ﾋ_ｽ
 10
2.2999999999999541
 20
0.0
 30
0.0
 11
-2.2999999999999541
 21
0.0
 31
0.0
  0
LINE
  5
3F8E
  8
ﾋ_ｽ
 10
2.75
 20
0.259807621135451
 30
0.0
 11
2.75
 21
2.1401923788646391
 31
0.0
  0
LINE
  5
3F8F
  8
ﾋ_ｽ
 10
2.2999999999999541
 20
0.0
 30
0.0
 11
2.75
 21
0.259807621135451
 31
0.0
  0
LINE
  5
3F90
  8
ﾋ_ｽ
 10
2.75
 20
2.1401923788646391
 30
0.0
 11
2.2999999999999541
 21
2.4000000000000901
 31
0.0
  0
LINE
  5
3F91
  8
ﾋ_ｽ
 10
0.0
 20
0.5059031733774191
 30
0.0
 11
0.0
 21
1.894096826622671
 31
0.0
  0
LINE
  5
3F92
  8
ﾋ_ｽ
 10
-2.75
 20
0.259807621135451
 30
0.0
 11
-2.75
 21
2.1401923788646391
 31
0.0
  0
ARC
  5
3F93
  8
ﾋ_ｽ
 10
-1.3750000000002269
 20
4.2240971075906373
 30
0.0
 40
3.9642894864552569
 50
249.70544516076919
 51
290.2945548392309
  0
LINE
  5
3F94
  8
ﾋ_ｽ
 10
-2.2999999999999541
 20
0.0
 30
0.0
 11
-2.75
 21
0.259807621135451
 31
0.0
  0
ARC
  5
3F95
  8
ﾋ_ｽ
 10
-1.3750000000002269
 20
-1.8240971075905461
 30
0.0
 40
3.9642894864552431
 50
69.705445160769088
 51
110.2945548392309
  0
LINE
  5
3F96
  8
ﾋ_ｽ
 10
-2.75
 20
2.1401923788646391
 30
0.0
 11
-2.2999999999999541
 21
2.4000000000000901
 31
0.0
  0
ENDBLK
  5
3F99
  8
0
  0
BLOCK
  8
0
  2
A$C11BD6C1B
 70
     0
 10
0.0
 20
0.0
 30
0.0
  3
A$C11BD6C1B
  1

  0
ARC
  5
3F9F
  8
ﾋ_ｽ
 10
-1.6639335154136461
 20
2.3821874999999859
 30
0.0
 40
1.404125894278188
 50
325.56153059526628
 51
25.56153059527265
  0
ARC
  5
3FA0
  8
ﾋ_ｽ
 10
-0.7360664845864449
 20
2.3821874999999859
 30
0.0
 40
1.404125894278188
 50
154.43846940473881
 51
214.4384694047337
  0
LINE
  5
3FA1
  8
ﾋ_ｽ
 10
0.0
 20
2.3000000000000109
 30
0.0
 11
0.0
 21
-2.3000000000000109
 31
0.0
  0
LINE
  5
3FA2
  8
ﾋ_ｽ
 10
-2.4000000000000901
 20
2.3000000000000109
 30
0.0
 11
-2.4000000000000901
 21
-2.3000000000000109
 31
0.0
  0
ARC
  5
3FA3
  8
ﾋ_ｽ
 10
-1.6639335154136461
 20
-2.3821874999999859
 30
0.0
 40
1.4041258942781909
 50
334.43846940472741
 51
34.438469404733659
  0
ARC
  5
3FA4
  8
ﾋ_ｽ
 10
-5.507167869885051
 20
0.0
 30
0.0
 40
5.2473602487496311
 50
342.38303115961389
 51
17.616968840386079
  0
ARC
  5
3FA5
  8
ﾋ_ｽ
 10
3.1071678698849601
 20
0.0
 30
0.0
 40
5.2473602487496169
 50
162.38303115961389
 51
197.61696884038611
  0
ARC
  5
3FA6
  8
ﾋ_ｽ
 10
-0.7360664845864449
 20
-2.3821874999999859
 30
0.0
 40
1.404125894278188
 50
145.5615305952663
 51
205.5615305952727
  0
LINE
  5
3FA7
  8
ﾋ_ｽ
 10
-0.5059031733774191
 20
-3.1762499999999809
 30
0.0
 11
0.0
 21
-2.3000000000000109
 31
0.0
  0
LINE
  5
3FA8
  8
ﾋ_ｽ
 10
-1.894096826622671
 20
1.58812499999999
 30
0.0
 11
-0.5059031733774191
 21
1.58812499999999
 31
0.0
  0
LINE
  5
3FA9
  8
ﾋ_ｽ
 10
-1.894096826622671
 20
-3.1762499999999809
 30
0.0
 11
-2.4000000000000901
 21
-2.3000000000000109
 31
0.0
  0
LINE
  5
3FAA
  8
ﾋ_ｽ
 10
-1.894096826622671
 20
-3.1762499999999809
 30
0.0
 11
-0.5059031733774191
 21
-3.1762499999999809
 31
0.0
  0
LINE
  5
3FAB
  8
ﾋ_ｽ
 10
-1.894096826622671
 20
-1.58812499999999
 30
0.0
 11
-0.5059031733774191
 21
-1.58812499999999
 31
0.0
  0
LINE
  5
3FAC
  8
ﾋ_ｽ
 10
-0.5059031733774191
 20
3.1762499999999809
 30
0.0
 11
0.0
 21
2.3000000000000109
 31
0.0
  0
LINE
  5
3FAD
  8
ﾋ_ｽ
 10
-1.894096826622671
 20
3.1762499999999809
 30
0.0
 11
-2.4000000000000901
 21
2.3000000000000109
 31
0.0
  0
LINE
  5
3FAE
  8
ﾋ_ｽ
 10
-1.894096826622671
 20
3.1762499999999809
 30
0.0
 11
-0.5059031733774191
 21
3.1762499999999809
 31
0.0
  0
ENDBLK
  5
3FB1
  8
0
  0
BLOCK
  8
0
  2
*D16
 70
     1
 10
0.0
 20
0.0
 30
0.0
  3
*D16
  1

  0
LINE
  5
46E2
  8
AM_5
 10
185.61472463575859
 20
380.59847949193988
 30
0.0
 11
185.61472463575859
 21
424.59847949193983
 31
0.0
  0
LINE
  5
46E3
  8
AM_5
 10
328.61472463575859
 20
380.5984794919404
 30
0.0
 11
328.61472463575859
 21
424.59847949193983
 31
0.0
  0
LINE
  5
46E4
  8
AM_5
 10
190.61472463575859
 20
422.59847949193988
 30
0.0
 11
323.61472463575859
 21
422.59847949193988
 31
0.0
  0
INSERT
  5
46E5
  8
AM_5
  2
_OPEN30
 10
185.61472463575859
 20
422.59847949193988
 30
0.0
 41
5.0
 42
5.0
 43
5.0
 50
180.0
  0
INSERT
  5
46E6
  8
AM_5
  2
_OPEN30
 10
328.61472463575859
 20
422.59847949193988
 30
0.0
 41
5.0
 42
5.0
 43
5.0
  0
TEXT
  8
AM_5
  40
7
  5
47C9
  62
2
  72
0
  71
0
 10
257.115
 20
419.998
 30
0.000000
  1
143
  0
POINT
  5
46E8
  8
DEFPOINTS
 62
     0
 10
185.61472463575859
 20
378.59847949193988
 30
0.0
  0
POINT
  5
46E9
  8
DEFPOINTS
 62
     0
 10
328.61472463575859
 20
378.5984794919404
 30
0.0
  0
POINT
  5
46EA
  8
DEFPOINTS
 62
     0
 10
328.61472463575859
 20
422.59847949193988
 30
0.0
  0
ENDBLK
  5
4299
  8
0
  0
BLOCK
  8
0
  2
*D17
 70
     1
 10
0.0
 20
0.0
 30
0.0
  3
*D17
  1

  0
LINE
  5
46EB
  8
AM_5
 10
183.61472463575859
 20
378.5984794919404
 30
0.0
 11
159.6147246357578
 21
378.5984794919404
 31
0.0
  0
LINE
  5
46EC
  8
AM_5
 10
183.61472463575791
 20
211.5984794919404
 30
0.0
 11
159.6147246357578
 21
211.5984794919404
 31
0.0
  0
LINE
  5
46ED
  8
AM_5
 10
161.61472463575791
 20
373.59847949194028
 30
0.0
 11
161.6147246357578
 21
216.5984794919404
 31
0.0
  0
INSERT
  5
46EE
  8
AM_5
  2
_OPEN30
 10
161.61472463575791
 20
378.5984794919404
 30
0.0
 41
5.0
 42
5.0
 43
5.0
 50
90.0
  0
INSERT
  5
46EF
  8
AM_5
  2
_OPEN30
 10
161.6147246357578
 20
211.5984794919404
 30
0.0
 41
5.0
 42
5.0
 43
5.0
 50
270.0
  0
TEXT
  8
AM_5
  40
7
  5
47CA
  62
2
  72
0
  71
0
 10
155.115
 20
285.998
 30
0.000000
  1
167
  0
POINT
  5
46F1
  8
DEFPOINTS
 62
     0
 10
185.61472463575859
 20
378.5984794919404
 30
0.0
  0
POINT
  5
46F2
  8
DEFPOINTS
 62
     0
 10
185.61472463575791
 20
211.5984794919404
 30
0.0
  0
POINT
  5
46F3
  8
DEFPOINTS
 62
     0
 10
161.6147246357578
 20
211.5984794919404
 30
0.0
  0
ENDBLK
  5
429B
  8
0
  0
BLOCK
  8
0
  2
*D18
 70
     1
 10
0.0
 20
0.0
 30
0.0
  3
*D18
  1

  0
LINE
  5
46F4
  8
AM_5
 10
510.20036355424429
 20
380.59847949193988
 30
0.0
 11
510.20036355424429
 21
424.59847949193983
 31
0.0
  0
LINE
  5
46F5
  8
AM_5
 10
527.20036355424452
 20
393.0984794919404
 30
0.0
 11
527.20036355424452
 21
424.59847949193983
 31
0.0
  0
LINE
  5
46F6
  8
AM_5
 10
515.20036355424429
 20
422.59847949193988
 30
0.0
 11
522.20036355424452
 21
422.59847949193988
 31
0.0
  0
INSERT
  5
46F7
  8
AM_5
  2
_OPEN30
 10
510.20036355424429
 20
422.59847949193988
 30
0.0
 41
5.0
 42
5.0
 43
5.0
 50
180.0
  0
INSERT
  5
46F8
  8
AM_5
  2
_OPEN30
 10
527.20036355424452
 20
422.59847949193988
 30
0.0
 41
5.0
 42
5.0
 43
5.0
  0
TEXT
  8
AM_5
  40
7
  5
47CB
  62
2
  72
0
  71
0
 10
518.700
 20
419.998
 30
0.000000
  1
17
  0
POINT
  5
46FA
  8
DEFPOINTS
 62
     0
 10
510.20036355424429
 20
378.59847949193988
 30
0.0
  0
POINT
  5
46FB
  8
DEFPOINTS
 62
     0
 10
527.20036355424452
 20
391.0984794919404
 30
0.0
  0
POINT
  5
46FC
  8
DEFPOINTS
 62
     0
 10
527.20036355424452
 20
422.59847949193988
 30
0.0
  0
ENDBLK
  5
42A5
  8
0
  0
BLOCK
  8
0
  2
*S19
 70
     1
 10
0.0
 20
0.0
 30
0.0
  3
*S19
  1

  0
CIRCLE
  5
456C
  8
AM_12
 62
     4
 10
308.55612154199378
 20
316.56134497897358
 30
0.0
 40
3.5
  0
LINE
  5
456D
  8
AM_12
 62
     4
 10
305.05612154199378
 20
313.06134497897358
 30
0.0
 11
312.05612154199378
 21
320.06134497897358
 31
0.0
  0
LINE
  5
456E
  8
AM_12
 62
     4
 10
305.05612154199378
 20
320.06134497897358
 30
0.0
 11
312.05612154199378
 21
313.06134497897358
 31
0.0
  0
ENDBLK
  5
4570
  8
0
  0
BLOCK
  8
0
  2
*S20
 70
     1
 10
0.0
 20
0.0
 30
0.0
  3
*S20
  1

  0
CIRCLE
  5
4573
  8
AM_12
 62
     4
 10
527.05925010697229
 20
386.14867540928913
 30
0.0
 40
3.5
  0
LINE
  5
4574
  8
AM_12
 62
     4
 10
523.55925010697229
 20
382.64867540928913
 30
0.0
 11
530.55925010697229
 21
389.64867540928913
 31
0.0
  0
LINE
  5
4575
  8
AM_12
 62
     4
 10
523.55925010697229
 20
389.64867540928913
 30
0.0
 11
530.55925010697229
 21
382.64867540928913
 31
0.0
  0
ENDBLK
  5
4577
  8
0
  0
BLOCK
  8
0
  2
*S21
 70
     1
 10
0.0
 20
0.0
 30
0.0
  3
*S21
  1

  0
LINE
  5
457A
  8
AM_5
 10
348.3094420209265
 20
343.77253147619268
 30
0.0
 11
314.33249037697391
 21
320.51527505957318
 31
0.0
  0
TRACE
  5
457B
  8
AM_5
 10
313.81194560889958
 20
321.2757484402913
 30
0.0
 11
314.85303514504818
 21
319.75480167885507
 31
0.0
 12
308.55612154199378
 22
316.56134497897358
 32
0.0
 13
308.55612154199378
 23
316.56134497897358
 33
0.0
  0
INSERT
  5
457C
  8
0
  2
*U80
 10
0.0
 20
0.0
 30
0.0
  0
CIRCLE
  5
457D
  8
AM_5
 62
     3
 10
358.4180874821418
 20
350.69190911724201
 30
0.0
 40
12.25
  0
ENDBLK
  5
457F
  8
0
  0
BLOCK
  8
0
  2
*S22
 70
     1
 10
0.0
 20
0.0
 30
0.0
  3
*S22
  1

  0
LINE
  5
4582
  8
AM_5
 10
557.48502539488311
 20
399.33121760960699
 30
0.0
 11
533.48229046045742
 21
388.93157903994222
 31
0.0
  0
TRACE
  5
4583
  8
AM_5
 10
533.11591424857158
 20
389.77718834081031
 30
0.0
 11
533.84866667234326
 21
388.08596973907407
 31
0.0
 12
527.05925010697229
 22
386.14867540928913
 32
0.0
 13
527.05925010697229
 23
386.14867540928913
 33
0.0
  0
INSERT
  5
4584
  8
0
  2
*U81
 10
0.0
 20
0.0
 30
0.0
  0
CIRCLE
  5
4585
  8
AM_5
 62
     3
 10
568.72534601348207
 20
404.20129896324988
 30
0.0
 40
12.25
  0
ENDBLK
  5
4587
  8
0
  0
BLOCK
  8
0
  2
*S23
 70
     1
 10
0.0
 20
0.0
 30
0.0
  3
*S23
  1

  0
CIRCLE
  5
458A
  8
AM_12
 62
     4
 10
746.99796830746789
 20
157.40974263800169
 30
0.0
 40
3.5
  0
LINE
  5
458B
  8
AM_12
 62
     4
 10
743.49796830746789
 20
153.90974263800169
 30
0.0
 11
750.49796830746789
 21
160.90974263800169
 31
0.0
  0
LINE
  5
458C
  8
AM_12
 62
     4
 10
743.49796830746789
 20
160.90974263800169
 30
0.0
 11
750.49796830746789
 21
153.90974263800169
 31
0.0
  0
ENDBLK
  5
458E
  8
0
  0
BLOCK
  8
0
  2
*S24
 70
     1
 10
0.0
 20
0.0
 30
0.0
  3
*S24
  1

  0
LINE
  5
4591
  8
AM_5
 10
704.77294776993813
 20
178.77532681746001
 30
0.0
 11
740.75202351932035
 21
160.57014984331749
 31
0.0
  0
TRACE
  5
4592
  8
AM_5
 10
740.33594801920378
 20
159.74785561583371
 30
0.0
 11
741.16809901943702
 21
161.3924440708013
 31
0.0
 12
746.99796830746789
 22
157.40974263800169
 32
0.0
 13
746.99796830746789
 23
157.40974263800169
 33
0.0
  0
INSERT
  5
4593
  8
0
  2
*U82
 10
0.0
 20
0.0
 30
0.0
  0
CIRCLE
  5
4594
  8
AM_5
 62
     3
 10
693.84254439067979
 20
184.30603942676271
 30
0.0
 40
12.25
  0
ENDBLK
  5
4596
  8
0
  0
BLOCK
  8
0
  2
*S25
 70
     1
 10
0.0
 20
0.0
 30
0.0
  3
*S25
  1

  0
CIRCLE
  5
4599
  8
AM_12
 62
     4
 10
747.1580985650279
 20
378.99455173810378
 30
0.0
 40
3.5
  0
LINE
  5
459A
  8
AM_12
 62
     4
 10
743.65809856502801
 20
375.49455173810389
 30
0.0
 11
750.65809856502801
 21
382.49455173810378
 31
0.0
  0
LINE
  5
459B
  8
AM_12
 62
     4
 10
743.65809856502801
 20
382.49455173810378
 30
0.0
 11
750.65809856502801
 21
375.49455173810389
 31
0.0
  0
ENDBLK
  5
459D
  8
0
  0
BLOCK
  8
0
  2
*S26
 70
     1
 10
0.0
 20
0.0
 30
0.0
  3
*S26
  1

  0
LINE
  5
45A0
  8
AM_5
 10
703.49223576862357
 20
408.93650502413368
 30
0.0
 11
741.38497485738912
 21
382.95321851573198
 31
0.0
  0
TRACE
  5
45A1
  8
AM_5
 10
740.86380649132343
 20
382.1931723641315
 30
0.0
 11
741.90614322345482
 21
383.71326466733262
 31
0.0
 12
747.1580985650279
 22
378.99455173810378
 32
0.0
 13
747.1580985650279
 23
378.99455173810378
 33
0.0
  0
INSERT
  5
45A2
  8
0
  2
*U83
 10
0.0
 20
0.0
 30
0.0
  0
CIRCLE
  5
45A3
  8
AM_5
 62
     3
 10
693.38926928025546
 20
415.86417188498302
 30
0.0
 40
12.25
  0
ENDBLK
  5
45A5
  8
0
  0
BLOCK
  8
0
  2
*S27
 70
     1
 10
0.0
 20
0.0
 30
0.0
  3
*S27
  1

  0
CIRCLE
  5
45A8
  8
AM_12
 62
     4
 10
747.12240913359619
 20
302.97997522248352
 30
0.0
 40
3.5
  0
LINE
  5
45A9
  8
AM_12
 62
     4
 10
743.62240913359619
 20
299.47997522248352
 30
0.0
 11
750.62240913359619
 21
306.47997522248352
 31
0.0
  0
LINE
  5
45AA
  8
AM_12
 62
     4
 10
743.62240913359619
 20
306.47997522248352
 30
0.0
 11
750.62240913359619
 21
299.47997522248352
 31
0.0
  0
ENDBLK
  5
45AC
  8
0
  0
BLOCK
  8
0
  2
*S28
 70
     1
 10
0.0
 20
0.0
 30
0.0
  3
*S28
  1

  0
LINE
  5
45AF
  8
AM_5
 10
705.45320276176312
 20
329.13080127582879
 30
0.0
 11
741.19331048993081
 21
306.70096827188382
 31
0.0
  0
TRACE
  5
45B0
  8
AM_5
 10
740.70343246365746
 20
305.920387630486
 30
0.0
 11
741.68318851620404
 21
307.4815489132817
 31
0.0
 12
747.12240913359619
 22
302.97997522248352
 32
0.0
 13
747.12240913359619
 23
302.97997522248352
 33
0.0
  0
INSERT
  5
45B1
  8
0
  2
*U84
 10
0.0
 20
0.0
 30
0.0
  0
CIRCLE
  5
45B2
  8
AM_5
 62
     3
 10
695.0772801353487
 20
335.64253911227928
 30
0.0
 40
12.25
  0
ENDBLK
  5
45B4
  8
0
  0
BLOCK
  8
0
  2
*S29
 70
     1
 10
0.0
 20
0.0
 30
0.0
  3
*S29
  1

  0
CIRCLE
  5
45B7
  8
AM_12
 62
     4
 10
746.7711810258578
 20
227.7808237999748
 30
0.0
 40
3.5
  0
LINE
  5
45B8
  8
AM_12
 62
     4
 10
743.27118102585791
 20
224.2808237999748
 30
0.0
 11
750.27118102585791
 21
231.2808237999748
 31
0.0
  0
LINE
  5
45B9
  8
AM_12
 62
     4
 10
743.27118102585791
 20
231.2808237999748
 30
0.0
 11
750.27118102585791
 21
224.2808237999748
 31
0.0
  0
ENDBLK
  5
45BB
  8
0
  0
BLOCK
  8
0
  2
*S30
 70
     1
 10
0.0
 20
0.0
 30
0.0
  3
*S30
  1

  0
LINE
  5
45BE
  8
AM_5
 10
705.86376149379839
 20
258.04435903079792
 30
0.0
 11
741.14376449804683
 21
231.94401767277469
 31
0.0
  0
TRACE
  5
45BF
  8
AM_5
 10
740.59566962919757
 20
231.20315423522931
 30
0.0
 11
741.6918593668961
 21
232.68488111032011
 31
0.0
 12
746.7711810258578
 22
227.7808237999748
 32
0.0
 13
746.7711810258578
 23
227.7808237999748
 33
0.0
  0
INSERT
  5
45C0
  8
0
  2
*U85
 10
0.0
 20
0.0
 30
0.0
  0
CIRCLE
  5
45C1
  8
AM_5
 62
     3
 10
696.01578257012898
 20
265.3299483081978
 30
0.0
 40
12.25
  0
ENDBLK
  5
45C3
  8
0
  0
BLOCK
  8
0
  2
*S31
 70
     1
 10
0.0
 20
0.0
 30
0.0
  3
*S31
  1

  0
LINE
  5
45C6
  8
0
 62
     1
 10
420.0
 20
522.95000000000005
 30
0.0
 11
806.0
 21
522.95000000000005
 31
0.0
  0
LINE
  5
45C7
  8
0
 62
     1
 10
420.0
 20
510.60000000000002
 30
0.0
 11
806.0
 21
510.60000000000002
 31
0.0
  0
LINE
  5
45C8
  8
0
 62
     1
 10
420.0
 20
498.24999999999989
 30
0.0
 11
806.0
 21
498.24999999999989
 31
0.0
  0
LINE
  5
45C9
  8
0
 62
     1
 10
420.0
 20
485.89999999999992
 30
0.0
 11
806.0
 21
485.89999999999992
 31
0.0
  0
LINE
  5
45CA
  8
0
 62
     1
 10
420.0
 20
473.55000000000001
 30
0.0
 11
806.0
 21
473.55000000000001
 31
0.0
  0
INSERT
  5
45CB
  8
0
  2
*U86
 10
0.0
 20
0.0
 30
0.0
  0
LINE
  5
45CC
  8
0
 62
     1
 10
450.0
 20
535.29999999999995
 30
0.0
 11
450.0
 21
522.95000000000005
 31
0.0
  0
INSERT
  5
45CD
  8
0
  2
*U87
 10
0.0
 20
0.0
 30
0.0
  0
LINE
  5
45CE
  8
0
 62
     1
 10
570.0
 20
535.29999999999995
 30
0.0
 11
570.0
 21
522.95000000000005
 31
0.0
  0
INSERT
  5
45CF
  8
0
  2
*U88
 10
0.0
 20
0.0
 30
0.0
  0
LINE
  5
45D0
  8
0
 62
     1
 10
600.0
 20
535.29999999999995
 30
0.0
 11
600.0
 21
522.95000000000005
 31
0.0
  0
INSERT
  5
45D1
  8
0
  2
*U89
 10
0.0
 20
0.0
 30
0.0
  0
LINE
  5
45D2
  8
0
 62
     1
 10
680.0
 20
535.29999999999995
 30
0.0
 11
680.0
 21
522.95000000000005
 31
0.0
  0
INSERT
  5
45D3
  8
0
  2
*U90
 10
0.0
 20
0.0
 30
0.0
  0
INSERT
  5
45D4
  8
0
  2
*U91
 10
0.0
 20
0.0
 30
0.0
  0
LINE
  5
45D5
  8
0
 62
     1
 10
450.0
 20
522.95000000000005
 30
0.0
 11
450.0
 21
510.60000000000002
 31
0.0
  0
INSERT
  5
45D6
  8
0
  2
*U92
 10
0.0
 20
0.0
 30
0.0
  0
LINE
  5
45D7
  8
0
 62
     1
 10
570.0
 20
522.95000000000005
 30
0.0
 11
570.0
 21
510.60000000000002
 31
0.0
  0
INSERT
  5
45D8
  8
0
  2
*U93
 10
0.0
 20
0.0
 30
0.0
  0
LINE
  5
45D9
  8
0
 62
     1
 10
600.0
 20
522.95000000000005
 30
0.0
 11
600.0
 21
510.60000000000002
 31
0.0
  0
INSERT
  5
45DA
  8
0
  2
*U94
 10
0.0
 20
0.0
 30
0.0
  0
LINE
  5
45DB
  8
0
 62
     1
 10
680.0
 20
522.95000000000005
 30
0.0
 11
680.0
 21
510.60000000000002
 31
0.0
  0
INSERT
  5
45DC
  8
0
  2
*U95
 10
0.0
 20
0.0
 30
0.0
  0
INSERT
  5
45DD
  8
0
  2
*U96
 10
0.0
 20
0.0
 30
0.0
  0
LINE
  5
45DE
  8
0
 62
     1
 10
450.0
 20
510.60000000000002
 30
0.0
 11
450.0
 21
498.24999999999989
 31
0.0
  0
INSERT
  5
45DF
  8
0
  2
*U97
 10
0.0
 20
0.0
 30
0.0
  0
LINE
  5
45E0
  8
0
 62
     1
 10
570.0
 20
510.60000000000002
 30
0.0
 11
570.0
 21
498.24999999999989
 31
0.0
  0
INSERT
  5
45E1
  8
0
  2
*U98
 10
0.0
 20
0.0
 30
0.0
  0
LINE
  5
45E2
  8
0
 62
     1
 10
600.0
 20
510.60000000000002
 30
0.0
 11
600.0
 21
498.24999999999989
 31
0.0
  0
INSERT
  5
45E3
  8
0
  2
*U99
 10
0.0
 20
0.0
 30
0.0
  0
LINE
  5
45E4
  8
0
 62
     1
 10
680.0
 20
510.60000000000002
 30
0.0
 11
680.0
 21
498.24999999999989
 31
0.0
  0
INSERT
  5
45E5
  8
0
  2
*U100
 10
0.0
 20
0.0
 30
0.0
  0
INSERT
  5
45E6
  8
0
  2
*U101
 10
0.0
 20
0.0
 30
0.0
  0
LINE
  5
45E7
  8
0
 62
     1
 10
450.0
 20
498.24999999999989
 30
0.0
 11
450.0
 21
485.89999999999992
 31
0.0
  0
INSERT
  5
45E8
  8
0
  2
*U102
 10
0.0
 20
0.0
 30
0.0
  0
LINE
  5
45E9
  8
0
 62
     1
 10
570.0
 20
498.24999999999989
 30
0.0
 11
570.0
 21
485.89999999999992
 31
0.0
  0
INSERT
  5
45EA
  8
0
  2
*U103
 10
0.0
 20
0.0
 30
0.0
  0
LINE
  5
45EB
  8
0
 62
     1
 10
600.0
 20
498.24999999999989
 30
0.0
 11
600.0
 21
485.89999999999992
 31
0.0
  0
INSERT
  5
45EC
  8
0
  2
*U104
 10
0.0
 20
0.0
 30
0.0
  0
LINE
  5
45ED
  8
0
 62
     1
 10
680.0
 20
498.24999999999989
 30
0.0
 11
680.0
 21
485.89999999999992
 31
0.0
  0
INSERT
  5
45EE
  8
0
  2
*U105
 10
0.0
 20
0.0
 30
0.0
  0
INSERT
  5
45EF
  8
0
  2
*U106
 10
0.0
 20
0.0
 30
0.0
  0
LINE
  5
45F0
  8
0
 62
     1
 10
450.0
 20
485.89999999999992
 30
0.0
 11
450.0
 21
473.55000000000001
 31
0.0
  0
INSERT
  5
45F1
  8
0
  2
*U107
 10
0.0
 20
0.0
 30
0.0
  0
LINE
  5
45F2
  8
0
 62
     1
 10
570.0
 20
485.89999999999992
 30
0.0
 11
570.0
 21
473.55000000000001
 31
0.0
  0
INSERT
  5
45F3
  8
0
  2
*U108
 10
0.0
 20
0.0
 30
0.0
  0
LINE
  5
45F4
  8
0
 62
     1
 10
600.0
 20
485.89999999999992
 30
0.0
 11
600.0
 21
473.55000000000001
 31
0.0
  0
INSERT
  5
45F5
  8
0
  2
*U109
 10
0.0
 20
0.0
 30
0.0
  0
LINE
  5
45F6
  8
0
 62
     1
 10
680.0
 20
485.89999999999992
 30
0.0
 11
680.0
 21
473.55000000000001
 31
0.0
  0
INSERT
  5
45F7
  8
0
  2
*U110
 10
0.0
 20
0.0
 30
0.0
  0
INSERT
  5
45F8
  8
0
  2
*U111
 10
0.0
 20
0.0
 30
0.0
  0
LINE
  5
45F9
  8
0
 62
     1
 10
450.0
 20
473.55000000000001
 30
0.0
 11
450.0
 21
461.19999999999999
 31
0.0
  0
INSERT
  5
45FA
  8
0
  2
*U112
 10
0.0
 20
0.0
 30
0.0
  0
LINE
  5
45FB
  8
0
 62
     1
 10
570.0
 20
473.55000000000001
 30
0.0
 11
570.0
 21
461.19999999999999
 31
0.0
  0
INSERT
  5
45FC
  8
0
  2
*U113
 10
0.0
 20
0.0
 30
0.0
  0
LINE
  5
45FD
  8
0
 62
     1
 10
600.0
 20
473.55000000000001
 30
0.0
 11
600.0
 21
461.19999999999999
 31
0.0
  0
INSERT
  5
45FE
  8
0
  2
*U114
 10
0.0
 20
0.0
 30
0.0
  0
LINE
  5
45FF
  8
0
 62
     1
 10
680.0
 20
473.55000000000001
 30
0.0
 11
680.0
 21
461.19999999999999
 31
0.0
  0
INSERT
  5
4600
  8
0
  2
*U115
 10
0.0
 20
0.0
 30
0.0
  0
LINE
  5
4601
  8
0
 62
     1
 10
420.0
 20
535.29999999999995
 30
0.0
 11
806.0
 21
535.29999999999995
 31
0.0
  0
INSERT
  5
4602
  8
0
  2
*U116
 10
0.0
 20
0.0
 30
0.0
  0
LINE
  5
4603
  8
0
 62
     1
 10
450.0
 20
547.64999999999986
 30
0.0
 11
450.0
 21
535.29999999999995
 31
0.0
  0
INSERT
  5
4604
  8
0
  2
*U117
 10
0.0
 20
0.0
 30
0.0
  0
LINE
  5
4605
  8
0
 62
     1
 10
570.0
 20
547.64999999999986
 30
0.0
 11
570.0
 21
535.29999999999995
 31
0.0
  0
INSERT
  5
4606
  8
0
  2
*U118
 10
0.0
 20
0.0
 30
0.0
  0
LINE
  5
4607
  8
0
 62
     1
 10
600.0
 20
547.64999999999986
 30
0.0
 11
600.0
 21
535.29999999999995
 31
0.0
  0
INSERT
  5
4608
  8
0
  2
*U119
 10
0.0
 20
0.0
 30
0.0
  0
LINE
  5
4609
  8
0
 62
     1
 10
680.0
 20
547.64999999999986
 30
0.0
 11
680.0
 21
535.29999999999995
 31
0.0
  0
INSERT
  5
460A
  8
0
  2
*U120
 10
0.0
 20
0.0
 30
0.0
  0
INSERT
  5
460B
  8
0
  2
*U121
 10
0.0
 20
0.0
 30
0.0
  0
LINE
  5
460C
  8
0
 62
     1
 10
420.0
 20
547.64999999999986
 30
0.0
 11
806.0
 21
547.64999999999986
 31
0.0
  0
LINE
  5
460D
  8
0
 62
     7
 10
420.0
 20
560.0
 30
0.0
 11
806.0
 21
560.0
 31
0.0
  0
LINE
  5
460E
  8
0
 62
     7
 10
806.0
 20
560.0
 30
0.0
 11
806.0
 21
461.19999999999999
 31
0.0
  0
LINE
  5
460F
  8
0
 62
     7
 10
806.0
 20
461.19999999999999
 30
0.0
 11
420.0
 21
461.19999999999999
 31
0.0
  0
LINE
  5
4610
  8
0
 62
     7
 10
420.0
 20
461.19999999999999
 30
0.0
 11
420.0
 21
560.0
 31
0.0
  0
ENDBLK
  5
4612
  8
0
  0
BLOCK
  8
0
  2
*U32
 70
     1
 10
0.0
 20
0.0
 30
0.0
  3
*U32
  1

  0
TEXT
  5
462B
  8
0
 10
375.30531168523061
 20
276.233542987227
 30
0.0
 40
2.5
  1
(文書番号：TY-5)2000.9
  0
ENDBLK
  5
462D
  8
0
  0
BLOCK
  8
0
  2
*U33
 70
     1
 10
0.0
 20
0.0
 30
0.0
  3
*U33
  1

  0
TEXT
  5
462F
  8
RAHM2
 10
-193.80025513713139
 20
3.3010354072796408
 30
0.0
 40
2.5
  1
図番
  0
ENDBLK
  5
4631
  8
0
  0
BLOCK
  8
0
  2
*U34
 70
     1
 10
0.0
 20
0.0
 30
0.0
  3
*U34
  1

  0
TEXT
  5
4633
  8
RAHM2
 10
-193.0
 20
21.249999999999972
 30
0.0
 40
2.5
  1
符号
  0
ENDBLK
  5
4635
  8
0
  0
BLOCK
  8
0
  2
*U35
 70
     1
 10
0.0
 20
0.0
 30
0.0
  3
*U35
  1

  0
TEXT
  5
4637
  8
RAHM2
 10
-193.80025513713139
 20
16.30103540727961
 30
0.0
 40
2.5
  1
品名
  0
ENDBLK
  5
4639
  8
0
  0
BLOCK
  8
0
  2
*U36
 70
     1
 10
0.0
 20
0.0
 30
0.0
  3
*U36
  1

  0
TEXT
  5
463B
  8
RAHM2
 10
-163.1448171868856
 20
21.249999999999972
 30
0.0
 40
2.5
  1
変更記事
  0
ENDBLK
  5
463D
  8
0
  0
BLOCK
  8
0
  2
*U37
 70
     1
 10
0.0
 20
0.0
 30
0.0
  3
*U37
  1

  0
TEXT
  5
463F
  8
0
 10
-88.85532994923858
 20
3.4187817258883251
 30
0.0
 40
3.5
  1
株式会社タカチ電機工業
  0
ENDBLK
  5
4641
  8
0
  0
BLOCK
  8
0
  2
*U38
 70
     1
 10
0.0
 20
0.0
 30
0.0
  3
*U38
  1

  0
TEXT
  5
4643
  8
RAHM2
 10
-123.3362656628704
 20
31.250000000000028
 30
0.0
 40
2.5
  1
・  ・   
  0
ENDBLK
  5
4645
  8
0
  0
BLOCK
  8
0
  2
*U39
 70
     1
 10
0.0
 20
0.0
 30
0.0
  3
*U39
  1

  0
TEXT
  5
4647
  8
RAHM2
 10
-126.238119805002
 20
21.249999999999972
 30
0.0
 40
2.5
  1
年・月・日
  0
ENDBLK
  5
4649
  8
0
  0
BLOCK
  8
0
  2
*U40
 70
     1
 10
0.0
 20
0.0
 30
0.0
  3
*U40
  1

  0
TEXT
  5
464B
  8
RAHM2
 10
-104.4702380952381
 20
21.249999999999972
 30
0.0
 40
2.5
  1
担当
  0
ENDBLK
  5
464D
  8
0
  0
BLOCK
  8
0
  2
*U41
 70
     1
 10
0.0
 20
0.0
 30
0.0
  3
*U41
  1

  0
TEXT
  5
464F
  8
RAHM2
 10
-123.3362656628704
 20
41.250000000000021
 30
0.0
 40
2.5
  1
・  ・   
  0
ENDBLK
  5
4651
  8
0
  0
BLOCK
  8
0
  2
*U42
 70
     1
 10
0.0
 20
0.0
 30
0.0
  3
*U42
  1

  0
TEXT
  5
4653
  8
RAHM2
 10
-123.3362656628704
 20
36.250000000000028
 30
0.0
 40
2.5
  1
・  ・   
  0
ENDBLK
  5
4655
  8
0
  0
BLOCK
  8
0
  2
*U43
 70
     1
 10
0.0
 20
0.0
 30
0.0
  3
*U43
  1

  0
TEXT
  5
4657
  8
RAHM2
 10
-123.3362656628704
 20
46.250000000000021
 30
0.0
 40
2.5
  1
・  ・   
  0
ENDBLK
  5
4659
  8
0
  0
BLOCK
  8
0
  2
*U44
 70
     1
 10
0.0
 20
0.0
 30
0.0
  3
*U44
  1

  0
TEXT
  5
465B
  8
RAHM2
 10
-92.800255137131444
 20
13.80103540727964
 30
0.0
 40
2.5
  1
日付
  0
ENDBLK
  5
465D
  8
0
  0
BLOCK
  8
0
  2
*U45
 70
     1
 10
0.0
 20
0.0
 30
0.0
  3
*U45
  1

  0
TEXT
  5
465F
  8
RAHM2
 10
-92.800255137131444
 20
23.801035407279642
 30
0.0
 40
2.5
  1
表面処理
  0
ENDBLK
  5
4661
  8
0
  0
BLOCK
  8
0
  2
*U46
 70
     1
 10
0.0
 20
0.0
 30
0.0
  3
*U46
  1

  0
TEXT
  5
4663
  8
RAHM2
 10
-92.800255137131444
 20
33.801035407279642
 30
0.0
 40
2.5
  1
材質
  0
ENDBLK
  5
4665
  8
0
  0
BLOCK
  8
0
  2
*U47
 70
     1
 10
0.0
 20
0.0
 30
0.0
  3
*U47
  1

  0
TEXT
  5
4667
  8
RAHM2
 10
-72.800255137131444
 20
46.301035407279642
 30
0.0
 40
2.5
  1
尺度
  0
ENDBLK
  5
4669
  8
0
  0
BLOCK
  8
0
  2
*U48
 70
     1
 10
0.0
 20
0.0
 30
0.0
  3
*U48
  1

  0
TEXT
  5
466B
  8
RAHM2
 10
-52.800255137131451
 20
46.301035407279642
 30
0.0
 40
2.5
  1
数量
  0
ENDBLK
  5
466D
  8
0
  0
BLOCK
  8
0
  2
*U49
 70
     1
 10
0.0
 20
0.0
 30
0.0
  3
*U49
  1

  0
TEXT
  5
466F
  8
RAHM2
 10
-28.3125
 20
21.301035407279642
 30
0.0
 40
2.5
  1
承認
  0
ENDBLK
  5
4671
  8
0
  0
BLOCK
  8
0
  2
*U50
 70
     1
 10
0.0
 20
0.0
 30
0.0
  3
*U50
  1

  0
TEXT
  5
4673
  8
RAHM2
 10
-28.3125
 20
46.301035407279642
 30
0.0
 40
2.5
  1
承認
  0
ENDBLK
  5
4675
  8
0
  0
BLOCK
  8
0
  2
*U51
 70
     1
 10
0.0
 20
0.0
 30
0.0
  3
*U51
  1

  0
TEXT
  5
4677
  8
RAHM2
 10
-123.3362656628704
 20
26.250000000000028
 30
0.0
 40
2.5
  1
・  ・   
  0
ENDBLK
  5
4679
  8
0
  0
BLOCK
  8
0
  2
*U52
 70
     1
 10
0.0
 20
0.0
 30
0.0
  3
*U52
  1

  0
TEXT
  5
467B
  8
RAHM2
 10
-11.3125
 20
46.301035407279642
 30
0.0
 40
2.5
  1
検図
  0
ENDBLK
  5
467D
  8
0
  0
BLOCK
  8
0
  2
*U53
 70
     1
 10
0.0
 20
0.0
 30
0.0
  3
*U53
  1

  0
TEXT
  5
467F
  8
RAHM2
 10
-11.3125
 20
21.301035407279642
 30
0.0
 40
2.5
  1
製図
  0
ENDBLK
  5
4681
  8
0
  0
BLOCK
  8
0
  2
*U54
 70
     1
 10
0.0
 20
0.0
 30
0.0
  3
*U54
  1

  0
TEXT
  5
4683
  8
0
 10
180.30531168523061
 20
286.233542987227
 30
0.0
 40
2.5
  1
(文書番号：TY-5)2000.9
  0
ENDBLK
  5
4685
  8
0
  0
BLOCK
  8
0
  2
*U55
 70
     1
 10
0.0
 20
0.0
 30
0.0
  3
*U55
  1

  0
TEXT
  5
468B
  8
RAHM2
 10
-191.8002551371315
 20
8.8010354072796062
 30
0.0
 40
2.5
  1
日付
  0
ENDBLK
  5
468D
  8
0
  0
BLOCK
  8
0
  2
*U56
 70
     1
 10
0.0
 20
0.0
 30
0.0
  3
*U56
  1

  0
TEXT
  5
468F
  8
RAHM2
 10
-191.8002551371315
 20
33.801035407279663
 30
0.0
 40
2.5
  1
尺度
  0
ENDBLK
  5
4691
  8
0
  0
BLOCK
  8
0
  2
*U57
 70
     1
 10
0.0
 20
0.0
 30
0.0
  3
*U57
  1

  0
TEXT
  5
4693
  8
RAHM2
 10
-191.8002551371315
 20
21.301035407279631
 30
0.0
 40
2.5
  1
数量
  0
ENDBLK
  5
4695
  8
0
  0
BLOCK
  8
0
  2
*U58
 70
     1
 10
0.0
 20
0.0
 30
0.0
  3
*U58
  1

  0
TEXT
  5
4697
  8
RAHM2
 10
-165.80025513713139
 20
36.301035407279556
 30
0.0
 40
2.5
  1
表面処理
  0
ENDBLK
  5
4699
  8
0
  0
BLOCK
  8
0
  2
*U59
 70
     1
 10
0.0
 20
0.0
 30
0.0
  3
*U59
  1

  0
TEXT
  5
469B
  8
RAHM2
 10
-165.80025513713139
 20
46.301035407279549
 30
0.0
 40
2.5
  1
材質
  0
ENDBLK
  5
469D
  8
0
  0
BLOCK
  8
0
  2
*U60
 70
     1
 10
0.0
 20
0.0
 30
0.0
  3
*U60
  1

  0
TEXT
  5
469F
  8
0
 10
-156.35532994923869
 20
23.418781725888241
 30
0.0
 40
3.5
  1
株式会社タカチ電機工業
  0
ENDBLK
  5
46A1
  8
0
  0
BLOCK
  8
0
  2
*U61
 70
     1
 10
0.0
 20
0.0
 30
0.0
  3
*U61
  1

  0
TEXT
  5
46A3
  8
RAHM2
 10
-160.93750000000011
 20
16.30103540727956
 30
0.0
 40
2.5
  1
承認
  0
ENDBLK
  5
46A5
  8
0
  0
BLOCK
  8
0
  2
*U62
 70
     1
 10
0.0
 20
0.0
 30
0.0
  3
*U62
  1

  0
TEXT
  5
46A7
  8
RAHM2
 10
-143.18750000000011
 20
16.301035407279581
 30
0.0
 40
2.5
  1
承認
  0
ENDBLK
  5
46A9
  8
0
  0
BLOCK
  8
0
  2
*U63
 70
     1
 10
0.0
 20
0.0
 30
0.0
  3
*U63
  1

  0
TEXT
  5
46AB
  8
RAHM2
 10
-125.4375000000001
 20
16.301035407279581
 30
0.0
 40
2.5
  1
検図
  0
ENDBLK
  5
46AD
  8
0
  0
BLOCK
  8
0
  2
*U64
 70
     1
 10
0.0
 20
0.0
 30
0.0
  3
*U64
  1

  0
TEXT
  5
46AF
  8
RAHM2
 10
-107.6875
 20
16.301035407279571
 30
0.0
 40
2.5
  1
製図
  0
ENDBLK
  5
46B1
  8
0
  0
BLOCK
  8
0
  2
*U65
 70
     1
 10
0.0
 20
0.0
 30
0.0
  3
*U65
  1

  0
TEXT
  5
46B3
  8
RAHM2
 10
-19.982425929334909
 20
2.1847624665659851
 30
0.0
 40
2.5
  1
Rev.
  0
ENDBLK
  5
46B5
  8
0
  0
BLOCK
  8
0
  2
*U66
 70
     1
 10
0.0
 20
0.0
 30
0.0
  3
*U66
  1

  0
TEXT
  5
46B7
  8
RAHM2
 10
-94.800255137131444
 20
3.3010354072796271
 30
0.0
 40
2.5
  1
図番
  0
ENDBLK
  5
46B9
  8
0
  0
BLOCK
  8
0
  2
*U67
 70
     1
 10
0.0
 20
0.0
 30
0.0
  3
*U67
  1

  0
TEXT
  5
46BB
  8
RAHM2
 10
-94.0
 20
21.249999999999961
 30
0.0
 40
2.5
  1
符号
  0
ENDBLK
  5
46BD
  8
0
  0
BLOCK
  8
0
  2
*U68
 70
     1
 10
0.0
 20
0.0
 30
0.0
  3
*U68
  1

  0
TEXT
  5
46BF
  8
RAHM2
 10
-94.800255137131444
 20
16.301035407279599
 30
0.0
 40
2.5
  1
品名
  0
ENDBLK
  5
46C1
  8
0
  0
BLOCK
  8
0
  2
*U69
 70
     1
 10
0.0
 20
0.0
 30
0.0
  3
*U69
  1

  0
TEXT
  5
46C3
  8
RAHM2
 10
-65.0
 20
21.249999999999961
 30
0.0
 40
2.5
  1
変更記事
  0
ENDBLK
  5
46C5
  8
0
  0
BLOCK
  8
0
  2
*U70
 70
     1
 10
0.0
 20
0.0
 30
0.0
  3
*U70
  1

  0
TEXT
  5
46C7
  8
RAHM2
 10
-26.157085073559461
 20
31.250000000000028
 30
0.0
 40
2.5
  1
・  ・   
  0
ENDBLK
  5
46C9
  8
0
  0
BLOCK
  8
0
  2
*U71
 70
     1
 10
0.0
 20
0.0
 30
0.0
  3
*U71
  1

  0
TEXT
  5
46CB
  8
RAHM2
 10
-29.058939215691112
 20
21.249999999999972
 30
0.0
 40
2.5
  1
年・月・日
  0
ENDBLK
  5
46CD
  8
0
  0
BLOCK
  8
0
  2
*U72
 70
     1
 10
0.0
 20
0.0
 30
0.0
  3
*U72
  1

  0
TEXT
  5
46CF
  8
RAHM2
 10
-8.8806478005825724
 20
21.249999999999972
 30
0.0
 40
2.5
  1
担当
  0
ENDBLK
  5
46D1
  8
0
  0
BLOCK
  8
0
  2
*U73
 70
     1
 10
0.0
 20
0.0
 30
0.0
  3
*U73
  1

  0
TEXT
  5
46D3
  8
RAHM2
 10
-26.157085073559461
 20
41.250000000000021
 30
0.0
 40
2.5
  1
・  ・   
  0
ENDBLK
  5
46D5
  8
0
  0
BLOCK
  8
0
  2
*U74
 70
     1
 10
0.0
 20
0.0
 30
0.0
  3
*U74
  1

  0
TEXT
  5
46D7
  8
RAHM2
 10
-26.157085073559461
 20
36.250000000000028
 30
0.0
 40
2.5
  1
・  ・   
  0
ENDBLK
  5
46D9
  8
0
  0
BLOCK
  8
0
  2
*U75
 70
     1
 10
0.0
 20
0.0
 30
0.0
  3
*U75
  1

  0
TEXT
  5
46DB
  8
RAHM2
 10
-26.157085073559461
 20
46.250000000000021
 30
0.0
 40
2.5
  1
・  ・   
  0
ENDBLK
  5
46DD
  8
0
  0
BLOCK
  8
0
  2
*U76
 70
     1
 10
0.0
 20
0.0
 30
0.0
  3
*U76
  1

  0
TEXT
  5
46DF
  8
RAHM2
 10
-26.157085073559461
 20
26.250000000000028
 30
0.0
 40
2.5
  1
・  ・   
  0
ENDBLK
  5
46E1
  8
0
  0
BLOCK
  8
0
  2
*U77
 70
     1
 10
0.0
 20
0.0
 30
0.0
  3
*U77
  1

  0
TEXT
  5
4714
  8
0
 10
588.0625
 20
12.55103540727934
 30
0.0
 40
7.5
  1
岡本
  0
ENDBLK
  5
4716
  8
0
  0
BLOCK
  8
0
  2
*U78
 70
     1
 10
0.0
 20
0.0
 30
0.0
  3
*U78
  1

  0
TEXT
  5
4718
  8
0
 10
552.74999999999989
 20
12.55103540727934
 30
0.0
 40
7.5
  1
野村
  0
ENDBLK
  5
471A
  8
0
  0
BLOCK
  8
0
  2
*U79
 70
     1
 10
0.0
 20
0.0
 30
0.0
  3
*U79
  1

  0
TEXT
  5
471C
  8
0
 10
516.67658617484631
 20
13.39194449818835
 30
0.0
 40
7.5
  1
高地
  0
TEXT
  5
471D
  8
0
 10
519.828584957055
 20
4.6419444981883551
 30
0.0
 40
3.75
  1
（一）
  0
ENDBLK
  5
471F
  8
0
  0
BLOCK
  8
0
  2
*U80
 70
     1
 10
0.0
 20
0.0
 30
0.0
  3
*U80
  1

  0
TEXT
  5
4721
  8
AM_5
 62
     7
 10
356.6680874821418
 20
347.19190911724201
 30
0.0
 40
7.0
  1
1
  7
ACISOTS
  0
ENDBLK
  5
4723
  8
0
  0
BLOCK
  8
0
  2
*U81
 70
     1
 10
0.0
 20
0.0
 30
0.0
  3
*U81
  1

  0
TEXT
  5
4725
  8
AM_5
 62
     7
 10
566.15401727332448
 20
400.70060998687188
 30
0.0
 40
7.0
  1
2
  7
ACISOTS
  0
ENDBLK
  5
4727
  8
0
  0
BLOCK
  8
0
  2
*U82
 70
     1
 10
0.0
 20
0.0
 30
0.0
  3
*U82
  1

  0
TEXT
  5
4729
  8
AM_5
 62
     7
 10
691.42837116233329
 20
180.80603942676271
 30
0.0
 40
7.0
  1
6
  7
ACISOTS
  0
ENDBLK
  5
472B
  8
0
  0
BLOCK
  8
0
  2
*U83
 70
     1
 10
0.0
 20
0.0
 30
0.0
  3
*U83
  1

  0
TEXT
  5
472D
  8
AM_5
 62
     7
 10
690.79429453342505
 20
412.36417188498302
 30
0.0
 40
7.0
  1
3
  7
ACISOTS
  0
ENDBLK
  5
472F
  8
0
  0
BLOCK
  8
0
  2
*U84
 70
     1
 10
0.0
 20
0.0
 30
0.0
  3
*U84
  1

  0
TEXT
  5
4731
  8
AM_5
 62
     7
 10
692.27728013534875
 20
332.14253911227928
 30
0.0
 40
7.0
  1
4
  7
ACISOTS
  0
ENDBLK
  5
4733
  8
0
  0
BLOCK
  8
0
  2
*U85
 70
     1
 10
0.0
 20
0.0
 30
0.0
  3
*U85
  1

  0
TEXT
  5
4735
  8
AM_5
 62
     7
 10
693.42080782329845
 20
261.8299483081978
 30
0.0
 40
7.0
  1
5
  7
ACISOTS
  0
ENDBLK
  5
4737
  8
0
  0
BLOCK
  8
0
  2
*U86
 70
     1
 10
0.0
 20
0.0
 30
0.0
  3
*U86
  1

  0
TEXT
  5
4739
  8
0
 62
     2
 10
433.25
 20
525.60000000000002
 30
0.0
 40
7.0
  1
1
  7
ACISOTS
  0
ENDBLK
  5
473B
  8
0
  0
BLOCK
  8
0
  2
*U87
 70
     1
 10
0.0
 20
0.0
 30
0.0
  3
*U87
  1

  0
TEXT
  5
473D
  8
0
 62
     2
 10
451.7999999999999
 20
525.60000000000002
 30
0.0
 40
7.0
  1
シャーシ
  7
ACISOTS
  0
ENDBLK
  5
473F
  8
0
  0
BLOCK
  8
0
  2
*U88
 70
     1
 10
0.0
 20
0.0
 30
0.0
  3
*U88
  1

  0
TEXT
  5
4741
  8
0
 62
     2
 10
583.25
 20
525.60000000000002
 30
0.0
 40
7.0
  1
1
  7
ACISOTS
  0
ENDBLK
  5
4743
  8
0
  0
BLOCK
  8
0
  2
*U89
 70
     1
 10
0.0
 20
0.0
 30
0.0
  3
*U89
  1

  0
TEXT
  5
4745
  8
0
 62
     2
 10
600.75
 20
525.59862204724413
 30
0.0
 40
7.0
  1
A1050P-H24 t2.0
  7
ACISOTS
  0
ENDBLK
  5
4747
  8
0
  0
BLOCK
  8
0
  2
*U90
 70
     1
 10
0.0
 20
0.0
 30
0.0
  3
*U90
  1

  0
TEXT
  5
4749
  8
0
 62
     2
 10
681.79999999999995
 20
525.60000000000002
 30
0.0
 40
7.0
  1
無処理
  7
ACISOTS
  0
ENDBLK
  5
474B
  8
0
  0
BLOCK
  8
0
  2
*U91
 70
     1
 10
0.0
 20
0.0
 30
0.0
  3
*U91
  1

  0
TEXT
  5
474D
  8
0
 62
     2
 10
432.42867125984247
 20
513.24862204724411
 30
0.0
 40
7.0
  1
2
  7
ACISOTS
  0
ENDBLK
  5
474F
  8
0
  0
BLOCK
  8
0
  2
*U92
 70
     1
 10
0.0
 20
0.0
 30
0.0
  3
*U92
  1

  0
TEXT
  5
4751
  8
0
 62
     2
 10
451.7999999999999
 20
513.25
 30
0.0
 40
7.0
  1
シャーシ取付台
  7
ACISOTS
  0
ENDBLK
  5
4753
  8
0
  0
BLOCK
  8
0
  2
*U93
 70
     1
 10
0.0
 20
0.0
 30
0.0
  3
*U93
  1

  0
TEXT
  5
4755
  8
0
 62
     2
 10
582.42867125984253
 20
513.24862204724411
 30
0.0
 40
7.0
  1
2
  7
ACISOTS
  0
ENDBLK
  5
4757
  8
0
  0
BLOCK
  8
0
  2
*U94
 70
     1
 10
0.0
 20
0.0
 30
0.0
  3
*U94
  1

  0
TEXT
  5
4759
  8
0
 62
     2
 10
600.75
 20
513.24862204724411
 30
0.0
 40
7.0
  1
A1050P-H24 t2.0
  7
ACISOTS
  0
ENDBLK
  5
475B
  8
0
  0
BLOCK
  8
0
  2
*U95
 70
     1
 10
0.0
 20
0.0
 30
0.0
  3
*U95
  1

  0
TEXT
  5
475D
  8
0
 62
     2
 10
681.79999999999995
 20
513.25
 30
0.0
 40
7.0
  1
無処理
  7
ACISOTS
  0
ENDBLK
  5
475F
  8
0
  0
BLOCK
  8
0
  2
*U96
 70
     1
 10
0.0
 20
0.0
 30
0.0
  3
*U96
  1

  0
TEXT
  5
4761
  8
0
 62
     2
 10
432.4050252531693
 20
500.89999999999992
 30
0.0
 40
7.0
  1
3
  7
ACISOTS
  0
ENDBLK
  5
4763
  8
0
  0
BLOCK
  8
0
  2
*U97
 70
     1
 10
0.0
 20
0.0
 30
0.0
  3
*U97
  1

  0
TEXT
  5
4765
  8
0
 62
     2
 10
451.7999999999999
 20
500.5499999999999
 30
0.0
 40
7.0
  1
取付ビス(ｻﾗM3×10)
  7
ACISOTS
  0
ENDBLK
  5
4767
  8
0
  0
BLOCK
  8
0
  2
*U98
 70
     1
 10
0.0
 20
0.0
 30
0.0
  3
*U98
  1

  0
TEXT
  5
4769
  8
0
 62
     2
 10
582.20000000000005
 20
500.89999999999992
 30
0.0
 40
7.0
  1
4
  7
ACISOTS
  0
ENDBLK
  5
476B
  8
0
  0
BLOCK
  8
0
  2
*U99
 70
     1
 10
0.0
 20
0.0
 30
0.0
  3
*U99
  1

  0
TEXT
  5
476D
  8
0
 62
     2
 10
601.79999999999995
 20
500.89999999999992
 30
0.0
 40
7.0
  1
鉄
  7
ACISOTS
  0
ENDBLK
  5
476F
  8
0
  0
BLOCK
  8
0
  2
*U100
 70
     1
 10
0.0
 20
0.0
 30
0.0
  3
*U100
  1

  0
TEXT
  5
4771
  8
0
 62
     2
 10
681.79999999999995
 20
500.89999999999992
 30
0.0
 40
7.0
  1
三価ｸﾛｰﾒｲﾄ
  7
ACISOTS
  0
ENDBLK
  5
4773
  8
0
  0
BLOCK
  8
0
  2
*U101
 70
     1
 10
0.0
 20
0.0
 30
0.0
  3
*U101
  1

  0
TEXT
  5
4775
  8
0
 62
     2
 10
432.19999999999999
 20
488.55000000000001
 30
0.0
 40
7.0
  1
4
  7
ACISOTS
  0
ENDBLK
  5
4777
  8
0
  0
BLOCK
  8
0
  2
*U102
 70
     1
 10
0.0
 20
0.0
 30
0.0
  3
*U102
  1

  0
TEXT
  5
4779
  8
0
 62
     2
 10
451.7999999999999
 20
488.19999999999987
 30
0.0
 40
7.0
  1
取付ビス(ﾊﾞｲﾝﾄﾞM3×6)
  7
ACISOTS
  0
ENDBLK
  5
477B
  8
0
  0
BLOCK
  8
0
  2
*U103
 70
     1
 10
0.0
 20
0.0
 30
0.0
  3
*U103
  1

  0
TEXT
  5
477D
  8
0
 62
     2
 10
582.20000000000005
 20
488.55000000000001
 30
0.0
 40
7.0
  1
4
  7
ACISOTS
  0
ENDBLK
  5
477F
  8
0
  0
BLOCK
  8
0
  2
*U104
 70
     1
 10
0.0
 20
0.0
 30
0.0
  3
*U104
  1

  0
TEXT
  5
4781
  8
0
 62
     2
 10
601.79999999999995
 20
488.55000000000001
 30
0.0
 40
7.0
  1
鉄
  7
ACISOTS
  0
ENDBLK
  5
4783
  8
0
  0
BLOCK
  8
0
  2
*U105
 70
     1
 10
0.0
 20
0.0
 30
0.0
  3
*U105
  1

  0
TEXT
  5
4785
  8
0
 62
     2
 10
681.79999999999995
 20
488.55000000000001
 30
0.0
 40
7.0
  1
ﾆｯｹﾙﾒｯｷ
  7
ACISOTS
  0
ENDBLK
  5
4787
  8
0
  0
BLOCK
  8
0
  2
*U106
 70
     1
 10
0.0
 20
0.0
 30
0.0
  3
*U106
  1

  0
TEXT
  5
4789
  8
0
 62
     2
 10
432.4050252531693
 20
476.19999999999987
 30
0.0
 40
7.0
  1
5
  7
ACISOTS
  0
ENDBLK
  5
478B
  8
0
  0
BLOCK
  8
0
  2
*U107
 70
     1
 10
0.0
 20
0.0
 30
0.0
  3
*U107
  1

  0
TEXT
  5
478D
  8
0
 62
     2
 10
451.7999999999999
 20
475.84999999999991
 30
0.0
 40
7.0
  1
取付ワッシャー(M3用)
  7
ACISOTS
  0
ENDBLK
  5
478F
  8
0
  0
BLOCK
  8
0
  2
*U108
 70
     1
 10
0.0
 20
0.0
 30
0.0
  3
*U108
  1

  0
TEXT
  5
4791
  8
0
 62
     2
 10
582.20000000000005
 20
476.19999999999987
 30
0.0
 40
7.0
  1
4
  7
ACISOTS
  0
ENDBLK
  5
4793
  8
0
  0
BLOCK
  8
0
  2
*U109
 70
     1
 10
0.0
 20
0.0
 30
0.0
  3
*U109
  1

  0
TEXT
  5
4795
  8
0
 62
     2
 10
601.79999999999995
 20
476.19999999999987
 30
0.0
 40
7.0
  1
鉄
  7
ACISOTS
  0
ENDBLK
  5
4797
  8
0
  0
BLOCK
  8
0
  2
*U110
 70
     1
 10
0.0
 20
0.0
 30
0.0
  3
*U110
  1

  0
TEXT
  5
4799
  8
0
 62
     2
 10
681.79999999999995
 20
476.19999999999987
 30
0.0
 40
7.0
  1
ﾆｯｹﾙﾒｯｷ
  7
ACISOTS
  0
ENDBLK
  5
479B
  8
0
  0
BLOCK
  8
0
  2
*U111
 70
     1
 10
0.0
 20
0.0
 30
0.0
  3
*U111
  1

  0
TEXT
  5
479D
  8
0
 62
     2
 10
432.5858267716535
 20
463.85000000000002
 30
0.0
 40
7.0
  1
6
  7
ACISOTS
  0
ENDBLK
  5
479F
  8
0
  0
BLOCK
  8
0
  2
*U112
 70
     1
 10
0.0
 20
0.0
 30
0.0
  3
*U112
  1

  0
TEXT
  5
47A1
  8
0
 62
     2
 10
451.7999999999999
 20
463.49999999999989
 30
0.0
 40
7.0
  1
取付ナット(M3用)
  7
ACISOTS
  0
ENDBLK
  5
47A3
  8
0
  0
BLOCK
  8
0
  2
*U113
 70
     1
 10
0.0
 20
0.0
 30
0.0
  3
*U113
  1

  0
TEXT
  5
47A5
  8
0
 62
     2
 10
582.20000000000005
 20
463.85000000000002
 30
0.0
 40
7.0
  1
4
  7
ACISOTS
  0
ENDBLK
  5
47A7
  8
0
  0
BLOCK
  8
0
  2
*U114
 70
     1
 10
0.0
 20
0.0
 30
0.0
  3
*U114
  1

  0
TEXT
  5
47A9
  8
0
 62
     2
 10
601.79999999999995
 20
463.85000000000002
 30
0.0
 40
7.0
  1
鉄
  7
ACISOTS
  0
ENDBLK
  5
47AB
  8
0
  0
BLOCK
  8
0
  2
*U115
 70
     1
 10
0.0
 20
0.0
 30
0.0
  3
*U115
  1

  0
TEXT
  5
47AD
  8
0
 62
     2
 10
681.79999999999995
 20
463.85000000000002
 30
0.0
 40
7.0
  1
三価ｸﾛｰﾒｲﾄ
  7
ACISOTS
  0
ENDBLK
  5
47AF
  8
0
  0
BLOCK
  8
0
  2
*U116
 70
     1
 10
0.0
 20
0.0
 30
0.0
  3
*U116
  1

  0
TEXT
  5
47B1
  8
0
 62
     2
 10
427.30000000000001
 20
537.95000000000005
 30
0.0
 40
7.0
  1
照番
  7
ACISOTS
  0
ENDBLK
  5
47B3
  8
0
  0
BLOCK
  8
0
  2
*U117
 70
     1
 10
0.0
 20
0.0
 30
0.0
  3
*U117
  1

  0
TEXT
  5
47B5
  8
0
 62
     2
 10
502.30000000000001
 20
537.95000000000005
 30
0.0
 40
7.0
  1
名称
  7
ACISOTS
  0
ENDBLK
  5
47B7
  8
0
  0
BLOCK
  8
0
  2
*U118
 70
     1
 10
0.0
 20
0.0
 30
0.0
  3
*U118
  1

  0
TEXT
  5
47B9
  8
0
 62
     2
 10
577.29999999999995
 20
537.95000000000005
 30
0.0
 40
7.0
  1
数量
  7
ACISOTS
  0
ENDBLK
  5
47BB
  8
0
  0
BLOCK
  8
0
  2
*U119
 70
     1
 10
0.0
 20
0.0
 30
0.0
  3
*U119
  1

  0
TEXT
  5
47BD
  8
0
 62
     2
 10
632.29999999999995
 20
537.95000000000005
 30
0.0
 40
7.0
  1
材質
  7
ACISOTS
  0
ENDBLK
  5
47BF
  8
0
  0
BLOCK
  8
0
  2
*U120
 70
     1
 10
0.0
 20
0.0
 30
0.0
  3
*U120
  1

  0
TEXT
  5
47C1
  8
0
 62
     2
 10
717.79999999999995
 20
537.95000000000005
 30
0.0
 40
7.0
  1
色・表面処理
  7
ACISOTS
  0
ENDBLK
  5
47C3
  8
0
  0
BLOCK
  8
0
  2
*U121
 70
     1
 10
0.0
 20
0.0
 30
0.0
  3
*U121
  1

  0
TEXT
  5
47C5
  8
0
 62
     2
 10
596.72499999999991
 20
550.32500000000005
 30
0.0
 40
7.0
  1
構成内容
  7
ACISOTS
  0
ENDBLK
  5
47C7
  8
0
  0
ENDSEC
  0
SECTION
  2
ENTITIES
  0
INSERT
  5
24AC
  8
0
  2
TK-A3
 10
0.0
 20
0.0
 30
0.0
 41
2.0
 42
2.0
 43
2.0
1001
GENIUS_GENOREF_13
1005
2512
1001
GENIUS_GENOBJ-N-SDF_13
1002
{
1000
OWNER
1000
GEN
1002
}
1001
GENIUS_GENODEF_13
1002
{
1000
HIER
1070
     0
1002
}
1002
{
1000
MANEDIT
1070
     0
1002
}
1002
{
1000
NOSEL
1070
     0
1002
}
1002
{
1000
BEHIND
1070
     0
1002
}
1002
{
1000
OTHER
1070
     0
1002
}
1002
{
1000
REACTOR
1002
}
1001
GENIUS_GENSCREG_13
1040
2.0
1040
1.0
1011
0.0
1021
0.0
1031
0.0
1021
0.0
1031
0.0
1011
806.0
1021
0.0
1031
0.0
1021
560.00000000000011
1031
0.0
1070
     3
  0
INSERT
  5
2508
  8
0
 66
     1
  2
TK-TITLE
 10
806.0
 20
0.0
 30
0.0
 41
2.0
 42
2.0
 43
2.0
1001
GENIUS_GENOREF_13
1005
2512
  0
ATTRIB
  5
4059
  8
0
 10
426.31752670122262
 20
7.1766850752213278
 30
0.0
 40
6.0
  1
2010/11/05
 72
     1
 11
445.56560966757218
 21
7.1766850752213278
 31
0.0
  2
GEN-TITLE-DAT
 70
     0
 74
     1
  0
ATTRIB
  5
405A
  8
0
 10
441.89016644044318
 20
56.599999999999952
 30
0.0
 40
6.0
  1
1:2
 72
     2
 11
450.35052077115182
 21
56.599999999999952
 31
0.0
  2
GEN-TITLE-SCA
 70
     0
 74
     1
  0
ATTRIB
  5
405B
  8
0
 10
454.77451817478089
 20
31.599999999999881
 30
0.0
 40
6.0
  1

 72
     2
 11
454.77451817478089
 21
31.599999999999881
 31
0.0
  2
GEN-TITLE-QTY
 70
     0
 74
     1
  0
ATTRIB
  5
405C
  8
0
 10
508.0762648329416
 20
66.599999999999824
 30
0.0
 40
6.0
  1

  2
GEN-TITLE-MAT2
 70
     0
  0
ATTRIB
  5
405D
  8
0
 10
508.0762648329416
 20
86.599999999999824
 30
0.0
 40
6.0
  1

  2
GEN-TITLE-MAT1
 70
     0
  0
ATTRIB
  5
405E
  8
0
 10
638.0
 20
3.9999999999999138
 30
0.0
 40
6.0
  1

  2
GEN-TITLE-NR1
 70
     0
  0
ATTRIB
  5
405F
  8
0
 10
638.0
 20
18.299999999999901
 30
0.0
 40
5.0
  1
AC型アルミシャーシ
  2
GEN-TITLE-DES2
 70
     0
  0
ATTRIB
  5
4060
  8
0
 10
637.71496196829344
 20
25.655808651287551
 30
0.0
 40
7.0
  1
AC16-23
  2
GEN-TITLE-DES1
 70
     0
  0
ATTRIB
  5
4061
  8
0
 10
789.99538162090835
 20
3.410378868790072
 30
0.0
 40
5.0
  1

  2
GEN-TITLE-NR2
 70
     0
  0
SEQEND
  5
4058
  8
0
  0
POINT
  5
2512
  8
0
 10
0.0
 20
0.0
 30
0.0
1001
GENIUS_GENOENT_13
1002
{
1000
MYREF
1005
2512
1002
}
1002
{
1000
GRP
1005
0
1002
}
1001
GENIUS_GENOBJ-N-TIT_13
1002
{
1000
OWNER
1000
GEN
1002
}
1001
GENIUS_GENODEF_13
1002
{
1000
HIER
1070
     1
1002
}
1002
{
1000
MANEDIT
1070
     0
1002
}
1002
{
1000
NOSEL
1070
     0
1002
}
1002
{
1000
BEHIND
1070
     0
1002
}
1002
{
1000
OTHER
1070
     0
1002
}
1002
{
1000
REACTOR
1002
}
1001
GENIUS_GENOLIS_13
1002
{
1000
ENT
1005
2508
1005
24AC
1005
4057
1002
}
1001
GENIUS_GENTITLE_13
1002
{
1000
BORDER
1000
TK-A3
1002
}
1002
{
1000
TITLE
1000
TK-TITLE
1002
}
1002
{
1000
SCALE
1000
1:2
1002
}
1002
{
1000
TITLESTD
1000
ISO
1002
}
1002
{
1000
HRA
1005
24AC
1002
}
1002
{
1000
HTIT
1005
2508
1002
}
1002
{
1000
GENIUSID
1005
2512
1002
}
1002
{
1000
INVTXTID
1005
0
1002
}
1002
{
1000
UNCHG
1002
{
1000
GEN-TITLE-SIZ
1000
GEN-TITLE-SCA
1002
}
1002
}
  0
INSERT
  5
39FE
  8
AM_12
  2
*S19
 10
0.0
 20
0.0
 30
0.0
  0
INSERT
  5
3A05
  8
AM_12
  2
*S20
 10
0.0
 20
0.0
 30
0.0
  0
INSERT
  5
3CC9
  8
AM_5
  2
*S21
 10
0.0
 20
0.0
 30
0.0
  0
INSERT
  5
3CCA
  8
AM_5
  2
*S22
 10
0.0
 20
0.0
 30
0.0
  0
CIRCLE
  5
3E9E
  8
ﾋ_ｽ
 10
748.64730559578834
 20
225.8468644886097
 30
0.0
 40
1.649999999999999
  0
CIRCLE
  5
3E9F
  8
ﾋ_ｽ
 10
748.64730559578834
 20
225.8468644886097
 30
0.0
 40
3.8500000000000001
  0
LINE
  5
3EA0
  8
ﾋ_ｽ
 10
744.7973055957882
 20
257.04686448860957
 30
0.0
 11
752.49730559578836
 21
257.04686448860957
 31
0.0
  0
LINE
  5
3EA1
  8
ﾋ_ｽ
 10
744.7973055957882
 20
257.34686448860953
 30
0.0
 11
744.7973055957882
 21
257.04686448860957
 31
0.0
  0
LINE
  5
3EA2
  8
ﾋ_ｽ
 10
752.49730559578836
 20
257.34686448860953
 30
0.0
 11
752.49730559578836
 21
257.04686448860957
 31
0.0
  0
LINE
  5
3EA3
  8
ﾋ_ｽ
 10
744.7973055957882
 20
257.34686448860953
 30
0.0
 11
752.49730559578836
 21
257.34686448860953
 31
0.0
  0
INSERT
  5
3F2A
  8
0
  2
A$C2B84214F
 10
770.5473055957882
 20
301.52668510844182
 30
0.0
  0
INSERT
  5
3F43
  8
0
  2
A$C68F65B5E
 10
748.64730559578834
 20
301.52668510844188
 30
0.0
  0
INSERT
  5
3F5C
  8
0
  2
A$C1ABF00C0
 10
748.64730559578834
 20
377.47368336519668
 30
0.0
  0
INSERT
  5
3F75
  8
0
  2
A$C6A810163
 10
771.64730559578584
 20
377.47368336519668
 30
0.0
  0
INSERT
  5
3F86
  8
0
  2
A$C09FA6B72
 10
748.64730559578834
 20
156.2761312923426
 30
0.0
  0
INSERT
  5
3F9B
  8
0
  2
A$C6C857347
 10
748.64730559578834
 20
174.45155777288551
 30
0.0
  0
INSERT
  5
3FB3
  8
0
  2
A$C11BD6C1B
 10
766.39730559578834
 20
156.27613129234231
 30
0.0
 41
-1.0
  0
LINE
  5
3FBC
  8
ﾋ_ｽ
 10
779.84730559578838
 20
229.69686448860989
 30
0.0
 11
779.84730559578838
 21
221.99686448860959
 31
0.0
  0
LINE
  5
3FBD
  8
ﾋ_ｽ
 10
780.14730559578834
 20
229.69686448860989
 30
0.0
 11
779.84730559578838
 21
229.69686448860989
 31
0.0
  0
LINE
  5
3FBE
  8
ﾋ_ｽ
 10
780.14730559578834
 20
221.99686448860959
 30
0.0
 11
779.84730559578838
 21
221.99686448860959
 31
0.0
  0
LINE
  5
3FBF
  8
ﾋ_ｽ
 10
780.14730559578834
 20
229.69686448860989
 30
0.0
 11
780.14730559578834
 21
221.99686448860959
 31
0.0
  0
INSERT
  5
3FCA
  8
0
  2
A$C2B84214F
 10
748.64730559578879
 20
323.42668510844129
 30
0.0
 50
89.999999999999986
  0
INSERT
  5
3FCD
  8
0
  2
A$C6A810163
 10
748.64730559578879
 20
400.47368336519378
 30
0.0
 50
89.999999999999986
  0
INSERT
  5
3FD2
  8
AM_12
  2
*S23
 10
0.0
 20
0.0
 30
0.0
  0
INSERT
  5
3FD5
  8
AM_5
  2
*S24
 10
0.0
 20
0.0
 30
0.0
  0
INSERT
  5
3FD8
  8
AM_12
  2
*S25
 10
0.0
 20
0.0
 30
0.0
  0
INSERT
  5
3FDB
  8
AM_5
  2
*S26
 10
0.0
 20
0.0
 30
0.0
  0
INSERT
  5
3FDD
  8
AM_12
  2
*S27
 10
0.0
 20
0.0
 30
0.0
  0
INSERT
  5
3FE0
  8
AM_5
  2
*S28
 10
0.0
 20
0.0
 30
0.0
  0
INSERT
  5
3FE3
  8
AM_12
  2
*S29
 10
0.0
 20
0.0
 30
0.0
  0
INSERT
  5
3FE6
  8
AM_5
  2
*S30
 10
0.0
 20
0.0
 30
0.0
  0
INSERT
  5
4063
  8
0
  2
*S31
 10
0.0
 20
0.0
 30
0.0
  0
LINE
  5
4191
  8
ｼｬ_ｼ
 10
522.20036355424418
 20
378.59847949193988
 30
0.0
 11
510.20036355424429
 21
378.59847949193988
 31
0.0
  0
LINE
  5
4194
  8
ｼｬ_ｼ
 10
522.20036355424327
 20
211.59847949193991
 30
0.0
 11
522.20036355424418
 21
378.59847949193988
 31
0.0
  0
LINE
  5
4195
  8
ｼｬ_ｼ
 10
510.20036355424429
 20
378.59847949193988
 30
0.0
 11
510.20036355424332
 21
211.59847949193991
 31
0.0
  0
LINE
  5
4196
  8
ｼｬ_ｼ0
 10
512.20036355424418
 20
378.59847949193988
 30
0.0
 11
512.20036355424338
 21
211.59847949193991
 31
0.0
  0
ARC
  5
4197
  8
ｼｬ_ｼ
 10
326.61472463575819
 20
94.275331080492833
 30
0.0
 40
2.0
 50
0.0
 51
90.0
  0
LINE
  5
4198
  8
ｼｬ_ｼ
 10
328.61472463575819
 20
84.275331080492833
 30
0.0
 11
326.61472463575819
 21
84.275331080492833
 31
0.0
  0
LINE
  5
4199
  8
ｼｬ_ｼ
 10
328.61472463575819
 20
94.275331080492833
 30
0.0
 11
328.61472463575819
 21
84.275331080492833
 31
0.0
  0
LINE
  5
419A
  8
ｼｬ_ｼ
 10
326.61472463575819
 20
84.275331080492833
 30
0.0
 11
326.61472463575819
 21
94.275331080492833
 31
0.0
  0
LINE
  5
419B
  8
ｼｬ_ｼ取付台
 10
326.11472463575842
 20
94.275331080492833
 30
0.0
 11
326.11472463575842
 21
79.275331080492833
 31
0.0
  0
LINE
  5
419C
  8
ｼｬ_ｼ
 10
187.61472463575819
 20
96.275331080492663
 30
0.0
 11
326.61472463575819
 21
96.275331080492833
 31
0.0
  0
LINE
  5
419D
  8
ｼｬ_ｼ
 10
326.61472463575819
 20
94.275331080492833
 30
0.0
 11
187.61472463575819
 21
94.275331080492734
 31
0.0
  0
LINE
  5
419E
  8
ｼｬ_ｼ取付台
 10
188.11472463575799
 20
94.275331080492649
 30
0.0
 11
326.11472463575842
 21
94.275331080492833
 31
0.0
  0
LINE
  5
419F
  8
ｼｬ_ｼ取付台
 10
326.11472463575842
 20
79.275331080492833
 30
0.0
 11
188.11472463575799
 21
79.275331080492833
 31
0.0
  0
LINE
  5
41A0
  8
ｼｬ_ｼ取付台
 10
188.11472463575799
 20
81.275331080492819
 30
0.0
 11
326.11472463575842
 21
81.275331080492819
 31
0.0
  0
LINE
  5
41A1
  8
ｼｬ_ｼ取付台0
 10
326.11472463575842
 20
92.275331080492833
 30
0.0
 11
188.11472463575799
 21
92.275331080492776
 31
0.0
  0
LINE
  5
41A2
  8
ｼｬ_ｼ取付台
 10
188.11472463575799
 20
94.275331080492833
 30
0.0
 11
188.11472463575799
 21
79.275331080492833
 31
0.0
  0
LINE
  5
41A3
  8
ｼｬ_ｼ
 10
522.20036355424327
 20
211.59847949194
 30
0.0
 11
510.20036355424332
 21
211.59847949194
 31
0.0
  0
CIRCLE
  5
41A4
  8
ｼｬ_ｼ取付台
 10
319.11472463575791
 20
205.59847949193991
 30
0.0
 40
2.25
  0
LINE
  5
41A5
  8
ｼｬ_ｼ取付台
 10
326.11472463575791
 20
199.59847949193991
 30
0.0
 11
326.11472463575791
 21
223.59847949194
 31
0.0
  0
CIRCLE
  5
41A6
  8
ｼｬ_ｼ取付台0
 10
307.11472463575791
 20
218.59847949194
 30
0.0
 40
1.5
  0
LINE
  5
41A7
  8
ｼｬ_ｼ取付台
 10
188.11472463575799
 20
199.59847949194
 30
0.0
 11
326.11472463575791
 21
199.59847949194
 31
0.0
  0
LINE
  5
41A8
  8
ｼｬ_ｼ取付台
 10
188.11472463575799
 20
212.59847949194
 30
0.0
 11
326.11472463575791
 21
212.59847949194
 31
0.0
  0
LINE
  5
41A9
  8
ｼｬ_ｼ取付台
 10
326.11472463575791
 20
223.59847949194
 30
0.0
 11
188.11472463575799
 21
223.59847949194
 31
0.0
  0
LINE
  5
41AA
  8
ｼｬ_ｼ取付台0
 10
188.11472463575799
 20
214.59847949194
 30
0.0
 11
326.11472463575791
 21
214.59847949194
 31
0.0
  0
CIRCLE
  5
41AB
  8
ｼｬ_ｼ取付台0
 10
207.11472463575799
 20
218.59847949194
 30
0.0
 40
1.5
  0
CIRCLE
  5
41AC
  8
ｼｬ_ｼ取付台
 10
195.11472463575799
 20
205.59847949193991
 30
0.0
 40
2.25
  0
LINE
  5
41AD
  8
ｼｬ_ｼ取付台
 10
188.11472463575799
 20
199.59847949193991
 30
0.0
 11
188.11472463575799
 21
223.59847949194
 31
0.0
  0
LINE
  5
41AE
  8
ｼｬ_ｼ
 10
209.36472463575859
 20
373.84847949194051
 30
0.0
 11
209.36472463575859
 21
370.3484794919404
 31
0.0
  0
LINE
  5
41AF
  8
ｼｬ_ｼ
 10
204.86472463575859
 20
370.3484794919404
 30
0.0
 11
204.86472463575859
 21
373.84847949194051
 31
0.0
  0
ARC
  5
41B0
  8
ｼｬ_ｼ
 10
207.11472463575859
 20
373.84847949194051
 30
0.0
 40
2.2499999999999858
 50
0.0
 51
180.0
  0
ARC
  5
41B1
  8
ｼｬ_ｼ
 10
207.11472463575859
 20
370.3484794919404
 30
0.0
 40
2.2499999999999889
 50
180.0
 51
0.0
  0
LINE
  5
41B2
  8
ｼｬ_ｼ
 10
209.36472463575799
 20
216.34847949194
 30
0.0
 11
209.36472463575799
 21
219.84847949194011
 31
0.0
  0
LINE
  5
41B3
  8
ｼｬ_ｼ
 10
204.86472463575799
 20
219.84847949194011
 30
0.0
 11
204.86472463575799
 21
216.34847949194
 31
0.0
  0
ARC
  5
41B4
  8
ｼｬ_ｼ
 10
207.11472463575799
 20
219.84847949194011
 30
0.0
 40
2.2499999999999889
 50
0.0
 51
180.0
  0
ARC
  5
41B5
  8
ｼｬ_ｼ
 10
207.11472463575799
 20
216.34847949194
 30
0.0
 40
2.2499999999999858
 50
180.0
 51
0.0
  0
ARC
  5
41B6
  8
ｼｬ_ｼ
 10
187.61472463575819
 20
94.275331080492833
 30
0.0
 40
2.0
 50
90.0
 51
180.0
  0
LINE
  5
41B7
  8
ｼｬ_ｼ
 10
185.61472463575819
 20
84.275331080492833
 30
0.0
 11
187.61472463575819
 21
84.275331080492833
 31
0.0
  0
LINE
  5
41B8
  8
ｼｬ_ｼ
 10
187.61472463575819
 20
84.275331080492833
 30
0.0
 11
187.61472463575819
 21
94.275331080492833
 31
0.0
  0
LINE
  5
41B9
  8
ｼｬ_ｼ
 10
185.61472463575819
 20
94.275331080492833
 30
0.0
 11
185.61472463575819
 21
84.275331080492833
 31
0.0
  0
LINE
  5
41BA
  8
ｼｬ_ｼ0
 10
187.61472463575819
 20
211.5984794919404
 30
0.0
 11
187.61472463575859
 21
378.5984794919404
 31
0.0
  0
LINE
  5
41BB
  8
ｼｬ_ｼ
 10
185.61472463575859
 20
378.5984794919404
 30
0.0
 11
185.61472463575819
 21
211.5984794919404
 31
0.0
  0
LINE
  5
41BC
  8
ｼｬ_ｼ
 10
185.61472463575859
 20
378.59847949193988
 30
0.0
 11
328.61472463575859
 21
378.5984794919404
 31
0.0
  0
ARC
  5
41BD
  8
ｼｬ_ｼ
 10
307.11472463575859
 20
370.3484794919404
 30
0.0
 40
2.2499999999999889
 50
180.0
 51
0.0
  0
ARC
  5
41BE
  8
ｼｬ_ｼ
 10
307.11472463575859
 20
373.84847949194051
 30
0.0
 40
2.2499999999999858
 50
0.0
 51
180.0
  0
LINE
  5
41BF
  8
ｼｬ_ｼ
 10
309.36472463575859
 20
370.3484794919404
 30
0.0
 11
309.36472463575859
 21
373.84847949194051
 31
0.0
  0
LINE
  5
41C0
  8
ｼｬ_ｼ
 10
304.86472463575859
 20
373.84847949194051
 30
0.0
 11
304.86472463575859
 21
370.3484794919404
 31
0.0
  0
LINE
  5
41C1
  8
ｼｬ_ｼ
 10
328.61472463575859
 20
378.5984794919404
 30
0.0
 11
328.61472463575819
 21
211.59847949194011
 31
0.0
  0
LINE
  5
41C2
  8
ｼｬ_ｼ0
 10
326.61472463575819
 20
211.59847949194011
 30
0.0
 11
326.61472463575859
 21
378.5984794919404
 31
0.0
  0
LINE
  5
41C3
  8
ｼｬ_ｼ
 10
304.86472463575791
 20
216.34847949194
 30
0.0
 11
304.86472463575791
 21
219.84847949194
 31
0.0
  0
LINE
  5
41C4
  8
ｼｬ_ｼ
 10
309.36472463575791
 20
219.84847949194
 30
0.0
 11
309.36472463575791
 21
216.34847949194
 31
0.0
  0
ARC
  5
41C5
  8
ｼｬ_ｼ
 10
307.11472463575791
 20
216.34847949194
 30
0.0
 40
2.2499999999999858
 50
180.0
 51
0.0
  0
ARC
  5
41C6
  8
ｼｬ_ｼ
 10
307.11472463575791
 20
219.84847949194
 30
0.0
 40
2.2499999999999889
 50
0.0
 51
180.0
  0
LINE
  5
41C7
  8
ｼｬ_ｼ
 10
185.61472463575799
 20
211.5984794919404
 30
0.0
 11
328.61472463575791
 21
211.59847949194011
 31
0.0
  0
LINE
  5
41C8
  8
ｼｬ_ｼ取付台
 10
188.11472463575859
 20
390.59847949194028
 30
0.0
 11
188.11472463575859
 21
366.59847949194028
 31
0.0
  0
CIRCLE
  5
41C9
  8
ｼｬ_ｼ取付台
 10
195.11472463575851
 20
384.59847949194062
 30
0.0
 40
2.25
  0
CIRCLE
  5
41CA
  8
ｼｬ_ｼ取付台0
 10
207.11472463575859
 20
371.59847949194028
 30
0.0
 40
1.5
  0
CIRCLE
  5
41CB
  8
ｼｬ_ｼ取付台0
 10
307.11472463575859
 20
371.59847949194028
 30
0.0
 40
1.5
  0
LINE
  5
41D6
  8
ｼｬ_ｼ取付台
 10
326.11472463575859
 20
390.59847949194028
 30
0.0
 11
326.11472463575859
 21
366.59847949194028
 31
0.0
  0
CIRCLE
  5
41D7
  8
ｼｬ_ｼ取付台
 10
319.11472463575859
 20
384.59847949194062
 30
0.0
 40
2.25
  0
LINE
  5
41D8
  8
ｼｬ_ｼ取付台
 10
326.11472463575859
 20
366.59847949194028
 30
0.0
 11
188.11472463575859
 21
366.59847949194028
 31
0.0
  0
LINE
  5
41D9
  8
ｼｬ_ｼ取付台0
 10
188.11472463575859
 20
375.59847949194028
 30
0.0
 11
326.11472463575859
 21
375.59847949194028
 31
0.0
  0
LINE
  5
41DA
  8
ｼｬ_ｼ取付台
 10
188.11472463575859
 20
377.59847949194028
 30
0.0
 11
326.11472463575859
 21
377.59847949194028
 31
0.0
  0
LINE
  5
41DB
  8
ｼｬ_ｼ取付台
 10
188.11472463575859
 20
390.59847949194028
 30
0.0
 11
326.11472463575859
 21
390.59847949194028
 31
0.0
  0
DIMENSION
  5
41DC
  8
AM_5
  2
*D16
 10
328.61472463575859
 20
422.59847949193988
 30
0.0
 11
257.11472463575859
 21
429.09847949193983
 31
0.0
 70
     0
 13
185.61472463575859
 23
378.59847949193988
 33
0.0
 14
328.61472463575859
 24
378.5984794919404
 34
0.0
1001
ACAD
1000
DSTYLE
1002
{
1070
    40
1040
2.0
1070
   272
1070
     3
1070
   274
1070
     4
1070
   284
1070
     0
1070
     6
1000
OPEN30
1070
     7
1000
OPEN30
1002
}
  0
DIMENSION
  5
41DD
  8
AM_5
  2
*D17
 10
161.6147246357578
 20
211.5984794919404
 30
0.0
 11
155.1147246357578
 21
295.0984794919404
 31
0.0
 70
     0
 13
185.61472463575859
 23
378.5984794919404
 33
0.0
 14
185.61472463575791
 24
211.5984794919404
 34
0.0
 50
90.0
1001
ACAD
1000
DSTYLE
1002
{
1070
    40
1040
2.0
1070
   272
1070
     3
1070
   274
1070
     4
1070
   284
1070
     0
1070
     6
1000
OPEN30
1070
     7
1000
OPEN30
1002
}
  0
DIMENSION
  5
41E2
  8
AM_5
  2
*D18
 10
527.20036355424452
 20
422.59847949193988
 30
0.0
 11
518.70036355424452
 21
422.59847949193988
 31
0.0
 70
   128
 13
510.20036355424429
 23
378.59847949193988
 33
0.0
 14
527.20036355424452
 24
391.0984794919404
 34
0.0
1001
ACAD
1000
DSTYLE
1002
{
1070
    40
1040
2.0
1070
   272
1070
     3
1070
   274
1070
     4
1070
   284
1070
     0
1070
     6
1000
OPEN30
1070
     7
1000
OPEN30
1002
}
  0
POLYLINE
  5
440F
  8
ｼｬ_ｼ取付台
 66
     1
 10
0.0
 20
0.0
 30
0.0
 70
     1
  0
VERTEX
  5
46FD
  8
ｼｬ_ｼ取付台
 10
512.20036355424418
 20
366.59847949194028
 30
0.0
  0
VERTEX
  5
46FE
  8
ｼｬ_ｼ取付台
 10
512.20036355424418
 20
375.59847949194028
 30
0.0
 42
-0.4142135623730951
  0
VERTEX
  5
46FF
  8
ｼｬ_ｼ取付台
 10
514.20036355424429
 20
377.59847949194028
 30
0.0
  0
VERTEX
  5
4700
  8
ｼｬ_ｼ取付台
 10
525.20036355424418
 20
377.59847949194011
 30
0.0
  0
VERTEX
  5
4701
  8
ｼｬ_ｼ取付台
 10
525.20036355424452
 20
390.59847949194028
 30
0.0
  0
VERTEX
  5
4702
  8
ｼｬ_ｼ取付台
 10
527.20036355424452
 20
390.59847949194028
 30
0.0
  0
VERTEX
  5
4703
  8
ｼｬ_ｼ取付台
 10
527.20036355424429
 20
377.59847949194011
 30
0.0
 42
-0.4142135623730951
  0
VERTEX
  5
4704
  8
ｼｬ_ｼ取付台
 10
525.20036355424418
 20
375.59847949194011
 30
0.0
  0
VERTEX
  5
4705
  8
ｼｬ_ｼ取付台
 10
514.20036355424429
 20
375.59847949194028
 30
0.0
  0
VERTEX
  5
4706
  8
ｼｬ_ｼ取付台
 10
514.20036355424429
 20
366.59847949194028
 30
0.0
  0
SEQEND
  5
4707
  8
ｼｬ_ｼ取付台
  0
POLYLINE
  5
4412
  8
ｼｬ_ｼ取付台
 66
     1
 10
0.0
 20
0.0
 30
0.0
 70
     1
  0
VERTEX
  5
4708
  8
ｼｬ_ｼ取付台
 10
512.20036355424418
 20
223.5984794919394
 30
0.0
  0
VERTEX
  5
4709
  8
ｼｬ_ｼ取付台
 10
512.20036355424418
 20
214.5984794919394
 30
0.0
 42
0.4142135623730951
  0
VERTEX
  5
470A
  8
ｼｬ_ｼ取付台
 10
514.20036355424429
 20
212.5984794919394
 30
0.0
  0
VERTEX
  5
470B
  8
ｼｬ_ｼ取付台
 10
525.20036355424418
 20
212.5984794919396
 30
0.0
  0
VERTEX
  5
470C
  8
ｼｬ_ｼ取付台
 10
525.20036355424452
 20
199.5984794919394
 30
0.0
  0
VERTEX
  5
470D
  8
ｼｬ_ｼ取付台
 10
527.20036355424452
 20
199.5984794919394
 30
0.0
  0
VERTEX
  5
470E
  8
ｼｬ_ｼ取付台
 10
527.20036355424429
 20
212.5984794919396
 30
0.0
 42
0.4142135623730951
  0
VERTEX
  5
470F
  8
ｼｬ_ｼ取付台
 10
525.20036355424418
 20
214.5984794919396
 30
0.0
  0
VERTEX
  5
4710
  8
ｼｬ_ｼ取付台
 10
514.20036355424429
 20
214.5984794919394
 30
0.0
  0
VERTEX
  5
4711
  8
ｼｬ_ｼ取付台
 10
514.20036355424429
 20
223.5984794919394
 30
0.0
  0
SEQEND
  5
4712
  8
ｼｬ_ｼ取付台
  0
INSERT
  5
4490
  8
0
  2
*U77
 10
0.0
 20
0.0
 30
0.0
  0
INSERT
  5
4491
  8
0
  2
*U78
 10
0.0
 20
0.0
 30
0.0
  0
INSERT
  5
4492
  8
0
  2
*U79
 10
0.0
 20
0.0
 30
0.0
  0
CIRCLE
  5
44BF
  8
ｼｬ_ｼ取付台
 10
307.11472463575859
 20
371.59847949194028
 30
0.0
 40
1.25
  0
CIRCLE
  5
44C8
  8
ｼｬ_ｼ取付台
 10
207.11472463575859
 20
371.59847949194028
 30
0.0
 40
1.25
  0
CIRCLE
  5
44D1
  8
ｼｬ_ｼ取付台
 10
307.11472463575791
 20
218.59847949194
 30
0.0
 40
1.25
  0
CIRCLE
  5
44DA
  8
ｼｬ_ｼ取付台
 10
207.11472463575799
 20
218.59847949194
 30
0.0
 40
1.25
  0
ENDSEC
  0
EOF
