  0
SECTION
  2
HEADER
  9
$ACADVER
  1
AC1009
  9
$INSBASE
 10
0.0
 20
0.0
 30
0.0
  9
$EXTMIN
 10
-0.0184196779907779
 20
-0.0127977911597554
 30
-0.0000000000000053
  9
$EXTMAX
 10
1007.543061043139
 20
700.02991834262752
 30
0.0000000000000099
  9
$LIMMIN
 10
0.0
 20
0.0
  9
$LIMMAX
 10
1007.5
 20
700.0
  9
$ORTHOMODE
 70
     1
  9
$REGENMODE
 70
     1
  9
$FILLMODE
 70
     1
  9
$QTEXTMODE
 70
     0
  9
$MIRRTEXT
 70
     1
  9
$DRAGMODE
 70
     2
  9
$LTSCALE
 40
2.5
  9
$OSMODE
 70
   431
  9
$ATTMODE
 70
     1
  9
$TEXTSIZE
 40
2.5
  9
$TRACEWID
 40
1.0
  9
$TEXTSTYLE
  7
STANDARD
  9
$CLAYER
  8
ｼｬ_ｼ
  9
$CELTYPE
  6
BYLAYER
  9
$CECOLOR
 62
   256
  9
$DIMSCALE
 40
2.5
  9
$DIMASZ
 40
2.5
  9
$DIMEXO
 40
1.0
  9
$DIMDLI
 40
10.0
  9
$DIMRND
 40
0.0
  9
$DIMDLE
 40
0.0
  9
$DIMEXE
 40
1.0
  9
$DIMTP
 40
0.1
  9
$DIMTM
 40
0.1
  9
$DIMTXT
 40
3.5
  9
$DIMCEN
 40
0.0
  9
$DIMTSZ
 40
0.0
  9
$DIMTOL
 70
     0
  9
$DIMLIM
 70
     0
  9
$DIMTIH
 70
     0
  9
$DIMTOH
 70
     0
  9
$DIMSE1
 70
     0
  9
$DIMSE2
 70
     0
  9
$DIMTAD
 70
     3
  9
$DIMZIN
 70
     8
  9
$DIMBLK
  1
OPEN30
  9
$DIMASO
 70
     1
  9
$DIMSHO
 70
     1
  9
$DIMPOST
  1

  9
$DIMAPOST
  1
"
  9
$DIMALT
 70
     0
  9
$DIMALTD
 70
     2
  9
$DIMALTF
 40
0.0393701
  9
$DIMLFAC
 40
1.0
  9
$DIMTOFL
 70
     1
  9
$DIMTVP
 40
0.0
  9
$DIMTIX
 70
     0
  9
$DIMSOXD
 70
     0
  9
$DIMSAH
 70
     0
  9
$DIMBLK1
  1
OPEN30
  9
$DIMBLK2
  1
OPEN30
  9
$DIMSTYLE
  2
AM_JIS
  9
$DIMCLRD
 70
   256
  9
$DIMCLRE
 70
   256
  9
$DIMCLRT
 70
     2
  9
$DIMTFAC
 40
0.71
  9
$DIMGAP
 40
1.5
  9
$LUNITS
 70
     2
  9
$LUPREC
 70
     2
  9
$SKETCHINC
 40
1.0
  9
$FILLETRAD
 40
18.75
  9
$AUNITS
 70
     0
  9
$AUPREC
 70
     0
  9
$MENU
  1
.
  9
$ELEVATION
 40
0.0
  9
$PELEVATION
 40
0.0
  9
$THICKNESS
 40
0.0
  9
$LIMCHECK
 70
     0
  9
$BLIPMODE
 70
     0
  9
$CHAMFERA
 40
18.75
  9
$CHAMFERB
 40
18.75
  9
$SKPOLY
 70
     0
  9
$TDCREATE
 40
2452629.7636367008
  9
$TDUPDATE
 40
2455510.5868866672
  9
$TDINDWG
 40
0.771183125
  9
$TDUSRTIMER
 40
0.771183125
  9
$USRTIMER
 70
     1
  9
$ANGBASE
 50
0.0
  9
$ANGDIR
 70
     0
  9
$PDMODE
 70
     0
  9
$PDSIZE
 40
0.0
  9
$PLINEWID
 40
0.0
  9
$COORDS
 70
     0
  9
$SPLFRAME
 70
     0
  9
$SPLINETYPE
 70
     6
  9
$SPLINESEGS
 70
     8
  9
$ATTDIA
 70
     1
  9
$ATTREQ
 70
     1
  9
$HANDLING
 70
     1
  9
$HANDSEED
  5
4942
  9
$SURFTAB1
 70
     6
  9
$SURFTAB2
 70
     6
  9
$SURFTYPE
 70
     6
  9
$SURFU
 70
     6
  9
$SURFV
 70
     6
  9
$UCSNAME
  2

  9
$UCSORG
 10
0.0
 20
0.0
 30
0.0
  9
$UCSXDIR
 10
1.0
 20
0.0
 30
0.0
  9
$UCSYDIR
 10
0.0
 20
1.0
 30
0.0
  9
$PUCSNAME
  2

  9
$PUCSORG
 10
0.0
 20
0.0
 30
0.0
  9
$PUCSXDIR
 10
1.0
 20
0.0
 30
0.0
  9
$PUCSYDIR
 10
0.0
 20
1.0
 30
0.0
  9
$USERI1
 70
     0
  9
$USERI2
 70
     0
  9
$USERI3
 70
     0
  9
$USERI4
 70
     0
  9
$USERI5
 70
     0
  9
$USERR1
 40
0.0
  9
$USERR2
 40
0.0
  9
$USERR3
 40
0.0
  9
$USERR4
 40
0.0
  9
$USERR5
 40
0.0
  9
$WORLDVIEW
 70
     1
  9
$SHADEDGE
 70
     3
  9
$SHADEDIF
 70
    70
  9
$TILEMODE
 70
     1
  9
$MAXACTVP
 70
    64
  9
$PLIMCHECK
 70
     0
  9
$PEXTMIN
 10
1.0000000000000000E+020
 20
1.0000000000000000E+020
 30
1.0000000000000000E+020
  9
$PEXTMAX
 10
-1.0000000000000000E+020
 20
-1.0000000000000000E+020
 30
-1.0000000000000000E+020
  9
$PLIMMIN
 10
0.0
 20
0.0
  9
$PLIMMAX
 10
420.0
 20
297.0
  9
$UNITMODE
 70
     0
  9
$VISRETAIN
 70
     1
  9
$PLINEGEN
 70
     0
  9
$PSLTSCALE
 70
     1
  0
ENDSEC
  0
SECTION
  2
TABLES
  0
TABLE
  2
VPORT
 70
     3
  0
VPORT
  2
*ACTIVE
 70
     0
 10
0.0
 20
0.0
 11
1.0
 21
1.0
 12
503.7623206825744
 22
350.00856027573388
 13
-85.0
 23
0.0
 14
6.25
 24
6.25
 15
25.0
 25
25.0
 16
0.0
 26
0.0
 36
1.0
 17
0.0
 27
0.0
 37
0.0
 40
705.45541754719284
 41
1.4890322580645159
 42
50.0
 43
0.0
 44
0.0
 50
0.0
 51
0.0
 71
     0
 72
   100
 73
     1
 74
     3
 75
     0
 76
     0
 77
     0
 78
     0
  0
ENDTAB
  0
TABLE
  2
LTYPE
 70
    22
  0
LTYPE
  2
CONTINUOUS
 70
     0
  3
Solid line
 72
    65
 73
     0
 40
0.0
  0
LTYPE
  2
AM_ISO02W050
 70
     0
  3
__ __ __ __ __ __ __ __ __ __ __ __ __ __ __
 72
    65
 73
     2
 40
7.5
 49
6.0
 49
-1.5
  0
LTYPE
  2
AM_ISO08W050
 70
     0
  3
____ . ____ . ____ . ____ . ____ . ____ . ____
 72
    65
 73
     4
 40
18.0
 49
12.0
 49
-1.5
 49
3.0
 49
-1.5
  0
LTYPE
  2
AM_ISO09W050
 70
     0
  3
_____ . . _____ . . _____ . . ____ .. ____
 72
    65
 73
     6
 40
22.5
 49
12.0
 49
-1.5
 49
3.0
 49
-1.5
 49
3.0
 49
-1.5
  0
LTYPE
  2
AMCONSTR
 70
     0
  3
_______________________
 72
    65
 73
     2
 40
9999.0
 49
9999.0
 49
0.0
  0
LTYPE
  2
AM_ISO02W050X2
 70
     0
  3
 _ _ _ _ _ _ _ _ _ _ _ _
 72
    65
 73
     2
 40
3.75
 49
3.0
 49
-0.75
  0
LTYPE
  2
AM_ISO08W050X2
 70
     0
  3
__ . __ . __ . __ . __ . __
 72
    65
 73
     4
 40
9.0
 49
6.0
 49
-0.75
 49
1.5
 49
-0.75
  0
LTYPE
  2
AMZIGZAG
 70
     0
  3
/\/-/\/-/\/-/\/-/\/-/\/
 72
    65
 73
     2
 40
11.0001
 49
0.0001
 49
-11.0
  0
LTYPE
  2
HIDDEN
 70
     0
  3
Hidden __ __ __ __ __ __ __ __ __ __ __ __ __ _
 72
    65
 73
     2
 40
9.5249999999999986
 49
6.3499999999999988
 49
-3.1749999999999989
  0
LTYPE
  2
PHANTOM2
 70
     0
  3
Phantom (.5x) ___ _ _ ___ _ _ ___ _ _ ___ _ _
 72
    65
 73
     6
 40
31.75
 49
15.875
 49
-3.1749999999999989
 49
3.1749999999999989
 49
-3.1749999999999989
 49
3.1749999999999989
 49
-3.1749999999999989
  0
LTYPE
  2
CENTER
 70
     0
  3
__ . __
 72
    65
 73
     4
 40
7.0
 49
4.0
 49
-1.0
 49
1.0
 49
-1.0
  0
LTYPE
  2
ACJISTGB
 70
     0
  3
__ . . __ . .
 72
    65
 73
     6
 40
9.0
 49
4.0
 49
-1.0
 49
1.0
 49
-1.0
 49
1.0
 49
-1.0
  0
LTYPE
  2
ACJISTGL
 70
     0
  3
_ _ _ _ _
 72
    65
 73
     2
 40
3.0
 49
2.0
 49
-1.0
  0
LTYPE
  2
ACISOWELD
 70
     0
  3
_ _ _ _ _
 72
    65
 73
     2
 40
2.0
 49
2.0
 49
-1.0
  0
LTYPE
  2
ACISOTGB
 70
     0
  3
__ . . __ . .
 72
    65
 73
     6
 40
9.0
 49
4.0
 49
-1.0
 49
1.0
 49
-1.0
 49
1.0
 49
-1.0
  0
LTYPE
  2
ACISOTGL
 70
     0
  3
_ _ _ _ _
 72
    65
 73
     2
 40
3.0
 49
2.0
 49
-1.0
  0
LTYPE
  2
GEN3
 70
     0
  3
-- -- -- -- -- -- -- -- -- -- -- -- -- -- --
 72
    65
 73
     2
 40
6.25
 49
4.75
 49
-1.5
  0
LTYPE
  2
GEN7
 70
     0
  3
____ . ____ . ____ . ____ . ____ . ____ . ____
 72
    65
 73
     4
 40
13.75
 49
9.75
 49
-1.5
 49
1.0
 49
-1.5
  0
LTYPE
  2
GEN3A
 70
     0
  3
 - - - - -
 72
    65
 73
     2
 40
3.125
 49
2.25
 49
-0.875
  0
LTYPE
  2
GEN7A
 70
     0
  3
__ . __ . __
 72
    65
 73
     4
 40
6.875
 49
4.75
 49
-0.875
 49
0.375
 49
-0.875
  0
LTYPE
  2
GEN4A
 70
     0
  3
_____ . . _____ . . _____ . . ____ .. ____
 72
    65
 73
     6
 40
16.25
 49
9.75
 49
-1.5
 49
1.0
 49
-1.5
 49
1.0
 49
-1.5
  0
LTYPE
  2
GENZIGZAG
 70
     0
  3
/\/-/\/-/\/-/\/-/\/-/\/
 72
    65
 73
     2
 40
12.0001
 49
0.0001
 49
-12.0
  0
ENDTAB
  0
TABLE
  2
LAYER
 70
    14
  0
LAYER
  2
0
 70
     0
 62
     7
  6
CONTINUOUS
  0
LAYER
  2
AM_5
 70
     0
 62
     3
  6
CONTINUOUS
  0
LAYER
  2
DEFPOINTS
 70
     0
 62
     7
  6
CONTINUOUS
  0
LAYER
  2
RAHM2
 70
     0
 62
     1
  6
CONTINUOUS
  0
LAYER
  2
7A
 70
     0
 62
     4
  6
GEN7A
  0
LAYER
  2
AM_12
 70
     0
 62
     7
  6
CONTINUOUS
  0
LAYER
  2
AM_PAREF
 70
     0
 62
     4
  6
CONTINUOUS
  0
LAYER
  2
ﾋ_ｽ
 70
     0
 62
     8
  6
CONTINUOUS
  0
LAYER
  2
ﾋ_ｽ0
 70
     0
 62
     8
  6
AM_ISO02W050X2
  0
LAYER
  2
ｼｬ_ｼ
 70
     0
 62
     7
  6
CONTINUOUS
  0
LAYER
  2
ｼｬ_ｼ取付台
 70
     0
 62
     2
  6
CONTINUOUS
  0
LAYER
  2
ｼｬ_ｼ取付台0
 70
     0
 62
     2
  6
AM_ISO02W050X2
  0
LAYER
  2
ｼｬ_ｼ0
 70
     0
 62
     7
  6
AM_ISO02W050X2
  0
LAYER
  2
AM_7
 70
     0
 62
     4
  6
AM_ISO08W050
  0
ENDTAB
  0
TABLE
  2
STYLE
 70
    11
  0
STYLE
  2
STANDARD
 70
     0
 40
0.0
 41
1.0
 50
0.0
 71
     0
 42
2.5
  3
ISOCP.SHX
  4
EXTFONT.SHX
  0
STYLE
  2
USER1
 70
     0
 40
0.0
 41
1.0
 50
0.0
 71
     0
 42
2.5
  3
TXT.SHX
  4

  0
STYLE
  2
USER2
 70
     0
 40
0.0
 41
1.0
 50
0.0
 71
     0
 42
2.5
  3
SIMPLEX.SHX
  4

  0
STYLE
  2
USER3
 70
     0
 40
0.0
 41
1.0
 50
0.0
 71
     0
 42
2.5
  3
ITALIC.SHX
  4

  0
STYLE
  2

 70
     1
 40
0.0
 41
1.0
 50
0.0
 71
     0
 42
2.5
  3
ltypeshp.shx
  4

  0
STYLE
  2
ACJISTS
 70
     0
 40
1.0
 41
1.0
 50
0.0
 71
     0
 42
2.5
  3
isocp.shx
  4
bigfont.shx
  0
STYLE
  2
ACJISGDT
 70
     0
 40
0.0
 41
1.0
 50
0.0
 71
     0
 42
2.5
  3
amgdt.shx
  4

  0
STYLE
  2
ACISOTS
 70
     0
 40
1.0
 41
1.0
 50
0.0
 71
     0
 42
2.5
  3
isocp.shx
  4
extfont.shx
  0
STYLE
  2
ACISOGDT
 70
     0
 40
0.0
 41
1.0
 50
0.0
 71
     0
 42
2.5
  3
amgdt.shx
  4

  0
STYLE
  2

 70
     1
 40
0.0
 41
1.0
 50
0.0
 71
     0
 42
2.5
  3
genltshp.shx
  4

  0
STYLE
  2
TAKACHI1
 70
     0
 40
2.5
 41
1.0
 50
0.0
 71
     0
 42
2.5
  3
txt
  4

  0
ENDTAB
  0
TABLE
  2
VIEW
 70
     6
  0
VIEW
  2
AM_VIEW1
 70
     0
 40
432.4225663716814
 10
251.875
 20
483.78871681415939
 41
503.75
 11
0.0
 21
0.0
 31
1.0
 12
0.0
 22
0.0
 32
0.0
 42
50.0
 43
0.0
 44
0.0
 50
0.0
 71
     0
  0
VIEW
  2
AM_VIEW2
 70
     0
 40
432.4225663716814
 10
755.625
 20
483.78871681415939
 41
503.75
 11
0.0
 21
0.0
 31
1.0
 12
0.0
 22
0.0
 32
0.0
 42
50.0
 43
0.0
 44
0.0
 50
0.0
 71
     0
  0
VIEW
  2
AM_VIEW3
 70
     0
 40
432.4225663716814
 10
251.875
 20
216.2112831858407
 41
503.75
 11
0.0
 21
0.0
 31
1.0
 12
0.0
 22
0.0
 32
0.0
 42
50.0
 43
0.0
 44
0.0
 50
0.0
 71
     0
  0
VIEW
  2
AM_VIEW4
 70
     0
 40
432.4225663716814
 10
755.625
 20
216.2112831858407
 41
503.75
 11
0.0
 21
0.0
 31
1.0
 12
0.0
 22
0.0
 32
0.0
 42
50.0
 43
0.0
 44
0.0
 50
0.0
 71
     0
  0
VIEW
  2
AM_VIEW5
 70
     0
 40
432.42256637168151
 10
503.75
 20
350.0
 41
503.75
 11
0.0
 21
0.0
 31
1.0
 12
0.0
 22
0.0
 32
0.0
 42
50.0
 43
0.0
 44
0.0
 50
0.0
 71
     0
  0
VIEW
  2
AM_VIEW6
 70
     0
 40
864.83648429203538
 10
503.75
 20
350.0
 41
1007.489925
 11
0.0
 21
0.0
 31
1.0
 12
0.0
 22
0.0
 32
0.0
 42
50.0
 43
0.0
 44
0.0
 50
0.0
 71
     0
  0
ENDTAB
  0
TABLE
  2
UCS
 70
     0
  0
ENDTAB
  0
TABLE
  2
APPID
 70
    38
  0
APPID
  2
ACAD
 70
     0
  0
APPID
  2
MCAD_NO_VIS
 70
     0
  0
APPID
  2
ACAD_TEMP_GRAPHIC
 70
     0
  0
APPID
  2
RAK
 70
     0
  0
APPID
  2
GENIUS_GENODEF_13
 70
     0
  0
APPID
  2
GENIUS_GENOBJ-N-FIL_13
 70
     0
  0
APPID
  2
GENIUS_GENREC_14
 70
     0
  0
APPID
  2
GENIUS_GENOBJ-N-REC_13
 70
     0
  0
APPID
  2
GENIUS_GENOBJ-N-HTC_13
 70
     0
  0
APPID
  2
GENIUS_GENHATCH_13
 70
     0
  0
APPID
  2
GENIUS_GENDTOL_13
 70
     0
  0
APPID
  2
GENIUS_GENDIMSH_14
 70
     0
  0
APPID
  2
AD_DRAW
 70
     0
  0
APPID
  2
ACATTRIBSERVICES
 70
     0
  0
APPID
  2
DESIGNERASSEMBLIES
 70
     0
  0
APPID
  2
ACADM_DIM_EDIT
 70
     0
  0
APPID
  2
AMDT_DM_ADJ
 70
     0
  0
APPID
  2
GENIUS_GENCFG_13
 70
     0
  0
APPID
  2
GENIUS_GENCFG0_13
 70
     0
  0
APPID
  2
GENIUS_GENCFG1_13
 70
     0
  0
APPID
  2
GENIUS_GENCFG2_13
 70
     0
  0
APPID
  2
GENIUS_GENCFG3_13
 70
     0
  0
APPID
  2
GENIUS_GENCFG4_13
 70
     0
  0
APPID
  2
GENIUS_GEVCFG0_13
 70
     0
  0
APPID
  2
GENIUS_GENOENT_13
 70
     0
  0
APPID
  2
GENIUS_GENOBJ-N-CRS_13
 70
     0
  0
APPID
  2
GENIUS_GENOREF_13
 70
     0
  0
APPID
  2
GENIUS_GENOLIS_13
 70
     0
  0
APPID
  2
GENIUS_GENOBJ-N-TIT_13
 70
     0
  0
APPID
  2
GENIUS_GENTITLE_13
 70
     0
  0
APPID
  2
GENIUS_GENSCREG_15
 70
     0
  0
APPID
  2
GENIUS_GENOBJ-N-SDF_13
 70
     0
  0
APPID
  2
GENIUS_GENOBJ-N-CEN_13
 70
     0
  0
APPID
  2
GENIUS_GENOBJ-N-ZOO_13
 70
     0
  0
APPID
  2
GENIUS_GENZOO_17
 70
     0
  0
APPID
  2
GEV_VCCNULL_SWITCH_OFF
 70
     0
  0
APPID
  2
GENIUS_GENCEN_19
 70
     0
  0
APPID
  2
GENIUS_GENSCREG_13
 70
     0
  0
ENDTAB
  0
TABLE
  2
DIMSTYLE
 70
    24
  0
DIMSTYLE
  2
ISO-25
 70
     0
  3

  4

  5

  6

  7

 40
1.0
 41
2.5
 42
0.625
 43
3.75
 44
1.25
 45
0.0
 46
0.0
 47
0.0
 48
0.0
140
2.5
141
2.5
142
0.0
143
0.03937007874016
144
1.0
145
0.0
146
1.0
147
0.625
 71
     0
 72
     0
 73
     0
 74
     0
 75
     0
 76
     0
 77
     1
 78
     8
170
     0
171
     3
172
     1
173
     0
174
     0
175
     0
176
     0
177
     0
178
     0
  0
DIMSTYLE
  2
AM_JIS
 70
     0
  3

  4
"
  5
OPEN30
  6

  7

 40
1.0
 41
2.5
 42
1.0
 43
10.0
 44
1.0
 45
0.0
 46
0.0
 47
0.1
 48
0.1
140
3.5
141
0.0
142
0.0
143
0.0393701
144
1.0
145
0.0
146
0.71
147
1.5
 71
     0
 72
     0
 73
     0
 74
     0
 75
     0
 76
     0
 77
     3
 78
     8
170
     0
171
     2
172
     1
173
     0
174
     0
175
     0
176
   256
177
   256
178
     2
  0
DIMSTYLE
  2
AM_JIS$3
 70
     0
  3

  4
"
  5
OPEN30
  6
OPEN30
  7
OPEN30
 40
1.0
 41
2.5
 42
1.0
 43
10.0
 44
1.0
 45
0.0
 46
0.0
 47
0.1
 48
0.1
140
3.5
141
0.0
142
0.0
143
0.0393701
144
1.0
145
0.0
146
0.71
147
1.5
 71
     0
 72
     0
 73
     0
 74
     1
 75
     0
 76
     0
 77
     3
 78
     8
170
     0
171
     2
172
     0
173
     0
174
     0
175
     0
176
   256
177
   256
178
     2
  0
DIMSTYLE
  2
AM_JIS$4
 70
     0
  3

  4
"
  5
OPEN30
  6
OPEN30
  7
OPEN30
 40
1.0
 41
2.5
 42
1.0
 43
10.0
 44
1.0
 45
0.0
 46
0.0
 47
0.1
 48
0.1
140
3.5
141
0.0
142
0.0
143
0.0393701
144
1.0
145
0.0
146
0.71
147
1.5
 71
     0
 72
     0
 73
     0
 74
     1
 75
     0
 76
     0
 77
     3
 78
     8
170
     0
171
     2
172
     0
173
     0
174
     0
175
     0
176
   256
177
   256
178
     2
  0
DIMSTYLE
  2
AM_JIS$6
 70
     0
  3

  4
"
  5
OPEN30
  6
OPEN30
  7
OPEN30
 40
1.0
 41
2.5
 42
1.0
 43
10.0
 44
1.0
 45
0.0
 46
0.0
 47
0.1
 48
0.1
140
3.5
141
0.0
142
0.0
143
0.0393701
144
1.0
145
0.0
146
0.71
147
1.5
 71
     0
 72
     0
 73
     0
 74
     0
 75
     0
 76
     0
 77
     0
 78
     8
170
     0
171
     2
172
     1
173
     0
174
     0
175
     0
176
   256
177
   256
178
     2
  0
DIMSTYLE
  2
AM_JIS$7
 70
     0
  3

  4
"
  5
OPEN30
  6
OPEN30
  7
OPEN30
 40
1.0
 41
2.5
 42
1.0
 43
10.0
 44
1.0
 45
0.0
 46
0.0
 47
0.1
 48
0.1
140
5.0
141
0.0
142
0.0
143
0.0393701
144
1.0
145
0.0
146
0.71
147
1.5
 71
     0
 72
     0
 73
     0
 74
     0
 75
     0
 76
     0
 77
     3
 78
     8
170
     0
171
     2
172
     1
173
     0
174
     0
175
     0
176
   256
177
   256
178
     2
  0
DIMSTYLE
  2
AM_JIS$SF
 70
     0
  3

  4
"
  5
OPEN30
  6
OPEN30
  7
OPEN30
 40
1.0
 41
2.5
 42
1.0
 43
10.0
 44
1.0
 45
0.0
 46
0.0
 47
0.1
 48
0.1
140
3.5
141
0.0
142
0.0
143
0.0393701
144
1.0
145
0.0
146
0.71
147
1.5
 71
     0
 72
     0
 73
     0
 74
     0
 75
     1
 76
     1
 77
     3
 78
     8
170
     0
171
     2
172
     1
173
     0
174
     0
175
     0
176
   256
177
   256
178
     2
  0
DIMSTYLE
  2
AM_JIS$SH
 70
     0
  3

  4
"
  5
OPEN30
  6
GENAXEH
  7
OPEN30
 40
1.0
 41
2.5
 42
1.0
 43
10.0
 44
1.0
 45
0.0
 46
0.0
 47
0.1
 48
0.1
140
3.5
141
0.0
142
0.0
143
0.0393701
144
2.0
145
0.0
146
0.71
147
1.5
 71
     0
 72
     0
 73
     0
 74
     0
 75
     1
 76
     1
 77
     3
 78
     8
170
     0
171
     2
172
     1
173
     1
174
     0
175
     0
176
   256
177
   256
178
     2
  0
DIMSTYLE
  2
AM_ISO
 70
     0
  3

  4
"
  5
OPEN30
  6

  7

 40
1.0
 41
2.5
 42
1.0
 43
10.0
 44
1.0
 45
0.0
 46
0.0
 47
0.1
 48
0.1
140
3.5
141
0.0
142
0.0
143
0.0393701
144
1.0
145
0.0
146
0.71
147
1.5
 71
     0
 72
     0
 73
     0
 74
     0
 75
     0
 76
     0
 77
     1
 78
     8
170
     0
171
     2
172
     1
173
     0
174
     0
175
     0
176
   256
177
   256
178
     2
  0
DIMSTYLE
  2
AM_ISO$3
 70
     0
  3

  4
"
  5
OPEN30
  6

  7

 40
1.0
 41
2.5
 42
1.0
 43
10.0
 44
1.0
 45
0.0
 46
0.0
 47
0.1
 48
0.1
140
3.5
141
0.0
142
0.0
143
0.0393701
144
1.0
145
0.0
146
0.71
147
1.5
 71
     0
 72
     0
 73
     0
 74
     1
 75
     0
 76
     0
 77
     1
 78
     8
170
     0
171
     2
172
     0
173
     0
174
     0
175
     0
176
   256
177
   256
178
     2
  0
DIMSTYLE
  2
AM_ISO$4
 70
     0
  3

  4
"
  5
OPEN30
  6

  7

 40
1.0
 41
2.5
 42
1.0
 43
10.0
 44
1.0
 45
0.0
 46
0.0
 47
0.1
 48
0.1
140
3.5
141
0.0
142
0.0
143
0.0393701
144
1.0
145
0.0
146
0.71
147
1.5
 71
     0
 72
     0
 73
     0
 74
     1
 75
     0
 76
     0
 77
     1
 78
     8
170
     0
171
     2
172
     0
173
     0
174
     0
175
     0
176
   256
177
   256
178
     2
  0
DIMSTYLE
  2
AM_ISO$6
 70
     0
  3

  4
"
  5
OPEN30
  6

  7

 40
1.0
 41
2.5
 42
1.0
 43
10.0
 44
1.0
 45
0.0
 46
0.0
 47
0.1
 48
0.1
140
3.5
141
0.0
142
0.0
143
0.0393701
144
1.0
145
0.0
146
0.71
147
1.5
 71
     0
 72
     0
 73
     0
 74
     0
 75
     0
 76
     0
 77
     0
 78
     8
170
     0
171
     2
172
     1
173
     0
174
     0
175
     0
176
   256
177
   256
178
     2
  0
DIMSTYLE
  2
AM_ISO$7
 70
     0
  3

  4
"
  5
OPEN30
  6

  7

 40
1.0
 41
2.5
 42
1.0
 43
10.0
 44
1.0
 45
0.0
 46
0.0
 47
0.1
 48
0.1
140
5.0
141
0.0
142
0.0
143
0.0393701
144
1.0
145
0.0
146
0.71
147
1.5
 71
     0
 72
     0
 73
     0
 74
     0
 75
     0
 76
     0
 77
     1
 78
     8
170
     0
171
     2
172
     1
173
     0
174
     0
175
     0
176
   256
177
   256
178
     2
  0
DIMSTYLE
  2
AM_ISO$SF
 70
     0
  3

  4
"
  5
OPEN30
  6

  7

 40
1.0
 41
2.5
 42
1.0
 43
10.0
 44
1.0
 45
0.0
 46
0.0
 47
0.1
 48
0.1
140
3.5
141
0.0
142
0.0
143
0.0393701
144
1.0
145
0.0
146
0.71
147
1.5
 71
     0
 72
     0
 73
     0
 74
     0
 75
     1
 76
     1
 77
     1
 78
     8
170
     0
171
     2
172
     1
173
     0
174
     0
175
     0
176
   256
177
   256
178
     2
  0
DIMSTYLE
  2
AM_ISO$SH
 70
     0
  3

  4
"
  5

  6
GENAXEH
  7
OPEN30
 40
1.0
 41
2.5
 42
1.0
 43
10.0
 44
1.0
 45
0.0
 46
0.0
 47
0.1
 48
0.1
140
3.5
141
0.0
142
0.0
143
0.0393701
144
2.0
145
0.0
146
0.71
147
1.5
 71
     0
 72
     0
 73
     0
 74
     0
 75
     1
 76
     1
 77
     1
 78
     8
170
     0
171
     2
172
     1
173
     1
174
     0
175
     0
176
   256
177
   256
178
     2
  0
DIMSTYLE
  2
GEN-ISO
 70
     0
  3

  4
"
  5
OPEN30
  6

  7

 40
1.0
 41
2.5
 42
1.0
 43
10.0
 44
1.0
 45
0.0
 46
0.0
 47
0.1
 48
0.1
140
3.5
141
0.0
142
0.0
143
0.0393701
144
1.0
145
0.0
146
0.71
147
1.5
 71
     0
 72
     0
 73
     0
 74
     0
 75
     0
 76
     0
 77
     1
 78
     8
170
     0
171
     2
172
     1
173
     0
174
     0
175
     0
176
   256
177
   256
178
     2
  0
DIMSTYLE
  2
GEN-ISO-POS
 70
     0
  3

  4
"
  5
OPEN30
  6

  7

 40
1.0
 41
2.5
 42
1.0
 43
10.0
 44
1.0
 45
0.0
 46
0.0
 47
0.1
 48
0.1
140
5.0
141
0.0
142
0.0
143
0.0393701
144
1.0
145
0.0
146
0.71
147
1.5
 71
     0
 72
     0
 73
     0
 74
     0
 75
     0
 76
     0
 77
     0
 78
     8
170
     0
171
     2
172
     0
173
     0
174
     0
175
     0
176
   256
177
   256
178
     2
  0
DIMSTYLE
  2
GEN-ISO-AXE-F
 70
     0
  3

  4
"
  5
OPEN30
  6

  7

 40
1.0
 41
2.5
 42
1.0
 43
10.0
 44
1.0
 45
0.0
 46
0.0
 47
0.1
 48
0.1
140
3.5
141
0.0
142
0.0
143
0.0393701
144
1.0
145
0.0
146
0.71
147
1.5
 71
     0
 72
     0
 73
     0
 74
     0
 75
     1
 76
     1
 77
     1
 78
     8
170
     0
171
     2
172
     1
173
     0
174
     0
175
     0
176
   256
177
   256
178
     2
  0
DIMSTYLE
  2
GEN-ISO-AXE-H
 70
     0
  3

  4
"
  5
OPEN30
  6

  7

 40
1.0
 41
2.5
 42
1.0
 43
10.0
 44
1.0
 45
0.0
 46
0.0
 47
0.1
 48
0.1
140
3.5
141
0.0
142
0.0
143
0.0393701
144
2.0
145
0.0
146
0.71
147
1.5
 71
     0
 72
     0
 73
     0
 74
     0
 75
     1
 76
     1
 77
     1
 78
     8
170
     0
171
     2
172
     1
173
     0
174
     0
175
     0
176
   256
177
   256
178
     2
  0
DIMSTYLE
  2
GEN-ISO$3
 70
     0
  3

  4
"
  5

  6

  7

 40
1.0
 41
2.5
 42
1.0
 43
10.0
 44
1.0
 45
0.0
 46
0.0
 47
0.1
 48
0.1
140
3.5
141
0.0
142
0.0
143
0.0393701
144
1.0
145
0.0
146
0.71
147
1.5
 71
     0
 72
     0
 73
     0
 74
     1
 75
     0
 76
     0
 77
     1
 78
     8
170
     0
171
     2
172
     0
173
     0
174
     0
175
     0
176
   256
177
   256
178
     2
  0
DIMSTYLE
  2
GEN-ISO$4
 70
     0
  3

  4
"
  5

  6

  7

 40
1.0
 41
2.5
 42
1.0
 43
10.0
 44
1.0
 45
0.0
 46
0.0
 47
0.1
 48
0.1
140
3.5
141
0.0
142
0.0
143
0.0393701
144
1.0
145
0.0
146
0.71
147
1.5
 71
     0
 72
     0
 73
     0
 74
     1
 75
     0
 76
     0
 77
     1
 78
     8
170
     0
171
     2
172
     0
173
     0
174
     0
175
     0
176
   256
177
   256
178
     2
  0
DIMSTYLE
  2
GEN-ISO$6
 70
     0
  3

  4
"
  5

  6

  7

 40
1.0
 41
2.5
 42
1.0
 43
10.0
 44
1.0
 45
0.0
 46
0.0
 47
0.1
 48
0.1
140
3.5
141
0.0
142
0.0
143
0.0393701
144
1.0
145
0.0
146
0.71
147
1.5
 71
     0
 72
     0
 73
     0
 74
     0
 75
     0
 76
     0
 77
     0
 78
     8
170
     0
171
     2
172
     0
173
     0
174
     0
175
     0
176
   256
177
   256
178
     2
  0
DIMSTYLE
  2
AM_ANSI
 70
     0
  3

  4
mm
  5

  6

  7

 40
1.0
 41
0.1
 42
0.05
 43
0.5
 44
0.1
 45
0.0
 46
0.0
 47
0.1
 48
0.1
140
0.12
141
0.0
142
0.0
143
25.399999999999999
144
1.0
145
0.0
146
0.71
147
0.06
 71
     0
 72
     0
 73
     1
 74
     1
 75
     0
 76
     0
 77
     0
 78
     7
170
     0
171
     2
172
     0
173
     0
174
     0
175
     0
176
   256
177
   256
178
     2
  0
DIMSTYLE
  2
AM_JIS$0
 70
     0
  3

  4
"
  5
OPEN30
  6

  7

 40
1.0
 41
2.5
 42
1.0
 43
10.0
 44
1.0
 45
0.0
 46
0.0
 47
0.1
 48
0.1
140
3.5
141
0.0
142
0.0
143
0.0393701
144
1.0
145
0.0
146
0.71
147
1.5
 71
     0
 72
     0
 73
     0
 74
     0
 75
     0
 76
     0
 77
     3
 78
     8
170
     0
171
     2
172
     1
173
     0
174
     0
175
     0
176
   256
177
   256
178
     2
  0
ENDTAB
  0
ENDSEC
  0
SECTION
  2
BLOCKS
  0
BLOCK
  8
0
  2
$MODEL_SPACE
 70
     0
 10
0.0
 20
0.0
 30
0.0
  3
$MODEL_SPACE
  1

  0
ENDBLK
  5
21
  8
0
  0
BLOCK
 67
     1
  8
0
  2
$PAPER_SPACE
 70
     0
 10
0.0
 20
0.0
 30
0.0
  3
$PAPER_SPACE
  1

  0
ENDBLK
  5
1D
 67
     1
  8
0
  0
BLOCK
  8
0
  2
_OPEN30
 70
     0
 10
0.0
 20
0.0
 30
0.0
  3
_OPEN30
  1

  0
LINE
  5
39DE
  8
0
  6
BYBLOCK
 62
     0
 10
-1.0
 20
0.26794919
 30
0.0
 11
0.0
 21
0.0
 31
0.0
  0
LINE
  5
39DF
  8
0
  6
BYBLOCK
 62
     0
 10
0.0
 20
0.0
 30
0.0
 11
-1.0
 21
-0.26794919
 31
0.0
  0
LINE
  5
39E0
  8
0
  6
BYBLOCK
 62
     0
 10
0.0
 20
0.0
 30
0.0
 11
-1.0
 21
0.0
 31
0.0
  0
ENDBLK
  5
39E1
  8
0
  0
BLOCK
  8
0
  2
GENAXEH
 70
     0
 10
0.0
 20
0.0
 30
0.0
  3
GENAXEH
  1

  0
LINE
  5
39EA
  8
0
 10
-1.0
 20
0.0
 30
0.0
 11
1.0
 21
0.0
 31
0.0
  0
ENDBLK
  5
39EB
  8
0
  0
BLOCK
  8
0
  2
TAKACHI-A3
 70
     0
 10
0.0
 20
0.0
 30
0.0
  3
TAKACHI-A3
  1

  0
POLYLINE
  5
249B
  8
0
 66
     1
 10
0.0
 20
0.0
 30
0.0
 70
     1
1001
GENIUS_GENREC_14
1002
{
1000
PYDIR
1011
10.000000000000011
1021
-0.0
1031
-17250103096.01635
1021
280.0
1031
0.0
1002
}
1002
{
1000
PXDIR
1011
410.0
1021
-0.0
1031
-17250103096.01635
1021
0.0
1031
0.0
1002
}
1002
{
1000
PORI
1011
10.0
1021
-0.0
1031
-17250103096.01635
1021
0.0
1031
0.0
1002
}
1002
{
1000
PINS
1011
210.0
1021
-0.0
1031
-17250103096.01635
1021
139.99999999999989
1031
0.0
1002
}
1002
{
1000
HVAL
1000
280
1002
}
1002
{
1000
H
1070
     2
1002
}
1002
{
1000
WVAL
1000
400
1002
}
1002
{
1000
W
1070
     2
1002
}
1002
{
1000
C
1070
     4
1002
}
1001
GENIUS_GENODEF_13
1002
{
1000
HIER
1070
     0
1002
}
1002
{
1000
MANEDIT
1070
     0
1002
}
1002
{
1000
NOSEL
1070
     0
1002
}
1002
{
1000
BEHIND
1070
     0
1002
}
1002
{
1000
REACTOR
1002
}
1001
GENIUS_GENOBJ-N-REC_13
1002
{
1000
OWNER
1000
GEN
1002
}
  0
VERTEX
  5
4775
  8
0
 10
10.0
 20
0.0
 30
0.0
  0
VERTEX
  5
4776
  8
0
 10
410.0
 20
0.0
 30
0.0
  0
VERTEX
  5
4777
  8
0
 10
410.0
 20
280.0
 30
0.0
  0
VERTEX
  5
4778
  8
0
 10
10.00000000000003
 20
280.0
 30
0.0
  0
SEQEND
  5
4779
  8
0
  0
TEXT
  5
249C
  8
0
 10
15.00000000000003
 20
50.0
 30
0.0
 40
2.5
  1
!GENTITLE-LL
  0
TEXT
  5
249D
  8
0
 10
410.0
 20
0.0
 30
0.0
 40
2.5
  1
!GENTITLE-INSERT
  0
TEXT
  5
249E
  8
0
 10
405.0
 20
275.0
 30
0.0
 40
2.5
  1
!GENTITLE-RU
  0
TEXT
  5
249F
  8
0
 10
410.0
 20
280.0
 30
0.0
 40
2.5
  1
!GENTITLE-MAX
  0
LINE
  5
24A0
  8
0
 10
375.0
 20
280.0
 30
0.0
 11
375.0
 21
275.0
 31
0.0
  0
LINE
  5
24A1
  8
0
 10
375.0
 20
275.0
 30
0.0
 11
410.0
 21
275.0
 31
0.0
  0
INSERT
  5
24A2
  8
ｼｬ_ｼ
  2
*U32
 10
0.0
 20
0.0
 30
0.0
  0
ENDBLK
  5
24A5
  8
0
  0
BLOCK
  8
0
  2
TAKACHI-TITLE
 70
     2
 10
0.0
 20
0.0
 30
0.0
  3
TAKACHI-TITLE
  1

  0
LINE
  5
24B0
  8
RAHM2
 10
-195.0
 20
30.000000000000028
 30
0.0
 11
-94.0
 21
30.000000000000028
 31
0.0
  0
LINE
  5
24B1
  8
RAHM2
 10
-195.0
 20
35.000000000000028
 30
0.0
 11
-94.0
 21
35.000000000000028
 31
0.0
  0
LINE
  5
24B2
  8
RAHM2
 10
-195.0
 20
40.000000000000021
 30
0.0
 11
-94.0
 21
40.000000000000021
 31
0.0
  0
LINE
  5
24B3
  8
RAHM2
 10
-195.0
 20
45.000000000000021
 30
0.0
 11
-94.0
 21
45.000000000000021
 31
0.0
  0
LINE
  5
24B4
  8
0
 10
-195.0
 20
7.0
 30
0.0
 11
-94.0
 21
7.0
 31
0.0
  0
LINE
  5
24B5
  8
0
 10
-195.0
 20
19.999999999999972
 30
0.0
 11
-94.0
 21
19.999999999999972
 31
0.0
  0
ATTDEF
  5
24B6
  8
0
 10
-183.24385271456069
 20
8.6175171910947483
 30
0.0
 40
2.5
  1

 11
-183.24385271456069
 21
8.6175171910947483
 31
0.0
  3
サブタイトル
  2
GEN-TITLE-DES2
 70
     0
 74
     1
  0
ATTDEF
  5
24B7
  8
0
 10
-183.24385271456069
 20
1.6175171910947479
 30
0.0
 40
3.0
  1

 11
-183.24385271456069
 21
1.6175171910947479
 31
0.0
  3
図番
  2
GEN-TITLE-NR
 70
     0
 74
     1
  0
INSERT
  5
24B8
  8
ｼｬ_ｼ
  2
*U33
 10
0.0
 20
0.0
 30
0.0
  0
ATTDEF
  5
24B9
  8
0
 10
-183.24385271456069
 20
13.873952861685011
 30
0.0
 40
4.0
  1

 11
-183.24385271456069
 21
13.873952861685011
 31
0.0
  3
品名
  2
GEN-TITLE-DES1
 70
     0
 74
     1
  0
LINE
  5
24BA
  8
RAHM2
 10
-187.57512886940361
 20
30.400000000000041
 30
0.0
 11
-190.0
 21
34.60000000000003
 31
0.0
  0
LINE
  5
24BB
  8
RAHM2
 10
-190.0
 20
34.60000000000003
 30
0.0
 11
-192.42487113059639
 21
30.400000000000041
 31
0.0
  0
LINE
  5
24BC
  8
RAHM2
 10
-185.0
 20
50.000000000000028
 30
0.0
 11
-185.0
 21
19.99999999999994
 31
0.0
  0
LINE
  5
24BD
  8
RAHM2
 10
-192.42487113059639
 20
30.400000000000041
 30
0.0
 11
-187.57512886940361
 21
30.400000000000041
 31
0.0
  0
INSERT
  5
24BE
  8
ｼｬ_ｼ
  2
*U34
 10
0.0
 20
0.0
 30
0.0
  0
INSERT
  5
24BF
  8
ｼｬ_ｼ
  2
*U35
 10
0.0
 20
0.0
 30
0.0
  0
LINE
  5
24C0
  8
RAHM2
 10
-192.42487113059639
 20
45.400000000000027
 30
0.0
 11
-187.57512886940361
 21
45.400000000000027
 31
0.0
  0
LINE
  5
24C1
  8
RAHM2
 10
-187.57512886940361
 20
45.400000000000027
 30
0.0
 11
-190.0
 21
49.600000000000023
 31
0.0
  0
LINE
  5
24C2
  8
RAHM2
 10
-192.42487113059639
 20
40.400000000000027
 30
0.0
 11
-187.57512886940361
 21
40.400000000000027
 31
0.0
  0
LINE
  5
24C3
  8
RAHM2
 10
-187.57512886940361
 20
40.400000000000027
 30
0.0
 11
-190.0
 21
44.600000000000023
 31
0.0
  0
LINE
  5
24C4
  8
RAHM2
 10
-192.42487113059639
 20
35.400000000000041
 30
0.0
 11
-187.57512886940361
 21
35.400000000000041
 31
0.0
  0
LINE
  5
24C5
  8
RAHM2
 10
-187.57512886940361
 20
35.400000000000041
 30
0.0
 11
-190.0
 21
39.600000000000023
 31
0.0
  0
LINE
  5
24C6
  8
RAHM2
 10
-190.0
 20
39.600000000000023
 30
0.0
 11
-192.42487113059639
 21
35.400000000000041
 31
0.0
  0
LINE
  5
24C7
  8
RAHM2
 10
-190.0
 20
44.600000000000023
 30
0.0
 11
-192.42487113059639
 21
40.400000000000027
 31
0.0
  0
LINE
  5
24C8
  8
RAHM2
 10
-190.0
 20
49.600000000000023
 30
0.0
 11
-192.42487113059639
 21
45.400000000000027
 31
0.0
  0
LINE
  5
24C9
  8
RAHM2
 10
-129.0
 20
50.000000000000028
 30
0.0
 11
-129.0
 21
19.99999999999994
 31
0.0
  0
INSERT
  5
24CA
  8
ｼｬ_ｼ
  2
*U36
 10
0.0
 20
0.0
 30
0.0
  0
LINE
  5
24CB
  8
0
 10
-34.0
 20
50.0
 30
0.0
 11
-34.0
 21
0.0
 31
0.0
  0
LINE
  5
24CC
  8
0
 10
-94.0
 20
50.0
 30
0.0
 11
-94.0
 21
0.0
 31
0.0
  0
INSERT
  5
24CD
  8
ｼｬ_ｼ
  2
*U37
 10
0.0
 20
0.0
 30
0.0
  0
LINE
  5
24CE
  8
0
 10
-94.0
 20
10.0
 30
0.0
 11
-34.0
 21
10.0
 31
0.0
  0
ATTDEF
  5
24CF
  8
0
 10
-58.014051197997453
 20
39.255005561783491
 30
0.0
 40
3.0
  1

 72
     2
 11
-58.014051197997453
 21
39.255005561783491
 31
0.0
  3
尺度
  2
GEN-TITLE-SCA
 70
     0
  0
ATTDEF
  5
24D0
  8
0
 10
-77.002849666490064
 20
30.621807879434751
 30
0.0
 40
3.0
  1

 11
-77.002849666490064
 21
30.621807879434751
 31
0.0
  3
材質
  2
GEN-TITLE-MAT1
 70
     0
 74
     1
  0
ATTDEF
  5
24D1
  8
0
 10
-77.002849666490064
 20
20.621807879434751
 30
0.0
 40
3.0
  1

 11
-77.002849666490064
 21
20.621807879434751
 31
0.0
  3
表面処理
  2
GEN-TITLE-MAT2
 70
     0
 74
     1
  0
ATTDEF
  5
24D2
  8
0
 10
-77.002849666490064
 20
11.61751719109475
 30
0.0
 40
3.0
  1

 11
-77.002849666490064
 21
11.61751719109475
 31
0.0
  3
日付
  2
GEN-TITLE-DAT
 70
     0
 74
     1
  0
LINE
  5
24D3
  8
0
 10
-94.0
 20
37.5
 30
0.0
 11
-34.0
 21
37.5
 31
0.0
  0
LINE
  5
24D4
  8
0
 10
-94.0
 20
27.5
 30
0.0
 11
-34.0
 21
27.5
 31
0.0
  0
LINE
  5
24D5
  8
0
 10
-94.0
 20
17.5
 30
0.0
 11
-34.0
 21
17.5
 31
0.0
  0
LINE
  5
24D6
  8
RAHM2
 10
-109.0
 20
50.000000000000028
 30
0.0
 11
-109.0
 21
19.99999999999994
 31
0.0
  0
INSERT
  5
24D7
  8
ｼｬ_ｼ
  2
*U38
 10
0.0
 20
0.0
 30
0.0
  0
INSERT
  5
24D8
  8
ｼｬ_ｼ
  2
*U39
 10
0.0
 20
0.0
 30
0.0
  0
INSERT
  5
24D9
  8
ｼｬ_ｼ
  2
*U40
 10
0.0
 20
0.0
 30
0.0
  0
INSERT
  5
24DA
  8
ｼｬ_ｼ
  2
*U41
 10
0.0
 20
0.0
 30
0.0
  0
INSERT
  5
24DB
  8
ｼｬ_ｼ
  2
*U42
 10
0.0
 20
0.0
 30
0.0
  0
INSERT
  5
24DC
  8
ｼｬ_ｼ
  2
*U43
 10
0.0
 20
0.0
 30
0.0
  0
INSERT
  5
24DD
  8
ｼｬ_ｼ
  2
*U44
 10
0.0
 20
0.0
 30
0.0
  0
INSERT
  5
24DE
  8
ｼｬ_ｼ
  2
*U45
 10
0.0
 20
0.0
 30
0.0
  0
LINE
  5
24DF
  8
7A
 10
-89.0
 20
43.75
 30
0.0
 11
-75.218691599714703
 21
43.75
 31
0.0
1001
GENIUS_GENOREF_13
1005
24F2
  0
LINE
  5
24E0
  8
0
 10
-84.0
 20
45.75
 30
0.0
 11
-76.0
 21
46.749999999999993
 31
0.0
  0
LINE
  5
24E1
  8
0
 10
-76.0
 20
40.75
 30
0.0
 11
-84.0
 21
41.749999999999993
 31
0.0
  0
LINE
  5
24E2
  8
7A
 10
-89.0
 20
43.75
 30
0.0
 11
-89.0
 21
47.324786644731482
 31
0.0
1001
GENIUS_GENOREF_13
1005
24F2
  0
CIRCLE
  5
24E3
  8
0
 10
-89.0
 20
43.75
 30
0.0
 40
2.0
  0
CIRCLE
  5
24E4
  8
0
 10
-89.0
 20
43.75
 30
0.0
 40
3.0
  0
LINE
  5
24E5
  8
0
 10
-84.0
 20
41.749999999999993
 30
0.0
 11
-84.0
 21
45.75
 31
0.0
  0
INSERT
  5
24E6
  8
ｼｬ_ｼ
  2
*U46
 10
0.0
 20
0.0
 30
0.0
  0
LINE
  5
24E7
  8
7A
 10
-89.0
 20
43.75
 30
0.0
 11
-92.723037371251166
 21
43.75
 31
0.0
1001
GENIUS_GENOREF_13
1005
24F2
  0
LINE
  5
24E8
  8
7A
 10
-89.0
 20
43.75
 30
0.0
 11
-89.0
 21
40.039917242284787
 31
0.0
1001
GENIUS_GENOREF_13
1005
24F2
  0
LINE
  5
24E9
  8
0
 10
-76.0
 20
46.749999999999993
 30
0.0
 11
-76.0
 21
40.75
 31
0.0
  0
LINE
  5
24EA
  8
0
 10
-74.0
 20
50.0
 30
0.0
 11
-74.0
 21
37.5
 31
0.0
  0
INSERT
  5
24EB
  8
ｼｬ_ｼ
  2
*U47
 10
0.0
 20
0.0
 30
0.0
  0
ATTDEF
  5
24EC
  8
0
 10
-37.76317379391503
 20
39.255005561783491
 30
0.0
 40
3.0
  1

 72
     2
 11
-37.76317379391503
 21
39.255005561783491
 31
0.0
  3
数量
  2
GEN-TITLE-QTY
 70
     0
  0
LINE
  5
24ED
  8
0
 10
-34.0
 20
25.0
 30
0.0
 11
0.0
 21
25.0
 31
0.0
  0
LINE
  5
24EE
  8
0
 10
-54.0
 20
50.0
 30
0.0
 11
-54.0
 21
37.5
 31
0.0
  0
INSERT
  5
24EF
  8
ｼｬ_ｼ
  2
*U48
 10
0.0
 20
0.0
 30
0.0
  0
INSERT
  5
24F0
  8
ｼｬ_ｼ
  2
*U49
 10
0.0
 20
0.0
 30
0.0
  0
INSERT
  5
24F1
  8
ｼｬ_ｼ
  2
*U50
 10
0.0
 20
0.0
 30
0.0
  0
POINT
  5
24F2
  8
0
 10
-320.5355579819676
 20
-138.11048412682541
 30
0.0
1001
GENIUS_GENODEF_13
1002
{
1000
HIER
1070
    10
1002
}
1002
{
1000
MANEDIT
1070
     0
1002
}
1002
{
1000
NOSEL
1070
     0
1002
}
1002
{
1000
BEHIND
1070
     0
1002
}
1002
{
1000
REACTOR
1002
}
1001
GENIUS_GENOBJ-N-CRS_13
1002
{
1000
OWNER
1000
GEN
1002
}
1001
GENIUS_GENOENT_13
1002
{
1000
MYREF
1005
24F2
1002
}
1002
{
1000
GRP
1005
0
1002
}
1001
GENIUS_GENOLIS_13
1002
{
1000
ENT
1005
24E8
1005
24E7
1005
24E2
1005
24DF
1002
}
  0
LINE
  5
24F3
  8
RAHM2
 10
-190.0
 20
29.600000000000019
 30
0.0
 11
-192.42487113059639
 21
25.400000000000041
 31
0.0
  0
LINE
  5
24F4
  8
RAHM2
 10
-187.57512886940361
 20
25.400000000000041
 30
0.0
 11
-190.0
 21
29.600000000000019
 31
0.0
  0
LINE
  5
24F5
  8
RAHM2
 10
-192.42487113059639
 20
25.400000000000041
 30
0.0
 11
-187.57512886940361
 21
25.400000000000041
 31
0.0
  0
LINE
  5
24F6
  8
RAHM2
 10
-195.0
 20
25.000000000000028
 30
0.0
 11
-94.0
 21
25.000000000000028
 31
0.0
  0
INSERT
  5
24F7
  8
ｼｬ_ｼ
  2
*U51
 10
0.0
 20
0.0
 30
0.0
  0
TEXT
  5
24F8
  8
RAHM2
 10
-190.8155863565801
 20
25.650000000000031
 30
0.0
 40
2.5
  1
1
 72
     1
 11
-190.19058635658021
 21
25.650000000000031
 31
0.0
 73
     1
  0
TEXT
  5
24F9
  8
RAHM2
 10
-190.9183316929134
 20
30.650000000000031
 30
0.0
 40
2.5
  1
2
 72
     1
 11
-190.0
 21
30.650000000000031
 31
0.0
 73
     1
  0
TEXT
  5
24FA
  8
RAHM2
 10
-190.92677669529661
 20
35.650000000000013
 30
0.0
 40
2.5
  1
3
 72
     1
 11
-190.0
 21
35.650000000000013
 31
0.0
 73
     1
  0
TEXT
  5
24FB
  8
RAHM2
 10
-191.0
 20
40.650000000000027
 30
0.0
 40
2.5
  1
4
 72
     1
 11
-190.0
 21
40.650000000000027
 31
0.0
 73
     1
  0
TEXT
  5
24FC
  8
RAHM2
 10
-190.92677669529661
 20
45.650000000000027
 30
0.0
 40
2.5
  1
5
 72
     1
 11
-190.0
 21
45.650000000000027
 31
0.0
 73
     1
  0
LINE
  5
24FD
  8
0
 10
-17.0
 20
50.0
 30
0.0
 11
-17.0
 21
0.0
 31
0.0
  0
LINE
  5
24FE
  8
0
 10
-195.0
 20
0.0
 30
0.0
 11
0.0
 21
0.0
 31
0.0
1001
GENIUS_GENREC_14
1002
{
1000
PYDIR
1011
-184.0
1021
-0.0
1031
-17250103096.01635
1021
50.0
1031
0.0
1002
}
1002
{
1000
PXDIR
1011
0.0
1021
-0.0
1031
-17250103096.01635
1021
0.0
1031
0.0
1002
}
1002
{
1000
PORI
1011
-184.0
1021
-0.0
1031
-17250103096.01635
1021
0.0
1031
0.0
1002
}
1002
{
1000
PINS
1011
-100.5
1021
-0.0
1031
-17250103096.01635
1021
25.0
1031
0.0
1002
}
1002
{
1000
HVAL
1000
50
1002
}
1002
{
1000
H
1070
     2
1002
}
1002
{
1000
WVAL
1000
167
1002
}
1002
{
1000
W
1070
     2
1002
}
1002
{
1000
C
1070
     4
1002
}
1001
GENIUS_GENODEF_13
1002
{
1000
HIER
1070
     0
1002
}
1002
{
1000
MANEDIT
1070
     0
1002
}
1002
{
1000
NOSEL
1070
     0
1002
}
1002
{
1000
BEHIND
1070
     0
1002
}
1002
{
1000
REACTOR
1002
}
1001
GENIUS_GENOBJ-N-REC_13
1002
{
1000
OWNER
1000
GEN
1002
}
  0
LINE
  5
24FF
  8
0
 10
0.0
 20
0.0
 30
0.0
 11
0.0
 21
50.0
 31
0.0
1001
GENIUS_GENREC_14
1002
{
1000
PYDIR
1011
-184.0
1021
-0.0
1031
-17250103096.01635
1021
50.0
1031
0.0
1002
}
1002
{
1000
PXDIR
1011
0.0
1021
-0.0
1031
-17250103096.01635
1021
0.0
1031
0.0
1002
}
1002
{
1000
PORI
1011
-184.0
1021
-0.0
1031
-17250103096.01635
1021
0.0
1031
0.0
1002
}
1002
{
1000
PINS
1011
-100.5
1021
-0.0
1031
-17250103096.01635
1021
25.0
1031
0.0
1002
}
1002
{
1000
HVAL
1000
50
1002
}
1002
{
1000
H
1070
     2
1002
}
1002
{
1000
WVAL
1000
167
1002
}
1002
{
1000
W
1070
     2
1002
}
1002
{
1000
C
1070
     4
1002
}
1001
GENIUS_GENODEF_13
1002
{
1000
HIER
1070
     0
1002
}
1002
{
1000
MANEDIT
1070
     0
1002
}
1002
{
1000
NOSEL
1070
     0
1002
}
1002
{
1000
BEHIND
1070
     0
1002
}
1002
{
1000
REACTOR
1002
}
1001
GENIUS_GENOBJ-N-REC_13
1002
{
1000
OWNER
1000
GEN
1002
}
  0
LINE
  5
2500
  8
0
 10
0.0
 20
50.0
 30
0.0
 11
-195.0
 21
50.000000000000028
 31
0.0
1001
GENIUS_GENREC_14
1002
{
1000
PYDIR
1011
-184.0
1021
-0.0
1031
-17250103096.01635
1021
50.0
1031
0.0
1002
}
1002
{
1000
PXDIR
1011
0.0
1021
-0.0
1031
-17250103096.01635
1021
0.0
1031
0.0
1002
}
1002
{
1000
PORI
1011
-184.0
1021
-0.0
1031
-17250103096.01635
1021
0.0
1031
0.0
1002
}
1002
{
1000
PINS
1011
-100.5
1021
-0.0
1031
-17250103096.01635
1021
25.0
1031
0.0
1002
}
1002
{
1000
HVAL
1000
50
1002
}
1002
{
1000
H
1070
     2
1002
}
1002
{
1000
WVAL
1000
167
1002
}
1002
{
1000
W
1070
     2
1002
}
1002
{
1000
C
1070
     4
1002
}
1001
GENIUS_GENODEF_13
1002
{
1000
HIER
1070
     0
1002
}
1002
{
1000
MANEDIT
1070
     0
1002
}
1002
{
1000
NOSEL
1070
     0
1002
}
1002
{
1000
BEHIND
1070
     0
1002
}
1002
{
1000
REACTOR
1002
}
1001
GENIUS_GENOBJ-N-REC_13
1002
{
1000
OWNER
1000
GEN
1002
}
  0
LINE
  5
2501
  8
0
 10
-195.0
 20
50.000000000000028
 30
0.0
 11
-195.0
 21
0.0
 31
0.0
1001
GENIUS_GENREC_14
1002
{
1000
PYDIR
1011
-195.0
1021
-0.0
1031
-17250103096.01635
1021
50.0
1031
0.0
1002
}
1002
{
1000
PXDIR
1011
-11.0
1021
-0.0
1031
-17250103096.01635
1021
0.0
1031
0.0
1002
}
1002
{
1000
PORI
1011
-195.0
1021
-0.0
1031
-17250103096.01635
1021
0.0
1031
0.0
1002
}
1002
{
1000
PINS
1011
-111.5
1021
-0.0
1031
-17250103096.01635
1021
25.0
1031
0.0
1002
}
1002
{
1000
HVAL
1000
50
1002
}
1002
{
1000
H
1070
     2
1002
}
1002
{
1000
WVAL
1000
167
1002
}
1002
{
1000
W
1070
     2
1002
}
1002
{
1000
C
1070
     4
1002
}
1001
GENIUS_GENODEF_13
1002
{
1000
HIER
1070
     0
1002
}
1002
{
1000
MANEDIT
1070
     0
1002
}
1002
{
1000
NOSEL
1070
     0
1002
}
1002
{
1000
BEHIND
1070
     0
1002
}
1002
{
1000
REACTOR
1002
}
1001
GENIUS_GENOBJ-N-REC_13
1002
{
1000
OWNER
1000
GEN
1002
}
  0
INSERT
  5
2502
  8
ｼｬ_ｼ
  2
*U52
 10
0.0
 20
0.0
 30
0.0
  0
INSERT
  5
2503
  8
ｼｬ_ｼ
  2
*U53
 10
0.0
 20
0.0
 30
0.0
  0
ENDBLK
  5
2506
  8
0
  0
BLOCK
  8
0
  2
TAKACHI-A4
 70
     0
 10
0.0
 20
0.0
 30
0.0
  3
TAKACHI-A4
  1

  0
TEXT
  5
3072
  8
0
 10
10.0
 20
54.999999999999943
 30
0.0
 40
2.5
  1
!GENTITLE-LL
  0
TEXT
  5
3073
  8
0
 10
215.0
 20
15.0
 30
0.0
 40
2.5
  1
!GENTITLE-INSERT
  0
TEXT
  5
3074
  8
0
 10
215.0
 20
285.00000000000011
 30
0.0
 40
2.5
  1
!GENTITLE-RU
  0
TEXT
  5
3075
  8
0
 10
215.00000000000011
 20
290.0
 30
0.0
 40
2.5
  1
!GENTITLE-MAX
  0
LINE
  5
3076
  8
0
 10
215.0
 20
290.00000000000011
 30
0.0
 11
20.000000000000028
 21
290.0
 31
0.0
1001
GENIUS_GENREC_14
1002
{
1000
PYDIR
1011
15.00000000000003
1021
-0.0
1031
-17250103096.01635
1021
295.0
1031
0.0
1002
}
1002
{
1000
PXDIR
1011
215.0
1021
-0.0
1031
-17250103096.01635
1021
15.0
1031
0.0
1002
}
1002
{
1000
PORI
1011
15.0
1021
-0.0
1031
-17250103096.01635
1021
15.0
1031
0.0
1002
}
1002
{
1000
PINS
1011
115.0
1021
-0.0
1031
-17250103096.01635
1021
155.0
1031
0.0
1002
}
1002
{
1000
HVAL
1000
280
1002
}
1002
{
1000
H
1070
     2
1002
}
1002
{
1000
WVAL
1000
200
1002
}
1002
{
1000
W
1070
     2
1002
}
1002
{
1000
C
1070
     4
1002
}
  0
LINE
  5
3077
  8
0
 10
20.000000000000028
 20
290.0
 30
0.0
 11
19.999999999999972
 21
15.0
 31
0.0
1001
GENIUS_GENREC_14
1002
{
1000
PYDIR
1011
15.00000000000003
1021
-0.0
1031
-17250103096.01635
1021
295.0
1031
0.0
1002
}
1002
{
1000
PXDIR
1011
215.0
1021
-0.0
1031
-17250103096.01635
1021
15.0
1031
0.0
1002
}
1002
{
1000
PORI
1011
15.0
1021
-0.0
1031
-17250103096.01635
1021
15.0
1031
0.0
1002
}
1002
{
1000
PINS
1011
115.0
1021
-0.0
1031
-17250103096.01635
1021
155.0
1031
0.0
1002
}
1002
{
1000
HVAL
1000
280
1002
}
1002
{
1000
H
1070
     2
1002
}
1002
{
1000
WVAL
1000
200
1002
}
1002
{
1000
W
1070
     2
1002
}
1002
{
1000
C
1070
     4
1002
}
  0
LINE
  5
3078
  8
0
 10
19.999999999999972
 20
15.0
 30
0.0
 11
215.0
 21
15.0
 31
0.0
1001
GENIUS_GENREC_14
1002
{
1000
PYDIR
1011
15.00000000000003
1021
-0.0
1031
-17250103096.01635
1021
295.0
1031
0.0
1002
}
1002
{
1000
PXDIR
1011
215.0
1021
-0.0
1031
-17250103096.01635
1021
15.0
1031
0.0
1002
}
1002
{
1000
PORI
1011
15.0
1021
-0.0
1031
-17250103096.01635
1021
15.0
1031
0.0
1002
}
1002
{
1000
PINS
1011
115.0
1021
-0.0
1031
-17250103096.01635
1021
155.0
1031
0.0
1002
}
1002
{
1000
HVAL
1000
280
1002
}
1002
{
1000
H
1070
     2
1002
}
1002
{
1000
WVAL
1000
200
1002
}
1002
{
1000
W
1070
     2
1002
}
1002
{
1000
C
1070
     4
1002
}
  0
LINE
  5
3079
  8
0
 10
215.0
 20
15.0
 30
0.0
 11
215.00000000000011
 21
290.00000000000011
 31
0.0
1001
GENIUS_GENREC_14
1002
{
1000
PYDIR
1011
15.00000000000003
1021
-0.0
1031
-17250103096.01635
1021
295.0
1031
0.0
1002
}
1002
{
1000
PXDIR
1011
215.0
1021
-0.0
1031
-17250103096.01635
1021
15.0
1031
0.0
1002
}
1002
{
1000
PORI
1011
15.0
1021
-0.0
1031
-17250103096.01635
1021
15.0
1031
0.0
1002
}
1002
{
1000
PINS
1011
115.0
1021
-0.0
1031
-17250103096.01635
1021
155.0
1031
0.0
1002
}
1002
{
1000
HVAL
1000
280
1002
}
1002
{
1000
H
1070
     2
1002
}
1002
{
1000
WVAL
1000
200
1002
}
1002
{
1000
W
1070
     2
1002
}
1002
{
1000
C
1070
     4
1002
}
  0
LINE
  5
307A
  8
0
 10
180.00000000000011
 20
290.00000000000011
 30
0.0
 11
180.00000000000011
 21
285.00000000000011
 31
0.0
  0
LINE
  5
307B
  8
0
 10
180.00000000000011
 20
285.00000000000011
 30
0.0
 11
215.00000000000011
 21
285.00000000000011
 31
0.0
  0
INSERT
  5
307C
  8
ｼｬ_ｼ
  2
*U54
 10
0.0
 20
0.0
 30
0.0
  0
ENDBLK
  5
307F
  8
0
  0
BLOCK
  8
0
  2
TK-A3
 70
     0
 10
0.0
 20
0.0
 30
0.0
  3
TK-A3
  1

  0
LINE
  5
3CF8
  8
0
 10
359.0
 20
280.0
 30
0.0
 11
359.0
 21
275.0
 31
0.0
  0
TEXT
  8
0
  40
2.5
  5
493E
  72
0
  71
0
 10
402.359
 20
272.859
 30
0.000000
  1
(文書番号：TY-34)2008.02.08
  0
LINE
  5
3CFA
  8
0
 10
359.0
 20
275.0
 30
0.0
 11
403.0
 21
275.0
 31
0.0
  0
TEXT
  5
3CFB
  8
0
 10
403.0
 20
0.0
 30
0.0
 40
2.5
  1
!GENTITLE-INSERT
  0
TEXT
  5
3CFC
  8
0
 10
0.0
 20
0.0
 30
0.0
 40
2.5
  1
!GENTITLE-LL
  0
TEXT
  5
3CFD
  8
0
 10
403.0
 20
280.0
 30
0.0
 40
2.5
  1
!GENTITLE-MAX
  0
ENDBLK
  5
3D01
  8
0
  0
BLOCK
  8
0
  2
TK-TITLE
 70
     2
 10
0.0
 20
0.0
 30
0.0
  3
TK-TITLE
  1

  0
LINE
  5
3D06
  8
0
 10
-167.0
 20
12.499999999999959
 30
0.0
 11
-193.00000000000011
 21
12.499999999999959
 31
0.0
  0
LINE
  5
3D07
  8
0
 10
-167.0
 20
37.499999999999979
 30
0.0
 11
-193.00000000000011
 21
37.499999999999979
 31
0.0
  0
ATTDEF
  5
3D08
  8
0
 10
-180.2171951662138
 20
3.5883425376106639
 30
0.0
 40
3.0
  1

 72
     1
 11
-180.2171951662138
 21
3.5883425376106639
 31
0.0
  3
日付
  2
GEN-TITLE-DAT
 70
     0
 74
     1
  0
INSERT
  5
3D09
  8
ｼｬ_ｼ
  2
*U55
 10
0.0
 20
0.0
 30
0.0
  0
ATTDEF
  5
3D0A
  8
0
 10
-177.824739614424
 20
28.299999999999979
 30
0.0
 40
3.0
  1

 72
     2
 11
-177.824739614424
 21
28.299999999999979
 31
0.0
  3
尺度
  2
GEN-TITLE-SCA
 70
     0
 74
     1
  0
INSERT
  5
3D0B
  8
ｼｬ_ｼ
  2
*U56
 10
0.0
 20
0.0
 30
0.0
  0
INSERT
  5
3D0C
  8
ｼｬ_ｼ
  2
*U57
 10
0.0
 20
0.0
 30
0.0
  0
ATTDEF
  5
3D0D
  8
0
 10
-175.6127409126095
 20
15.79999999999994
 30
0.0
 40
3.0
  1

 72
     2
 11
-175.6127409126095
 21
15.79999999999994
 31
0.0
  3
数量
  2
GEN-TITLE-QTY
 70
     0
 74
     1
  0
LINE
  5
3D0E
  8
0
 10
-193.00000000000011
 20
49.999999999999993
 30
0.0
 11
-193.00000000000011
 21
-0.0000000000000142
 31
0.0
  0
LINE
  5
3D0F
  8
7A
 10
-184.71674187457961
 20
43.74999999999995
 30
0.0
 11
-170.93543347429431
 21
43.74999999999995
 31
0.0
1001
GENIUS_GENOREF_13
1005
3D5D
  0
LINE
  5
3D10
  8
0
 10
-179.71674187457961
 20
45.749999999999943
 30
0.0
 11
-171.71674187457961
 21
46.74999999999995
 31
0.0
  0
LINE
  5
3D11
  8
0
 10
-171.71674187457961
 20
40.749999999999943
 30
0.0
 11
-179.71674187457961
 21
41.74999999999995
 31
0.0
  0
LINE
  5
3D12
  8
7A
 10
-184.71674187457961
 20
43.74999999999995
 30
0.0
 11
-184.71674187457961
 21
47.324786644731439
 31
0.0
1001
GENIUS_GENOREF_13
1005
3D5D
  0
CIRCLE
  5
3D13
  8
0
 10
-184.71674187457961
 20
43.74999999999995
 30
0.0
 40
2.0
  0
CIRCLE
  5
3D14
  8
0
 10
-184.71674187457961
 20
43.74999999999995
 30
0.0
 40
3.0
  0
LINE
  5
3D15
  8
0
 10
-179.71674187457961
 20
41.74999999999995
 30
0.0
 11
-179.71674187457961
 21
45.749999999999943
 31
0.0
  0
LINE
  5
3D16
  8
7A
 10
-184.71674187457961
 20
43.74999999999995
 30
0.0
 11
-188.43977924583069
 21
43.74999999999995
 31
0.0
1001
GENIUS_GENOREF_13
1005
3D5D
  0
LINE
  5
3D17
  8
7A
 10
-184.71674187457961
 20
43.74999999999995
 30
0.0
 11
-184.71674187457961
 21
40.03991724228473
 31
0.0
1001
GENIUS_GENOREF_13
1005
3D5D
  0
LINE
  5
3D18
  8
0
 10
-171.71674187457961
 20
46.74999999999995
 30
0.0
 11
-171.71674187457961
 21
40.749999999999943
 31
0.0
  0
LINE
  5
3D19
  8
0
 10
-167.0
 20
24.999999999999972
 30
0.0
 11
-193.00000000000011
 21
24.999999999999972
 31
0.0
  0
LINE
  5
3D1A
  8
0
 10
-167.0
 20
39.999999999999908
 30
0.0
 11
-96.0
 21
39.999999999999922
 31
0.0
  0
INSERT
  5
3D1B
  8
ｼｬ_ｼ
  2
*U58
 10
0.0
 20
0.0
 30
0.0
  0
INSERT
  5
3D1C
  8
ｼｬ_ｼ
  2
*U59
 10
0.0
 20
0.0
 30
0.0
  0
ATTDEF
  5
3D1D
  8
0
 10
-148.96186758352911
 20
33.299999999999912
 30
0.0
 40
3.0
  1

  3
表面処理
  2
GEN-TITLE-MAT2
 70
     0
  0
ATTDEF
  5
3D1E
  8
0
 10
-148.96186758352911
 20
43.299999999999912
 30
0.0
 40
3.0
  1

  3
材質
  2
GEN-TITLE-MAT1
 70
     0
  0
INSERT
  5
3D1F
  8
ｼｬ_ｼ
  2
*U60
 10
0.0
 20
0.0
 30
0.0
  0
LINE
  5
3D20
  8
0
 10
-167.0
 20
29.999999999999918
 30
0.0
 11
-96.0
 21
29.999999999999918
 31
0.0
  0
INSERT
  5
3D21
  8
ｼｬ_ｼ
  2
*U61
 10
0.0
 20
0.0
 30
0.0
  0
INSERT
  5
3D22
  8
ｼｬ_ｼ
  2
*U62
 10
0.0
 20
0.0
 30
0.0
  0
LINE
  5
3D23
  8
0
 10
-149.25000000000011
 20
19.999999999999929
 30
0.0
 11
-149.25000000000011
 21
-0.0000000000000462
 31
0.0
  0
LINE
  5
3D24
  8
0
 10
-167.0
 20
49.99999999999995
 30
0.0
 11
-167.0
 21
-0.0000000000000497
 31
0.0
  0
INSERT
  5
3D25
  8
ｼｬ_ｼ
  2
*U63
 10
0.0
 20
0.0
 30
0.0
  0
LINE
  5
3D26
  8
0
 10
-131.50000000000011
 20
19.999999999999929
 30
0.0
 11
-131.50000000000011
 21
-0.0000000000000533
 31
0.0
  0
LINE
  5
3D27
  8
0
 10
-113.75
 20
19.999999999999929
 30
0.0
 11
-113.75
 21
-0.0000000000000533
 31
0.0
  0
LINE
  5
3D28
  8
0
 10
-167.0
 20
19.999999999999929
 30
0.0
 11
-96.0
 21
19.999999999999929
 31
0.0
  0
INSERT
  5
3D29
  8
ｼｬ_ｼ
  2
*U64
 10
0.0
 20
0.0
 30
0.0
  0
INSERT
  5
3D2A
  8
ｼｬ_ｼ
  2
*U65
 10
0.0
 20
0.0
 30
0.0
  0
LINE
  5
3D2B
  8
0
 10
-21.175419266257109
 20
0.0
 30
0.0
 11
-21.17541926625734
 21
7.0
 31
0.0
  0
LINE
  5
3D2C
  8
RAHM2
 10
-96.0
 20
29.999999999999918
 30
0.0
 11
0.0000000000001137
 21
30.000000000000028
 31
0.0
  0
LINE
  5
3D2D
  8
RAHM2
 10
-96.0
 20
35.000000000000028
 30
0.0
 11
0.0000000000001137
 21
35.000000000000028
 31
0.0
  0
LINE
  5
3D2E
  8
RAHM2
 10
-96.0
 20
39.999999999999929
 30
0.0
 11
0.0000000000001137
 21
40.000000000000021
 31
0.0
  0
LINE
  5
3D2F
  8
RAHM2
 10
-96.0
 20
45.000000000000021
 30
0.0
 11
0.0000000000001137
 21
45.000000000000021
 31
0.0
  0
LINE
  5
3D30
  8
0
 10
-96.0
 20
7.0
 30
0.0
 11
0.0000000000001137
 21
7.0
 31
0.0
  0
LINE
  5
3D31
  8
0
 10
-96.0
 20
19.999999999999972
 30
0.0
 11
0.0000000000001137
 21
19.999999999999972
 31
0.0
  0
INSERT
  5
3D32
  8
ｼｬ_ｼ
  2
*U66
 10
0.0
 20
0.0
 30
0.0
  0
LINE
  5
3D33
  8
RAHM2
 10
-88.575128869403557
 20
30.40000000000002
 30
0.0
 11
-91.0
 21
34.600000000000009
 31
0.0
  0
LINE
  5
3D34
  8
RAHM2
 10
-91.0
 20
34.600000000000009
 30
0.0
 11
-93.424871130596443
 21
30.40000000000002
 31
0.0
  0
LINE
  5
3D35
  8
RAHM2
 10
-86.0
 20
50.000000000000007
 30
0.0
 11
-86.0
 21
19.999999999999929
 31
0.0
  0
LINE
  5
3D36
  8
RAHM2
 10
-93.424871130596443
 20
30.40000000000002
 30
0.0
 11
-88.575128869403557
 21
30.40000000000002
 31
0.0
  0
INSERT
  5
3D37
  8
ｼｬ_ｼ
  2
*U67
 10
0.0
 20
0.0
 30
0.0
  0
INSERT
  5
3D38
  8
ｼｬ_ｼ
  2
*U68
 10
0.0
 20
0.0
 30
0.0
  0
LINE
  5
3D39
  8
RAHM2
 10
-93.424871130596443
 20
45.400000000000013
 30
0.0
 11
-88.575128869403557
 21
45.400000000000013
 31
0.0
  0
LINE
  5
3D3A
  8
RAHM2
 10
-88.575128869403557
 20
45.400000000000013
 30
0.0
 11
-91.0
 21
49.600000000000001
 31
0.0
  0
LINE
  5
3D3B
  8
RAHM2
 10
-93.424871130596443
 20
40.400000000000013
 30
0.0
 11
-88.575128869403557
 21
40.400000000000013
 31
0.0
  0
LINE
  5
3D3C
  8
RAHM2
 10
-88.575128869403557
 20
40.400000000000013
 30
0.0
 11
-91.0
 21
44.600000000000001
 31
0.0
  0
LINE
  5
3D3D
  8
RAHM2
 10
-93.424871130596443
 20
35.40000000000002
 30
0.0
 11
-88.575128869403557
 21
35.40000000000002
 31
0.0
  0
LINE
  5
3D3E
  8
RAHM2
 10
-88.575128869403557
 20
35.40000000000002
 30
0.0
 11
-91.0
 21
39.600000000000009
 31
0.0
  0
LINE
  5
3D3F
  8
RAHM2
 10
-91.0
 20
39.600000000000009
 30
0.0
 11
-93.424871130596443
 21
35.40000000000002
 31
0.0
  0
LINE
  5
3D40
  8
RAHM2
 10
-91.0
 20
44.600000000000001
 30
0.0
 11
-93.424871130596443
 21
40.400000000000013
 31
0.0
  0
LINE
  5
3D41
  8
RAHM2
 10
-91.0
 20
49.600000000000001
 30
0.0
 11
-93.424871130596443
 21
45.400000000000013
 31
0.0
  0
LINE
  5
3D42
  8
RAHM2
 10
-31.820819410689069
 20
50.000000000000028
 30
0.0
 11
-31.820819410689179
 21
19.99999999999994
 31
0.0
  0
INSERT
  5
3D43
  8
ｼｬ_ｼ
  2
*U69
 10
0.0
 20
0.0
 30
0.0
  0
LINE
  5
3D44
  8
RAHM2
 10
-11.82081941068907
 20
50.000000000000028
 30
0.0
 11
-11.82081941068907
 21
19.99999999999994
 31
0.0
  0
INSERT
  5
3D45
  8
ｼｬ_ｼ
  2
*U70
 10
0.0
 20
0.0
 30
0.0
  0
INSERT
  5
3D46
  8
ｼｬ_ｼ
  2
*U71
 10
0.0
 20
0.0
 30
0.0
  0
INSERT
  5
3D47
  8
ｼｬ_ｼ
  2
*U72
 10
0.0
 20
0.0
 30
0.0
  0
INSERT
  5
3D48
  8
ｼｬ_ｼ
  2
*U73
 10
0.0
 20
0.0
 30
0.0
  0
INSERT
  5
3D49
  8
ｼｬ_ｼ
  2
*U74
 10
0.0
 20
0.0
 30
0.0
  0
INSERT
  5
3D4A
  8
ｼｬ_ｼ
  2
*U75
 10
0.0
 20
0.0
 30
0.0
  0
LINE
  5
3D4B
  8
RAHM2
 10
-91.0
 20
29.600000000000009
 30
0.0
 11
-93.424871130596443
 21
25.40000000000002
 31
0.0
  0
LINE
  5
3D4C
  8
RAHM2
 10
-88.575128869403557
 20
25.40000000000002
 30
0.0
 11
-91.0
 21
29.600000000000009
 31
0.0
  0
LINE
  5
3D4D
  8
RAHM2
 10
-93.424871130596443
 20
25.40000000000002
 30
0.0
 11
-88.575128869403557
 21
25.40000000000002
 31
0.0
  0
LINE
  5
3D4E
  8
RAHM2
 10
-96.0
 20
25.0
 30
0.0
 11
0.0000000000001137
 21
25.000000000000028
 31
0.0
  0
INSERT
  5
3D4F
  8
ｼｬ_ｼ
  2
*U76
 10
0.0
 20
0.0
 30
0.0
  0
TEXT
  5
3D50
  8
RAHM2
 10
-91.815586356580184
 20
25.65000000000002
 30
0.0
 40
2.5
  1
1
 72
     1
 11
-91.190586356580184
 21
25.65000000000002
 31
0.0
 73
     1
  0
TEXT
  5
3D51
  8
RAHM2
 10
-91.918331692913384
 20
30.65000000000002
 30
0.0
 40
2.5
  1
2
 72
     1
 11
-91.0
 21
30.65000000000002
 31
0.0
 73
     1
  0
TEXT
  5
3D52
  8
RAHM2
 10
-91.926776695296624
 20
35.649999999999991
 30
0.0
 40
2.5
  1
3
 72
     1
 11
-91.0
 21
35.649999999999991
 31
0.0
 73
     1
  0
TEXT
  5
3D53
  8
RAHM2
 10
-92.0
 20
40.65000000000002
 30
0.0
 40
2.5
  1
4
 72
     1
 11
-91.0
 21
40.65000000000002
 31
0.0
 73
     1
  0
TEXT
  5
3D54
  8
RAHM2
 10
-91.926776695296624
 20
45.65000000000002
 30
0.0
 40
2.5
  1
5
 72
     1
 11
-91.0
 21
45.65000000000002
 31
0.0
 73
     1
  0
LINE
  5
3D55
  8
0
 10
-193.00000000000011
 20
0.0
 30
0.0
 11
0.0
 21
0.0
 31
0.0
1001
GENIUS_GENREC_14
1002
{
1000
PYDIR
1011
-184.0
1021
-0.0
1031
-17250103096.01635
1021
50.0
1031
0.0
1002
}
1002
{
1000
PXDIR
1011
0.0
1021
-0.0
1031
-17250103096.01635
1021
0.0
1031
0.0
1002
}
1002
{
1000
PORI
1011
-184.0
1021
-0.0
1031
-17250103096.01635
1021
0.0
1031
0.0
1002
}
1002
{
1000
PINS
1011
-100.5
1021
-0.0
1031
-17250103096.01635
1021
25.0
1031
0.0
1002
}
1002
{
1000
HVAL
1000
50
1002
}
1002
{
1000
H
1070
     2
1002
}
1002
{
1000
WVAL
1000
167
1002
}
1002
{
1000
W
1070
     2
1002
}
1002
{
1000
C
1070
     4
1002
}
1001
GENIUS_GENODEF_13
1002
{
1000
HIER
1070
     0
1002
}
1002
{
1000
MANEDIT
1070
     0
1002
}
1002
{
1000
NOSEL
1070
     0
1002
}
1002
{
1000
BEHIND
1070
     0
1002
}
1002
{
1000
REACTOR
1002
}
1001
GENIUS_GENOBJ-N-REC_13
1002
{
1000
OWNER
1000
GEN
1002
}
  0
LINE
  5
3D56
  8
0
 10
0.0
 20
50.0
 30
0.0
 11
-193.00000000000011
 21
50.000000000000021
 31
0.0
1001
GENIUS_GENREC_14
1002
{
1000
PYDIR
1011
-184.0
1021
-0.0
1031
-17250103096.01635
1021
50.0
1031
0.0
1002
}
1002
{
1000
PXDIR
1011
0.0
1021
-0.0
1031
-17250103096.01635
1021
0.0
1031
0.0
1002
}
1002
{
1000
PORI
1011
-184.0
1021
-0.0
1031
-17250103096.01635
1021
0.0
1031
0.0
1002
}
1002
{
1000
PINS
1011
-100.5
1021
-0.0
1031
-17250103096.01635
1021
25.0
1031
0.0
1002
}
1002
{
1000
HVAL
1000
50
1002
}
1002
{
1000
H
1070
     2
1002
}
1002
{
1000
WVAL
1000
167
1002
}
1002
{
1000
W
1070
     2
1002
}
1002
{
1000
C
1070
     4
1002
}
1001
GENIUS_GENODEF_13
1002
{
1000
HIER
1070
     0
1002
}
1002
{
1000
MANEDIT
1070
     0
1002
}
1002
{
1000
NOSEL
1070
     0
1002
}
1002
{
1000
BEHIND
1070
     0
1002
}
1002
{
1000
REACTOR
1002
}
1001
GENIUS_GENOBJ-N-REC_13
1002
{
1000
OWNER
1000
GEN
1002
}
  0
LINE
  5
3D57
  8
0
 10
-96.0
 20
50.000000000000007
 30
0.0
 11
-96.0
 21
-0.0000000000000142
 31
0.0
1001
GENIUS_GENREC_14
1002
{
1000
PYDIR
1011
-96.0
1021
-0.0
1031
-17250103096.01635
1021
49.999999999999993
1031
0.0
1002
}
1002
{
1000
PXDIR
1011
88.0
1021
-0.0
1031
-17250103096.01635
1021
-0.0000000000000142
1031
0.0
1002
}
1002
{
1000
PORI
1011
-96.0
1021
-0.0
1031
-17250103096.01635
1021
-0.0000000000000142
1031
0.0
1002
}
1002
{
1000
PINS
1011
-12.5
1021
-0.0
1031
-17250103096.01635
1021
24.999999999999989
1031
0.0
1002
}
1002
{
1000
HVAL
1000
50
1002
}
1002
{
1000
H
1070
     2
1002
}
1002
{
1000
WVAL
1000
167
1002
}
1002
{
1000
W
1070
     2
1002
}
1002
{
1000
C
1070
     4
1002
}
1001
GENIUS_GENODEF_13
1002
{
1000
HIER
1070
     0
1002
}
1002
{
1000
MANEDIT
1070
     0
1002
}
1002
{
1000
NOSEL
1070
     0
1002
}
1002
{
1000
BEHIND
1070
     0
1002
}
1002
{
1000
REACTOR
1002
}
1001
GENIUS_GENOBJ-N-REC_13
1002
{
1000
OWNER
1000
GEN
1002
}
  0
ATTDEF
  5
3D58
  8
0
 10
-84.0
 20
1.9999999999999569
 30
0.0
 40
3.0
  1

  3
図番
  2
GEN-TITLE-NR1
 70
     0
  0
ATTDEF
  5
3D59
  8
0
 10
-84.0
 20
9.1499999999999488
 30
0.0
 40
2.5
  1

  3
サブタイトル
  2
GEN-TITLE-DES2
 70
     0
  0
LINE
  5
3D5A
  8
0
 10
0.0
 20
0.0
 30
0.0
 11
0.0
 21
50.0
 31
0.0
1001
GENIUS_GENREC_14
1002
{
1000
PYDIR
1011
-414.0
1021
-0.0
1031
-17250103096.01635
1021
291.0
1031
0.0
1002
}
1002
{
1000
PXDIR
1011
6.0
1021
-0.0
1031
-17250103096.01635
1021
-6.0
1031
0.0
1002
}
1002
{
1000
PORI
1011
-414.0
1021
-0.0
1031
-17250103096.01635
1021
-6.0
1031
0.0
1002
}
1002
{
1000
PINS
1011
-414.0
1021
-0.0
1031
-17250103096.01635
1021
-6.0
1031
0.0
1002
}
1002
{
1000
HVAL
1000
297
1002
}
1002
{
1000
H
1070
     2
1002
}
1002
{
1000
WVAL
1000
420
1002
}
1002
{
1000
W
1070
     2
1002
}
1002
{
1000
C
1070
     1
1002
}
1001
GENIUS_GENODEF_13
1002
{
1000
HIER
1070
     0
1002
}
1002
{
1000
MANEDIT
1070
     0
1002
}
1002
{
1000
NOSEL
1070
     0
1002
}
1002
{
1000
BEHIND
1070
     0
1002
}
1002
{
1000
OTHER
1070
     0
1002
}
1002
{
1000
REACTOR
1002
}
1001
GENIUS_GENOBJ-N-REC_13
1002
{
1000
OWNER
1000
GEN
1002
}
  0
ATTDEF
  5
3D5B
  8
0
 10
-84.142519015853296
 20
12.82790432564377
 30
0.0
 40
3.5
  1

  3
品名
  2
GEN-TITLE-DES1
 70
     0
  0
ATTDEF
  5
3D5C
  8
0
 10
-8.0023091895458265
 20
1.705189434395036
 30
0.0
 40
2.5
  1

  3
Rev.
  2
GEN-TITLE-NR2
 70
     0
  0
POINT
  5
3D5D
  8
0
 10
-418.53555798196749
 20
-138.11048412682541
 30
0.0
1001
GENIUS_GENODEF_13
1002
{
1000
HIER
1070
    10
1002
}
1002
{
1000
MANEDIT
1070
     0
1002
}
1002
{
1000
NOSEL
1070
     0
1002
}
1002
{
1000
BEHIND
1070
     0
1002
}
1002
{
1000
REACTOR
1002
}
1001
GENIUS_GENOBJ-N-CRS_13
1002
{
1000
OWNER
1000
GEN
1002
}
1001
GENIUS_GENOENT_13
1002
{
1000
MYREF
1005
3D5D
1002
}
1002
{
1000
GRP
1005
0
1002
}
1001
GENIUS_GENOLIS_13
1002
{
1000
ENT
1005
3D17
1005
3D16
1005
3D12
1005
3D0F
1002
}
  0
ENDBLK
  5
3D60
  8
0
  0
BLOCK
  8
0
  2
A$C2B84214F
 70
     0
 10
0.0
 20
0.0
 30
0.0
  3
A$C2B84214F
  1

  0
LINE
  5
3F17
  8
ﾋ_ｽ
 10
0.0
 20
-3.1499999999999768
 30
0.0
 11
0.0
 21
3.1500000000000341
 31
0.0
  0
ARC
  5
3F18
  8
ﾋ_ｽ
 10
0.0999999999999091
 20
1.326839681057435
 30
0.0
 40
0.1
 50
179.9999999999967
 51
283.49573328080749
1001
GENIUS_GENODEF_13
1002
{
1000
HIER
1070
     0
1002
}
1002
{
1000
MANEDIT
1070
     0
1002
}
1002
{
1000
NOSEL
1070
     0
1002
}
1002
{
1000
BEHIND
1070
     0
1002
}
1002
{
1000
OTHER
1070
     0
1002
}
1002
{
1000
REACTOR
1002
}
1001
GENIUS_GENOBJ-N-FIL_13
1002
{
1000
OWNER
1000
GEN
1002
}
  0
ARC
  5
3F19
  8
ﾋ_ｽ
 10
0.0999999999999091
 20
-1.3268396810574921
 30
0.0
 40
0.1
 50
76.504266719192529
 51
179.9999999999967
1001
GENIUS_GENODEF_13
1002
{
1000
HIER
1070
     0
1002
}
1002
{
1000
MANEDIT
1070
     0
1002
}
1002
{
1000
NOSEL
1070
     0
1002
}
1002
{
1000
BEHIND
1070
     0
1002
}
1002
{
1000
OTHER
1070
     0
1002
}
1002
{
1000
REACTOR
1002
}
1001
GENIUS_GENOBJ-N-FIL_13
1002
{
1000
OWNER
1000
GEN
1002
}
  0
LINE
  5
3F1A
  8
ﾋ_ｽ
 10
0.1233372952474383
 20
1.2296009508593211
 30
0.0
 11
1.249999999999772
 21
1.5
 31
0.0
  0
LINE
  5
3F1B
  8
ﾋ_ｽ
 10
0.1233372952474383
 20
-1.229600950859435
 30
0.0
 11
1.249999999999545
 21
-1.5
 31
0.0
  0
LINE
  5
3F1C
  8
ﾋ_ｽ
 10
1.249999999999545
 20
-1.5
 30
0.0
 11
1.249999999999772
 21
1.5
 31
0.0
  0
LINE
  5
3F1D
  8
ﾋ_ｽ
 10
1.249999999999545
 20
-1.5
 30
0.0
 11
6.0
 21
-1.5
 31
0.0
  0
LINE
  5
3F1E
  8
ﾋ_ｽ
 10
6.0
 20
1.5
 30
0.0
 11
1.249999999999772
 21
1.5
 31
0.0
  0
LINE
  5
3F1F
  8
ﾋ_ｽ0
 10
0.0
 20
-1.199999999999988
 30
0.0
 11
6.0
 21
-1.199999999999988
 31
0.0
  0
LINE
  5
3F20
  8
ﾋ_ｽ0
 10
0.0
 20
1.199999999999988
 30
0.0
 11
6.0
 21
1.199999999999988
 31
0.0
  0
LINE
  5
3F21
  8
ﾋ_ｽ
 10
0.0
 20
3.1500000000000341
 30
0.0
 11
-1.2999999999999541
 21
3.0362647374163312
 31
0.0
  0
LINE
  5
3F22
  8
ﾋ_ｽ
 10
0.0
 20
-3.1499999999999768
 30
0.0
 11
-1.2999999999999541
 21
-3.0362647374162739
 31
0.0
  0
LINE
  5
3F23
  8
ﾋ_ｽ
 10
-1.2999999999999541
 20
3.0362647374163312
 30
0.0
 11
-1.2999999999999541
 21
-3.0362647374162739
 31
0.0
  0
ARC
  5
3F24
  8
ﾋ_ｽ
 10
6.0824196297312483
 20
0.0000000000000568
 30
0.0
 40
7.9824196297310488
 50
157.64346058573031
 51
202.35653941426961
  0
LINE
  5
3F25
  8
ﾋ_ｽ
 10
6.0
 20
1.5
 30
0.0
 11
6.0
 21
-1.5
 31
0.0
  0
ENDBLK
  5
3F28
  8
0
  0
BLOCK
  8
0
  2
A$C68F65B5E
 70
     0
 10
0.0
 20
0.0
 30
0.0
  3
A$C68F65B5E
  1

  0
CIRCLE
  5
3F2E
  8
ﾋ_ｽ
 10
0.0
 20
0.0
 30
0.0
 40
3.1499999999994519
  0
LINE
  5
3F2F
  8
ﾋ_ｽ
 10
0.4204545454545042
 20
-1.8500000000000221
 30
0.0
 11
-0.4204545454545042
 21
-1.8500000000000221
 31
0.0
  0
LINE
  5
3F30
  8
ﾋ_ｽ
 10
-0.4204545454545042
 20
1.8500000000000221
 30
0.0
 11
0.4204545454545042
 21
1.8500000000000221
 31
0.0
  0
LINE
  5
3F31
  8
ﾋ_ｽ
 10
-1.850000000000136
 20
0.420454545454561
 30
0.0
 11
-1.5977272727272971
 21
0.420454545454561
 31
0.0
  0
LINE
  5
3F32
  8
ﾋ_ｽ
 10
-0.4204545454545042
 20
1.5977272727272971
 30
0.0
 11
-0.4204545454545042
 21
1.8500000000000221
 31
0.0
  0
ARC
  5
3F33
  8
ﾋ_ｽ
 10
-1.5977272727272971
 20
1.5977272727272971
 30
0.0
 40
1.177272727272711
 50
270.0
 51
0.0
  0
ARC
  5
3F34
  8
ﾋ_ｽ
 10
-1.5977272727270699
 20
-1.597727272727183
 30
0.0
 40
1.177272727272711
 50
0.0
 51
90.0
  0
LINE
  5
3F35
  8
ﾋ_ｽ
 10
-1.850000000000136
 20
-0.4204545454545042
 30
0.0
 11
-1.850000000000136
 21
0.4204545454546178
 31
0.0
  0
LINE
  5
3F36
  8
ﾋ_ｽ
 10
-1.5977272727272971
 20
-0.4204545454545042
 30
0.0
 11
-1.850000000000136
 21
-0.4204545454545042
 31
0.0
  0
LINE
  5
3F37
  8
ﾋ_ｽ
 10
-0.4204545454545042
 20
-1.8499999999999091
 30
0.0
 11
-0.4204545454545042
 21
-1.597727272727183
 31
0.0
  0
ARC
  5
3F38
  8
ﾋ_ｽ
 10
1.5977272727272971
 20
-1.597727272727183
 30
0.0
 40
1.177272727272711
 50
90.0
 51
180.0
  0
LINE
  5
3F39
  8
ﾋ_ｽ
 10
0.4204545454545042
 20
-1.597727272727183
 30
0.0
 11
0.4204545454545042
 21
-1.8500000000000221
 31
0.0
  0
LINE
  5
3F3A
  8
ﾋ_ｽ
 10
1.8499999999999091
 20
-0.4204545454545042
 30
0.0
 11
1.5977272727272971
 21
-0.4204545454545042
 31
0.0
  0
LINE
  5
3F3B
  8
ﾋ_ｽ
 10
1.8499999999999091
 20
0.4204545454545042
 30
0.0
 11
1.8499999999999091
 21
-0.4204545454545042
 31
0.0
  0
ARC
  5
3F3C
  8
ﾋ_ｽ
 10
1.5977272727270699
 20
1.5977272727272971
 30
0.0
 40
1.177272727272711
 50
180.0
 51
270.0
  0
LINE
  5
3F3D
  8
ﾋ_ｽ
 10
1.5977272727270699
 20
0.420454545454561
 30
0.0
 11
1.850000000000136
 21
0.420454545454561
 31
0.0
  0
LINE
  5
3F3E
  8
ﾋ_ｽ
 10
0.4204545454545042
 20
1.8500000000000221
 30
0.0
 11
0.4204545454545042
 21
1.597727272727411
 31
0.0
  0
ENDBLK
  5
3F41
  8
0
  0
BLOCK
  8
0
  2
A$C1ABF00C0
 70
     0
 10
0.0
 20
0.0
 30
0.0
  3
A$C1ABF00C0
  1

  0
CIRCLE
  5
3F47
  8
ﾋ_ｽ
 10
0.0
 20
0.0
 30
0.0
 40
2.9999999999975859
  0
ARC
  5
3F48
  8
ﾋ_ｽ
 10
-1.554545454545404
 20
1.5545454545454609
 30
0.0
 40
1.1454545454545391
 50
270.0
 51
0.0
  0
ARC
  5
3F49
  8
ﾋ_ｽ
 10
-1.554545454545404
 20
-1.554545454545404
 30
0.0
 40
1.1454545454545391
 50
0.0
 51
90.0
  0
LINE
  5
3F4A
  8
ﾋ_ｽ
 10
-1.7999999999999541
 20
0.4090909090908781
 30
0.0
 11
-1.554545454545404
 21
0.4090909090908781
 31
0.0
  0
LINE
  5
3F4B
  8
ﾋ_ｽ
 10
-1.7999999999999541
 20
-0.4090909090908781
 30
0.0
 11
-1.7999999999999541
 21
0.4090909090908781
 31
0.0
  0
LINE
  5
3F4C
  8
ﾋ_ｽ
 10
-1.554545454545404
 20
-0.4090909090908781
 30
0.0
 11
-1.7999999999999541
 21
-0.4090909090908781
 31
0.0
  0
LINE
  5
3F4D
  8
ﾋ_ｽ
 10
-0.4090909090907644
 20
1.5545454545454609
 30
0.0
 11
-0.4090909090907644
 21
1.800000000000068
 31
0.0
  0
LINE
  5
3F4E
  8
ﾋ_ｽ
 10
-0.4090909090907644
 20
-1.7999999999999541
 30
0.0
 11
-0.4090909090907644
 21
-1.554545454545404
 31
0.0
  0
ARC
  5
3F4F
  8
ﾋ_ｽ
 10
1.5545454545456321
 20
-1.554545454545404
 30
0.0
 40
1.1454545454545391
 50
90.0
 51
180.0
  0
LINE
  5
3F50
  8
ﾋ_ｽ
 10
0.4090909090909918
 20
-1.800000000000068
 30
0.0
 11
-0.4090909090907644
 21
-1.800000000000068
 31
0.0
  0
LINE
  5
3F51
  8
ﾋ_ｽ
 10
0.4090909090909918
 20
-1.554545454545404
 30
0.0
 11
0.4090909090909918
 21
-1.800000000000068
 31
0.0
  0
LINE
  5
3F52
  8
ﾋ_ｽ
 10
1.7999999999999541
 20
-0.4090909090908781
 30
0.0
 11
1.5545454545456321
 21
-0.4090909090908781
 31
0.0
  0
LINE
  5
3F53
  8
ﾋ_ｽ
 10
1.7999999999999541
 20
0.409090909090935
 30
0.0
 11
1.7999999999999541
 21
-0.4090909090908781
 31
0.0
  0
ARC
  5
3F54
  8
ﾋ_ｽ
 10
1.554545454545404
 20
1.5545454545454609
 30
0.0
 40
1.1454545454545391
 50
180.0
 51
270.0
  0
LINE
  5
3F55
  8
ﾋ_ｽ
 10
1.554545454545404
 20
0.4090909090908781
 30
0.0
 11
1.7999999999999541
 21
0.4090909090908781
 31
0.0
  0
LINE
  5
3F56
  8
ﾋ_ｽ
 10
0.4090909090909918
 20
1.800000000000068
 30
0.0
 11
0.4090909090909918
 21
1.554545454545518
 31
0.0
  0
LINE
  5
3F57
  8
ﾋ_ｽ
 10
-0.4090909090907644
 20
1.800000000000068
 30
0.0
 11
0.4090909090909918
 21
1.800000000000068
 31
0.0
  0
ENDBLK
  5
3F5A
  8
0
  0
BLOCK
  8
0
  2
A$C6A810163
 70
     0
 10
0.0
 20
0.0
 30
0.0
  3
A$C6A810163
  1

  0
LINE
  5
3F60
  8
ﾋ_ｽ
 10
2.7500000000002269
 20
-1.4999999999998861
 30
0.0
 11
10.0
 21
-1.500000000000056
 31
0.0
  0
LINE
  5
3F61
  8
ﾋ_ｽ
 10
10.0
 20
1.5
 30
0.0
 11
2.75
 21
1.500000000000056
 31
0.0
  0
LINE
  5
3F62
  8
ﾋ_ｽ0
 10
2.1242640687119092
 20
1.25
 30
0.0
 11
10.0
 21
1.25
 31
0.0
  0
LINE
  5
3F63
  8
ﾋ_ｽ0
 10
10.0
 20
-1.2499999999999429
 30
0.0
 11
2.1242640687121361
 21
-1.2499999999998861
 31
0.0
  0
LINE
  5
3F64
  8
ﾋ_ｽ
 10
1.912132034356091
 20
1.337867965644022
 30
0.0
 11
0.25
 21
3.0
 31
0.0
  0
LINE
  5
3F65
  8
ﾋ_ｽ
 10
0.25
 20
-3.0
 30
0.0
 11
0.25
 21
3.0
 31
0.0
  0
LINE
  5
3F66
  8
ﾋ_ｽ
 10
0.0
 20
3.0
 30
0.0
 11
0.0
 21
-3.0
 31
0.0
  0
LINE
  5
3F67
  8
ﾋ_ｽ
 10
0.25
 20
-3.0
 30
0.0
 11
1.912132034356091
 21
-1.3378679656439649
 31
0.0
  0
LINE
  5
3F68
  8
ﾋ_ｽ
 10
0.0
 20
-3.0
 30
0.0
 11
0.25
 21
-3.0
 31
0.0
  0
LINE
  5
3F69
  8
ﾋ_ｽ0
 10
1.75
 20
-1.5
 30
0.0
 11
1.75
 21
1.5
 31
0.0
  0
LINE
  5
3F6A
  8
ﾋ_ｽ
 10
2.0380053120384209
 20
-1.2626684373460639
 30
0.0
 11
2.75
 21
-1.5
 31
0.0
  0
LINE
  5
3F6B
  8
ﾋ_ｽ
 10
2.75
 20
-1.5
 30
0.0
 11
2.75
 21
1.5
 31
0.0
  0
LINE
  5
3F6C
  8
ﾋ_ｽ
 10
2.75
 20
1.5
 30
0.0
 11
2.0380053120384209
 21
1.2626684373461781
 31
0.0
  0
LINE
  5
3F6D
  8
ﾋ_ｽ
 10
0.0
 20
3.0
 30
0.0
 11
0.2500000000002274
 21
3.0
 31
0.0
  0
ARC
  5
3F6E
  8
ﾋ_ｽ
 10
2.1242640687121361
 20
-1.5499999999999541
 30
0.0
 40
0.3
 50
90.0
 51
134.99999999999301
1001
GENIUS_GENOBJ-N-FIL_13
1002
{
1000
OWNER
1000
GEN
1002
}
1001
GENIUS_GENODEF_13
1002
{
1000
HIER
1070
     0
1002
}
1002
{
1000
MANEDIT
1070
     0
1002
}
1002
{
1000
NOSEL
1070
     0
1002
}
1002
{
1000
BEHIND
1070
     0
1002
}
1002
{
1000
OTHER
1070
     0
1002
}
1002
{
1000
REACTOR
1002
}
  0
ARC
  5
3F6F
  8
ﾋ_ｽ
 10
2.1242640687119092
 20
1.5500000000000109
 30
0.0
 40
0.3
 50
225.00000000000691
 51
270.0
1001
GENIUS_GENODEF_13
1002
{
1000
HIER
1070
     0
1002
}
1002
{
1000
MANEDIT
1070
     0
1002
}
1002
{
1000
NOSEL
1070
     0
1002
}
1002
{
1000
BEHIND
1070
     0
1002
}
1002
{
1000
OTHER
1070
     0
1002
}
1002
{
1000
REACTOR
1002
}
1001
GENIUS_GENOBJ-N-FIL_13
1002
{
1000
OWNER
1000
GEN
1002
}
  0
LINE
  5
3F70
  8
ﾋ_ｽ
 10
10.0
 20
-1.500000000000056
 30
0.0
 11
10.0
 21
1.5
 31
0.0
  0
ENDBLK
  5
3F73
  8
0
  0
BLOCK
  8
0
  2
A$C09FA6B72
 70
     0
 10
0.0
 20
0.0
 30
0.0
  3
A$C09FA6B72
  1

  0
CIRCLE
  5
3F79
  8
ﾋ_ｽ
 10
0.0
 20
0.0
 30
0.0
 40
2.2999999999999989
  0
CIRCLE
  5
3F7A
  8
ﾋ_ｽ
 10
0.0
 20
0.0
 30
0.0
 40
1.229367061317385
  0
LINE
  5
3F7B
  8
ﾋ_ｽ
 10
-2.75
 20
-1.5877132402714551
 30
0.0
 11
0.0
 21
-3.175426480543023
 31
0.0
  0
LINE
  5
3F7C
  8
ﾋ_ｽ
 10
0.0
 20
-3.175426480543023
 30
0.0
 11
2.75
 21
-1.587713240271398
 31
0.0
  0
LINE
  5
3F7D
  8
ﾋ_ｽ
 10
2.75
 20
-1.587713240271398
 30
0.0
 11
2.75
 21
1.5877132402714551
 31
0.0
  0
LINE
  5
3F7E
  8
ﾋ_ｽ
 10
2.75
 20
1.5877132402714551
 30
0.0
 11
0.0
 21
3.1754264805429102
 31
0.0
  0
LINE
  5
3F7F
  8
ﾋ_ｽ
 10
0.0
 20
3.1754264805429102
 30
0.0
 11
-2.75
 21
1.5877132402712839
 31
0.0
  0
LINE
  5
3F80
  8
ﾋ_ｽ
 10
-2.75
 20
1.5877132402712839
 30
0.0
 11
-2.75
 21
-1.5877132402714551
 31
0.0
  0
CIRCLE
  5
3F81
  8
ﾋ_ｽ0
 10
0.0
 20
0.0
 30
0.0
 40
1.5
  0
ENDBLK
  5
3F84
  8
0
  0
BLOCK
  8
0
  2
A$C6C857347
 70
     0
 10
0.0
 20
0.0
 30
0.0
  3
A$C6C857347
  1

  0
ARC
  5
3F8A
  8
ﾋ_ｽ
 10
1.374999999999772
 20
-1.8240971075905461
 30
0.0
 40
3.9642894864552431
 50
69.705445160769088
 51
110.2945548392309
  0
ARC
  5
3F8B
  8
ﾋ_ｽ
 10
1.374999999999772
 20
4.2240971075906373
 30
0.0
 40
3.9642894864552569
 50
249.70544516076919
 51
290.2945548392309
  0
LINE
  5
3F8C
  8
ﾋ_ｽ
 10
-2.2999999999999541
 20
2.4000000000000901
 30
0.0
 11
2.2999999999999541
 21
2.4000000000000901
 31
0.0
  0
LINE
  5
3F8D
  8
ﾋ_ｽ
 10
2.2999999999999541
 20
0.0
 30
0.0
 11
-2.2999999999999541
 21
0.0
 31
0.0
  0
LINE
  5
3F8E
  8
ﾋ_ｽ
 10
2.75
 20
0.259807621135451
 30
0.0
 11
2.75
 21
2.1401923788646391
 31
0.0
  0
LINE
  5
3F8F
  8
ﾋ_ｽ
 10
2.2999999999999541
 20
0.0
 30
0.0
 11
2.75
 21
0.259807621135451
 31
0.0
  0
LINE
  5
3F90
  8
ﾋ_ｽ
 10
2.75
 20
2.1401923788646391
 30
0.0
 11
2.2999999999999541
 21
2.4000000000000901
 31
0.0
  0
LINE
  5
3F91
  8
ﾋ_ｽ
 10
0.0
 20
0.5059031733774191
 30
0.0
 11
0.0
 21
1.894096826622671
 31
0.0
  0
LINE
  5
3F92
  8
ﾋ_ｽ
 10
-2.75
 20
0.259807621135451
 30
0.0
 11
-2.75
 21
2.1401923788646391
 31
0.0
  0
ARC
  5
3F93
  8
ﾋ_ｽ
 10
-1.3750000000002269
 20
4.2240971075906373
 30
0.0
 40
3.9642894864552569
 50
249.70544516076919
 51
290.2945548392309
  0
LINE
  5
3F94
  8
ﾋ_ｽ
 10
-2.2999999999999541
 20
0.0
 30
0.0
 11
-2.75
 21
0.259807621135451
 31
0.0
  0
ARC
  5
3F95
  8
ﾋ_ｽ
 10
-1.3750000000002269
 20
-1.8240971075905461
 30
0.0
 40
3.9642894864552431
 50
69.705445160769088
 51
110.2945548392309
  0
LINE
  5
3F96
  8
ﾋ_ｽ
 10
-2.75
 20
2.1401923788646391
 30
0.0
 11
-2.2999999999999541
 21
2.4000000000000901
 31
0.0
  0
ENDBLK
  5
3F99
  8
0
  0
BLOCK
  8
0
  2
A$C11BD6C1B
 70
     0
 10
0.0
 20
0.0
 30
0.0
  3
A$C11BD6C1B
  1

  0
ARC
  5
3F9F
  8
ﾋ_ｽ
 10
-1.6639335154136461
 20
2.3821874999999859
 30
0.0
 40
1.404125894278188
 50
325.56153059526628
 51
25.56153059527265
  0
ARC
  5
3FA0
  8
ﾋ_ｽ
 10
-0.7360664845864449
 20
2.3821874999999859
 30
0.0
 40
1.404125894278188
 50
154.43846940473881
 51
214.4384694047337
  0
LINE
  5
3FA1
  8
ﾋ_ｽ
 10
0.0
 20
2.3000000000000109
 30
0.0
 11
0.0
 21
-2.3000000000000109
 31
0.0
  0
LINE
  5
3FA2
  8
ﾋ_ｽ
 10
-2.4000000000000901
 20
2.3000000000000109
 30
0.0
 11
-2.4000000000000901
 21
-2.3000000000000109
 31
0.0
  0
ARC
  5
3FA3
  8
ﾋ_ｽ
 10
-1.6639335154136461
 20
-2.3821874999999859
 30
0.0
 40
1.4041258942781909
 50
334.43846940472741
 51
34.438469404733659
  0
ARC
  5
3FA4
  8
ﾋ_ｽ
 10
-5.507167869885051
 20
0.0
 30
0.0
 40
5.2473602487496311
 50
342.38303115961389
 51
17.616968840386079
  0
ARC
  5
3FA5
  8
ﾋ_ｽ
 10
3.1071678698849601
 20
0.0
 30
0.0
 40
5.2473602487496169
 50
162.38303115961389
 51
197.61696884038611
  0
ARC
  5
3FA6
  8
ﾋ_ｽ
 10
-0.7360664845864449
 20
-2.3821874999999859
 30
0.0
 40
1.404125894278188
 50
145.5615305952663
 51
205.5615305952727
  0
LINE
  5
3FA7
  8
ﾋ_ｽ
 10
-0.5059031733774191
 20
-3.1762499999999809
 30
0.0
 11
0.0
 21
-2.3000000000000109
 31
0.0
  0
LINE
  5
3FA8
  8
ﾋ_ｽ
 10
-1.894096826622671
 20
1.58812499999999
 30
0.0
 11
-0.5059031733774191
 21
1.58812499999999
 31
0.0
  0
LINE
  5
3FA9
  8
ﾋ_ｽ
 10
-1.894096826622671
 20
-3.1762499999999809
 30
0.0
 11
-2.4000000000000901
 21
-2.3000000000000109
 31
0.0
  0
LINE
  5
3FAA
  8
ﾋ_ｽ
 10
-1.894096826622671
 20
-3.1762499999999809
 30
0.0
 11
-0.5059031733774191
 21
-3.1762499999999809
 31
0.0
  0
LINE
  5
3FAB
  8
ﾋ_ｽ
 10
-1.894096826622671
 20
-1.58812499999999
 30
0.0
 11
-0.5059031733774191
 21
-1.58812499999999
 31
0.0
  0
LINE
  5
3FAC
  8
ﾋ_ｽ
 10
-0.5059031733774191
 20
3.1762499999999809
 30
0.0
 11
0.0
 21
2.3000000000000109
 31
0.0
  0
LINE
  5
3FAD
  8
ﾋ_ｽ
 10
-1.894096826622671
 20
3.1762499999999809
 30
0.0
 11
-2.4000000000000901
 21
2.3000000000000109
 31
0.0
  0
LINE
  5
3FAE
  8
ﾋ_ｽ
 10
-1.894096826622671
 20
3.1762499999999809
 30
0.0
 11
-0.5059031733774191
 21
3.1762499999999809
 31
0.0
  0
ENDBLK
  5
3FB1
  8
0
  0
BLOCK
  8
0
  2
*D16
 70
     1
 10
0.0
 20
0.0
 30
0.0
  3
*D16
  1

  0
LINE
  5
4856
  8
AM_5
 10
81.603390412439694
 20
472.4486193941118
 30
0.0
 11
45.603389412439661
 21
472.4486193941118
 31
0.0
  0
LINE
  5
4857
  8
AM_5
 10
81.603390412439666
 20
305.44861939411192
 30
0.0
 11
45.603389412439618
 21
305.44861939411192
 31
0.0
  0
LINE
  5
4858
  8
AM_5
 10
48.103389412439661
 20
466.1986193941118
 30
0.0
 11
48.103389412439618
 21
311.69861939411192
 31
0.0
  0
INSERT
  5
4859
  8
AM_5
  2
_OPEN30
 10
48.103389412439661
 20
472.4486193941118
 30
0.0
 41
6.25
 42
6.25
 43
6.25
 50
90.0
  0
INSERT
  5
485A
  8
AM_5
  2
_OPEN30
 10
48.103389412439618
 20
305.44861939411192
 30
0.0
 41
6.25
 42
6.25
 43
6.25
 50
270.0
  0
TEXT
  8
AM_5
  40
8.75
  5
493F
  62
2
  72
0
  71
0
 10
39.9784
 20
377.574
 30
0.000000
  1
167
  0
POINT
  5
485C
  8
DEFPOINTS
 62
     0
 10
84.103390412439694
 20
472.4486193941118
 30
0.0
  0
POINT
  5
485D
  8
DEFPOINTS
 62
     0
 10
84.103390412439666
 20
305.44861939411192
 30
0.0
  0
POINT
  5
485E
  8
DEFPOINTS
 62
     0
 10
48.103389412439618
 20
305.44861939411192
 30
0.0
  0
ENDBLK
  5
421E
  8
0
  0
BLOCK
  8
0
  2
*D17
 70
     1
 10
0.0
 20
0.0
 30
0.0
  3
*D17
  1

  0
LINE
  5
485F
  8
AM_5
 10
84.103390412439694
 20
474.94861939411192
 30
0.0
 11
84.103390412439694
 21
522.94862039411191
 31
0.0
  0
LINE
  5
4860
  8
AM_5
 10
497.10339041243958
 20
474.94861939411192
 30
0.0
 11
497.10339041243958
 21
522.94862039411191
 31
0.0
  0
LINE
  5
4861
  8
AM_5
 10
90.353390412439694
 20
520.44862039411191
 30
0.0
 11
490.85339041243958
 21
520.44862039411191
 31
0.0
  0
INSERT
  5
4862
  8
AM_5
  2
_OPEN30
 10
84.103390412439694
 20
520.44862039411191
 30
0.0
 41
6.25
 42
6.25
 43
6.25
 50
180.0
  0
INSERT
  5
4863
  8
AM_5
  2
_OPEN30
 10
497.10339041243958
 20
520.44862039411191
 30
0.0
 41
6.25
 42
6.25
 43
6.25
  0
TEXT
  8
AM_5
  40
8.75
  5
4940
  62
2
  72
0
  71
0
 10
290.603
 20
517.199
 30
0.000000
  1
413
  0
POINT
  5
4865
  8
DEFPOINTS
 62
     0
 10
84.103390412439694
 20
472.4486193941118
 30
0.0
  0
POINT
  5
4866
  8
DEFPOINTS
 62
     0
 10
497.10339041243958
 20
472.4486193941118
 30
0.0
  0
POINT
  5
4867
  8
DEFPOINTS
 62
     0
 10
497.10339041243958
 20
520.44862039411191
 30
0.0
  0
ENDBLK
  5
4220
  8
0
  0
BLOCK
  8
0
  2
*D18
 70
     1
 10
0.0
 20
0.0
 30
0.0
  3
*D18
  1

  0
LINE
  5
4868
  8
AM_5
 10
676.63763789719633
 20
474.9486193941118
 30
0.0
 11
676.63763789719633
 21
507.58128066268932
 31
0.0
  0
LINE
  5
4869
  8
AM_5
 10
693.63763789719633
 20
486.9486193941118
 30
0.0
 11
693.63763789719633
 21
507.58128066268932
 31
0.0
  0
LINE
  5
486A
  8
AM_5
 10
670.38763789719633
 20
505.08128066268921
 30
0.0
 11
664.13763789719633
 21
505.08128066268921
 31
0.0
  0
LINE
  5
486B
  8
AM_5
 10
699.88763789719633
 20
505.08128066268921
 30
0.0
 11
706.13763789719633
 21
505.08128066268921
 31
0.0
  0
LINE
  5
486C
  8
AM_5
 10
676.63763789719633
 20
505.08128066268921
 30
0.0
 11
693.63763789719633
 21
505.08128066268921
 31
0.0
  0
INSERT
  5
486D
  8
AM_5
  2
_OPEN30
 10
676.63763789719633
 20
505.08128066268921
 30
0.0
 41
6.25
 42
6.25
 43
6.25
  0
INSERT
  5
486E
  8
AM_5
  2
_OPEN30
 10
693.63763789719633
 20
505.08128066268921
 30
0.0
 41
6.25
 42
6.25
 43
6.25
 50
180.0
  0
TEXT
  8
AM_5
  40
8.75
  5
4941
  62
2
  72
0
  71
0
 10
685.138
 20
501.831
 30
0.000000
  1
17
  0
POINT
  5
4870
  8
DEFPOINTS
 62
     0
 10
676.63763789719633
 20
472.4486193941118
 30
0.0
  0
POINT
  5
4871
  8
DEFPOINTS
 62
     0
 10
693.63763789719633
 20
484.4486193941118
 30
0.0
  0
POINT
  5
4872
  8
DEFPOINTS
 62
     0
 10
693.63763789719633
 20
505.08128066268921
 30
0.0
  0
ENDBLK
  5
4260
  8
0
  0
BLOCK
  8
0
  2
*S19
 70
     1
 10
0.0
 20
0.0
 30
0.0
  3
*S19
  1

  0
CIRCLE
  5
46BC
  8
AM_12
 62
     4
 10
477.15525346300188
 20
416.91537806607261
 30
0.0
 40
4.375
  0
LINE
  5
46BD
  8
AM_12
 62
     4
 10
472.78025346300188
 20
412.54037806607272
 30
0.0
 11
481.53025346300188
 21
421.29037806607272
 31
0.0
  0
LINE
  5
46BE
  8
AM_12
 62
     4
 10
472.78025346300188
 20
421.29037806607272
 30
0.0
 11
481.53025346300188
 21
412.54037806607272
 31
0.0
  0
ENDBLK
  5
46C0
  8
0
  0
BLOCK
  8
0
  2
*S20
 70
     1
 10
0.0
 20
0.0
 30
0.0
  3
*S20
  1

  0
CIRCLE
  5
46C3
  8
AM_12
 62
     4
 10
694.42459002294413
 20
477.09715068508712
 30
0.0
 40
4.375
  0
LINE
  5
46C4
  8
AM_12
 62
     4
 10
690.04959002294413
 20
472.72215068508712
 30
0.0
 11
698.79959002294413
 21
481.47215068508712
 31
0.0
  0
LINE
  5
46C5
  8
AM_12
 62
     4
 10
690.04959002294413
 20
481.47215068508712
 30
0.0
 11
698.79959002294413
 21
472.72215068508712
 31
0.0
  0
ENDBLK
  5
46C7
  8
0
  0
BLOCK
  8
0
  2
*S21
 70
     1
 10
0.0
 20
0.0
 30
0.0
  3
*S21
  1

  0
LINE
  5
46CA
  8
AM_5
 10
545.68747595123739
 20
449.83057408349509
 30
0.0
 11
485.042694178533
 21
420.70362026516477
 31
0.0
  0
TRACE
  5
46CB
  8
AM_5
 10
484.54396263378169
 20
421.74202153030399
 30
0.0
 11
485.54142572328431
 21
419.66521900002567
 31
0.0
 12
477.15525346300188
 22
416.91537806607261
 32
0.0
 13
477.15525346300188
 23
416.91537806607261
 33
0.0
  0
INSERT
  5
46CC
  8
ｼｬ_ｼ
  2
*U80
 10
0.0
 20
0.0
 30
0.0
  0
CIRCLE
  5
46CD
  8
AM_5
 62
     3
 10
559.49049720341691
 20
456.4599979319064
 30
0.0
 40
15.3125
  0
ENDBLK
  5
46CF
  8
0
  0
BLOCK
  8
0
  2
*S22
 70
     1
 10
0.0
 20
0.0
 30
0.0
  3
*S22
  1

  0
LINE
  5
46D2
  8
AM_5
 10
744.16000166744175
 20
492.85296516212208
 30
0.0
 11
702.76603191124991
 21
479.73965843796412
 31
0.0
  0
TRACE
  5
46D3
  8
AM_5
 10
702.41813916724197
 20
480.83783009114001
 30
0.0
 11
703.11392465525819
 21
478.6414867847883
 31
0.0
 12
694.42459002294413
 22
477.09715068508712
 32
0.0
 13
694.42459002294413
 23
477.09715068508712
 33
0.0
  0
INSERT
  5
46D4
  8
ｼｬ_ｼ
  2
*U81
 10
0.0
 20
0.0
 30
0.0
  0
CIRCLE
  5
46D5
  8
AM_5
 62
     3
 10
758.75752497197709
 20
497.47735372965678
 30
0.0
 40
15.3125
  0
ENDBLK
  5
46D7
  8
0
  0
BLOCK
  8
0
  2
*S23
 70
     1
 10
0.0
 20
0.0
 30
0.0
  3
*S23
  1

  0
CIRCLE
  5
46DA
  8
AM_12
 62
     4
 10
955.34625248230589
 20
148.6917715253515
 30
0.0
 40
4.375
  0
LINE
  5
46DB
  8
AM_12
 62
     4
 10
950.971252482306
 20
144.3167715253515
 30
0.0
 11
959.721252482306
 21
153.0667715253515
 31
0.0
  0
LINE
  5
46DC
  8
AM_12
 62
     4
 10
950.971252482306
 20
153.0667715253515
 30
0.0
 11
959.721252482306
 21
144.3167715253515
 31
0.0
  0
ENDBLK
  5
46DE
  8
0
  0
BLOCK
  8
0
  2
*S24
 70
     1
 10
0.0
 20
0.0
 30
0.0
  3
*S24
  1

  0
LINE
  5
46E1
  8
AM_5
 10
915.85383278959068
 20
168.67467755248421
 30
0.0
 11
947.53882149712138
 21
152.64228053199619
 31
0.0
  0
TRACE
  5
46E2
  8
AM_5
 10
947.01872712197564
 20
151.6144127476415
 30
0.0
 11
948.05891587226745
 21
153.67014831635089
 31
0.0
 12
955.34625248230589
 22
148.6917715253515
 32
0.0
 13
955.34625248230589
 23
148.6917715253515
 33
0.0
  0
INSERT
  5
46E3
  8
ｼｬ_ｼ
  2
*U82
 10
0.0
 20
0.0
 30
0.0
  0
CIRCLE
  5
46E4
  8
AM_5
 62
     3
 10
902.1908285655179
 20
175.58806831411249
 30
0.0
 40
15.3125
  0
ENDBLK
  5
46E6
  8
0
  0
BLOCK
  8
0
  2
*S25
 70
     1
 10
0.0
 20
0.0
 30
0.0
  3
*S25
  1

  0
CIRCLE
  5
46E9
  8
AM_12
 62
     4
 10
955.50638273986601
 20
460.27658062545351
 30
0.0
 40
4.375
  0
LINE
  5
46EA
  8
AM_12
 62
     4
 10
951.13138273986613
 20
455.90158062545351
 30
0.0
 11
959.8813827398659
 21
464.65158062545351
 31
0.0
  0
LINE
  5
46EB
  8
AM_12
 62
     4
 10
951.13138273986613
 20
464.65158062545351
 30
0.0
 11
959.8813827398659
 21
455.90158062545351
 31
0.0
  0
ENDBLK
  5
46ED
  8
0
  0
BLOCK
  8
0
  2
*S26
 70
     1
 10
0.0
 20
0.0
 30
0.0
  3
*S26
  1

  0
LINE
  5
46F0
  8
AM_5
 10
914.36626156555383
 20
488.48661719627108
 30
0.0
 11
948.28997810531735
 21
465.22491409748881
 31
0.0
  0
TRACE
  5
46F1
  8
AM_5
 10
947.63851764773517
 20
464.27485640798812
 30
0.0
 11
948.94143856289929
 21
466.17497178698937
 31
0.0
 12
955.50638273986601
 22
460.27658062545351
 32
0.0
 13
955.50638273986601
 23
460.27658062545351
 33
0.0
  0
INSERT
  5
46F2
  8
ｼｬ_ｼ
  2
*U83
 10
0.0
 20
0.0
 30
0.0
  0
CIRCLE
  5
46F3
  8
AM_5
 62
     3
 10
901.73755345509358
 20
497.1462007723328
 30
0.0
 40
15.3125
  0
ENDBLK
  5
46F5
  8
0
  0
BLOCK
  8
0
  2
*S27
 70
     1
 10
0.0
 20
0.0
 30
0.0
  3
*S27
  1

  0
CIRCLE
  5
46F8
  8
AM_12
 62
     4
 10
955.47069330843408
 20
354.2620041098333
 30
0.0
 40
4.375
  0
LINE
  5
46F9
  8
AM_12
 62
     4
 10
951.09569330843419
 20
349.8870041098333
 30
0.0
 11
959.84569330843419
 21
358.6370041098333
 31
0.0
  0
LINE
  5
46FA
  8
AM_12
 62
     4
 10
951.09569330843419
 20
358.6370041098333
 30
0.0
 11
959.84569330843419
 21
349.8870041098333
 31
0.0
  0
ENDBLK
  5
46FC
  8
0
  0
BLOCK
  8
0
  2
*S28
 70
     1
 10
0.0
 20
0.0
 30
0.0
  3
*S28
  1

  0
LINE
  5
46FF
  8
AM_5
 10
916.39546759320456
 20
378.78489570406589
 30
0.0
 11
948.05932000385246
 21
358.91324542158372
 31
0.0
  0
TRACE
  5
4700
  8
AM_5
 10
947.44697247101089
 20
357.93751961983639
 30
0.0
 11
948.6716675366938
 21
359.888971223331
 31
0.0
 12
955.47069330843408
 22
354.2620041098333
 32
0.0
 13
955.47069330843408
 23
354.2620041098333
 33
0.0
  0
INSERT
  5
4701
  8
ｼｬ_ｼ
  2
*U84
 10
0.0
 20
0.0
 30
0.0
  0
CIRCLE
  5
4702
  8
AM_5
 62
     3
 10
903.42556431018659
 20
386.92456799962912
 30
0.0
 40
15.3125
  0
ENDBLK
  5
4704
  8
0
  0
BLOCK
  8
0
  2
*S29
 70
     1
 10
0.0
 20
0.0
 30
0.0
  3
*S29
  1

  0
CIRCLE
  5
4707
  8
AM_12
 62
     4
 10
955.11946520069591
 20
249.06285268732449
 30
0.0
 40
4.375
  0
LINE
  5
4708
  8
AM_12
 62
     4
 10
950.74446520069591
 20
244.68785268732449
 30
0.0
 11
959.4944652006958
 21
253.43785268732461
 31
0.0
  0
LINE
  5
4709
  8
AM_12
 62
     4
 10
950.74446520069591
 20
253.43785268732461
 30
0.0
 11
959.4944652006958
 21
244.68785268732449
 31
0.0
  0
ENDBLK
  5
470B
  8
0
  0
BLOCK
  8
0
  2
*S30
 70
     1
 10
0.0
 20
0.0
 30
0.0
  3
*S30
  1

  0
LINE
  5
470E
  8
AM_5
 10
916.67404039955363
 20
277.5049905987978
 30
0.0
 11
948.08519454093209
 21
254.2668450283245
 31
0.0
  0
TRACE
  5
470F
  8
AM_5
 10
947.40007595487054
 20
253.34076573139271
 30
0.0
 11
948.77031312699364
 21
255.1929243252562
 31
0.0
 12
955.11946520069591
 22
249.06285268732449
 32
0.0
 13
955.11946520069591
 23
249.06285268732449
 33
0.0
  0
INSERT
  5
4710
  8
ｼｬ_ｼ
  2
*U85
 10
0.0
 20
0.0
 30
0.0
  0
CIRCLE
  5
4711
  8
AM_5
 62
     3
 10
904.36406674496698
 20
286.61197719554758
 30
0.0
 40
15.3125
  0
ENDBLK
  5
4713
  8
0
  0
BLOCK
  8
0
  2
*S31
 70
     1
 10
0.0
 20
0.0
 30
0.0
  3
*S31
  1

  0
LINE
  5
4716
  8
0
 62
     1
 10
525.0
 20
653.6875
 30
0.0
 11
1007.5
 21
653.6875
 31
0.0
  0
LINE
  5
4717
  8
0
 62
     1
 10
525.0
 20
638.25
 30
0.0
 11
1007.5
 21
638.25
 31
0.0
  0
LINE
  5
4718
  8
0
 62
     1
 10
525.0
 20
622.8125
 30
0.0
 11
1007.5
 21
622.8125
 31
0.0
  0
LINE
  5
4719
  8
0
 62
     1
 10
525.0
 20
607.375
 30
0.0
 11
1007.5
 21
607.375
 31
0.0
  0
LINE
  5
471A
  8
0
 62
     1
 10
525.0
 20
591.9375
 30
0.0
 11
1007.5
 21
591.9375
 31
0.0
  0
INSERT
  5
471B
  8
ｼｬ_ｼ
  2
*U86
 10
0.0
 20
0.0
 30
0.0
  0
LINE
  5
471C
  8
0
 62
     1
 10
562.5
 20
669.125
 30
0.0
 11
562.5
 21
653.6875
 31
0.0
  0
INSERT
  5
471D
  8
ｼｬ_ｼ
  2
*U87
 10
0.0
 20
0.0
 30
0.0
  0
LINE
  5
471E
  8
0
 62
     1
 10
712.5
 20
669.125
 30
0.0
 11
712.5
 21
653.6875
 31
0.0
  0
INSERT
  5
471F
  8
ｼｬ_ｼ
  2
*U88
 10
0.0
 20
0.0
 30
0.0
  0
LINE
  5
4720
  8
0
 62
     1
 10
750.0
 20
669.125
 30
0.0
 11
750.0
 21
653.6875
 31
0.0
  0
INSERT
  5
4721
  8
ｼｬ_ｼ
  2
*U89
 10
0.0
 20
0.0
 30
0.0
  0
LINE
  5
4722
  8
0
 62
     1
 10
850.0
 20
669.125
 30
0.0
 11
850.0
 21
653.6875
 31
0.0
  0
INSERT
  5
4723
  8
ｼｬ_ｼ
  2
*U90
 10
0.0
 20
0.0
 30
0.0
  0
INSERT
  5
4724
  8
ｼｬ_ｼ
  2
*U91
 10
0.0
 20
0.0
 30
0.0
  0
LINE
  5
4725
  8
0
 62
     1
 10
562.5
 20
653.6875
 30
0.0
 11
562.5
 21
638.25
 31
0.0
  0
INSERT
  5
4726
  8
ｼｬ_ｼ
  2
*U92
 10
0.0
 20
0.0
 30
0.0
  0
LINE
  5
4727
  8
0
 62
     1
 10
712.5
 20
653.6875
 30
0.0
 11
712.5
 21
638.25
 31
0.0
  0
INSERT
  5
4728
  8
ｼｬ_ｼ
  2
*U93
 10
0.0
 20
0.0
 30
0.0
  0
LINE
  5
4729
  8
0
 62
     1
 10
750.0
 20
653.6875
 30
0.0
 11
750.0
 21
638.25
 31
0.0
  0
INSERT
  5
472A
  8
ｼｬ_ｼ
  2
*U94
 10
0.0
 20
0.0
 30
0.0
  0
LINE
  5
472B
  8
0
 62
     1
 10
850.0
 20
653.6875
 30
0.0
 11
850.0
 21
638.25
 31
0.0
  0
INSERT
  5
472C
  8
ｼｬ_ｼ
  2
*U95
 10
0.0
 20
0.0
 30
0.0
  0
INSERT
  5
472D
  8
ｼｬ_ｼ
  2
*U96
 10
0.0
 20
0.0
 30
0.0
  0
LINE
  5
472E
  8
0
 62
     1
 10
562.5
 20
638.25
 30
0.0
 11
562.5
 21
622.8125
 31
0.0
  0
INSERT
  5
472F
  8
ｼｬ_ｼ
  2
*U97
 10
0.0
 20
0.0
 30
0.0
  0
LINE
  5
4730
  8
0
 62
     1
 10
712.5
 20
638.25
 30
0.0
 11
712.5
 21
622.8125
 31
0.0
  0
INSERT
  5
4731
  8
ｼｬ_ｼ
  2
*U98
 10
0.0
 20
0.0
 30
0.0
  0
LINE
  5
4732
  8
0
 62
     1
 10
750.0
 20
638.25
 30
0.0
 11
750.0
 21
622.8125
 31
0.0
  0
INSERT
  5
4733
  8
ｼｬ_ｼ
  2
*U99
 10
0.0
 20
0.0
 30
0.0
  0
LINE
  5
4734
  8
0
 62
     1
 10
850.0
 20
638.25
 30
0.0
 11
850.0
 21
622.8125
 31
0.0
  0
INSERT
  5
4735
  8
ｼｬ_ｼ
  2
*U100
 10
0.0
 20
0.0
 30
0.0
  0
INSERT
  5
4736
  8
ｼｬ_ｼ
  2
*U101
 10
0.0
 20
0.0
 30
0.0
  0
LINE
  5
4737
  8
0
 62
     1
 10
562.5
 20
622.8125
 30
0.0
 11
562.5
 21
607.375
 31
0.0
  0
INSERT
  5
4738
  8
ｼｬ_ｼ
  2
*U102
 10
0.0
 20
0.0
 30
0.0
  0
LINE
  5
4739
  8
0
 62
     1
 10
712.5
 20
622.8125
 30
0.0
 11
712.5
 21
607.375
 31
0.0
  0
INSERT
  5
473A
  8
ｼｬ_ｼ
  2
*U103
 10
0.0
 20
0.0
 30
0.0
  0
LINE
  5
473B
  8
0
 62
     1
 10
750.0
 20
622.8125
 30
0.0
 11
750.0
 21
607.375
 31
0.0
  0
INSERT
  5
473C
  8
ｼｬ_ｼ
  2
*U104
 10
0.0
 20
0.0
 30
0.0
  0
LINE
  5
473D
  8
0
 62
     1
 10
850.0
 20
622.8125
 30
0.0
 11
850.0
 21
607.375
 31
0.0
  0
INSERT
  5
473E
  8
ｼｬ_ｼ
  2
*U105
 10
0.0
 20
0.0
 30
0.0
  0
INSERT
  5
473F
  8
ｼｬ_ｼ
  2
*U106
 10
0.0
 20
0.0
 30
0.0
  0
LINE
  5
4740
  8
0
 62
     1
 10
562.5
 20
607.375
 30
0.0
 11
562.5
 21
591.9375
 31
0.0
  0
INSERT
  5
4741
  8
ｼｬ_ｼ
  2
*U107
 10
0.0
 20
0.0
 30
0.0
  0
LINE
  5
4742
  8
0
 62
     1
 10
712.5
 20
607.375
 30
0.0
 11
712.5
 21
591.9375
 31
0.0
  0
INSERT
  5
4743
  8
ｼｬ_ｼ
  2
*U108
 10
0.0
 20
0.0
 30
0.0
  0
LINE
  5
4744
  8
0
 62
     1
 10
750.0
 20
607.375
 30
0.0
 11
750.0
 21
591.9375
 31
0.0
  0
INSERT
  5
4745
  8
ｼｬ_ｼ
  2
*U109
 10
0.0
 20
0.0
 30
0.0
  0
LINE
  5
4746
  8
0
 62
     1
 10
850.0
 20
607.375
 30
0.0
 11
850.0
 21
591.9375
 31
0.0
  0
INSERT
  5
4747
  8
ｼｬ_ｼ
  2
*U110
 10
0.0
 20
0.0
 30
0.0
  0
INSERT
  5
4748
  8
ｼｬ_ｼ
  2
*U111
 10
0.0
 20
0.0
 30
0.0
  0
LINE
  5
4749
  8
0
 62
     1
 10
562.5
 20
591.9375
 30
0.0
 11
562.5
 21
576.49999999999989
 31
0.0
  0
INSERT
  5
474A
  8
ｼｬ_ｼ
  2
*U112
 10
0.0
 20
0.0
 30
0.0
  0
LINE
  5
474B
  8
0
 62
     1
 10
712.5
 20
591.9375
 30
0.0
 11
712.5
 21
576.49999999999989
 31
0.0
  0
INSERT
  5
474C
  8
ｼｬ_ｼ
  2
*U113
 10
0.0
 20
0.0
 30
0.0
  0
LINE
  5
474D
  8
0
 62
     1
 10
750.0
 20
591.9375
 30
0.0
 11
750.0
 21
576.49999999999989
 31
0.0
  0
INSERT
  5
474E
  8
ｼｬ_ｼ
  2
*U114
 10
0.0
 20
0.0
 30
0.0
  0
LINE
  5
474F
  8
0
 62
     1
 10
850.0
 20
591.9375
 30
0.0
 11
850.0
 21
576.49999999999989
 31
0.0
  0
INSERT
  5
4750
  8
ｼｬ_ｼ
  2
*U115
 10
0.0
 20
0.0
 30
0.0
  0
LINE
  5
4751
  8
0
 62
     1
 10
525.0
 20
669.125
 30
0.0
 11
1007.5
 21
669.125
 31
0.0
  0
INSERT
  5
4752
  8
ｼｬ_ｼ
  2
*U116
 10
0.0
 20
0.0
 30
0.0
  0
LINE
  5
4753
  8
0
 62
     1
 10
562.5
 20
684.5625
 30
0.0
 11
562.5
 21
669.125
 31
0.0
  0
INSERT
  5
4754
  8
ｼｬ_ｼ
  2
*U117
 10
0.0
 20
0.0
 30
0.0
  0
LINE
  5
4755
  8
0
 62
     1
 10
712.5
 20
684.5625
 30
0.0
 11
712.5
 21
669.125
 31
0.0
  0
INSERT
  5
4756
  8
ｼｬ_ｼ
  2
*U118
 10
0.0
 20
0.0
 30
0.0
  0
LINE
  5
4757
  8
0
 62
     1
 10
750.0
 20
684.5625
 30
0.0
 11
750.0
 21
669.125
 31
0.0
  0
INSERT
  5
4758
  8
ｼｬ_ｼ
  2
*U119
 10
0.0
 20
0.0
 30
0.0
  0
LINE
  5
4759
  8
0
 62
     1
 10
850.0
 20
684.5625
 30
0.0
 11
850.0
 21
669.125
 31
0.0
  0
INSERT
  5
475A
  8
ｼｬ_ｼ
  2
*U120
 10
0.0
 20
0.0
 30
0.0
  0
INSERT
  5
475B
  8
ｼｬ_ｼ
  2
*U121
 10
0.0
 20
0.0
 30
0.0
  0
LINE
  5
475C
  8
0
 62
     1
 10
525.0
 20
684.5625
 30
0.0
 11
1007.5
 21
684.5625
 31
0.0
  0
LINE
  5
475D
  8
0
 62
     7
 10
525.0
 20
700.0
 30
0.0
 11
1007.5
 21
700.0
 31
0.0
  0
LINE
  5
475E
  8
0
 62
     7
 10
1007.5
 20
700.0
 30
0.0
 11
1007.5
 21
576.49999999999989
 31
0.0
  0
LINE
  5
475F
  8
0
 62
     7
 10
1007.5
 20
576.49999999999989
 30
0.0
 11
525.0
 21
576.49999999999989
 31
0.0
  0
LINE
  5
4760
  8
0
 62
     7
 10
525.0
 20
576.49999999999989
 30
0.0
 11
525.0
 21
700.0
 31
0.0
  0
ENDBLK
  5
4762
  8
0
  0
BLOCK
  8
0
  2
*U32
 70
     1
 10
0.0
 20
0.0
 30
0.0
  3
*U32
  1

  0
TEXT
  5
477B
  8
0
 10
375.30531168523061
 20
276.233542987227
 30
0.0
 40
2.5
  1
(文書番号：TY-5)2000.9
  0
ENDBLK
  5
477D
  8
0
  0
BLOCK
  8
0
  2
*U33
 70
     1
 10
0.0
 20
0.0
 30
0.0
  3
*U33
  1

  0
TEXT
  5
477F
  8
RAHM2
 10
-193.80025513713139
 20
3.3010354072796408
 30
0.0
 40
2.5
  1
図番
  0
ENDBLK
  5
4781
  8
0
  0
BLOCK
  8
0
  2
*U34
 70
     1
 10
0.0
 20
0.0
 30
0.0
  3
*U34
  1

  0
TEXT
  5
4783
  8
RAHM2
 10
-193.0
 20
21.249999999999972
 30
0.0
 40
2.5
  1
符号
  0
ENDBLK
  5
4785
  8
0
  0
BLOCK
  8
0
  2
*U35
 70
     1
 10
0.0
 20
0.0
 30
0.0
  3
*U35
  1

  0
TEXT
  5
4787
  8
RAHM2
 10
-193.80025513713139
 20
16.30103540727961
 30
0.0
 40
2.5
  1
品名
  0
ENDBLK
  5
4789
  8
0
  0
BLOCK
  8
0
  2
*U36
 70
     1
 10
0.0
 20
0.0
 30
0.0
  3
*U36
  1

  0
TEXT
  5
478B
  8
RAHM2
 10
-163.1448171868856
 20
21.249999999999972
 30
0.0
 40
2.5
  1
変更記事
  0
ENDBLK
  5
478D
  8
0
  0
BLOCK
  8
0
  2
*U37
 70
     1
 10
0.0
 20
0.0
 30
0.0
  3
*U37
  1

  0
TEXT
  5
478F
  8
0
 10
-88.85532994923858
 20
3.4187817258883251
 30
0.0
 40
3.5
  1
株式会社タカチ電機工業
  0
ENDBLK
  5
4791
  8
0
  0
BLOCK
  8
0
  2
*U38
 70
     1
 10
0.0
 20
0.0
 30
0.0
  3
*U38
  1

  0
TEXT
  5
4793
  8
RAHM2
 10
-123.3362656628704
 20
31.250000000000028
 30
0.0
 40
2.5
  1
・  ・   
  0
ENDBLK
  5
4795
  8
0
  0
BLOCK
  8
0
  2
*U39
 70
     1
 10
0.0
 20
0.0
 30
0.0
  3
*U39
  1

  0
TEXT
  5
4797
  8
RAHM2
 10
-126.238119805002
 20
21.249999999999972
 30
0.0
 40
2.5
  1
年・月・日
  0
ENDBLK
  5
4799
  8
0
  0
BLOCK
  8
0
  2
*U40
 70
     1
 10
0.0
 20
0.0
 30
0.0
  3
*U40
  1

  0
TEXT
  5
479B
  8
RAHM2
 10
-104.4702380952381
 20
21.249999999999972
 30
0.0
 40
2.5
  1
担当
  0
ENDBLK
  5
479D
  8
0
  0
BLOCK
  8
0
  2
*U41
 70
     1
 10
0.0
 20
0.0
 30
0.0
  3
*U41
  1

  0
TEXT
  5
479F
  8
RAHM2
 10
-123.3362656628704
 20
41.250000000000021
 30
0.0
 40
2.5
  1
・  ・   
  0
ENDBLK
  5
47A1
  8
0
  0
BLOCK
  8
0
  2
*U42
 70
     1
 10
0.0
 20
0.0
 30
0.0
  3
*U42
  1

  0
TEXT
  5
47A3
  8
RAHM2
 10
-123.3362656628704
 20
36.250000000000028
 30
0.0
 40
2.5
  1
・  ・   
  0
ENDBLK
  5
47A5
  8
0
  0
BLOCK
  8
0
  2
*U43
 70
     1
 10
0.0
 20
0.0
 30
0.0
  3
*U43
  1

  0
TEXT
  5
47A7
  8
RAHM2
 10
-123.3362656628704
 20
46.250000000000021
 30
0.0
 40
2.5
  1
・  ・   
  0
ENDBLK
  5
47A9
  8
0
  0
BLOCK
  8
0
  2
*U44
 70
     1
 10
0.0
 20
0.0
 30
0.0
  3
*U44
  1

  0
TEXT
  5
47AB
  8
RAHM2
 10
-92.800255137131444
 20
13.80103540727964
 30
0.0
 40
2.5
  1
日付
  0
ENDBLK
  5
47AD
  8
0
  0
BLOCK
  8
0
  2
*U45
 70
     1
 10
0.0
 20
0.0
 30
0.0
  3
*U45
  1

  0
TEXT
  5
47AF
  8
RAHM2
 10
-92.800255137131444
 20
23.801035407279642
 30
0.0
 40
2.5
  1
表面処理
  0
ENDBLK
  5
47B1
  8
0
  0
BLOCK
  8
0
  2
*U46
 70
     1
 10
0.0
 20
0.0
 30
0.0
  3
*U46
  1

  0
TEXT
  5
47B3
  8
RAHM2
 10
-92.800255137131444
 20
33.801035407279642
 30
0.0
 40
2.5
  1
材質
  0
ENDBLK
  5
47B5
  8
0
  0
BLOCK
  8
0
  2
*U47
 70
     1
 10
0.0
 20
0.0
 30
0.0
  3
*U47
  1

  0
TEXT
  5
47B7
  8
RAHM2
 10
-72.800255137131444
 20
46.301035407279642
 30
0.0
 40
2.5
  1
尺度
  0
ENDBLK
  5
47B9
  8
0
  0
BLOCK
  8
0
  2
*U48
 70
     1
 10
0.0
 20
0.0
 30
0.0
  3
*U48
  1

  0
TEXT
  5
47BB
  8
RAHM2
 10
-52.800255137131451
 20
46.301035407279642
 30
0.0
 40
2.5
  1
数量
  0
ENDBLK
  5
47BD
  8
0
  0
BLOCK
  8
0
  2
*U49
 70
     1
 10
0.0
 20
0.0
 30
0.0
  3
*U49
  1

  0
TEXT
  5
47BF
  8
RAHM2
 10
-28.3125
 20
21.301035407279642
 30
0.0
 40
2.5
  1
承認
  0
ENDBLK
  5
47C1
  8
0
  0
BLOCK
  8
0
  2
*U50
 70
     1
 10
0.0
 20
0.0
 30
0.0
  3
*U50
  1

  0
TEXT
  5
47C3
  8
RAHM2
 10
-28.3125
 20
46.301035407279642
 30
0.0
 40
2.5
  1
承認
  0
ENDBLK
  5
47C5
  8
0
  0
BLOCK
  8
0
  2
*U51
 70
     1
 10
0.0
 20
0.0
 30
0.0
  3
*U51
  1

  0
TEXT
  5
47C7
  8
RAHM2
 10
-123.3362656628704
 20
26.250000000000028
 30
0.0
 40
2.5
  1
・  ・   
  0
ENDBLK
  5
47C9
  8
0
  0
BLOCK
  8
0
  2
*U52
 70
     1
 10
0.0
 20
0.0
 30
0.0
  3
*U52
  1

  0
TEXT
  5
47CB
  8
RAHM2
 10
-11.3125
 20
46.301035407279642
 30
0.0
 40
2.5
  1
検図
  0
ENDBLK
  5
47CD
  8
0
  0
BLOCK
  8
0
  2
*U53
 70
     1
 10
0.0
 20
0.0
 30
0.0
  3
*U53
  1

  0
TEXT
  5
47CF
  8
RAHM2
 10
-11.3125
 20
21.301035407279642
 30
0.0
 40
2.5
  1
製図
  0
ENDBLK
  5
47D1
  8
0
  0
BLOCK
  8
0
  2
*U54
 70
     1
 10
0.0
 20
0.0
 30
0.0
  3
*U54
  1

  0
TEXT
  5
47D3
  8
0
 10
180.30531168523061
 20
286.233542987227
 30
0.0
 40
2.5
  1
(文書番号：TY-5)2000.9
  0
ENDBLK
  5
47D5
  8
0
  0
BLOCK
  8
0
  2
*U55
 70
     1
 10
0.0
 20
0.0
 30
0.0
  3
*U55
  1

  0
TEXT
  5
47DB
  8
RAHM2
 10
-191.8002551371315
 20
8.8010354072796062
 30
0.0
 40
2.5
  1
日付
  0
ENDBLK
  5
47DD
  8
0
  0
BLOCK
  8
0
  2
*U56
 70
     1
 10
0.0
 20
0.0
 30
0.0
  3
*U56
  1

  0
TEXT
  5
47DF
  8
RAHM2
 10
-191.8002551371315
 20
33.801035407279663
 30
0.0
 40
2.5
  1
尺度
  0
ENDBLK
  5
47E1
  8
0
  0
BLOCK
  8
0
  2
*U57
 70
     1
 10
0.0
 20
0.0
 30
0.0
  3
*U57
  1

  0
TEXT
  5
47E3
  8
RAHM2
 10
-191.8002551371315
 20
21.301035407279631
 30
0.0
 40
2.5
  1
数量
  0
ENDBLK
  5
47E5
  8
0
  0
BLOCK
  8
0
  2
*U58
 70
     1
 10
0.0
 20
0.0
 30
0.0
  3
*U58
  1

  0
TEXT
  5
47E7
  8
RAHM2
 10
-165.80025513713139
 20
36.301035407279556
 30
0.0
 40
2.5
  1
表面処理
  0
ENDBLK
  5
47E9
  8
0
  0
BLOCK
  8
0
  2
*U59
 70
     1
 10
0.0
 20
0.0
 30
0.0
  3
*U59
  1

  0
TEXT
  5
47EB
  8
RAHM2
 10
-165.80025513713139
 20
46.301035407279549
 30
0.0
 40
2.5
  1
材質
  0
ENDBLK
  5
47ED
  8
0
  0
BLOCK
  8
0
  2
*U60
 70
     1
 10
0.0
 20
0.0
 30
0.0
  3
*U60
  1

  0
TEXT
  5
47EF
  8
0
 10
-156.35532994923869
 20
23.418781725888241
 30
0.0
 40
3.5
  1
株式会社タカチ電機工業
  0
ENDBLK
  5
47F1
  8
0
  0
BLOCK
  8
0
  2
*U61
 70
     1
 10
0.0
 20
0.0
 30
0.0
  3
*U61
  1

  0
TEXT
  5
47F3
  8
RAHM2
 10
-160.93750000000011
 20
16.30103540727956
 30
0.0
 40
2.5
  1
承認
  0
ENDBLK
  5
47F5
  8
0
  0
BLOCK
  8
0
  2
*U62
 70
     1
 10
0.0
 20
0.0
 30
0.0
  3
*U62
  1

  0
TEXT
  5
47F7
  8
RAHM2
 10
-143.18750000000011
 20
16.301035407279581
 30
0.0
 40
2.5
  1
承認
  0
ENDBLK
  5
47F9
  8
0
  0
BLOCK
  8
0
  2
*U63
 70
     1
 10
0.0
 20
0.0
 30
0.0
  3
*U63
  1

  0
TEXT
  5
47FB
  8
RAHM2
 10
-125.4375000000001
 20
16.301035407279581
 30
0.0
 40
2.5
  1
検図
  0
ENDBLK
  5
47FD
  8
0
  0
BLOCK
  8
0
  2
*U64
 70
     1
 10
0.0
 20
0.0
 30
0.0
  3
*U64
  1

  0
TEXT
  5
47FF
  8
RAHM2
 10
-107.6875
 20
16.301035407279571
 30
0.0
 40
2.5
  1
製図
  0
ENDBLK
  5
4801
  8
0
  0
BLOCK
  8
0
  2
*U65
 70
     1
 10
0.0
 20
0.0
 30
0.0
  3
*U65
  1

  0
TEXT
  5
4803
  8
RAHM2
 10
-19.982425929334909
 20
2.1847624665659851
 30
0.0
 40
2.5
  1
Rev.
  0
ENDBLK
  5
4805
  8
0
  0
BLOCK
  8
0
  2
*U66
 70
     1
 10
0.0
 20
0.0
 30
0.0
  3
*U66
  1

  0
TEXT
  5
4807
  8
RAHM2
 10
-94.800255137131444
 20
3.3010354072796271
 30
0.0
 40
2.5
  1
図番
  0
ENDBLK
  5
4809
  8
0
  0
BLOCK
  8
0
  2
*U67
 70
     1
 10
0.0
 20
0.0
 30
0.0
  3
*U67
  1

  0
TEXT
  5
480B
  8
RAHM2
 10
-94.0
 20
21.249999999999961
 30
0.0
 40
2.5
  1
符号
  0
ENDBLK
  5
480D
  8
0
  0
BLOCK
  8
0
  2
*U68
 70
     1
 10
0.0
 20
0.0
 30
0.0
  3
*U68
  1

  0
TEXT
  5
480F
  8
RAHM2
 10
-94.800255137131444
 20
16.301035407279599
 30
0.0
 40
2.5
  1
品名
  0
ENDBLK
  5
4811
  8
0
  0
BLOCK
  8
0
  2
*U69
 70
     1
 10
0.0
 20
0.0
 30
0.0
  3
*U69
  1

  0
TEXT
  5
4813
  8
RAHM2
 10
-65.0
 20
21.249999999999961
 30
0.0
 40
2.5
  1
変更記事
  0
ENDBLK
  5
4815
  8
0
  0
BLOCK
  8
0
  2
*U70
 70
     1
 10
0.0
 20
0.0
 30
0.0
  3
*U70
  1

  0
TEXT
  5
4817
  8
RAHM2
 10
-26.157085073559461
 20
31.250000000000028
 30
0.0
 40
2.5
  1
・  ・   
  0
ENDBLK
  5
4819
  8
0
  0
BLOCK
  8
0
  2
*U71
 70
     1
 10
0.0
 20
0.0
 30
0.0
  3
*U71
  1

  0
TEXT
  5
481B
  8
RAHM2
 10
-29.058939215691112
 20
21.249999999999972
 30
0.0
 40
2.5
  1
年・月・日
  0
ENDBLK
  5
481D
  8
0
  0
BLOCK
  8
0
  2
*U72
 70
     1
 10
0.0
 20
0.0
 30
0.0
  3
*U72
  1

  0
TEXT
  5
481F
  8
RAHM2
 10
-8.8806478005825724
 20
21.249999999999972
 30
0.0
 40
2.5
  1
担当
  0
ENDBLK
  5
4821
  8
0
  0
BLOCK
  8
0
  2
*U73
 70
     1
 10
0.0
 20
0.0
 30
0.0
  3
*U73
  1

  0
TEXT
  5
4823
  8
RAHM2
 10
-26.157085073559461
 20
41.250000000000021
 30
0.0
 40
2.5
  1
・  ・   
  0
ENDBLK
  5
4825
  8
0
  0
BLOCK
  8
0
  2
*U74
 70
     1
 10
0.0
 20
0.0
 30
0.0
  3
*U74
  1

  0
TEXT
  5
4827
  8
RAHM2
 10
-26.157085073559461
 20
36.250000000000028
 30
0.0
 40
2.5
  1
・  ・   
  0
ENDBLK
  5
4829
  8
0
  0
BLOCK
  8
0
  2
*U75
 70
     1
 10
0.0
 20
0.0
 30
0.0
  3
*U75
  1

  0
TEXT
  5
482B
  8
RAHM2
 10
-26.157085073559461
 20
46.250000000000021
 30
0.0
 40
2.5
  1
・  ・   
  0
ENDBLK
  5
482D
  8
0
  0
BLOCK
  8
0
  2
*U76
 70
     1
 10
0.0
 20
0.0
 30
0.0
  3
*U76
  1

  0
TEXT
  5
482F
  8
RAHM2
 10
-26.157085073559461
 20
26.250000000000028
 30
0.0
 40
2.5
  1
・  ・   
  0
ENDBLK
  5
4831
  8
0
  0
BLOCK
  8
0
  2
*U77
 70
     1
 10
0.0
 20
0.0
 30
0.0
  3
*U77
  1

  0
TEXT
  5
488A
  8
0
 10
735.07812499999989
 20
15.68879425909911
 30
0.0
 40
9.375
  1
岡本
  0
ENDBLK
  5
488C
  8
0
  0
BLOCK
  8
0
  2
*U78
 70
     1
 10
0.0
 20
0.0
 30
0.0
  3
*U78
  1

  0
TEXT
  5
488E
  8
0
 10
690.93749999999989
 20
15.68879425909911
 30
0.0
 40
9.375
  1
野村
  0
ENDBLK
  5
4890
  8
0
  0
BLOCK
  8
0
  2
*U79
 70
     1
 10
0.0
 20
0.0
 30
0.0
  3
*U79
  1

  0
TEXT
  5
4892
  8
0
 10
645.84573271855788
 20
16.863068997436741
 30
0.0
 40
9.375
  1
高地
  0
TEXT
  5
4893
  8
0
 10
649.78573119631881
 20
5.9255689974367414
 30
0.0
 40
4.6875
  1
（一）
  0
ENDBLK
  5
4895
  8
0
  0
BLOCK
  8
0
  2
*U80
 70
     1
 10
0.0
 20
0.0
 30
0.0
  3
*U80
  1

  0
TEXT
  5
4897
  8
AM_5
 62
     7
 10
557.30299720341691
 20
452.0849979319064
 30
0.0
 40
8.75
  1
1
  7
ACISOTS
  0
ENDBLK
  5
4899
  8
0
  0
BLOCK
  8
0
  2
*U81
 70
     1
 10
0.0
 20
0.0
 30
0.0
  3
*U81
  1

  0
TEXT
  5
489B
  8
AM_5
 62
     7
 10
755.5433640467802
 20
493.10149250918448
 30
0.0
 40
8.75
  1
2
  7
ACISOTS
  0
ENDBLK
  5
489D
  8
0
  0
BLOCK
  8
0
  2
*U82
 70
     1
 10
0.0
 20
0.0
 30
0.0
  3
*U82
  1

  0
TEXT
  5
489F
  8
AM_5
 62
     7
 10
899.17311203008478
 20
171.21306831411249
 30
0.0
 40
8.75
  1
6
  7
ACISOTS
  0
ENDBLK
  5
48A1
  8
0
  0
BLOCK
  8
0
  2
*U83
 70
     1
 10
0.0
 20
0.0
 30
0.0
  3
*U83
  1

  0
TEXT
  5
48A3
  8
AM_5
 62
     7
 10
898.49383502155536
 20
492.7712007723328
 30
0.0
 40
8.75
  1
3
  7
ACISOTS
  0
ENDBLK
  5
48A5
  8
0
  0
BLOCK
  8
0
  2
*U84
 70
     1
 10
0.0
 20
0.0
 30
0.0
  3
*U84
  1

  0
TEXT
  5
48A7
  8
AM_5
 62
     7
 10
899.92556431018659
 20
382.54956799962901
 30
0.0
 40
8.75
  1
4
  7
ACISOTS
  0
ENDBLK
  5
48A9
  8
0
  0
BLOCK
  8
0
  2
*U85
 70
     1
 10
0.0
 20
0.0
 30
0.0
  3
*U85
  1

  0
TEXT
  5
48AB
  8
AM_5
 62
     7
 10
901.12034831142876
 20
282.23697719554758
 30
0.0
 40
8.75
  1
5
  7
ACISOTS
  0
ENDBLK
  5
48AD
  8
0
  0
BLOCK
  8
0
  2
*U86
 70
     1
 10
0.0
 20
0.0
 30
0.0
  3
*U86
  1

  0
TEXT
  5
48AF
  8
0
 62
     2
 10
541.5625
 20
657.0
 30
0.0
 40
8.75
  1
1
  7
ACISOTS
  0
ENDBLK
  5
48B1
  8
0
  0
BLOCK
  8
0
  2
*U87
 70
     1
 10
0.0
 20
0.0
 30
0.0
  3
*U87
  1

  0
TEXT
  5
48B3
  8
0
 62
     2
 10
564.74999999999989
 20
657.0
 30
0.0
 40
8.75
  1
シャーシ
  7
ACISOTS
  0
ENDBLK
  5
48B5
  8
0
  0
BLOCK
  8
0
  2
*U88
 70
     1
 10
0.0
 20
0.0
 30
0.0
  3
*U88
  1

  0
TEXT
  5
48B7
  8
0
 62
     2
 10
729.0625
 20
657.0
 30
0.0
 40
8.75
  1
1
  7
ACISOTS
  0
ENDBLK
  5
48B9
  8
0
  0
BLOCK
  8
0
  2
*U89
 70
     1
 10
0.0
 20
0.0
 30
0.0
  3
*U89
  1

  0
TEXT
  5
48BB
  8
0
 62
     2
 10
750.9375
 20
656.99827755905517
 30
0.0
 40
8.75
  1
A1050P-H24 t2.0
  7
ACISOTS
  0
ENDBLK
  5
48BD
  8
0
  0
BLOCK
  8
0
  2
*U90
 70
     1
 10
0.0
 20
0.0
 30
0.0
  3
*U90
  1

  0
TEXT
  5
48BF
  8
0
 62
     2
 10
852.25
 20
657.0
 30
0.0
 40
8.75
  1
無処理
  7
ACISOTS
  0
ENDBLK
  5
48C1
  8
0
  0
BLOCK
  8
0
  2
*U91
 70
     1
 10
0.0
 20
0.0
 30
0.0
  3
*U91
  1

  0
TEXT
  5
48C3
  8
0
 62
     2
 10
540.53583907480299
 20
641.56077755905505
 30
0.0
 40
8.75
  1
2
  7
ACISOTS
  0
ENDBLK
  5
48C5
  8
0
  0
BLOCK
  8
0
  2
*U92
 70
     1
 10
0.0
 20
0.0
 30
0.0
  3
*U92
  1

  0
TEXT
  5
48C7
  8
0
 62
     2
 10
564.74999999999989
 20
641.5625
 30
0.0
 40
8.75
  1
シャーシ取付台
  7
ACISOTS
  0
ENDBLK
  5
48C9
  8
0
  0
BLOCK
  8
0
  2
*U93
 70
     1
 10
0.0
 20
0.0
 30
0.0
  3
*U93
  1

  0
TEXT
  5
48CB
  8
0
 62
     2
 10
728.03583907480299
 20
641.56077755905505
 30
0.0
 40
8.75
  1
2
  7
ACISOTS
  0
ENDBLK
  5
48CD
  8
0
  0
BLOCK
  8
0
  2
*U94
 70
     1
 10
0.0
 20
0.0
 30
0.0
  3
*U94
  1

  0
TEXT
  5
48CF
  8
0
 62
     2
 10
750.9375
 20
641.56077755905505
 30
0.0
 40
8.75
  1
A1050P-H24 t2.0
  7
ACISOTS
  0
ENDBLK
  5
48D1
  8
0
  0
BLOCK
  8
0
  2
*U95
 70
     1
 10
0.0
 20
0.0
 30
0.0
  3
*U95
  1

  0
TEXT
  5
48D3
  8
0
 62
     2
 10
852.25
 20
641.5625
 30
0.0
 40
8.75
  1
無処理
  7
ACISOTS
  0
ENDBLK
  5
48D5
  8
0
  0
BLOCK
  8
0
  2
*U96
 70
     1
 10
0.0
 20
0.0
 30
0.0
  3
*U96
  1

  0
TEXT
  5
48D7
  8
0
 62
     2
 10
540.50628156646167
 20
626.125
 30
0.0
 40
8.75
  1
3
  7
ACISOTS
  0
ENDBLK
  5
48D9
  8
0
  0
BLOCK
  8
0
  2
*U97
 70
     1
 10
0.0
 20
0.0
 30
0.0
  3
*U97
  1

  0
TEXT
  5
48DB
  8
0
 62
     2
 10
564.74999999999989
 20
625.68749999999989
 30
0.0
 40
8.75
  1
取付ビス(ｻﾗM3×10)
  7
ACISOTS
  0
ENDBLK
  5
48DD
  8
0
  0
BLOCK
  8
0
  2
*U98
 70
     1
 10
0.0
 20
0.0
 30
0.0
  3
*U98
  1

  0
TEXT
  5
48DF
  8
0
 62
     2
 10
727.74999999999989
 20
626.125
 30
0.0
 40
8.75
  1
4
  7
ACISOTS
  0
ENDBLK
  5
48E1
  8
0
  0
BLOCK
  8
0
  2
*U99
 70
     1
 10
0.0
 20
0.0
 30
0.0
  3
*U99
  1

  0
TEXT
  5
48E3
  8
0
 62
     2
 10
752.24999999999989
 20
626.125
 30
0.0
 40
8.75
  1
鉄
  7
ACISOTS
  0
ENDBLK
  5
48E5
  8
0
  0
BLOCK
  8
0
  2
*U100
 70
     1
 10
0.0
 20
0.0
 30
0.0
  3
*U100
  1

  0
TEXT
  5
48E7
  8
0
 62
     2
 10
852.25
 20
626.125
 30
0.0
 40
8.75
  1
三価ｸﾛｰﾒｲﾄ
  7
ACISOTS
  0
ENDBLK
  5
48E9
  8
0
  0
BLOCK
  8
0
  2
*U101
 70
     1
 10
0.0
 20
0.0
 30
0.0
  3
*U101
  1

  0
TEXT
  5
48EB
  8
0
 62
     2
 10
540.24999999999989
 20
610.6875
 30
0.0
 40
8.75
  1
4
  7
ACISOTS
  0
ENDBLK
  5
48ED
  8
0
  0
BLOCK
  8
0
  2
*U102
 70
     1
 10
0.0
 20
0.0
 30
0.0
  3
*U102
  1

  0
TEXT
  5
48EF
  8
0
 62
     2
 10
564.74999999999989
 20
610.25
 30
0.0
 40
8.75
  1
取付ビス(ﾊﾞｲﾝﾄﾞM3×6)
  7
ACISOTS
  0
ENDBLK
  5
48F1
  8
0
  0
BLOCK
  8
0
  2
*U103
 70
     1
 10
0.0
 20
0.0
 30
0.0
  3
*U103
  1

  0
TEXT
  5
48F3
  8
0
 62
     2
 10
727.74999999999989
 20
610.6875
 30
0.0
 40
8.75
  1
4
  7
ACISOTS
  0
ENDBLK
  5
48F5
  8
0
  0
BLOCK
  8
0
  2
*U104
 70
     1
 10
0.0
 20
0.0
 30
0.0
  3
*U104
  1

  0
TEXT
  5
48F7
  8
0
 62
     2
 10
752.24999999999989
 20
610.6875
 30
0.0
 40
8.75
  1
鉄
  7
ACISOTS
  0
ENDBLK
  5
48F9
  8
0
  0
BLOCK
  8
0
  2
*U105
 70
     1
 10
0.0
 20
0.0
 30
0.0
  3
*U105
  1

  0
TEXT
  5
48FB
  8
0
 62
     2
 10
852.25
 20
610.6875
 30
0.0
 40
8.75
  1
ﾆｯｹﾙﾒｯｷ
  7
ACISOTS
  0
ENDBLK
  5
48FD
  8
0
  0
BLOCK
  8
0
  2
*U106
 70
     1
 10
0.0
 20
0.0
 30
0.0
  3
*U106
  1

  0
TEXT
  5
48FF
  8
0
 62
     2
 10
540.50628156646167
 20
595.24999999999989
 30
0.0
 40
8.75
  1
5
  7
ACISOTS
  0
ENDBLK
  5
4901
  8
0
  0
BLOCK
  8
0
  2
*U107
 70
     1
 10
0.0
 20
0.0
 30
0.0
  3
*U107
  1

  0
TEXT
  5
4903
  8
0
 62
     2
 10
564.74999999999989
 20
594.8125
 30
0.0
 40
8.75
  1
取付ワッシャー(M3用)
  7
ACISOTS
  0
ENDBLK
  5
4905
  8
0
  0
BLOCK
  8
0
  2
*U108
 70
     1
 10
0.0
 20
0.0
 30
0.0
  3
*U108
  1

  0
TEXT
  5
4907
  8
0
 62
     2
 10
727.74999999999989
 20
595.24999999999989
 30
0.0
 40
8.75
  1
4
  7
ACISOTS
  0
ENDBLK
  5
4909
  8
0
  0
BLOCK
  8
0
  2
*U109
 70
     1
 10
0.0
 20
0.0
 30
0.0
  3
*U109
  1

  0
TEXT
  5
490B
  8
0
 62
     2
 10
752.24999999999989
 20
595.24999999999989
 30
0.0
 40
8.75
  1
鉄
  7
ACISOTS
  0
ENDBLK
  5
490D
  8
0
  0
BLOCK
  8
0
  2
*U110
 70
     1
 10
0.0
 20
0.0
 30
0.0
  3
*U110
  1

  0
TEXT
  5
490F
  8
0
 62
     2
 10
852.25
 20
595.24999999999989
 30
0.0
 40
8.75
  1
ﾆｯｹﾙﾒｯｷ
  7
ACISOTS
  0
ENDBLK
  5
4911
  8
0
  0
BLOCK
  8
0
  2
*U111
 70
     1
 10
0.0
 20
0.0
 30
0.0
  3
*U111
  1

  0
TEXT
  5
4913
  8
0
 62
     2
 10
540.73228346456676
 20
579.81249999999989
 30
0.0
 40
8.75
  1
6
  7
ACISOTS
  0
ENDBLK
  5
4915
  8
0
  0
BLOCK
  8
0
  2
*U112
 70
     1
 10
0.0
 20
0.0
 30
0.0
  3
*U112
  1

  0
TEXT
  5
4917
  8
0
 62
     2
 10
564.74999999999989
 20
579.375
 30
0.0
 40
8.75
  1
取付ナット(M3用)
  7
ACISOTS
  0
ENDBLK
  5
4919
  8
0
  0
BLOCK
  8
0
  2
*U113
 70
     1
 10
0.0
 20
0.0
 30
0.0
  3
*U113
  1

  0
TEXT
  5
491B
  8
0
 62
     2
 10
727.74999999999989
 20
579.81249999999989
 30
0.0
 40
8.75
  1
4
  7
ACISOTS
  0
ENDBLK
  5
491D
  8
0
  0
BLOCK
  8
0
  2
*U114
 70
     1
 10
0.0
 20
0.0
 30
0.0
  3
*U114
  1

  0
TEXT
  5
491F
  8
0
 62
     2
 10
752.24999999999989
 20
579.81249999999989
 30
0.0
 40
8.75
  1
鉄
  7
ACISOTS
  0
ENDBLK
  5
4921
  8
0
  0
BLOCK
  8
0
  2
*U115
 70
     1
 10
0.0
 20
0.0
 30
0.0
  3
*U115
  1

  0
TEXT
  5
4923
  8
0
 62
     2
 10
852.25
 20
579.81249999999989
 30
0.0
 40
8.75
  1
三価ｸﾛｰﾒｲﾄ
  7
ACISOTS
  0
ENDBLK
  5
4925
  8
0
  0
BLOCK
  8
0
  2
*U116
 70
     1
 10
0.0
 20
0.0
 30
0.0
  3
*U116
  1

  0
TEXT
  5
4927
  8
0
 62
     2
 10
534.125
 20
672.4375
 30
0.0
 40
8.75
  1
照番
  7
ACISOTS
  0
ENDBLK
  5
4929
  8
0
  0
BLOCK
  8
0
  2
*U117
 70
     1
 10
0.0
 20
0.0
 30
0.0
  3
*U117
  1

  0
TEXT
  5
492B
  8
0
 62
     2
 10
627.875
 20
672.4375
 30
0.0
 40
8.75
  1
名称
  7
ACISOTS
  0
ENDBLK
  5
492D
  8
0
  0
BLOCK
  8
0
  2
*U118
 70
     1
 10
0.0
 20
0.0
 30
0.0
  3
*U118
  1

  0
TEXT
  5
492F
  8
0
 62
     2
 10
721.625
 20
672.4375
 30
0.0
 40
8.75
  1
数量
  7
ACISOTS
  0
ENDBLK
  5
4931
  8
0
  0
BLOCK
  8
0
  2
*U119
 70
     1
 10
0.0
 20
0.0
 30
0.0
  3
*U119
  1

  0
TEXT
  5
4933
  8
0
 62
     2
 10
790.375
 20
672.4375
 30
0.0
 40
8.75
  1
材質
  7
ACISOTS
  0
ENDBLK
  5
4935
  8
0
  0
BLOCK
  8
0
  2
*U120
 70
     1
 10
0.0
 20
0.0
 30
0.0
  3
*U120
  1

  0
TEXT
  5
4937
  8
0
 62
     2
 10
897.25
 20
672.4375
 30
0.0
 40
8.75
  1
色・表面処理
  7
ACISOTS
  0
ENDBLK
  5
4939
  8
0
  0
BLOCK
  8
0
  2
*U121
 70
     1
 10
0.0
 20
0.0
 30
0.0
  3
*U121
  1

  0
TEXT
  5
493B
  8
0
 62
     2
 10
745.90624999999989
 20
687.90624999999989
 30
0.0
 40
8.75
  1
構成内容
  7
ACISOTS
  0
ENDBLK
  5
493D
  8
0
  0
ENDSEC
  0
SECTION
  2
ENTITIES
  0
INSERT
  5
24AC
  8
ｼｬ_ｼ
  2
TK-A3
 10
0.0
 20
0.0
 30
0.0
 41
2.5
 42
2.5
 43
2.5
1001
GENIUS_GENOREF_13
1005
2512
1001
GENIUS_GENOBJ-N-SDF_13
1002
{
1000
OWNER
1000
GEN
1002
}
1001
GENIUS_GENODEF_13
1002
{
1000
HIER
1070
     0
1002
}
1002
{
1000
MANEDIT
1070
     0
1002
}
1002
{
1000
NOSEL
1070
     0
1002
}
1002
{
1000
BEHIND
1070
     0
1002
}
1002
{
1000
OTHER
1070
     0
1002
}
1002
{
1000
REACTOR
1002
}
1001
GENIUS_GENSCREG_13
1040
2.5
1040
1.0
1011
0.0
1021
-0.0
1031
-17250103096.01635
1021
0.0
1031
0.0
1011
1007.5
1021
-0.0
1031
-17250103096.01635
1021
700.0
1031
0.0
1070
     3
  0
INSERT
  5
2508
  8
ｼｬ_ｼ
 66
     1
  2
TK-TITLE
 10
1007.5
 20
0.0
 30
0.0
 41
2.5
 42
2.5
 43
2.5
1001
GENIUS_GENOREF_13
1005
2512
  0
ATTRIB
  5
4468
  8
0
 10
532.89690837652813
 20
8.9708563440266609
 30
0.0
 40
7.5
  1
2010/11/05
 72
     1
 11
556.9570120844653
 21
8.9708563440266609
 31
0.0
  2
GEN-TITLE-DAT
 70
     0
 74
     1
  0
ATTRIB
  5
4469
  8
0
 10
545.00249079215996
 20
70.749999999999943
 30
0.0
 40
7.5
  1
1:2.5
 72
     2
 11
562.93815096393985
 21
70.749999999999943
 31
0.0
  2
GEN-TITLE-SCA
 70
     0
 74
     1
  0
ATTRIB
  5
446A
  8
0
 10
568.46814771847619
 20
39.499999999999851
 30
0.0
 40
7.5
  1

 72
     2
 11
568.46814771847619
 21
39.499999999999851
 31
0.0
  2
GEN-TITLE-QTY
 70
     0
 74
     1
  0
ATTRIB
  5
446B
  8
0
 10
635.09533104117713
 20
83.249999999999773
 30
0.0
 40
7.5
  1

  2
GEN-TITLE-MAT2
 70
     0
  0
ATTRIB
  5
446C
  8
0
 10
635.09533104117713
 20
108.2499999999998
 30
0.0
 40
7.5
  1

  2
GEN-TITLE-MAT1
 70
     0
  0
ATTRIB
  5
446D
  8
0
 10
797.5
 20
4.9999999999998934
 30
0.0
 40
7.5
  1

  2
GEN-TITLE-NR1
 70
     0
  0
ATTRIB
  5
446E
  8
0
 10
797.5
 20
22.874999999999869
 30
0.0
 40
6.25
  1
AC型アルミシャーシ
  2
GEN-TITLE-DES2
 70
     0
  0
ATTRIB
  5
446F
  8
0
 10
797.14370246036674
 20
32.069760814109429
 30
0.0
 40
8.75
  1
AC43-23
  2
GEN-TITLE-DES1
 70
     0
  0
ATTRIB
  5
4470
  8
0
 10
987.49422702613526
 20
4.2629735859875897
 30
0.0
 40
6.25
  1

  2
GEN-TITLE-NR2
 70
     0
  0
SEQEND
  5
4467
  8
ｼｬ_ｼ
  0
POINT
  5
2512
  8
0
 10
0.0
 20
0.0
 30
0.0
1001
GENIUS_GENOENT_13
1002
{
1000
MYREF
1005
2512
1002
}
1002
{
1000
GRP
1005
0
1002
}
1001
GENIUS_GENOBJ-N-TIT_13
1002
{
1000
OWNER
1000
GEN
1002
}
1001
GENIUS_GENODEF_13
1002
{
1000
HIER
1070
     1
1002
}
1002
{
1000
MANEDIT
1070
     0
1002
}
1002
{
1000
NOSEL
1070
     0
1002
}
1002
{
1000
BEHIND
1070
     0
1002
}
1002
{
1000
OTHER
1070
     0
1002
}
1002
{
1000
REACTOR
1002
}
1001
GENIUS_GENOLIS_13
1002
{
1000
ENT
1005
2508
1005
24AC
1005
4466
1002
}
1001
GENIUS_GENTITLE_13
1002
{
1000
BORDER
1000
TK-A3
1002
}
1002
{
1000
TITLE
1000
TK-TITLE
1002
}
1002
{
1000
SCALE
1000
1:2.5
1002
}
1002
{
1000
TITLESTD
1000
ISO
1002
}
1002
{
1000
HRA
1005
24AC
1002
}
1002
{
1000
HTIT
1005
2508
1002
}
1002
{
1000
GENIUSID
1005
2512
1002
}
1002
{
1000
INVTXTID
1005
0
1002
}
1002
{
1000
UNCHG
1002
{
1000
GEN-TITLE-SIZ
1000
GEN-TITLE-SCA
1002
}
1002
}
  0
INSERT
  5
39FE
  8
AM_12
  2
*S19
 10
0.0
 20
0.0
 30
0.0
  0
INSERT
  5
3A05
  8
AM_12
  2
*S20
 10
0.0
 20
0.0
 30
0.0
  0
INSERT
  5
3CC9
  8
AM_5
  2
*S21
 10
0.0
 20
0.0
 30
0.0
  0
INSERT
  5
3CCA
  8
AM_5
  2
*S22
 10
0.0
 20
0.0
 30
0.0
  0
CIRCLE
  5
3E9E
  8
ﾋ_ｽ
 10
956.99558977062634
 20
247.12889337595939
 30
0.0
 40
1.649999999999999
  0
CIRCLE
  5
3E9F
  8
ﾋ_ｽ
 10
956.99558977062634
 20
247.12889337595939
 30
0.0
 40
3.8500000000000001
  0
LINE
  5
3EA0
  8
ﾋ_ｽ
 10
953.1455897706262
 20
278.3288933759593
 30
0.0
 11
960.84558977062636
 21
278.3288933759593
 31
0.0
  0
LINE
  5
3EA1
  8
ﾋ_ｽ
 10
953.1455897706262
 20
278.62889337595931
 30
0.0
 11
953.1455897706262
 21
278.3288933759593
 31
0.0
  0
LINE
  5
3EA2
  8
ﾋ_ｽ
 10
960.84558977062636
 20
278.62889337595931
 30
0.0
 11
960.84558977062636
 21
278.3288933759593
 31
0.0
  0
LINE
  5
3EA3
  8
ﾋ_ｽ
 10
953.1455897706262
 20
278.62889337595931
 30
0.0
 11
960.84558977062636
 21
278.62889337595931
 31
0.0
  0
INSERT
  5
3F2A
  8
0
  2
A$C2B84214F
 10
978.8955897706262
 20
352.80871399579161
 30
0.0
  0
INSERT
  5
3F43
  8
0
  2
A$C68F65B5E
 10
956.99558977062634
 20
352.80871399579172
 30
0.0
  0
INSERT
  5
3F5C
  8
0
  2
A$C1ABF00C0
 10
956.99558977062634
 20
458.75571225254652
 30
0.0
  0
INSERT
  5
3F75
  8
0
  2
A$C6A810163
 10
979.99558977062384
 20
458.75571225254652
 30
0.0
  0
INSERT
  5
3F86
  8
0
  2
A$C09FA6B72
 10
956.99558977062634
 20
147.55816017969241
 30
0.0
  0
INSERT
  5
3F9B
  8
0
  2
A$C6C857347
 10
956.99558977062634
 20
165.73358666023529
 30
0.0
  0
INSERT
  5
3FB3
  8
0
  2
A$C11BD6C1B
 10
974.74558977062634
 20
147.55816017969209
 30
0.0
 41
-1.0
  0
LINE
  5
3FBC
  8
ﾋ_ｽ
 10
988.19558977062638
 20
250.9788933759597
 30
0.0
 11
988.19558977062638
 21
243.2788933759594
 31
0.0
  0
LINE
  5
3FBD
  8
ﾋ_ｽ
 10
988.49558977062622
 20
250.9788933759597
 30
0.0
 11
988.19558977062638
 21
250.9788933759597
 31
0.0
  0
LINE
  5
3FBE
  8
ﾋ_ｽ
 10
988.49558977062622
 20
243.2788933759594
 30
0.0
 11
988.19558977062638
 21
243.2788933759594
 31
0.0
  0
LINE
  5
3FBF
  8
ﾋ_ｽ
 10
988.49558977062622
 20
250.9788933759597
 30
0.0
 11
988.49558977062622
 21
243.2788933759594
 31
0.0
  0
INSERT
  5
3FCA
  8
0
  2
A$C2B84214F
 10
956.99558977062679
 20
374.70871399579102
 30
0.0
 50
89.999999999999986
  0
INSERT
  5
3FCD
  8
0
  2
A$C6A810163
 10
956.99558977062679
 20
481.7557122525435
 30
0.0
 50
89.999999999999986
  0
INSERT
  5
3FD2
  8
AM_12
  2
*S23
 10
0.0
 20
0.0
 30
0.0
  0
INSERT
  5
3FD5
  8
AM_5
  2
*S24
 10
0.0
 20
0.0
 30
0.0
  0
INSERT
  5
3FD8
  8
AM_12
  2
*S25
 10
0.0
 20
0.0
 30
0.0
  0
INSERT
  5
3FDB
  8
AM_5
  2
*S26
 10
0.0
 20
0.0
 30
0.0
  0
INSERT
  5
3FDD
  8
AM_12
  2
*S27
 10
0.0
 20
0.0
 30
0.0
  0
INSERT
  5
3FE0
  8
AM_5
  2
*S28
 10
0.0
 20
0.0
 30
0.0
  0
INSERT
  5
3FE3
  8
AM_12
  2
*S29
 10
0.0
 20
0.0
 30
0.0
  0
INSERT
  5
3FE6
  8
AM_5
  2
*S30
 10
0.0
 20
0.0
 30
0.0
  0
INSERT
  5
40B4
  8
0
  2
*S31
 10
0.0
 20
0.0
 30
0.0
  0
LINE
  5
41B4
  8
ｼｬ_ｼ
 10
84.103390412439694
 20
138.1291555345758
 30
0.0
 11
84.103390412439694
 21
148.1291555345758
 31
0.0
  0
ARC
  5
41B5
  8
ｼｬ_ｼ
 10
86.103390412439694
 20
148.1291555345758
 30
0.0
 40
2.0
 50
90.0
 51
180.0
1001
GENIUS_GENOBJ-N-FIL_13
1002
{
1000
OWNER
1000
GEN
1002
}
1001
GENIUS_GENODEF_13
1002
{
1000
HIER
1070
     0
1002
}
1002
{
1000
MANEDIT
1070
     0
1002
}
1002
{
1000
NOSEL
1070
     0
1002
}
1002
{
1000
BEHIND
1070
     0
1002
}
1002
{
1000
OTHER
1070
     0
1002
}
1002
{
1000
REACTOR
1002
}
  0
LINE
  5
41B6
  8
ｼｬ_ｼ
 10
86.103390412439694
 20
138.1291555345758
 30
0.0
 11
86.103390412439694
 21
148.1291555345758
 31
0.0
  0
LINE
  5
41B7
  8
ｼｬ_ｼ
 10
86.103390412439694
 20
138.1291555345758
 30
0.0
 11
84.103390412439694
 21
138.1291555345758
 31
0.0
  0
LINE
  5
41B8
  8
ｼｬ_ｼ
 10
84.103390412439694
 20
472.4486193941118
 30
0.0
 11
84.103390412439694
 21
305.44861939411192
 31
0.0
  0
LINE
  5
41B9
  8
ｼｬ_ｼ0
 10
86.103390412439694
 20
472.4486193941118
 30
0.0
 11
86.103390412439694
 21
305.44861939411192
 31
0.0
  0
LINE
  5
41BA
  8
ｼｬ_ｼ取付台
 10
86.603390412439694
 20
133.1291555345758
 30
0.0
 11
86.603390412439694
 21
148.1291555345758
 31
0.0
  0
POLYLINE
  5
41BB
  8
ｼｬ_ｼ0
 66
     1
 10
0.0
 20
0.0
 30
0.0
 70
     1
1001
GENIUS_GENREC_14
1002
{
1000
PYDIR
1011
136.35339041243969
1021
-0.0
1031
-17250103096.01635
1021
469.94861939411192
1031
0.0
1002
}
1002
{
1000
PXDIR
1011
140.85339041243969
1021
-0.0
1031
-17250103096.01635
1021
461.94861939411192
1031
0.0
1002
}
1002
{
1000
PORI
1011
136.35339041243969
1021
-0.0
1031
-17250103096.01635
1021
461.94861939411192
1031
0.0
1002
}
1002
{
1000
PINS
1011
136.35339041243969
1021
-0.0
1031
-17250103096.01635
1021
461.94861939411192
1031
0.0
1002
}
1002
{
1000
HVAL
1000
8
1002
}
1002
{
1000
H
1070
     2
1002
}
1002
{
1000
WVAL
1000
4.5
1002
}
1002
{
1000
W
1070
     2
1002
}
1002
{
1000
C
1070
     1
1002
}
1001
GENIUS_GENODEF_13
1002
{
1000
HIER
1070
     0
1002
}
1002
{
1000
MANEDIT
1070
     0
1002
}
1002
{
1000
NOSEL
1070
     0
1002
}
1002
{
1000
BEHIND
1070
     0
1002
}
1002
{
1000
OTHER
1070
     0
1002
}
1002
{
1000
REACTOR
1002
}
1001
GENIUS_GENOBJ-N-REC_13
1002
{
1000
OWNER
1000
GEN
1002
}
  0
VERTEX
  5
4832
  8
ｼｬ_ｼ0
 10
138.60339041243969
 20
461.94861939411157
 30
0.0
  0
VERTEX
  5
4833
  8
ｼｬ_ｼ0
 10
138.60339041243989
 20
461.9486193941114
 30
0.0
 42
0.4142135623730655
  0
VERTEX
  5
4834
  8
ｼｬ_ｼ0
 10
140.85339041243969
 20
464.1986193941114
 30
0.0
  0
VERTEX
  5
4835
  8
ｼｬ_ｼ0
 10
140.85339041243969
 20
467.69861939411192
 30
0.0
 42
0.4142135623730951
  0
VERTEX
  5
4836
  8
ｼｬ_ｼ0
 10
138.60339041243969
 20
469.94861939411192
 30
0.0
  0
VERTEX
  5
4837
  8
ｼｬ_ｼ0
 10
138.60339041243969
 20
469.94861939411192
 30
0.0
 42
0.4142135623730951
  0
VERTEX
  5
4838
  8
ｼｬ_ｼ0
 10
136.35339041243969
 20
467.69861939411192
 30
0.0
  0
VERTEX
  5
4839
  8
ｼｬ_ｼ0
 10
136.35339041243969
 20
464.19861939411157
 30
0.0
 42
0.4142135623730951
  0
SEQEND
  5
483A
  8
ｼｬ_ｼ0
  0
LINE
  5
41BC
  8
ｼｬ_ｼ取付台
 10
86.603390412439694
 20
484.44861939411192
 30
0.0
 11
86.603390412439694
 21
460.44861939411192
 31
0.0
  0
CIRCLE
  5
41BD
  8
ｼｬ_ｼ取付台0
 10
138.60339041243969
 20
464.94861939411192
 30
0.0
 40
1.5
  0
CIRCLE
  5
41BE
  8
ｼｬ_ｼ取付台
 10
138.60339041243969
 20
464.94861939411192
 30
0.0
 40
1.25
  0
LINE
  5
41BF
  8
ｼｬ_ｼ取付台
 10
494.60339041243969
 20
148.1291555345758
 30
0.0
 11
86.603390412439694
 21
148.1291555345758
 31
0.0
  0
LINE
  5
41C0
  8
ｼｬ_ｼ取付台0
 10
86.603390412439694
 20
146.1291555345758
 30
0.0
 11
494.60339041243969
 21
146.1291555345758
 31
0.0
  0
LINE
  5
41C1
  8
ｼｬ_ｼ取付台
 10
86.603390412439694
 20
133.1291555345758
 30
0.0
 11
494.60339041243969
 21
133.1291555345758
 31
0.0
  0
LINE
  5
41C2
  8
ｼｬ_ｼ取付台
 10
494.60339041243969
 20
133.1291555345758
 30
0.0
 11
494.60339041243969
 21
148.1291555345758
 31
0.0
  0
LINE
  5
41C3
  8
ｼｬ_ｼ
 10
495.10339041243969
 20
138.1291555345758
 30
0.0
 11
497.10339041243958
 21
138.1291555345758
 31
0.0
  0
LINE
  5
41C4
  8
ｼｬ_ｼ
 10
495.10339041243969
 20
138.1291555345758
 30
0.0
 11
495.10339041243969
 21
148.1291555345758
 31
0.0
  0
LINE
  5
41C5
  8
ｼｬ_ｼ
 10
495.10339041243969
 20
148.1291555345758
 30
0.0
 11
86.103390412439694
 21
148.1291555345758
 31
0.0
  0
ARC
  5
41C6
  8
ｼｬ_ｼ
 10
495.10339041243969
 20
148.1291555345758
 30
0.0
 40
2.0
 50
0.000000000000007
 51
90.0
1001
GENIUS_GENOBJ-N-FIL_13
1002
{
1000
OWNER
1000
GEN
1002
}
1001
GENIUS_GENODEF_13
1002
{
1000
HIER
1070
     0
1002
}
1002
{
1000
MANEDIT
1070
     0
1002
}
1002
{
1000
NOSEL
1070
     0
1002
}
1002
{
1000
BEHIND
1070
     0
1002
}
1002
{
1000
OTHER
1070
     0
1002
}
1002
{
1000
REACTOR
1002
}
  0
LINE
  5
41C7
  8
ｼｬ_ｼ
 10
495.10339041243969
 20
150.1291555345758
 30
0.0
 11
86.103390412439694
 21
150.1291555345758
 31
0.0
  0
LINE
  5
41C8
  8
ｼｬ_ｼ
 10
497.10339041243958
 20
138.1291555345758
 30
0.0
 11
497.10339041243958
 21
148.1291555345758
 31
0.0
  0
CIRCLE
  5
41C9
  8
ｼｬ_ｼ取付台
 10
442.60339041243969
 20
464.94861939411192
 30
0.0
 40
1.25
  0
CIRCLE
  5
41CA
  8
ｼｬ_ｼ取付台0
 10
442.60339041243969
 20
464.94861939411192
 30
0.0
 40
1.5
  0
LINE
  5
41CB
  8
ｼｬ_ｼ取付台
 10
494.60339041243969
 20
471.44861939411192
 30
0.0
 11
86.603390412439694
 21
471.4486193941118
 31
0.0
  0
LINE
  5
41CC
  8
ｼｬ_ｼ取付台0
 10
494.60339041243969
 20
469.44861939411192
 30
0.0
 11
86.603390412439694
 21
469.44861939411197
 31
0.0
  0
LINE
  5
41CD
  8
ｼｬ_ｼ取付台
 10
494.60339041243969
 20
460.44861939411192
 30
0.0
 11
86.603390412439694
 21
460.44861939411192
 31
0.0
  0
LINE
  5
41CE
  8
ｼｬ_ｼ取付台
 10
494.60339041243969
 20
484.44861939411192
 30
0.0
 11
86.603390412439694
 21
484.4486193941118
 31
0.0
  0
LINE
  5
41CF
  8
ｼｬ_ｼ取付台
 10
494.60339041243969
 20
484.44861939411192
 30
0.0
 11
494.60339041243969
 21
460.44861939411192
 31
0.0
  0
POLYLINE
  5
41D0
  8
ｼｬ_ｼ0
 66
     1
 10
0.0
 20
0.0
 30
0.0
 70
     1
1001
GENIUS_GENREC_14
1002
{
1000
PYDIR
1011
444.85339041243958
1021
-0.0
1031
-17250103096.01635
1021
469.94861939411192
1031
0.0
1002
}
1002
{
1000
PXDIR
1011
440.35339041243969
1021
-0.0
1031
-17250103096.01635
1021
461.94861939411192
1031
0.0
1002
}
1002
{
1000
PORI
1011
444.85339041243958
1021
-0.0
1031
-17250103096.01635
1021
461.94861939411192
1031
0.0
1002
}
1002
{
1000
PINS
1011
444.85339041243958
1021
-0.0
1031
-17250103096.01635
1021
461.94861939411192
1031
0.0
1002
}
1002
{
1000
HVAL
1000
8
1002
}
1002
{
1000
H
1070
     2
1002
}
1002
{
1000
WVAL
1000
4.5
1002
}
1002
{
1000
W
1070
     2
1002
}
1002
{
1000
C
1070
     1
1002
}
1001
GENIUS_GENODEF_13
1002
{
1000
HIER
1070
     0
1002
}
1002
{
1000
MANEDIT
1070
     0
1002
}
1002
{
1000
NOSEL
1070
     0
1002
}
1002
{
1000
BEHIND
1070
     0
1002
}
1002
{
1000
OTHER
1070
     0
1002
}
1002
{
1000
REACTOR
1002
}
1001
GENIUS_GENOBJ-N-REC_13
1002
{
1000
OWNER
1000
GEN
1002
}
  0
VERTEX
  5
483B
  8
ｼｬ_ｼ0
 10
442.60339041243969
 20
461.94861939411157
 30
0.0
  0
VERTEX
  5
483C
  8
ｼｬ_ｼ0
 10
442.60339041243941
 20
461.9486193941114
 30
0.0
 42
-0.4142135623730655
  0
VERTEX
  5
483D
  8
ｼｬ_ｼ0
 10
440.35339041243969
 20
464.1986193941114
 30
0.0
  0
VERTEX
  5
483E
  8
ｼｬ_ｼ0
 10
440.35339041243969
 20
467.69861939411192
 30
0.0
 42
-0.4142135623730951
  0
VERTEX
  5
483F
  8
ｼｬ_ｼ0
 10
442.60339041243969
 20
469.94861939411192
 30
0.0
  0
VERTEX
  5
4840
  8
ｼｬ_ｼ0
 10
442.60339041243969
 20
469.94861939411192
 30
0.0
 42
-0.4142135623730951
  0
VERTEX
  5
4841
  8
ｼｬ_ｼ0
 10
444.85339041243958
 20
467.69861939411192
 30
0.0
  0
VERTEX
  5
4842
  8
ｼｬ_ｼ0
 10
444.85339041243958
 20
464.19861939411157
 30
0.0
 42
-0.4142135623730951
  0
SEQEND
  5
4843
  8
ｼｬ_ｼ0
  0
LINE
  5
41D1
  8
ｼｬ_ｼ0
 10
495.10339041243969
 20
472.4486193941118
 30
0.0
 11
495.10339041243969
 21
305.44861939411192
 31
0.0
  0
LINE
  5
41D2
  8
ｼｬ_ｼ
 10
497.10339041243958
 20
472.4486193941118
 30
0.0
 11
497.10339041243958
 21
305.44861939411192
 31
0.0
  0
LINE
  5
41D3
  8
ｼｬ_ｼ
 10
84.103390412439694
 20
472.44861939411197
 30
0.0
 11
497.10339041243958
 21
472.4486193941118
 31
0.0
  0
CIRCLE
  5
41D4
  8
ｼｬ_ｼ取付台
 10
138.60339041243969
 20
312.94861939411192
 30
0.0
 40
1.25
  0
CIRCLE
  5
41D5
  8
ｼｬ_ｼ取付台0
 10
138.60339041243969
 20
312.94861939411192
 30
0.0
 40
1.5
  0
LINE
  5
41D6
  8
ｼｬ_ｼ取付台
 10
86.603390412439694
 20
293.44861939411192
 30
0.0
 11
86.603390412439694
 21
317.44861939411192
 31
0.0
  0
POLYLINE
  5
41D7
  8
ｼｬ_ｼ0
 66
     1
 10
0.0
 20
0.0
 30
0.0
 70
     1
1001
GENIUS_GENREC_14
1002
{
1000
PYDIR
1011
136.35339041243969
1021
-0.0
1031
-17250103096.01635
1021
307.94861939411192
1031
0.0
1002
}
1002
{
1000
PXDIR
1011
140.85339041243961
1021
-0.0
1031
-17250103096.01635
1021
315.94861939411192
1031
0.0
1002
}
1002
{
1000
PORI
1011
136.35339041243969
1021
-0.0
1031
-17250103096.01635
1021
315.94861939411192
1031
0.0
1002
}
1002
{
1000
PINS
1011
136.35339041243969
1021
-0.0
1031
-17250103096.01635
1021
315.94861939411192
1031
0.0
1002
}
1002
{
1000
HVAL
1000
8
1002
}
1002
{
1000
H
1070
     2
1002
}
1002
{
1000
WVAL
1000
4.5
1002
}
1002
{
1000
W
1070
     2
1002
}
1002
{
1000
C
1070
     1
1002
}
1001
GENIUS_GENODEF_13
1002
{
1000
HIER
1070
     0
1002
}
1002
{
1000
MANEDIT
1070
     0
1002
}
1002
{
1000
NOSEL
1070
     0
1002
}
1002
{
1000
BEHIND
1070
     0
1002
}
1002
{
1000
OTHER
1070
     0
1002
}
1002
{
1000
REACTOR
1002
}
1001
GENIUS_GENOBJ-N-REC_13
1002
{
1000
OWNER
1000
GEN
1002
}
  0
VERTEX
  5
4844
  8
ｼｬ_ｼ0
 10
138.60339041243961
 20
315.9486193941122
 30
0.0
  0
VERTEX
  5
4845
  8
ｼｬ_ｼ0
 10
138.60339041243989
 20
315.94861939411243
 30
0.0
 42
-0.4142135623730655
  0
VERTEX
  5
4846
  8
ｼｬ_ｼ0
 10
140.85339041243961
 20
313.69861939411243
 30
0.0
  0
VERTEX
  5
4847
  8
ｼｬ_ｼ0
 10
140.85339041243961
 20
310.19861939411192
 30
0.0
 42
-0.4142135623730951
  0
VERTEX
  5
4848
  8
ｼｬ_ｼ0
 10
138.60339041243961
 20
307.94861939411192
 30
0.0
  0
VERTEX
  5
4849
  8
ｼｬ_ｼ0
 10
138.60339041243961
 20
307.94861939411192
 30
0.0
 42
-0.4142135623730951
  0
VERTEX
  5
484A
  8
ｼｬ_ｼ0
 10
136.35339041243969
 20
310.19861939411192
 30
0.0
  0
VERTEX
  5
484B
  8
ｼｬ_ｼ0
 10
136.35339041243969
 20
313.6986193941122
 30
0.0
 42
-0.4142135623730951
  0
SEQEND
  5
484C
  8
ｼｬ_ｼ0
  0
LINE
  5
41D8
  8
ｼｬ_ｼ
 10
84.103390412439694
 20
305.4486193941118
 30
0.0
 11
497.10339041243958
 21
305.44861939411192
 31
0.0
  0
POLYLINE
  5
41D9
  8
ｼｬ_ｼ0
 66
     1
 10
0.0
 20
0.0
 30
0.0
 70
     1
1001
GENIUS_GENREC_14
1002
{
1000
PYDIR
1011
444.85339041243958
1021
-0.0
1031
-17250103096.01635
1021
307.94861939411192
1031
0.0
1002
}
1002
{
1000
PXDIR
1011
440.35339041243969
1021
-0.0
1031
-17250103096.01635
1021
315.94861939411192
1031
0.0
1002
}
1002
{
1000
PORI
1011
444.85339041243958
1021
-0.0
1031
-17250103096.01635
1021
315.94861939411192
1031
0.0
1002
}
1002
{
1000
PINS
1011
444.85339041243958
1021
-0.0
1031
-17250103096.01635
1021
315.94861939411192
1031
0.0
1002
}
1002
{
1000
HVAL
1000
8
1002
}
1002
{
1000
H
1070
     2
1002
}
1002
{
1000
WVAL
1000
4.5
1002
}
1002
{
1000
W
1070
     2
1002
}
1002
{
1000
C
1070
     1
1002
}
1001
GENIUS_GENODEF_13
1002
{
1000
HIER
1070
     0
1002
}
1002
{
1000
MANEDIT
1070
     0
1002
}
1002
{
1000
NOSEL
1070
     0
1002
}
1002
{
1000
BEHIND
1070
     0
1002
}
1002
{
1000
OTHER
1070
     0
1002
}
1002
{
1000
REACTOR
1002
}
1001
GENIUS_GENOBJ-N-REC_13
1002
{
1000
OWNER
1000
GEN
1002
}
  0
VERTEX
  5
484D
  8
ｼｬ_ｼ0
 10
442.60339041243969
 20
315.9486193941122
 30
0.0
  0
VERTEX
  5
484E
  8
ｼｬ_ｼ0
 10
442.60339041243941
 20
315.94861939411243
 30
0.0
 42
0.4142135623730655
  0
VERTEX
  5
484F
  8
ｼｬ_ｼ0
 10
440.35339041243969
 20
313.69861939411243
 30
0.0
  0
VERTEX
  5
4850
  8
ｼｬ_ｼ0
 10
440.35339041243969
 20
310.19861939411192
 30
0.0
 42
0.4142135623730951
  0
VERTEX
  5
4851
  8
ｼｬ_ｼ0
 10
442.60339041243969
 20
307.94861939411192
 30
0.0
  0
VERTEX
  5
4852
  8
ｼｬ_ｼ0
 10
442.60339041243969
 20
307.94861939411192
 30
0.0
 42
0.4142135623730951
  0
VERTEX
  5
4853
  8
ｼｬ_ｼ0
 10
444.85339041243958
 20
310.19861939411192
 30
0.0
  0
VERTEX
  5
4854
  8
ｼｬ_ｼ0
 10
444.85339041243958
 20
313.6986193941122
 30
0.0
 42
0.4142135623730951
  0
SEQEND
  5
4855
  8
ｼｬ_ｼ0
  0
LINE
  5
41DA
  8
ｼｬ_ｼ取付台
 10
494.60339041243969
 20
293.44861939411192
 30
0.0
 11
494.60339041243969
 21
317.44861939411192
 31
0.0
  0
LINE
  5
41DB
  8
ｼｬ_ｼ取付台
 10
494.60339041243969
 20
293.44861939411192
 30
0.0
 11
86.603390412439694
 21
293.44861939411192
 31
0.0
  0
LINE
  5
41DC
  8
ｼｬ_ｼ取付台
 10
494.60339041243969
 20
317.44861939411192
 30
0.0
 11
86.603390412439694
 21
317.44861939411192
 31
0.0
  0
LINE
  5
41DD
  8
ｼｬ_ｼ取付台0
 10
494.60339041243969
 20
308.44861939411192
 30
0.0
 11
86.603390412439694
 21
308.44861939411192
 31
0.0
  0
LINE
  5
41DE
  8
ｼｬ_ｼ取付台
 10
494.60339041243969
 20
306.44861939411192
 30
0.0
 11
86.603390412439694
 21
306.44861939411192
 31
0.0
  0
CIRCLE
  5
41DF
  8
ｼｬ_ｼ取付台0
 10
442.60339041243969
 20
312.94861939411192
 30
0.0
 40
1.5
  0
CIRCLE
  5
41E0
  8
ｼｬ_ｼ取付台
 10
442.60339041243969
 20
312.94861939411192
 30
0.0
 40
1.25
  0
LINE
  5
41E1
  8
ｼｬ_ｼ
 10
676.63763789719633
 20
305.44861939411169
 30
0.0
 11
676.63763789719633
 21
472.4486193941118
 31
0.0
  0
LINE
  5
41E2
  8
ｼｬ_ｼ
 10
676.63763789719633
 20
305.44861939411169
 30
0.0
 11
688.63763789719633
 21
305.44861939411169
 31
0.0
  0
LINE
  5
41E3
  8
ｼｬ_ｼ
 10
688.63763789719633
 20
305.44861939411169
 30
0.0
 11
688.63763789719633
 21
472.4486193941118
 31
0.0
  0
LINE
  5
41E4
  8
ｼｬ_ｼ0
 10
678.63763789719633
 20
305.44861939411169
 30
0.0
 11
678.63763789719633
 21
472.4486193941118
 31
0.0
  0
LINE
  5
41E6
  8
ｼｬ_ｼ取付台
 10
86.603390412439694
 20
135.1291555345758
 30
0.0
 11
494.60339041243969
 21
135.1291555345758
 31
0.0
  0
LINE
  5
41FE
  8
ｼｬ_ｼ
 10
676.63763789719633
 20
472.4486193941118
 30
0.0
 11
688.63763789719633
 21
472.4486193941118
 31
0.0
  0
CIRCLE
  5
41FF
  8
ｼｬ_ｼ取付台
 10
93.603390412439694
 20
478.44861939411192
 30
0.0
 40
2.25
  0
CIRCLE
  5
4200
  8
ｼｬ_ｼ取付台
 10
487.60339041243969
 20
478.44861939411192
 30
0.0
 40
2.25
  0
CIRCLE
  5
4201
  8
ｼｬ_ｼ取付台
 10
93.603390412439694
 20
299.44861939411192
 30
0.0
 40
2.25
  0
CIRCLE
  5
4202
  8
ｼｬ_ｼ取付台
 10
487.60339041243969
 20
299.44861939411192
 30
0.0
 40
2.25
  0
DIMENSION
  5
4203
  8
AM_5
  2
*D16
 10
48.103389412439618
 20
305.44861939411192
 30
0.0
 11
39.978389412439583
 21
388.94861939411192
 31
0.0
 70
     0
 13
84.103390412439694
 23
472.4486193941118
 33
0.0
 14
84.103390412439666
 24
305.44861939411192
 34
0.0
 50
90.0
1001
ACAD
1000
DSTYLE
1002
{
1070
    40
1040
2.5
1070
   272
1070
     3
1070
   274
1070
     4
1070
   284
1070
     0
1070
     6
1000
OPEN30
1070
     7
1000
OPEN30
1002
}
  0
DIMENSION
  5
4206
  8
AM_5
  2
*D17
 10
497.10339041243958
 20
520.44862039411191
 30
0.0
 11
290.60339041243969
 21
528.57362039411191
 31
0.0
 70
     0
 13
84.103390412439694
 23
472.4486193941118
 33
0.0
 14
497.10339041243958
 24
472.4486193941118
 34
0.0
1001
ACAD
1000
DSTYLE
1002
{
1070
    40
1040
2.5
1070
   272
1070
     3
1070
   274
1070
     4
1070
   284
1070
     0
1070
     6
1000
OPEN30
1070
     7
1000
OPEN30
1002
}
  0
DIMENSION
  5
4244
  8
AM_5
  2
*D18
 10
693.63763789719633
 20
505.08128066268921
 30
0.0
 11
685.13763789719633
 21
513.20628066268932
 31
0.0
 70
     0
 13
676.63763789719633
 23
472.4486193941118
 33
0.0
 14
693.63763789719633
 24
484.4486193941118
 34
0.0
1001
ACAD
1000
DSTYLE
1002
{
1070
    40
1040
2.5
1070
   272
1070
     3
1070
   274
1070
     4
1070
   284
1070
     0
1070
     6
1000
OPEN30
1070
     7
1000
OPEN30
1002
}
  0
POLYLINE
  5
4375
  8
ｼｬ_ｼ取付台
 66
     1
 10
0.0
 20
0.0
 30
0.0
 70
     1
  0
VERTEX
  5
4873
  8
ｼｬ_ｼ取付台
 10
678.6376378971961
 20
460.44861939411169
 30
0.0
  0
VERTEX
  5
4874
  8
ｼｬ_ｼ取付台
 10
678.6376378971961
 20
469.44861939411169
 30
0.0
 42
-0.4142135623730951
  0
VERTEX
  5
4875
  8
ｼｬ_ｼ取付台
 10
680.6376378971961
 20
471.4486193941118
 30
0.0
  0
VERTEX
  5
4876
  8
ｼｬ_ｼ取付台
 10
691.6376378971961
 20
471.44861939411152
 30
0.0
  0
VERTEX
  5
4877
  8
ｼｬ_ｼ取付台
 10
691.63763789719633
 20
484.4486193941118
 30
0.0
  0
VERTEX
  5
4878
  8
ｼｬ_ｼ取付台
 10
693.63763789719633
 20
484.4486193941118
 30
0.0
  0
VERTEX
  5
4879
  8
ｼｬ_ｼ取付台
 10
693.6376378971961
 20
471.44861939411152
 30
0.0
 42
-0.4142135623730951
  0
VERTEX
  5
487A
  8
ｼｬ_ｼ取付台
 10
691.6376378971961
 20
469.44861939411152
 30
0.0
  0
VERTEX
  5
487B
  8
ｼｬ_ｼ取付台
 10
680.6376378971961
 20
469.44861939411169
 30
0.0
  0
VERTEX
  5
487C
  8
ｼｬ_ｼ取付台
 10
680.6376378971961
 20
460.44861939411169
 30
0.0
  0
SEQEND
  5
487D
  8
ｼｬ_ｼ取付台
  0
POLYLINE
  5
4376
  8
ｼｬ_ｼ取付台
 66
     1
 10
0.0
 20
0.0
 30
0.0
 70
     1
  0
VERTEX
  5
487E
  8
ｼｬ_ｼ取付台
 10
678.6376378971961
 20
317.44861939411169
 30
0.0
  0
VERTEX
  5
487F
  8
ｼｬ_ｼ取付台
 10
678.6376378971961
 20
308.44861939411169
 30
0.0
 42
0.4142135623730951
  0
VERTEX
  5
4880
  8
ｼｬ_ｼ取付台
 10
680.6376378971961
 20
306.44861939411169
 30
0.0
  0
VERTEX
  5
4881
  8
ｼｬ_ｼ取付台
 10
691.6376378971961
 20
306.44861939411192
 30
0.0
  0
VERTEX
  5
4882
  8
ｼｬ_ｼ取付台
 10
691.63763789719633
 20
293.44861939411169
 30
0.0
  0
VERTEX
  5
4883
  8
ｼｬ_ｼ取付台
 10
693.63763789719633
 20
293.44861939411169
 30
0.0
  0
VERTEX
  5
4884
  8
ｼｬ_ｼ取付台
 10
693.6376378971961
 20
306.44861939411192
 30
0.0
 42
0.4142135623730951
  0
VERTEX
  5
4885
  8
ｼｬ_ｼ取付台
 10
691.6376378971961
 20
308.44861939411192
 30
0.0
  0
VERTEX
  5
4886
  8
ｼｬ_ｼ取付台
 10
680.6376378971961
 20
308.44861939411169
 30
0.0
  0
VERTEX
  5
4887
  8
ｼｬ_ｼ取付台
 10
680.6376378971961
 20
317.44861939411169
 30
0.0
  0
SEQEND
  5
4888
  8
ｼｬ_ｼ取付台
  0
INSERT
  5
43F7
  8
ｼｬ_ｼ
  2
*U77
 10
0.0
 20
0.0
 30
0.0
  0
INSERT
  5
43F8
  8
ｼｬ_ｼ
  2
*U78
 10
0.0
 20
0.0
 30
0.0
  0
INSERT
  5
43F9
  8
ｼｬ_ｼ
  2
*U79
 10
0.0
 20
0.0
 30
0.0
  0
ENDSEC
  0
EOF
