  0
SECTION
  2
HEADER
  9
$ACADVER
  1
AC1009
  9
$INSBASE
 10
0.0
 20
0.0
 30
0.0
  9
$EXTMIN
 10
3.8790535976853562
 20
3.718540564238082
 30
0.0
  9
$EXTMAX
 10
100.3790535976852993
 20
142.2185405642381113
 30
0.0
  9
$LIMMIN
 10
260.8596090332933954
 20
87.3529183213345277
  9
$LIMMAX
 10
365.8596090332933954
 20
235.8529183213344993
  9
$ORTHOMODE
 70
     0
  9
$REGENMODE
 70
     1
  9
$FILLMODE
 70
     1
  9
$QTEXTMODE
 70
     0
  9
$MIRRTEXT
 70
     1
  9
$DRAGMODE
 70
     2
  9
$LTSCALE
 40
0.5
  9
$OSMODE
 70
    37
  9
$ATTMODE
 70
     1
  9
$TEXTSIZE
 40
2.5
  9
$TRACEWID
 40
0.05
  9
$TEXTSTYLE
  7
TAKACHI1
  9
$CLAYER
  8
0
  9
$CELTYPE
  6
BYLAYER
  9
$CECOLOR
 62
   256
  9
$DIMSCALE
 40
1.0
  9
$DIMASZ
 40
2.5
  9
$DIMEXO
 40
1.0
  9
$DIMDLI
 40
10.0
  9
$DIMRND
 40
0.0
  9
$DIMDLE
 40
0.0
  9
$DIMEXE
 40
1.0
  9
$DIMTP
 40
0.1
  9
$DIMTM
 40
0.1
  9
$DIMTXT
 40
3.5
  9
$DIMCEN
 40
0.0
  9
$DIMTSZ
 40
0.0
  9
$DIMTOL
 70
     0
  9
$DIMLIM
 70
     0
  9
$DIMTIH
 70
     0
  9
$DIMTOH
 70
     0
  9
$DIMSE1
 70
     0
  9
$DIMSE2
 70
     0
  9
$DIMTAD
 70
     1
  9
$DIMZIN
 70
     8
  9
$DIMBLK
  1
OPEN30
  9
$DIMASO
 70
     1
  9
$DIMSHO
 70
     1
  9
$DIMPOST
  1

  9
$DIMAPOST
  1
"
  9
$DIMALT
 70
     0
  9
$DIMALTD
 70
     2
  9
$DIMALTF
 40
0.0393701
  9
$DIMLFAC
 40
1.0
  9
$DIMTOFL
 70
     1
  9
$DIMTVP
 40
0.0
  9
$DIMTIX
 70
     0
  9
$DIMSOXD
 70
     0
  9
$DIMSAH
 70
     0
  9
$DIMBLK1
  1

  9
$DIMBLK2
  1

  9
$DIMSTYLE
  2
AM_ISO
  9
$DIMCLRD
 70
     3
  9
$DIMCLRE
 70
     3
  9
$DIMCLRT
 70
     2
  9
$DIMTFAC
 40
0.71
  9
$DIMGAP
 40
1.5
  9
$LUNITS
 70
     2
  9
$LUPREC
 70
     2
  9
$SKETCHINC
 40
0.1
  9
$FILLETRAD
 40
1.25
  9
$AUNITS
 70
     0
  9
$AUPREC
 70
     0
  9
$MENU
  1
.
  9
$ELEVATION
 40
0.0
  9
$PELEVATION
 40
0.0
  9
$THICKNESS
 40
0.0
  9
$LIMCHECK
 70
     0
  9
$BLIPMODE
 70
     0
  9
$CHAMFERA
 40
1.25
  9
$CHAMFERB
 40
1.25
  9
$SKPOLY
 70
     0
  9
$TDCREATE
 40
2460214.6599421300925314
  9
$TDUPDATE
 40
2460706.4928356478922069
  9
$TDINDWG
 40
0.1505902778
  9
$TDUSRTIMER
 40
0.1505902778
  9
$USRTIMER
 70
     1
  9
$ANGBASE
 50
0.0
  9
$ANGDIR
 70
     0
  9
$PDMODE
 70
     0
  9
$PDSIZE
 40
0.0
  9
$PLINEWID
 40
0.0
  9
$COORDS
 70
     1
  9
$SPLFRAME
 70
     0
  9
$SPLINETYPE
 70
     6
  9
$SPLINESEGS
 70
     8
  9
$ATTDIA
 70
     1
  9
$ATTREQ
 70
     1
  9
$HANDLING
 70
     1
  9
$HANDSEED
  5
2975
  9
$SURFTAB1
 70
     6
  9
$SURFTAB2
 70
     6
  9
$SURFTYPE
 70
     6
  9
$SURFU
 70
     6
  9
$SURFV
 70
     6
  9
$UCSNAME
  2

  9
$UCSORG
 10
0.0
 20
0.0
 30
0.0
  9
$UCSXDIR
 10
1.0
 20
0.0
 30
0.0
  9
$UCSYDIR
 10
0.0
 20
1.0
 30
0.0
  9
$PUCSNAME
  2

  9
$PUCSORG
 10
0.0
 20
0.0
 30
0.0
  9
$PUCSXDIR
 10
1.0
 20
0.0
 30
0.0
  9
$PUCSYDIR
 10
0.0
 20
1.0
 30
0.0
  9
$USERI1
 70
     0
  9
$USERI2
 70
     0
  9
$USERI3
 70
     0
  9
$USERI4
 70
     0
  9
$USERI5
 70
     0
  9
$USERR1
 40
0.0
  9
$USERR2
 40
0.0
  9
$USERR3
 40
0.0
  9
$USERR4
 40
0.0
  9
$USERR5
 40
0.0
  9
$WORLDVIEW
 70
     1
  9
$SHADEDGE
 70
     3
  9
$SHADEDIF
 70
    70
  9
$TILEMODE
 70
     1
  9
$MAXACTVP
 70
    64
  9
$PLIMCHECK
 70
     0
  9
$PEXTMIN
 10
1.0000000000000000E+20
 20
1.0000000000000000E+20
 30
1.0000000000000000E+20
  9
$PEXTMAX
 10
-1.0000000000000000E+20
 20
-1.0000000000000000E+20
 30
-1.0000000000000000E+20
  9
$PLIMMIN
 10
-0.2500002402958907
 20
-0.2499999962453767
  9
$PLIMMAX
 10
10.7499995194082096
 20
8.2499997634587316
  9
$UNITMODE
 70
     0
  9
$VISRETAIN
 70
     1
  9
$PLINEGEN
 70
     0
  9
$PSLTSCALE
 70
     1
  0
ENDSEC
  0
SECTION
  2
TABLES
  0
TABLE
  2
VPORT
 70
     1
  0
VPORT
  2
*ACTIVE
 70
     0
 10
0.0
 20
0.0
 11
1.0
 21
1.0
 12
99.6412817847026844
 22
63.5296081157637502
 13
0.0
 23
0.0
 14
1.25
 24
1.25
 15
5.0
 25
5.0
 16
0.0
 26
0.0
 36
1.0
 17
0.0
 27
0.0
 37
0.0
 40
233.5925294559675933
 41
1.3104693140794219
 42
50.0
 43
0.0
 44
0.0
 50
0.0
 51
0.0
 71
     0
 72
   100
 73
     1
 74
     3
 75
     0
 76
     0
 77
     0
 78
     0
  0
ENDTAB
  0
TABLE
  2
LTYPE
 70
    25
  0
LTYPE
  2
CONTINUOUS
 70
     0
  3
Solid line
 72
    65
 73
     0
 40
0.0
  0
LTYPE
  2
AM_ISO02W050
 70
     0
  3
__ __ __ __ __ __ __ __ __ __ __ __ __ __ __
 72
    65
 73
     2
 40
7.5
 49
6.0
 49
-1.5
  0
LTYPE
  2
AM_ISO08W050
 70
     0
  3
____ . ____ . ____ . ____ . ____ . ____ . ____
 72
    65
 73
     4
 40
18.0
 49
12.0
 49
-1.5
 49
3.0
 49
-1.5
  0
LTYPE
  2
AM_ISO09W050
 70
     0
  3
_____ . . _____ . . _____ . . ____ .. ____
 72
    65
 73
     6
 40
22.5
 49
12.0
 49
-1.5
 49
3.0
 49
-1.5
 49
3.0
 49
-1.5
  0
LTYPE
  2
AMCONSTR
 70
     0
  3
_______________________
 72
    65
 73
     2
 40
9999.0
 49
9999.0
 49
0.0
  0
LTYPE
  2
AM_ISO08W050X2
 70
     0
  3
__ . __ . __ . __ . __ . __
 72
    65
 73
     4
 40
9.0
 49
6.0
 49
-0.75
 49
1.5
 49
-0.75
  0
LTYPE
  2
AM_ISO02W050X2
 70
     0
  3
 _ _ _ _ _ _ _ _ _ _ _ _
 72
    65
 73
     2
 40
3.75
 49
3.0
 49
-0.75
  0
LTYPE
  2
AMZIGZAG
 70
     0
  3
/\/-/\/-/\/-/\/-/\/-/\/
 72
    65
 73
     2
 40
11.0000999999999998
 49
0.0001
 49
-11.0
  0
LTYPE
  2
HIDDEN
 70
     0
  3
Hidden __ __ __ __ __ __ __ __ __ __ __ __ __ _
 72
    65
 73
     2
 40
0.375
 49
0.25
 49
-0.125
  0
LTYPE
  2
CENTER
 70
     0
  3
Center ____ _ ____ _ ____ _ ____ _ ____ _ ____
 72
    65
 73
     4
 40
2.0
 49
1.25
 49
-0.25
 49
0.25
 49
-0.25
  0
LTYPE
  2
PHANTOM2
 70
     0
  3
Phantom (.5x) ___ _ _ ___ _ _ ___ _ _ ___ _ _
 72
    65
 73
     6
 40
1.25
 49
0.625
 49
-0.125
 49
0.125
 49
-0.125
 49
0.125
 49
-0.125
  0
LTYPE
  2
CENTER2
 70
     0
  3
Center (.5x) ___ _ ___ _ ___ _ ___ _ ___ _ ___
 72
    65
 73
     4
 40
1.125
 49
0.75
 49
-0.125
 49
0.125
 49
-0.125
  0
LTYPE
  2
HIDDEN2
 70
     0
  3
Hidden (.5x) _ _ _ _ _ _ _ _ _ _ _ _ _ _ _ _ _
 72
    65
 73
     2
 40
0.1875
 49
0.125
 49
-0.0625
  0
LTYPE
  2
AMZIGZAG2
 70
     0
  3
/\/-/\/-/\/-/\/-/\/-/\/
 72
    65
 73
     2
 40
0.4401
 49
0.0001
 49
-0.4400000000000001
  0
LTYPE
  2
ACANSTGB
 70
     0
  3
__ . . __ . .
 72
    65
 73
     6
 40
0.35433070866
 49
0.15748031496
 49
-0.03937007874
 49
0.03937007874
 49
-0.03937007874
 49
0.03937007874
 49
-0.03937007874
  0
LTYPE
  2
ACANSTGL
 70
     0
  3
_ _ _ _ _
 72
    65
 73
     2
 40
0.11811023622
 49
0.07874015748
 49
-0.03937007874
  0
LTYPE
  2
ACISOWELD
 70
     0
  3
_ _ _ _ _
 72
    65
 73
     2
 40
2.0
 49
2.0
 49
-1.0
  0
LTYPE
  2
ACISOTGB
 70
     0
  3
__ . . __ . .
 72
    65
 73
     6
 40
9.0
 49
4.0
 49
-1.0
 49
1.0
 49
-1.0
 49
1.0
 49
-1.0
  0
LTYPE
  2
ACISOTGL
 70
     0
  3
_ _ _ _ _
 72
    65
 73
     2
 40
3.0
 49
2.0
 49
-1.0
  0
LTYPE
  2
GEN3
 70
     0
  3
-- -- -- -- -- -- -- -- -- -- -- -- -- -- --
 72
    65
 73
     2
 40
6.25
 49
4.75
 49
-1.5
  0
LTYPE
  2
GEN7
 70
     0
  3
____ . ____ . ____ . ____ . ____ . ____ . ____
 72
    65
 73
     4
 40
13.75
 49
9.75
 49
-1.5
 49
1.0
 49
-1.5
  0
LTYPE
  2
GEN3A
 70
     0
  3
 - - - - -
 72
    65
 73
     2
 40
3.125
 49
2.25
 49
-0.875
  0
LTYPE
  2
GEN7A
 70
     0
  3
__ . __ . __
 72
    65
 73
     4
 40
6.875
 49
4.75
 49
-0.875
 49
0.375
 49
-0.875
  0
LTYPE
  2
GEN4A
 70
     0
  3
_____ . . _____ . . _____ . . ____ .. ____
 72
    65
 73
     6
 40
16.25
 49
9.75
 49
-1.5
 49
1.0
 49
-1.5
 49
1.0
 49
-1.5
  0
LTYPE
  2
GENZIGZAG
 70
     0
  3
/\/-/\/-/\/-/\/-/\/-/\/
 72
    65
 73
     2
 40
12.0000999999999998
 49
0.0001
 49
-12.0
  0
ENDTAB
  0
TABLE
  2
LAYER
 70
    32
  0
LAYER
  2
0
 70
     0
 62
     7
  6
CONTINUOUS
  0
LAYER
  2
AM_5
 70
     0
 62
     3
  6
CONTINUOUS
  0
LAYER
  2
DEFPOINTS
 70
     0
 62
     7
  6
CONTINUOUS
  0
LAYER
  2
7A
 70
     0
 62
     4
  6
GEN7A
  0
LAYER
  2
RAHM2
 70
     0
 62
     1
  6
CONTINUOUS
  0
LAYER
  2
KLIN
 70
     0
 62
     1
  6
CONTINUOUS
  0
LAYER
  2
TK1
 70
     0
 62
     7
  6
CONTINUOUS
  0
LAYER
  2
TK2
 70
     0
 62
     2
  6
CONTINUOUS
  0
LAYER
  2
TK3
 70
     0
 62
     5
  6
CONTINUOUS
  0
LAYER
  2
TK30
 70
     0
 62
     5
  6
AM_ISO02W050X2
  0
LAYER
  2
TK20
 70
     0
 62
     2
  6
AM_ISO02W050X2
  0
LAYER
  2
TK10
 70
     0
 62
     7
  6
AM_ISO02W050X2
  0
LAYER
  2
TK4
 70
     0
 62
     3
  6
CONTINUOUS
  0
LAYER
  2
TK5
 70
     0
 62
     4
  6
CONTINUOUS
  0
LAYER
  2
TK6
 70
     0
 62
     6
  6
CONTINUOUS
  0
LAYER
  2
TK7
 70
     0
 62
     1
  6
CONTINUOUS
  0
LAYER
  2
TK8
 70
     0
 62
     8
  6
CONTINUOUS
  0
LAYER
  2
TK40
 70
     0
 62
     3
  6
AM_ISO02W050X2
  0
LAYER
  2
TK50
 70
     0
 62
     4
  6
AM_ISO02W050X2
  0
LAYER
  2
TK60
 70
     0
 62
     6
  6
AM_ISO02W050X2
  0
LAYER
  2
TK70
 70
     0
 62
     1
  6
AM_ISO02W050X2
  0
LAYER
  2
TK80
 70
     0
 62
     8
  6
AM_ISO02W050X2
  0
LAYER
  2
AM_0
 70
     0
 62
     7
  6
CONTINUOUS
  0
LAYER
  2
AM_BOR
 70
     0
 62
     7
  6
CONTINUOUS
  0
LAYER
  2
AM_8
 70
     0
 62
     1
  6
CONTINUOUS
  0
LAYER
  2
\U+FF7D\U+FF8D\U+FF9F\U+FF70\U+FF7B\U+FF70
 70
     0
 62
     7
  6
CONTINUOUS
  0
LAYER
  2
\U+FF7D\U+FF8D\U+FF9F\U+FF70\U+FF7B\U+FF700
 70
     0
 62
     8
  6
AM_ISO02W050X2
  0
LAYER
  2
AM_7
 70
     0
 62
     4
  6
AM_ISO08W050
  0
LAYER
  2
AM_CL
 70
     0
 62
     1
  6
AMCONSTR
  0
LAYER
  2
SYMBOL__ISO_
 70
     0
 62
     7
  6
CONTINUOUS
  0
LAYER
  2
AM_12
 70
     0
 62
     7
  6
CONTINUOUS
  0
LAYER
  2
AM_PAREF
 70
     0
 62
     4
  6
CONTINUOUS
  0
ENDTAB
  0
TABLE
  2
STYLE
 70
    14
  0
STYLE
  2
STANDARD
 70
     0
 40
0.0
 41
1.0
 50
0.0
 71
     0
 42
0.2
  3
ISOCP.SHX
  4
EXTFONT.SHX
  0
STYLE
  2

 70
     1
 40
0.0
 41
1.0
 50
0.0
 71
     0
 42
0.2
  3
ltypeshp.shx
  4

  0
STYLE
  2
ACANSTS
 70
     0
 40
1.0
 41
1.0
 50
0.0
 71
     0
 42
0.2
  3
isoct.shx
  4
extfont.shx
  0
STYLE
  2
ACANSGDT
 70
     0
 40
0.0
 41
1.0
 50
0.0
 71
     0
 42
0.2
  3
amgdtans.shx
  4

  0
STYLE
  2
USER1
 70
     0
 40
0.0
 41
1.0
 50
0.0
 71
     0
 42
0.2
  3
TXT.SHX
  4

  0
STYLE
  2
USER2
 70
     0
 40
0.0
 41
1.0
 50
0.0
 71
     0
 42
0.2
  3
SIMPLEX.SHX
  4

  0
STYLE
  2
USER3
 70
     0
 40
0.0
 41
1.0
 50
0.0
 71
     0
 42
0.2
  3
ITALIC.SHX
  4

  0
STYLE
  2
ACISOTS
 70
     0
 40
1.0
 41
1.0
 50
0.0
 71
     0
 42
0.2
  3
isocp.shx
  4
extfont.shx
  0
STYLE
  2
ACISOGDT
 70
     0
 40
0.0
 41
1.0
 50
0.0
 71
     0
 42
0.2
  3
amgdt.shx
  4

  0
STYLE
  2

 70
     1
 40
0.0
 41
1.0
 50
0.0
 71
     0
 42
3.0
  3
genltshp.shx
  4

  0
STYLE
  2
TAKACHI1
 70
     0
 40
2.5
 41
1.0
 50
0.0
 71
     0
 42
2.5
  3
txt
  4

  0
STYLE
  2
LABEL_TEXT__JIS_
 70
     0
 40
0.0
 41
1.0
 50
0.0
 71
     0
 42
0.2
  3
txt
  4

  0
STYLE
  2
MtXpl__
 70
     0
 40
0.0
 41
1.0
 50
0.0
 71
     0
 42
2.5
  3
txt
  4

  0
STYLE
  2
MtXpl___1
 70
     0
 40
0.0
 41
1.0
 50
0.0
 71
     0
 42
2.5
  3
txt
  4

  0
ENDTAB
  0
TABLE
  2
VIEW
 70
     6
  0
VIEW
  2
AM_VIEW1
 70
     0
 40
74.25
 10
318.4561626437966879
 20
198.7279183213344993
 41
115.1931072210065992
 11
0.0
 21
0.0
 31
1.0
 12
0.0
 22
0.0
 32
0.0
 42
50.0
 43
0.0
 44
0.0
 50
0.0
 71
     0
  0
VIEW
  2
AM_VIEW2
 70
     0
 40
74.25
 10
308.263055422790103
 20
198.7279183213344993
 41
115.1931072210064997
 11
0.0
 21
0.0
 31
1.0
 12
0.0
 22
0.0
 32
0.0
 42
50.0
 43
0.0
 44
0.0
 50
0.0
 71
     0
  0
VIEW
  2
AM_VIEW3
 70
     0
 40
74.25
 10
318.4561626437966879
 20
124.4779183213344993
 41
115.1931072210065992
 11
0.0
 21
0.0
 31
1.0
 12
0.0
 22
0.0
 32
0.0
 42
50.0
 43
0.0
 44
0.0
 50
0.0
 71
     0
  0
VIEW
  2
AM_VIEW4
 70
     0
 40
74.25
 10
308.263055422790103
 20
124.4779183213344993
 41
115.1931072210064997
 11
0.0
 21
0.0
 31
1.0
 12
0.0
 22
0.0
 32
0.0
 42
50.0
 43
0.0
 44
0.0
 50
0.0
 71
     0
  0
VIEW
  2
AM_VIEW5
 70
     0
 40
74.25
 10
313.3596090332933954
 20
161.6029183213344993
 41
115.1931072210065992
 11
0.0
 21
0.0
 31
1.0
 12
0.0
 22
0.0
 32
0.0
 42
50.0
 43
0.0
 44
0.0
 50
0.0
 71
     0
  0
VIEW
  2
AM_VIEW6
 70
     0
 40
148.4985149999999976
 10
313.3596090332933954
 20
161.6029183213344993
 41
230.3839105798687115
 11
0.0
 21
0.0
 31
1.0
 12
0.0
 22
0.0
 32
0.0
 42
50.0
 43
0.0
 44
0.0
 50
0.0
 71
     0
  0
ENDTAB
  0
TABLE
  2
UCS
 70
     0
  0
ENDTAB
  0
TABLE
  2
APPID
 70
    45
  0
APPID
  2
ACAD
 70
     0
  0
APPID
  2
MCAD_NO_VIS
 70
     0
  0
APPID
  2
ACAD_TEMP_GRAPHIC
 70
     0
  0
APPID
  2
ACATTRIBSERVICES
 70
     0
  0
APPID
  2
AD_DRAW
 70
     0
  0
APPID
  2
DESIGNERASSEMBLIES
 70
     0
  0
APPID
  2
ACADM_DIM_EDIT
 70
     0
  0
APPID
  2
AMDT_DM_ADJ
 70
     0
  0
APPID
  2
GENIUS_GENREC_14
 70
     0
  0
APPID
  2
GENIUS_GENODEF_13
 70
     0
  0
APPID
  2
GENIUS_GENOBJ-N-REC_13
 70
     0
  0
APPID
  2
GENIUS_GENCFG_13
 70
     0
  0
APPID
  2
GENIUS_GENCFG0_13
 70
     0
  0
APPID
  2
GENIUS_GENCFG1_13
 70
     0
  0
APPID
  2
GENIUS_GENCFG2_13
 70
     0
  0
APPID
  2
GENIUS_GENCFG3_13
 70
     0
  0
APPID
  2
GENIUS_GENCFG4_13
 70
     0
  0
APPID
  2
GENIUS_GEVCFG0_13
 70
     0
  0
APPID
  2
GENIUS_GENOENT_13
 70
     0
  0
APPID
  2
GENIUS_GENDIMSH_14
 70
     0
  0
APPID
  2
GENIUS_GENOBJ-N-CRS_13
 70
     0
  0
APPID
  2
GENIUS_GENOREF_13
 70
     0
  0
APPID
  2
GENIUS_GENOLIS_13
 70
     0
  0
APPID
  2
GENIUS_GENOBJ-N-TIT_13
 70
     0
  0
APPID
  2
GENIUS_GENTITLE_13
 70
     0
  0
APPID
  2
GENIUS_GENSCREG_15
 70
     0
  0
APPID
  2
GENIUS_GENOBJ-N-SDF_13
 70
     0
  0
APPID
  2
GENIUS_GENOBJ-N-CEN_13
 70
     0
  0
APPID
  2
GENIUS_GENOBJ-N-HTC_13
 70
     0
  0
APPID
  2
GENIUS_GENHATCH_13
 70
     0
  0
APPID
  2
GENIUS_GENOBJ-N-ZOO_13
 70
     0
  0
APPID
  2
GENIUS_GENZOO_17
 70
     0
  0
APPID
  2
ACAD_NAV_VCDISPLAY
 70
     0
  0
APPID
  2
ACAECLAYERSTANDARD
 70
     0
  0
APPID
  2
ACAD_DSTYLE_DIMJAG
 70
     0
  0
APPID
  2
ACAD_DSTYLE_DIMTALN
 70
     0
  0
APPID
  2
ACAD_MLEADERVER
 70
     0
  0
APPID
  2
GENIUS_GENBLLY_14
 70
     0
  0
APPID
  2
ACAD_EXEMPT_FROM_CAD_STANDARDS
 70
     0
  0
APPID
  2
GENIUS_GENCRS_20
 70
     0
  0
APPID
  2
GENIUS_GENDTOL_13
 70
     0
  0
APPID
  2
ACAD_DSTYLE_DIMINSPECT
 70
     0
  0
APPID
  2
ACAD_DSTYLE_DIMRADIAL_EXTENSION
 70
     0
  0
APPID
  2
ACADANNOMONITORALERTICONDI
 70
     0
  0
APPID
  2
GENIUS_GENCEN_19
 70
     0
  0
ENDTAB
  0
TABLE
  2
DIMSTYLE
 70
    27
  0
DIMSTYLE
  2
STANDARD
 70
     0
  3

  4

  5

  6

  7

 40
1.0
 41
0.18
 42
0.0625
 43
0.38
 44
0.18
 45
0.0
 46
0.0
 47
0.0
 48
0.0
140
0.18
141
0.09
142
0.0
143
25.3999999999999986
144
1.0
145
0.0
146
1.0
147
0.09
 71
     0
 72
     0
 73
     1
 74
     1
 75
     0
 76
     0
 77
     0
 78
     0
170
     0
171
     2
172
     0
173
     0
174
     0
175
     0
176
     0
177
     0
178
     0
  0
DIMSTYLE
  2
AM_ANSI
 70
     0
  3

  4
mm
  5

  6

  7

 40
1.0
 41
0.1
 42
0.05
 43
0.5
 44
0.1
 45
0.0
 46
0.0
 47
0.1
 48
0.1
140
0.12
141
0.0
142
0.0
143
25.3999999999999986
144
1.0
145
0.0
146
0.71
147
0.06
 71
     0
 72
     0
 73
     1
 74
     1
 75
     0
 76
     0
 77
     0
 78
     7
170
     0
171
     2
172
     0
173
     0
174
     0
175
     0
176
   256
177
   256
178
     2
  0
DIMSTYLE
  2
AM_ANSI$3
 70
     0
  3

  4
mm
  5

  6

  7

 40
1.0
 41
0.1
 42
0.05
 43
0.5
 44
0.1
 45
0.0
 46
0.0
 47
0.1
 48
0.1
140
0.12
141
0.0
142
0.0
143
25.3999999999999986
144
1.0
145
0.0
146
0.71
147
0.06
 71
     0
 72
     0
 73
     1
 74
     1
 75
     0
 76
     0
 77
     0
 78
     7
170
     0
171
     2
172
     0
173
     0
174
     0
175
     0
176
   256
177
   256
178
     2
  0
DIMSTYLE
  2
AM_ANSI$4
 70
     0
  3

  4
mm
  5

  6

  7

 40
1.0
 41
0.1
 42
0.05
 43
0.5
 44
0.1
 45
0.0
 46
0.0
 47
0.1
 48
0.1
140
0.12
141
0.0
142
0.0
143
25.3999999999999986
144
1.0
145
0.0
146
0.71
147
0.06
 71
     0
 72
     0
 73
     1
 74
     1
 75
     0
 76
     0
 77
     0
 78
     7
170
     0
171
     2
172
     0
173
     0
174
     0
175
     0
176
   256
177
   256
178
     2
  0
DIMSTYLE
  2
AM_ANSI$7
 70
     0
  3

  4
mm
  5

  6

  7

 40
1.0
 41
0.1
 42
0.05
 43
0.5
 44
0.1
 45
0.0
 46
0.0
 47
0.1
 48
0.1
140
0.24
141
0.0
142
0.0
143
25.3999999999999986
144
1.0
145
0.0
146
0.71
147
0.06
 71
     0
 72
     0
 73
     1
 74
     1
 75
     0
 76
     0
 77
     0
 78
     7
170
     0
171
     2
172
     0
173
     0
174
     0
175
     0
176
   256
177
   256
178
     2
  0
DIMSTYLE
  2
AM_ANSI$SF
 70
     0
  3

  4
mm
  5

  6

  7

 40
1.0
 41
0.1
 42
0.05
 43
0.5
 44
0.1
 45
0.0
 46
0.0
 47
0.1
 48
0.1
140
0.12
141
0.0
142
0.0
143
25.3999999999999986
144
1.0
145
0.0
146
0.71
147
0.06
 71
     0
 72
     0
 73
     1
 74
     1
 75
     1
 76
     1
 77
     0
 78
     7
170
     0
171
     2
172
     0
173
     0
174
     0
175
     0
176
   256
177
   256
178
     2
  0
DIMSTYLE
  2
AM_ANSI$SH
 70
     0
  3

  4
mm
  5

  6
GENAXEH
  7

 40
1.0
 41
0.1
 42
0.05
 43
0.5
 44
0.1
 45
0.0
 46
0.0
 47
0.1
 48
0.1
140
0.12
141
0.0
142
0.0
143
25.3999999999999986
144
1.0
145
0.0
146
0.71
147
0.06
 71
     0
 72
     0
 73
     1
 74
     1
 75
     1
 76
     1
 77
     0
 78
     7
170
     0
171
     2
172
     0
173
     1
174
     0
175
     0
176
   256
177
   256
178
     2
  0
DIMSTYLE
  2
AM_ISO
 70
     0
  3

  4
"
  5
OPEN30
  6

  7

 40
1.0
 41
2.5
 42
1.0
 43
10.0
 44
1.0
 45
0.0
 46
0.0
 47
0.1
 48
0.1
140
3.5
141
0.0
142
0.0
143
0.0393701
144
1.0
145
0.0
146
0.71
147
1.5
 71
     0
 72
     0
 73
     0
 74
     0
 75
     0
 76
     0
 77
     1
 78
     8
170
     0
171
     2
172
     1
173
     0
174
     0
175
     0
176
     3
177
     3
178
     2
  0
DIMSTYLE
  2
AM_ISO$3
 70
     0
  3

  4
"
  5
OPEN30
  6

  7

 40
1.0
 41
2.5
 42
1.0
 43
10.0
 44
1.0
 45
0.0
 46
0.0
 47
0.1
 48
0.1
140
3.5
141
0.0
142
0.0
143
0.0393701
144
1.0
145
0.0
146
0.71
147
1.5
 71
     0
 72
     0
 73
     0
 74
     1
 75
     0
 76
     0
 77
     1
 78
     8
170
     0
171
     2
172
     0
173
     0
174
     0
175
     0
176
     3
177
     3
178
     2
  0
DIMSTYLE
  2
AM_ISO$4
 70
     0
  3

  4
"
  5
OPEN30
  6

  7

 40
1.0
 41
2.5
 42
1.0
 43
10.0
 44
1.0
 45
0.0
 46
0.0
 47
0.1
 48
0.1
140
3.5
141
0.0
142
0.0
143
0.0393701
144
1.0
145
0.0
146
0.71
147
1.5
 71
     0
 72
     0
 73
     0
 74
     0
 75
     0
 76
     0
 77
     1
 78
     8
170
     0
171
     2
172
     0
173
     0
174
     0
175
     0
176
     3
177
     3
178
     2
  0
DIMSTYLE
  2
AM_ISO$6
 70
     0
  3

  4
"
  5
OPEN30
  6

  7

 40
1.0
 41
2.5
 42
1.0
 43
10.0
 44
1.0
 45
0.0
 46
0.0
 47
0.1
 48
0.1
140
3.5
141
0.0
142
0.0
143
0.0393701
144
1.0
145
0.0
146
0.71
147
1.5
 71
     0
 72
     0
 73
     0
 74
     0
 75
     0
 76
     0
 77
     0
 78
     8
170
     0
171
     2
172
     1
173
     0
174
     0
175
     0
176
     3
177
     3
178
     2
  0
DIMSTYLE
  2
AM_ISO$7
 70
     0
  3

  4
"
  5
OPEN30
  6

  7

 40
1.0
 41
2.5
 42
1.0
 43
10.0
 44
1.0
 45
0.0
 46
0.0
 47
0.1
 48
0.1
140
5.0
141
0.0
142
0.0
143
0.0393701
144
1.0
145
0.0
146
0.71
147
1.5
 71
     0
 72
     0
 73
     0
 74
     0
 75
     0
 76
     0
 77
     1
 78
     8
170
     0
171
     2
172
     1
173
     0
174
     0
175
     0
176
     3
177
     3
178
     2
  0
DIMSTYLE
  2
AM_ISO$SF
 70
     0
  3

  4
"
  5
OPEN30
  6

  7

 40
1.0
 41
2.5
 42
1.0
 43
10.0
 44
1.0
 45
0.0
 46
0.0
 47
0.1
 48
0.1
140
3.5
141
0.0
142
0.0
143
0.0393701
144
1.0
145
0.0
146
0.71
147
1.5
 71
     0
 72
     0
 73
     0
 74
     0
 75
     1
 76
     1
 77
     1
 78
     8
170
     0
171
     2
172
     1
173
     0
174
     0
175
     0
176
   256
177
   256
178
     2
  0
DIMSTYLE
  2
AM_ISO$SH
 70
     0
  3

  4
"
  5

  6
GENAXEH
  7
OPEN30
 40
1.0
 41
2.5
 42
1.0
 43
10.0
 44
1.0
 45
0.0
 46
0.0
 47
0.1
 48
0.1
140
3.5
141
0.0
142
0.0
143
0.0393701
144
2.0
145
0.0
146
0.71
147
1.5
 71
     0
 72
     0
 73
     0
 74
     0
 75
     1
 76
     1
 77
     1
 78
     8
170
     0
171
     2
172
     1
173
     1
174
     0
175
     0
176
   256
177
   256
178
     2
  0
DIMSTYLE
  2
GEN-ISO
 70
     0
  3

  4
"
  5

  6

  7

 40
1.0
 41
2.5
 42
1.0
 43
10.0
 44
1.0
 45
0.0
 46
0.0
 47
0.1
 48
0.1
140
3.5
141
0.0
142
0.0
143
0.0393701
144
1.0
145
0.0
146
0.71
147
1.5
 71
     0
 72
     0
 73
     0
 74
     0
 75
     0
 76
     0
 77
     1
 78
     8
170
     0
171
     2
172
     1
173
     0
174
     0
175
     0
176
   256
177
   256
178
     2
  0
DIMSTYLE
  2
GEN-ISO$3
 70
     0
  3

  4
"
  5

  6

  7

 40
1.0
 41
2.5
 42
1.0
 43
10.0
 44
1.0
 45
0.0
 46
0.0
 47
0.1
 48
0.1
140
3.5
141
0.0
142
0.0
143
0.0393701
144
1.0
145
0.0
146
0.71
147
1.5
 71
     0
 72
     0
 73
     0
 74
     1
 75
     0
 76
     0
 77
     1
 78
     8
170
     0
171
     2
172
     0
173
     0
174
     0
175
     0
176
   256
177
   256
178
     2
  0
DIMSTYLE
  2
GEN-ISO$4
 70
     0
  3

  4
"
  5

  6

  7

 40
1.0
 41
2.5
 42
1.0
 43
10.0
 44
1.0
 45
0.0
 46
0.0
 47
0.1
 48
0.1
140
3.5
141
0.0
142
0.0
143
0.0393701
144
1.0
145
0.0
146
0.71
147
1.5
 71
     0
 72
     0
 73
     0
 74
     1
 75
     0
 76
     0
 77
     1
 78
     8
170
     0
171
     2
172
     0
173
     0
174
     0
175
     0
176
   256
177
   256
178
     2
  0
DIMSTYLE
  2
GEN-ISO$6
 70
     0
  3

  4
"
  5

  6

  7

 40
1.0
 41
2.5
 42
1.0
 43
10.0
 44
1.0
 45
0.0
 46
0.0
 47
0.1
 48
0.1
140
3.5
141
0.0
142
0.0
143
0.0393701
144
1.0
145
0.0
146
0.71
147
1.5
 71
     0
 72
     0
 73
     0
 74
     0
 75
     0
 76
     0
 77
     0
 78
     8
170
     0
171
     2
172
     0
173
     0
174
     0
175
     0
176
   256
177
   256
178
     2
  0
DIMSTYLE
  2
GEN-ISO-POS
 70
     0
  3

  4
"
  5

  6

  7

 40
1.0
 41
2.5
 42
1.0
 43
10.0
 44
1.0
 45
0.0
 46
0.0
 47
0.1
 48
0.1
140
5.0
141
0.0
142
0.0
143
0.0393701
144
1.0
145
0.0
146
0.71
147
1.5
 71
     0
 72
     0
 73
     0
 74
     0
 75
     0
 76
     0
 77
     0
 78
     8
170
     0
171
     2
172
     0
173
     0
174
     0
175
     0
176
   256
177
   256
178
     2
  0
DIMSTYLE
  2
GEN-ISO-AXE-F
 70
     0
  3

  4
"
  5

  6

  7

 40
1.0
 41
2.5
 42
1.0
 43
10.0
 44
1.0
 45
0.0
 46
0.0
 47
0.1
 48
0.1
140
3.5
141
0.0
142
0.0
143
0.0393701
144
1.0
145
0.0
146
0.71
147
1.5
 71
     0
 72
     0
 73
     0
 74
     0
 75
     1
 76
     1
 77
     1
 78
     8
170
     0
171
     2
172
     1
173
     0
174
     0
175
     0
176
   256
177
   256
178
     2
  0
DIMSTYLE
  2
GEN-ISO-AXE-H
 70
     0
  3

  4
"
  5

  6

  7

 40
1.0
 41
2.5
 42
1.0
 43
10.0
 44
1.0
 45
0.0
 46
0.0
 47
0.1
 48
0.1
140
3.5
141
0.0
142
0.0
143
0.0393701
144
2.0
145
0.0
146
0.71
147
1.5
 71
     0
 72
     0
 73
     0
 74
     0
 75
     1
 76
     1
 77
     1
 78
     8
170
     0
171
     2
172
     1
173
     1
174
     0
175
     0
176
   256
177
   256
178
     2
  0
DIMSTYLE
  2
ISO-35
 70
     0
  3

  4

  5
OPEN30
  6

  7

 40
1.0
 41
3.5
 42
0.875
 43
5.25
 44
1.75
 45
0.0
 46
0.0
 47
0.0
 48
0.0
140
3.5
141
3.5
142
0.0
143
0.0394
144
1.0
145
0.0
146
1.0
147
0.875
 71
     0
 72
     0
 73
     0
 74
     0
 75
     0
 76
     0
 77
     1
 78
     8
170
     0
171
     4
172
     1
173
     0
174
     0
175
     0
176
     0
177
     0
178
     0
  0
DIMSTYLE
  2
ISO-5
 70
     0
  3

  4

  5
OPEN30
  6

  7

 40
1.0
 41
5.0
 42
1.25
 43
7.5
 44
2.5
 45
0.0
 46
0.0
 47
0.0
 48
0.0
140
5.0
141
5.0
142
0.0
143
0.0394
144
1.0
145
0.0
146
1.0
147
1.25
 71
     0
 72
     0
 73
     0
 74
     0
 75
     0
 76
     0
 77
     1
 78
     8
170
     0
171
     4
172
     1
173
     0
174
     0
175
     0
176
     0
177
     0
178
     0
  0
DIMSTYLE
  2
ISO-7
 70
     0
  3

  4

  5
OPEN30
  6

  7

 40
1.0
 41
7.0
 42
1.75
 43
10.5
 44
3.5
 45
0.0
 46
0.0
 47
0.0
 48
0.0
140
7.0
141
7.0
142
0.0
143
0.0394
144
1.0
145
0.0
146
1.0
147
1.75
 71
     0
 72
     0
 73
     0
 74
     0
 75
     0
 76
     0
 77
     1
 78
     8
170
     0
171
     4
172
     1
173
     0
174
     0
175
     0
176
     0
177
     0
178
     0
  0
DIMSTYLE
  2
ISO-4
 70
     0
  3

  4

  5
OPEN30
  6

  7

 40
1.0
 41
14.0
 42
3.5
 43
21.0
 44
7.0
 45
0.0
 46
0.0
 47
0.0
 48
0.0
140
14.0
141
14.0
142
0.0
143
0.0394
144
1.0
145
0.0
146
1.0
147
3.5
 71
     0
 72
     0
 73
     0
 74
     0
 75
     0
 76
     0
 77
     1
 78
     8
170
     0
171
     4
172
     1
173
     0
174
     0
175
     0
176
     0
177
     0
178
     0
  0
DIMSTYLE
  2
AM_ISO$2
 70
     0
  3

  4
"
  5
OPEN30
  6

  7

 40
1.0
 41
2.5
 42
1.0
 43
10.0
 44
1.0
 45
0.0
 46
0.0
 47
0.1
 48
0.1
140
3.5
141
0.0
142
0.0
143
0.0393701
144
1.0
145
0.0
146
0.71
147
1.5
 71
     0
 72
     0
 73
     0
 74
     0
 75
     0
 76
     0
 77
     1
 78
     8
170
     0
171
     2
172
     1
173
     0
174
     0
175
     0
176
     3
177
     3
178
     2
  0
DIMSTYLE
  2
AM_ISO$0
 70
     0
  3

  4
"
  5
OPEN30
  6

  7

 40
1.0
 41
2.5
 42
1.0
 43
10.0
 44
1.0
 45
0.0
 46
0.0
 47
0.1
 48
0.1
140
3.5
141
0.0
142
0.0
143
0.0393701
144
1.0
145
0.0
146
0.71
147
1.5
 71
     0
 72
     0
 73
     0
 74
     0
 75
     0
 76
     0
 77
     1
 78
     8
170
     0
171
     2
172
     1
173
     0
174
     0
175
     0
176
     3
177
     3
178
     2
  0
ENDTAB
  0
ENDSEC
  0
SECTION
  2
BLOCKS
  0
BLOCK
  8
0
  2
$MODEL_SPACE
 70
     0
 10
0.0
 20
0.0
 30
0.0
  3
$MODEL_SPACE
  1

  0
ENDBLK
  5
21
  8
0
  0
BLOCK
 67
     1
  8
0
  2
$PAPER_SPACE
 70
     0
 10
0.0
 20
0.0
 30
0.0
  3
$PAPER_SPACE
  1

  0
ENDBLK
  5
25
 67
     1
  8
0
  0
BLOCK
  8
0
  2
GENAXEH
 70
     0
 10
0.0
 20
0.0
 30
0.0
  3
GENAXEH
  1

  0
LINE
  5
92
  8
0
 10
-1.0
 20
0.0
 30
0.0
 11
1.0
 21
0.0
 31
0.0
  0
ENDBLK
  5
94
  8
0
  0
BLOCK
  8
0
  2
_OPEN30
 70
     0
 10
0.0
 20
0.0
 30
0.0
  3
_OPEN30
  1

  0
LINE
  5
1FA
  8
0
  6
BYBLOCK
 62
     0
 10
-1.0
 20
0.26794919
 30
0.0
 11
0.0
 21
0.0
 31
0.0
  0
LINE
  5
1FB
  8
0
  6
BYBLOCK
 62
     0
 10
0.0
 20
0.0
 30
0.0
 11
-1.0
 21
-0.26794919
 31
0.0
  0
LINE
  5
1FC
  8
0
  6
BYBLOCK
 62
     0
 10
0.0
 20
0.0
 30
0.0
 11
-1.0
 21
0.0
 31
0.0
  0
ENDBLK
  5
1FD
  8
0
  0
BLOCK
  8
0
  2
TAKACHI-A3
 70
     0
 10
0.0
 20
0.0
 30
0.0
  3
TAKACHI-A3
  1

  0
POLYLINE
  5
225
  8
0
 66
     1
 10
0.0
 20
0.0
 30
0.0
 70
     1
1001
GENIUS_GENREC_14
1002
{
1000
PYDIR
1011
10.0000000000000107
1021
0.0
1031
0.0
1021
280.0
1031
0.0
1002
}
1002
{
1000
PXDIR
1011
410.0
1021
0.0
1031
0.0
1021
0.0
1031
0.0
1002
}
1002
{
1000
PORI
1011
10.0
1021
0.0
1031
0.0
1021
0.0
1031
0.0
1002
}
1002
{
1000
PINS
1011
210.0
1021
0.0
1031
0.0
1021
139.9999999999998863
1031
0.0
1002
}
1002
{
1000
HVAL
1000
280
1002
}
1002
{
1000
H
1070
     2
1002
}
1002
{
1000
WVAL
1000
400
1002
}
1002
{
1000
W
1070
     2
1002
}
1002
{
1000
C
1070
     4
1002
}
1001
GENIUS_GENODEF_13
1002
{
1000
HIER
1070
     0
1002
}
1002
{
1000
MANEDIT
1070
     0
1002
}
1002
{
1000
NOSEL
1070
     0
1002
}
1002
{
1000
BEHIND
1070
     0
1002
}
1002
{
1000
REACTOR
1002
}
1001
GENIUS_GENOBJ-N-REC_13
1002
{
1000
OWNER
1000
GEN
1002
}
  0
VERTEX
  5
250D
  8
0
 10
10.0
 20
0.0
 30
0.0
  0
VERTEX
  5
250E
  8
0
 10
410.0
 20
0.0
 30
0.0
  0
VERTEX
  5
250F
  8
0
 10
410.0
 20
280.0
 30
0.0
  0
VERTEX
  5
2510
  8
0
 10
10.0000000000000302
 20
280.0
 30
0.0
  0
SEQEND
  5
2511
  8
0
  0
TEXT
  5
226
  8
0
 10
15.0000000000000302
 20
50.0
 30
0.0
 40
2.5
  1
!GENTITLE-LL
  0
TEXT
  5
227
  8
0
 10
410.0
 20
0.0
 30
0.0
 40
2.5
  1
!GENTITLE-INSERT
  0
TEXT
  5
228
  8
0
 10
405.0
 20
275.0
 30
0.0
 40
2.5
  1
!GENTITLE-RU
  0
TEXT
  5
229
  8
0
 10
410.0
 20
280.0
 30
0.0
 40
2.5
  1
!GENTITLE-MAX
  0
LINE
  5
22A
  8
0
 10
366.0
 20
275.0
 30
0.0
 11
410.0
 21
275.0
 31
0.0
  0
INSERT
  5
22B
  8
0
  2
*U23
 10
0.0
 20
0.0
 30
0.0
  0
LINE
  5
22C
  8
0
 10
366.0
 20
280.0
 30
0.0
 11
366.0
 21
275.0
 31
0.0
  0
ENDBLK
  5
22F
  8
0
  0
BLOCK
  8
0
  2
TAKACHI-TITLE
 70
     2
 10
0.0
 20
0.0
 30
0.0
  3
TAKACHI-TITLE
  1

  0
LINE
  5
243
  8
RAHM2
 10
-195.0
 20
30.0000000000000284
 30
0.0
 11
-94.0
 21
30.0000000000000284
 31
0.0
  0
LINE
  5
244
  8
RAHM2
 10
-195.0
 20
35.0000000000000284
 30
0.0
 11
-94.0
 21
35.0000000000000284
 31
0.0
  0
LINE
  5
245
  8
RAHM2
 10
-195.0
 20
40.0000000000000213
 30
0.0
 11
-94.0
 21
40.0000000000000213
 31
0.0
  0
LINE
  5
246
  8
RAHM2
 10
-195.0
 20
45.0000000000000213
 30
0.0
 11
-94.0
 21
45.0000000000000213
 31
0.0
  0
LINE
  5
247
  8
0
 10
-195.0
 20
7.0
 30
0.0
 11
-94.0
 21
7.0
 31
0.0
  0
LINE
  5
248
  8
0
 10
-195.0
 20
19.9999999999999716
 30
0.0
 11
-94.0
 21
19.9999999999999716
 31
0.0
  0
ATTDEF
  5
249
  8
0
 10
-183.2438527145606884
 20
8.6175171910947483
 30
0.0
 40
2.5
  1

 11
-183.2438527145606884
 21
8.6175171910947483
 31
0.0
  3
サブタイトル
  2
GEN-TITLE-DES2
 70
     0
 74
     1
  0
ATTDEF
  5
24A
  8
0
 10
-183.2438527145606884
 20
1.6175171910947479
 30
0.0
 40
3.0
  1

 11
-183.2438527145606884
 21
1.6175171910947479
 31
0.0
  3
図番
  2
GEN-TITLE-NR
 70
     0
 74
     1
  0
INSERT
  5
24B
  8
0
  2
*U24
 10
0.0
 20
0.0
 30
0.0
  0
ATTDEF
  5
24C
  8
0
 10
-183.2438527145606884
 20
13.8739528616850105
 30
0.0
 40
4.0
  1

 11
-183.2438527145606884
 21
13.8739528616850105
 31
0.0
  3
品名
  2
GEN-TITLE-DES1
 70
     0
 74
     1
  0
LINE
  5
24D
  8
RAHM2
 10
-187.5751288694036134
 20
30.4000000000000412
 30
0.0
 11
-190.0
 21
34.6000000000000298
 31
0.0
  0
LINE
  5
24E
  8
RAHM2
 10
-190.0
 20
34.6000000000000298
 30
0.0
 11
-192.4248711305963866
 21
30.4000000000000412
 31
0.0
  0
LINE
  5
24F
  8
RAHM2
 10
-185.0
 20
50.0000000000000284
 30
0.0
 11
-185.0
 21
19.9999999999999396
 31
0.0
  0
LINE
  5
250
  8
RAHM2
 10
-192.4248711305963866
 20
30.4000000000000412
 30
0.0
 11
-187.5751288694036134
 21
30.4000000000000412
 31
0.0
  0
INSERT
  5
251
  8
0
  2
*U25
 10
0.0
 20
0.0
 30
0.0
  0
INSERT
  5
252
  8
0
  2
*U26
 10
0.0
 20
0.0
 30
0.0
  0
LINE
  5
253
  8
RAHM2
 10
-192.4248711305963866
 20
45.400000000000027
 30
0.0
 11
-187.5751288694036134
 21
45.400000000000027
 31
0.0
  0
LINE
  5
254
  8
RAHM2
 10
-187.5751288694036134
 20
45.400000000000027
 30
0.0
 11
-190.0
 21
49.6000000000000227
 31
0.0
  0
LINE
  5
255
  8
RAHM2
 10
-192.4248711305963866
 20
40.400000000000027
 30
0.0
 11
-187.5751288694036134
 21
40.400000000000027
 31
0.0
  0
LINE
  5
256
  8
RAHM2
 10
-187.5751288694036134
 20
40.400000000000027
 30
0.0
 11
-190.0
 21
44.6000000000000227
 31
0.0
  0
LINE
  5
257
  8
RAHM2
 10
-192.4248711305963866
 20
35.4000000000000412
 30
0.0
 11
-187.5751288694036134
 21
35.4000000000000412
 31
0.0
  0
LINE
  5
258
  8
RAHM2
 10
-187.5751288694036134
 20
35.4000000000000412
 30
0.0
 11
-190.0
 21
39.6000000000000227
 31
0.0
  0
LINE
  5
259
  8
RAHM2
 10
-190.0
 20
39.6000000000000227
 30
0.0
 11
-192.4248711305963866
 21
35.4000000000000412
 31
0.0
  0
LINE
  5
25A
  8
RAHM2
 10
-190.0
 20
44.6000000000000227
 30
0.0
 11
-192.4248711305963866
 21
40.400000000000027
 31
0.0
  0
LINE
  5
25B
  8
RAHM2
 10
-190.0
 20
49.6000000000000227
 30
0.0
 11
-192.4248711305963866
 21
45.400000000000027
 31
0.0
  0
LINE
  5
25C
  8
RAHM2
 10
-129.0
 20
50.0000000000000284
 30
0.0
 11
-129.0
 21
19.9999999999999396
 31
0.0
  0
INSERT
  5
25D
  8
0
  2
*U27
 10
0.0
 20
0.0
 30
0.0
  0
LINE
  5
25E
  8
0
 10
-34.0
 20
50.0
 30
0.0
 11
-34.0
 21
0.0
 31
0.0
  0
LINE
  5
25F
  8
0
 10
-94.0
 20
50.0
 30
0.0
 11
-94.0
 21
0.0
 31
0.0
  0
INSERT
  5
260
  8
0
  2
*U28
 10
0.0
 20
0.0
 30
0.0
  0
LINE
  5
261
  8
0
 10
-94.0
 20
10.0
 30
0.0
 11
-34.0
 21
10.0
 31
0.0
  0
ATTDEF
  5
262
  8
0
 10
-58.0140511979974534
 20
39.2550055617834914
 30
0.0
 40
3.0
  1

 72
     2
 11
-58.0140511979974534
 21
39.2550055617834914
 31
0.0
  3
尺度
  2
GEN-TITLE-SCA
 70
     0
  0
ATTDEF
  5
263
  8
0
 10
-77.0028496664900644
 20
30.6218078794347512
 30
0.0
 40
3.0
  1

 11
-77.0028496664900644
 21
30.6218078794347512
 31
0.0
  3
材質
  2
GEN-TITLE-MAT1
 70
     0
 74
     1
  0
ATTDEF
  5
264
  8
0
 10
-77.0028496664900644
 20
20.6218078794347512
 30
0.0
 40
3.0
  1

 11
-77.0028496664900644
 21
20.6218078794347512
 31
0.0
  3
表面処理
  2
GEN-TITLE-MAT2
 70
     0
 74
     1
  0
ATTDEF
  5
265
  8
0
 10
-77.0028496664900644
 20
11.6175171910947501
 30
0.0
 40
3.0
  1

 11
-77.0028496664900644
 21
11.6175171910947501
 31
0.0
  3
日付
  2
GEN-TITLE-DAT
 70
     0
 74
     1
  0
LINE
  5
266
  8
0
 10
-94.0
 20
37.5
 30
0.0
 11
-34.0
 21
37.5
 31
0.0
  0
LINE
  5
267
  8
0
 10
-94.0
 20
27.5
 30
0.0
 11
-34.0
 21
27.5
 31
0.0
  0
LINE
  5
268
  8
0
 10
-94.0
 20
17.5
 30
0.0
 11
-34.0
 21
17.5
 31
0.0
  0
LINE
  5
269
  8
RAHM2
 10
-109.0
 20
50.0000000000000284
 30
0.0
 11
-109.0
 21
19.9999999999999396
 31
0.0
  0
INSERT
  5
26A
  8
0
  2
*U29
 10
0.0
 20
0.0
 30
0.0
  0
INSERT
  5
26B
  8
0
  2
*U30
 10
0.0
 20
0.0
 30
0.0
  0
INSERT
  5
26C
  8
0
  2
*U31
 10
0.0
 20
0.0
 30
0.0
  0
INSERT
  5
26D
  8
0
  2
*U32
 10
0.0
 20
0.0
 30
0.0
  0
INSERT
  5
26E
  8
0
  2
*U33
 10
0.0
 20
0.0
 30
0.0
  0
INSERT
  5
26F
  8
0
  2
*U34
 10
0.0
 20
0.0
 30
0.0
  0
INSERT
  5
270
  8
0
  2
*U35
 10
0.0
 20
0.0
 30
0.0
  0
INSERT
  5
271
  8
0
  2
*U36
 10
0.0
 20
0.0
 30
0.0
  0
LINE
  5
272
  8
7A
 10
-89.0
 20
43.75
 30
0.0
 11
-75.2186915997147025
 21
43.75
 31
0.0
1001
GENIUS_GENOREF_13
1005
285
  0
LINE
  5
273
  8
0
 10
-84.0
 20
45.75
 30
0.0
 11
-76.0
 21
46.7499999999999929
 31
0.0
  0
LINE
  5
274
  8
0
 10
-76.0
 20
40.75
 30
0.0
 11
-84.0
 21
41.7499999999999929
 31
0.0
  0
LINE
  5
275
  8
7A
 10
-89.0
 20
43.75
 30
0.0
 11
-89.0
 21
47.324786644731482
 31
0.0
1001
GENIUS_GENOREF_13
1005
285
  0
CIRCLE
  5
276
  8
0
 10
-89.0
 20
43.75
 30
0.0
 40
2.0
  0
CIRCLE
  5
277
  8
0
 10
-89.0
 20
43.75
 30
0.0
 40
3.0
  0
LINE
  5
278
  8
0
 10
-84.0
 20
41.7499999999999929
 30
0.0
 11
-84.0
 21
45.75
 31
0.0
  0
INSERT
  5
279
  8
0
  2
*U37
 10
0.0
 20
0.0
 30
0.0
  0
LINE
  5
27A
  8
7A
 10
-89.0
 20
43.75
 30
0.0
 11
-92.7230373712511664
 21
43.75
 31
0.0
1001
GENIUS_GENOREF_13
1005
285
  0
LINE
  5
27B
  8
7A
 10
-89.0
 20
43.75
 30
0.0
 11
-89.0
 21
40.0399172422847869
 31
0.0
1001
GENIUS_GENOREF_13
1005
285
  0
LINE
  5
27C
  8
0
 10
-76.0
 20
46.7499999999999929
 30
0.0
 11
-76.0
 21
40.75
 31
0.0
  0
LINE
  5
27D
  8
0
 10
-74.0
 20
50.0
 30
0.0
 11
-74.0
 21
37.5
 31
0.0
  0
INSERT
  5
27E
  8
0
  2
*U38
 10
0.0
 20
0.0
 30
0.0
  0
ATTDEF
  5
27F
  8
0
 10
-37.7631737939150298
 20
39.2550055617834914
 30
0.0
 40
3.0
  1

 72
     2
 11
-37.7631737939150298
 21
39.2550055617834914
 31
0.0
  3
数量
  2
GEN-TITLE-QTY
 70
     0
  0
LINE
  5
280
  8
0
 10
-34.0
 20
25.0
 30
0.0
 11
0.0
 21
25.0
 31
0.0
  0
LINE
  5
281
  8
0
 10
-54.0
 20
50.0
 30
0.0
 11
-54.0
 21
37.5
 31
0.0
  0
INSERT
  5
282
  8
0
  2
*U39
 10
0.0
 20
0.0
 30
0.0
  0
INSERT
  5
283
  8
0
  2
*U40
 10
0.0
 20
0.0
 30
0.0
  0
INSERT
  5
284
  8
0
  2
*U41
 10
0.0
 20
0.0
 30
0.0
  0
POINT
  5
285
  8
0
 10
-320.5355579819675995
 20
-138.110484126825412
 30
0.0
1001
GENIUS_GENODEF_13
1002
{
1000
HIER
1070
    10
1002
}
1002
{
1000
MANEDIT
1070
     0
1002
}
1002
{
1000
NOSEL
1070
     0
1002
}
1002
{
1000
BEHIND
1070
     0
1002
}
1002
{
1000
REACTOR
1002
}
1001
GENIUS_GENOBJ-N-CRS_13
1002
{
1000
OWNER
1000
GEN
1002
}
1001
GENIUS_GENOENT_13
1002
{
1000
MYREF
1005
285
1002
}
1002
{
1000
GRP
1005
0
1002
}
1001
GENIUS_GENOLIS_13
1002
{
1000
ENT
1005
27B
1005
27A
1005
275
1005
272
1002
}
  0
LINE
  5
286
  8
RAHM2
 10
-190.0
 20
29.6000000000000192
 30
0.0
 11
-192.4248711305963866
 21
25.4000000000000412
 31
0.0
  0
LINE
  5
287
  8
RAHM2
 10
-187.5751288694036134
 20
25.4000000000000412
 30
0.0
 11
-190.0
 21
29.6000000000000192
 31
0.0
  0
LINE
  5
288
  8
RAHM2
 10
-192.4248711305963866
 20
25.4000000000000412
 30
0.0
 11
-187.5751288694036134
 21
25.4000000000000412
 31
0.0
  0
LINE
  5
289
  8
RAHM2
 10
-195.0
 20
25.0000000000000284
 30
0.0
 11
-94.0
 21
25.0000000000000284
 31
0.0
  0
INSERT
  5
28A
  8
0
  2
*U42
 10
0.0
 20
0.0
 30
0.0
  0
TEXT
  5
28B
  8
RAHM2
 10
-190.8155863565800985
 20
25.6500000000000306
 30
0.0
 40
2.5
  1
1
 72
     1
 11
-190.1905863565802122
 21
25.6500000000000306
 31
0.0
 73
     1
  0
TEXT
  5
28C
  8
RAHM2
 10
-190.918331692913398
 20
30.6500000000000306
 30
0.0
 40
2.5
  1
2
 72
     1
 11
-190.0
 21
30.6500000000000306
 31
0.0
 73
     1
  0
TEXT
  5
28D
  8
RAHM2
 10
-190.9267766952966099
 20
35.6500000000000128
 30
0.0
 40
2.5
  1
3
 72
     1
 11
-190.0
 21
35.6500000000000128
 31
0.0
 73
     1
  0
TEXT
  5
28E
  8
RAHM2
 10
-191.0
 20
40.650000000000027
 30
0.0
 40
2.5
  1
4
 72
     1
 11
-190.0
 21
40.650000000000027
 31
0.0
 73
     1
  0
TEXT
  5
28F
  8
RAHM2
 10
-190.9267766952966099
 20
45.650000000000027
 30
0.0
 40
2.5
  1
5
 72
     1
 11
-190.0
 21
45.650000000000027
 31
0.0
 73
     1
  0
LINE
  5
290
  8
0
 10
-17.0
 20
50.0
 30
0.0
 11
-17.0
 21
0.0
 31
0.0
  0
LINE
  5
291
  8
0
 10
-195.0
 20
0.0
 30
0.0
 11
0.0
 21
0.0
 31
0.0
1001
GENIUS_GENREC_14
1002
{
1000
PYDIR
1011
-184.0
1021
0.0
1031
0.0
1021
50.0
1031
0.0
1002
}
1002
{
1000
PXDIR
1011
0.0
1021
0.0
1031
0.0
1021
0.0
1031
0.0
1002
}
1002
{
1000
PORI
1011
-184.0
1021
0.0
1031
0.0
1021
0.0
1031
0.0
1002
}
1002
{
1000
PINS
1011
-100.5
1021
0.0
1031
0.0
1021
25.0
1031
0.0
1002
}
1002
{
1000
HVAL
1000
50
1002
}
1002
{
1000
H
1070
     2
1002
}
1002
{
1000
WVAL
1000
167
1002
}
1002
{
1000
W
1070
     2
1002
}
1002
{
1000
C
1070
     4
1002
}
1001
GENIUS_GENODEF_13
1002
{
1000
HIER
1070
     0
1002
}
1002
{
1000
MANEDIT
1070
     0
1002
}
1002
{
1000
NOSEL
1070
     0
1002
}
1002
{
1000
BEHIND
1070
     0
1002
}
1002
{
1000
REACTOR
1002
}
1001
GENIUS_GENOBJ-N-REC_13
1002
{
1000
OWNER
1000
GEN
1002
}
  0
LINE
  5
292
  8
0
 10
0.0
 20
0.0
 30
0.0
 11
0.0
 21
50.0
 31
0.0
1001
GENIUS_GENREC_14
1002
{
1000
PYDIR
1011
-184.0
1021
0.0
1031
0.0
1021
50.0
1031
0.0
1002
}
1002
{
1000
PXDIR
1011
0.0
1021
0.0
1031
0.0
1021
0.0
1031
0.0
1002
}
1002
{
1000
PORI
1011
-184.0
1021
0.0
1031
0.0
1021
0.0
1031
0.0
1002
}
1002
{
1000
PINS
1011
-100.5
1021
0.0
1031
0.0
1021
25.0
1031
0.0
1002
}
1002
{
1000
HVAL
1000
50
1002
}
1002
{
1000
H
1070
     2
1002
}
1002
{
1000
WVAL
1000
167
1002
}
1002
{
1000
W
1070
     2
1002
}
1002
{
1000
C
1070
     4
1002
}
1001
GENIUS_GENODEF_13
1002
{
1000
HIER
1070
     0
1002
}
1002
{
1000
MANEDIT
1070
     0
1002
}
1002
{
1000
NOSEL
1070
     0
1002
}
1002
{
1000
BEHIND
1070
     0
1002
}
1002
{
1000
REACTOR
1002
}
1001
GENIUS_GENOBJ-N-REC_13
1002
{
1000
OWNER
1000
GEN
1002
}
  0
LINE
  5
293
  8
0
 10
0.0
 20
50.0
 30
0.0
 11
-195.0
 21
50.0000000000000284
 31
0.0
1001
GENIUS_GENREC_14
1002
{
1000
PYDIR
1011
-184.0
1021
0.0
1031
0.0
1021
50.0
1031
0.0
1002
}
1002
{
1000
PXDIR
1011
0.0
1021
0.0
1031
0.0
1021
0.0
1031
0.0
1002
}
1002
{
1000
PORI
1011
-184.0
1021
0.0
1031
0.0
1021
0.0
1031
0.0
1002
}
1002
{
1000
PINS
1011
-100.5
1021
0.0
1031
0.0
1021
25.0
1031
0.0
1002
}
1002
{
1000
HVAL
1000
50
1002
}
1002
{
1000
H
1070
     2
1002
}
1002
{
1000
WVAL
1000
167
1002
}
1002
{
1000
W
1070
     2
1002
}
1002
{
1000
C
1070
     4
1002
}
1001
GENIUS_GENODEF_13
1002
{
1000
HIER
1070
     0
1002
}
1002
{
1000
MANEDIT
1070
     0
1002
}
1002
{
1000
NOSEL
1070
     0
1002
}
1002
{
1000
BEHIND
1070
     0
1002
}
1002
{
1000
REACTOR
1002
}
1001
GENIUS_GENOBJ-N-REC_13
1002
{
1000
OWNER
1000
GEN
1002
}
  0
LINE
  5
294
  8
0
 10
-195.0
 20
50.0000000000000284
 30
0.0
 11
-195.0
 21
0.0
 31
0.0
1001
GENIUS_GENREC_14
1002
{
1000
PYDIR
1011
-195.0
1021
0.0
1031
0.0
1021
50.0
1031
0.0
1002
}
1002
{
1000
PXDIR
1011
-11.0
1021
0.0
1031
0.0
1021
0.0
1031
0.0
1002
}
1002
{
1000
PORI
1011
-195.0
1021
0.0
1031
0.0
1021
0.0
1031
0.0
1002
}
1002
{
1000
PINS
1011
-111.5
1021
0.0
1031
0.0
1021
25.0
1031
0.0
1002
}
1002
{
1000
HVAL
1000
50
1002
}
1002
{
1000
H
1070
     2
1002
}
1002
{
1000
WVAL
1000
167
1002
}
1002
{
1000
W
1070
     2
1002
}
1002
{
1000
C
1070
     4
1002
}
1001
GENIUS_GENODEF_13
1002
{
1000
HIER
1070
     0
1002
}
1002
{
1000
MANEDIT
1070
     0
1002
}
1002
{
1000
NOSEL
1070
     0
1002
}
1002
{
1000
BEHIND
1070
     0
1002
}
1002
{
1000
REACTOR
1002
}
1001
GENIUS_GENOBJ-N-REC_13
1002
{
1000
OWNER
1000
GEN
1002
}
  0
INSERT
  5
295
  8
0
  2
*U43
 10
0.0
 20
0.0
 30
0.0
  0
INSERT
  5
296
  8
0
  2
*U44
 10
0.0
 20
0.0
 30
0.0
  0
ENDBLK
  5
299
  8
0
  0
BLOCK
  8
0
  2
TAKACHI-A3-2
 70
     0
 10
0.0
 20
0.0
 30
0.0
  3
TAKACHI-A3-2
  1

  0
LINE
  5
A0E
  8
0
 10
359.0
 20
280.0
 30
0.0
 11
359.0
 21
275.0
 31
0.0
  0
INSERT
  5
A0F
  8
0
  2
*U45
 10
0.0
 20
0.0
 30
0.0
  0
LINE
  5
A10
  8
0
 10
359.0
 20
275.0
 30
0.0
 11
403.0
 21
275.0
 31
0.0
  0
TEXT
  5
A11
  8
0
 10
403.0
 20
0.0
 30
0.0
 40
2.5
  1
!GENTITLE-INSERT
  0
TEXT
  5
A12
  8
0
 10
0.0
 20
0.0
 30
0.0
 40
2.5
  1
!GENTITLE-LL
  0
TEXT
  5
A13
  8
0
 10
403.0
 20
280.0
 30
0.0
 40
2.5
  1
!GENTITLE-MAX
  0
POLYLINE
  5
A14
  8
0
 66
     1
 10
0.0
 20
0.0
 30
0.0
 70
     1
1001
GENIUS_GENREC_14
1002
{
1000
PYDIR
1011
0.0000000000000178
1021
0.0
1031
0.0
1021
280.0
1031
0.0
1002
}
1002
{
1000
PXDIR
1011
403.0
1021
0.0
1031
0.0
1021
0.0
1031
0.0
1002
}
1002
{
1000
PORI
1011
0.0
1021
0.0
1031
0.0
1021
0.0
1031
0.0
1002
}
1002
{
1000
PINS
1011
0.0
1021
0.0
1031
0.0
1021
0.0
1031
0.0
1002
}
1002
{
1000
PINS2
1011
403.0
1021
0.0
1031
0.0
1021
280.0
1031
0.0
1002
}
1002
{
1000
C
1070
     1
1002
}
1001
GENIUS_GENODEF_13
1002
{
1000
HIER
1070
     0
1002
}
1002
{
1000
MANEDIT
1070
     0
1002
}
1002
{
1000
NOSEL
1070
     0
1002
}
1002
{
1000
BEHIND
1070
     0
1002
}
1002
{
1000
OTHER
1070
     0
1002
}
1002
{
1000
REACTOR
1002
}
1001
GENIUS_GENOBJ-N-REC_13
1002
{
1000
OWNER
1000
GEN
1002
}
  0
VERTEX
  5
2570
  8
0
 10
0.0
 20
0.0
 30
0.0
  0
VERTEX
  5
2571
  8
0
 10
403.0
 20
0.0
 30
0.0
  0
VERTEX
  5
2572
  8
0
 10
403.0
 20
280.0
 30
0.0
  0
VERTEX
  5
2573
  8
0
 10
0.0
 20
280.0000000000001137
 30
0.0
  0
SEQEND
  5
2574
  8
0
  0
ENDBLK
  5
A17
  8
0
  0
BLOCK
  8
0
  2
TAKACHI-TITLEA3
 70
     2
 10
0.0
 20
0.0
 30
0.0
  3
TAKACHI-TITLEA3
  1

  0
LINE
  5
A21
  8
0
 10
-167.0
 20
12.4999999999999591
 30
0.0
 11
-193.0000000000001137
 21
12.4999999999999591
 31
0.0
  0
LINE
  5
A22
  8
0
 10
-167.0
 20
37.4999999999999787
 30
0.0
 11
-193.0000000000001137
 21
37.4999999999999787
 31
0.0
  0
ATTDEF
  5
A23
  8
0
 10
-180.2171951662137985
 20
3.5883425376106639
 30
0.0
 40
3.0
  1

 72
     1
 11
-180.2171951662137985
 21
3.5883425376106639
 31
0.0
  3
日付
  2
GEN-TITLE-DAT
 70
     0
 74
     1
  0
INSERT
  5
A24
  8
0
  2
*U46
 10
0.0
 20
0.0
 30
0.0
  0
ATTDEF
  5
A25
  8
0
 10
-177.8247396144240042
 20
28.2999999999999794
 30
0.0
 40
3.0
  1

 72
     2
 11
-177.8247396144240042
 21
28.2999999999999794
 31
0.0
  3
尺度
  2
GEN-TITLE-SCA
 70
     0
 74
     1
  0
INSERT
  5
A26
  8
0
  2
*U47
 10
0.0
 20
0.0
 30
0.0
  0
INSERT
  5
A27
  8
0
  2
*U48
 10
0.0
 20
0.0
 30
0.0
  0
ATTDEF
  5
A28
  8
0
 10
-175.612740912609496
 20
15.7999999999999403
 30
0.0
 40
3.0
  1

 72
     2
 11
-175.612740912609496
 21
15.7999999999999403
 31
0.0
  3
数量
  2
GEN-TITLE-QTY
 70
     0
 74
     1
  0
LINE
  5
A29
  8
0
 10
-193.0000000000001137
 20
49.9999999999999929
 30
0.0
 11
-193.0000000000001137
 21
-0.0000000000000142
 31
0.0
  0
LINE
  5
A2A
  8
7A
 10
-184.7167418745796112
 20
43.7499999999999503
 30
0.0
 11
-170.9354334742943138
 21
43.7499999999999503
 31
0.0
1001
GENIUS_GENOREF_13
1005
A78
  0
LINE
  5
A2B
  8
0
 10
-179.7167418745796112
 20
45.7499999999999432
 30
0.0
 11
-171.7167418745796112
 21
46.7499999999999503
 31
0.0
  0
LINE
  5
A2C
  8
0
 10
-171.7167418745796112
 20
40.7499999999999432
 30
0.0
 11
-179.7167418745796112
 21
41.7499999999999503
 31
0.0
  0
LINE
  5
A2D
  8
7A
 10
-184.7167418745796112
 20
43.7499999999999503
 30
0.0
 11
-184.7167418745796112
 21
47.3247866447314394
 31
0.0
1001
GENIUS_GENOREF_13
1005
A78
  0
CIRCLE
  5
A2E
  8
0
 10
-184.7167418745796112
 20
43.7499999999999503
 30
0.0
 40
2.0
  0
CIRCLE
  5
A2F
  8
0
 10
-184.7167418745796112
 20
43.7499999999999503
 30
0.0
 40
3.0
  0
LINE
  5
A30
  8
0
 10
-179.7167418745796112
 20
41.7499999999999503
 30
0.0
 11
-179.7167418745796112
 21
45.7499999999999432
 31
0.0
  0
LINE
  5
A31
  8
7A
 10
-184.7167418745796112
 20
43.7499999999999503
 30
0.0
 11
-188.4397792458306924
 21
43.7499999999999503
 31
0.0
1001
GENIUS_GENOREF_13
1005
A78
  0
LINE
  5
A32
  8
7A
 10
-184.7167418745796112
 20
43.7499999999999503
 30
0.0
 11
-184.7167418745796112
 21
40.03991724228473
 31
0.0
1001
GENIUS_GENOREF_13
1005
A78
  0
LINE
  5
A33
  8
0
 10
-171.7167418745796112
 20
46.7499999999999503
 30
0.0
 11
-171.7167418745796112
 21
40.7499999999999432
 31
0.0
  0
LINE
  5
A34
  8
0
 10
-167.0
 20
24.9999999999999716
 30
0.0
 11
-193.0000000000001137
 21
24.9999999999999716
 31
0.0
  0
LINE
  5
A35
  8
0
 10
-167.0
 20
39.9999999999999076
 30
0.0
 11
-96.0
 21
39.9999999999999218
 31
0.0
  0
INSERT
  5
A36
  8
0
  2
*U49
 10
0.0
 20
0.0
 30
0.0
  0
INSERT
  5
A37
  8
0
  2
*U50
 10
0.0
 20
0.0
 30
0.0
  0
ATTDEF
  5
A38
  8
0
 10
-148.9618675835291128
 20
33.2999999999999119
 30
0.0
 40
3.0
  1

  3
表面処理
  2
GEN-TITLE-MAT2
 70
     0
  0
ATTDEF
  5
A39
  8
0
 10
-148.9618675835291128
 20
43.2999999999999119
 30
0.0
 40
3.0
  1

  3
材質
  2
GEN-TITLE-MAT1
 70
     0
  0
INSERT
  5
A3A
  8
0
  2
*U51
 10
0.0
 20
0.0
 30
0.0
  0
LINE
  5
A3B
  8
0
 10
-167.0
 20
29.9999999999999183
 30
0.0
 11
-96.0
 21
29.9999999999999183
 31
0.0
  0
INSERT
  5
A3C
  8
0
  2
*U52
 10
0.0
 20
0.0
 30
0.0
  0
INSERT
  5
A3D
  8
0
  2
*U53
 10
0.0
 20
0.0
 30
0.0
  0
LINE
  5
A3E
  8
0
 10
-149.2500000000001137
 20
19.9999999999999289
 30
0.0
 11
-149.2500000000001137
 21
-0.0000000000000462
 31
0.0
  0
LINE
  5
A3F
  8
0
 10
-167.0
 20
49.9999999999999503
 30
0.0
 11
-167.0
 21
-0.0000000000000497
 31
0.0
  0
INSERT
  5
A40
  8
0
  2
*U54
 10
0.0
 20
0.0
 30
0.0
  0
LINE
  5
A41
  8
0
 10
-131.5000000000001137
 20
19.9999999999999289
 30
0.0
 11
-131.5000000000001137
 21
-0.0000000000000533
 31
0.0
  0
LINE
  5
A42
  8
0
 10
-113.75
 20
19.9999999999999289
 30
0.0
 11
-113.75
 21
-0.0000000000000533
 31
0.0
  0
LINE
  5
A43
  8
0
 10
-167.0
 20
19.9999999999999289
 30
0.0
 11
-96.0
 21
19.9999999999999289
 31
0.0
  0
INSERT
  5
A44
  8
0
  2
*U55
 10
0.0
 20
0.0
 30
0.0
  0
INSERT
  5
A45
  8
0
  2
*U56
 10
0.0
 20
0.0
 30
0.0
  0
LINE
  5
A46
  8
0
 10
-21.1754192662571086
 20
0.0
 30
0.0
 11
-21.1754192662573395
 21
7.0
 31
0.0
  0
LINE
  5
A47
  8
RAHM2
 10
-96.0
 20
29.9999999999999183
 30
0.0
 11
0.0000000000001137
 21
30.0000000000000284
 31
0.0
  0
LINE
  5
A48
  8
RAHM2
 10
-96.0
 20
35.0000000000000284
 30
0.0
 11
0.0000000000001137
 21
35.0000000000000284
 31
0.0
  0
LINE
  5
A49
  8
RAHM2
 10
-96.0
 20
39.9999999999999289
 30
0.0
 11
0.0000000000001137
 21
40.0000000000000213
 31
0.0
  0
LINE
  5
A4A
  8
RAHM2
 10
-96.0
 20
45.0000000000000213
 30
0.0
 11
0.0000000000001137
 21
45.0000000000000213
 31
0.0
  0
LINE
  5
A4B
  8
0
 10
-96.0
 20
7.0
 30
0.0
 11
0.0000000000001137
 21
7.0
 31
0.0
  0
LINE
  5
A4C
  8
0
 10
-96.0
 20
19.9999999999999716
 30
0.0
 11
0.0000000000001137
 21
19.9999999999999716
 31
0.0
  0
INSERT
  5
A4D
  8
0
  2
*U57
 10
0.0
 20
0.0
 30
0.0
  0
LINE
  5
A4E
  8
RAHM2
 10
-88.5751288694035566
 20
30.4000000000000199
 30
0.0
 11
-91.0
 21
34.6000000000000085
 31
0.0
  0
LINE
  5
A4F
  8
RAHM2
 10
-91.0
 20
34.6000000000000085
 30
0.0
 11
-93.4248711305964434
 21
30.4000000000000199
 31
0.0
  0
LINE
  5
A50
  8
RAHM2
 10
-86.0
 20
50.0000000000000071
 30
0.0
 11
-86.0
 21
19.9999999999999289
 31
0.0
  0
LINE
  5
A51
  8
RAHM2
 10
-93.4248711305964434
 20
30.4000000000000199
 30
0.0
 11
-88.5751288694035566
 21
30.4000000000000199
 31
0.0
  0
INSERT
  5
A52
  8
0
  2
*U58
 10
0.0
 20
0.0
 30
0.0
  0
INSERT
  5
A53
  8
0
  2
*U59
 10
0.0
 20
0.0
 30
0.0
  0
LINE
  5
A54
  8
RAHM2
 10
-93.4248711305964434
 20
45.4000000000000128
 30
0.0
 11
-88.5751288694035566
 21
45.4000000000000128
 31
0.0
  0
LINE
  5
A55
  8
RAHM2
 10
-88.5751288694035566
 20
45.4000000000000128
 30
0.0
 11
-91.0
 21
49.6000000000000014
 31
0.0
  0
LINE
  5
A56
  8
RAHM2
 10
-93.4248711305964434
 20
40.4000000000000128
 30
0.0
 11
-88.5751288694035566
 21
40.4000000000000128
 31
0.0
  0
LINE
  5
A57
  8
RAHM2
 10
-88.5751288694035566
 20
40.4000000000000128
 30
0.0
 11
-91.0
 21
44.6000000000000014
 31
0.0
  0
LINE
  5
A58
  8
RAHM2
 10
-93.4248711305964434
 20
35.4000000000000199
 30
0.0
 11
-88.5751288694035566
 21
35.4000000000000199
 31
0.0
  0
LINE
  5
A59
  8
RAHM2
 10
-88.5751288694035566
 20
35.4000000000000199
 30
0.0
 11
-91.0
 21
39.6000000000000085
 31
0.0
  0
LINE
  5
A5A
  8
RAHM2
 10
-91.0
 20
39.6000000000000085
 30
0.0
 11
-93.4248711305964434
 21
35.4000000000000199
 31
0.0
  0
LINE
  5
A5B
  8
RAHM2
 10
-91.0
 20
44.6000000000000014
 30
0.0
 11
-93.4248711305964434
 21
40.4000000000000128
 31
0.0
  0
LINE
  5
A5C
  8
RAHM2
 10
-91.0
 20
49.6000000000000014
 30
0.0
 11
-93.4248711305964434
 21
45.4000000000000128
 31
0.0
  0
LINE
  5
A5D
  8
RAHM2
 10
-31.8208194106890687
 20
50.0000000000000284
 30
0.0
 11
-31.8208194106891789
 21
19.9999999999999396
 31
0.0
  0
INSERT
  5
A5E
  8
0
  2
*U60
 10
0.0
 20
0.0
 30
0.0
  0
LINE
  5
A5F
  8
RAHM2
 10
-11.8208194106890705
 20
50.0000000000000284
 30
0.0
 11
-11.8208194106890705
 21
19.9999999999999396
 31
0.0
  0
INSERT
  5
A60
  8
0
  2
*U61
 10
0.0
 20
0.0
 30
0.0
  0
INSERT
  5
A61
  8
0
  2
*U62
 10
0.0
 20
0.0
 30
0.0
  0
INSERT
  5
A62
  8
0
  2
*U63
 10
0.0
 20
0.0
 30
0.0
  0
INSERT
  5
A63
  8
0
  2
*U64
 10
0.0
 20
0.0
 30
0.0
  0
INSERT
  5
A64
  8
0
  2
*U65
 10
0.0
 20
0.0
 30
0.0
  0
INSERT
  5
A65
  8
0
  2
*U66
 10
0.0
 20
0.0
 30
0.0
  0
LINE
  5
A66
  8
RAHM2
 10
-91.0
 20
29.6000000000000085
 30
0.0
 11
-93.4248711305964434
 21
25.4000000000000199
 31
0.0
  0
LINE
  5
A67
  8
RAHM2
 10
-88.5751288694035566
 20
25.4000000000000199
 30
0.0
 11
-91.0
 21
29.6000000000000085
 31
0.0
  0
LINE
  5
A68
  8
RAHM2
 10
-93.4248711305964434
 20
25.4000000000000199
 30
0.0
 11
-88.5751288694035566
 21
25.4000000000000199
 31
0.0
  0
LINE
  5
A69
  8
RAHM2
 10
-96.0
 20
25.0
 30
0.0
 11
0.0000000000001137
 21
25.0000000000000284
 31
0.0
  0
INSERT
  5
A6A
  8
0
  2
*U67
 10
0.0
 20
0.0
 30
0.0
  0
TEXT
  5
A6B
  8
RAHM2
 10
-91.8155863565801837
 20
25.6500000000000199
 30
0.0
 40
2.5
  1
1
 72
     1
 11
-91.1905863565801837
 21
25.6500000000000199
 31
0.0
 73
     1
  0
TEXT
  5
A6C
  8
RAHM2
 10
-91.9183316929133838
 20
30.6500000000000199
 30
0.0
 40
2.5
  1
2
 72
     1
 11
-91.0
 21
30.6500000000000199
 31
0.0
 73
     1
  0
TEXT
  5
A6D
  8
RAHM2
 10
-91.9267766952966241
 20
35.6499999999999915
 30
0.0
 40
2.5
  1
3
 72
     1
 11
-91.0
 21
35.6499999999999915
 31
0.0
 73
     1
  0
TEXT
  5
A6E
  8
RAHM2
 10
-92.0
 20
40.6500000000000199
 30
0.0
 40
2.5
  1
4
 72
     1
 11
-91.0
 21
40.6500000000000199
 31
0.0
 73
     1
  0
TEXT
  5
A6F
  8
RAHM2
 10
-91.9267766952966241
 20
45.6500000000000199
 30
0.0
 40
2.5
  1
5
 72
     1
 11
-91.0
 21
45.6500000000000199
 31
0.0
 73
     1
  0
LINE
  5
A70
  8
0
 10
-193.0000000000001137
 20
0.0
 30
0.0
 11
0.0
 21
0.0
 31
0.0
1001
GENIUS_GENREC_14
1002
{
1000
PYDIR
1011
-184.0
1021
0.0
1031
0.0
1021
50.0
1031
0.0
1002
}
1002
{
1000
PXDIR
1011
0.0
1021
0.0
1031
0.0
1021
0.0
1031
0.0
1002
}
1002
{
1000
PORI
1011
-184.0
1021
0.0
1031
0.0
1021
0.0
1031
0.0
1002
}
1002
{
1000
PINS
1011
-100.5
1021
0.0
1031
0.0
1021
25.0
1031
0.0
1002
}
1002
{
1000
HVAL
1000
50
1002
}
1002
{
1000
H
1070
     2
1002
}
1002
{
1000
WVAL
1000
167
1002
}
1002
{
1000
W
1070
     2
1002
}
1002
{
1000
C
1070
     4
1002
}
1001
GENIUS_GENODEF_13
1002
{
1000
HIER
1070
     0
1002
}
1002
{
1000
MANEDIT
1070
     0
1002
}
1002
{
1000
NOSEL
1070
     0
1002
}
1002
{
1000
BEHIND
1070
     0
1002
}
1002
{
1000
REACTOR
1002
}
1001
GENIUS_GENOBJ-N-REC_13
1002
{
1000
OWNER
1000
GEN
1002
}
  0
LINE
  5
A71
  8
0
 10
0.0
 20
50.0
 30
0.0
 11
-193.0000000000001137
 21
50.0000000000000213
 31
0.0
1001
GENIUS_GENREC_14
1002
{
1000
PYDIR
1011
-184.0
1021
0.0
1031
0.0
1021
50.0
1031
0.0
1002
}
1002
{
1000
PXDIR
1011
0.0
1021
0.0
1031
0.0
1021
0.0
1031
0.0
1002
}
1002
{
1000
PORI
1011
-184.0
1021
0.0
1031
0.0
1021
0.0
1031
0.0
1002
}
1002
{
1000
PINS
1011
-100.5
1021
0.0
1031
0.0
1021
25.0
1031
0.0
1002
}
1002
{
1000
HVAL
1000
50
1002
}
1002
{
1000
H
1070
     2
1002
}
1002
{
1000
WVAL
1000
167
1002
}
1002
{
1000
W
1070
     2
1002
}
1002
{
1000
C
1070
     4
1002
}
1001
GENIUS_GENODEF_13
1002
{
1000
HIER
1070
     0
1002
}
1002
{
1000
MANEDIT
1070
     0
1002
}
1002
{
1000
NOSEL
1070
     0
1002
}
1002
{
1000
BEHIND
1070
     0
1002
}
1002
{
1000
REACTOR
1002
}
1001
GENIUS_GENOBJ-N-REC_13
1002
{
1000
OWNER
1000
GEN
1002
}
  0
LINE
  5
A72
  8
0
 10
-96.0
 20
50.0000000000000071
 30
0.0
 11
-96.0
 21
-0.0000000000000142
 31
0.0
1001
GENIUS_GENREC_14
1002
{
1000
PYDIR
1011
-96.0
1021
0.0
1031
0.0
1021
49.9999999999999929
1031
0.0
1002
}
1002
{
1000
PXDIR
1011
88.0
1021
0.0
1031
0.0
1021
-0.0000000000000142
1031
0.0
1002
}
1002
{
1000
PORI
1011
-96.0
1021
0.0
1031
0.0
1021
-0.0000000000000142
1031
0.0
1002
}
1002
{
1000
PINS
1011
-12.5
1021
0.0
1031
0.0
1021
24.9999999999999893
1031
0.0
1002
}
1002
{
1000
HVAL
1000
50
1002
}
1002
{
1000
H
1070
     2
1002
}
1002
{
1000
WVAL
1000
167
1002
}
1002
{
1000
W
1070
     2
1002
}
1002
{
1000
C
1070
     4
1002
}
1001
GENIUS_GENODEF_13
1002
{
1000
HIER
1070
     0
1002
}
1002
{
1000
MANEDIT
1070
     0
1002
}
1002
{
1000
NOSEL
1070
     0
1002
}
1002
{
1000
BEHIND
1070
     0
1002
}
1002
{
1000
REACTOR
1002
}
1001
GENIUS_GENOBJ-N-REC_13
1002
{
1000
OWNER
1000
GEN
1002
}
  0
ATTDEF
  5
A73
  8
0
 10
-84.0
 20
1.9999999999999569
 30
0.0
 40
3.0
  1

  3
図番
  2
GEN-TITLE-NR1
 70
     0
  0
ATTDEF
  5
A74
  8
0
 10
-84.0
 20
9.1499999999999488
 30
0.0
 40
2.5
  1

  3
サブタイトル
  2
GEN-TITLE-DES2
 70
     0
  0
LINE
  5
A75
  8
0
 10
0.0
 20
0.0
 30
0.0
 11
0.0
 21
50.0
 31
0.0
1001
GENIUS_GENREC_14
1002
{
1000
PYDIR
1011
-414.0
1021
0.0
1031
0.0
1021
291.0
1031
0.0
1002
}
1002
{
1000
PXDIR
1011
6.0
1021
0.0
1031
0.0
1021
-6.0
1031
0.0
1002
}
1002
{
1000
PORI
1011
-414.0
1021
0.0
1031
0.0
1021
-6.0
1031
0.0
1002
}
1002
{
1000
PINS
1011
-414.0
1021
0.0
1031
0.0
1021
-6.0
1031
0.0
1002
}
1002
{
1000
HVAL
1000
297
1002
}
1002
{
1000
H
1070
     2
1002
}
1002
{
1000
WVAL
1000
420
1002
}
1002
{
1000
W
1070
     2
1002
}
1002
{
1000
C
1070
     1
1002
}
1001
GENIUS_GENODEF_13
1002
{
1000
HIER
1070
     0
1002
}
1002
{
1000
MANEDIT
1070
     0
1002
}
1002
{
1000
NOSEL
1070
     0
1002
}
1002
{
1000
BEHIND
1070
     0
1002
}
1002
{
1000
OTHER
1070
     0
1002
}
1002
{
1000
REACTOR
1002
}
1001
GENIUS_GENOBJ-N-REC_13
1002
{
1000
OWNER
1000
GEN
1002
}
  0
ATTDEF
  5
A76
  8
0
 10
-84.1425190158532956
 20
12.8279043256437699
 30
0.0
 40
3.5
  1

  3
品名
  2
GEN-TITLE-DES1
 70
     0
  0
ATTDEF
  5
A77
  8
0
 10
-8.0023091895458265
 20
1.705189434395036
 30
0.0
 40
2.5
  1

  3
Rev.
  2
GEN-TITLE-NR2
 70
     0
  0
POINT
  5
A78
  8
0
 10
-418.5355579819674858
 20
-138.110484126825412
 30
0.0
1001
GENIUS_GENODEF_13
1002
{
1000
HIER
1070
    10
1002
}
1002
{
1000
MANEDIT
1070
     0
1002
}
1002
{
1000
NOSEL
1070
     0
1002
}
1002
{
1000
BEHIND
1070
     0
1002
}
1002
{
1000
REACTOR
1002
}
1001
GENIUS_GENOBJ-N-CRS_13
1002
{
1000
OWNER
1000
GEN
1002
}
1001
GENIUS_GENOENT_13
1002
{
1000
MYREF
1005
A78
1002
}
1002
{
1000
GRP
1005
0
1002
}
1001
GENIUS_GENOLIS_13
1002
{
1000
ENT
1005
A32
1005
A31
1005
A2D
1005
A2A
1002
}
  0
ENDBLK
  5
A7B
  8
0
  0
BLOCK
  8
0
  2
TAKACHI-A4-2
 70
     0
 10
0.0
 20
0.0
 30
0.0
  3
TAKACHI-A4-2
  1

  0
LINE
  5
AA2
  8
0
 10
149.0
 20
275.0
 30
0.0
 11
193.0
 21
275.0
 31
0.0
  0
INSERT
  5
AA3
  8
0
  2
*U68
 10
0.0
 20
0.0
 30
0.0
  0
LINE
  5
AA4
  8
0
 10
149.0
 20
280.0000000000001137
 30
0.0
 11
149.0
 21
275.0
 31
0.0
  0
POLYLINE
  5
AA5
  8
0
 66
     1
 10
0.0
 20
0.0
 30
0.0
 70
     1
1001
GENIUS_GENREC_14
1002
{
1000
PYDIR
1011
-8.5
1021
0.0
1031
0.0
1021
288.5
1031
0.0
1002
}
1002
{
1000
PXDIR
1011
201.5
1021
0.0
1031
0.0
1021
-8.5
1031
0.0
1002
}
1002
{
1000
PORI
1011
-8.5
1021
0.0
1031
0.0
1021
-8.5
1031
0.0
1002
}
1002
{
1000
PINS
1011
-8.5
1021
0.0
1031
0.0
1021
-8.5
1031
0.0
1002
}
1002
{
1000
HVAL
1000
297
1002
}
1002
{
1000
H
1070
     2
1002
}
1002
{
1000
WVAL
1000
210
1002
}
1002
{
1000
W
1070
     2
1002
}
1002
{
1000
C
1070
     1
1002
}
1001
GENIUS_GENOBJ-N-REC_13
1002
{
1000
OWNER
1000
GEN
1002
}
1001
GENIUS_GENODEF_13
1002
{
1000
HIER
1070
     0
1002
}
1002
{
1000
MANEDIT
1070
     0
1002
}
1002
{
1000
NOSEL
1070
     0
1002
}
1002
{
1000
BEHIND
1070
     0
1002
}
1002
{
1000
OTHER
1070
     0
1002
}
1002
{
1000
REACTOR
1002
}
  0
VERTEX
  5
25D1
  8
0
 10
0.0
 20
0.0
 30
0.0
  0
VERTEX
  5
25D2
  8
0
 10
193.0
 20
0.0
 30
0.0
  0
VERTEX
  5
25D3
  8
0
 10
193.0
 20
280.0
 30
0.0
  0
VERTEX
  5
25D4
  8
0
 10
0.0
 20
280.0
 30
0.0
  0
SEQEND
  5
25D5
  8
0
  0
TEXT
  5
AA6
  8
0
 10
193.0
 20
0.0
 30
0.0
 40
2.5
  1
!GENTITLE-INSERT
  0
TEXT
  5
AA7
  8
0
 10
193.0
 20
280.0
 30
0.0
 40
2.5
  1
!GENTITLE-MAX
  0
TEXT
  5
AA8
  8
0
 10
0.0
 20
0.0
 30
0.0
 40
2.5
  1
!GENTITLE-LL
  0
ENDBLK
  5
AAB
  8
0
  0
BLOCK
  8
0
  2
TK-A3
 70
     0
 10
0.0
 20
0.0
 30
0.0
  3
TK-A3
  1

  0
LINE
  5
AEA
  8
0
 10
359.0
 20
280.0
 30
0.0
 11
359.0
 21
275.0
 31
0.0
  0
INSERT
  5
AEB
  8
0
  2
*U69
 10
0.0
 20
0.0
 30
0.0
  0
LINE
  5
AEC
  8
0
 10
359.0
 20
275.0
 30
0.0
 11
403.0
 21
275.0
 31
0.0
  0
TEXT
  5
AED
  8
0
 10
403.0
 20
0.0
 30
0.0
 40
2.5
  1
!GENTITLE-INSERT
  0
TEXT
  5
AEE
  8
0
 10
0.0
 20
0.0
 30
0.0
 40
2.5
  1
!GENTITLE-LL
  0
TEXT
  5
AEF
  8
0
 10
403.0
 20
280.0
 30
0.0
 40
2.5
  1
!GENTITLE-MAX
  0
POLYLINE
  5
AF0
  8
0
 66
     1
 10
0.0
 20
0.0
 30
0.0
 70
     1
1001
GENIUS_GENREC_14
1002
{
1000
PYDIR
1011
0.0000000000000178
1021
0.0
1031
0.0
1021
280.0
1031
0.0
1002
}
1002
{
1000
PXDIR
1011
403.0
1021
0.0
1031
0.0
1021
0.0
1031
0.0
1002
}
1002
{
1000
PORI
1011
0.0
1021
0.0
1031
0.0
1021
0.0
1031
0.0
1002
}
1002
{
1000
PINS
1011
0.0
1021
0.0
1031
0.0
1021
0.0
1031
0.0
1002
}
1002
{
1000
PINS2
1011
403.0
1021
0.0
1031
0.0
1021
280.0
1031
0.0
1002
}
1002
{
1000
C
1070
     1
1002
}
1001
GENIUS_GENODEF_13
1002
{
1000
HIER
1070
     0
1002
}
1002
{
1000
MANEDIT
1070
     0
1002
}
1002
{
1000
NOSEL
1070
     0
1002
}
1002
{
1000
BEHIND
1070
     0
1002
}
1002
{
1000
OTHER
1070
     0
1002
}
1002
{
1000
REACTOR
1002
}
1001
GENIUS_GENOBJ-N-REC_13
1002
{
1000
OWNER
1000
GEN
1002
}
  0
VERTEX
  5
25DA
  8
0
 10
0.0
 20
0.0
 30
0.0
  0
VERTEX
  5
25DB
  8
0
 10
403.0
 20
0.0
 30
0.0
  0
VERTEX
  5
25DC
  8
0
 10
403.0
 20
280.0
 30
0.0
  0
VERTEX
  5
25DD
  8
0
 10
0.0
 20
280.0000000000001137
 30
0.0
  0
SEQEND
  5
25DE
  8
0
  0
ENDBLK
  5
AF3
  8
0
  0
BLOCK
  8
0
  2
TK-TITLE
 70
     2
 10
0.0
 20
0.0
 30
0.0
  3
TK-TITLE
  1

  0
LINE
  5
AFD
  8
0
 10
-167.0
 20
12.4999999999999591
 30
0.0
 11
-193.0000000000001137
 21
12.4999999999999591
 31
0.0
  0
LINE
  5
AFE
  8
0
 10
-167.0
 20
37.4999999999999787
 30
0.0
 11
-193.0000000000001137
 21
37.4999999999999787
 31
0.0
  0
ATTDEF
  5
AFF
  8
0
 10
-180.2171951662137985
 20
3.5883425376106639
 30
0.0
 40
3.0
  1

 72
     1
 11
-180.2171951662137985
 21
3.5883425376106639
 31
0.0
  3
日付
  2
GEN-TITLE-DAT
 70
     0
 74
     1
  0
INSERT
  5
B00
  8
0
  2
*U70
 10
0.0
 20
0.0
 30
0.0
  0
ATTDEF
  5
B01
  8
0
 10
-177.8247396144240042
 20
28.2999999999999794
 30
0.0
 40
3.0
  1

 72
     2
 11
-177.8247396144240042
 21
28.2999999999999794
 31
0.0
  3
尺度
  2
GEN-TITLE-SCA
 70
     0
 74
     1
  0
INSERT
  5
B02
  8
0
  2
*U71
 10
0.0
 20
0.0
 30
0.0
  0
INSERT
  5
B03
  8
0
  2
*U72
 10
0.0
 20
0.0
 30
0.0
  0
ATTDEF
  5
B04
  8
0
 10
-175.612740912609496
 20
15.7999999999999403
 30
0.0
 40
3.0
  1

 72
     2
 11
-175.612740912609496
 21
15.7999999999999403
 31
0.0
  3
数量
  2
GEN-TITLE-QTY
 70
     0
 74
     1
  0
LINE
  5
B05
  8
0
 10
-193.0000000000001137
 20
49.9999999999999929
 30
0.0
 11
-193.0000000000001137
 21
-0.0000000000000142
 31
0.0
  0
LINE
  5
B06
  8
7A
 10
-184.7167418745796112
 20
43.7499999999999503
 30
0.0
 11
-170.9354334742943138
 21
43.7499999999999503
 31
0.0
1001
GENIUS_GENOREF_13
1005
B54
  0
LINE
  5
B07
  8
0
 10
-179.7167418745796112
 20
45.7499999999999432
 30
0.0
 11
-171.7167418745796112
 21
46.7499999999999503
 31
0.0
  0
LINE
  5
B08
  8
0
 10
-171.7167418745796112
 20
40.7499999999999432
 30
0.0
 11
-179.7167418745796112
 21
41.7499999999999503
 31
0.0
  0
LINE
  5
B09
  8
7A
 10
-184.7167418745796112
 20
43.7499999999999503
 30
0.0
 11
-184.7167418745796112
 21
47.3247866447314394
 31
0.0
1001
GENIUS_GENOREF_13
1005
B54
  0
CIRCLE
  5
B0A
  8
0
 10
-184.7167418745796112
 20
43.7499999999999503
 30
0.0
 40
2.0
  0
CIRCLE
  5
B0B
  8
0
 10
-184.7167418745796112
 20
43.7499999999999503
 30
0.0
 40
3.0
  0
LINE
  5
B0C
  8
0
 10
-179.7167418745796112
 20
41.7499999999999503
 30
0.0
 11
-179.7167418745796112
 21
45.7499999999999432
 31
0.0
  0
LINE
  5
B0D
  8
7A
 10
-184.7167418745796112
 20
43.7499999999999503
 30
0.0
 11
-188.4397792458306924
 21
43.7499999999999503
 31
0.0
1001
GENIUS_GENOREF_13
1005
B54
  0
LINE
  5
B0E
  8
7A
 10
-184.7167418745796112
 20
43.7499999999999503
 30
0.0
 11
-184.7167418745796112
 21
40.03991724228473
 31
0.0
1001
GENIUS_GENOREF_13
1005
B54
  0
LINE
  5
B0F
  8
0
 10
-171.7167418745796112
 20
46.7499999999999503
 30
0.0
 11
-171.7167418745796112
 21
40.7499999999999432
 31
0.0
  0
LINE
  5
B10
  8
0
 10
-167.0
 20
24.9999999999999716
 30
0.0
 11
-193.0000000000001137
 21
24.9999999999999716
 31
0.0
  0
LINE
  5
B11
  8
0
 10
-167.0
 20
39.9999999999999076
 30
0.0
 11
-96.0
 21
39.9999999999999218
 31
0.0
  0
INSERT
  5
B12
  8
0
  2
*U73
 10
0.0
 20
0.0
 30
0.0
  0
INSERT
  5
B13
  8
0
  2
*U74
 10
0.0
 20
0.0
 30
0.0
  0
ATTDEF
  5
B14
  8
0
 10
-148.9618675835291128
 20
33.2999999999999119
 30
0.0
 40
3.0
  1

  3
表面処理
  2
GEN-TITLE-MAT2
 70
     0
  0
ATTDEF
  5
B15
  8
0
 10
-148.9618675835291128
 20
43.2999999999999119
 30
0.0
 40
3.0
  1

  3
材質
  2
GEN-TITLE-MAT1
 70
     0
  0
INSERT
  5
B16
  8
0
  2
*U75
 10
0.0
 20
0.0
 30
0.0
  0
LINE
  5
B17
  8
0
 10
-167.0
 20
29.9999999999999183
 30
0.0
 11
-96.0
 21
29.9999999999999183
 31
0.0
  0
INSERT
  5
B18
  8
0
  2
*U76
 10
0.0
 20
0.0
 30
0.0
  0
INSERT
  5
B19
  8
0
  2
*U77
 10
0.0
 20
0.0
 30
0.0
  0
LINE
  5
B1A
  8
0
 10
-149.2500000000001137
 20
19.9999999999999289
 30
0.0
 11
-149.2500000000001137
 21
-0.0000000000000462
 31
0.0
  0
LINE
  5
B1B
  8
0
 10
-167.0
 20
49.9999999999999503
 30
0.0
 11
-167.0
 21
-0.0000000000000497
 31
0.0
  0
INSERT
  5
B1C
  8
0
  2
*U78
 10
0.0
 20
0.0
 30
0.0
  0
LINE
  5
B1D
  8
0
 10
-131.5000000000001137
 20
19.9999999999999289
 30
0.0
 11
-131.5000000000001137
 21
-0.0000000000000533
 31
0.0
  0
LINE
  5
B1E
  8
0
 10
-113.75
 20
19.9999999999999289
 30
0.0
 11
-113.75
 21
-0.0000000000000533
 31
0.0
  0
LINE
  5
B1F
  8
0
 10
-167.0
 20
19.9999999999999289
 30
0.0
 11
-96.0
 21
19.9999999999999289
 31
0.0
  0
INSERT
  5
B20
  8
0
  2
*U79
 10
0.0
 20
0.0
 30
0.0
  0
INSERT
  5
B21
  8
0
  2
*U80
 10
0.0
 20
0.0
 30
0.0
  0
LINE
  5
B22
  8
0
 10
-21.1754192662571086
 20
0.0
 30
0.0
 11
-21.1754192662573395
 21
7.0
 31
0.0
  0
LINE
  5
B23
  8
RAHM2
 10
-96.0
 20
29.9999999999999183
 30
0.0
 11
0.0000000000001137
 21
30.0000000000000284
 31
0.0
  0
LINE
  5
B24
  8
RAHM2
 10
-96.0
 20
35.0000000000000284
 30
0.0
 11
0.0000000000001137
 21
35.0000000000000284
 31
0.0
  0
LINE
  5
B25
  8
RAHM2
 10
-96.0
 20
39.9999999999999289
 30
0.0
 11
0.0000000000001137
 21
40.0000000000000213
 31
0.0
  0
LINE
  5
B26
  8
RAHM2
 10
-96.0
 20
45.0000000000000213
 30
0.0
 11
0.0000000000001137
 21
45.0000000000000213
 31
0.0
  0
LINE
  5
B27
  8
0
 10
-96.0
 20
7.0
 30
0.0
 11
0.0000000000001137
 21
7.0
 31
0.0
  0
LINE
  5
B28
  8
0
 10
-96.0
 20
19.9999999999999716
 30
0.0
 11
0.0000000000001137
 21
19.9999999999999716
 31
0.0
  0
INSERT
  5
B29
  8
0
  2
*U81
 10
0.0
 20
0.0
 30
0.0
  0
LINE
  5
B2A
  8
RAHM2
 10
-88.5751288694035566
 20
30.4000000000000199
 30
0.0
 11
-91.0
 21
34.6000000000000085
 31
0.0
  0
LINE
  5
B2B
  8
RAHM2
 10
-91.0
 20
34.6000000000000085
 30
0.0
 11
-93.4248711305964434
 21
30.4000000000000199
 31
0.0
  0
LINE
  5
B2C
  8
RAHM2
 10
-86.0
 20
50.0000000000000071
 30
0.0
 11
-86.0
 21
19.9999999999999289
 31
0.0
  0
LINE
  5
B2D
  8
RAHM2
 10
-93.4248711305964434
 20
30.4000000000000199
 30
0.0
 11
-88.5751288694035566
 21
30.4000000000000199
 31
0.0
  0
INSERT
  5
B2E
  8
0
  2
*U82
 10
0.0
 20
0.0
 30
0.0
  0
INSERT
  5
B2F
  8
0
  2
*U83
 10
0.0
 20
0.0
 30
0.0
  0
LINE
  5
B30
  8
RAHM2
 10
-93.4248711305964434
 20
45.4000000000000128
 30
0.0
 11
-88.5751288694035566
 21
45.4000000000000128
 31
0.0
  0
LINE
  5
B31
  8
RAHM2
 10
-88.5751288694035566
 20
45.4000000000000128
 30
0.0
 11
-91.0
 21
49.6000000000000014
 31
0.0
  0
LINE
  5
B32
  8
RAHM2
 10
-93.4248711305964434
 20
40.4000000000000128
 30
0.0
 11
-88.5751288694035566
 21
40.4000000000000128
 31
0.0
  0
LINE
  5
B33
  8
RAHM2
 10
-88.5751288694035566
 20
40.4000000000000128
 30
0.0
 11
-91.0
 21
44.6000000000000014
 31
0.0
  0
LINE
  5
B34
  8
RAHM2
 10
-93.4248711305964434
 20
35.4000000000000199
 30
0.0
 11
-88.5751288694035566
 21
35.4000000000000199
 31
0.0
  0
LINE
  5
B35
  8
RAHM2
 10
-88.5751288694035566
 20
35.4000000000000199
 30
0.0
 11
-91.0
 21
39.6000000000000085
 31
0.0
  0
LINE
  5
B36
  8
RAHM2
 10
-91.0
 20
39.6000000000000085
 30
0.0
 11
-93.4248711305964434
 21
35.4000000000000199
 31
0.0
  0
LINE
  5
B37
  8
RAHM2
 10
-91.0
 20
44.6000000000000014
 30
0.0
 11
-93.4248711305964434
 21
40.4000000000000128
 31
0.0
  0
LINE
  5
B38
  8
RAHM2
 10
-91.0
 20
49.6000000000000014
 30
0.0
 11
-93.4248711305964434
 21
45.4000000000000128
 31
0.0
  0
LINE
  5
B39
  8
RAHM2
 10
-31.8208194106890687
 20
50.0000000000000284
 30
0.0
 11
-31.8208194106891789
 21
19.9999999999999396
 31
0.0
  0
INSERT
  5
B3A
  8
0
  2
*U84
 10
0.0
 20
0.0
 30
0.0
  0
LINE
  5
B3B
  8
RAHM2
 10
-11.8208194106890705
 20
50.0000000000000284
 30
0.0
 11
-11.8208194106890705
 21
19.9999999999999396
 31
0.0
  0
INSERT
  5
B3C
  8
0
  2
*U85
 10
0.0
 20
0.0
 30
0.0
  0
INSERT
  5
B3D
  8
0
  2
*U86
 10
0.0
 20
0.0
 30
0.0
  0
INSERT
  5
B3E
  8
0
  2
*U87
 10
0.0
 20
0.0
 30
0.0
  0
INSERT
  5
B3F
  8
0
  2
*U88
 10
0.0
 20
0.0
 30
0.0
  0
INSERT
  5
B40
  8
0
  2
*U89
 10
0.0
 20
0.0
 30
0.0
  0
INSERT
  5
B41
  8
0
  2
*U90
 10
0.0
 20
0.0
 30
0.0
  0
LINE
  5
B42
  8
RAHM2
 10
-91.0
 20
29.6000000000000085
 30
0.0
 11
-93.4248711305964434
 21
25.4000000000000199
 31
0.0
  0
LINE
  5
B43
  8
RAHM2
 10
-88.5751288694035566
 20
25.4000000000000199
 30
0.0
 11
-91.0
 21
29.6000000000000085
 31
0.0
  0
LINE
  5
B44
  8
RAHM2
 10
-93.4248711305964434
 20
25.4000000000000199
 30
0.0
 11
-88.5751288694035566
 21
25.4000000000000199
 31
0.0
  0
LINE
  5
B45
  8
RAHM2
 10
-96.0
 20
25.0
 30
0.0
 11
0.0000000000001137
 21
25.0000000000000284
 31
0.0
  0
INSERT
  5
B46
  8
0
  2
*U91
 10
0.0
 20
0.0
 30
0.0
  0
TEXT
  5
B47
  8
RAHM2
 10
-91.8155863565801837
 20
25.6500000000000199
 30
0.0
 40
2.5
  1
1
 72
     1
 11
-91.1905863565801837
 21
25.6500000000000199
 31
0.0
 73
     1
  0
TEXT
  5
B48
  8
RAHM2
 10
-91.9183316929133838
 20
30.6500000000000199
 30
0.0
 40
2.5
  1
2
 72
     1
 11
-91.0
 21
30.6500000000000199
 31
0.0
 73
     1
  0
TEXT
  5
B49
  8
RAHM2
 10
-91.9267766952966241
 20
35.6499999999999915
 30
0.0
 40
2.5
  1
3
 72
     1
 11
-91.0
 21
35.6499999999999915
 31
0.0
 73
     1
  0
TEXT
  5
B4A
  8
RAHM2
 10
-92.0
 20
40.6500000000000199
 30
0.0
 40
2.5
  1
4
 72
     1
 11
-91.0
 21
40.6500000000000199
 31
0.0
 73
     1
  0
TEXT
  5
B4B
  8
RAHM2
 10
-91.9267766952966241
 20
45.6500000000000199
 30
0.0
 40
2.5
  1
5
 72
     1
 11
-91.0
 21
45.6500000000000199
 31
0.0
 73
     1
  0
LINE
  5
B4C
  8
0
 10
-193.0000000000001137
 20
0.0
 30
0.0
 11
0.0
 21
0.0
 31
0.0
1001
GENIUS_GENREC_14
1002
{
1000
PYDIR
1011
-184.0
1021
0.0
1031
0.0
1021
50.0
1031
0.0
1002
}
1002
{
1000
PXDIR
1011
0.0
1021
0.0
1031
0.0
1021
0.0
1031
0.0
1002
}
1002
{
1000
PORI
1011
-184.0
1021
0.0
1031
0.0
1021
0.0
1031
0.0
1002
}
1002
{
1000
PINS
1011
-100.5
1021
0.0
1031
0.0
1021
25.0
1031
0.0
1002
}
1002
{
1000
HVAL
1000
50
1002
}
1002
{
1000
H
1070
     2
1002
}
1002
{
1000
WVAL
1000
167
1002
}
1002
{
1000
W
1070
     2
1002
}
1002
{
1000
C
1070
     4
1002
}
1001
GENIUS_GENODEF_13
1002
{
1000
HIER
1070
     0
1002
}
1002
{
1000
MANEDIT
1070
     0
1002
}
1002
{
1000
NOSEL
1070
     0
1002
}
1002
{
1000
BEHIND
1070
     0
1002
}
1002
{
1000
REACTOR
1002
}
1001
GENIUS_GENOBJ-N-REC_13
1002
{
1000
OWNER
1000
GEN
1002
}
  0
LINE
  5
B4D
  8
0
 10
0.0
 20
50.0
 30
0.0
 11
-193.0000000000001137
 21
50.0000000000000213
 31
0.0
1001
GENIUS_GENREC_14
1002
{
1000
PYDIR
1011
-184.0
1021
0.0
1031
0.0
1021
50.0
1031
0.0
1002
}
1002
{
1000
PXDIR
1011
0.0
1021
0.0
1031
0.0
1021
0.0
1031
0.0
1002
}
1002
{
1000
PORI
1011
-184.0
1021
0.0
1031
0.0
1021
0.0
1031
0.0
1002
}
1002
{
1000
PINS
1011
-100.5
1021
0.0
1031
0.0
1021
25.0
1031
0.0
1002
}
1002
{
1000
HVAL
1000
50
1002
}
1002
{
1000
H
1070
     2
1002
}
1002
{
1000
WVAL
1000
167
1002
}
1002
{
1000
W
1070
     2
1002
}
1002
{
1000
C
1070
     4
1002
}
1001
GENIUS_GENODEF_13
1002
{
1000
HIER
1070
     0
1002
}
1002
{
1000
MANEDIT
1070
     0
1002
}
1002
{
1000
NOSEL
1070
     0
1002
}
1002
{
1000
BEHIND
1070
     0
1002
}
1002
{
1000
REACTOR
1002
}
1001
GENIUS_GENOBJ-N-REC_13
1002
{
1000
OWNER
1000
GEN
1002
}
  0
LINE
  5
B4E
  8
0
 10
-96.0
 20
50.0000000000000071
 30
0.0
 11
-96.0
 21
-0.0000000000000142
 31
0.0
1001
GENIUS_GENREC_14
1002
{
1000
PYDIR
1011
-96.0
1021
0.0
1031
0.0
1021
49.9999999999999929
1031
0.0
1002
}
1002
{
1000
PXDIR
1011
88.0
1021
0.0
1031
0.0
1021
-0.0000000000000142
1031
0.0
1002
}
1002
{
1000
PORI
1011
-96.0
1021
0.0
1031
0.0
1021
-0.0000000000000142
1031
0.0
1002
}
1002
{
1000
PINS
1011
-12.5
1021
0.0
1031
0.0
1021
24.9999999999999893
1031
0.0
1002
}
1002
{
1000
HVAL
1000
50
1002
}
1002
{
1000
H
1070
     2
1002
}
1002
{
1000
WVAL
1000
167
1002
}
1002
{
1000
W
1070
     2
1002
}
1002
{
1000
C
1070
     4
1002
}
1001
GENIUS_GENODEF_13
1002
{
1000
HIER
1070
     0
1002
}
1002
{
1000
MANEDIT
1070
     0
1002
}
1002
{
1000
NOSEL
1070
     0
1002
}
1002
{
1000
BEHIND
1070
     0
1002
}
1002
{
1000
REACTOR
1002
}
1001
GENIUS_GENOBJ-N-REC_13
1002
{
1000
OWNER
1000
GEN
1002
}
  0
ATTDEF
  5
B4F
  8
0
 10
-84.0
 20
1.9999999999999569
 30
0.0
 40
3.0
  1

  3
図番
  2
GEN-TITLE-NR1
 70
     0
  0
ATTDEF
  5
B50
  8
0
 10
-84.0
 20
9.1499999999999488
 30
0.0
 40
2.5
  1

  3
サブタイトル
  2
GEN-TITLE-DES2
 70
     0
  0
LINE
  5
B51
  8
0
 10
0.0
 20
0.0
 30
0.0
 11
0.0
 21
50.0
 31
0.0
1001
GENIUS_GENREC_14
1002
{
1000
PYDIR
1011
-414.0
1021
0.0
1031
0.0
1021
291.0
1031
0.0
1002
}
1002
{
1000
PXDIR
1011
6.0
1021
0.0
1031
0.0
1021
-6.0
1031
0.0
1002
}
1002
{
1000
PORI
1011
-414.0
1021
0.0
1031
0.0
1021
-6.0
1031
0.0
1002
}
1002
{
1000
PINS
1011
-414.0
1021
0.0
1031
0.0
1021
-6.0
1031
0.0
1002
}
1002
{
1000
HVAL
1000
297
1002
}
1002
{
1000
H
1070
     2
1002
}
1002
{
1000
WVAL
1000
420
1002
}
1002
{
1000
W
1070
     2
1002
}
1002
{
1000
C
1070
     1
1002
}
1001
GENIUS_GENODEF_13
1002
{
1000
HIER
1070
     0
1002
}
1002
{
1000
MANEDIT
1070
     0
1002
}
1002
{
1000
NOSEL
1070
     0
1002
}
1002
{
1000
BEHIND
1070
     0
1002
}
1002
{
1000
OTHER
1070
     0
1002
}
1002
{
1000
REACTOR
1002
}
1001
GENIUS_GENOBJ-N-REC_13
1002
{
1000
OWNER
1000
GEN
1002
}
  0
ATTDEF
  5
B52
  8
0
 10
-84.1425190158532956
 20
12.8279043256437699
 30
0.0
 40
3.5
  1

  3
品名
  2
GEN-TITLE-DES1
 70
     0
  0
ATTDEF
  5
B53
  8
0
 10
-8.0023091895458265
 20
1.705189434395036
 30
0.0
 40
2.5
  1

  3
Rev.
  2
GEN-TITLE-NR2
 70
     0
  0
POINT
  5
B54
  8
0
 10
-418.5355579819674858
 20
-138.110484126825412
 30
0.0
1001
GENIUS_GENODEF_13
1002
{
1000
HIER
1070
    10
1002
}
1002
{
1000
MANEDIT
1070
     0
1002
}
1002
{
1000
NOSEL
1070
     0
1002
}
1002
{
1000
BEHIND
1070
     0
1002
}
1002
{
1000
REACTOR
1002
}
1001
GENIUS_GENOBJ-N-CRS_13
1002
{
1000
OWNER
1000
GEN
1002
}
1001
GENIUS_GENOENT_13
1002
{
1000
MYREF
1005
B54
1002
}
1002
{
1000
GRP
1005
0
1002
}
1001
GENIUS_GENOLIS_13
1002
{
1000
ENT
1005
B0E
1005
B0D
1005
B09
1005
B06
1002
}
  0
ENDBLK
  5
B57
  8
0
  0
BLOCK
  8
0
  2
_ACMFILLEDHALF
 70
     0
 10
0.0
 20
0.0
 30
0.0
  3
_ACMFILLEDHALF
  1

  0
TRACE
  5
CB5
  8
0
 62
     0
 10
-0.8
 20
0.0
 30
0.0
 11
-1.0
 21
0.166666666
 31
0.0
 12
0.0
 22
0.0
 32
0.0
 13
0.0
 23
0.0
 33
0.0
  0
LINE
  5
CB6
  8
0
 62
     0
 10
-1.0
 20
0.0
 30
0.0
 11
-0.8
 21
0.0
 31
0.0
  0
ENDBLK
  5
CB4
  8
0
  0
BLOCK
  8
0
  2
_ACMFILLED
 70
     0
 10
0.0
 20
0.0
 30
0.0
  3
_ACMFILLED
  1

  0
TRACE
  5
CC1
  8
0
 62
     0
 10
-1.0
 20
-0.166666666
 30
0.0
 11
-1.0
 21
0.166666666
 31
0.0
 12
0.0
 22
0.0
 32
0.0
 13
0.0
 23
0.0
 33
0.0
  0
ENDBLK
  5
CC0
  8
0
  0
BLOCK
  8
0
  2
_ACMFILLED15
 70
     0
 10
0.0
 20
0.0
 30
0.0
  3
_ACMFILLED15
  1

  0
TRACE
  5
CCD
  8
0
 62
     0
 10
-1.0
 20
-0.131652497
 30
0.0
 11
-1.0
 21
0.131652497
 31
0.0
 12
0.0
 22
0.0
 32
0.0
 13
0.0
 23
0.0
 33
0.0
  0
ENDBLK
  5
CCC
  8
0
  0
BLOCK
  8
0
  2
ISO_A4
 70
     0
 10
0.0
 20
0.0
 30
0.0
  3
ISO_A4
  1

  0
LINE
  5
DC4
  8
AM_BOR
 10
0.0
 20
0.0
 30
0.0
 11
10.0
 21
0.0
 31
0.0
  0
LINE
  5
DC5
  8
AM_BOR
 10
0.0
 20
0.0
 30
0.0
 11
0.0
 21
10.0
 31
0.0
  0
LINE
  5
DC6
  8
AM_BOR
 10
210.0
 20
0.0
 30
0.0
 11
200.0
 21
0.0
 31
0.0
  0
LINE
  5
DC7
  8
AM_BOR
 10
210.0
 20
0.0
 30
0.0
 11
210.0
 21
10.0
 31
0.0
  0
LINE
  5
DC8
  8
AM_BOR
 10
210.0
 20
287.0
 30
0.0
 11
210.0
 21
297.0
 31
0.0
  0
LINE
  5
DC9
  8
AM_BOR
 10
210.0
 20
297.0
 30
0.0
 11
200.0
 21
297.0
 31
0.0
  0
LINE
  5
DCA
  8
AM_BOR
 10
10.0
 20
297.0
 30
0.0
 11
0.0
 21
297.0
 31
0.0
  0
LINE
  5
DCB
  8
AM_BOR
 10
0.0
 20
297.0
 30
0.0
 11
0.0
 21
287.0
 31
0.0
  0
LINE
  5
DCC
  8
0
 10
10.0
 20
10.0
 30
0.0
 11
200.0
 21
10.0
 31
0.0
  0
LINE
  5
DCD
  8
0
 10
200.0
 20
10.0
 30
0.0
 11
200.0
 21
287.0
 31
0.0
  0
LINE
  5
DCE
  8
0
 10
200.0
 20
287.0
 30
0.0
 11
10.0
 21
287.0
 31
0.0
  0
LINE
  5
DCF
  8
0
 10
10.0
 20
287.0
 30
0.0
 11
10.0
 21
10.0
 31
0.0
  0
LINE
  5
DD0
  8
AM_BOR
 62
     2
 10
55.0
 20
5.0
 30
0.0
 11
155.0
 21
5.0
 31
0.0
  0
LINE
  5
DD1
  8
AM_BOR
 62
     2
 10
55.0
 20
5.0
 30
0.0
 11
55.0
 21
10.0
 31
0.0
  0
LINE
  5
DD2
  8
AM_BOR
 62
     2
 10
155.0
 20
5.0
 30
0.0
 11
155.0
 21
10.0
 31
0.0
  0
LINE
  5
DD3
  8
AM_BOR
 62
     2
 10
65.0
 20
5.0
 30
0.0
 11
65.0
 21
10.0
 31
0.0
  0
LINE
  5
DD4
  8
AM_BOR
 62
     2
 10
75.0
 20
5.0
 30
0.0
 11
75.0
 21
10.0
 31
0.0
  0
LINE
  5
DD5
  8
AM_BOR
 62
     2
 10
85.0
 20
5.0
 30
0.0
 11
85.0
 21
10.0
 31
0.0
  0
LINE
  5
DD6
  8
AM_BOR
 62
     2
 10
95.0
 20
5.0
 30
0.0
 11
95.0
 21
10.0
 31
0.0
  0
LINE
  5
DD7
  8
AM_BOR
 62
     2
 10
115.0
 20
5.0
 30
0.0
 11
115.0
 21
10.0
 31
0.0
  0
LINE
  5
DD8
  8
AM_BOR
 62
     2
 10
125.0
 20
5.0
 30
0.0
 11
125.0
 21
10.0
 31
0.0
  0
LINE
  5
DD9
  8
AM_BOR
 62
     2
 10
135.0
 20
5.0
 30
0.0
 11
135.0
 21
10.0
 31
0.0
  0
LINE
  5
DDA
  8
AM_BOR
 62
     2
 10
145.0
 20
5.0
 30
0.0
 11
145.0
 21
10.0
 31
0.0
  0
LINE
  5
DDB
  8
AM_BOR
 62
     2
 10
5.0
 20
148.5
 30
0.0
 11
15.0
 21
148.5
 31
0.0
  0
LINE
  5
DDC
  8
AM_BOR
 62
     2
 10
195.0
 20
148.5
 30
0.0
 11
205.0
 21
148.5
 31
0.0
  0
LINE
  5
DDD
  8
AM_BOR
 62
     2
 10
105.0
 20
5.0
 30
0.0
 11
105.0
 21
15.0
 31
0.0
  0
LINE
  5
DDE
  8
AM_BOR
 62
     1
 10
12.5
 20
151.0
 30
0.0
 11
12.5
 21
146.0
 31
0.0
  0
LINE
  5
DDF
  8
AM_BOR
 62
     1
 10
12.5
 20
146.0
 30
0.0
 11
7.5
 21
148.5
 31
0.0
  0
LINE
  5
DE0
  8
AM_BOR
 62
     1
 10
7.5
 20
148.5
 30
0.0
 11
12.5
 21
151.0
 31
0.0
  0
LINE
  5
DE1
  8
AM_BOR
 62
     1
 10
105.0
 20
7.5
 30
0.0
 11
102.5
 21
12.5
 31
0.0
  0
LINE
  5
DE2
  8
AM_BOR
 62
     1
 10
102.5
 20
12.5
 30
0.0
 11
107.5
 21
12.5
 31
0.0
  0
LINE
  5
DE3
  8
AM_BOR
 62
     1
 10
107.5
 20
12.5
 30
0.0
 11
105.0
 21
7.5
 31
0.0
  0
LINE
  5
DE4
  8
AM_BOR
 62
     1
 10
57.5
 20
287.0
 30
0.0
 11
57.5
 21
292.0
 31
0.0
  0
LINE
  5
DE5
  8
AM_BOR
 62
     1
 10
152.5
 20
287.0
 30
0.0
 11
152.5
 21
292.0
 31
0.0
  0
TEXT
  5
DE6
  8
AM_BOR
 62
     1
 10
32.75
 20
287.5
 30
0.0
 40
4.0
  1
1
  7
ACISOTS
 72
     4
 11
33.75
 21
289.5
 31
0.0
  0
TEXT
  5
DE7
  8
AM_BOR
 62
     1
 10
79.7806692913385831
 20
287.3996062992126213
 30
0.0
 40
4.0
  1
2
  7
ACISOTS
 72
     4
 11
81.25
 21
289.5
 31
0.0
  0
TEXT
  5
DE8
  8
AM_BOR
 62
     1
 10
127.2671572875253929
 20
287.5828427124745872
 30
0.0
 40
4.0
  1
3
  7
ACISOTS
 72
     4
 11
128.75
 21
289.5
 31
0.0
  0
TEXT
  5
DE9
  8
AM_BOR
 62
     1
 10
174.6500000000000057
 20
287.5
 30
0.0
 40
4.0
  1
4
  7
ACISOTS
 72
     4
 11
176.25
 21
289.5
 31
0.0
  0
LINE
  5
DEA
  8
AM_BOR
 62
     1
 10
10.0
 20
194.5
 30
0.0
 11
5.0
 21
194.5
 31
0.0
  0
LINE
  5
DEB
  8
AM_BOR
 62
     1
 10
10.0
 20
240.5
 30
0.0
 11
5.0
 21
240.5
 31
0.0
  0
LINE
  5
DEC
  8
AM_BOR
 62
     1
 10
10.0
 20
102.5
 30
0.0
 11
5.0
 21
102.5
 31
0.0
  0
LINE
  5
DED
  8
AM_BOR
 62
     1
 10
10.0
 20
56.5
 30
0.0
 11
5.0
 21
56.5
 31
0.0
  0
TEXT
  5
DEE
  8
AM_BOR
 62
     1
 10
5.6999999999999993
 20
261.5
 30
0.0
 40
4.0
  1
A
  7
ACISOTS
 72
     4
 11
7.5
 21
263.5
 31
0.0
  0
TEXT
  5
DEF
  8
AM_BOR
 62
     1
 10
5.8999999999999959
 20
215.5
 30
0.0
 40
4.0
  1
B
  7
ACISOTS
 72
     4
 11
7.5
 21
217.5
 31
0.0
  0
TEXT
  5
DF0
  8
AM_BOR
 62
     1
 10
6.1931980515339466
 20
169.5
 30
0.0
 40
4.0
  1
C
  7
ACISOTS
 72
     4
 11
7.5
 21
171.5
 31
0.0
  0
TEXT
  5
DF1
  8
AM_BOR
 62
     1
 10
5.7860912703473977
 20
123.5
 30
0.0
 40
4.0
  1
D
  7
ACISOTS
 72
     4
 11
7.5
 21
125.5
 31
0.0
  0
TEXT
  5
DF2
  8
AM_BOR
 62
     1
 10
6.0999999999999988
 20
77.5
 30
0.0
 40
4.0
  1
E
  7
ACISOTS
 72
     4
 11
7.5
 21
79.5
 31
0.0
  0
TEXT
  5
DF3
  8
AM_BOR
 62
     1
 10
6.0999999999999988
 20
31.5
 30
0.0
 40
4.0
  1
F
  7
ACISOTS
 72
     4
 11
7.5
 21
33.5
 31
0.0
  0
TEXT
  5
DF4
  8
AM_BOR
 62
     1
 10
200.6999999999999886
 20
261.5
 30
0.0
 40
4.0
  1
A
  7
ACISOTS
 72
     4
 11
202.5
 21
263.5
 31
0.0
  0
LINE
  5
DF5
  8
AM_BOR
 62
     1
 10
205.0
 20
240.5
 30
0.0
 11
200.0
 21
240.5
 31
0.0
  0
TEXT
  5
DF6
  8
AM_BOR
 62
     1
 10
200.9000000000000057
 20
215.5
 30
0.0
 40
4.0
  1
B
  7
ACISOTS
 72
     4
 11
202.5
 21
217.5
 31
0.0
  0
LINE
  5
DF7
  8
AM_BOR
 62
     1
 10
205.0
 20
194.5
 30
0.0
 11
200.0
 21
194.5
 31
0.0
  0
TEXT
  5
DF8
  8
AM_BOR
 62
     1
 10
201.1931980515340115
 20
169.5
 30
0.0
 40
4.0
  1
C
  7
ACISOTS
 72
     4
 11
202.5
 21
171.5
 31
0.0
  0
TEXT
  5
DF9
  8
AM_BOR
 62
     1
 10
200.7860912703474128
 20
123.5
 30
0.0
 40
4.0
  1
D
  7
ACISOTS
 72
     4
 11
202.5
 21
125.5
 31
0.0
  0
LINE
  5
DFA
  8
AM_BOR
 62
     1
 10
205.0
 20
102.5
 30
0.0
 11
200.0
 21
102.5
 31
0.0
  0
TEXT
  5
DFB
  8
AM_BOR
 62
     1
 10
201.0999999999999943
 20
77.5
 30
0.0
 40
4.0
  1
E
  7
ACISOTS
 72
     4
 11
202.5
 21
79.5
 31
0.0
  0
LINE
  5
DFC
  8
AM_BOR
 62
     1
 10
205.0
 20
56.5
 30
0.0
 11
200.0
 21
56.5
 31
0.0
  0
TEXT
  5
DFD
  8
AM_BOR
 62
     1
 10
201.0999999999999943
 20
31.5
 30
0.0
 40
4.0
  1
F
  7
ACISOTS
 72
     4
 11
202.5
 21
33.5
 31
0.0
  0
TEXT
  5
DFE
  8
AM_BOR
 62
     1
 10
32.75
 20
5.5
 30
0.0
 40
4.0
  1
1
  7
ACISOTS
 72
     4
 11
33.75
 21
7.5
 31
0.0
  0
TEXT
  5
DFF
  8
AM_BOR
 62
     1
 10
174.6500000000000057
 20
5.5
 30
0.0
 40
4.0
  1
4
  7
ACISOTS
 72
     4
 11
176.25
 21
7.5
 31
0.0
  0
TEXT
  5
E00
  8
0
 10
10.0
 20
73.5
 30
0.0
 40
6.0
  1
!GENTITLE-LL
  7
ACISOTS
  0
TEXT
  5
E01
  8
0
 10
200.0
 20
287.0
 30
0.0
 40
6.0
  1
!GENTITLE-RU
  7
ACISOTS
  0
TEXT
  5
E02
  8
0
 10
210.0
 20
297.0
 30
0.0
 40
6.0
  1
!GENTITLE-MAX
  7
ACISOTS
  0
TEXT
  5
E03
  8
0
 10
200.0
 20
10.0
 30
0.0
 40
6.0
  1
!GENTITLE-INSERT
  7
ACISOTS
  0
LINE
  5
E04
  8
AM_BOR
 62
     2
 10
105.0
 20
282.0
 30
0.0
 11
105.0
 21
292.0
 31
0.0
  0
LINE
  5
E05
  8
AM_BOR
 62
     1
 10
0.0
 20
297.0
 30
0.0
 11
210.0
 21
297.0
 31
0.0
  0
LINE
  5
E06
  8
AM_BOR
 62
     1
 10
210.0
 20
297.0
 30
0.0
 11
210.0
 21
0.0
 31
0.0
  0
LINE
  5
E07
  8
AM_BOR
 62
     1
 10
210.0
 20
0.0
 30
0.0
 11
0.0
 21
0.0
 31
0.0
  0
LINE
  5
E08
  8
AM_BOR
 62
     1
 10
0.0
 20
0.0
 30
0.0
 11
0.0
 21
297.0
 31
0.0
  0
ENDBLK
  5
E0B
  8
0
  0
BLOCK
  8
0
  2
A$C0FAF06CF
 70
     0
 10
0.0
 20
0.0
 30
0.0
  3
A$C0FAF06CF
  1

  0
INSERT
  5
E1A
  8
AM_8
  6
CONTINUOUS
 62
     1
  2
*U92
 10
0.0
 20
0.0
 30
0.0
1001
GENIUS_GENOBJ-N-HTC_13
1002
{
1000
OWNER
1000
GEN
1002
}
1001
GENIUS_GENODEF_13
1002
{
1000
HIER
1070
     0
1002
}
1002
{
1000
MANEDIT
1070
     0
1002
}
1002
{
1000
NOSEL
1070
     0
1002
}
1002
{
1000
BEHIND
1070
     0
1002
}
1002
{
1000
OTHER
1070
     0
1002
}
1002
{
1000
REACTOR
1002
}
1001
GENIUS_GENHATCH_13
1002
{
1000
DATA
1040
45.0
1042
7.5
1000
SOLID
1070
     0
1011
-8.3345301710770627
1021
0.0
1031
0.0
1021
0.4271496486029794
1031
0.0
1002
}
1002
{
1000
UCS
1010
0.0
1020
0.0
1030
0.0
1010
1.0
1020
0.0
1030
0.0
1010
0.0
1020
1.0
1030
0.0
1002
}
1001
ACAD
1002
{
1000
R14_HATCH_DATA
1000
E1A
1011
1.0
1021
0.0
1031
0.0
1021
0.0
1031
0.0
1011
0.0
1021
0.0
1031
0.0
1021
1.0
1031
0.0
1011
0.0
1021
0.0
1031
0.0
1021
0.0
1031
1.0
1040
0.0
1010
0.0
1020
0.0
1030
1.0
1000
SOLID
1070
     1
1070
     0
1071
        2
1071
        1
1071
        8
1070
     1
1040
-8.0135999999999683
1040
-2.4115000000004101
1040
8.0136000000000678
1040
-2.4115000000004141
1070
     2
1040
8.0136000000000536
1040
-1.773380000000512
1040
0.6381199999999012
1040
4.7123889803846888
1040
6.2831853071795862
1070
     1
1070
     1
1040
8.6517199999999548
1040
-1.773380000000512
1040
8.6517199999999672
1040
1.7733799999994859
1070
     2
1040
8.0136000000000251
1040
1.7733799999994291
1040
0.6381199999999581
1040
0.0000000000000891
1040
1.5707963267949181
1070
     1
1070
     1
1040
8.0135999999999967
1040
2.41149999999939
1040
-8.0135999999999967
1040
2.4114999999993869
1070
     2
1040
-8.0136000000000251
1040
1.773379999999436
1040
0.6381199999999509
1040
1.570796326794841
1040
3.1415926535897141
1070
     1
1070
     1
1040
-8.6517199999999832
1040
1.7733799999994859
1040
-8.6517199999999832
1040
-1.7733800000005051
1070
     2
1040
-8.0136000000000251
1040
-1.7733800000004569
1040
0.6381199999999509
1040
3.1415926535898682
1040
4.7123889803847669
1070
     1
1071
        0
1071
       16
1071
        8
1070
     1
1040
-7.4719399999999601
1040
2.092439999999486
1040
7.4719400000000169
1040
2.0924399999994789
1070
     2
1040
7.4719400000000462
1040
1.5507799999994789
1040
0.5416600000000003
1040
4.712388980384663
1040
6.283185307179572
1070
     0
1070
     1
1040
8.0136000000000251
1040
1.550779999999486
1040
8.0136000000000251
1040
-1.550780000000505
1070
     2
1040
7.4719400000000169
1040
-1.5507800000005021
1040
0.5416600000000074
1040
0.0000000000000062
1040
1.5707963267948959
1070
     0
1070
     1
1040
7.4719400000000169
1040
-2.0924400000005061
1040
-7.4719399999999601
1040
-2.0924400000005128
1070
     2
1040
-7.4719399999999601
1040
-1.550780000000505
1040
0.5416600000000074
1040
1.5707963267948959
1040
3.1415926535897931
1070
     0
1070
     1
1040
-8.0135999999999683
1040
-1.550780000000505
1040
-8.0135999999999683
1040
1.550779999999486
1070
     2
1040
-7.4719399999999601
1040
1.550779999999486
1040
0.5416600000000003
1040
3.1415926535897931
1040
4.7123889803846888
1070
     0
1071
        0
1070
     0
1070
     1
1071
        1
1040
-61.4500000383645784
1040
-14.0000000000005098
1040
0.0
1002
}
  0
INSERT
  5
E1B
  8
AM_8
  6
CONTINUOUS
 62
     1
  2
*U93
 10
0.0
 20
0.0
 30
0.0
1001
GENIUS_GENOBJ-N-HTC_13
1002
{
1000
OWNER
1000
GEN
1002
}
1001
GENIUS_GENODEF_13
1002
{
1000
HIER
1070
     0
1002
}
1002
{
1000
MANEDIT
1070
     0
1002
}
1002
{
1000
NOSEL
1070
     0
1002
}
1002
{
1000
BEHIND
1070
     0
1002
}
1002
{
1000
OTHER
1070
     0
1002
}
1002
{
1000
REACTOR
1002
}
1001
GENIUS_GENHATCH_13
1002
{
1000
DATA
1040
45.0
1042
7.5
1000
SOLID
1070
     0
1011
-6.4624280318400329
1021
0.0
1031
0.0
1021
0.5768591031726107
1031
0.0
1002
}
1002
{
1000
UCS
1010
0.0
1020
0.0
1030
0.0
1010
1.0
1020
0.0
1030
0.0
1010
0.0
1020
1.0
1030
0.0
1002
}
1001
ACAD
1002
{
1000
R14_HATCH_DATA
1000
E1B
1011
1.0
1021
0.0
1031
0.0
1021
0.0
1031
0.0
1011
0.0
1021
0.0
1031
0.0
1021
1.0
1031
0.0
1011
0.0
1021
0.0
1031
0.0
1021
0.0
1031
1.0
1040
0.0
1010
0.0
1020
0.0
1030
1.0
1000
SOLID
1070
     1
1070
     0
1071
        1
1071
        1
1071
        8
1070
     1
1040
-5.4536999999999694
1040
0.5935999999994924
1040
-5.4536999999999694
1040
1.0387999999994919
1070
     1
1040
-5.4536999999999694
1040
1.0387999999994919
1040
-7.5312999999999866
1040
1.0387999999994919
1070
     1
1040
-7.5312999999999866
1040
1.0387999999994919
1040
-7.5312999999999866
1040
0.5935999999994924
1070
     1
1040
-7.5312999999999866
1040
0.5935999999994924
1040
-6.7596199999999831
1040
0.5935999999994924
1070
     1
1040
-6.7596199999999831
1040
0.5935999999994924
1040
-6.7596199999999831
1040
-1.224300000000516
1070
     1
1040
-6.7596199999999831
1040
-1.224300000000516
1040
-6.2253799999999719
1040
-1.224300000000516
1070
     1
1040
-6.2253799999999719
1040
-1.224300000000516
1040
-6.2253799999999719
1040
0.5935999999994924
1070
     1
1040
-6.2253799999999719
1040
0.5935999999994924
1040
-5.4536999999999694
1040
0.5935999999994924
1071
        0
1070
     0
1070
     1
1071
        1
1040
-61.4500000383645784
1040
-14.0000000000005098
1040
0.0
1002
}
  0
INSERT
  5
E1C
  8
AM_8
  6
CONTINUOUS
 62
     1
  2
*U94
 10
0.0
 20
0.0
 30
0.0
1001
GENIUS_GENOBJ-N-HTC_13
1002
{
1000
OWNER
1000
GEN
1002
}
1001
GENIUS_GENODEF_13
1002
{
1000
HIER
1070
     0
1002
}
1002
{
1000
MANEDIT
1070
     0
1002
}
1002
{
1000
NOSEL
1070
     0
1002
}
1002
{
1000
BEHIND
1070
     0
1002
}
1002
{
1000
OTHER
1070
     0
1002
}
1002
{
1000
REACTOR
1002
}
1001
GENIUS_GENHATCH_13
1002
{
1000
DATA
1040
45.0
1042
7.5
1000
SOLID
1070
     0
1011
-4.9273040730688527
1021
0.0
1031
0.0
1021
0.3710085226645976
1031
0.0
1002
}
1002
{
1000
UCS
1010
0.0
1020
0.0
1030
0.0
1010
1.0
1020
0.0
1030
0.0
1010
0.0
1020
1.0
1030
0.0
1002
}
1001
ACAD
1002
{
1000
R14_HATCH_DATA
1000
E1C
1011
1.0
1021
0.0
1031
0.0
1021
0.0
1031
0.0
1011
0.0
1021
0.0
1031
0.0
1021
1.0
1031
0.0
1011
0.0
1021
0.0
1031
0.0
1021
0.0
1031
1.0
1040
0.0
1010
0.0
1020
0.0
1030
1.0
1000
SOLID
1070
     1
1070
     0
1071
        2
1071
        1
1071
        8
1070
     1
1040
-5.2640491147540436
1040
-1.224300000000516
1040
-5.0842175081966721
1040
-0.734580000000511
1070
     1
1040
-5.0842175081966721
1040
-0.734580000000511
1040
-4.1611024918032617
1040
-0.734580000000511
1070
     1
1040
-4.1611024918032617
1040
-0.734580000000511
1040
-3.9812708852458911
1040
-1.224300000000516
1070
     1
1040
-3.981270885245876
1040
-1.224300000000516
1040
-3.4206199999999711
1040
-1.224300000000516
1070
     1
1040
-3.4206199999999711
1040
-1.224300000000516
1040
-4.2516599999999576
1040
1.0387999999994919
1070
     1
1040
-4.2516599999999576
1040
1.0387999999994919
1040
-4.9936599999999771
1040
1.0387999999994919
1070
     1
1040
-4.9936599999999771
1040
1.0387999999994919
1040
-5.8246999999999503
1040
-1.224300000000516
1070
     1
1040
-5.8246999999999503
1040
-1.224300000000516
1040
-5.2640491147540436
1040
-1.224300000000516
1071
        0
1071
       16
1071
        3
1070
     1
1040
-4.332759934426206
1040
-0.2671200000005083
1040
-4.9125600655737278
1040
-0.2671200000005083
1070
     1
1040
-4.9125600655737278
1040
-0.2671200000005083
1040
-4.6226599999999669
1040
0.5223399999994971
1070
     1
1040
-4.6226599999999669
1040
0.5223399999994971
1040
-4.332759934426206
1040
-0.2671200000005083
1071
        0
1070
     0
1070
     1
1071
        1
1040
-61.4500000383645784
1040
-14.0000000000005098
1040
0.0
1002
}
  0
INSERT
  5
E1D
  8
AM_8
  6
CONTINUOUS
 62
     1
  2
*U95
 10
0.0
 20
0.0
 30
0.0
1001
GENIUS_GENOBJ-N-HTC_13
1002
{
1000
OWNER
1000
GEN
1002
}
1001
GENIUS_GENODEF_13
1002
{
1000
HIER
1070
     0
1002
}
1002
{
1000
MANEDIT
1070
     0
1002
}
1002
{
1000
NOSEL
1070
     0
1002
}
1002
{
1000
BEHIND
1070
     0
1002
}
1002
{
1000
OTHER
1070
     0
1002
}
1002
{
1000
REACTOR
1002
}
1001
GENIUS_GENHATCH_13
1002
{
1000
DATA
1040
45.0
1042
7.5
1000
SOLID
1070
     0
1011
-2.8867126731015551
1021
0.0
1031
0.0
1021
0.3335813199717013
1031
0.0
1002
}
1002
{
1000
UCS
1010
0.0
1020
0.0
1030
0.0
1010
1.0
1020
0.0
1030
0.0
1010
0.0
1020
1.0
1030
0.0
1002
}
1001
ACAD
1002
{
1000
R14_HATCH_DATA
1000
E1D
1011
1.0
1021
0.0
1031
0.0
1021
0.0
1031
0.0
1011
0.0
1021
0.0
1031
0.0
1021
1.0
1031
0.0
1011
0.0
1021
0.0
1031
0.0
1021
0.0
1031
1.0
1040
0.0
1010
0.0
1020
0.0
1030
1.0
1000
SOLID
1070
     1
1070
     0
1071
        1
1071
        1
1071
       12
1070
     1
1040
-3.1460799999999831
1040
1.0387999999994919
1040
-3.1460799999999831
1040
-1.224300000000516
1070
     1
1040
-3.1460799999999831
1040
-1.224300000000516
1040
-2.6711999999999421
1040
-1.224300000000516
1070
     1
1040
-2.6711999999999421
1040
-1.224300000000516
1040
-2.6711999999999421
1040
-0.6184186206901412
1070
     1
1040
-2.6711999999999421
1040
-0.6184186206901412
1040
-2.193432261217481
1040
-0.1027759420753025
1070
     1
1040
-2.193432261217481
1040
-0.1027759420753025
1040
-1.5201494468004171
1040
-1.224300000000516
1070
     1
1040
-1.5201494468004171
1040
-1.224300000000516
1040
-0.9571799999999939
1040
-1.224300000000516
1070
     1
1040
-0.9571799999999939
1040
-1.224300000000516
1040
-1.851807874889672
1040
0.2659306476478651
1070
     1
1040
-1.851807874889658
1040
0.2659306476478651
1040
-1.1357072529643939
1040
1.0387999999994919
1070
     1
1040
-1.1357072529644081
1040
1.0387999999994919
1040
-1.7882793805803769
1040
1.0387999999994919
1070
     1
1040
-1.7882793805803769
1040
1.0387999999994919
1040
-2.6711999999999421
1040
0.085886028951558
1070
     1
1040
-2.6711999999999421
1040
0.085886028951558
1040
-2.6711999999999421
1040
1.0387999999994919
1070
     1
1040
-2.6711999999999421
1040
1.0387999999994919
1040
-3.1460799999999831
1040
1.0387999999994919
1071
        0
1070
     0
1070
     1
1071
        1
1040
-61.4500000383645784
1040
-14.0000000000005098
1040
0.0
1002
}
  0
INSERT
  5
E1E
  8
AM_8
  6
CONTINUOUS
 62
     1
  2
*U96
 10
0.0
 20
0.0
 30
0.0
1001
GENIUS_GENOBJ-N-HTC_13
1002
{
1000
OWNER
1000
GEN
1002
}
1001
GENIUS_GENODEF_13
1002
{
1000
HIER
1070
     0
1002
}
1002
{
1000
MANEDIT
1070
     0
1002
}
1002
{
1000
NOSEL
1070
     0
1002
}
1002
{
1000
BEHIND
1070
     0
1002
}
1002
{
1000
OTHER
1070
     0
1002
}
1002
{
1000
REACTOR
1002
}
1001
GENIUS_GENHATCH_13
1002
{
1000
DATA
1040
45.0
1042
7.5
1000
SOLID
1070
     0
1011
0.2209771508276503
1021
0.0
1031
0.0
1021
0.4832907745413611
1031
0.0
1002
}
1002
{
1000
UCS
1010
0.0
1020
0.0
1030
0.0
1010
1.0
1020
0.0
1030
0.0
1010
0.0
1020
1.0
1030
0.0
1002
}
1001
ACAD
1002
{
1000
R14_HATCH_DATA
1000
E1E
1011
1.0
1021
0.0
1031
0.0
1021
0.0
1031
0.0
1011
0.0
1021
0.0
1031
0.0
1021
1.0
1031
0.0
1011
0.0
1021
0.0
1031
0.0
1021
0.0
1031
1.0
1040
0.0
1010
0.0
1020
0.0
1030
1.0
1000
SOLID
1070
     1
1070
     0
1071
        2
1071
        1
1071
        8
1070
     1
1040
-0.1961891147540484
1040
-1.224300000000516
1040
-0.0163575081966769
1040
-0.734580000000511
1070
     1
1040
-0.0163575081966769
1040
-0.734580000000511
1040
0.9067575081967333
1040
-0.734580000000511
1070
     1
1040
0.9067575081967476
1040
-0.734580000000511
1040
1.0865891147541189
1040
-1.224300000000516
1070
     1
1040
1.0865891147541189
1040
-1.224300000000516
1040
1.64724000000001
1040
-1.224300000000516
1070
     1
1040
1.64724000000001
1040
-1.224300000000516
1040
0.8162000000000375
1040
1.0387999999994919
1070
     1
1040
0.8162000000000375
1040
1.0387999999994919
1040
0.0742000000000189
1040
1.0387999999994919
1070
     1
1040
0.0742000000000189
1040
1.0387999999994919
1040
-0.7568399999999543
1040
-1.224300000000516
1070
     1
1040
-0.7568399999999543
1040
-1.224300000000516
1040
-0.1961891147540484
1040
-1.224300000000516
1071
        0
1071
       16
1071
        3
1070
     1
1040
0.7351000655737892
1040
-0.2671200000005083
1040
0.1552999344262673
1040
-0.2671200000005083
1070
     1
1040
0.1552999344262673
1040
-0.2671200000005083
1040
0.4452000000000283
1040
0.5223399999994971
1070
     1
1040
0.4452000000000283
1040
0.5223399999994971
1040
0.7351000655737892
1040
-0.2671200000005083
1071
        0
1070
     0
1070
     1
1071
        1
1040
-61.4500000383645784
1040
-14.0000000000005098
1040
0.0
1002
}
  0
INSERT
  5
E1F
  8
AM_8
  6
CONTINUOUS
 62
     1
  2
*U97
 10
0.0
 20
0.0
 30
0.0
1001
GENIUS_GENOBJ-N-HTC_13
1002
{
1000
OWNER
1000
GEN
1002
}
1001
GENIUS_GENODEF_13
1002
{
1000
HIER
1070
     0
1002
}
1002
{
1000
MANEDIT
1070
     0
1002
}
1002
{
1000
NOSEL
1070
     0
1002
}
1002
{
1000
BEHIND
1070
     0
1002
}
1002
{
1000
OTHER
1070
     0
1002
}
1002
{
1000
REACTOR
1002
}
1001
GENIUS_GENHATCH_13
1002
{
1000
DATA
1040
45.0
1042
7.5
1000
SOLID
1070
     0
1011
1.99947418310279
1021
0.0
1031
0.0
1021
0.3148676113255835
1031
0.0
1002
}
1002
{
1000
UCS
1010
0.0
1020
0.0
1030
0.0
1010
1.0
1020
0.0
1030
0.0
1010
0.0
1020
1.0
1030
0.0
1002
}
1001
ACAD
1002
{
1000
R14_HATCH_DATA
1000
E1F
1011
1.0
1021
0.0
1031
0.0
1021
0.0
1031
0.0
1011
0.0
1021
0.0
1031
0.0
1021
1.0
1031
0.0
1011
0.0
1021
0.0
1031
0.0
1021
0.0
1031
1.0
1040
0.0
1010
0.0
1020
0.0
1030
1.0
1000
SOLID
1070
     1
1070
     0
1071
        1
1071
        1
1071
        4
1070
     3
1040
2.878960000000006
1040
-0.0927500000005264
1040
0.0
1040
0.7271600000000495
1040
0.8673469387754511
1040
5.3171634509141077
1040
10.6362270746835996
1070
     1
1070
     1
1040
3.4693750367408711
1040
-0.3484654247793539
1040
3.9411350085555901
1040
-0.5527900000005097
1070
     2
1040
2.878960000000006
1040
-0.0927500000005122
1040
1.1575200000000261
1040
0.4087208830625935
1040
5.6103514419556904
1070
     0
1070
     1
1040
3.7842086214861861
1040
0.6286219454599618
1040
3.3977929613183728
1040
0.3206961337928842
1071
        0
1070
     0
1070
     1
1071
        1
1040
-61.4500000383645784
1040
-14.0000000000005098
1040
0.0
1002
}
  0
INSERT
  5
E20
  8
AM_8
  6
CONTINUOUS
 62
     1
  2
*U98
 10
0.0
 20
0.0
 30
0.0
1001
GENIUS_GENOBJ-N-HTC_13
1002
{
1000
OWNER
1000
GEN
1002
}
1001
GENIUS_GENODEF_13
1002
{
1000
HIER
1070
     0
1002
}
1002
{
1000
MANEDIT
1070
     0
1002
}
1002
{
1000
NOSEL
1070
     0
1002
}
1002
{
1000
BEHIND
1070
     0
1002
}
1002
{
1000
OTHER
1070
     0
1002
}
1002
{
1000
REACTOR
1002
}
1001
GENIUS_GENHATCH_13
1002
{
1000
DATA
1040
45.0
1042
7.5
1000
SOLID
1070
     0
1011
4.5829752716477401
1021
0.0
1031
0.0
1021
0.4271496486029794
1031
0.0
1002
}
1002
{
1000
UCS
1010
0.0
1020
0.0
1030
0.0
1010
1.0
1020
0.0
1030
0.0
1010
0.0
1020
1.0
1030
0.0
1002
}
1001
ACAD
1002
{
1000
R14_HATCH_DATA
1000
E20
1011
1.0
1021
0.0
1031
0.0
1021
0.0
1031
0.0
1011
0.0
1021
0.0
1031
0.0
1021
1.0
1031
0.0
1011
0.0
1021
0.0
1031
0.0
1021
0.0
1031
1.0
1040
0.0
1010
0.0
1020
0.0
1030
1.0
1000
SOLID
1070
     1
1070
     0
1071
        1
1071
        1
1071
       12
1070
     1
1040
4.3047150085556041
1040
1.0387999999994919
1040
4.3047150085556041
1040
-1.224300000000516
1070
     1
1040
4.3047150085556041
1040
-1.224300000000516
1040
4.7758850085555764
1040
-1.224300000000516
1070
     1
1040
4.7758850085555764
1040
-1.224300000000516
1040
4.7758850085555764
1040
-0.315350000000512
1070
     1
1040
4.7758850085555764
1040
-0.315350000000512
1040
5.8295250085556063
1040
-0.315350000000512
1070
     1
1040
5.8295250085556063
1040
-0.315350000000512
1040
5.8295250085556063
1040
-1.224300000000516
1070
     1
1040
5.8295250085556063
1040
-1.224300000000516
1040
6.3006950085555777
1040
-1.224300000000516
1070
     1
1040
6.3006950085555777
1040
-1.224300000000516
1040
6.3006950085555777
1040
1.0387999999994919
1070
     1
1040
6.3006950085555777
1040
1.0387999999994919
1040
5.8295250085556063
1040
1.0387999999994919
1070
     1
1040
5.8295250085556063
1040
1.0387999999994919
1040
5.8295250085556063
1040
0.1298499999994878
1070
     1
1040
5.8295250085556063
1040
0.1298499999994878
1040
4.7758850085555764
1040
0.1298499999994878
1070
     1
1040
4.7758850085555764
1040
0.1298499999994878
1040
4.7758850085555764
1040
1.0387999999994919
1070
     1
1040
4.7758850085555764
1040
1.0387999999994919
1040
4.3047150085556041
1040
1.0387999999994919
1071
        0
1070
     0
1070
     1
1071
        1
1040
-61.4500000383645784
1040
-14.0000000000005098
1040
0.0
1002
}
  0
INSERT
  5
E21
  8
AM_8
  6
CONTINUOUS
 62
     1
  2
*U99
 10
0.0
 20
0.0
 30
0.0
1001
GENIUS_GENOBJ-N-HTC_13
1002
{
1000
OWNER
1000
GEN
1002
}
1001
GENIUS_GENODEF_13
1002
{
1000
HIER
1070
     0
1002
}
1002
{
1000
MANEDIT
1070
     0
1002
}
1002
{
1000
NOSEL
1070
     0
1002
}
1002
{
1000
BEHIND
1070
     0
1002
}
1002
{
1000
OTHER
1070
     0
1002
}
1002
{
1000
REACTOR
1002
}
1001
GENIUS_GENHATCH_13
1002
{
1000
DATA
1040
45.0
1042
7.5
1000
SOLID
1070
     0
1011
6.9979870994624198
1021
0.0
1031
0.0
1021
0.4271496486029794
1031
0.0
1002
}
1002
{
1000
UCS
1010
0.0
1020
0.0
1030
0.0
1010
1.0
1020
0.0
1030
0.0
1010
0.0
1020
1.0
1030
0.0
1002
}
1001
ACAD
1002
{
1000
R14_HATCH_DATA
1000
E21
1011
1.0
1021
0.0
1031
0.0
1021
0.0
1031
0.0
1011
0.0
1021
0.0
1031
0.0
1021
1.0
1031
0.0
1011
0.0
1021
0.0
1031
0.0
1021
0.0
1031
1.0
1040
0.0
1010
0.0
1020
0.0
1030
1.0
1000
SOLID
1070
     1
1070
     0
1071
        1
1071
        1
1071
        4
1070
     1
1040
7.2801350085555887
1040
-1.224300000000516
1040
7.2801350085555887
1040
1.0387999999994919
1070
     1
1040
7.2801350085555887
1040
1.0387999999994919
1040
6.8052550085556041
1040
1.0387999999994919
1070
     1
1040
6.8052550085556041
1040
1.0387999999994919
1040
6.8052550085556041
1040
-1.224300000000516
1070
     1
1040
6.8052550085556041
1040
-1.224300000000516
1040
7.2801350085555887
1040
-1.224300000000516
1071
        0
1070
     0
1070
     1
1071
        1
1040
-61.4500000383645784
1040
-14.0000000000005098
1040
0.0
1002
}
  0
ENDBLK
  5
E22
  8
0
  0
BLOCK
  8
0
  2
_ACMNONE
 70
     0
 10
0.0
 20
0.0
 30
0.0
  3
_ACMNONE
  1

  0
LINE
  5
E25
  8
0
 62
     0
 10
-1.0
 20
0.0
 30
0.0
 11
0.0
 21
0.0
 31
0.0
  0
ENDBLK
  5
E26
  8
0
  0
BLOCK
  8
0
  2
_ACMOPEN15
 70
     0
 10
0.0
 20
0.0
 30
0.0
  3
_ACMOPEN15
  1

  0
LINE
  5
E29
  8
0
 62
     0
 10
-1.0
 20
0.0
 30
0.0
 11
0.0
 21
0.0
 31
0.0
  0
LINE
  5
E2A
  8
0
 62
     0
 10
-1.0
 20
-0.131652497
 30
0.0
 11
0.0
 21
0.0
 31
0.0
  0
LINE
  5
E2B
  8
0
 62
     0
 10
0.0
 20
0.0
 30
0.0
 11
-1.0
 21
0.131652497
 31
0.0
  0
ENDBLK
  5
E2C
  8
0
  0
BLOCK
  8
0
  2
TK-仕様書_和英併記__221115
 70
     2
 10
0.0
 20
0.0
 30
0.0
  3
TK-仕様書_和英併記__221115
  1

  0
LINE
  5
E30
  8
0
 10
0.0
 20
6.0
 30
0.0
 11
-193.0
 21
6.0
 31
0.0
  0
INSERT
  5
E31
  8
0
  2
*U100
 10
0.0
 20
0.0
 30
0.0
  0
INSERT
  5
E32
  8
0
  2
*U101
 10
0.0
 20
0.0
 30
0.0
  0
INSERT
  5
E33
  8
0
  2
*U102
 10
0.0
 20
0.0
 30
0.0
  0
LINE
  5
E34
  8
0
 10
0.0
 20
41.0
 30
0.0
 11
0.0
 21
0.0
 31
0.0
  0
LINE
  5
E35
  8
0
 10
0.0
 20
41.0
 30
0.0
 11
-193.0
 21
41.0
 31
0.0
  0
INSERT
  5
E36
  8
0
  2
*U103
 10
0.0
 20
0.0
 30
0.0
  0
LINE
  5
E37
  8
0
 10
-193.0
 20
41.0
 30
0.0
 11
-193.0
 21
0.0
 31
0.0
  0
LINE
  5
E38
  8
0
 10
-118.0
 20
41.0
 30
0.0
 11
-118.0
 21
6.0
 31
0.0
  0
LINE
  5
E39
  8
0
 10
-168.0000000000001137
 20
25.9999999999999396
 30
0.0
 11
-168.0
 21
12.0
 31
0.0
  0
LINE
  5
E3A
  8
0
 10
-143.0000000000001137
 20
25.9999999999999396
 30
0.0
 11
-143.0000000000001137
 21
12.0
 31
0.0
  0
ATTDEF
  5
E3B
  8
0
 10
-155.5000000000001137
 20
16.8380177036397995
 30
0.0
 40
2.5
  1

 72
     4
 11
-155.5000000000001137
 21
16.8380177036397995
 31
0.0
  3
検図
  2
検図
 70
     0
  0
ATTDEF
  5
E3C
  8
0
 10
-130.5000000000001137
 20
16.8380177036397995
 30
0.0
 40
2.5
  1

 72
     4
 11
-130.5000000000001137
 21
16.8380177036397995
 31
0.0
  3
製図
  2
製図
 70
     0
  0
ATTDEF
  5
E3D
  8
0
 10
-180.7195176573868025
 20
16.8380177036397995
 30
0.0
 40
2.5
  1

 72
     4
 11
-180.7195176573868025
 21
16.8380177036397995
 31
0.0
  3
承認
  2
承認
 70
     0
  0
INSERT
  5
E3E
  8
0
  2
*U104
 10
0.0
 20
0.0
 30
0.0
  0
INSERT
  5
E3F
  8
0
  2
A$C0FAF06CF
 10
-181.6455717699872139
 20
34.6878172588832498
 30
0.0
 41
0.9599999999999999
 42
0.9599999999999999
 43
0.9599999999999999
  0
LINE
  5
E40
  8
0
 10
-37.0000000000001208
 20
12.0
 30
0.0
 11
-193.0
 21
11.9999999999999893
 31
0.0
  0
INSERT
  5
E41
  8
0
  2
*U105
 10
0.0
 20
0.0
 30
0.0
  0
INSERT
  5
E42
  8
0
  2
*U106
 10
0.0
 20
0.0
 30
0.0
  0
LINE
  5
E43
  8
0
 10
-37.0
 20
41.0
 30
0.0
 11
-37.0
 21
6.0
 31
0.0
  0
ATTDEF
  5
E44
  8
0
 10
-110.0
 20
31.7499999999999396
 30
0.0
 40
3.0
  1

 11
-110.0
 21
33.2499999999999432
 31
0.0
  3
品名
  2
品名
 70
     0
 74
     2
  0
ATTDEF
  5
E45
  8
0
 10
-110.0
 20
15.3380177036397995
 30
0.0
 40
3.0
  1

 11
-110.0
 21
16.8380177036397995
 31
0.0
  3
型番
  2
型番
 70
     0
 74
     2
  0
ATTDEF
  5
E46
  8
0
 10
-110.0
 20
26.9999999999999396
 30
0.0
 40
2.5
  1

 11
-110.0
 21
28.2499999999999396
 31
0.0
  3
Title
  2
TITLE
 70
     0
 74
     2
  0
LINE
  5
E47
  8
0
 10
-37.0
 20
28.0
 30
0.0
 11
0.0
 21
28.0
 31
0.0
  0
LINE
  5
E48
  8
0
 10
-37.0
 20
17.0
 30
0.0
 11
0.0
 21
17.0
 31
0.0
  0
LINE
  5
E49
  8
0
 10
-193.0
 20
25.9999999999999396
 30
0.0
 11
-37.0
 21
25.9999999999999396
 31
0.0
  0
LINE
  5
E4A
  8
0
 10
-9.5
 20
37.5
 30
0.0
 11
-9.5
 21
31.5
 31
0.0
  0
LINE
  5
E4B
  8
7A
 10
-24.5
 20
34.5
 30
0.0
 11
-24.5
 21
30.7899172422847904
 31
0.0
1001
GENIUS_GENOREF_13
1005
E54
  0
LINE
  5
E4C
  8
7A
 10
-24.5
 20
34.5
 30
0.0
 11
-28.5
 21
34.5
 31
0.0
1001
GENIUS_GENOREF_13
1005
E54
  0
LINE
  5
E4D
  8
0
 10
-17.5
 20
32.5
 30
0.0
 11
-17.5
 21
36.5
 31
0.0
  0
CIRCLE
  5
E4E
  8
0
 10
-24.5
 20
34.5
 30
0.0
 40
3.0
  0
CIRCLE
  5
E4F
  8
0
 10
-24.5
 20
34.5
 30
0.0
 40
2.0
  0
LINE
  5
E50
  8
7A
 10
-24.5
 20
34.5
 30
0.0
 11
-24.5
 21
38.0747866447314891
 31
0.0
1001
GENIUS_GENOREF_13
1005
E54
  0
LINE
  5
E51
  8
0
 10
-9.5
 20
31.5
 30
0.0
 11
-17.5
 21
32.5
 31
0.0
  0
LINE
  5
E52
  8
0
 10
-17.5
 20
36.5
 30
0.0
 11
-9.5
 21
37.5
 31
0.0
  0
LINE
  5
E53
  8
7A
 10
-23.5
 20
34.5
 30
0.0
 11
-8.5
 21
34.5
 31
0.0
1001
GENIUS_GENOREF_13
1005
E54
  0
POINT
  5
E54
  8
0
 10
-216.8350176804993907
 20
-247.602257536151086
 30
0.0
1001
GENIUS_GENODEF_13
1002
{
1000
HIER
1070
    10
1002
}
1002
{
1000
MANEDIT
1070
     0
1002
}
1002
{
1000
NOSEL
1070
     0
1002
}
1002
{
1000
BEHIND
1070
     0
1002
}
1002
{
1000
REACTOR
1002
}
1001
GENIUS_GENOBJ-N-CRS_13
1002
{
1000
OWNER
1000
GEN
1002
}
1001
GENIUS_GENOENT_13
1002
{
1000
MYREF
1005
E54
1002
}
1002
{
1000
GRP
1005
0
1002
}
1001
GENIUS_GENOLIS_13
1002
{
1000
ENT
1005
E4B
1005
E4C
1005
E50
1005
E53
1002
}
  0
INSERT
  5
E55
  8
0
  2
*U107
 10
0.0
 20
0.0
 30
0.0
  0
INSERT
  5
E56
  8
0
  2
*U108
 10
0.0
 20
0.0
 30
0.0
  0
ATTDEF
  5
E57
  8
0
 10
-81.5
 20
9.0
 30
0.0
 40
2.5
  1

 72
     4
 11
-81.5
 21
9.0
 31
0.0
  3
作成日
  2
GEN-TITLE-DAT
 70
     0
  0
ATTDEF
  5
E58
  8
0
 10
-18.5
 20
20.6505177036398386
 30
0.0
 40
2.5
  1

 72
     4
 11
-18.5
 21
20.6505177036398386
 31
0.0
  3
尺度
  2
GEN-TITLE-SCA
 70
     0
  0
ATTDEF
  5
E59
  8
0
 10
-23.0
 20
9.2927130952552801
 30
0.0
 40
3.0
  1

 72
     4
 11
-23.0
 21
9.2927130952552801
 31
0.0
  3
ページNo.
  2
ページNO.
 70
     0
  0
INSERT
  5
E5A
  8
0
  2
*U109
 10
0.0
 20
0.0
 30
0.0
  0
ATTDEF
  5
E5B
  8
0
 10
-14.0
 20
9.2927130952552801
 30
0.0
 40
3.0
  1

 72
     4
 11
-14.0
 21
9.2927130952552801
 31
0.0
  3
総ページ数
  2
総ページ数
 70
     0
  0
INSERT
  5
E5C
  8
0
  2
*U110
 10
0.0
 20
0.0
 30
0.0
  0
LINE
  5
E5D
  8
0
 10
0.0
 20
0.0
 30
0.0
 11
-193.0
 21
0.0
 31
0.0
  0
INSERT
  5
E5E
  8
0
  2
*U111
 10
0.0
 20
0.0
 30
0.0
  0
ATTDEF
  5
E60
  8
0
 10
-155.5
 20
9.0
 30
0.0
 40
2.5
  1

 72
     4
 11
-155.5
 21
9.0
 31
0.0
  3
部品サイズ
  2
部品サイズ
 70
     0
  0
ENDBLK
  5
E64
  8
0
  0
BLOCK
  8
0
  2
*D19
 70
     1
 10
0.0
 20
0.0
 30
0.0
  3
*D19
  1

  0
LINE
  5
2048
  8
AM_5
 62
     3
 10
54.4064582950990427
 20
73.3237860825987013
 30
0.0
 11
60.4064582950994406
 21
73.3237860825987013
 31
0.0
  0
LINE
  5
2049
  8
AM_5
 62
     3
 10
54.4064582950990427
 20
66.3237860825987013
 30
0.0
 11
60.4064582950994406
 21
66.3237860825987013
 31
0.0
  0
LINE
  5
204A
  8
AM_5
 62
     3
 10
59.9064582950994406
 20
72.0737860825987013
 30
0.0
 11
59.9064582950994406
 21
67.5737860825987013
 31
0.0
  0
INSERT
  5
204B
  8
AM_5
 62
     3
  2
_OPEN30
 10
59.9064582950994406
 20
73.3237860825987013
 30
0.0
 41
1.25
 42
1.25
 43
1.25
 50
90.0
  0
INSERT
  5
204C
  8
AM_5
 62
     3
  2
_OPEN30
 10
59.9064582950994406
 20
66.3237860825987013
 30
0.0
 41
1.25
 42
1.25
 43
1.25
 50
270.0
  0
INSERT
  5
204D
  8
0
  2
*U125
 10
0.0
 20
0.0
 30
0.0
  0
POINT
  5
204E
  8
DEFPOINTS
 62
     0
 10
53.9064582950990427
 20
73.3237860825987013
 30
0.0
  0
POINT
  5
204F
  8
DEFPOINTS
 62
     0
 10
53.9064582950990427
 20
66.3237860825987013
 30
0.0
  0
POINT
  5
2050
  8
DEFPOINTS
 62
     0
 10
59.9064582950994406
 20
66.3237860825987013
 30
0.0
  0
ENDBLK
  5
1E1D
  8
0
  0
BLOCK
  8
0
  2
*D20
 70
     1
 10
0.0
 20
0.0
 30
0.0
  3
*D20
  1

  0
LINE
  5
2278
  8
AM_5
 62
     3
 10
54.9479101794263798
 20
97.5737860825987298
 30
0.0
 11
60.9479101794268203
 21
97.5737860825987298
 31
0.0
  0
LINE
  5
2279
  8
AM_5
 62
     3
 10
54.9479101794263798
 20
87.5737860825987013
 30
0.0
 11
60.9479101794268203
 21
87.5737860825987013
 31
0.0
  0
LINE
  5
227A
  8
AM_5
 62
     3
 10
60.4479101794268203
 20
96.3237860825987298
 30
0.0
 11
60.4479101794268203
 21
88.8237860825987013
 31
0.0
  0
INSERT
  5
227B
  8
AM_5
 62
     3
  2
_OPEN30
 10
60.4479101794268203
 20
97.5737860825987298
 30
0.0
 41
1.25
 42
1.25
 43
1.25
 50
90.0
  0
INSERT
  5
227C
  8
AM_5
 62
     3
  2
_OPEN30
 10
60.4479101794268203
 20
87.5737860825987013
 30
0.0
 41
1.25
 42
1.25
 43
1.25
 50
270.0
  0
INSERT
  5
227D
  8
0
  2
*U127
 10
0.0
 20
0.0
 30
0.0
  0
POINT
  5
227E
  8
DEFPOINTS
 62
     0
 10
54.4479101794263798
 20
97.5737860825987298
 30
0.0
  0
POINT
  5
227F
  8
DEFPOINTS
 62
     0
 10
54.4479101794263798
 20
87.5737860825987013
 30
0.0
  0
POINT
  5
2280
  8
DEFPOINTS
 62
     0
 10
60.4479101794268203
 20
87.5737860825987013
 30
0.0
  0
ENDBLK
  5
1F94
  8
0
  0
BLOCK
  8
0
  2
*D21
 70
     1
 10
0.0
 20
0.0
 30
0.0
  3
*D21
  1

  0
LINE
  5
217A
  8
AM_5
 62
     3
 10
47.9813508401149917
 20
71.6734762814646729
 30
0.0
 11
43.9375725536661008
 21
74.75776726719414
 31
0.0
  0
LINE
  5
217B
  8
AM_5
 62
     3
 10
43.9375725536661008
 20
74.75776726719414
 30
0.0
 11
40.7375725536660909
 21
74.75776726719414
 31
0.0
  0
INSERT
  5
217C
  8
AM_5
 62
     3
  2
_OPEN30
 10
48.9752473380592193
 20
70.91540652783101
 30
0.0
 41
1.25
 42
1.25
 43
1.25
 50
322.6663267259713166
  0
INSERT
  5
217D
  8
0
  2
*U126
 10
0.0
 20
0.0
 30
0.0
  0
POINT
  5
217E
  8
DEFPOINTS
 62
     0
 10
48.9752473380592193
 20
70.91540652783101
 30
0.0
  0
POINT
  5
217F
  8
DEFPOINTS
 62
     0
 10
51.8376692521386104
 20
68.7321656373660517
 30
0.0
  0
ENDBLK
  5
20D2
  8
0
  0
BLOCK
  8
0
  2
*S22
 70
     1
 10
0.0
 20
0.0
 30
0.0
  3
*S22
  1

  0
CIRCLE
  5
24F4
  8
AM_12
 62
     4
 10
52.8632163058189235
 20
95.7527978450673771
 30
0.0
 40
0.875
  0
LINE
  5
24F5
  8
AM_12
 62
     4
 10
51.9882163058189306
 20
94.8777978450674055
 30
0.0
 11
53.7382163058189235
 21
96.6277978450673913
 31
0.0
  0
LINE
  5
24F6
  8
AM_12
 62
     4
 10
51.9882163058189306
 20
96.6277978450673913
 30
0.0
 11
53.7382163058189235
 21
94.8777978450674055
 31
0.0
  0
ENDBLK
  5
24F8
  8
0
  0
BLOCK
  8
0
  2
*U23
 70
     1
 10
0.0
 20
0.0
 30
0.0
  3
*U23
  1

  0
TEXT
  5
2513
  8
0
 10
367.5553116852304925
 20
276.233542987226997
 30
0.0
 40
2.5
  1
(文書番号：TY-34)2004.10.29
  0
ENDBLK
  5
2515
  8
0
  0
BLOCK
  8
0
  2
*U24
 70
     1
 10
0.0
 20
0.0
 30
0.0
  3
*U24
  1

  0
TEXT
  5
2517
  8
RAHM2
 10
-193.9669218037981011
 20
3.3010354072796408
 30
0.0
 40
2.5
  1
図番
  0
ENDBLK
  5
2519
  8
0
  0
BLOCK
  8
0
  2
*U25
 70
     1
 10
0.0
 20
0.0
 30
0.0
  3
*U25
  1

  0
TEXT
  5
251B
  8
RAHM2
 10
-192.6666666666666003
 20
21.2499999999999716
 30
0.0
 40
2.5
  1
符号
  0
ENDBLK
  5
251D
  8
0
  0
BLOCK
  8
0
  2
*U26
 70
     1
 10
0.0
 20
0.0
 30
0.0
  3
*U26
  1

  0
TEXT
  5
251F
  8
RAHM2
 10
-193.8002551371313871
 20
16.3010354072796098
 30
0.0
 40
2.5
  1
品名
  0
ENDBLK
  5
2521
  8
0
  0
BLOCK
  8
0
  2
*U27
 70
     1
 10
0.0
 20
0.0
 30
0.0
  3
*U27
  1

  0
TEXT
  5
2523
  8
RAHM2
 10
-162.8114838535522892
 20
21.2499999999999716
 30
0.0
 40
2.5
  1
変更記事
  0
ENDBLK
  5
2525
  8
0
  0
BLOCK
  8
0
  2
*U28
 70
     1
 10
0.0
 20
0.0
 30
0.0
  3
*U28
  1

  0
TEXT
  5
2528
  8
0
 10
-88.9263959390862908
 20
3.4187817258883242
 30
0.0
 40
3.5
  1
株式会社タカチ電機工業
  7
MtXpl__
  0
ENDBLK
  5
252B
  8
0
  0
BLOCK
  8
0
  2
*U29
 70
     1
 10
0.0
 20
0.0
 30
0.0
  3
*U29
  1

  0
TEXT
  5
252D
  8
RAHM2
 10
-123.5416228057274992
 20
31.2500000000000284
 30
0.0
 40
2.5
  1
・  ・
  0
ENDBLK
  5
252F
  8
0
  0
BLOCK
  8
0
  2
*U30
 70
     1
 10
0.0
 20
0.0
 30
0.0
  3
*U30
  1

  0
TEXT
  5
2531
  8
RAHM2
 10
-125.7381198050020004
 20
21.2499999999999716
 30
0.0
 40
2.5
  1
年・月・日
  0
ENDBLK
  5
2533
  8
0
  0
BLOCK
  8
0
  2
*U31
 70
     1
 10
0.0
 20
0.0
 30
0.0
  3
*U31
  1

  0
TEXT
  5
2535
  8
RAHM2
 10
-104.1130952380951982
 20
21.2499999999999716
 30
0.0
 40
2.5
  1
担当
  0
ENDBLK
  5
2537
  8
0
  0
BLOCK
  8
0
  2
*U32
 70
     1
 10
0.0
 20
0.0
 30
0.0
  3
*U32
  1

  0
TEXT
  5
2539
  8
RAHM2
 10
-123.5416228057274992
 20
41.2500000000000213
 30
0.0
 40
2.5
  1
・  ・
  0
ENDBLK
  5
253B
  8
0
  0
BLOCK
  8
0
  2
*U33
 70
     1
 10
0.0
 20
0.0
 30
0.0
  3
*U33
  1

  0
TEXT
  5
253D
  8
RAHM2
 10
-123.5416228057274992
 20
36.2500000000000284
 30
0.0
 40
2.5
  1
・  ・
  0
ENDBLK
  5
253F
  8
0
  0
BLOCK
  8
0
  2
*U34
 70
     1
 10
0.0
 20
0.0
 30
0.0
  3
*U34
  1

  0
TEXT
  5
2541
  8
RAHM2
 10
-123.5416228057274992
 20
46.2500000000000213
 30
0.0
 40
2.5
  1
・  ・
  0
ENDBLK
  5
2543
  8
0
  0
BLOCK
  8
0
  2
*U35
 70
     1
 10
0.0
 20
0.0
 30
0.0
  3
*U35
  1

  0
TEXT
  5
2545
  8
RAHM2
 10
-93.1335884704647867
 20
13.80103540727964
 30
0.0
 40
2.5
  1
日付
  0
ENDBLK
  5
2547
  8
0
  0
BLOCK
  8
0
  2
*U36
 70
     1
 10
0.0
 20
0.0
 30
0.0
  3
*U36
  1

  0
TEXT
  5
2549
  8
RAHM2
 10
-92.8002551371314439
 20
23.8010354072796417
 30
0.0
 40
2.5
  1
表面処理
  0
ENDBLK
  5
254B
  8
0
  0
BLOCK
  8
0
  2
*U37
 70
     1
 10
0.0
 20
0.0
 30
0.0
  3
*U37
  1

  0
TEXT
  5
254D
  8
RAHM2
 10
-92.8002551371314439
 20
33.8010354072796417
 30
0.0
 40
2.5
  1
材質
  0
ENDBLK
  5
254F
  8
0
  0
BLOCK
  8
0
  2
*U38
 70
     1
 10
0.0
 20
0.0
 30
0.0
  3
*U38
  1

  0
TEXT
  5
2551
  8
RAHM2
 10
-72.8002551371314439
 20
46.3010354072796417
 30
0.0
 40
2.5
  1
尺度
  0
ENDBLK
  5
2553
  8
0
  0
BLOCK
  8
0
  2
*U39
 70
     1
 10
0.0
 20
0.0
 30
0.0
  3
*U39
  1

  0
TEXT
  5
2555
  8
RAHM2
 10
-52.800255137131451
 20
46.3010354072796417
 30
0.0
 40
2.5
  1
数量
  0
ENDBLK
  5
2557
  8
0
  0
BLOCK
  8
0
  2
*U40
 70
     1
 10
0.0
 20
0.0
 30
0.0
  3
*U40
  1

  0
TEXT
  5
2559
  8
RAHM2
 10
-28.1666666666666607
 20
21.3010354072796417
 30
0.0
 40
2.5
  1
承認
  0
ENDBLK
  5
255B
  8
0
  0
BLOCK
  8
0
  2
*U41
 70
     1
 10
0.0
 20
0.0
 30
0.0
  3
*U41
  1

  0
TEXT
  5
255D
  8
RAHM2
 10
-28.1666666666666607
 20
46.3010354072796417
 30
0.0
 40
2.5
  1
承認
  0
ENDBLK
  5
255F
  8
0
  0
BLOCK
  8
0
  2
*U42
 70
     1
 10
0.0
 20
0.0
 30
0.0
  3
*U42
  1

  0
TEXT
  5
2561
  8
RAHM2
 10
-123.5416228057274992
 20
26.2500000000000284
 30
0.0
 40
2.5
  1
・  ・
  0
ENDBLK
  5
2563
  8
0
  0
BLOCK
  8
0
  2
*U43
 70
     1
 10
0.0
 20
0.0
 30
0.0
  3
*U43
  1

  0
TEXT
  5
2565
  8
RAHM2
 10
-11.0833333333333304
 20
46.3010354072796417
 30
0.0
 40
2.5
  1
検図
  0
ENDBLK
  5
2567
  8
0
  0
BLOCK
  8
0
  2
*U44
 70
     1
 10
0.0
 20
0.0
 30
0.0
  3
*U44
  1

  0
TEXT
  5
2569
  8
RAHM2
 10
-11.0833333333333304
 20
21.3010354072796417
 30
0.0
 40
2.5
  1
製図
  0
ENDBLK
  5
256B
  8
0
  0
BLOCK
  8
0
  2
*U45
 70
     1
 10
0.0
 20
0.0
 30
0.0
  3
*U45
  1

  0
TEXT
  5
256D
  8
0
 10
360.4842953827348992
 20
276.233542987226997
 30
0.0
 40
2.5
  1
(文書番号：TY-34)2008.02.08
  0
ENDBLK
  5
256F
  8
0
  0
BLOCK
  8
0
  2
*U46
 70
     1
 10
0.0
 20
0.0
 30
0.0
  3
*U46
  1

  0
TEXT
  5
2576
  8
RAHM2
 10
-192.1335884704649004
 20
8.8010354072796062
 30
0.0
 40
2.5
  1
日付
  0
ENDBLK
  5
2578
  8
0
  0
BLOCK
  8
0
  2
*U47
 70
     1
 10
0.0
 20
0.0
 30
0.0
  3
*U47
  1

  0
TEXT
  5
257A
  8
RAHM2
 10
-191.8002551371315008
 20
33.801035407279663
 30
0.0
 40
2.5
  1
尺度
  0
ENDBLK
  5
257C
  8
0
  0
BLOCK
  8
0
  2
*U48
 70
     1
 10
0.0
 20
0.0
 30
0.0
  3
*U48
  1

  0
TEXT
  5
257E
  8
RAHM2
 10
-191.8002551371315008
 20
21.3010354072796311
 30
0.0
 40
2.5
  1
数量
  0
ENDBLK
  5
2580
  8
0
  0
BLOCK
  8
0
  2
*U49
 70
     1
 10
0.0
 20
0.0
 30
0.0
  3
*U49
  1

  0
TEXT
  5
2582
  8
RAHM2
 10
-165.8002551371313871
 20
36.3010354072795565
 30
0.0
 40
2.5
  1
表面処理
  0
ENDBLK
  5
2584
  8
0
  0
BLOCK
  8
0
  2
*U50
 70
     1
 10
0.0
 20
0.0
 30
0.0
  3
*U50
  1

  0
TEXT
  5
2586
  8
RAHM2
 10
-165.8002551371313871
 20
46.3010354072795494
 30
0.0
 40
2.5
  1
材質
  0
ENDBLK
  5
2588
  8
0
  0
BLOCK
  8
0
  2
*U51
 70
     1
 10
0.0
 20
0.0
 30
0.0
  3
*U51
  1

  0
TEXT
  5
258A
  8
0
 10
-156.4263959390864045
 20
23.4187817258882411
 30
0.0
 40
3.5
  1
株式会社タカチ電機工業
  7
MtXpl__
  0
ENDBLK
  5
258C
  8
0
  0
BLOCK
  8
0
  2
*U52
 70
     1
 10
0.0
 20
0.0
 30
0.0
  3
*U52
  1

  0
TEXT
  5
258E
  8
RAHM2
 10
-160.791666666666714
 20
16.30103540727956
 30
0.0
 40
2.5
  1
承認
  0
ENDBLK
  5
2590
  8
0
  0
BLOCK
  8
0
  2
*U53
 70
     1
 10
0.0
 20
0.0
 30
0.0
  3
*U53
  1

  0
TEXT
  5
2592
  8
RAHM2
 10
-143.041666666666714
 20
16.3010354072795813
 30
0.0
 40
2.5
  1
承認
  0
ENDBLK
  5
2594
  8
0
  0
BLOCK
  8
0
  2
*U54
 70
     1
 10
0.0
 20
0.0
 30
0.0
  3
*U54
  1

  0
TEXT
  5
2596
  8
RAHM2
 10
-125.2083333333333997
 20
16.3010354072795813
 30
0.0
 40
2.5
  1
検図
  0
ENDBLK
  5
2598
  8
0
  0
BLOCK
  8
0
  2
*U55
 70
     1
 10
0.0
 20
0.0
 30
0.0
  3
*U55
  1

  0
TEXT
  5
259A
  8
RAHM2
 10
-107.4583333333333002
 20
16.3010354072795707
 30
0.0
 40
2.5
  1
製図
  0
ENDBLK
  5
259C
  8
0
  0
BLOCK
  8
0
  2
*U56
 70
     1
 10
0.0
 20
0.0
 30
0.0
  3
*U56
  1

  0
TEXT
  5
259E
  8
RAHM2
 10
-19.9824259293349087
 20
2.1847624665659851
 30
0.0
 40
2.5
  1
Rev.
  0
ENDBLK
  5
25A0
  8
0
  0
BLOCK
  8
0
  2
*U57
 70
     1
 10
0.0
 20
0.0
 30
0.0
  3
*U57
  1

  0
TEXT
  5
25A2
  8
RAHM2
 10
-94.9669218037981153
 20
3.3010354072796271
 30
0.0
 40
2.5
  1
図番
  0
ENDBLK
  5
25A4
  8
0
  0
BLOCK
  8
0
  2
*U58
 70
     1
 10
0.0
 20
0.0
 30
0.0
  3
*U58
  1

  0
TEXT
  5
25A6
  8
RAHM2
 10
-93.6666666666666714
 20
21.2499999999999609
 30
0.0
 40
2.5
  1
符号
  0
ENDBLK
  5
25A8
  8
0
  0
BLOCK
  8
0
  2
*U59
 70
     1
 10
0.0
 20
0.0
 30
0.0
  3
*U59
  1

  0
TEXT
  5
25AA
  8
RAHM2
 10
-94.8002551371314439
 20
16.3010354072795991
 30
0.0
 40
2.5
  1
品名
  0
ENDBLK
  5
25AC
  8
0
  0
BLOCK
  8
0
  2
*U60
 70
     1
 10
0.0
 20
0.0
 30
0.0
  3
*U60
  1

  0
TEXT
  5
25AE
  8
RAHM2
 10
-64.6666666666666714
 20
21.2499999999999609
 30
0.0
 40
2.5
  1
変更記事
  0
ENDBLK
  5
25B0
  8
0
  0
BLOCK
  8
0
  2
*U61
 70
     1
 10
0.0
 20
0.0
 30
0.0
  3
*U61
  1

  0
TEXT
  5
25B2
  8
RAHM2
 10
-26.3624422164166106
 20
31.2500000000000284
 30
0.0
 40
2.5
  1
・  ・
  0
ENDBLK
  5
25B4
  8
0
  0
BLOCK
  8
0
  2
*U62
 70
     1
 10
0.0
 20
0.0
 30
0.0
  3
*U62
  1

  0
TEXT
  5
25B6
  8
RAHM2
 10
-28.5589392156911117
 20
21.2499999999999716
 30
0.0
 40
2.5
  1
年・月・日
  0
ENDBLK
  5
25B8
  8
0
  0
BLOCK
  8
0
  2
*U63
 70
     1
 10
0.0
 20
0.0
 30
0.0
  3
*U63
  1

  0
TEXT
  5
25BA
  8
RAHM2
 10
-8.5235049434397148
 20
21.2499999999999716
 30
0.0
 40
2.5
  1
担当
  0
ENDBLK
  5
25BC
  8
0
  0
BLOCK
  8
0
  2
*U64
 70
     1
 10
0.0
 20
0.0
 30
0.0
  3
*U64
  1

  0
TEXT
  5
25BE
  8
RAHM2
 10
-26.3624422164166106
 20
41.2500000000000213
 30
0.0
 40
2.5
  1
・  ・
  0
ENDBLK
  5
25C0
  8
0
  0
BLOCK
  8
0
  2
*U65
 70
     1
 10
0.0
 20
0.0
 30
0.0
  3
*U65
  1

  0
TEXT
  5
25C2
  8
RAHM2
 10
-26.3624422164166106
 20
36.2500000000000284
 30
0.0
 40
2.5
  1
・  ・
  0
ENDBLK
  5
25C4
  8
0
  0
BLOCK
  8
0
  2
*U66
 70
     1
 10
0.0
 20
0.0
 30
0.0
  3
*U66
  1

  0
TEXT
  5
25C6
  8
RAHM2
 10
-26.3624422164166106
 20
46.2500000000000213
 30
0.0
 40
2.5
  1
・  ・
  0
ENDBLK
  5
25C8
  8
0
  0
BLOCK
  8
0
  2
*U67
 70
     1
 10
0.0
 20
0.0
 30
0.0
  3
*U67
  1

  0
TEXT
  5
25CA
  8
RAHM2
 10
-26.3624422164166106
 20
26.2500000000000284
 30
0.0
 40
2.5
  1
・  ・
  0
ENDBLK
  5
25CC
  8
0
  0
BLOCK
  8
0
  2
*U68
 70
     1
 10
0.0
 20
0.0
 30
0.0
  3
*U68
  1

  0
TEXT
  5
25CE
  8
0
 10
150.484295382734814
 20
276.233542987226997
 30
0.0
 40
2.5
  1
(文書番号：TY-34)2008.02.08
  0
ENDBLK
  5
25D0
  8
0
  0
BLOCK
  8
0
  2
*U69
 70
     1
 10
0.0
 20
0.0
 30
0.0
  3
*U69
  1

  0
TEXT
  5
25D7
  8
0
 10
360.4842953827348992
 20
276.233542987226997
 30
0.0
 40
2.5
  1
(文書番号：TY-34)2008.02.08
  0
ENDBLK
  5
25D9
  8
0
  0
BLOCK
  8
0
  2
*U70
 70
     1
 10
0.0
 20
0.0
 30
0.0
  3
*U70
  1

  0
TEXT
  5
25E0
  8
RAHM2
 10
-192.1335884704649004
 20
8.8010354072796062
 30
0.0
 40
2.5
  1
日付
  0
ENDBLK
  5
25E2
  8
0
  0
BLOCK
  8
0
  2
*U71
 70
     1
 10
0.0
 20
0.0
 30
0.0
  3
*U71
  1

  0
TEXT
  5
25E4
  8
RAHM2
 10
-191.8002551371315008
 20
33.801035407279663
 30
0.0
 40
2.5
  1
尺度
  0
ENDBLK
  5
25E6
  8
0
  0
BLOCK
  8
0
  2
*U72
 70
     1
 10
0.0
 20
0.0
 30
0.0
  3
*U72
  1

  0
TEXT
  5
25E8
  8
RAHM2
 10
-191.8002551371315008
 20
21.3010354072796311
 30
0.0
 40
2.5
  1
数量
  0
ENDBLK
  5
25EA
  8
0
  0
BLOCK
  8
0
  2
*U73
 70
     1
 10
0.0
 20
0.0
 30
0.0
  3
*U73
  1

  0
TEXT
  5
25EC
  8
RAHM2
 10
-165.8002551371313871
 20
36.3010354072795565
 30
0.0
 40
2.5
  1
表面処理
  0
ENDBLK
  5
25EE
  8
0
  0
BLOCK
  8
0
  2
*U74
 70
     1
 10
0.0
 20
0.0
 30
0.0
  3
*U74
  1

  0
TEXT
  5
25F0
  8
RAHM2
 10
-165.8002551371313871
 20
46.3010354072795494
 30
0.0
 40
2.5
  1
材質
  0
ENDBLK
  5
25F2
  8
0
  0
BLOCK
  8
0
  2
*U75
 70
     1
 10
0.0
 20
0.0
 30
0.0
  3
*U75
  1

  0
TEXT
  5
25F4
  8
0
 10
-156.4263959390864045
 20
23.4187817258882411
 30
0.0
 40
3.5
  1
株式会社タカチ電機工業
  7
MtXpl__
  0
ENDBLK
  5
25F6
  8
0
  0
BLOCK
  8
0
  2
*U76
 70
     1
 10
0.0
 20
0.0
 30
0.0
  3
*U76
  1

  0
TEXT
  5
25F8
  8
RAHM2
 10
-160.791666666666714
 20
16.30103540727956
 30
0.0
 40
2.5
  1
承認
  0
ENDBLK
  5
25FA
  8
0
  0
BLOCK
  8
0
  2
*U77
 70
     1
 10
0.0
 20
0.0
 30
0.0
  3
*U77
  1

  0
TEXT
  5
25FC
  8
RAHM2
 10
-143.041666666666714
 20
16.3010354072795813
 30
0.0
 40
2.5
  1
承認
  0
ENDBLK
  5
25FE
  8
0
  0
BLOCK
  8
0
  2
*U78
 70
     1
 10
0.0
 20
0.0
 30
0.0
  3
*U78
  1

  0
TEXT
  5
2600
  8
RAHM2
 10
-125.2083333333333997
 20
16.3010354072795813
 30
0.0
 40
2.5
  1
検図
  0
ENDBLK
  5
2602
  8
0
  0
BLOCK
  8
0
  2
*U79
 70
     1
 10
0.0
 20
0.0
 30
0.0
  3
*U79
  1

  0
TEXT
  5
2604
  8
RAHM2
 10
-107.4583333333333002
 20
16.3010354072795707
 30
0.0
 40
2.5
  1
製図
  0
ENDBLK
  5
2606
  8
0
  0
BLOCK
  8
0
  2
*U80
 70
     1
 10
0.0
 20
0.0
 30
0.0
  3
*U80
  1

  0
TEXT
  5
2608
  8
RAHM2
 10
-19.9824259293349087
 20
2.1847624665659851
 30
0.0
 40
2.5
  1
Rev.
  0
ENDBLK
  5
260A
  8
0
  0
BLOCK
  8
0
  2
*U81
 70
     1
 10
0.0
 20
0.0
 30
0.0
  3
*U81
  1

  0
TEXT
  5
260C
  8
RAHM2
 10
-94.9669218037981153
 20
3.3010354072796271
 30
0.0
 40
2.5
  1
図番
  0
ENDBLK
  5
260E
  8
0
  0
BLOCK
  8
0
  2
*U82
 70
     1
 10
0.0
 20
0.0
 30
0.0
  3
*U82
  1

  0
TEXT
  5
2610
  8
RAHM2
 10
-93.6666666666666714
 20
21.2499999999999609
 30
0.0
 40
2.5
  1
符号
  0
ENDBLK
  5
2612
  8
0
  0
BLOCK
  8
0
  2
*U83
 70
     1
 10
0.0
 20
0.0
 30
0.0
  3
*U83
  1

  0
TEXT
  5
2614
  8
RAHM2
 10
-94.8002551371314439
 20
16.3010354072795991
 30
0.0
 40
2.5
  1
品名
  0
ENDBLK
  5
2616
  8
0
  0
BLOCK
  8
0
  2
*U84
 70
     1
 10
0.0
 20
0.0
 30
0.0
  3
*U84
  1

  0
TEXT
  5
2618
  8
RAHM2
 10
-64.6666666666666714
 20
21.2499999999999609
 30
0.0
 40
2.5
  1
変更記事
  0
ENDBLK
  5
261A
  8
0
  0
BLOCK
  8
0
  2
*U85
 70
     1
 10
0.0
 20
0.0
 30
0.0
  3
*U85
  1

  0
TEXT
  5
261C
  8
RAHM2
 10
-26.3624422164166106
 20
31.2500000000000284
 30
0.0
 40
2.5
  1
・  ・
  0
ENDBLK
  5
261E
  8
0
  0
BLOCK
  8
0
  2
*U86
 70
     1
 10
0.0
 20
0.0
 30
0.0
  3
*U86
  1

  0
TEXT
  5
2620
  8
RAHM2
 10
-28.5589392156911117
 20
21.2499999999999716
 30
0.0
 40
2.5
  1
年・月・日
  0
ENDBLK
  5
2622
  8
0
  0
BLOCK
  8
0
  2
*U87
 70
     1
 10
0.0
 20
0.0
 30
0.0
  3
*U87
  1

  0
TEXT
  5
2624
  8
RAHM2
 10
-8.5235049434397148
 20
21.2499999999999716
 30
0.0
 40
2.5
  1
担当
  0
ENDBLK
  5
2626
  8
0
  0
BLOCK
  8
0
  2
*U88
 70
     1
 10
0.0
 20
0.0
 30
0.0
  3
*U88
  1

  0
TEXT
  5
2628
  8
RAHM2
 10
-26.3624422164166106
 20
41.2500000000000213
 30
0.0
 40
2.5
  1
・  ・
  0
ENDBLK
  5
262A
  8
0
  0
BLOCK
  8
0
  2
*U89
 70
     1
 10
0.0
 20
0.0
 30
0.0
  3
*U89
  1

  0
TEXT
  5
262C
  8
RAHM2
 10
-26.3624422164166106
 20
36.2500000000000284
 30
0.0
 40
2.5
  1
・  ・
  0
ENDBLK
  5
262E
  8
0
  0
BLOCK
  8
0
  2
*U90
 70
     1
 10
0.0
 20
0.0
 30
0.0
  3
*U90
  1

  0
TEXT
  5
2630
  8
RAHM2
 10
-26.3624422164166106
 20
46.2500000000000213
 30
0.0
 40
2.5
  1
・  ・
  0
ENDBLK
  5
2632
  8
0
  0
BLOCK
  8
0
  2
*U91
 70
     1
 10
0.0
 20
0.0
 30
0.0
  3
*U91
  1

  0
TEXT
  5
2634
  8
RAHM2
 10
-26.3624422164166106
 20
26.2500000000000284
 30
0.0
 40
2.5
  1
・  ・
  0
ENDBLK
  5
2636
  8
0
  0
BLOCK
  8
0
  2
*U92
 70
     1
 10
0.0
 20
0.0
 30
0.0
  3
*U92
  1

  0
SOLID
  5
267A
  8
AM_8
  6
CONTINUOUS
 62
     1
 10
8.0135999999999896
 20
2.4114999999993869
 30
0.0
 11
-8.1380910362849281
 21
2.3992387031303011
 31
0.0
 12
8.1380910362849441
 22
2.3992387031303011
 32
0.0
 13
8.1380910362849441
 23
2.3992387031303011
 33
0.0
210
0.0
220
0.0
230
-1.0
  0
SOLID
  5
267B
  8
AM_8
  6
CONTINUOUS
 62
     1
 10
8.0135999999999896
 20
2.4114999999993869
 30
0.0
 11
-8.0136000000000323
 21
2.4114999999993869
 31
0.0
 12
-8.1380910362849281
 22
2.3992387031303011
 32
0.0
 13
-8.1380910362849281
 23
2.3992387031303011
 33
0.0
210
0.0
220
0.0
230
-1.0
  0
SOLID
  5
267C
  8
AM_8
  6
CONTINUOUS
 62
     1
 10
8.1380910362849228
 20
2.3992387031303011
 30
0.0
 11
-8.2577979518607965
 21
2.3629260072855018
 31
0.0
 12
8.2577979518608
 22
2.3629260072855018
 32
0.0
 13
8.2577979518608
 23
2.3629260072855018
 33
0.0
210
0.0
220
0.0
230
-1.0
  0
SOLID
  5
267D
  8
AM_8
  6
CONTINUOUS
 62
     1
 10
8.1380910362849228
 20
2.3992387031303011
 30
0.0
 11
-8.1380910362849281
 21
2.3992387031303011
 31
0.0
 12
-8.2577979518607965
 22
2.3629260072855018
 32
0.0
 13
-8.2577979518607965
 23
2.3629260072855018
 33
0.0
210
0.0
220
0.0
230
-1.0
  0
SOLID
  5
267E
  8
AM_8
  6
CONTINUOUS
 62
     1
 10
8.2577979518607911
 20
2.3629260072855018
 30
0.0
 11
-8.3681204770944451
 21
2.3039573890019112
 31
0.0
 12
8.3681204770944451
 22
2.3039573890019112
 32
0.0
 13
8.3681204770944451
 23
2.3039573890019112
 33
0.0
210
0.0
220
0.0
230
-1.0
  0
SOLID
  5
267F
  8
AM_8
  6
CONTINUOUS
 62
     1
 10
8.2577979518607911
 20
2.3629260072855018
 30
0.0
 11
-8.2577979518607965
 21
2.3629260072855018
 31
0.0
 12
-8.3681204770944451
 22
2.3039573890019112
 32
0.0
 13
-8.3681204770944451
 23
2.3039573890019112
 33
0.0
210
0.0
220
0.0
230
-1.0
  0
SOLID
  5
2680
  8
AM_8
  6
CONTINUOUS
 62
     1
 10
8.3681204770944415
 20
2.3039573890019112
 30
0.0
 11
-8.4648189792107296
 21
2.2245989792101839
 31
0.0
 12
8.4648189792107296
 22
2.2245989792101839
 32
0.0
 13
8.4648189792107296
 23
2.2245989792101839
 33
0.0
210
0.0
220
0.0
230
-1.0
  0
SOLID
  5
2681
  8
AM_8
  6
CONTINUOUS
 62
     1
 10
8.3681204770944415
 20
2.3039573890019112
 30
0.0
 11
-8.3681204770944451
 21
2.3039573890019112
 31
0.0
 12
-8.4648189792107296
 22
2.2245989792101839
 32
0.0
 13
-8.4648189792107296
 23
2.2245989792101839
 33
0.0
210
0.0
220
0.0
230
-1.0
  0
SOLID
  5
2682
  8
AM_8
  6
CONTINUOUS
 62
     1
 10
8.464818979210726
 20
2.2245989792101839
 30
0.0
 11
-8.544177389002467
 21
2.1279004770939078
 31
0.0
 12
8.5441773890024653
 22
2.1279004770939078
 32
0.0
 13
8.5441773890024653
 23
2.1279004770939078
 33
0.0
210
0.0
220
0.0
230
-1.0
  0
SOLID
  5
2683
  8
AM_8
  6
CONTINUOUS
 62
     1
 10
8.464818979210726
 20
2.2245989792101839
 30
0.0
 11
-8.4648189792107296
 21
2.2245989792101839
 31
0.0
 12
-8.544177389002467
 22
2.1279004770939078
 32
0.0
 13
-8.544177389002467
 23
2.1279004770939078
 33
0.0
210
0.0
220
0.0
230
-1.0
  0
SOLID
  5
2684
  8
AM_8
  6
CONTINUOUS
 62
     1
 10
8.5441773890024635
 20
2.1279004770939078
 30
0.0
 11
-8.5631314088955701
 21
2.0924399999994789
 31
0.0
 12
8.5631314088955666
 22
2.0924399999994789
 32
0.0
 13
8.5631314088955666
 23
2.0924399999994789
 33
0.0
210
0.0
220
0.0
230
-1.0
  0
SOLID
  5
2685
  8
AM_8
  6
CONTINUOUS
 62
     1
 10
8.5441773890024635
 20
2.1279004770939078
 30
0.0
 11
-8.544177389002467
 21
2.1279004770939078
 31
0.0
 12
-8.5631314088955701
 22
2.0924399999994789
 32
0.0
 13
-8.5631314088955701
 23
2.0924399999994789
 33
0.0
210
0.0
220
0.0
230
-1.0
  0
SOLID
  5
2686
  8
AM_8
  6
CONTINUOUS
 62
     1
 10
-7.471940000000032
 20
2.0924399999994789
 30
0.0
 11
-8.5675299184067431
 21
2.084210967496074
 31
0.0
 12
-7.5659982719151024
 22
2.084210967496074
 32
0.0
 13
-7.5659982719151024
 23
2.084210967496074
 33
0.0
210
0.0
220
0.0
230
-1.0
  0
SOLID
  5
2687
  8
AM_8
  6
CONTINUOUS
 62
     1
 10
-7.471940000000032
 20
2.0924399999994789
 30
0.0
 11
-8.5631314088955701
 21
2.0924399999994789
 31
0.0
 12
-8.5675299184067431
 22
2.084210967496074
 32
0.0
 13
-8.5675299184067431
 23
2.084210967496074
 33
0.0
210
0.0
220
0.0
230
-1.0
  0
SOLID
  5
2688
  8
AM_8
  6
CONTINUOUS
 62
     1
 10
8.5631314088955666
 20
2.0924399999994789
 30
0.0
 11
7.5659982719150811
 21
2.084210967496074
 31
0.0
 12
8.5675299184067377
 22
2.084210967496074
 32
0.0
 13
8.5675299184067377
 23
2.084210967496074
 33
0.0
210
0.0
220
0.0
230
-1.0
  0
SOLID
  5
2689
  8
AM_8
  6
CONTINUOUS
 62
     1
 10
8.5631314088955666
 20
2.0924399999994789
 30
0.0
 11
7.4719400000000409
 21
2.0924399999994789
 31
0.0
 12
7.5659982719150811
 22
2.084210967496074
 32
0.0
 13
7.5659982719150811
 23
2.084210967496074
 33
0.0
210
0.0
220
0.0
230
-1.0
  0
SOLID
  5
268A
  8
AM_8
  6
CONTINUOUS
 62
     1
 10
-7.5659982719151024
 20
2.084210967496074
 30
0.0
 11
-8.5805918004545152
 21
2.059773904974378
 31
0.0
 12
-7.6571986308338147
 22
2.059773904974378
 32
0.0
 13
-7.6571986308338147
 23
2.059773904974378
 33
0.0
210
0.0
220
0.0
230
-1.0
  0
SOLID
  5
268B
  8
AM_8
  6
CONTINUOUS
 62
     1
 10
-7.5659982719151024
 20
2.084210967496074
 30
0.0
 11
-8.5675299184067431
 21
2.084210967496074
 31
0.0
 12
-8.5805918004545152
 22
2.059773904974378
 32
0.0
 13
-8.5805918004545152
 23
2.059773904974378
 33
0.0
210
0.0
220
0.0
230
-1.0
  0
SOLID
  5
268C
  8
AM_8
  6
CONTINUOUS
 62
     1
 10
8.5675299184067377
 20
2.084210967496074
 30
0.0
 11
7.6571986308337516
 21
2.059773904974378
 31
0.0
 12
8.5805918004545134
 22
2.059773904974378
 32
0.0
 13
8.5805918004545134
 23
2.059773904974378
 33
0.0
210
0.0
220
0.0
230
-1.0
  0
SOLID
  5
268D
  8
AM_8
  6
CONTINUOUS
 62
     1
 10
8.5675299184067377
 20
2.084210967496074
 30
0.0
 11
7.5659982719150474
 21
2.084210967496074
 31
0.0
 12
7.6571986308337516
 22
2.059773904974378
 32
0.0
 13
7.6571986308337516
 23
2.059773904974378
 33
0.0
210
0.0
220
0.0
230
-1.0
  0
SOLID
  5
268E
  8
AM_8
  6
CONTINUOUS
 62
     1
 10
-7.6571986308338147
 20
2.059773904974378
 30
0.0
 11
-8.6019201763625031
 21
2.019871320213364
 31
0.0
 12
-7.7427700000000348
 22
2.019871320213364
 32
0.0
 13
-7.7427700000000348
 23
2.019871320213364
 33
0.0
210
0.0
220
0.0
230
-1.0
  0
SOLID
  5
268F
  8
AM_8
  6
CONTINUOUS
 62
     1
 10
-7.6571986308338147
 20
2.059773904974378
 30
0.0
 11
-8.5805918004545152
 21
2.059773904974378
 31
0.0
 12
-8.6019201763625031
 22
2.019871320213364
 32
0.0
 13
-8.6019201763625031
 23
2.019871320213364
 33
0.0
210
0.0
220
0.0
230
-1.0
  0
SOLID
  5
2690
  8
AM_8
  6
CONTINUOUS
 62
     1
 10
8.5805918004545134
 20
2.059773904974378
 30
0.0
 11
7.742769999999962
 21
2.019871320213364
 31
0.0
 12
8.6019201763624977
 22
2.019871320213364
 32
0.0
 13
8.6019201763624977
 23
2.019871320213364
 33
0.0
210
0.0
220
0.0
230
-1.0
  0
SOLID
  5
2691
  8
AM_8
  6
CONTINUOUS
 62
     1
 10
8.5805918004545134
 20
2.059773904974378
 30
0.0
 11
7.6571986308337481
 21
2.059773904974378
 31
0.0
 12
7.742769999999962
 22
2.019871320213364
 32
0.0
 13
7.742769999999962
 23
2.019871320213364
 33
0.0
210
0.0
220
0.0
230
-1.0
  0
SOLID
  5
2692
  8
AM_8
  6
CONTINUOUS
 62
     1
 10
-7.7427700000000348
 20
2.019871320213364
 30
0.0
 11
-8.603146007286071
 21
2.0175779518602668
 31
0.0
 12
-7.746045269442237
 22
2.0175779518602668
 32
0.0
 13
-7.746045269442237
 23
2.0175779518602668
 33
0.0
210
0.0
220
0.0
230
-1.0
  0
SOLID
  5
2693
  8
AM_8
  6
CONTINUOUS
 62
     1
 10
-7.7427700000000348
 20
2.019871320213364
 30
0.0
 11
-8.6019201763625031
 21
2.019871320213364
 31
0.0
 12
-8.603146007286071
 22
2.0175779518602668
 32
0.0
 13
-8.603146007286071
 23
2.0175779518602668
 33
0.0
210
0.0
220
0.0
230
-1.0
  0
SOLID
  5
2694
  8
AM_8
  6
CONTINUOUS
 62
     1
 10
8.6019201763624977
 20
2.019871320213364
 30
0.0
 11
7.7460452694421633
 21
2.0175779518602668
 31
0.0
 12
8.6031460072860657
 22
2.0175779518602668
 32
0.0
 13
8.6031460072860657
 23
2.0175779518602668
 33
0.0
210
0.0
220
0.0
230
-1.0
  0
SOLID
  5
2695
  8
AM_8
  6
CONTINUOUS
 62
     1
 10
8.6019201763624977
 20
2.019871320213364
 30
0.0
 11
7.7427699999999611
 21
2.019871320213364
 31
0.0
 12
7.7460452694421633
 22
2.0175779518602668
 32
0.0
 13
7.7460452694421633
 23
2.0175779518602668
 33
0.0
210
0.0
220
0.0
230
-1.0
  0
SOLID
  5
2696
  8
AM_8
  6
CONTINUOUS
 62
     1
 10
-7.746045269442237
 20
2.0175779518602668
 30
0.0
 11
-8.6188782696985307
 21
1.9657156330593111
 31
0.0
 12
-7.8201123366628478
 22
1.9657156330593111
 32
0.0
 13
-7.8201123366628478
 23
1.9657156330593111
 33
0.0
210
0.0
220
0.0
230
-1.0
  0
SOLID
  5
2697
  8
AM_8
  6
CONTINUOUS
 62
     1
 10
-7.746045269442237
 20
2.0175779518602668
 30
0.0
 11
-8.603146007286071
 21
2.0175779518602668
 31
0.0
 12
-8.6188782696985307
 22
1.9657156330593111
 32
0.0
 13
-8.6188782696985307
 23
1.9657156330593111
 33
0.0
210
0.0
220
0.0
230
-1.0
  0
SOLID
  5
2698
  8
AM_8
  6
CONTINUOUS
 62
     1
 10
8.6031460072860657
 20
2.0175779518602668
 30
0.0
 11
7.8201123366627723
 21
1.9657156330593111
 31
0.0
 12
8.6188782696985271
 22
1.9657156330593111
 32
0.0
 13
8.6188782696985271
 23
1.9657156330593111
 33
0.0
210
0.0
220
0.0
230
-1.0
  0
SOLID
  5
2699
  8
AM_8
  6
CONTINUOUS
 62
     1
 10
8.6031460072860657
 20
2.0175779518602668
 30
0.0
 11
7.7460452694421633
 21
2.0175779518602668
 31
0.0
 12
7.8201123366627723
 22
1.9657156330593111
 32
0.0
 13
7.8201123366627723
 23
1.9657156330593111
 33
0.0
210
0.0
220
0.0
230
-1.0
  0
SOLID
  5
269A
  8
AM_8
  6
CONTINUOUS
 62
     1
 10
-7.8201123366628478
 20
1.9657156330593111
 30
0.0
 11
-8.6391306942472657
 21
1.8989523366622969
 31
0.0
 12
-7.8868756330598648
 22
1.8989523366622969
 32
0.0
 13
-7.8868756330598648
 23
1.8989523366622969
 33
0.0
210
0.0
220
0.0
230
-1.0
  0
SOLID
  5
269B
  8
AM_8
  6
CONTINUOUS
 62
     1
 10
-7.8201123366628478
 20
1.9657156330593111
 30
0.0
 11
-8.6188782696985307
 21
1.9657156330593111
 31
0.0
 12
-8.6391306942472657
 22
1.8989523366622969
 32
0.0
 13
-8.6391306942472657
 23
1.8989523366622969
 33
0.0
210
0.0
220
0.0
230
-1.0
  0
SOLID
  5
269C
  8
AM_8
  6
CONTINUOUS
 62
     1
 10
8.6188782696985271
 20
1.9657156330593111
 30
0.0
 11
7.8868756330597858
 21
1.8989523366622969
 31
0.0
 12
8.6391306942472603
 22
1.8989523366622969
 32
0.0
 13
8.6391306942472603
 23
1.8989523366622969
 33
0.0
210
0.0
220
0.0
230
-1.0
  0
SOLID
  5
269D
  8
AM_8
  6
CONTINUOUS
 62
     1
 10
8.6188782696985271
 20
1.9657156330593111
 30
0.0
 11
7.8201123366627723
 21
1.9657156330593111
 31
0.0
 12
7.8868756330597858
 22
1.8989523366622969
 32
0.0
 13
7.8868756330597858
 23
1.8989523366622969
 33
0.0
210
0.0
220
0.0
230
-1.0
  0
SOLID
  5
269E
  8
AM_8
  6
CONTINUOUS
 62
     1
 10
-7.8868756330598648
 20
1.8989523366622969
 30
0.0
 11
-8.6394587031308827
 21
1.8978710362844029
 31
0.0
 12
-7.8876327677355347
 22
1.8978710362844029
 32
0.0
 13
-7.8876327677355347
 23
1.8978710362844029
 33
0.0
210
0.0
220
0.0
230
-1.0
  0
SOLID
  5
269F
  8
AM_8
  6
CONTINUOUS
 62
     1
 10
-7.8868756330598648
 20
1.8989523366622969
 30
0.0
 11
-8.6391306942472657
 21
1.8989523366622969
 31
0.0
 12
-8.6394587031308827
 22
1.8978710362844029
 32
0.0
 13
-8.6394587031308827
 23
1.8978710362844029
 33
0.0
210
0.0
220
0.0
230
-1.0
  0
SOLID
  5
26A0
  8
AM_8
  6
CONTINUOUS
 62
     1
 10
8.6391306942472603
 20
1.8989523366622969
 30
0.0
 11
7.8876327677354556
 21
1.8978710362844029
 31
0.0
 12
8.6394587031308774
 22
1.8978710362844029
 32
0.0
 13
8.6394587031308774
 23
1.8978710362844029
 33
0.0
210
0.0
220
0.0
230
-1.0
  0
SOLID
  5
26A1
  8
AM_8
  6
CONTINUOUS
 62
     1
 10
8.6391306942472603
 20
1.8989523366622969
 30
0.0
 11
7.8868756330597858
 21
1.8989523366622969
 31
0.0
 12
7.8876327677354556
 22
1.8978710362844029
 32
0.0
 13
7.8876327677354556
 23
1.8978710362844029
 33
0.0
210
0.0
220
0.0
230
-1.0
  0
SOLID
  5
26A2
  8
AM_8
  6
CONTINUOUS
 62
     1
 10
-7.8876327677355347
 20
1.8978710362844029
 30
0.0
 11
-8.6469697596160628
 21
1.8216099999994859
 31
0.0
 12
-7.9410313202139209
 22
1.8216099999994859
 32
0.0
 13
-7.9410313202139209
 23
1.8216099999994859
 33
0.0
210
0.0
220
0.0
230
-1.0
  0
SOLID
  5
26A3
  8
AM_8
  6
CONTINUOUS
 62
     1
 10
-7.8876327677355347
 20
1.8978710362844029
 30
0.0
 11
-8.6394587031308827
 21
1.8978710362844029
 31
0.0
 12
-8.6469697596160628
 22
1.8216099999994859
 32
0.0
 13
-8.6469697596160628
 23
1.8216099999994859
 33
0.0
210
0.0
220
0.0
230
-1.0
  0
SOLID
  5
26A4
  8
AM_8
  6
CONTINUOUS
 62
     1
 10
8.6394587031308774
 20
1.8978710362844029
 30
0.0
 11
7.9410313202138401
 21
1.8216099999994859
 31
0.0
 12
8.6469697596160611
 22
1.8216099999994859
 32
0.0
 13
8.6469697596160611
 23
1.8216099999994859
 33
0.0
210
0.0
220
0.0
230
-1.0
  0
SOLID
  5
26A5
  8
AM_8
  6
CONTINUOUS
 62
     1
 10
8.6394587031308774
 20
1.8978710362844029
 30
0.0
 11
7.8876327677354556
 21
1.8978710362844029
 31
0.0
 12
7.9410313202138401
 22
1.8216099999994859
 32
0.0
 13
7.9410313202138401
 23
1.8216099999994859
 33
0.0
210
0.0
220
0.0
230
-1.0
  0
SOLID
  5
26A6
  8
AM_8
  6
CONTINUOUS
 62
     1
 10
-7.9410313202139209
 20
1.8216099999994859
 30
0.0
 11
-8.6517199999999832
 21
1.7733799999994859
 31
0.0
 12
-7.9635213385667383
 22
1.7733799999994859
 32
0.0
 13
-7.9635213385667383
 23
1.7733799999994859
 33
0.0
210
0.0
220
0.0
230
-1.0
  0
SOLID
  5
26A7
  8
AM_8
  6
CONTINUOUS
 62
     1
 10
-7.9410313202139209
 20
1.8216099999994859
 30
0.0
 11
-8.6469697596160628
 21
1.8216099999994859
 31
0.0
 12
-8.6517199999999832
 22
1.7733799999994859
 32
0.0
 13
-8.6517199999999832
 23
1.7733799999994859
 33
0.0
210
0.0
220
0.0
230
-1.0
  0
SOLID
  5
26A8
  8
AM_8
  6
CONTINUOUS
 62
     1
 10
8.6469697596160611
 20
1.8216099999994859
 30
0.0
 11
7.9635213385666548
 21
1.7733799999994859
 31
0.0
 12
8.6517199999999832
 22
1.7733799999994859
 32
0.0
 13
8.6517199999999832
 23
1.7733799999994859
 33
0.0
210
0.0
220
0.0
230
-1.0
  0
SOLID
  5
26A9
  8
AM_8
  6
CONTINUOUS
 62
     1
 10
8.6469697596160611
 20
1.8216099999994859
 30
0.0
 11
7.9410313202138401
 21
1.8216099999994859
 31
0.0
 12
7.9635213385666548
 22
1.7733799999994859
 32
0.0
 13
7.9635213385666548
 23
1.7733799999994859
 33
0.0
210
0.0
220
0.0
230
-1.0
  0
SOLID
  5
26AA
  8
AM_8
  6
CONTINUOUS
 62
     1
 10
-7.9635213385667383
 20
1.7733799999994859
 30
0.0
 11
-8.6517199999999832
 21
1.736038630833268
 31
0.0
 12
-7.9809339049749388
 22
1.736038630833268
 32
0.0
 13
-7.9809339049749388
 23
1.736038630833268
 33
0.0
210
0.0
220
0.0
230
-1.0
  0
SOLID
  5
26AB
  8
AM_8
  6
CONTINUOUS
 62
     1
 10
-7.9635213385667383
 20
1.7733799999994859
 30
0.0
 11
-8.6517199999999832
 21
1.7733799999994859
 31
0.0
 12
-8.6517199999999832
 22
1.736038630833268
 32
0.0
 13
-8.6517199999999832
 23
1.736038630833268
 33
0.0
210
0.0
220
0.0
230
-1.0
  0
SOLID
  5
26AC
  8
AM_8
  6
CONTINUOUS
 62
     1
 10
8.6517199999999832
 20
1.7733799999994859
 30
0.0
 11
7.9809339049748562
 21
1.736038630833268
 31
0.0
 12
8.6517199999999832
 22
1.736038630833268
 32
0.0
 13
8.6517199999999832
 23
1.736038630833268
 33
0.0
210
0.0
220
0.0
230
-1.0
  0
SOLID
  5
26AD
  8
AM_8
  6
CONTINUOUS
 62
     1
 10
8.6517199999999832
 20
1.7733799999994859
 30
0.0
 11
7.9635213385666548
 21
1.7733799999994859
 31
0.0
 12
7.9809339049748562
 22
1.736038630833268
 32
0.0
 13
7.9809339049748562
 23
1.736038630833268
 33
0.0
210
0.0
220
0.0
230
-1.0
  0
SOLID
  5
26AE
  8
AM_8
  6
CONTINUOUS
 62
     1
 10
-7.9809339049749379
 20
1.736038630833268
 30
0.0
 11
-8.6517199999999814
 21
1.6448382719145549
 31
0.0
 12
-8.0053709674966385
 22
1.6448382719145549
 32
0.0
 13
-8.0053709674966385
 23
1.6448382719145549
 33
0.0
210
0.0
220
0.0
230
-1.0
  0
SOLID
  5
26AF
  8
AM_8
  6
CONTINUOUS
 62
     1
 10
-7.9809339049749379
 20
1.736038630833268
 30
0.0
 11
-8.6517199999999832
 21
1.736038630833268
 31
0.0
 12
-8.6517199999999814
 22
1.6448382719145549
 32
0.0
 13
-8.6517199999999814
 23
1.6448382719145549
 33
0.0
210
0.0
220
0.0
230
-1.0
  0
SOLID
  5
26B0
  8
AM_8
  6
CONTINUOUS
 62
     1
 10
8.6517199999999832
 20
1.736038630833268
 30
0.0
 11
8.0053709674965532
 21
1.6448382719145549
 31
0.0
 12
8.6517199999999832
 22
1.6448382719145549
 32
0.0
 13
8.6517199999999832
 23
1.6448382719145549
 33
0.0
210
0.0
220
0.0
230
-1.0
  0
SOLID
  5
26B1
  8
AM_8
  6
CONTINUOUS
 62
     1
 10
8.6517199999999832
 20
1.736038630833268
 30
0.0
 11
7.9809339049748562
 21
1.736038630833268
 31
0.0
 12
8.0053709674965532
 22
1.6448382719145549
 32
0.0
 13
8.0053709674965532
 23
1.6448382719145549
 33
0.0
210
0.0
220
0.0
230
-1.0
  0
SOLID
  5
26B2
  8
AM_8
  6
CONTINUOUS
 62
     1
 10
-8.0053709674966385
 20
1.6448382719145549
 30
0.0
 11
-8.6517199999999814
 21
1.550779999999486
 31
0.0
 12
-8.0136000000000251
 22
1.550779999999486
 32
0.0
 13
-8.0136000000000251
 23
1.550779999999486
 33
0.0
210
0.0
220
0.0
230
-1.0
  0
SOLID
  5
26B3
  8
AM_8
  6
CONTINUOUS
 62
     1
 10
-8.0053709674966385
 20
1.6448382719145549
 30
0.0
 11
-8.6517199999999814
 21
1.6448382719145549
 31
0.0
 12
-8.6517199999999814
 22
1.550779999999486
 32
0.0
 13
-8.6517199999999814
 23
1.550779999999486
 33
0.0
210
0.0
220
0.0
230
-1.0
  0
SOLID
  5
26B4
  8
AM_8
  6
CONTINUOUS
 62
     1
 10
8.6517199999999832
 20
1.6448382719145549
 30
0.0
 11
8.0135999999999612
 21
1.550779999999486
 31
0.0
 12
8.6517199999999832
 22
1.550779999999486
 32
0.0
 13
8.6517199999999832
 23
1.550779999999486
 33
0.0
210
0.0
220
0.0
230
-1.0
  0
SOLID
  5
26B5
  8
AM_8
  6
CONTINUOUS
 62
     1
 10
8.6517199999999832
 20
1.6448382719145549
 30
0.0
 11
8.0053709674965532
 21
1.6448382719145549
 31
0.0
 12
8.0135999999999612
 22
1.550779999999486
 32
0.0
 13
8.0135999999999612
 23
1.550779999999486
 33
0.0
210
0.0
220
0.0
230
-1.0
  0
SOLID
  5
26B6
  8
AM_8
  6
CONTINUOUS
 62
     1
 10
-8.0136000000000251
 20
1.550779999999486
 30
0.0
 11
-8.6517199999999566
 21
-1.550780000000505
 31
0.0
 12
-8.0136000000000251
 22
-1.550780000000505
 32
0.0
 13
-8.0136000000000251
 23
-1.550780000000505
 33
0.0
210
0.0
220
0.0
230
-1.0
  0
SOLID
  5
26B7
  8
AM_8
  6
CONTINUOUS
 62
     1
 10
-8.0136000000000251
 20
1.550779999999486
 30
0.0
 11
-8.6517199999999814
 21
1.550779999999486
 31
0.0
 12
-8.6517199999999566
 22
-1.550780000000505
 32
0.0
 13
-8.6517199999999566
 23
-1.550780000000505
 33
0.0
210
0.0
220
0.0
230
-1.0
  0
SOLID
  5
26B8
  8
AM_8
  6
CONTINUOUS
 62
     1
 10
8.6517199999999832
 20
1.550779999999486
 30
0.0
 11
8.0135999999999683
 21
-1.550780000000505
 31
0.0
 12
8.6517199999999761
 22
-1.550780000000505
 32
0.0
 13
8.6517199999999761
 23
-1.550780000000505
 33
0.0
210
0.0
220
0.0
230
-1.0
  0
SOLID
  5
26B9
  8
AM_8
  6
CONTINUOUS
 62
     1
 10
8.6517199999999832
 20
1.550779999999486
 30
0.0
 11
8.0135999999999612
 21
1.550779999999486
 31
0.0
 12
8.0135999999999683
 22
-1.550780000000505
 32
0.0
 13
8.0135999999999683
 23
-1.550780000000505
 33
0.0
210
0.0
220
0.0
230
-1.0
  0
SOLID
  5
26BA
  8
AM_8
  6
CONTINUOUS
 62
     1
 10
8.6517199999999761
 20
-1.550780000000505
 30
0.0
 11
8.0053709674965603
 21
-1.6448382719155761
 31
0.0
 12
8.6517199999999761
 22
-1.6448382719155761
 32
0.0
 13
8.6517199999999761
 23
-1.6448382719155761
 33
0.0
210
0.0
220
0.0
230
-1.0
  0
SOLID
  5
26BB
  8
AM_8
  6
CONTINUOUS
 62
     1
 10
8.6517199999999761
 20
-1.550780000000505
 30
0.0
 11
8.0135999999999683
 21
-1.550780000000505
 31
0.0
 12
8.0053709674965603
 22
-1.6448382719155761
 32
0.0
 13
8.0053709674965603
 23
-1.6448382719155761
 33
0.0
210
0.0
220
0.0
230
-1.0
  0
SOLID
  5
26BC
  8
AM_8
  6
CONTINUOUS
 62
     1
 10
-8.0136000000000251
 20
-1.550780000000505
 30
0.0
 11
-8.6517199999999566
 21
-1.656452623823762
 31
0.0
 12
-8.0031921549832372
 22
-1.656452623823762
 32
0.0
 13
-8.0031921549832372
 23
-1.656452623823762
 33
0.0
210
0.0
220
0.0
230
-1.0
  0
SOLID
  5
26BD
  8
AM_8
  6
CONTINUOUS
 62
     1
 10
-8.0136000000000251
 20
-1.550780000000505
 30
0.0
 11
-8.6517199999999566
 21
-1.550780000000505
 31
0.0
 12
-8.6517199999999566
 22
-1.656452623823762
 32
0.0
 13
-8.6517199999999566
 23
-1.656452623823762
 33
0.0
210
0.0
220
0.0
230
-1.0
  0
SOLID
  5
26BE
  8
AM_8
  6
CONTINUOUS
 62
     1
 10
8.6517199999999761
 20
-1.6448382719155761
 30
0.0
 11
7.9809339049748624
 21
-1.736038630834289
 31
0.0
 12
8.6517199999999761
 22
-1.736038630834289
 32
0.0
 13
8.6517199999999761
 23
-1.736038630834289
 33
0.0
210
0.0
220
0.0
230
-1.0
  0
SOLID
  5
26BF
  8
AM_8
  6
CONTINUOUS
 62
     1
 10
8.6517199999999761
 20
-1.6448382719155761
 30
0.0
 11
8.0053709674965603
 21
-1.6448382719155761
 31
0.0
 12
7.9809339049748624
 22
-1.736038630834289
 32
0.0
 13
7.9809339049748624
 23
-1.736038630834289
 33
0.0
210
0.0
220
0.0
230
-1.0
  0
SOLID
  5
26C0
  8
AM_8
  6
CONTINUOUS
 62
     1
 10
-8.0031921549832372
 20
-1.656452623823762
 30
0.0
 11
-8.6517199999999548
 21
-1.758064307975381
 31
0.0
 12
-7.9723685875800872
 22
-1.758064307975381
 32
0.0
 13
-7.9723685875800872
 23
-1.758064307975381
 33
0.0
210
0.0
220
0.0
230
-1.0
  0
SOLID
  5
26C1
  8
AM_8
  6
CONTINUOUS
 62
     1
 10
-8.0031921549832372
 20
-1.656452623823762
 30
0.0
 11
-8.6517199999999566
 21
-1.656452623823762
 31
0.0
 12
-8.6517199999999548
 22
-1.758064307975381
 32
0.0
 13
-8.6517199999999548
 23
-1.758064307975381
 33
0.0
210
0.0
220
0.0
230
-1.0
  0
SOLID
  5
26C2
  8
AM_8
  6
CONTINUOUS
 62
     1
 10
-7.9723685875800872
 20
-1.758064307975381
 30
0.0
 11
-8.6517199999999548
 21
-1.773380000000512
 31
0.0
 12
-7.964182179637862
 22
-1.773380000000512
 32
0.0
 13
-7.964182179637862
 23
-1.773380000000512
 33
0.0
210
0.0
220
0.0
230
-1.0
  0
SOLID
  5
26C3
  8
AM_8
  6
CONTINUOUS
 62
     1
 10
-7.9723685875800872
 20
-1.758064307975381
 30
0.0
 11
-8.6517199999999548
 21
-1.758064307975381
 31
0.0
 12
-8.6517199999999548
 22
-1.773380000000512
 32
0.0
 13
-8.6517199999999548
 23
-1.773380000000512
 33
0.0
210
0.0
220
0.0
230
-1.0
  0
SOLID
  5
26C4
  8
AM_8
  6
CONTINUOUS
 62
     1
 10
8.6517199999999761
 20
-1.736038630834289
 30
0.0
 11
7.9635213385666601
 21
-1.773380000000512
 31
0.0
 12
8.6517199999999761
 22
-1.773380000000512
 32
0.0
 13
8.6517199999999761
 23
-1.773380000000512
 33
0.0
210
0.0
220
0.0
230
-1.0
  0
SOLID
  5
26C5
  8
AM_8
  6
CONTINUOUS
 62
     1
 10
8.6517199999999761
 20
-1.736038630834289
 30
0.0
 11
7.9809339049748624
 21
-1.736038630834289
 31
0.0
 12
7.9635213385666601
 22
-1.773380000000512
 32
0.0
 13
7.9635213385666601
 23
-1.773380000000512
 33
0.0
210
0.0
220
0.0
230
-1.0
  0
SOLID
  5
26C6
  8
AM_8
  6
CONTINUOUS
 62
     1
 10
8.6517199999999761
 20
-1.773380000000512
 30
0.0
 11
7.9410313202138463
 21
-1.8216100000005091
 31
0.0
 12
8.6475004217581173
 22
-1.8216100000005091
 32
0.0
 13
8.6475004217581173
 23
-1.8216100000005091
 33
0.0
210
0.0
220
0.0
230
-1.0
  0
SOLID
  5
26C7
  8
AM_8
  6
CONTINUOUS
 62
     1
 10
8.6517199999999761
 20
-1.773380000000512
 30
0.0
 11
7.9635213385666601
 21
-1.773380000000512
 31
0.0
 12
7.9410313202138463
 22
-1.8216100000005091
 32
0.0
 13
7.9410313202138463
 23
-1.8216100000005091
 33
0.0
210
0.0
220
0.0
230
-1.0
  0
SOLID
  5
26C8
  8
AM_8
  6
CONTINUOUS
 62
     1
 10
-7.964182179637862
 20
-1.773380000000512
 30
0.0
 11
-8.6448669979014028
 21
-1.8517101724179059
 31
0.0
 12
-7.9223138301998191
 22
-1.8517101724179059
 32
0.0
 13
-7.9223138301998191
 23
-1.8517101724179059
 33
0.0
210
0.0
220
0.0
230
-1.0
  0
SOLID
  5
26C9
  8
AM_8
  6
CONTINUOUS
 62
     1
 10
-7.964182179637862
 20
-1.773380000000512
 30
0.0
 11
-8.6517199999999548
 21
-1.773380000000512
 31
0.0
 12
-8.6448669979014028
 22
-1.8517101724179059
 32
0.0
 13
-8.6448669979014028
 23
-1.8517101724179059
 33
0.0
210
0.0
220
0.0
230
-1.0
  0
SOLID
  5
26CA
  8
AM_8
  6
CONTINUOUS
 62
     1
 10
-7.9223138301998191
 20
-1.8517101724179059
 30
0.0
 11
-8.6420255233521068
 21
-1.8841883751333179
 31
0.0
 12
-7.8956596580670464
 22
-1.8841883751333179
 32
0.0
 13
-7.8956596580670464
 23
-1.8841883751333179
 33
0.0
210
0.0
220
0.0
230
-1.0
  0
SOLID
  5
26CB
  8
AM_8
  6
CONTINUOUS
 62
     1
 10
-7.9223138301998191
 20
-1.8517101724179059
 30
0.0
 11
-8.6448669979014028
 21
-1.8517101724179059
 31
0.0
 12
-8.6420255233521068
 22
-1.8841883751333179
 32
0.0
 13
-8.6420255233521068
 23
-1.8841883751333179
 33
0.0
210
0.0
220
0.0
230
-1.0
  0
SOLID
  5
26CC
  8
AM_8
  6
CONTINUOUS
 62
     1
 10
8.6475004217581173
 20
-1.8216100000005091
 30
0.0
 11
7.8972134702169381
 21
-1.8841883751333179
 31
0.0
 12
8.6420255233521193
 22
-1.8841883751333179
 32
0.0
 13
8.6420255233521193
 23
-1.8841883751333179
 33
0.0
210
0.0
220
0.0
230
-1.0
  0
SOLID
  5
26CD
  8
AM_8
  6
CONTINUOUS
 62
     1
 10
8.6475004217581173
 20
-1.8216100000005091
 30
0.0
 11
7.9410313202138463
 21
-1.8216100000005091
 31
0.0
 12
7.8972134702169381
 22
-1.8841883751333179
 32
0.0
 13
7.8972134702169381
 23
-1.8841883751333179
 33
0.0
210
0.0
220
0.0
230
-1.0
  0
SOLID
  5
26CE
  8
AM_8
  6
CONTINUOUS
 62
     1
 10
8.6420255233521193
 20
-1.8841883751333179
 30
0.0
 11
7.886875633059792
 21
-1.898952336663321
 31
0.0
 12
8.6380695317830671
 22
-1.898952336663321
 32
0.0
 13
8.6380695317830671
 23
-1.898952336663321
 33
0.0
210
0.0
220
0.0
230
-1.0
  0
SOLID
  5
26CF
  8
AM_8
  6
CONTINUOUS
 62
     1
 10
8.6420255233521193
 20
-1.8841883751333179
 30
0.0
 11
7.8972134702169381
 21
-1.8841883751333179
 31
0.0
 12
7.886875633059792
 22
-1.898952336663321
 32
0.0
 13
7.886875633059792
 23
-1.898952336663321
 33
0.0
210
0.0
220
0.0
230
-1.0
  0
SOLID
  5
26D0
  8
AM_8
  6
CONTINUOUS
 62
     1
 10
-7.8956596580670464
 20
-1.8841883751333179
 30
0.0
 11
-8.6287344170616738
 21
-1.9337914590980141
 31
0.0
 12
-7.854951459097526
 22
-1.9337914590980141
 32
0.0
 13
-7.854951459097526
 23
-1.9337914590980141
 33
0.0
210
0.0
220
0.0
230
-1.0
  0
SOLID
  5
26D1
  8
AM_8
  6
CONTINUOUS
 62
     1
 10
-7.8956596580670464
 20
-1.8841883751333179
 30
0.0
 11
-8.6420255233521068
 21
-1.8841883751333179
 31
0.0
 12
-8.6287344170616738
 22
-1.9337914590980141
 32
0.0
 13
-8.6287344170616738
 23
-1.9337914590980141
 33
0.0
210
0.0
220
0.0
230
-1.0
  0
SOLID
  5
26D2
  8
AM_8
  6
CONTINUOUS
 62
     1
 10
8.6380695317830671
 20
-1.898952336663321
 30
0.0
 11
7.8201123366627758
 21
-1.965715633060336
 31
0.0
 12
8.620180360429444
 22
-1.965715633060336
 32
0.0
 13
8.620180360429444
 23
-1.965715633060336
 33
0.0
210
0.0
220
0.0
230
-1.0
  0
SOLID
  5
26D3
  8
AM_8
  6
CONTINUOUS
 62
     1
 10
8.6380695317830671
 20
-1.898952336663321
 30
0.0
 11
7.886875633059792
 21
-1.898952336663321
 31
0.0
 12
7.8201123366627758
 22
-1.965715633060336
 32
0.0
 13
7.8201123366627758
 23
-1.965715633060336
 33
0.0
210
0.0
220
0.0
230
-1.0
  0
SOLID
  5
26D4
  8
AM_8
  6
CONTINUOUS
 62
     1
 10
-7.854951459097526
 20
-1.9337914590980141
 30
0.0
 11
-8.6132366551758626
 21
-1.9916298938594621
 31
0.0
 12
-7.784475122426211
 22
-1.9916298938594621
 32
0.0
 13
-7.784475122426211
 23
-1.9916298938594621
 33
0.0
210
0.0
220
0.0
230
-1.0
  0
SOLID
  5
26D5
  8
AM_8
  6
CONTINUOUS
 62
     1
 10
-7.854951459097526
 20
-1.9337914590980141
 30
0.0
 11
-8.6287344170616738
 21
-1.9337914590980141
 31
0.0
 12
-8.6132366551758626
 22
-1.9916298938594621
 32
0.0
 13
-8.6132366551758626
 23
-1.9916298938594621
 33
0.0
210
0.0
220
0.0
230
-1.0
  0
SOLID
  5
26D6
  8
AM_8
  6
CONTINUOUS
 62
     1
 10
8.620180360429444
 20
-1.965715633060336
 30
0.0
 11
7.7831029367563112
 21
-1.9916298938594621
 31
0.0
 12
8.6132366551758661
 22
-1.9916298938594621
 32
0.0
 13
8.6132366551758661
 23
-1.9916298938594621
 33
0.0
210
0.0
220
0.0
230
-1.0
  0
SOLID
  5
26D7
  8
AM_8
  6
CONTINUOUS
 62
     1
 10
8.620180360429444
 20
-1.965715633060336
 30
0.0
 11
7.8201123366627758
 21
-1.965715633060336
 31
0.0
 12
7.7831029367563112
 22
-1.9916298938594621
 32
0.0
 13
7.7831029367563112
 23
-1.9916298938594621
 33
0.0
210
0.0
220
0.0
230
-1.0
  0
SOLID
  5
26D8
  8
AM_8
  6
CONTINUOUS
 62
     1
 10
-7.784475122426211
 20
-1.9916298938594621
 30
0.0
 11
-8.6087955707243449
 21
-2.0011538302003049
 31
0.0
 12
-7.7728701724174183
 22
-2.0011538302003049
 32
0.0
 13
-7.7728701724174183
 23
-2.0011538302003049
 33
0.0
210
0.0
220
0.0
230
-1.0
  0
SOLID
  5
26D9
  8
AM_8
  6
CONTINUOUS
 62
     1
 10
-7.784475122426211
 20
-1.9916298938594621
 30
0.0
 11
-8.6132366551758608
 21
-1.9916298938594621
 31
0.0
 12
-8.6087955707243449
 22
-2.0011538302003049
 32
0.0
 13
-8.6087955707243449
 23
-2.0011538302003049
 33
0.0
210
0.0
220
0.0
230
-1.0
  0
SOLID
  5
26DA
  8
AM_8
  6
CONTINUOUS
 62
     1
 10
8.6132366551758661
 20
-1.9916298938594621
 30
0.0
 11
7.7427699999999637
 21
-2.0198713202143912
 31
0.0
 12
8.6000674617893402
 22
-2.0198713202143912
 32
0.0
 13
8.6000674617893402
 23
-2.0198713202143912
 33
0.0
210
0.0
220
0.0
230
-1.0
  0
SOLID
  5
26DB
  8
AM_8
  6
CONTINUOUS
 62
     1
 10
8.6132366551758661
 20
-1.9916298938594621
 30
0.0
 11
7.7831029367563112
 21
-1.9916298938594621
 31
0.0
 12
7.7427699999999637
 22
-2.0198713202143912
 32
0.0
 13
7.7427699999999637
 23
-2.0198713202143912
 33
0.0
210
0.0
220
0.0
230
-1.0
  0
SOLID
  5
26DC
  8
AM_8
  6
CONTINUOUS
 62
     1
 10
-7.7728701724174183
 20
-2.0011538302003049
 30
0.0
 11
-8.5854546540308352
 21
-2.051208587580573
 31
0.0
 12
-7.6792243079748941
 22
-2.051208587580573
 32
0.0
 13
-7.6792243079748941
 23
-2.051208587580573
 33
0.0
210
0.0
220
0.0
230
-1.0
  0
SOLID
  5
26DD
  8
AM_8
  6
CONTINUOUS
 62
     1
 10
-7.7728701724174183
 20
-2.0011538302003049
 30
0.0
 11
-8.6087955707243449
 21
-2.0011538302003049
 31
0.0
 12
-8.5854546540308352
 22
-2.051208587580573
 32
0.0
 13
-8.5854546540308352
 23
-2.051208587580573
 33
0.0
210
0.0
220
0.0
230
-1.0
  0
SOLID
  5
26DE
  8
AM_8
  6
CONTINUOUS
 62
     1
 10
8.6000674617893402
 20
-2.0198713202143912
 30
0.0
 11
7.6571986308337454
 21
-2.0597739049754069
 31
0.0
 12
8.5814605809350955
 22
-2.0597739049754069
 32
0.0
 13
8.5814605809350955
 23
-2.0597739049754069
 33
0.0
210
0.0
220
0.0
230
-1.0
  0
SOLID
  5
26DF
  8
AM_8
  6
CONTINUOUS
 62
     1
 10
8.6000674617893402
 20
-2.0198713202143912
 30
0.0
 11
7.7427699999999637
 21
-2.0198713202143912
 31
0.0
 12
7.6571986308337454
 22
-2.0597739049754069
 32
0.0
 13
7.6571986308337454
 23
-2.0597739049754069
 33
0.0
210
0.0
220
0.0
230
-1.0
  0
SOLID
  5
26E0
  8
AM_8
  6
CONTINUOUS
 62
     1
 10
-7.6792243079748941
 20
-2.051208587580573
 30
0.0
 11
-8.5710813884990902
 21
-2.0820321549837231
 31
0.0
 12
-7.5776126238232751
 22
-2.0820321549837231
 32
0.0
 13
-7.5776126238232751
 23
-2.0820321549837231
 33
0.0
210
0.0
220
0.0
230
-1.0
  0
SOLID
  5
26E1
  8
AM_8
  6
CONTINUOUS
 62
     1
 10
-7.6792243079748941
 20
-2.051208587580573
 30
0.0
 11
-8.5854546540308352
 21
-2.051208587580573
 31
0.0
 12
-8.5710813884990902
 22
-2.0820321549837231
 32
0.0
 13
-8.5710813884990902
 23
-2.0820321549837231
 33
0.0
210
0.0
220
0.0
230
-1.0
  0
SOLID
  5
26E2
  8
AM_8
  6
CONTINUOUS
 62
     1
 10
8.5814605809350955
 20
-2.0597739049754069
 30
0.0
 11
7.5659982719150314
 21
-2.0842109674971052
 31
0.0
 12
8.5700653915384102
 22
-2.0842109674971052
 32
0.0
 13
8.5700653915384102
 23
-2.0842109674971052
 33
0.0
210
0.0
220
0.0
230
-1.0
  0
SOLID
  5
26E3
  8
AM_8
  6
CONTINUOUS
 62
     1
 10
8.5814605809350955
 20
-2.0597739049754069
 30
0.0
 11
7.6571986308337454
 21
-2.0597739049754069
 31
0.0
 12
7.5659982719150314
 22
-2.0842109674971052
 32
0.0
 13
7.5659982719150314
 23
-2.0842109674971052
 33
0.0
210
0.0
220
0.0
230
-1.0
  0
SOLID
  5
26E4
  8
AM_8
  6
CONTINUOUS
 62
     1
 10
-7.5776126238232751
 20
-2.0820321549837231
 30
0.0
 11
-8.5662281306628714
 21
-2.0924400000005128
 31
0.0
 12
-7.471939999999945
 22
-2.0924400000005128
 32
0.0
 13
-7.471939999999945
 23
-2.0924400000005128
 33
0.0
210
0.0
220
0.0
230
-1.0
  0
SOLID
  5
26E5
  8
AM_8
  6
CONTINUOUS
 62
     1
 10
-7.5776126238232751
 20
-2.0820321549837231
 30
0.0
 11
-8.5710813884990902
 21
-2.0820321549837231
 31
0.0
 12
-8.5662281306628714
 22
-2.0924400000005128
 32
0.0
 13
-8.5662281306628714
 23
-2.0924400000005128
 33
0.0
210
0.0
220
0.0
230
-1.0
  0
SOLID
  5
26E6
  8
AM_8
  6
CONTINUOUS
 62
     1
 10
8.5700653915384102
 20
-2.0842109674971052
 30
0.0
 11
7.4719399999999601
 21
-2.0924400000005128
 31
0.0
 12
8.566228130662866
 22
-2.0924400000005128
 32
0.0
 13
8.566228130662866
 23
-2.0924400000005128
 33
0.0
210
0.0
220
0.0
230
-1.0
  0
SOLID
  5
26E7
  8
AM_8
  6
CONTINUOUS
 62
     1
 10
8.5700653915384102
 20
-2.0842109674971052
 30
0.0
 11
7.5659982719150314
 21
-2.0842109674971052
 31
0.0
 12
7.4719399999999601
 22
-2.0924400000005128
 32
0.0
 13
7.4719399999999601
 23
-2.0924400000005128
 33
0.0
210
0.0
220
0.0
230
-1.0
  0
SOLID
  5
26E8
  8
AM_8
  6
CONTINUOUS
 62
     1
 10
8.5662281306628572
 20
-2.0924400000005128
 30
0.0
 11
-8.5024282800430502
 21
-2.1835556294936369
 31
0.0
 12
8.5024282800430377
 22
-2.1835556294936369
 32
0.0
 13
8.5024282800430377
 23
-2.1835556294936369
 33
0.0
210
0.0
220
0.0
230
-1.0
  0
SOLID
  5
26E9
  8
AM_8
  6
CONTINUOUS
 62
     1
 10
8.5662281306628572
 20
-2.0924400000005128
 30
0.0
 11
-8.5662281306628572
 21
-2.0924400000005128
 31
0.0
 12
-8.5024282800430502
 22
-2.1835556294936369
 32
0.0
 13
-8.5024282800430502
 23
-2.1835556294936369
 33
0.0
210
0.0
220
0.0
230
-1.0
  0
SOLID
  5
26EA
  8
AM_8
  6
CONTINUOUS
 62
     1
 10
8.5024282800430377
 20
-2.1835556294936369
 30
0.0
 11
-8.4237756294931501
 21
-2.262208280043533
 31
0.0
 12
8.4237756294931305
 22
-2.262208280043533
 32
0.0
 13
8.4237756294931305
 23
-2.262208280043533
 33
0.0
210
0.0
220
0.0
230
-1.0
  0
SOLID
  5
26EB
  8
AM_8
  6
CONTINUOUS
 62
     1
 10
8.5024282800430377
 20
-2.1835556294936369
 30
0.0
 11
-8.5024282800430466
 21
-2.1835556294936369
 31
0.0
 12
-8.4237756294931501
 22
-2.262208280043533
 32
0.0
 13
-8.4237756294931501
 23
-2.262208280043533
 33
0.0
210
0.0
220
0.0
230
-1.0
  0
SOLID
  5
26EC
  8
AM_8
  6
CONTINUOUS
 62
     1
 10
8.4237756294931305
 20
-2.262208280043533
 30
0.0
 11
-8.3326599999999864
 21
-2.3260081306633649
 31
0.0
 12
8.3326599999999562
 22
-2.3260081306633649
 32
0.0
 13
8.3326599999999562
 23
-2.3260081306633649
 33
0.0
210
0.0
220
0.0
230
-1.0
  0
SOLID
  5
26ED
  8
AM_8
  6
CONTINUOUS
 62
     1
 10
8.4237756294931305
 20
-2.262208280043533
 30
0.0
 11
-8.4237756294931412
 21
-2.262208280043533
 31
0.0
 12
-8.3326599999999864
 22
-2.3260081306633649
 32
0.0
 13
-8.3326599999999864
 23
-2.3260081306633649
 33
0.0
210
0.0
220
0.0
230
-1.0
  0
SOLID
  5
26EE
  8
AM_8
  6
CONTINUOUS
 62
     1
 10
8.3326599999999562
 20
-2.3260081306633649
 30
0.0
 11
-8.2318498938589766
 21
-2.3730166551763321
 31
0.0
 12
8.2318498938589375
 22
-2.3730166551763321
 32
0.0
 13
8.2318498938589375
 23
-2.3730166551763321
 33
0.0
210
0.0
220
0.0
230
-1.0
  0
SOLID
  5
26EF
  8
AM_8
  6
CONTINUOUS
 62
     1
 10
8.3326599999999562
 20
-2.3260081306633649
 30
0.0
 11
-8.3326599999999775
 21
-2.3260081306633649
 31
0.0
 12
-8.2318498938589766
 22
-2.3730166551763321
 32
0.0
 13
-8.2318498938589766
 23
-2.3730166551763321
 33
0.0
210
0.0
220
0.0
230
-1.0
  0
SOLID
  5
26F0
  8
AM_8
  6
CONTINUOUS
 62
     1
 10
8.2318498938589375
 20
-2.3730166551763321
 30
0.0
 11
-8.1244083751328464
 21
-2.4018055233525679
 31
0.0
 12
8.1244083751327896
 22
-2.4018055233525679
 32
0.0
 13
8.1244083751327896
 23
-2.4018055233525679
 33
0.0
210
0.0
220
0.0
230
-1.0
  0
SOLID
  5
26F1
  8
AM_8
  6
CONTINUOUS
 62
     1
 10
8.2318498938589375
 20
-2.3730166551763321
 30
0.0
 11
-8.2318498938589624
 21
-2.3730166551763321
 31
0.0
 12
-8.1244083751328464
 22
-2.4018055233525679
 32
0.0
 13
-8.1244083751328464
 23
-2.4018055233525679
 33
0.0
210
0.0
220
0.0
230
-1.0
  0
SOLID
  5
26F2
  8
AM_8
  6
CONTINUOUS
 62
     1
 10
8.1244083751327896
 20
-2.4018055233525679
 30
0.0
 11
-8.0136000000000536
 21
-2.4115000000004141
 31
0.0
 12
8.0135999999999274
 22
-2.4115000000004141
 32
0.0
 13
8.0135999999999274
 23
-2.4115000000004141
 33
0.0
210
0.0
220
0.0
230
-1.0
  0
SOLID
  5
26F3
  8
AM_8
  6
CONTINUOUS
 62
     1
 10
8.1244083751327896
 20
-2.4018055233525679
 30
0.0
 11
-8.1244083751328269
 21
-2.4018055233525679
 31
0.0
 12
-8.0136000000000536
 22
-2.4115000000004141
 32
0.0
 13
-8.0136000000000536
 23
-2.4115000000004141
 33
0.0
210
0.0
220
0.0
230
-1.0
  0
LINE
  5
26F4
  8
AM_8
  6
CONTINUOUS
 62
     1
 10
-8.1380910362849441
 20
2.3992387031303011
 30
0.0
 11
-8.0135999999999896
 21
2.4114999999993869
 31
0.0
  0
LINE
  5
26F5
  8
AM_8
  6
CONTINUOUS
 62
     1
 10
8.0136000000000323
 20
2.4114999999993869
 30
0.0
 11
8.1380910362849281
 21
2.3992387031303011
 31
0.0
  0
LINE
  5
26F6
  8
AM_8
  6
CONTINUOUS
 62
     1
 10
-8.2577979518608
 20
2.3629260072855018
 30
0.0
 11
-8.1380910362849228
 21
2.3992387031303011
 31
0.0
  0
LINE
  5
26F7
  8
AM_8
  6
CONTINUOUS
 62
     1
 10
8.1380910362849281
 20
2.3992387031303011
 30
0.0
 11
8.2577979518607965
 21
2.3629260072855018
 31
0.0
  0
LINE
  5
26F8
  8
AM_8
  6
CONTINUOUS
 62
     1
 10
-8.3681204770944451
 20
2.3039573890019112
 30
0.0
 11
-8.2577979518607911
 21
2.3629260072855018
 31
0.0
  0
LINE
  5
26F9
  8
AM_8
  6
CONTINUOUS
 62
     1
 10
8.2577979518607965
 20
2.3629260072855018
 30
0.0
 11
8.3681204770944451
 21
2.3039573890019112
 31
0.0
  0
LINE
  5
26FA
  8
AM_8
  6
CONTINUOUS
 62
     1
 10
-8.4648189792107296
 20
2.2245989792101839
 30
0.0
 11
-8.3681204770944415
 21
2.3039573890019112
 31
0.0
  0
LINE
  5
26FB
  8
AM_8
  6
CONTINUOUS
 62
     1
 10
8.3681204770944451
 20
2.3039573890019112
 30
0.0
 11
8.4648189792107296
 21
2.2245989792101839
 31
0.0
  0
LINE
  5
26FC
  8
AM_8
  6
CONTINUOUS
 62
     1
 10
-8.5441773890024653
 20
2.1279004770939078
 30
0.0
 11
-8.464818979210726
 21
2.2245989792101839
 31
0.0
  0
LINE
  5
26FD
  8
AM_8
  6
CONTINUOUS
 62
     1
 10
8.4648189792107296
 20
2.2245989792101839
 30
0.0
 11
8.544177389002467
 21
2.1279004770939078
 31
0.0
  0
LINE
  5
26FE
  8
AM_8
  6
CONTINUOUS
 62
     1
 10
-8.5631314088955666
 20
2.0924399999994789
 30
0.0
 11
-8.5441773890024635
 21
2.1279004770939078
 31
0.0
  0
LINE
  5
26FF
  8
AM_8
  6
CONTINUOUS
 62
     1
 10
8.544177389002467
 20
2.1279004770939078
 30
0.0
 11
8.5631314088955701
 21
2.0924399999994789
 31
0.0
  0
LINE
  5
2700
  8
AM_8
  6
CONTINUOUS
 62
     1
 10
7.5659982719151024
 20
2.084210967496074
 30
0.0
 11
7.471940000000032
 21
2.0924399999994789
 31
0.0
  0
LINE
  5
2701
  8
AM_8
  6
CONTINUOUS
 62
     1
 10
8.5631314088955701
 20
2.0924399999994789
 30
0.0
 11
8.5675299184067431
 21
2.084210967496074
 31
0.0
  0
LINE
  5
2702
  8
AM_8
  6
CONTINUOUS
 62
     1
 10
-8.5675299184067377
 20
2.084210967496074
 30
0.0
 11
-8.5631314088955666
 21
2.0924399999994789
 31
0.0
  0
LINE
  5
2703
  8
AM_8
  6
CONTINUOUS
 62
     1
 10
-7.4719400000000409
 20
2.0924399999994789
 30
0.0
 11
-7.5659982719150811
 21
2.084210967496074
 31
0.0
  0
LINE
  5
2704
  8
AM_8
  6
CONTINUOUS
 62
     1
 10
7.6571986308338147
 20
2.059773904974378
 30
0.0
 11
7.5659982719151024
 21
2.084210967496074
 31
0.0
  0
LINE
  5
2705
  8
AM_8
  6
CONTINUOUS
 62
     1
 10
8.5675299184067431
 20
2.084210967496074
 30
0.0
 11
8.5805918004545152
 21
2.059773904974378
 31
0.0
  0
LINE
  5
2706
  8
AM_8
  6
CONTINUOUS
 62
     1
 10
-8.5805918004545134
 20
2.059773904974378
 30
0.0
 11
-8.5675299184067377
 21
2.084210967496074
 31
0.0
  0
LINE
  5
2707
  8
AM_8
  6
CONTINUOUS
 62
     1
 10
-7.5659982719150474
 20
2.084210967496074
 30
0.0
 11
-7.6571986308337516
 21
2.059773904974378
 31
0.0
  0
LINE
  5
2708
  8
AM_8
  6
CONTINUOUS
 62
     1
 10
7.7427700000000348
 20
2.019871320213364
 30
0.0
 11
7.6571986308338147
 21
2.059773904974378
 31
0.0
  0
LINE
  5
2709
  8
AM_8
  6
CONTINUOUS
 62
     1
 10
8.5805918004545152
 20
2.059773904974378
 30
0.0
 11
8.6019201763625031
 21
2.019871320213364
 31
0.0
  0
LINE
  5
270A
  8
AM_8
  6
CONTINUOUS
 62
     1
 10
-8.6019201763624977
 20
2.019871320213364
 30
0.0
 11
-8.5805918004545134
 21
2.059773904974378
 31
0.0
  0
LINE
  5
270B
  8
AM_8
  6
CONTINUOUS
 62
     1
 10
-7.6571986308337481
 20
2.059773904974378
 30
0.0
 11
-7.742769999999962
 21
2.019871320213364
 31
0.0
  0
LINE
  5
270C
  8
AM_8
  6
CONTINUOUS
 62
     1
 10
7.746045269442237
 20
2.0175779518602668
 30
0.0
 11
7.7427700000000348
 21
2.019871320213364
 31
0.0
  0
LINE
  5
270D
  8
AM_8
  6
CONTINUOUS
 62
     1
 10
8.6019201763625031
 20
2.019871320213364
 30
0.0
 11
8.603146007286071
 21
2.0175779518602668
 31
0.0
  0
LINE
  5
270E
  8
AM_8
  6
CONTINUOUS
 62
     1
 10
-8.6031460072860657
 20
2.0175779518602668
 30
0.0
 11
-8.6019201763624977
 21
2.019871320213364
 31
0.0
  0
LINE
  5
270F
  8
AM_8
  6
CONTINUOUS
 62
     1
 10
-7.7427699999999611
 20
2.019871320213364
 30
0.0
 11
-7.7460452694421633
 21
2.0175779518602668
 31
0.0
  0
LINE
  5
2710
  8
AM_8
  6
CONTINUOUS
 62
     1
 10
7.8201123366628478
 20
1.9657156330593111
 30
0.0
 11
7.746045269442237
 21
2.0175779518602668
 31
0.0
  0
LINE
  5
2711
  8
AM_8
  6
CONTINUOUS
 62
     1
 10
8.603146007286071
 20
2.0175779518602668
 30
0.0
 11
8.6188782696985307
 21
1.9657156330593111
 31
0.0
  0
LINE
  5
2712
  8
AM_8
  6
CONTINUOUS
 62
     1
 10
-8.6188782696985271
 20
1.9657156330593111
 30
0.0
 11
-8.6031460072860657
 21
2.0175779518602668
 31
0.0
  0
LINE
  5
2713
  8
AM_8
  6
CONTINUOUS
 62
     1
 10
-7.7460452694421633
 20
2.0175779518602668
 30
0.0
 11
-7.8201123366627723
 21
1.9657156330593111
 31
0.0
  0
LINE
  5
2714
  8
AM_8
  6
CONTINUOUS
 62
     1
 10
7.8868756330598648
 20
1.8989523366622969
 30
0.0
 11
7.8201123366628478
 21
1.9657156330593111
 31
0.0
  0
LINE
  5
2715
  8
AM_8
  6
CONTINUOUS
 62
     1
 10
8.6188782696985307
 20
1.9657156330593111
 30
0.0
 11
8.6391306942472657
 21
1.8989523366622969
 31
0.0
  0
LINE
  5
2716
  8
AM_8
  6
CONTINUOUS
 62
     1
 10
-8.6391306942472603
 20
1.8989523366622969
 30
0.0
 11
-8.6188782696985271
 21
1.9657156330593111
 31
0.0
  0
LINE
  5
2717
  8
AM_8
  6
CONTINUOUS
 62
     1
 10
-7.8201123366627723
 20
1.9657156330593111
 30
0.0
 11
-7.8868756330597858
 21
1.8989523366622969
 31
0.0
  0
LINE
  5
2718
  8
AM_8
  6
CONTINUOUS
 62
     1
 10
7.8876327677355347
 20
1.8978710362844029
 30
0.0
 11
7.8868756330598648
 21
1.8989523366622969
 31
0.0
  0
LINE
  5
2719
  8
AM_8
  6
CONTINUOUS
 62
     1
 10
8.6391306942472657
 20
1.8989523366622969
 30
0.0
 11
8.6394587031308827
 21
1.8978710362844029
 31
0.0
  0
LINE
  5
271A
  8
AM_8
  6
CONTINUOUS
 62
     1
 10
-8.6394587031308774
 20
1.8978710362844029
 30
0.0
 11
-8.6391306942472603
 21
1.8989523366622969
 31
0.0
  0
LINE
  5
271B
  8
AM_8
  6
CONTINUOUS
 62
     1
 10
-7.8868756330597858
 20
1.8989523366622969
 30
0.0
 11
-7.8876327677354556
 21
1.8978710362844029
 31
0.0
  0
LINE
  5
271C
  8
AM_8
  6
CONTINUOUS
 62
     1
 10
7.9410313202139209
 20
1.8216099999994859
 30
0.0
 11
7.8876327677355347
 21
1.8978710362844029
 31
0.0
  0
LINE
  5
271D
  8
AM_8
  6
CONTINUOUS
 62
     1
 10
8.6394587031308827
 20
1.8978710362844029
 30
0.0
 11
8.6469697596160628
 21
1.8216099999994859
 31
0.0
  0
LINE
  5
271E
  8
AM_8
  6
CONTINUOUS
 62
     1
 10
-8.6469697596160611
 20
1.8216099999994859
 30
0.0
 11
-8.6394587031308774
 21
1.8978710362844029
 31
0.0
  0
LINE
  5
271F
  8
AM_8
  6
CONTINUOUS
 62
     1
 10
-7.8876327677354556
 20
1.8978710362844029
 30
0.0
 11
-7.9410313202138401
 21
1.8216099999994859
 31
0.0
  0
LINE
  5
2720
  8
AM_8
  6
CONTINUOUS
 62
     1
 10
7.9635213385667383
 20
1.7733799999994859
 30
0.0
 11
7.9410313202139209
 21
1.8216099999994859
 31
0.0
  0
LINE
  5
2721
  8
AM_8
  6
CONTINUOUS
 62
     1
 10
8.6469697596160628
 20
1.8216099999994859
 30
0.0
 11
8.6517199999999832
 21
1.7733799999994859
 31
0.0
  0
LINE
  5
2722
  8
AM_8
  6
CONTINUOUS
 62
     1
 10
-8.6517199999999832
 20
1.7733799999994859
 30
0.0
 11
-8.6469697596160611
 21
1.8216099999994859
 31
0.0
  0
LINE
  5
2723
  8
AM_8
  6
CONTINUOUS
 62
     1
 10
-7.9410313202138401
 20
1.8216099999994859
 30
0.0
 11
-7.9635213385666548
 21
1.7733799999994859
 31
0.0
  0
LINE
  5
2724
  8
AM_8
  6
CONTINUOUS
 62
     1
 10
7.9809339049749388
 20
1.736038630833268
 30
0.0
 11
7.9635213385667383
 21
1.7733799999994859
 31
0.0
  0
LINE
  5
2725
  8
AM_8
  6
CONTINUOUS
 62
     1
 10
8.6517199999999832
 20
1.7733799999994859
 30
0.0
 11
8.6517199999999832
 21
1.736038630833268
 31
0.0
  0
LINE
  5
2726
  8
AM_8
  6
CONTINUOUS
 62
     1
 10
-8.6517199999999832
 20
1.736038630833268
 30
0.0
 11
-8.6517199999999832
 21
1.7733799999994859
 31
0.0
  0
LINE
  5
2727
  8
AM_8
  6
CONTINUOUS
 62
     1
 10
-7.9635213385666548
 20
1.7733799999994859
 30
0.0
 11
-7.9809339049748562
 21
1.736038630833268
 31
0.0
  0
LINE
  5
2728
  8
AM_8
  6
CONTINUOUS
 62
     1
 10
8.0053709674966385
 20
1.6448382719145549
 30
0.0
 11
7.9809339049749379
 21
1.736038630833268
 31
0.0
  0
LINE
  5
2729
  8
AM_8
  6
CONTINUOUS
 62
     1
 10
8.6517199999999832
 20
1.736038630833268
 30
0.0
 11
8.6517199999999814
 21
1.6448382719145549
 31
0.0
  0
LINE
  5
272A
  8
AM_8
  6
CONTINUOUS
 62
     1
 10
-8.6517199999999832
 20
1.6448382719145549
 30
0.0
 11
-8.6517199999999832
 21
1.736038630833268
 31
0.0
  0
LINE
  5
272B
  8
AM_8
  6
CONTINUOUS
 62
     1
 10
-7.9809339049748562
 20
1.736038630833268
 30
0.0
 11
-8.0053709674965532
 21
1.6448382719145549
 31
0.0
  0
LINE
  5
272C
  8
AM_8
  6
CONTINUOUS
 62
     1
 10
8.0136000000000251
 20
1.550779999999486
 30
0.0
 11
8.0053709674966385
 21
1.6448382719145549
 31
0.0
  0
LINE
  5
272D
  8
AM_8
  6
CONTINUOUS
 62
     1
 10
8.6517199999999814
 20
1.6448382719145549
 30
0.0
 11
8.6517199999999814
 21
1.550779999999486
 31
0.0
  0
LINE
  5
272E
  8
AM_8
  6
CONTINUOUS
 62
     1
 10
-8.6517199999999832
 20
1.550779999999486
 30
0.0
 11
-8.6517199999999832
 21
1.6448382719145549
 31
0.0
  0
LINE
  5
272F
  8
AM_8
  6
CONTINUOUS
 62
     1
 10
-8.0053709674965532
 20
1.6448382719145549
 30
0.0
 11
-8.0135999999999612
 21
1.550779999999486
 31
0.0
  0
LINE
  5
2730
  8
AM_8
  6
CONTINUOUS
 62
     1
 10
8.0136000000000251
 20
-1.550780000000505
 30
0.0
 11
8.0136000000000251
 21
1.550779999999486
 31
0.0
  0
LINE
  5
2731
  8
AM_8
  6
CONTINUOUS
 62
     1
 10
8.6517199999999814
 20
1.550779999999486
 30
0.0
 11
8.6517199999999566
 21
-1.550780000000505
 31
0.0
  0
LINE
  5
2732
  8
AM_8
  6
CONTINUOUS
 62
     1
 10
-8.6517199999999761
 20
-1.550780000000505
 30
0.0
 11
-8.6517199999999832
 21
1.550779999999486
 31
0.0
  0
LINE
  5
2733
  8
AM_8
  6
CONTINUOUS
 62
     1
 10
-8.0135999999999612
 20
1.550779999999486
 30
0.0
 11
-8.0135999999999683
 21
-1.550780000000505
 31
0.0
  0
LINE
  5
2734
  8
AM_8
  6
CONTINUOUS
 62
     1
 10
-8.6517199999999761
 20
-1.6448382719155761
 30
0.0
 11
-8.6517199999999761
 21
-1.550780000000505
 31
0.0
  0
LINE
  5
2735
  8
AM_8
  6
CONTINUOUS
 62
     1
 10
-8.0135999999999683
 20
-1.550780000000505
 30
0.0
 11
-8.0053709674965603
 21
-1.6448382719155761
 31
0.0
  0
LINE
  5
2736
  8
AM_8
  6
CONTINUOUS
 62
     1
 10
8.0031921549832372
 20
-1.656452623823762
 30
0.0
 11
8.0136000000000251
 21
-1.550780000000505
 31
0.0
  0
LINE
  5
2737
  8
AM_8
  6
CONTINUOUS
 62
     1
 10
8.6517199999999566
 20
-1.550780000000505
 30
0.0
 11
8.6517199999999566
 21
-1.656452623823762
 31
0.0
  0
LINE
  5
2738
  8
AM_8
  6
CONTINUOUS
 62
     1
 10
-8.6517199999999761
 20
-1.736038630834289
 30
0.0
 11
-8.6517199999999761
 21
-1.6448382719155761
 31
0.0
  0
LINE
  5
2739
  8
AM_8
  6
CONTINUOUS
 62
     1
 10
-8.0053709674965603
 20
-1.6448382719155761
 30
0.0
 11
-7.9809339049748624
 21
-1.736038630834289
 31
0.0
  0
LINE
  5
273A
  8
AM_8
  6
CONTINUOUS
 62
     1
 10
7.9723685875800872
 20
-1.758064307975381
 30
0.0
 11
8.0031921549832372
 21
-1.656452623823762
 31
0.0
  0
LINE
  5
273B
  8
AM_8
  6
CONTINUOUS
 62
     1
 10
8.6517199999999566
 20
-1.656452623823762
 30
0.0
 11
8.6517199999999548
 21
-1.758064307975381
 31
0.0
  0
LINE
  5
273C
  8
AM_8
  6
CONTINUOUS
 62
     1
 10
7.964182179637862
 20
-1.773380000000512
 30
0.0
 11
7.9723685875800872
 21
-1.758064307975381
 31
0.0
  0
LINE
  5
273D
  8
AM_8
  6
CONTINUOUS
 62
     1
 10
8.6517199999999548
 20
-1.758064307975381
 30
0.0
 11
8.6517199999999548
 21
-1.773380000000512
 31
0.0
  0
LINE
  5
273E
  8
AM_8
  6
CONTINUOUS
 62
     1
 10
-8.6517199999999761
 20
-1.773380000000512
 30
0.0
 11
-8.6517199999999761
 21
-1.736038630834289
 31
0.0
  0
LINE
  5
273F
  8
AM_8
  6
CONTINUOUS
 62
     1
 10
-7.9809339049748624
 20
-1.736038630834289
 30
0.0
 11
-7.9635213385666601
 21
-1.773380000000512
 31
0.0
  0
LINE
  5
2740
  8
AM_8
  6
CONTINUOUS
 62
     1
 10
-8.6475004217581173
 20
-1.8216100000005091
 30
0.0
 11
-8.6517199999999761
 21
-1.773380000000512
 31
0.0
  0
LINE
  5
2741
  8
AM_8
  6
CONTINUOUS
 62
     1
 10
-7.9635213385666601
 20
-1.773380000000512
 30
0.0
 11
-7.9410313202138463
 21
-1.8216100000005091
 31
0.0
  0
LINE
  5
2742
  8
AM_8
  6
CONTINUOUS
 62
     1
 10
7.9223138301998191
 20
-1.8517101724179059
 30
0.0
 11
7.964182179637862
 21
-1.773380000000512
 31
0.0
  0
LINE
  5
2743
  8
AM_8
  6
CONTINUOUS
 62
     1
 10
8.6517199999999548
 20
-1.773380000000512
 30
0.0
 11
8.6448669979014028
 21
-1.8517101724179059
 31
0.0
  0
LINE
  5
2744
  8
AM_8
  6
CONTINUOUS
 62
     1
 10
7.8956596580670464
 20
-1.8841883751333179
 30
0.0
 11
7.9223138301998191
 21
-1.8517101724179059
 31
0.0
  0
LINE
  5
2745
  8
AM_8
  6
CONTINUOUS
 62
     1
 10
8.6448669979014028
 20
-1.8517101724179059
 30
0.0
 11
8.6420255233521068
 21
-1.8841883751333179
 31
0.0
  0
LINE
  5
2746
  8
AM_8
  6
CONTINUOUS
 62
     1
 10
-8.6420255233521193
 20
-1.8841883751333179
 30
0.0
 11
-8.6475004217581173
 21
-1.8216100000005091
 31
0.0
  0
LINE
  5
2747
  8
AM_8
  6
CONTINUOUS
 62
     1
 10
-7.9410313202138463
 20
-1.8216100000005091
 30
0.0
 11
-7.8972134702169381
 21
-1.8841883751333179
 31
0.0
  0
LINE
  5
2748
  8
AM_8
  6
CONTINUOUS
 62
     1
 10
-8.6380695317830671
 20
-1.898952336663321
 30
0.0
 11
-8.6420255233521193
 21
-1.8841883751333179
 31
0.0
  0
LINE
  5
2749
  8
AM_8
  6
CONTINUOUS
 62
     1
 10
-7.8972134702169381
 20
-1.8841883751333179
 30
0.0
 11
-7.886875633059792
 21
-1.898952336663321
 31
0.0
  0
LINE
  5
274A
  8
AM_8
  6
CONTINUOUS
 62
     1
 10
7.854951459097526
 20
-1.9337914590980141
 30
0.0
 11
7.8956596580670464
 21
-1.8841883751333179
 31
0.0
  0
LINE
  5
274B
  8
AM_8
  6
CONTINUOUS
 62
     1
 10
8.6420255233521068
 20
-1.8841883751333179
 30
0.0
 11
8.6287344170616738
 21
-1.9337914590980141
 31
0.0
  0
LINE
  5
274C
  8
AM_8
  6
CONTINUOUS
 62
     1
 10
-8.620180360429444
 20
-1.965715633060336
 30
0.0
 11
-8.6380695317830671
 21
-1.898952336663321
 31
0.0
  0
LINE
  5
274D
  8
AM_8
  6
CONTINUOUS
 62
     1
 10
-7.886875633059792
 20
-1.898952336663321
 30
0.0
 11
-7.8201123366627758
 21
-1.965715633060336
 31
0.0
  0
LINE
  5
274E
  8
AM_8
  6
CONTINUOUS
 62
     1
 10
7.784475122426211
 20
-1.9916298938594621
 30
0.0
 11
7.854951459097526
 21
-1.9337914590980141
 31
0.0
  0
LINE
  5
274F
  8
AM_8
  6
CONTINUOUS
 62
     1
 10
8.6287344170616738
 20
-1.9337914590980141
 30
0.0
 11
8.6132366551758626
 21
-1.9916298938594621
 31
0.0
  0
LINE
  5
2750
  8
AM_8
  6
CONTINUOUS
 62
     1
 10
-8.6132366551758661
 20
-1.9916298938594621
 30
0.0
 11
-8.620180360429444
 21
-1.965715633060336
 31
0.0
  0
LINE
  5
2751
  8
AM_8
  6
CONTINUOUS
 62
     1
 10
-7.8201123366627758
 20
-1.965715633060336
 30
0.0
 11
-7.7831029367563112
 21
-1.9916298938594621
 31
0.0
  0
LINE
  5
2752
  8
AM_8
  6
CONTINUOUS
 62
     1
 10
7.7728701724174183
 20
-2.0011538302003049
 30
0.0
 11
7.784475122426211
 21
-1.9916298938594621
 31
0.0
  0
LINE
  5
2753
  8
AM_8
  6
CONTINUOUS
 62
     1
 10
8.6132366551758608
 20
-1.9916298938594621
 30
0.0
 11
8.6087955707243449
 21
-2.0011538302003049
 31
0.0
  0
LINE
  5
2754
  8
AM_8
  6
CONTINUOUS
 62
     1
 10
-8.6000674617893402
 20
-2.0198713202143912
 30
0.0
 11
-8.6132366551758661
 21
-1.9916298938594621
 31
0.0
  0
LINE
  5
2755
  8
AM_8
  6
CONTINUOUS
 62
     1
 10
-7.7831029367563112
 20
-1.9916298938594621
 30
0.0
 11
-7.7427699999999637
 21
-2.0198713202143912
 31
0.0
  0
LINE
  5
2756
  8
AM_8
  6
CONTINUOUS
 62
     1
 10
7.6792243079748941
 20
-2.051208587580573
 30
0.0
 11
7.7728701724174183
 21
-2.0011538302003049
 31
0.0
  0
LINE
  5
2757
  8
AM_8
  6
CONTINUOUS
 62
     1
 10
8.6087955707243449
 20
-2.0011538302003049
 30
0.0
 11
8.5854546540308352
 21
-2.051208587580573
 31
0.0
  0
LINE
  5
2758
  8
AM_8
  6
CONTINUOUS
 62
     1
 10
-8.5814605809350955
 20
-2.0597739049754069
 30
0.0
 11
-8.6000674617893402
 21
-2.0198713202143912
 31
0.0
  0
LINE
  5
2759
  8
AM_8
  6
CONTINUOUS
 62
     1
 10
-7.7427699999999637
 20
-2.0198713202143912
 30
0.0
 11
-7.6571986308337454
 21
-2.0597739049754069
 31
0.0
  0
LINE
  5
275A
  8
AM_8
  6
CONTINUOUS
 62
     1
 10
7.5776126238232751
 20
-2.0820321549837231
 30
0.0
 11
7.6792243079748941
 21
-2.051208587580573
 31
0.0
  0
LINE
  5
275B
  8
AM_8
  6
CONTINUOUS
 62
     1
 10
8.5854546540308352
 20
-2.051208587580573
 30
0.0
 11
8.5710813884990902
 21
-2.0820321549837231
 31
0.0
  0
LINE
  5
275C
  8
AM_8
  6
CONTINUOUS
 62
     1
 10
-8.5700653915384102
 20
-2.0842109674971052
 30
0.0
 11
-8.5814605809350955
 21
-2.0597739049754069
 31
0.0
  0
LINE
  5
275D
  8
AM_8
  6
CONTINUOUS
 62
     1
 10
-7.6571986308337454
 20
-2.0597739049754069
 30
0.0
 11
-7.5659982719150314
 21
-2.0842109674971052
 31
0.0
  0
LINE
  5
275E
  8
AM_8
  6
CONTINUOUS
 62
     1
 10
7.471939999999945
 20
-2.0924400000005128
 30
0.0
 11
7.5776126238232751
 21
-2.0820321549837231
 31
0.0
  0
LINE
  5
275F
  8
AM_8
  6
CONTINUOUS
 62
     1
 10
8.5710813884990902
 20
-2.0820321549837231
 30
0.0
 11
8.5662281306628714
 21
-2.0924400000005128
 31
0.0
  0
LINE
  5
2760
  8
AM_8
  6
CONTINUOUS
 62
     1
 10
-8.566228130662866
 20
-2.0924400000005128
 30
0.0
 11
-8.5700653915384102
 21
-2.0842109674971052
 31
0.0
  0
LINE
  5
2761
  8
AM_8
  6
CONTINUOUS
 62
     1
 10
-7.5659982719150314
 20
-2.0842109674971052
 30
0.0
 11
-7.4719399999999601
 21
-2.0924400000005128
 31
0.0
  0
LINE
  5
2762
  8
AM_8
  6
CONTINUOUS
 62
     1
 10
-8.5024282800430377
 20
-2.1835556294936369
 30
0.0
 11
-8.5662281306628572
 21
-2.0924400000005128
 31
0.0
  0
LINE
  5
2763
  8
AM_8
  6
CONTINUOUS
 62
     1
 10
8.5662281306628572
 20
-2.0924400000005128
 30
0.0
 11
8.5024282800430502
 21
-2.1835556294936369
 31
0.0
  0
LINE
  5
2764
  8
AM_8
  6
CONTINUOUS
 62
     1
 10
-8.4237756294931305
 20
-2.262208280043533
 30
0.0
 11
-8.5024282800430377
 21
-2.1835556294936369
 31
0.0
  0
LINE
  5
2765
  8
AM_8
  6
CONTINUOUS
 62
     1
 10
8.5024282800430466
 20
-2.1835556294936369
 30
0.0
 11
8.4237756294931501
 21
-2.262208280043533
 31
0.0
  0
LINE
  5
2766
  8
AM_8
  6
CONTINUOUS
 62
     1
 10
-8.3326599999999562
 20
-2.3260081306633649
 30
0.0
 11
-8.4237756294931305
 21
-2.262208280043533
 31
0.0
  0
LINE
  5
2767
  8
AM_8
  6
CONTINUOUS
 62
     1
 10
8.4237756294931412
 20
-2.262208280043533
 30
0.0
 11
8.3326599999999864
 21
-2.3260081306633649
 31
0.0
  0
LINE
  5
2768
  8
AM_8
  6
CONTINUOUS
 62
     1
 10
-8.2318498938589375
 20
-2.3730166551763321
 30
0.0
 11
-8.3326599999999562
 21
-2.3260081306633649
 31
0.0
  0
LINE
  5
2769
  8
AM_8
  6
CONTINUOUS
 62
     1
 10
8.3326599999999775
 20
-2.3260081306633649
 30
0.0
 11
8.2318498938589766
 21
-2.3730166551763321
 31
0.0
  0
LINE
  5
276A
  8
AM_8
  6
CONTINUOUS
 62
     1
 10
-8.1244083751327896
 20
-2.4018055233525679
 30
0.0
 11
-8.2318498938589375
 21
-2.3730166551763321
 31
0.0
  0
LINE
  5
276B
  8
AM_8
  6
CONTINUOUS
 62
     1
 10
8.2318498938589624
 20
-2.3730166551763321
 30
0.0
 11
8.1244083751328464
 21
-2.4018055233525679
 31
0.0
  0
LINE
  5
276C
  8
AM_8
  6
CONTINUOUS
 62
     1
 10
-8.0135999999999274
 20
-2.4115000000004141
 30
0.0
 11
-8.1244083751327896
 21
-2.4018055233525679
 31
0.0
  0
LINE
  5
276D
  8
AM_8
  6
CONTINUOUS
 62
     1
 10
8.1244083751328269
 20
-2.4018055233525679
 30
0.0
 11
8.0136000000000536
 21
-2.4115000000004141
 31
0.0
  0
ENDBLK
  5
276F
  8
0
  0
BLOCK
  8
0
  2
*U93
 70
     1
 10
0.0
 20
0.0
 30
0.0
  3
*U93
  1

  0
SOLID
  5
2771
  8
AM_8
  6
CONTINUOUS
 62
     1
 10
7.5312999999999866
 20
1.0387999999994919
 30
0.0
 11
5.4536999999999694
 21
0.5935999999994924
 31
0.0
 12
7.5312999999999866
 22
0.5935999999994924
 32
0.0
 13
7.5312999999999866
 23
0.5935999999994924
 33
0.0
210
0.0
220
0.0
230
-1.0
  0
SOLID
  5
2772
  8
AM_8
  6
CONTINUOUS
 62
     1
 10
7.5312999999999866
 20
1.0387999999994919
 30
0.0
 11
5.4536999999999694
 21
1.0387999999994919
 31
0.0
 12
5.4536999999999694
 22
0.5935999999994924
 32
0.0
 13
5.4536999999999694
 23
0.5935999999994924
 33
0.0
210
0.0
220
0.0
230
-1.0
  0
SOLID
  5
2773
  8
AM_8
  6
CONTINUOUS
 62
     1
 10
6.7596199999999831
 20
0.5935999999994924
 30
0.0
 11
6.2253799999999719
 21
-1.224300000000516
 31
0.0
 12
6.7596199999999831
 22
-1.224300000000516
 32
0.0
 13
6.7596199999999831
 23
-1.224300000000516
 33
0.0
210
0.0
220
0.0
230
-1.0
  0
SOLID
  5
2774
  8
AM_8
  6
CONTINUOUS
 62
     1
 10
6.7596199999999831
 20
0.5935999999994924
 30
0.0
 11
6.2253799999999719
 21
0.5935999999994924
 31
0.0
 12
6.2253799999999719
 22
-1.224300000000516
 32
0.0
 13
6.2253799999999719
 23
-1.224300000000516
 33
0.0
210
0.0
220
0.0
230
-1.0
  0
LINE
  5
2775
  8
AM_8
  6
CONTINUOUS
 62
     1
 10
-7.5312999999999866
 20
0.5935999999994924
 30
0.0
 11
-7.5312999999999866
 21
1.0387999999994919
 31
0.0
  0
LINE
  5
2776
  8
AM_8
  6
CONTINUOUS
 62
     1
 10
-5.4536999999999694
 20
1.0387999999994919
 30
0.0
 11
-5.4536999999999694
 21
0.5935999999994924
 31
0.0
  0
LINE
  5
2777
  8
AM_8
  6
CONTINUOUS
 62
     1
 10
-6.7596199999999831
 20
-1.224300000000516
 30
0.0
 11
-6.7596199999999831
 21
0.5935999999994924
 31
0.0
  0
LINE
  5
2778
  8
AM_8
  6
CONTINUOUS
 62
     1
 10
-6.2253799999999719
 20
0.5935999999994924
 30
0.0
 11
-6.2253799999999719
 21
-1.224300000000516
 31
0.0
  0
ENDBLK
  5
277A
  8
0
  0
BLOCK
  8
0
  2
*U94
 70
     1
 10
0.0
 20
0.0
 30
0.0
  3
*U94
  1

  0
SOLID
  5
277C
  8
AM_8
  6
CONTINUOUS
 62
     1
 10
4.9936599999999771
 20
1.0387999999994919
 30
0.0
 11
4.062009114754062
 21
0.5223399999994971
 31
0.0
 12
5.18331088524587
 22
0.5223399999994971
 32
0.0
 13
5.18331088524587
 23
0.5223399999994971
 33
0.0
210
0.0
220
0.0
230
-1.0
  0
SOLID
  5
277D
  8
AM_8
  6
CONTINUOUS
 62
     1
 10
4.9936599999999771
 20
1.0387999999994919
 30
0.0
 11
4.2516599999999576
 21
1.0387999999994919
 31
0.0
 12
4.062009114754062
 22
0.5223399999994971
 32
0.0
 13
4.062009114754062
 23
0.5223399999994971
 33
0.0
210
0.0
220
0.0
230
-1.0
  0
SOLID
  5
277E
  8
AM_8
  6
CONTINUOUS
 62
     1
 10
4.6226599999999669
 20
0.5223399999994971
 30
0.0
 11
3.7721090491802949
 21
-0.2671200000005083
 31
0.0
 12
4.332759934426206
 22
-0.2671200000005083
 32
0.0
 13
4.332759934426206
 23
-0.2671200000005083
 33
0.0
210
0.0
220
0.0
230
-1.0
  0
SOLID
  5
277F
  8
AM_8
  6
CONTINUOUS
 62
     1
 10
4.6226599999999669
 20
0.5223399999994971
 30
0.0
 11
4.062009114754062
 21
0.5223399999994971
 31
0.0
 12
3.7721090491802949
 22
-0.2671200000005083
 32
0.0
 13
3.7721090491802949
 23
-0.2671200000005083
 33
0.0
210
0.0
220
0.0
230
-1.0
  0
SOLID
  5
2780
  8
AM_8
  6
CONTINUOUS
 62
     1
 10
5.18331088524587
 20
0.5223399999994971
 30
0.0
 11
4.9125600655737278
 21
-0.2671200000005083
 31
0.0
 12
5.4732109508196309
 22
-0.2671200000005083
 32
0.0
 13
5.4732109508196309
 23
-0.2671200000005083
 33
0.0
210
0.0
220
0.0
230
-1.0
  0
SOLID
  5
2781
  8
AM_8
  6
CONTINUOUS
 62
     1
 10
5.18331088524587
 20
0.5223399999994971
 30
0.0
 11
4.6226599999999669
 21
0.5223399999994971
 31
0.0
 12
4.9125600655737278
 22
-0.2671200000005083
 32
0.0
 13
4.9125600655737278
 23
-0.2671200000005083
 33
0.0
210
0.0
220
0.0
230
-1.0
  0
SOLID
  5
2782
  8
AM_8
  6
CONTINUOUS
 62
     1
 10
5.4732109508196309
 20
-0.2671200000005083
 30
0.0
 11
3.6004516065573462
 21
-0.734580000000511
 31
0.0
 12
5.644868393442577
 22
-0.734580000000511
 32
0.0
 13
5.644868393442577
 23
-0.734580000000511
 33
0.0
210
0.0
220
0.0
230
-1.0
  0
SOLID
  5
2783
  8
AM_8
  6
CONTINUOUS
 62
     1
 10
5.4732109508196309
 20
-0.2671200000005083
 30
0.0
 11
3.7721090491802949
 21
-0.2671200000005083
 31
0.0
 12
3.6004516065573462
 22
-0.734580000000511
 32
0.0
 13
3.6004516065573462
 23
-0.734580000000511
 33
0.0
210
0.0
220
0.0
230
-1.0
  0
SOLID
  5
2784
  8
AM_8
  6
CONTINUOUS
 62
     1
 10
4.1611024918032617
 20
-0.734580000000511
 30
0.0
 11
3.4206199999999711
 21
-1.224300000000516
 31
0.0
 12
3.981270885245876
 22
-1.224300000000516
 32
0.0
 13
3.981270885245876
 23
-1.224300000000516
 33
0.0
210
0.0
220
0.0
230
-1.0
  0
SOLID
  5
2785
  8
AM_8
  6
CONTINUOUS
 62
     1
 10
4.1611024918032617
 20
-0.734580000000511
 30
0.0
 11
3.6004516065573462
 21
-0.734580000000511
 31
0.0
 12
3.4206199999999711
 22
-1.224300000000516
 32
0.0
 13
3.4206199999999711
 23
-1.224300000000516
 33
0.0
210
0.0
220
0.0
230
-1.0
  0
SOLID
  5
2786
  8
AM_8
  6
CONTINUOUS
 62
     1
 10
5.644868393442577
 20
-0.734580000000511
 30
0.0
 11
5.2640491147540436
 21
-1.224300000000516
 31
0.0
 12
5.8246999999999503
 22
-1.224300000000516
 32
0.0
 13
5.8246999999999503
 23
-1.224300000000516
 33
0.0
210
0.0
220
0.0
230
-1.0
  0
SOLID
  5
2787
  8
AM_8
  6
CONTINUOUS
 62
     1
 10
5.644868393442577
 20
-0.734580000000511
 30
0.0
 11
5.0842175081966721
 21
-0.734580000000511
 31
0.0
 12
5.2640491147540436
 22
-1.224300000000516
 32
0.0
 13
5.2640491147540436
 23
-1.224300000000516
 33
0.0
210
0.0
220
0.0
230
-1.0
  0
LINE
  5
2788
  8
AM_8
  6
CONTINUOUS
 62
     1
 10
-5.18331088524587
 20
0.5223399999994971
 30
0.0
 11
-4.9936599999999771
 21
1.0387999999994919
 31
0.0
  0
LINE
  5
2789
  8
AM_8
  6
CONTINUOUS
 62
     1
 10
-4.2516599999999576
 20
1.0387999999994919
 30
0.0
 11
-4.062009114754062
 21
0.5223399999994971
 31
0.0
  0
LINE
  5
278A
  8
AM_8
  6
CONTINUOUS
 62
     1
 10
-4.332759934426206
 20
-0.2671200000005083
 30
0.0
 11
-4.6226599999999669
 21
0.5223399999994971
 31
0.0
  0
LINE
  5
278B
  8
AM_8
  6
CONTINUOUS
 62
     1
 10
-4.062009114754062
 20
0.5223399999994971
 30
0.0
 11
-3.7721090491802949
 21
-0.2671200000005083
 31
0.0
  0
LINE
  5
278C
  8
AM_8
  6
CONTINUOUS
 62
     1
 10
-5.4732109508196309
 20
-0.2671200000005083
 30
0.0
 11
-5.18331088524587
 21
0.5223399999994971
 31
0.0
  0
LINE
  5
278D
  8
AM_8
  6
CONTINUOUS
 62
     1
 10
-4.6226599999999669
 20
0.5223399999994971
 30
0.0
 11
-4.9125600655737278
 21
-0.2671200000005083
 31
0.0
  0
LINE
  5
278E
  8
AM_8
  6
CONTINUOUS
 62
     1
 10
-5.644868393442577
 20
-0.734580000000511
 30
0.0
 11
-5.4732109508196309
 21
-0.2671200000005083
 31
0.0
  0
LINE
  5
278F
  8
AM_8
  6
CONTINUOUS
 62
     1
 10
-3.7721090491802949
 20
-0.2671200000005083
 30
0.0
 11
-3.6004516065573462
 21
-0.734580000000511
 31
0.0
  0
LINE
  5
2790
  8
AM_8
  6
CONTINUOUS
 62
     1
 10
-3.981270885245876
 20
-1.224300000000516
 30
0.0
 11
-4.1611024918032617
 21
-0.734580000000511
 31
0.0
  0
LINE
  5
2791
  8
AM_8
  6
CONTINUOUS
 62
     1
 10
-3.6004516065573462
 20
-0.734580000000511
 30
0.0
 11
-3.4206199999999711
 21
-1.224300000000516
 31
0.0
  0
LINE
  5
2792
  8
AM_8
  6
CONTINUOUS
 62
     1
 10
-5.8246999999999503
 20
-1.224300000000516
 30
0.0
 11
-5.644868393442577
 21
-0.734580000000511
 31
0.0
  0
LINE
  5
2793
  8
AM_8
  6
CONTINUOUS
 62
     1
 10
-5.0842175081966721
 20
-0.734580000000511
 30
0.0
 11
-5.2640491147540436
 21
-1.224300000000516
 31
0.0
  0
ENDBLK
  5
2795
  8
0
  0
BLOCK
  8
0
  2
*U95
 70
     1
 10
0.0
 20
0.0
 30
0.0
  3
*U95
  1

  0
SOLID
  5
2797
  8
AM_8
  6
CONTINUOUS
 62
     1
 10
1.7882793805803769
 20
1.0387999999994919
 30
0.0
 11
1.851807874889658
 21
0.2659306476478651
 31
0.0
 12
2.5043800025056382
 22
0.2659306476478651
 32
0.0
 13
2.5043800025056382
 23
0.2659306476478651
 33
0.0
210
0.0
220
0.0
230
-1.0
  0
SOLID
  5
2798
  8
AM_8
  6
CONTINUOUS
 62
     1
 10
1.7882793805803769
 20
1.0387999999994919
 30
0.0
 11
1.1357072529644081
 21
1.0387999999994919
 31
0.0
 12
1.851807874889658
 22
0.2659306476478651
 32
0.0
 13
1.851807874889658
 23
0.2659306476478651
 33
0.0
210
0.0
220
0.0
230
-1.0
  0
SOLID
  5
2799
  8
AM_8
  6
CONTINUOUS
 62
     1
 10
3.1460799999999831
 20
1.0387999999994919
 30
0.0
 11
2.6711999999999421
 21
0.2659306476478651
 31
0.0
 12
3.1460799999999831
 22
0.2659306476478651
 32
0.0
 13
3.1460799999999831
 23
0.2659306476478651
 33
0.0
210
0.0
220
0.0
230
-1.0
  0
SOLID
  5
279A
  8
AM_8
  6
CONTINUOUS
 62
     1
 10
3.1460799999999831
 20
1.0387999999994919
 30
0.0
 11
2.6711999999999421
 21
1.0387999999994919
 31
0.0
 12
2.6711999999999421
 22
0.2659306476478651
 32
0.0
 13
2.6711999999999421
 23
0.2659306476478651
 33
0.0
210
0.0
220
0.0
230
-1.0
  0
SOLID
  5
279B
  8
AM_8
  6
CONTINUOUS
 62
     1
 10
2.5043800025056382
 20
0.2659306476478651
 30
0.0
 11
1.743721965595165
 21
0.085886028951558
 31
0.0
 12
2.6711999999999421
 22
0.085886028951558
 32
0.0
 13
2.6711999999999421
 23
0.085886028951558
 33
0.0
210
0.0
220
0.0
230
-1.0
  0
SOLID
  5
279C
  8
AM_8
  6
CONTINUOUS
 62
     1
 10
2.5043800025056382
 20
0.2659306476478651
 30
0.0
 11
1.851807874889658
 21
0.2659306476478651
 31
0.0
 12
1.743721965595165
 22
0.085886028951558
 32
0.0
 13
1.743721965595165
 23
0.085886028951558
 33
0.0
210
0.0
220
0.0
230
-1.0
  0
SOLID
  5
279D
  8
AM_8
  6
CONTINUOUS
 62
     1
 10
3.1460799999999831
 20
0.2659306476478651
 30
0.0
 11
2.6711999999999421
 21
0.085886028951558
 31
0.0
 12
3.1460799999999831
 22
0.085886028951558
 32
0.0
 13
3.1460799999999831
 23
0.085886028951558
 33
0.0
210
0.0
220
0.0
230
-1.0
  0
SOLID
  5
279E
  8
AM_8
  6
CONTINUOUS
 62
     1
 10
3.1460799999999831
 20
0.2659306476478651
 30
0.0
 11
2.6711999999999421
 21
0.2659306476478651
 31
0.0
 12
2.6711999999999421
 22
0.085886028951558
 32
0.0
 13
2.6711999999999421
 23
0.085886028951558
 33
0.0
210
0.0
220
0.0
230
-1.0
  0
SOLID
  5
279F
  8
AM_8
  6
CONTINUOUS
 62
     1
 10
3.1460799999999831
 20
0.085886028951558
 30
0.0
 11
1.6304628144170581
 21
-0.1027759420753025
 31
0.0
 12
3.1460799999999831
 22
-0.1027759420753025
 32
0.0
 13
3.1460799999999831
 23
-0.1027759420753025
 33
0.0
210
0.0
220
0.0
230
-1.0
  0
SOLID
  5
27A0
  8
AM_8
  6
CONTINUOUS
 62
     1
 10
3.1460799999999831
 20
0.085886028951558
 30
0.0
 11
1.743721965595165
 21
0.085886028951558
 31
0.0
 12
1.6304628144170581
 22
-0.1027759420753025
 32
0.0
 13
1.6304628144170581
 23
-0.1027759420753025
 33
0.0
210
0.0
220
0.0
230
-1.0
  0
SOLID
  5
27A1
  8
AM_8
  6
CONTINUOUS
 62
     1
 10
3.1460799999999831
 20
-0.1027759420753025
 30
0.0
 11
2.6711999999999421
 21
-0.6184186206901412
 31
0.0
 12
3.1460799999999831
 22
-0.6184186206901412
 32
0.0
 13
3.1460799999999831
 23
-0.6184186206901412
 33
0.0
210
0.0
220
0.0
230
-1.0
  0
SOLID
  5
27A2
  8
AM_8
  6
CONTINUOUS
 62
     1
 10
3.1460799999999831
 20
-0.1027759420753025
 30
0.0
 11
2.193432261217481
 21
-0.1027759420753025
 31
0.0
 12
2.6711999999999421
 22
-0.6184186206901412
 32
0.0
 13
2.6711999999999421
 23
-0.6184186206901412
 33
0.0
210
0.0
220
0.0
230
-1.0
  0
SOLID
  5
27A3
  8
AM_8
  6
CONTINUOUS
 62
     1
 10
2.193432261217481
 20
-0.1027759420753025
 30
0.0
 11
0.9571799999999939
 21
-1.224300000000516
 31
0.0
 12
1.5201494468004171
 22
-1.224300000000516
 32
0.0
 13
1.5201494468004171
 23
-1.224300000000516
 33
0.0
210
0.0
220
0.0
230
-1.0
  0
SOLID
  5
27A4
  8
AM_8
  6
CONTINUOUS
 62
     1
 10
2.193432261217481
 20
-0.1027759420753025
 30
0.0
 11
1.6304628144170581
 21
-0.1027759420753025
 31
0.0
 12
0.9571799999999939
 22
-1.224300000000516
 32
0.0
 13
0.9571799999999939
 23
-1.224300000000516
 33
0.0
210
0.0
220
0.0
230
-1.0
  0
SOLID
  5
27A5
  8
AM_8
  6
CONTINUOUS
 62
     1
 10
3.1460799999999831
 20
-0.6184186206901412
 30
0.0
 11
2.6711999999999421
 21
-1.224300000000516
 31
0.0
 12
3.1460799999999831
 22
-1.224300000000516
 32
0.0
 13
3.1460799999999831
 23
-1.224300000000516
 33
0.0
210
0.0
220
0.0
230
-1.0
  0
SOLID
  5
27A6
  8
AM_8
  6
CONTINUOUS
 62
     1
 10
3.1460799999999831
 20
-0.6184186206901412
 30
0.0
 11
2.6711999999999421
 21
-0.6184186206901412
 31
0.0
 12
2.6711999999999421
 22
-1.224300000000516
 32
0.0
 13
2.6711999999999421
 23
-1.224300000000516
 33
0.0
210
0.0
220
0.0
230
-1.0
  0
LINE
  5
27A7
  8
AM_8
  6
CONTINUOUS
 62
     1
 10
-2.5043800025056382
 20
0.2659306476478651
 30
0.0
 11
-1.7882793805803769
 21
1.0387999999994919
 31
0.0
  0
LINE
  5
27A8
  8
AM_8
  6
CONTINUOUS
 62
     1
 10
-1.1357072529644081
 20
1.0387999999994919
 30
0.0
 11
-1.851807874889658
 21
0.2659306476478651
 31
0.0
  0
LINE
  5
27A9
  8
AM_8
  6
CONTINUOUS
 62
     1
 10
-3.1460799999999831
 20
0.2659306476478651
 30
0.0
 11
-3.1460799999999831
 21
1.0387999999994919
 31
0.0
  0
LINE
  5
27AA
  8
AM_8
  6
CONTINUOUS
 62
     1
 10
-2.6711999999999421
 20
1.0387999999994919
 30
0.0
 11
-2.6711999999999421
 21
0.2659306476478651
 31
0.0
  0
LINE
  5
27AB
  8
AM_8
  6
CONTINUOUS
 62
     1
 10
-1.851807874889658
 20
0.2659306476478651
 30
0.0
 11
-1.743721965595165
 21
0.085886028951558
 31
0.0
  0
LINE
  5
27AC
  8
AM_8
  6
CONTINUOUS
 62
     1
 10
-3.1460799999999831
 20
0.085886028951558
 30
0.0
 11
-3.1460799999999831
 21
0.2659306476478651
 31
0.0
  0
LINE
  5
27AD
  8
AM_8
  6
CONTINUOUS
 62
     1
 10
-3.1460799999999831
 20
-0.1027759420753025
 30
0.0
 11
-3.1460799999999831
 21
0.085886028951558
 31
0.0
  0
LINE
  5
27AE
  8
AM_8
  6
CONTINUOUS
 62
     1
 10
-1.743721965595165
 20
0.085886028951558
 30
0.0
 11
-1.6304628144170581
 21
-0.1027759420753025
 31
0.0
  0
LINE
  5
27AF
  8
AM_8
  6
CONTINUOUS
 62
     1
 10
-3.1460799999999831
 20
-0.6184186206901412
 30
0.0
 11
-3.1460799999999831
 21
-0.1027759420753025
 31
0.0
  0
LINE
  5
27B0
  8
AM_8
  6
CONTINUOUS
 62
     1
 10
-2.193432261217481
 20
-0.1027759420753025
 30
0.0
 11
-2.6711999999999421
 21
-0.6184186206901412
 31
0.0
  0
LINE
  5
27B1
  8
AM_8
  6
CONTINUOUS
 62
     1
 10
-1.5201494468004171
 20
-1.224300000000516
 30
0.0
 11
-2.193432261217481
 21
-0.1027759420753025
 31
0.0
  0
LINE
  5
27B2
  8
AM_8
  6
CONTINUOUS
 62
     1
 10
-1.6304628144170581
 20
-0.1027759420753025
 30
0.0
 11
-0.9571799999999939
 21
-1.224300000000516
 31
0.0
  0
LINE
  5
27B3
  8
AM_8
  6
CONTINUOUS
 62
     1
 10
-3.1460799999999831
 20
-1.224300000000516
 30
0.0
 11
-3.1460799999999831
 21
-0.6184186206901412
 31
0.0
  0
LINE
  5
27B4
  8
AM_8
  6
CONTINUOUS
 62
     1
 10
-2.6711999999999421
 20
-0.6184186206901412
 30
0.0
 11
-2.6711999999999421
 21
-1.224300000000516
 31
0.0
  0
ENDBLK
  5
27B6
  8
0
  0
BLOCK
  8
0
  2
*U96
 70
     1
 10
0.0
 20
0.0
 30
0.0
  3
*U96
  1

  0
SOLID
  5
27B8
  8
AM_8
  6
CONTINUOUS
 62
     1
 10
-0.0742000000000189
 20
1.0387999999994919
 30
0.0
 11
-1.00585088524593
 21
0.5223399999994971
 31
0.0
 12
0.115450885245874
 22
0.5223399999994971
 32
0.0
 13
0.115450885245874
 23
0.5223399999994971
 33
0.0
210
0.0
220
0.0
230
-1.0
  0
SOLID
  5
27B9
  8
AM_8
  6
CONTINUOUS
 62
     1
 10
-0.0742000000000189
 20
1.0387999999994919
 30
0.0
 11
-0.8162000000000375
 21
1.0387999999994919
 31
0.0
 12
-1.00585088524593
 22
0.5223399999994971
 32
0.0
 13
-1.00585088524593
 23
0.5223399999994971
 33
0.0
210
0.0
220
0.0
230
-1.0
  0
SOLID
  5
27BA
  8
AM_8
  6
CONTINUOUS
 62
     1
 10
-0.4452000000000283
 20
0.5223399999994971
 30
0.0
 11
-1.295750950819692
 21
-0.2671200000005083
 31
0.0
 12
-0.7351000655737892
 22
-0.2671200000005083
 32
0.0
 13
-0.7351000655737892
 23
-0.2671200000005083
 33
0.0
210
0.0
220
0.0
230
-1.0
  0
SOLID
  5
27BB
  8
AM_8
  6
CONTINUOUS
 62
     1
 10
-0.4452000000000283
 20
0.5223399999994971
 30
0.0
 11
-1.00585088524593
 21
0.5223399999994971
 31
0.0
 12
-1.295750950819692
 22
-0.2671200000005083
 32
0.0
 13
-1.295750950819692
 23
-0.2671200000005083
 33
0.0
210
0.0
220
0.0
230
-1.0
  0
SOLID
  5
27BC
  8
AM_8
  6
CONTINUOUS
 62
     1
 10
0.115450885245874
 20
0.5223399999994971
 30
0.0
 11
-0.1552999344262673
 21
-0.2671200000005083
 31
0.0
 12
0.4053509508196361
 22
-0.2671200000005083
 32
0.0
 13
0.4053509508196361
 23
-0.2671200000005083
 33
0.0
210
0.0
220
0.0
230
-1.0
  0
SOLID
  5
27BD
  8
AM_8
  6
CONTINUOUS
 62
     1
 10
0.115450885245874
 20
0.5223399999994971
 30
0.0
 11
-0.4452000000000283
 21
0.5223399999994971
 31
0.0
 12
-0.1552999344262673
 22
-0.2671200000005083
 32
0.0
 13
-0.1552999344262673
 23
-0.2671200000005083
 33
0.0
210
0.0
220
0.0
230
-1.0
  0
SOLID
  5
27BE
  8
AM_8
  6
CONTINUOUS
 62
     1
 10
0.4053509508196361
 20
-0.2671200000005083
 30
0.0
 11
-1.4674083934426381
 21
-0.734580000000511
 31
0.0
 12
0.5770083934425817
 22
-0.734580000000511
 32
0.0
 13
0.5770083934425817
 23
-0.734580000000511
 33
0.0
210
0.0
220
0.0
230
-1.0
  0
SOLID
  5
27BF
  8
AM_8
  6
CONTINUOUS
 62
     1
 10
0.4053509508196361
 20
-0.2671200000005083
 30
0.0
 11
-1.295750950819692
 21
-0.2671200000005083
 31
0.0
 12
-1.4674083934426381
 22
-0.734580000000511
 32
0.0
 13
-1.4674083934426381
 23
-0.734580000000511
 33
0.0
210
0.0
220
0.0
230
-1.0
  0
SOLID
  5
27C0
  8
AM_8
  6
CONTINUOUS
 62
     1
 10
-0.9067575081967476
 20
-0.734580000000511
 30
0.0
 11
-1.64724000000001
 21
-1.224300000000516
 31
0.0
 12
-1.0865891147541189
 22
-1.224300000000516
 32
0.0
 13
-1.0865891147541189
 23
-1.224300000000516
 33
0.0
210
0.0
220
0.0
230
-1.0
  0
SOLID
  5
27C1
  8
AM_8
  6
CONTINUOUS
 62
     1
 10
-0.9067575081967476
 20
-0.734580000000511
 30
0.0
 11
-1.4674083934426381
 21
-0.734580000000511
 31
0.0
 12
-1.64724000000001
 22
-1.224300000000516
 32
0.0
 13
-1.64724000000001
 23
-1.224300000000516
 33
0.0
210
0.0
220
0.0
230
-1.0
  0
SOLID
  5
27C2
  8
AM_8
  6
CONTINUOUS
 62
     1
 10
0.5770083934425817
 20
-0.734580000000511
 30
0.0
 11
0.1961891147540484
 21
-1.224300000000516
 31
0.0
 12
0.7568399999999543
 22
-1.224300000000516
 32
0.0
 13
0.7568399999999543
 23
-1.224300000000516
 33
0.0
210
0.0
220
0.0
230
-1.0
  0
SOLID
  5
27C3
  8
AM_8
  6
CONTINUOUS
 62
     1
 10
0.5770083934425817
 20
-0.734580000000511
 30
0.0
 11
0.0163575081966769
 21
-0.734580000000511
 31
0.0
 12
0.1961891147540484
 22
-1.224300000000516
 32
0.0
 13
0.1961891147540484
 23
-1.224300000000516
 33
0.0
210
0.0
220
0.0
230
-1.0
  0
LINE
  5
27C4
  8
AM_8
  6
CONTINUOUS
 62
     1
 10
-0.115450885245874
 20
0.5223399999994971
 30
0.0
 11
0.0742000000000189
 21
1.0387999999994919
 31
0.0
  0
LINE
  5
27C5
  8
AM_8
  6
CONTINUOUS
 62
     1
 10
0.8162000000000375
 20
1.0387999999994919
 30
0.0
 11
1.00585088524593
 21
0.5223399999994971
 31
0.0
  0
LINE
  5
27C6
  8
AM_8
  6
CONTINUOUS
 62
     1
 10
0.7351000655737892
 20
-0.2671200000005083
 30
0.0
 11
0.4452000000000283
 21
0.5223399999994971
 31
0.0
  0
LINE
  5
27C7
  8
AM_8
  6
CONTINUOUS
 62
     1
 10
1.00585088524593
 20
0.5223399999994971
 30
0.0
 11
1.295750950819692
 21
-0.2671200000005083
 31
0.0
  0
LINE
  5
27C8
  8
AM_8
  6
CONTINUOUS
 62
     1
 10
-0.4053509508196361
 20
-0.2671200000005083
 30
0.0
 11
-0.115450885245874
 21
0.5223399999994971
 31
0.0
  0
LINE
  5
27C9
  8
AM_8
  6
CONTINUOUS
 62
     1
 10
0.4452000000000283
 20
0.5223399999994971
 30
0.0
 11
0.1552999344262673
 21
-0.2671200000005083
 31
0.0
  0
LINE
  5
27CA
  8
AM_8
  6
CONTINUOUS
 62
     1
 10
-0.5770083934425817
 20
-0.734580000000511
 30
0.0
 11
-0.4053509508196361
 21
-0.2671200000005083
 31
0.0
  0
LINE
  5
27CB
  8
AM_8
  6
CONTINUOUS
 62
     1
 10
1.295750950819692
 20
-0.2671200000005083
 30
0.0
 11
1.4674083934426381
 21
-0.734580000000511
 31
0.0
  0
LINE
  5
27CC
  8
AM_8
  6
CONTINUOUS
 62
     1
 10
1.0865891147541189
 20
-1.224300000000516
 30
0.0
 11
0.9067575081967476
 21
-0.734580000000511
 31
0.0
  0
LINE
  5
27CD
  8
AM_8
  6
CONTINUOUS
 62
     1
 10
1.4674083934426381
 20
-0.734580000000511
 30
0.0
 11
1.64724000000001
 21
-1.224300000000516
 31
0.0
  0
LINE
  5
27CE
  8
AM_8
  6
CONTINUOUS
 62
     1
 10
-0.7568399999999543
 20
-1.224300000000516
 30
0.0
 11
-0.5770083934425817
 21
-0.734580000000511
 31
0.0
  0
LINE
  5
27CF
  8
AM_8
  6
CONTINUOUS
 62
     1
 10
-0.0163575081966769
 20
-0.734580000000511
 30
0.0
 11
-0.1961891147540484
 21
-1.224300000000516
 31
0.0
  0
ENDBLK
  5
27D1
  8
0
  0
BLOCK
  8
0
  2
*U97
 70
     1
 10
0.0
 20
0.0
 30
0.0
  3
*U97
  1

  0
SOLID
  5
27D3
  8
AM_8
  6
CONTINUOUS
 62
     1
 10
-2.8034248125049941
 20
1.0623028065196729
 30
0.0
 11
-3.025972649712767
 21
1.0553962586375141
 31
0.0
 12
-2.761066677342046
 22
1.0553962586375141
 32
0.0
 13
-2.761066677342046
 23
1.0553962586375141
 33
0.0
210
0.0
220
0.0
230
-1.0
  0
SOLID
  5
27D4
  8
AM_8
  6
CONTINUOUS
 62
     1
 10
-2.761066677342046
 20
1.0553962586375141
 30
0.0
 11
-3.1531223424930528
 21
1.0264718006560809
 31
0.0
 12
-2.583671816465555
 22
1.0264718006560809
 32
0.0
 13
-2.583671816465555
 23
1.0264718006560809
 33
0.0
210
0.0
220
0.0
230
-1.0
  0
SOLID
  5
27D5
  8
AM_8
  6
CONTINUOUS
 62
     1
 10
-2.761066677342046
 20
1.0553962586375141
 30
0.0
 11
-3.025972649712767
 21
1.0553962586375141
 31
0.0
 12
-3.1531223424930528
 22
1.0264718006560809
 32
0.0
 13
-3.1531223424930528
 23
1.0264718006560809
 33
0.0
210
0.0
220
0.0
230
-1.0
  0
SOLID
  5
27D6
  8
AM_8
  6
CONTINUOUS
 62
     1
 10
-2.583671816465555
 20
1.0264718006560809
 30
0.0
 11
-3.2430809425266061
 21
1.006007702868325
 31
0.0
 12
-2.5283467871572869
 22
1.006007702868325
 32
0.0
 13
-2.5283467871572869
 23
1.006007702868325
 33
0.0
210
0.0
220
0.0
230
-1.0
  0
SOLID
  5
27D7
  8
AM_8
  6
CONTINUOUS
 62
     1
 10
-2.583671816465555
 20
1.0264718006560809
 30
0.0
 11
-3.1531223424930528
 21
1.0264718006560809
 31
0.0
 12
-3.2430809425266061
 22
1.006007702868325
 32
0.0
 13
-3.2430809425266061
 23
1.006007702868325
 33
0.0
210
0.0
220
0.0
230
-1.0
  0
SOLID
  5
27D8
  8
AM_8
  6
CONTINUOUS
 62
     1
 10
-2.5283467871572869
 20
1.006007702868325
 30
0.0
 11
-3.3714878673579811
 21
0.9492290068733878
 31
0.0
 12
-2.374844636581924
 22
0.9492290068733878
 32
0.0
 13
-2.374844636581924
 23
0.9492290068733878
 33
0.0
210
0.0
220
0.0
230
-1.0
  0
SOLID
  5
27D9
  8
AM_8
  6
CONTINUOUS
 62
     1
 10
-2.5283467871572869
 20
1.006007702868325
 30
0.0
 11
-3.2430809425266061
 21
1.006007702868325
 31
0.0
 12
-3.3714878673579811
 22
0.9492290068733878
 32
0.0
 13
-3.3714878673579811
 23
0.9492290068733878
 33
0.0
210
0.0
220
0.0
230
-1.0
  0
SOLID
  5
27DA
  8
AM_8
  6
CONTINUOUS
 62
     1
 10
-2.374844636581924
 20
0.9492290068733878
 30
0.0
 11
-3.4467165713519781
 21
0.9159645414267036
 31
0.0
 12
-2.3202138413454212
 22
0.9159645414267036
 32
0.0
 13
-2.3202138413454212
 23
0.9159645414267036
 33
0.0
210
0.0
220
0.0
230
-1.0
  0
SOLID
  5
27DB
  8
AM_8
  6
CONTINUOUS
 62
     1
 10
-2.374844636581924
 20
0.9492290068733878
 30
0.0
 11
-3.3714878673579811
 21
0.9492290068733878
 31
0.0
 12
-3.4467165713519781
 22
0.9159645414267036
 32
0.0
 13
-3.4467165713519781
 23
0.9159645414267036
 33
0.0
210
0.0
220
0.0
230
-1.0
  0
SOLID
  5
27DC
  8
AM_8
  6
CONTINUOUS
 62
     1
 10
-2.3202138413454212
 20
0.9159645414267036
 30
0.0
 11
-3.565058079800826
 21
0.8334324486594576
 31
0.0
 12
-2.1846699869692219
 22
0.8334324486594576
 32
0.0
 13
-2.1846699869692219
 23
0.8334324486594576
 33
0.0
210
0.0
220
0.0
230
-1.0
  0
SOLID
  5
27DD
  8
AM_8
  6
CONTINUOUS
 62
     1
 10
-2.3202138413454212
 20
0.9159645414267036
 30
0.0
 11
-3.4467165713519781
 21
0.9159645414267036
 31
0.0
 12
-3.565058079800826
 22
0.8334324486594576
 32
0.0
 13
-3.565058079800826
 23
0.8334324486594576
 33
0.0
210
0.0
220
0.0
230
-1.0
  0
SOLID
  5
27DE
  8
AM_8
  6
CONTINUOUS
 62
     1
 10
-2.1846699869692219
 20
0.8334324486594576
 30
0.0
 11
-3.6293449121592709
 21
0.7885984180520744
 31
0.0
 12
-2.135527870213664
 22
0.7885984180520744
 32
0.0
 13
-2.135527870213664
 23
0.7885984180520744
 33
0.0
210
0.0
220
0.0
230
-1.0
  0
SOLID
  5
27DF
  8
AM_8
  6
CONTINUOUS
 62
     1
 10
-2.1846699869692219
 20
0.8334324486594576
 30
0.0
 11
-3.565058079800826
 21
0.8334324486594576
 31
0.0
 12
-3.6293449121592709
 22
0.7885984180520744
 32
0.0
 13
-3.6293449121592709
 23
0.7885984180520744
 33
0.0
210
0.0
220
0.0
230
-1.0
  0
SOLID
  5
27E0
  8
AM_8
  6
CONTINUOUS
 62
     1
 10
-2.135527870213664
 20
0.7885984180520744
 30
0.0
 11
-3.7312135201563041
 21
0.6833666588099387
 31
0.0
 12
-2.0201844284349049
 22
0.6833666588099387
 32
0.0
 13
-2.0201844284349049
 23
0.6833666588099387
 33
0.0
210
0.0
220
0.0
230
-1.0
  0
SOLID
  5
27E1
  8
AM_8
  6
CONTINUOUS
 62
     1
 10
-2.135527870213664
 20
0.7885984180520744
 30
0.0
 11
-3.6293449121592709
 21
0.7885984180520744
 31
0.0
 12
-3.7312135201563041
 22
0.6833666588099387
 32
0.0
 13
-3.7312135201563041
 23
0.6833666588099387
 33
0.0
210
0.0
220
0.0
230
-1.0
  0
SOLID
  5
27E2
  8
AM_8
  6
CONTINUOUS
 62
     1
 10
-2.0201844284349049
 20
0.6833666588099387
 30
0.0
 11
-3.7786977918751652
 21
0.6343147129008232
 31
0.0
 12
-1.983773125172394
 22
0.6343147129008232
 32
0.0
 13
-1.983773125172394
 23
0.6343147129008232
 33
0.0
210
0.0
220
0.0
230
-1.0
  0
SOLID
  5
27E3
  8
AM_8
  6
CONTINUOUS
 62
     1
 10
-2.0201844284349049
 20
0.6833666588099387
 30
0.0
 11
-3.7312135201563041
 21
0.6833666588099387
 31
0.0
 12
-3.7786977918751652
 22
0.6343147129008232
 32
0.0
 13
-3.7786977918751652
 23
0.6343147129008232
 33
0.0
210
0.0
220
0.0
230
-1.0
  0
SOLID
  5
27E4
  8
AM_8
  6
CONTINUOUS
 62
     1
 10
-2.889169998123263
 20
0.6343147129008232
 30
0.0
 11
-3.7842086214861861
 21
0.6286219454599618
 31
0.0
 12
-2.9334008350009091
 22
0.6286219454599618
 32
0.0
 13
-2.9334008350009091
 23
0.6286219454599618
 33
0.0
210
0.0
220
0.0
230
-1.0
  0
SOLID
  5
27E5
  8
AM_8
  6
CONTINUOUS
 62
     1
 10
-2.889169998123263
 20
0.6343147129008232
 30
0.0
 11
-3.7786977918751652
 21
0.6343147129008232
 31
0.0
 12
-3.7842086214861861
 22
0.6286219454599618
 32
0.0
 13
-3.7842086214861861
 23
0.6286219454599618
 33
0.0
210
0.0
220
0.0
230
-1.0
  0
SOLID
  5
27E6
  8
AM_8
  6
CONTINUOUS
 62
     1
 10
-1.983773125172394
 20
0.6343147129008232
 30
0.0
 11
-2.769909339093505
 21
0.6234579899318159
 31
0.0
 12
-1.975714170015058
 22
0.6234579899318159
 32
0.0
 13
-1.975714170015058
 23
0.6234579899318159
 33
0.0
210
0.0
220
0.0
230
-1.0
  0
SOLID
  5
27E7
  8
AM_8
  6
CONTINUOUS
 62
     1
 10
-1.983773125172394
 20
0.6343147129008232
 30
0.0
 11
-2.889169998123263
 21
0.6343147129008232
 31
0.0
 12
-2.769909339093505
 22
0.6234579899318159
 32
0.0
 13
-2.769909339093505
 23
0.6234579899318159
 33
0.0
210
0.0
220
0.0
230
-1.0
  0
SOLID
  5
27E8
  8
AM_8
  6
CONTINUOUS
 62
     1
 10
-2.9334008350009091
 20
0.6286219454599618
 30
0.0
 11
-3.7721496766772749
 21
0.6190124478362895
 31
0.0
 12
-3.008063312659484
 22
0.6190124478362895
 32
0.0
 13
-3.008063312659484
 23
0.6190124478362895
 33
0.0
210
0.0
220
0.0
230
-1.0
  0
SOLID
  5
27E9
  8
AM_8
  6
CONTINUOUS
 62
     1
 10
-2.9334008350009091
 20
0.6286219454599618
 30
0.0
 11
-3.7842086214861861
 21
0.6286219454599618
 31
0.0
 12
-3.7721496766772749
 22
0.6190124478362895
 32
0.0
 13
-3.7721496766772749
 23
0.6190124478362895
 33
0.0
210
0.0
220
0.0
230
-1.0
  0
SOLID
  5
27EA
  8
AM_8
  6
CONTINUOUS
 62
     1
 10
-1.975714170015058
 20
0.6234579899318159
 30
0.0
 11
-2.654572202802624
 21
0.5868328918708535
 31
0.0
 12
-1.9485273270101391
 22
0.5868328918708535
 32
0.0
 13
-1.9485273270101391
 23
0.5868328918708535
 33
0.0
210
0.0
220
0.0
230
-1.0
  0
SOLID
  5
27EB
  8
AM_8
  6
CONTINUOUS
 62
     1
 10
-1.975714170015058
 20
0.6234579899318159
 30
0.0
 11
-2.769909339093505
 21
0.6234579899318159
 31
0.0
 12
-2.654572202802624
 22
0.5868328918708535
 32
0.0
 13
-2.654572202802624
 23
0.5868328918708535
 33
0.0
210
0.0
220
0.0
230
-1.0
  0
SOLID
  5
27EC
  8
AM_8
  6
CONTINUOUS
 62
     1
 10
-3.008063312659484
 20
0.6190124478362895
 30
0.0
 11
-3.7208109047942859
 21
0.5781017533908441
 31
0.0
 12
-3.1223116321202702
 22
0.5781017533908441
 32
0.0
 13
-3.1223116321202702
 23
0.5781017533908441
 33
0.0
210
0.0
220
0.0
230
-1.0
  0
SOLID
  5
27ED
  8
AM_8
  6
CONTINUOUS
 62
     1
 10
-3.008063312659484
 20
0.6190124478362895
 30
0.0
 11
-3.7721496766772749
 21
0.6190124478362895
 31
0.0
 12
-3.7208109047942859
 22
0.5781017533908441
 32
0.0
 13
-3.7208109047942859
 23
0.5781017533908441
 33
0.0
210
0.0
220
0.0
230
-1.0
  0
SOLID
  5
27EE
  8
AM_8
  6
CONTINUOUS
 62
     1
 10
-1.9485273270101391
 20
0.5868328918708535
 30
0.0
 11
-2.547308292453812
 21
0.5257571494300769
 31
0.0
 12
-1.903190748842281
 22
0.5257571494300769
 32
0.0
 13
-1.903190748842281
 23
0.5257571494300769
 33
0.0
210
0.0
220
0.0
230
-1.0
  0
SOLID
  5
27EF
  8
AM_8
  6
CONTINUOUS
 62
     1
 10
-1.9485273270101391
 20
0.5868328918708535
 30
0.0
 11
-2.654572202802624
 21
0.5868328918708535
 31
0.0
 12
-2.547308292453812
 22
0.5257571494300769
 32
0.0
 13
-2.547308292453812
 23
0.5257571494300769
 33
0.0
210
0.0
220
0.0
230
-1.0
  0
SOLID
  5
27F0
  8
AM_8
  6
CONTINUOUS
 62
     1
 10
-3.1223116321202702
 20
0.5781017533908441
 30
0.0
 11
-3.6391832640475301
 21
0.5130545513170524
 31
0.0
 12
-3.2278044277334281
 22
0.5130545513170524
 32
0.0
 13
-3.2278044277334281
 23
0.5130545513170524
 33
0.0
210
0.0
220
0.0
230
-1.0
  0
SOLID
  5
27F1
  8
AM_8
  6
CONTINUOUS
 62
     1
 10
-3.1223116321202702
 20
0.5781017533908441
 30
0.0
 11
-3.7208109047942859
 21
0.5781017533908441
 31
0.0
 12
-3.6391832640475301
 22
0.5130545513170524
 32
0.0
 13
-3.6391832640475301
 23
0.5130545513170524
 33
0.0
210
0.0
220
0.0
230
-1.0
  0
SOLID
  5
27F2
  8
AM_8
  6
CONTINUOUS
 62
     1
 10
-1.903190748842281
 20
0.5257571494300769
 30
0.0
 11
-2.523085585345358
 21
0.504584149489547
 31
0.0
 12
-1.887474012074281
 22
0.504584149489547
 32
0.0
 13
-1.887474012074281
 23
0.504584149489547
 33
0.0
210
0.0
220
0.0
230
-1.0
  0
SOLID
  5
27F3
  8
AM_8
  6
CONTINUOUS
 62
     1
 10
-1.903190748842281
 20
0.5257571494300769
 30
0.0
 11
-2.547308292453812
 21
0.5257571494300769
 31
0.0
 12
-2.523085585345358
 22
0.504584149489547
 32
0.0
 13
-2.523085585345358
 23
0.504584149489547
 33
0.0
210
0.0
220
0.0
230
-1.0
  0
SOLID
  5
27F4
  8
AM_8
  6
CONTINUOUS
 62
     1
 10
-1.887474012074281
 20
0.504584149489547
 30
0.0
 11
-2.4519768454676969
 21
0.4424282005916878
 31
0.0
 12
-1.857762762937621
 22
0.4424282005916878
 32
0.0
 13
-1.857762762937621
 23
0.4424282005916878
 33
0.0
210
0.0
220
0.0
230
-1.0
  0
SOLID
  5
27F5
  8
AM_8
  6
CONTINUOUS
 62
     1
 10
-1.887474012074281
 20
0.504584149489547
 30
0.0
 11
-2.523085585345358
 21
0.504584149489547
 31
0.0
 12
-2.4519768454676969
 22
0.4424282005916878
 32
0.0
 13
-2.4519768454676969
 23
0.4424282005916878
 33
0.0
210
0.0
220
0.0
230
-1.0
  0
SOLID
  5
27F6
  8
AM_8
  6
CONTINUOUS
 62
     1
 10
-3.2278044277334281
 20
0.5130545513170524
 30
0.0
 11
-3.5302036270971868
 21
0.4262111683430172
 31
0.0
 12
-3.3207461848369171
 22
0.4262111683430172
 32
0.0
 13
-3.3207461848369171
 23
0.4262111683430172
 33
0.0
210
0.0
220
0.0
230
-1.0
  0
SOLID
  5
27F7
  8
AM_8
  6
CONTINUOUS
 62
     1
 10
-3.2278044277334281
 20
0.5130545513170524
 30
0.0
 11
-3.6391832640475301
 21
0.5130545513170524
 31
0.0
 12
-3.5302036270971868
 22
0.4262111683430172
 32
0.0
 13
-3.5302036270971868
 23
0.4262111683430172
 33
0.0
210
0.0
220
0.0
230
-1.0
  0
SOLID
  5
27F8
  8
AM_8
  6
CONTINUOUS
 62
     1
 10
-3.3838111498246359
 20
0.3398441292082394
 30
0.0
 11
-3.4218217533486901
 21
0.3398441292082394
 31
0.0
 12
-3.3977929613183711
 22
0.3206961337928822
 32
0.0
 13
-3.3977929613183711
 23
0.3206961337928822
 33
0.0
210
0.0
220
0.0
230
-1.0
  0
SOLID
  5
27F9
  8
AM_8
  6
CONTINUOUS
 62
     1
 10
-3.3207461848369171
 20
0.4262111683430172
 30
0.0
 11
-3.4218217533486901
 21
0.3398441292082394
 31
0.0
 12
-3.3838111498246359
 22
0.3398441292082394
 32
0.0
 13
-3.3838111498246359
 23
0.3398441292082394
 33
0.0
210
0.0
220
0.0
230
-1.0
  0
SOLID
  5
27FA
  8
AM_8
  6
CONTINUOUS
 62
     1
 10
-3.3207461848369171
 20
0.4262111683430172
 30
0.0
 11
-3.5302036270971868
 21
0.4262111683430172
 31
0.0
 12
-3.4218217533486901
 22
0.3398441292082394
 32
0.0
 13
-3.4218217533486901
 23
0.3398441292082394
 33
0.0
210
0.0
220
0.0
230
-1.0
  0
SOLID
  5
27FB
  8
AM_8
  6
CONTINUOUS
 62
     1
 10
-1.857762762937621
 20
0.4424282005916878
 30
0.0
 11
-2.3720077823681032
 21
0.3398441292082394
 31
0.0
 12
-1.808726412332869
 22
0.3398441292082394
 32
0.0
 13
-1.808726412332869
 23
0.3398441292082394
 33
0.0
210
0.0
220
0.0
230
-1.0
  0
SOLID
  5
27FC
  8
AM_8
  6
CONTINUOUS
 62
     1
 10
-1.857762762937621
 20
0.4424282005916878
 30
0.0
 11
-2.4519768454676969
 21
0.4424282005916878
 31
0.0
 12
-2.3720077823681032
 22
0.3398441292082394
 32
0.0
 13
-2.3720077823681032
 23
0.3398441292082394
 33
0.0
210
0.0
220
0.0
230
-1.0
  0
SOLID
  5
27FD
  8
AM_8
  6
CONTINUOUS
 62
     1
 10
-1.808726412332869
 20
0.3398441292082394
 30
0.0
 11
-2.353123382132166
 21
0.3036999663981406
 31
0.0
 12
-1.791449092219044
 22
0.3036999663981406
 32
0.0
 13
-1.791449092219044
 23
0.3036999663981406
 33
0.0
210
0.0
220
0.0
230
-1.0
  0
SOLID
  5
27FE
  8
AM_8
  6
CONTINUOUS
 62
     1
 10
-1.808726412332869
 20
0.3398441292082394
 30
0.0
 11
-2.3720077823681032
 21
0.3398441292082394
 31
0.0
 12
-2.353123382132166
 22
0.3036999663981406
 32
0.0
 13
-2.353123382132166
 23
0.3036999663981406
 33
0.0
210
0.0
220
0.0
230
-1.0
  0
SOLID
  5
27FF
  8
AM_8
  6
CONTINUOUS
 62
     1
 10
-1.791449092219044
 20
0.3036999663981406
 30
0.0
 11
-2.3102783020171902
 21
0.2216957972458464
 31
0.0
 12
-1.770225909061192
 22
0.2216957972458464
 32
0.0
 13
-1.770225909061192
 23
0.2216957972458464
 33
0.0
210
0.0
220
0.0
230
-1.0
  0
SOLID
  5
2800
  8
AM_8
  6
CONTINUOUS
 62
     1
 10
-1.791449092219044
 20
0.3036999663981406
 30
0.0
 11
-2.353123382132166
 21
0.3036999663981406
 31
0.0
 12
-2.3102783020171902
 22
0.2216957972458464
 32
0.0
 13
-2.3102783020171902
 23
0.2216957972458464
 33
0.0
210
0.0
220
0.0
230
-1.0
  0
SOLID
  5
2801
  8
AM_8
  6
CONTINUOUS
 62
     1
 10
-1.770225909061192
 20
0.2216957972458464
 30
0.0
 11
-2.2690093631675459
 21
0.0922340516334621
 31
0.0
 12
-1.736720413334941
 22
0.0922340516334621
 32
0.0
 13
-1.736720413334941
 23
0.0922340516334621
 33
0.0
210
0.0
220
0.0
230
-1.0
  0
SOLID
  5
2802
  8
AM_8
  6
CONTINUOUS
 62
     1
 10
-1.770225909061192
 20
0.2216957972458464
 30
0.0
 11
-2.3102783020171902
 21
0.2216957972458464
 31
0.0
 12
-2.2690093631675459
 22
0.0922340516334621
 32
0.0
 13
-2.2690093631675459
 23
0.0922340516334621
 33
0.0
210
0.0
220
0.0
230
-1.0
  0
SOLID
  5
2803
  8
AM_8
  6
CONTINUOUS
 62
     1
 10
-1.736720413334941
 20
0.0922340516334621
 30
0.0
 11
-2.2684291438089068
 21
0.0881469286441423
 31
0.0
 12
-1.735662640776696
 22
0.0881469286441423
 32
0.0
 13
-1.735662640776696
 23
0.0881469286441423
 33
0.0
210
0.0
220
0.0
230
-1.0
  0
SOLID
  5
2804
  8
AM_8
  6
CONTINUOUS
 62
     1
 10
-1.736720413334941
 20
0.0922340516334621
 30
0.0
 11
-2.2690093631675459
 21
0.0922340516334621
 31
0.0
 12
-2.2684291438089068
 22
0.0881469286441423
 32
0.0
 13
-2.2684291438089068
 23
0.0881469286441423
 33
0.0
210
0.0
220
0.0
230
-1.0
  0
SOLID
  5
2805
  8
AM_8
  6
CONTINUOUS
 62
     1
 10
-1.735662640776696
 20
0.0881469286441423
 30
0.0
 11
-2.2496857768110519
 21
-0.0438832165303873
 31
0.0
 12
-1.72765227014321
 22
-0.0438832165303873
 32
0.0
 13
-1.72765227014321
 23
-0.0438832165303873
 33
0.0
210
0.0
220
0.0
230
-1.0
  0
SOLID
  5
2806
  8
AM_8
  6
CONTINUOUS
 62
     1
 10
-1.735662640776696
 20
0.0881469286441423
 30
0.0
 11
-2.2684291438089068
 21
0.0881469286441423
 31
0.0
 12
-2.2496857768110519
 22
-0.0438832165303873
 32
0.0
 13
-2.2496857768110519
 23
-0.0438832165303873
 33
0.0
210
0.0
220
0.0
230
-1.0
  0
SOLID
  5
2807
  8
AM_8
  6
CONTINUOUS
 62
     1
 10
-1.72765227014321
 20
-0.0438832165303873
 30
0.0
 11
-2.2518561975884031
 21
-0.1340993894228867
 31
0.0
 12
-1.7221787854246391
 22
-0.1340993894228867
 32
0.0
 13
-1.7221787854246391
 23
-0.1340993894228867
 33
0.0
210
0.0
220
0.0
230
-1.0
  0
SOLID
  5
2808
  8
AM_8
  6
CONTINUOUS
 62
     1
 10
-1.72765227014321
 20
-0.0438832165303873
 30
0.0
 11
-2.2496857768110519
 21
-0.0438832165303873
 31
0.0
 12
-2.2518561975884031
 22
-0.1340993894228867
 32
0.0
 13
-2.2518561975884031
 23
-0.1340993894228867
 33
0.0
210
0.0
220
0.0
230
-1.0
  0
SOLID
  5
2809
  8
AM_8
  6
CONTINUOUS
 62
     1
 10
-1.7221787854246391
 20
-0.1340993894228867
 30
0.0
 11
-2.2530027843138409
 21
-0.1817586577720249
 31
0.0
 12
-1.728509343382123
 22
-0.1817586577720249
 32
0.0
 13
-1.728509343382123
 23
-0.1817586577720249
 33
0.0
210
0.0
220
0.0
230
-1.0
  0
SOLID
  5
280A
  8
AM_8
  6
CONTINUOUS
 62
     1
 10
-1.7221787854246391
 20
-0.1340993894228867
 30
0.0
 11
-2.2518561975884031
 21
-0.1340993894228867
 31
0.0
 12
-2.2530027843138409
 22
-0.1817586577720249
 32
0.0
 13
-2.2530027843138409
 23
-0.1817586577720249
 33
0.0
210
0.0
220
0.0
230
-1.0
  0
SOLID
  5
280B
  8
AM_8
  6
CONTINUOUS
 62
     1
 10
-1.728509343382123
 20
-0.1817586577720249
 30
0.0
 11
-2.278841043397251
 21
-0.3164316654857929
 31
0.0
 12
-1.746397894972868
 22
-0.3164316654857929
 32
0.0
 13
-1.746397894972868
 23
-0.3164316654857929
 33
0.0
210
0.0
220
0.0
230
-1.0
  0
SOLID
  5
280C
  8
AM_8
  6
CONTINUOUS
 62
     1
 10
-1.728509343382123
 20
-0.1817586577720249
 30
0.0
 11
-2.2530027843138409
 21
-0.1817586577720249
 31
0.0
 12
-2.278841043397251
 22
-0.3164316654857929
 32
0.0
 13
-2.278841043397251
 23
-0.3164316654857929
 33
0.0
210
0.0
220
0.0
230
-1.0
  0
SOLID
  5
280D
  8
AM_8
  6
CONTINUOUS
 62
     1
 10
-3.4693750367408711
 20
-0.3484654247793539
 30
0.0
 11
-3.4840371658733429
 21
-0.3548157586054862
 31
0.0
 12
-3.4666849175107011
 22
-0.3548157586054862
 32
0.0
 13
-3.4666849175107011
 23
-0.3548157586054862
 33
0.0
210
0.0
220
0.0
230
-1.0
  0
SOLID
  5
280E
  8
AM_8
  6
CONTINUOUS
 62
     1
 10
-1.746397894972868
 20
-0.3164316654857929
 30
0.0
 11
-2.293218537393642
 21
-0.3548157586054862
 31
0.0
 12
-1.7514964358140661
 22
-0.3548157586054862
 32
0.0
 13
-1.7514964358140661
 23
-0.3548157586054862
 33
0.0
210
0.0
220
0.0
230
-1.0
  0
SOLID
  5
280F
  8
AM_8
  6
CONTINUOUS
 62
     1
 10
-1.746397894972868
 20
-0.3164316654857929
 30
0.0
 11
-2.278841043397251
 21
-0.3164316654857929
 31
0.0
 12
-2.293218537393642
 22
-0.3548157586054862
 32
0.0
 13
-2.293218537393642
 23
-0.3548157586054862
 33
0.0
210
0.0
220
0.0
230
-1.0
  0
SOLID
  5
2810
  8
AM_8
  6
CONTINUOUS
 62
     1
 10
-1.7514964358140661
 20
-0.3548157586054862
 30
0.0
 11
-2.32627092194164
 21
-0.4430568530991987
 31
0.0
 12
-1.78120053054614
 22
-0.4430568530991987
 32
0.0
 13
-1.78120053054614
 23
-0.4430568530991987
 33
0.0
210
0.0
220
0.0
230
-1.0
  0
SOLID
  5
2811
  8
AM_8
  6
CONTINUOUS
 62
     1
 10
-1.7514964358140661
 20
-0.3548157586054862
 30
0.0
 11
-2.293218537393642
 21
-0.3548157586054862
 31
0.0
 12
-2.32627092194164
 22
-0.4430568530991987
 32
0.0
 13
-2.32627092194164
 23
-0.4430568530991987
 33
0.0
210
0.0
220
0.0
230
-1.0
  0
SOLID
  5
2812
  8
AM_8
  6
CONTINUOUS
 62
     1
 10
-3.4666849175107011
 20
-0.3548157586054862
 30
0.0
 11
-3.7555285554226598
 21
-0.4724017475830586
 31
0.0
 12
-3.416873310938862
 22
-0.4724017475830586
 32
0.0
 13
-3.416873310938862
 23
-0.4724017475830586
 33
0.0
210
0.0
220
0.0
230
-1.0
  0
SOLID
  5
2813
  8
AM_8
  6
CONTINUOUS
 62
     1
 10
-3.4666849175107011
 20
-0.3548157586054862
 30
0.0
 11
-3.4840371658733429
 21
-0.3548157586054862
 31
0.0
 12
-3.7555285554226598
 22
-0.4724017475830586
 32
0.0
 13
-3.7555285554226598
 23
-0.4724017475830586
 33
0.0
210
0.0
220
0.0
230
-1.0
  0
SOLID
  5
2814
  8
AM_8
  6
CONTINUOUS
 62
     1
 10
-3.416873310938862
 20
-0.4724017475830586
 30
0.0
 11
-3.9411350085555941
 21
-0.5527900000005115
 31
0.0
 12
-3.3644931672065801
 22
-0.5527900000005115
 32
0.0
 13
-3.3644931672065801
 23
-0.5527900000005115
 33
0.0
210
0.0
220
0.0
230
-1.0
  0
SOLID
  5
2815
  8
AM_8
  6
CONTINUOUS
 62
     1
 10
-3.416873310938862
 20
-0.4724017475830586
 30
0.0
 11
-3.7555285554226598
 21
-0.4724017475830586
 31
0.0
 12
-3.9411350085555941
 22
-0.5527900000005115
 32
0.0
 13
-3.9411350085555941
 23
-0.5527900000005115
 33
0.0
210
0.0
220
0.0
230
-1.0
  0
SOLID
  5
2816
  8
AM_8
  6
CONTINUOUS
 62
     1
 10
-1.78120053054614
 20
-0.4430568530991987
 30
0.0
 11
-2.3935859451267372
 21
-0.5570783857480992
 31
0.0
 12
-1.8195829466611231
 22
-0.5570783857480992
 32
0.0
 13
-1.8195829466611231
 23
-0.5570783857480992
 33
0.0
210
0.0
220
0.0
230
-1.0
  0
SOLID
  5
2817
  8
AM_8
  6
CONTINUOUS
 62
     1
 10
-1.78120053054614
 20
-0.4430568530991987
 30
0.0
 11
-2.32627092194164
 21
-0.4430568530991987
 31
0.0
 12
-2.3935859451267372
 22
-0.5570783857480992
 32
0.0
 13
-2.3935859451267372
 23
-0.5570783857480992
 33
0.0
210
0.0
220
0.0
230
-1.0
  0
SOLID
  5
2818
  8
AM_8
  6
CONTINUOUS
 62
     1
 10
-1.8195829466611231
 20
-0.5570783857480992
 30
0.0
 11
-2.4012149220400509
 21
-0.5658355586095359
 31
0.0
 12
-1.822530823653739
 22
-0.5658355586095359
 32
0.0
 13
-1.822530823653739
 23
-0.5658355586095359
 33
0.0
210
0.0
220
0.0
230
-1.0
  0
SOLID
  5
2819
  8
AM_8
  6
CONTINUOUS
 62
     1
 10
-1.8195829466611231
 20
-0.5570783857480992
 30
0.0
 11
-2.3935859451267372
 21
-0.5570783857480992
 31
0.0
 12
-2.4012149220400509
 22
-0.5658355586095359
 32
0.0
 13
-2.4012149220400509
 23
-0.5658355586095359
 33
0.0
210
0.0
220
0.0
230
-1.0
  0
SOLID
  5
281A
  8
AM_8
  6
CONTINUOUS
 62
     1
 10
-3.3644931672065801
 20
-0.5527900000005115
 30
0.0
 11
-3.9246103561957049
 21
-0.5826786184209382
 31
0.0
 12
-3.345018056332278
 22
-0.5826786184209382
 32
0.0
 13
-3.345018056332278
 23
-0.5826786184209382
 33
0.0
210
0.0
220
0.0
230
-1.0
  0
SOLID
  5
281B
  8
AM_8
  6
CONTINUOUS
 62
     1
 10
-3.3644931672065801
 20
-0.5527900000005115
 30
0.0
 11
-3.9411350085555941
 21
-0.5527900000005115
 31
0.0
 12
-3.9246103561957049
 22
-0.5826786184209382
 32
0.0
 13
-3.9246103561957049
 23
-0.5826786184209382
 33
0.0
210
0.0
220
0.0
230
-1.0
  0
SOLID
  5
281C
  8
AM_8
  6
CONTINUOUS
 62
     1
 10
-1.822530823653739
 20
-0.5658355586095359
 30
0.0
 11
-2.47836419251722
 21
-0.654393894200152
 31
0.0
 12
-1.872926264392637
 22
-0.654393894200152
 32
0.0
 13
-1.872926264392637
 23
-0.654393894200152
 33
0.0
210
0.0
220
0.0
230
-1.0
  0
SOLID
  5
281D
  8
AM_8
  6
CONTINUOUS
 62
     1
 10
-1.822530823653739
 20
-0.5658355586095359
 30
0.0
 11
-2.4012149220400509
 21
-0.5658355586095359
 31
0.0
 12
-2.47836419251722
 22
-0.654393894200152
 32
0.0
 13
-2.47836419251722
 23
-0.654393894200152
 33
0.0
210
0.0
220
0.0
230
-1.0
  0
SOLID
  5
281E
  8
AM_8
  6
CONTINUOUS
 62
     1
 10
-3.345018056332278
 20
-0.5826786184209382
 30
0.0
 11
-3.8733866643353081
 21
-0.6753283968705671
 31
0.0
 12
-3.2563945458851902
 22
-0.6753283968705671
 32
0.0
 13
-3.2563945458851902
 23
-0.6753283968705671
 33
0.0
210
0.0
220
0.0
230
-1.0
  0
SOLID
  5
281F
  8
AM_8
  6
CONTINUOUS
 62
     1
 10
-3.345018056332278
 20
-0.5826786184209382
 30
0.0
 11
-3.9246103561957049
 21
-0.5826786184209382
 31
0.0
 12
-3.8733866643353081
 22
-0.6753283968705671
 32
0.0
 13
-3.8733866643353081
 23
-0.6753283968705671
 33
0.0
210
0.0
220
0.0
230
-1.0
  0
SOLID
  5
2820
  8
AM_8
  6
CONTINUOUS
 62
     1
 10
-1.872926264392637
 20
-0.654393894200152
 30
0.0
 11
-2.577555436093987
 21
-0.7315020735839973
 31
0.0
 12
-1.9168058230892511
 22
-0.7315020735839973
 32
0.0
 13
-1.9168058230892511
 23
-0.7315020735839973
 33
0.0
210
0.0
220
0.0
230
-1.0
  0
SOLID
  5
2821
  8
AM_8
  6
CONTINUOUS
 62
     1
 10
-1.872926264392637
 20
-0.654393894200152
 30
0.0
 11
-2.47836419251722
 21
-0.654393894200152
 31
0.0
 12
-2.577555436093987
 22
-0.7315020735839973
 32
0.0
 13
-2.577555436093987
 23
-0.7315020735839973
 33
0.0
210
0.0
220
0.0
230
-1.0
  0
SOLID
  5
2822
  8
AM_8
  6
CONTINUOUS
 62
     1
 10
-3.2563945458851902
 20
-0.6753283968705671
 30
0.0
 11
-3.8337515128764381
 21
-0.7470176458901417
 31
0.0
 12
-3.1541913559486989
 22
-0.7470176458901417
 32
0.0
 13
-3.1541913559486989
 23
-0.7470176458901417
 33
0.0
210
0.0
220
0.0
230
-1.0
  0
SOLID
  5
2823
  8
AM_8
  6
CONTINUOUS
 62
     1
 10
-3.2563945458851902
 20
-0.6753283968705671
 30
0.0
 11
-3.8733866643353081
 21
-0.6753283968705671
 31
0.0
 12
-3.8337515128764381
 22
-0.7470176458901417
 32
0.0
 13
-3.8337515128764381
 23
-0.7470176458901417
 33
0.0
210
0.0
220
0.0
230
-1.0
  0
SOLID
  5
2824
  8
AM_8
  6
CONTINUOUS
 62
     1
 10
-3.1541913559486989
 20
-0.7470176458901417
 30
0.0
 11
-3.833403641020825
 21
-0.7476468518138226
 31
0.0
 12
-3.152726383400164
 22
-0.7476468518138226
 32
0.0
 13
-3.152726383400164
 23
-0.7476468518138226
 33
0.0
210
0.0
220
0.0
230
-1.0
  0
SOLID
  5
2825
  8
AM_8
  6
CONTINUOUS
 62
     1
 10
-3.1541913559486989
 20
-0.7470176458901417
 30
0.0
 11
-3.8337515128764381
 21
-0.7470176458901417
 31
0.0
 12
-3.833403641020825
 22
-0.7476468518138226
 32
0.0
 13
-3.833403641020825
 23
-0.7476468518138226
 33
0.0
210
0.0
220
0.0
230
-1.0
  0
SOLID
  5
2826
  8
AM_8
  6
CONTINUOUS
 62
     1
 10
-1.9168058230892511
 20
-0.7315020735839973
 30
0.0
 11
-2.6341701921833041
 21
-0.7593509472366683
 31
0.0
 12
-1.9326536397001699
 22
-0.7593509472366683
 32
0.0
 13
-1.9326536397001699
 23
-0.7593509472366683
 33
0.0
210
0.0
220
0.0
230
-1.0
  0
SOLID
  5
2827
  8
AM_8
  6
CONTINUOUS
 62
     1
 10
-1.9168058230892511
 20
-0.7315020735839973
 30
0.0
 11
-2.577555436093987
 21
-0.7315020735839973
 31
0.0
 12
-2.6341701921833041
 22
-0.7593509472366683
 32
0.0
 13
-2.6341701921833041
 23
-0.7593509472366683
 33
0.0
210
0.0
220
0.0
230
-1.0
  0
SOLID
  5
2828
  8
AM_8
  6
CONTINUOUS
 62
     1
 10
-1.9326536397001699
 20
-0.7593509472366683
 30
0.0
 11
-2.687590884100659
 21
-0.7856286564843716
 31
0.0
 12
-1.9552407896340001
 22
-0.7856286564843716
 32
0.0
 13
-1.9552407896340001
 23
-0.7856286564843716
 33
0.0
210
0.0
220
0.0
230
-1.0
  0
SOLID
  5
2829
  8
AM_8
  6
CONTINUOUS
 62
     1
 10
-1.9326536397001699
 20
-0.7593509472366683
 30
0.0
 11
-2.6341701921833041
 21
-0.7593509472366683
 31
0.0
 12
-2.687590884100659
 22
-0.7856286564843716
 32
0.0
 13
-2.687590884100659
 23
-0.7856286564843716
 33
0.0
210
0.0
220
0.0
230
-1.0
  0
SOLID
  5
282A
  8
AM_8
  6
CONTINUOUS
 62
     1
 10
-3.152726383400164
 20
-0.7476468518138226
 30
0.0
 11
-3.7935643643534469
 21
-0.7951670652138666
 31
0.0
 12
-3.042085644793723
 22
-0.7951670652138666
 32
0.0
 13
-3.042085644793723
 23
-0.7951670652138666
 33
0.0
210
0.0
220
0.0
230
-1.0
  0
SOLID
  5
282B
  8
AM_8
  6
CONTINUOUS
 62
     1
 10
-3.152726383400164
 20
-0.7476468518138226
 30
0.0
 11
-3.833403641020825
 21
-0.7476468518138226
 31
0.0
 12
-3.7935643643534469
 22
-0.7951670652138666
 32
0.0
 13
-3.7935643643534469
 23
-0.7951670652138666
 33
0.0
210
0.0
220
0.0
230
-1.0
  0
SOLID
  5
282C
  8
AM_8
  6
CONTINUOUS
 62
     1
 10
-3.042085644793723
 20
-0.7951670652138666
 30
0.0
 11
-3.7770828132315719
 21
-0.8148262280298567
 31
0.0
 12
-2.9407059759107499
 22
-0.8148262280298567
 32
0.0
 13
-2.9407059759107499
 23
-0.8148262280298567
 33
0.0
210
0.0
220
0.0
230
-1.0
  0
SOLID
  5
282D
  8
AM_8
  6
CONTINUOUS
 62
     1
 10
-3.042085644793723
 20
-0.7951670652138666
 30
0.0
 11
-3.7935643643534469
 21
-0.7951670652138666
 31
0.0
 12
-3.7770828132315719
 22
-0.8148262280298567
 32
0.0
 13
-3.7770828132315719
 23
-0.8148262280298567
 33
0.0
210
0.0
220
0.0
230
-1.0
  0
SOLID
  5
282E
  8
AM_8
  6
CONTINUOUS
 62
     1
 10
-1.9552407896340001
 20
-0.7856286564843716
 30
0.0
 11
-2.8045115822425268
 21
-0.8148262280298567
 31
0.0
 12
-1.9803377233120849
 22
-0.8148262280298567
 32
0.0
 13
-1.9803377233120849
 23
-0.8148262280298567
 33
0.0
210
0.0
220
0.0
230
-1.0
  0
SOLID
  5
282F
  8
AM_8
  6
CONTINUOUS
 62
     1
 10
-1.9552407896340001
 20
-0.7856286564843716
 30
0.0
 11
-2.687590884100659
 21
-0.7856286564843716
 31
0.0
 12
-2.8045115822425268
 22
-0.8148262280298567
 32
0.0
 13
-2.8045115822425268
 23
-0.8148262280298567
 33
0.0
210
0.0
220
0.0
230
-1.0
  0
SOLID
  5
2830
  8
AM_8
  6
CONTINUOUS
 62
     1
 10
-2.9407059759107499
 20
-0.8148262280298567
 30
0.0
 11
-3.7743849017290652
 21
-0.8180442917362833
 31
0.0
 12
-2.9241108525041479
 22
-0.8180442917362833
 32
0.0
 13
-2.9241108525041479
 23
-0.8180442917362833
 33
0.0
210
0.0
220
0.0
230
-1.0
  0
SOLID
  5
2831
  8
AM_8
  6
CONTINUOUS
 62
     1
 10
-2.9407059759107499
 20
-0.8148262280298567
 30
0.0
 11
-3.7770828132315719
 21
-0.8148262280298567
 31
0.0
 12
-3.7743849017290652
 22
-0.8180442917362833
 32
0.0
 13
-3.7743849017290652
 23
-0.8180442917362833
 33
0.0
210
0.0
220
0.0
230
-1.0
  0
SOLID
  5
2832
  8
AM_8
  6
CONTINUOUS
 62
     1
 10
-1.9803377233120849
 20
-0.8148262280298567
 30
0.0
 11
-2.9241108525041479
 21
-0.8180442917362833
 31
0.0
 12
-1.983103827722043
 22
-0.8180442917362833
 32
0.0
 13
-1.983103827722043
 23
-0.8180442917362833
 33
0.0
210
0.0
220
0.0
230
-1.0
  0
SOLID
  5
2833
  8
AM_8
  6
CONTINUOUS
 62
     1
 10
-1.9803377233120849
 20
-0.8148262280298567
 30
0.0
 11
-2.8045115822425268
 21
-0.8148262280298567
 31
0.0
 12
-2.9241108525041479
 22
-0.8180442917362833
 32
0.0
 13
-2.9241108525041479
 23
-0.8180442917362833
 33
0.0
210
0.0
220
0.0
230
-1.0
  0
SOLID
  5
2834
  8
AM_8
  6
CONTINUOUS
 62
     1
 10
-1.983103827722043
 20
-0.8180442917362833
 30
0.0
 11
-3.690357363054984
 21
-0.9182721799735823
 31
0.0
 12
-2.069255261921541
 22
-0.9182721799735823
 32
0.0
 13
-2.069255261921541
 23
-0.9182721799735823
 33
0.0
210
0.0
220
0.0
230
-1.0
  0
SOLID
  5
2835
  8
AM_8
  6
CONTINUOUS
 62
     1
 10
-1.983103827722043
 20
-0.8180442917362833
 30
0.0
 11
-3.7743849017290652
 21
-0.8180442917362833
 31
0.0
 12
-3.690357363054984
 22
-0.9182721799735823
 32
0.0
 13
-3.690357363054984
 23
-0.9182721799735823
 33
0.0
210
0.0
220
0.0
230
-1.0
  0
SOLID
  5
2836
  8
AM_8
  6
CONTINUOUS
 62
     1
 10
-2.069255261921541
 20
-0.9182721799735823
 30
0.0
 11
-3.678089455348958
 21
-0.9282017546008002
 31
0.0
 12
-2.0777902825647021
 22
-0.9282017546008002
 32
0.0
 13
-2.0777902825647021
 23
-0.9282017546008002
 33
0.0
210
0.0
220
0.0
230
-1.0
  0
SOLID
  5
2837
  8
AM_8
  6
CONTINUOUS
 62
     1
 10
-2.069255261921541
 20
-0.9182721799735823
 30
0.0
 11
-3.690357363054984
 21
-0.9182721799735823
 31
0.0
 12
-3.678089455348958
 22
-0.9282017546008002
 32
0.0
 13
-3.678089455348958
 23
-0.9282017546008002
 33
0.0
210
0.0
220
0.0
230
-1.0
  0
SOLID
  5
2838
  8
AM_8
  6
CONTINUOUS
 62
     1
 10
-2.0777902825647021
 20
-0.9282017546008002
 30
0.0
 11
-3.5172889612373401
 21
-1.0583527587195041
 31
0.0
 12
-2.24270298216774
 22
-1.0583527587195041
 32
0.0
 13
-2.24270298216774
 23
-1.0583527587195041
 33
0.0
210
0.0
220
0.0
230
-1.0
  0
SOLID
  5
2839
  8
AM_8
  6
CONTINUOUS
 62
     1
 10
-2.0777902825647021
 20
-0.9282017546008002
 30
0.0
 11
-3.678089455348958
 21
-0.9282017546008002
 31
0.0
 12
-3.5172889612373401
 22
-1.0583527587195041
 32
0.0
 13
-3.5172889612373401
 23
-1.0583527587195041
 33
0.0
210
0.0
220
0.0
230
-1.0
  0
SOLID
  5
283A
  8
AM_8
  6
CONTINUOUS
 62
     1
 10
-2.24270298216774
 20
-1.0583527587195041
 30
0.0
 11
-3.5026105816669619
 21
-1.066140413132723
 31
0.0
 12
-2.252570621081138
 22
-1.066140413132723
 32
0.0
 13
-2.252570621081138
 23
-1.066140413132723
 33
0.0
210
0.0
220
0.0
230
-1.0
  0
SOLID
  5
283B
  8
AM_8
  6
CONTINUOUS
 62
     1
 10
-2.24270298216774
 20
-1.0583527587195041
 30
0.0
 11
-3.5172889612373401
 21
-1.0583527587195041
 31
0.0
 12
-3.5026105816669619
 22
-1.066140413132723
 32
0.0
 13
-3.5026105816669619
 23
-1.066140413132723
 33
0.0
210
0.0
220
0.0
230
-1.0
  0
SOLID
  5
283C
  8
AM_8
  6
CONTINUOUS
 62
     1
 10
-2.252570621081138
 20
-1.066140413132723
 30
0.0
 11
-3.320602056322389
 21
-1.162705533883766
 31
0.0
 12
-2.4401220400396628
 22
-1.162705533883766
 32
0.0
 13
-2.4401220400396628
 23
-1.162705533883766
 33
0.0
210
0.0
220
0.0
230
-1.0
  0
SOLID
  5
283D
  8
AM_8
  6
CONTINUOUS
 62
     1
 10
-2.252570621081138
 20
-1.066140413132723
 30
0.0
 11
-3.5026105816669619
 21
-1.066140413132723
 31
0.0
 12
-3.320602056322389
 22
-1.162705533883766
 32
0.0
 13
-3.320602056322389
 23
-1.162705533883766
 33
0.0
210
0.0
220
0.0
230
-1.0
  0
SOLID
  5
283E
  8
AM_8
  6
CONTINUOUS
 62
     1
 10
-2.4401220400396628
 20
-1.162705533883766
 30
0.0
 11
-3.3029793364797122
 21
-1.1680631208249921
 31
0.0
 12
-2.4505276919479861
 22
-1.1680631208249921
 32
0.0
 13
-2.4505276919479861
 23
-1.1680631208249921
 33
0.0
210
0.0
220
0.0
230
-1.0
  0
SOLID
  5
283F
  8
AM_8
  6
CONTINUOUS
 62
     1
 10
-2.4401220400396628
 20
-1.162705533883766
 30
0.0
 11
-3.320602056322389
 21
-1.162705533883766
 31
0.0
 12
-3.3029793364797122
 22
-1.1680631208249921
 32
0.0
 13
-3.3029793364797122
 23
-1.1680631208249921
 33
0.0
210
0.0
220
0.0
230
-1.0
  0
SOLID
  5
2840
  8
AM_8
  6
CONTINUOUS
 62
     1
 10
-2.4505276919479861
 20
-1.1680631208249921
 30
0.0
 11
-3.1075741659460672
 21
-1.2274693985871621
 31
0.0
 12
-2.6549454719534582
 22
-1.2274693985871621
 32
0.0
 13
-2.6549454719534582
 23
-1.2274693985871621
 33
0.0
210
0.0
220
0.0
230
-1.0
  0
SOLID
  5
2841
  8
AM_8
  6
CONTINUOUS
 62
     1
 10
-2.4505276919479861
 20
-1.1680631208249921
 30
0.0
 11
-3.3029793364797122
 21
-1.1680631208249921
 31
0.0
 12
-3.1075741659460672
 22
-1.2274693985871621
 32
0.0
 13
-3.1075741659460672
 23
-1.2274693985871621
 33
0.0
210
0.0
220
0.0
230
-1.0
  0
SOLID
  5
2842
  8
AM_8
  6
CONTINUOUS
 62
     1
 10
-2.6643369807294008
 20
-1.230198684556977
 30
0.0
 11
-3.0810361388213949
 21
-1.230198684556977
 31
0.0
 12
-2.8860874326934649
 22
-1.250248056198993
 32
0.0
 13
-2.8860874326934649
 23
-1.250248056198993
 33
0.0
210
0.0
220
0.0
230
-1.0
  0
SOLID
  5
2843
  8
AM_8
  6
CONTINUOUS
 62
     1
 10
-2.6549454719534582
 20
-1.2274693985871621
 30
0.0
 11
-3.0810361388213949
 21
-1.230198684556977
 31
0.0
 12
-2.6643369807294008
 22
-1.230198684556977
 32
0.0
 13
-2.6643369807294008
 23
-1.230198684556977
 33
0.0
210
0.0
220
0.0
230
-1.0
  0
SOLID
  5
2844
  8
AM_8
  6
CONTINUOUS
 62
     1
 10
-2.6549454719534582
 20
-1.2274693985871621
 30
0.0
 11
-3.1075741659460672
 21
-1.2274693985871621
 31
0.0
 12
-3.0810361388213949
 22
-1.230198684556977
 32
0.0
 13
-3.0810361388213949
 23
-1.230198684556977
 33
0.0
210
0.0
220
0.0
230
-1.0
  0
LINE
  5
2845
  8
AM_8
  6
CONTINUOUS
 62
     1
 10
2.8034248125049941
 20
1.0623028065196729
 30
0.0
 11
3.025972649712767
 21
1.0553962586375141
 31
0.0
  0
LINE
  5
2846
  8
AM_8
  6
CONTINUOUS
 62
     1
 10
2.761066677342046
 20
1.0553962586375141
 30
0.0
 11
2.8034248125049941
 21
1.0623028065196729
 31
0.0
  0
LINE
  5
2847
  8
AM_8
  6
CONTINUOUS
 62
     1
 10
2.583671816465555
 20
1.0264718006560809
 30
0.0
 11
2.761066677342046
 21
1.0553962586375141
 31
0.0
  0
LINE
  5
2848
  8
AM_8
  6
CONTINUOUS
 62
     1
 10
3.025972649712767
 20
1.0553962586375141
 30
0.0
 11
3.1531223424930528
 21
1.0264718006560809
 31
0.0
  0
LINE
  5
2849
  8
AM_8
  6
CONTINUOUS
 62
     1
 10
2.5283467871572869
 20
1.006007702868325
 30
0.0
 11
2.583671816465555
 21
1.0264718006560809
 31
0.0
  0
LINE
  5
284A
  8
AM_8
  6
CONTINUOUS
 62
     1
 10
3.1531223424930528
 20
1.0264718006560809
 30
0.0
 11
3.2430809425266061
 21
1.006007702868325
 31
0.0
  0
LINE
  5
284B
  8
AM_8
  6
CONTINUOUS
 62
     1
 10
2.374844636581924
 20
0.9492290068733878
 30
0.0
 11
2.5283467871572869
 21
1.006007702868325
 31
0.0
  0
LINE
  5
284C
  8
AM_8
  6
CONTINUOUS
 62
     1
 10
3.2430809425266061
 20
1.006007702868325
 30
0.0
 11
3.3714878673579811
 21
0.9492290068733878
 31
0.0
  0
LINE
  5
284D
  8
AM_8
  6
CONTINUOUS
 62
     1
 10
2.3202138413454212
 20
0.9159645414267036
 30
0.0
 11
2.374844636581924
 21
0.9492290068733878
 31
0.0
  0
LINE
  5
284E
  8
AM_8
  6
CONTINUOUS
 62
     1
 10
3.3714878673579811
 20
0.9492290068733878
 30
0.0
 11
3.4467165713519781
 21
0.9159645414267036
 31
0.0
  0
LINE
  5
284F
  8
AM_8
  6
CONTINUOUS
 62
     1
 10
2.1846699869692219
 20
0.8334324486594576
 30
0.0
 11
2.3202138413454212
 21
0.9159645414267036
 31
0.0
  0
LINE
  5
2850
  8
AM_8
  6
CONTINUOUS
 62
     1
 10
3.4467165713519781
 20
0.9159645414267036
 30
0.0
 11
3.565058079800826
 21
0.8334324486594576
 31
0.0
  0
LINE
  5
2851
  8
AM_8
  6
CONTINUOUS
 62
     1
 10
2.135527870213664
 20
0.7885984180520744
 30
0.0
 11
2.1846699869692219
 21
0.8334324486594576
 31
0.0
  0
LINE
  5
2852
  8
AM_8
  6
CONTINUOUS
 62
     1
 10
3.565058079800826
 20
0.8334324486594576
 30
0.0
 11
3.6293449121592709
 21
0.7885984180520744
 31
0.0
  0
LINE
  5
2853
  8
AM_8
  6
CONTINUOUS
 62
     1
 10
2.0201844284349049
 20
0.6833666588099387
 30
0.0
 11
2.135527870213664
 21
0.7885984180520744
 31
0.0
  0
LINE
  5
2854
  8
AM_8
  6
CONTINUOUS
 62
     1
 10
3.6293449121592709
 20
0.7885984180520744
 30
0.0
 11
3.7312135201563041
 21
0.6833666588099387
 31
0.0
  0
LINE
  5
2855
  8
AM_8
  6
CONTINUOUS
 62
     1
 10
1.983773125172394
 20
0.6343147129008232
 30
0.0
 11
2.0201844284349049
 21
0.6833666588099387
 31
0.0
  0
LINE
  5
2856
  8
AM_8
  6
CONTINUOUS
 62
     1
 10
3.7312135201563041
 20
0.6833666588099387
 30
0.0
 11
3.7786977918751652
 21
0.6343147129008232
 31
0.0
  0
LINE
  5
2857
  8
AM_8
  6
CONTINUOUS
 62
     1
 10
2.9334008350009091
 20
0.6286219454599618
 30
0.0
 11
2.889169998123263
 21
0.6343147129008232
 31
0.0
  0
LINE
  5
2858
  8
AM_8
  6
CONTINUOUS
 62
     1
 10
3.7786977918751652
 20
0.6343147129008232
 30
0.0
 11
3.7842086214861861
 21
0.6286219454599618
 31
0.0
  0
LINE
  5
2859
  8
AM_8
  6
CONTINUOUS
 62
     1
 10
1.975714170015058
 20
0.6234579899318159
 30
0.0
 11
1.983773125172394
 21
0.6343147129008232
 31
0.0
  0
LINE
  5
285A
  8
AM_8
  6
CONTINUOUS
 62
     1
 10
2.889169998123263
 20
0.6343147129008232
 30
0.0
 11
2.769909339093505
 21
0.6234579899318159
 31
0.0
  0
LINE
  5
285B
  8
AM_8
  6
CONTINUOUS
 62
     1
 10
3.008063312659484
 20
0.6190124478362895
 30
0.0
 11
2.9334008350009091
 21
0.6286219454599618
 31
0.0
  0
LINE
  5
285C
  8
AM_8
  6
CONTINUOUS
 62
     1
 10
3.7842086214861861
 20
0.6286219454599618
 30
0.0
 11
3.7721496766772749
 21
0.6190124478362895
 31
0.0
  0
LINE
  5
285D
  8
AM_8
  6
CONTINUOUS
 62
     1
 10
1.9485273270101391
 20
0.5868328918708535
 30
0.0
 11
1.975714170015058
 21
0.6234579899318159
 31
0.0
  0
LINE
  5
285E
  8
AM_8
  6
CONTINUOUS
 62
     1
 10
2.769909339093505
 20
0.6234579899318159
 30
0.0
 11
2.654572202802624
 21
0.5868328918708535
 31
0.0
  0
LINE
  5
285F
  8
AM_8
  6
CONTINUOUS
 62
     1
 10
3.1223116321202702
 20
0.5781017533908441
 30
0.0
 11
3.008063312659484
 21
0.6190124478362895
 31
0.0
  0
LINE
  5
2860
  8
AM_8
  6
CONTINUOUS
 62
     1
 10
3.7721496766772749
 20
0.6190124478362895
 30
0.0
 11
3.7208109047942859
 21
0.5781017533908441
 31
0.0
  0
LINE
  5
2861
  8
AM_8
  6
CONTINUOUS
 62
     1
 10
1.903190748842281
 20
0.5257571494300769
 30
0.0
 11
1.9485273270101391
 21
0.5868328918708535
 31
0.0
  0
LINE
  5
2862
  8
AM_8
  6
CONTINUOUS
 62
     1
 10
2.654572202802624
 20
0.5868328918708535
 30
0.0
 11
2.547308292453812
 21
0.5257571494300769
 31
0.0
  0
LINE
  5
2863
  8
AM_8
  6
CONTINUOUS
 62
     1
 10
3.2278044277334281
 20
0.5130545513170524
 30
0.0
 11
3.1223116321202702
 21
0.5781017533908441
 31
0.0
  0
LINE
  5
2864
  8
AM_8
  6
CONTINUOUS
 62
     1
 10
3.7208109047942859
 20
0.5781017533908441
 30
0.0
 11
3.6391832640475301
 21
0.5130545513170524
 31
0.0
  0
LINE
  5
2865
  8
AM_8
  6
CONTINUOUS
 62
     1
 10
1.887474012074281
 20
0.504584149489547
 30
0.0
 11
1.903190748842281
 21
0.5257571494300769
 31
0.0
  0
LINE
  5
2866
  8
AM_8
  6
CONTINUOUS
 62
     1
 10
2.547308292453812
 20
0.5257571494300769
 30
0.0
 11
2.523085585345358
 21
0.504584149489547
 31
0.0
  0
LINE
  5
2867
  8
AM_8
  6
CONTINUOUS
 62
     1
 10
1.857762762937621
 20
0.4424282005916878
 30
0.0
 11
1.887474012074281
 21
0.504584149489547
 31
0.0
  0
LINE
  5
2868
  8
AM_8
  6
CONTINUOUS
 62
     1
 10
2.523085585345358
 20
0.504584149489547
 30
0.0
 11
2.4519768454676969
 21
0.4424282005916878
 31
0.0
  0
LINE
  5
2869
  8
AM_8
  6
CONTINUOUS
 62
     1
 10
3.3207461848369171
 20
0.4262111683430172
 30
0.0
 11
3.2278044277334281
 21
0.5130545513170524
 31
0.0
  0
LINE
  5
286A
  8
AM_8
  6
CONTINUOUS
 62
     1
 10
3.6391832640475301
 20
0.5130545513170524
 30
0.0
 11
3.5302036270971868
 21
0.4262111683430172
 31
0.0
  0
LINE
  5
286B
  8
AM_8
  6
CONTINUOUS
 62
     1
 10
3.4218217533486901
 20
0.3398441292082394
 30
0.0
 11
3.3977929613183711
 21
0.3206961337928822
 31
0.0
  0
LINE
  5
286C
  8
AM_8
  6
CONTINUOUS
 62
     1
 10
3.3977929613183711
 20
0.3206961337928822
 30
0.0
 11
3.3838111498246359
 21
0.3398441292082394
 31
0.0
  0
LINE
  5
286D
  8
AM_8
  6
CONTINUOUS
 62
     1
 10
3.3838111498246359
 20
0.3398441292082394
 30
0.0
 11
3.3207461848369171
 21
0.4262111683430172
 31
0.0
  0
LINE
  5
286E
  8
AM_8
  6
CONTINUOUS
 62
     1
 10
3.5302036270971868
 20
0.4262111683430172
 30
0.0
 11
3.4218217533486901
 21
0.3398441292082394
 31
0.0
  0
LINE
  5
286F
  8
AM_8
  6
CONTINUOUS
 62
     1
 10
1.808726412332869
 20
0.3398441292082394
 30
0.0
 11
1.857762762937621
 21
0.4424282005916878
 31
0.0
  0
LINE
  5
2870
  8
AM_8
  6
CONTINUOUS
 62
     1
 10
2.4519768454676969
 20
0.4424282005916878
 30
0.0
 11
2.3720077823681032
 21
0.3398441292082394
 31
0.0
  0
LINE
  5
2871
  8
AM_8
  6
CONTINUOUS
 62
     1
 10
1.791449092219044
 20
0.3036999663981406
 30
0.0
 11
1.808726412332869
 21
0.3398441292082394
 31
0.0
  0
LINE
  5
2872
  8
AM_8
  6
CONTINUOUS
 62
     1
 10
2.3720077823681032
 20
0.3398441292082394
 30
0.0
 11
2.353123382132166
 21
0.3036999663981406
 31
0.0
  0
LINE
  5
2873
  8
AM_8
  6
CONTINUOUS
 62
     1
 10
1.770225909061192
 20
0.2216957972458464
 30
0.0
 11
1.791449092219044
 21
0.3036999663981406
 31
0.0
  0
LINE
  5
2874
  8
AM_8
  6
CONTINUOUS
 62
     1
 10
2.353123382132166
 20
0.3036999663981406
 30
0.0
 11
2.3102783020171902
 21
0.2216957972458464
 31
0.0
  0
LINE
  5
2875
  8
AM_8
  6
CONTINUOUS
 62
     1
 10
1.736720413334941
 20
0.0922340516334621
 30
0.0
 11
1.770225909061192
 21
0.2216957972458464
 31
0.0
  0
LINE
  5
2876
  8
AM_8
  6
CONTINUOUS
 62
     1
 10
2.3102783020171902
 20
0.2216957972458464
 30
0.0
 11
2.2690093631675459
 21
0.0922340516334621
 31
0.0
  0
LINE
  5
2877
  8
AM_8
  6
CONTINUOUS
 62
     1
 10
1.735662640776696
 20
0.0881469286441423
 30
0.0
 11
1.736720413334941
 21
0.0922340516334621
 31
0.0
  0
LINE
  5
2878
  8
AM_8
  6
CONTINUOUS
 62
     1
 10
2.2690093631675459
 20
0.0922340516334621
 30
0.0
 11
2.2684291438089068
 21
0.0881469286441423
 31
0.0
  0
LINE
  5
2879
  8
AM_8
  6
CONTINUOUS
 62
     1
 10
1.72765227014321
 20
-0.0438832165303873
 30
0.0
 11
1.735662640776696
 21
0.0881469286441423
 31
0.0
  0
LINE
  5
287A
  8
AM_8
  6
CONTINUOUS
 62
     1
 10
2.2684291438089068
 20
0.0881469286441423
 30
0.0
 11
2.2496857768110519
 21
-0.0438832165303873
 31
0.0
  0
LINE
  5
287B
  8
AM_8
  6
CONTINUOUS
 62
     1
 10
1.7221787854246391
 20
-0.1340993894228867
 30
0.0
 11
1.72765227014321
 21
-0.0438832165303873
 31
0.0
  0
LINE
  5
287C
  8
AM_8
  6
CONTINUOUS
 62
     1
 10
2.2496857768110519
 20
-0.0438832165303873
 30
0.0
 11
2.2518561975884031
 21
-0.1340993894228867
 31
0.0
  0
LINE
  5
287D
  8
AM_8
  6
CONTINUOUS
 62
     1
 10
1.728509343382123
 20
-0.1817586577720249
 30
0.0
 11
1.7221787854246391
 21
-0.1340993894228867
 31
0.0
  0
LINE
  5
287E
  8
AM_8
  6
CONTINUOUS
 62
     1
 10
2.2518561975884031
 20
-0.1340993894228867
 30
0.0
 11
2.2530027843138409
 21
-0.1817586577720249
 31
0.0
  0
LINE
  5
287F
  8
AM_8
  6
CONTINUOUS
 62
     1
 10
1.746397894972868
 20
-0.3164316654857929
 30
0.0
 11
1.728509343382123
 21
-0.1817586577720249
 31
0.0
  0
LINE
  5
2880
  8
AM_8
  6
CONTINUOUS
 62
     1
 10
2.2530027843138409
 20
-0.1817586577720249
 30
0.0
 11
2.278841043397251
 21
-0.3164316654857929
 31
0.0
  0
LINE
  5
2881
  8
AM_8
  6
CONTINUOUS
 62
     1
 10
3.4693750367408711
 20
-0.3484654247793539
 30
0.0
 11
3.4840371658733429
 21
-0.3548157586054862
 31
0.0
  0
LINE
  5
2882
  8
AM_8
  6
CONTINUOUS
 62
     1
 10
3.4666849175107011
 20
-0.3548157586054862
 30
0.0
 11
3.4693750367408711
 21
-0.3484654247793539
 31
0.0
  0
LINE
  5
2883
  8
AM_8
  6
CONTINUOUS
 62
     1
 10
1.7514964358140661
 20
-0.3548157586054862
 30
0.0
 11
1.746397894972868
 21
-0.3164316654857929
 31
0.0
  0
LINE
  5
2884
  8
AM_8
  6
CONTINUOUS
 62
     1
 10
2.278841043397251
 20
-0.3164316654857929
 30
0.0
 11
2.293218537393642
 21
-0.3548157586054862
 31
0.0
  0
LINE
  5
2885
  8
AM_8
  6
CONTINUOUS
 62
     1
 10
1.78120053054614
 20
-0.4430568530991987
 30
0.0
 11
1.7514964358140661
 21
-0.3548157586054862
 31
0.0
  0
LINE
  5
2886
  8
AM_8
  6
CONTINUOUS
 62
     1
 10
2.293218537393642
 20
-0.3548157586054862
 30
0.0
 11
2.32627092194164
 21
-0.4430568530991987
 31
0.0
  0
LINE
  5
2887
  8
AM_8
  6
CONTINUOUS
 62
     1
 10
3.416873310938862
 20
-0.4724017475830586
 30
0.0
 11
3.4666849175107011
 21
-0.3548157586054862
 31
0.0
  0
LINE
  5
2888
  8
AM_8
  6
CONTINUOUS
 62
     1
 10
3.4840371658733429
 20
-0.3548157586054862
 30
0.0
 11
3.7555285554226598
 21
-0.4724017475830586
 31
0.0
  0
LINE
  5
2889
  8
AM_8
  6
CONTINUOUS
 62
     1
 10
3.3644931672065801
 20
-0.5527900000005115
 30
0.0
 11
3.416873310938862
 21
-0.4724017475830586
 31
0.0
  0
LINE
  5
288A
  8
AM_8
  6
CONTINUOUS
 62
     1
 10
3.7555285554226598
 20
-0.4724017475830586
 30
0.0
 11
3.9411350085555941
 21
-0.5527900000005115
 31
0.0
  0
LINE
  5
288B
  8
AM_8
  6
CONTINUOUS
 62
     1
 10
1.8195829466611231
 20
-0.5570783857480992
 30
0.0
 11
1.78120053054614
 21
-0.4430568530991987
 31
0.0
  0
LINE
  5
288C
  8
AM_8
  6
CONTINUOUS
 62
     1
 10
2.32627092194164
 20
-0.4430568530991987
 30
0.0
 11
2.3935859451267372
 21
-0.5570783857480992
 31
0.0
  0
LINE
  5
288D
  8
AM_8
  6
CONTINUOUS
 62
     1
 10
1.822530823653739
 20
-0.5658355586095359
 30
0.0
 11
1.8195829466611231
 21
-0.5570783857480992
 31
0.0
  0
LINE
  5
288E
  8
AM_8
  6
CONTINUOUS
 62
     1
 10
2.3935859451267372
 20
-0.5570783857480992
 30
0.0
 11
2.4012149220400509
 21
-0.5658355586095359
 31
0.0
  0
LINE
  5
288F
  8
AM_8
  6
CONTINUOUS
 62
     1
 10
3.345018056332278
 20
-0.5826786184209382
 30
0.0
 11
3.3644931672065801
 21
-0.5527900000005115
 31
0.0
  0
LINE
  5
2890
  8
AM_8
  6
CONTINUOUS
 62
     1
 10
3.9411350085555941
 20
-0.5527900000005115
 30
0.0
 11
3.9246103561957049
 21
-0.5826786184209382
 31
0.0
  0
LINE
  5
2891
  8
AM_8
  6
CONTINUOUS
 62
     1
 10
1.872926264392637
 20
-0.654393894200152
 30
0.0
 11
1.822530823653739
 21
-0.5658355586095359
 31
0.0
  0
LINE
  5
2892
  8
AM_8
  6
CONTINUOUS
 62
     1
 10
2.4012149220400509
 20
-0.5658355586095359
 30
0.0
 11
2.47836419251722
 21
-0.654393894200152
 31
0.0
  0
LINE
  5
2893
  8
AM_8
  6
CONTINUOUS
 62
     1
 10
3.2563945458851902
 20
-0.6753283968705671
 30
0.0
 11
3.345018056332278
 21
-0.5826786184209382
 31
0.0
  0
LINE
  5
2894
  8
AM_8
  6
CONTINUOUS
 62
     1
 10
3.9246103561957049
 20
-0.5826786184209382
 30
0.0
 11
3.8733866643353081
 21
-0.6753283968705671
 31
0.0
  0
LINE
  5
2895
  8
AM_8
  6
CONTINUOUS
 62
     1
 10
1.9168058230892511
 20
-0.7315020735839973
 30
0.0
 11
1.872926264392637
 21
-0.654393894200152
 31
0.0
  0
LINE
  5
2896
  8
AM_8
  6
CONTINUOUS
 62
     1
 10
2.47836419251722
 20
-0.654393894200152
 30
0.0
 11
2.577555436093987
 21
-0.7315020735839973
 31
0.0
  0
LINE
  5
2897
  8
AM_8
  6
CONTINUOUS
 62
     1
 10
3.1541913559486989
 20
-0.7470176458901417
 30
0.0
 11
3.2563945458851902
 21
-0.6753283968705671
 31
0.0
  0
LINE
  5
2898
  8
AM_8
  6
CONTINUOUS
 62
     1
 10
3.8733866643353081
 20
-0.6753283968705671
 30
0.0
 11
3.8337515128764381
 21
-0.7470176458901417
 31
0.0
  0
LINE
  5
2899
  8
AM_8
  6
CONTINUOUS
 62
     1
 10
3.152726383400164
 20
-0.7476468518138226
 30
0.0
 11
3.1541913559486989
 21
-0.7470176458901417
 31
0.0
  0
LINE
  5
289A
  8
AM_8
  6
CONTINUOUS
 62
     1
 10
3.8337515128764381
 20
-0.7470176458901417
 30
0.0
 11
3.833403641020825
 21
-0.7476468518138226
 31
0.0
  0
LINE
  5
289B
  8
AM_8
  6
CONTINUOUS
 62
     1
 10
1.9326536397001699
 20
-0.7593509472366683
 30
0.0
 11
1.9168058230892511
 21
-0.7315020735839973
 31
0.0
  0
LINE
  5
289C
  8
AM_8
  6
CONTINUOUS
 62
     1
 10
2.577555436093987
 20
-0.7315020735839973
 30
0.0
 11
2.6341701921833041
 21
-0.7593509472366683
 31
0.0
  0
LINE
  5
289D
  8
AM_8
  6
CONTINUOUS
 62
     1
 10
1.9552407896340001
 20
-0.7856286564843716
 30
0.0
 11
1.9326536397001699
 21
-0.7593509472366683
 31
0.0
  0
LINE
  5
289E
  8
AM_8
  6
CONTINUOUS
 62
     1
 10
2.6341701921833041
 20
-0.7593509472366683
 30
0.0
 11
2.687590884100659
 21
-0.7856286564843716
 31
0.0
  0
LINE
  5
289F
  8
AM_8
  6
CONTINUOUS
 62
     1
 10
3.042085644793723
 20
-0.7951670652138666
 30
0.0
 11
3.152726383400164
 21
-0.7476468518138226
 31
0.0
  0
LINE
  5
28A0
  8
AM_8
  6
CONTINUOUS
 62
     1
 10
3.833403641020825
 20
-0.7476468518138226
 30
0.0
 11
3.7935643643534469
 21
-0.7951670652138666
 31
0.0
  0
LINE
  5
28A1
  8
AM_8
  6
CONTINUOUS
 62
     1
 10
2.9407059759107499
 20
-0.8148262280298567
 30
0.0
 11
3.042085644793723
 21
-0.7951670652138666
 31
0.0
  0
LINE
  5
28A2
  8
AM_8
  6
CONTINUOUS
 62
     1
 10
3.7935643643534469
 20
-0.7951670652138666
 30
0.0
 11
3.7770828132315719
 21
-0.8148262280298567
 31
0.0
  0
LINE
  5
28A3
  8
AM_8
  6
CONTINUOUS
 62
     1
 10
1.9803377233120849
 20
-0.8148262280298567
 30
0.0
 11
1.9552407896340001
 21
-0.7856286564843716
 31
0.0
  0
LINE
  5
28A4
  8
AM_8
  6
CONTINUOUS
 62
     1
 10
2.687590884100659
 20
-0.7856286564843716
 30
0.0
 11
2.8045115822425268
 21
-0.8148262280298567
 31
0.0
  0
LINE
  5
28A5
  8
AM_8
  6
CONTINUOUS
 62
     1
 10
3.7770828132315719
 20
-0.8148262280298567
 30
0.0
 11
3.7743849017290652
 21
-0.8180442917362833
 31
0.0
  0
LINE
  5
28A6
  8
AM_8
  6
CONTINUOUS
 62
     1
 10
1.983103827722043
 20
-0.8180442917362833
 30
0.0
 11
1.9803377233120849
 21
-0.8148262280298567
 31
0.0
  0
LINE
  5
28A7
  8
AM_8
  6
CONTINUOUS
 62
     1
 10
2.069255261921541
 20
-0.9182721799735823
 30
0.0
 11
1.983103827722043
 21
-0.8180442917362833
 31
0.0
  0
LINE
  5
28A8
  8
AM_8
  6
CONTINUOUS
 62
     1
 10
3.7743849017290652
 20
-0.8180442917362833
 30
0.0
 11
3.690357363054984
 21
-0.9182721799735823
 31
0.0
  0
LINE
  5
28A9
  8
AM_8
  6
CONTINUOUS
 62
     1
 10
2.0777902825647021
 20
-0.9282017546008002
 30
0.0
 11
2.069255261921541
 21
-0.9182721799735823
 31
0.0
  0
LINE
  5
28AA
  8
AM_8
  6
CONTINUOUS
 62
     1
 10
3.690357363054984
 20
-0.9182721799735823
 30
0.0
 11
3.678089455348958
 21
-0.9282017546008002
 31
0.0
  0
LINE
  5
28AB
  8
AM_8
  6
CONTINUOUS
 62
     1
 10
2.24270298216774
 20
-1.0583527587195041
 30
0.0
 11
2.0777902825647021
 21
-0.9282017546008002
 31
0.0
  0
LINE
  5
28AC
  8
AM_8
  6
CONTINUOUS
 62
     1
 10
3.678089455348958
 20
-0.9282017546008002
 30
0.0
 11
3.5172889612373401
 21
-1.0583527587195041
 31
0.0
  0
LINE
  5
28AD
  8
AM_8
  6
CONTINUOUS
 62
     1
 10
2.252570621081138
 20
-1.066140413132723
 30
0.0
 11
2.24270298216774
 21
-1.0583527587195041
 31
0.0
  0
LINE
  5
28AE
  8
AM_8
  6
CONTINUOUS
 62
     1
 10
3.5172889612373401
 20
-1.0583527587195041
 30
0.0
 11
3.5026105816669619
 21
-1.066140413132723
 31
0.0
  0
LINE
  5
28AF
  8
AM_8
  6
CONTINUOUS
 62
     1
 10
2.4401220400396628
 20
-1.162705533883766
 30
0.0
 11
2.252570621081138
 21
-1.066140413132723
 31
0.0
  0
LINE
  5
28B0
  8
AM_8
  6
CONTINUOUS
 62
     1
 10
3.5026105816669619
 20
-1.066140413132723
 30
0.0
 11
3.320602056322389
 21
-1.162705533883766
 31
0.0
  0
LINE
  5
28B1
  8
AM_8
  6
CONTINUOUS
 62
     1
 10
2.4505276919479861
 20
-1.1680631208249921
 30
0.0
 11
2.4401220400396628
 21
-1.162705533883766
 31
0.0
  0
LINE
  5
28B2
  8
AM_8
  6
CONTINUOUS
 62
     1
 10
3.320602056322389
 20
-1.162705533883766
 30
0.0
 11
3.3029793364797122
 21
-1.1680631208249921
 31
0.0
  0
LINE
  5
28B3
  8
AM_8
  6
CONTINUOUS
 62
     1
 10
2.6549454719534582
 20
-1.2274693985871621
 30
0.0
 11
2.4505276919479861
 21
-1.1680631208249921
 31
0.0
  0
LINE
  5
28B4
  8
AM_8
  6
CONTINUOUS
 62
     1
 10
3.3029793364797122
 20
-1.1680631208249921
 30
0.0
 11
3.1075741659460672
 21
-1.2274693985871621
 31
0.0
  0
LINE
  5
28B5
  8
AM_8
  6
CONTINUOUS
 62
     1
 10
3.0810361388213949
 20
-1.230198684556977
 30
0.0
 11
2.8860874326934649
 21
-1.250248056198993
 31
0.0
  0
LINE
  5
28B6
  8
AM_8
  6
CONTINUOUS
 62
     1
 10
2.8860874326934649
 20
-1.250248056198993
 30
0.0
 11
2.6643369807294008
 21
-1.230198684556977
 31
0.0
  0
LINE
  5
28B7
  8
AM_8
  6
CONTINUOUS
 62
     1
 10
2.6643369807294008
 20
-1.230198684556977
 30
0.0
 11
2.6549454719534582
 21
-1.2274693985871621
 31
0.0
  0
LINE
  5
28B8
  8
AM_8
  6
CONTINUOUS
 62
     1
 10
3.1075741659460672
 20
-1.2274693985871621
 30
0.0
 11
3.0810361388213949
 21
-1.230198684556977
 31
0.0
  0
ENDBLK
  5
28BA
  8
0
  0
BLOCK
  8
0
  2
*U98
 70
     1
 10
0.0
 20
0.0
 30
0.0
  3
*U98
  1

  0
SOLID
  5
28BC
  8
AM_8
  6
CONTINUOUS
 62
     1
 10
-5.8295250085556063
 20
1.0387999999994919
 30
0.0
 11
-6.3006950085555777
 21
0.1298499999994878
 31
0.0
 12
-5.8295250085556063
 22
0.1298499999994878
 32
0.0
 13
-5.8295250085556063
 23
0.1298499999994878
 33
0.0
210
0.0
220
0.0
230
-1.0
  0
SOLID
  5
28BD
  8
AM_8
  6
CONTINUOUS
 62
     1
 10
-5.8295250085556063
 20
1.0387999999994919
 30
0.0
 11
-6.3006950085555777
 21
1.0387999999994919
 31
0.0
 12
-6.3006950085555777
 22
0.1298499999994878
 32
0.0
 13
-6.3006950085555777
 23
0.1298499999994878
 33
0.0
210
0.0
220
0.0
230
-1.0
  0
SOLID
  5
28BE
  8
AM_8
  6
CONTINUOUS
 62
     1
 10
-4.3047150085556041
 20
1.0387999999994919
 30
0.0
 11
-4.7758850085555764
 21
0.1298499999994878
 31
0.0
 12
-4.3047150085556041
 22
0.1298499999994878
 32
0.0
 13
-4.3047150085556041
 23
0.1298499999994878
 33
0.0
210
0.0
220
0.0
230
-1.0
  0
SOLID
  5
28BF
  8
AM_8
  6
CONTINUOUS
 62
     1
 10
-4.3047150085556041
 20
1.0387999999994919
 30
0.0
 11
-4.7758850085555764
 21
1.0387999999994919
 31
0.0
 12
-4.7758850085555764
 22
0.1298499999994878
 32
0.0
 13
-4.7758850085555764
 23
0.1298499999994878
 33
0.0
210
0.0
220
0.0
230
-1.0
  0
SOLID
  5
28C0
  8
AM_8
  6
CONTINUOUS
 62
     1
 10
-4.3047150085556041
 20
0.1298499999994878
 30
0.0
 11
-6.3006950085555777
 21
-0.315350000000512
 31
0.0
 12
-4.3047150085556041
 22
-0.315350000000512
 32
0.0
 13
-4.3047150085556041
 23
-0.315350000000512
 33
0.0
210
0.0
220
0.0
230
-1.0
  0
SOLID
  5
28C1
  8
AM_8
  6
CONTINUOUS
 62
     1
 10
-4.3047150085556041
 20
0.1298499999994878
 30
0.0
 11
-6.3006950085555777
 21
0.1298499999994878
 31
0.0
 12
-6.3006950085555777
 22
-0.315350000000512
 32
0.0
 13
-6.3006950085555777
 23
-0.315350000000512
 33
0.0
210
0.0
220
0.0
230
-1.0
  0
SOLID
  5
28C2
  8
AM_8
  6
CONTINUOUS
 62
     1
 10
-5.8295250085556063
 20
-0.315350000000512
 30
0.0
 11
-6.3006950085555777
 21
-1.224300000000516
 31
0.0
 12
-5.8295250085556063
 22
-1.224300000000516
 32
0.0
 13
-5.8295250085556063
 23
-1.224300000000516
 33
0.0
210
0.0
220
0.0
230
-1.0
  0
SOLID
  5
28C3
  8
AM_8
  6
CONTINUOUS
 62
     1
 10
-5.8295250085556063
 20
-0.315350000000512
 30
0.0
 11
-6.3006950085555777
 21
-0.315350000000512
 31
0.0
 12
-6.3006950085555777
 22
-1.224300000000516
 32
0.0
 13
-6.3006950085555777
 23
-1.224300000000516
 33
0.0
210
0.0
220
0.0
230
-1.0
  0
SOLID
  5
28C4
  8
AM_8
  6
CONTINUOUS
 62
     1
 10
-4.3047150085556041
 20
-0.315350000000512
 30
0.0
 11
-4.7758850085555764
 21
-1.224300000000516
 31
0.0
 12
-4.3047150085556041
 22
-1.224300000000516
 32
0.0
 13
-4.3047150085556041
 23
-1.224300000000516
 33
0.0
210
0.0
220
0.0
230
-1.0
  0
SOLID
  5
28C5
  8
AM_8
  6
CONTINUOUS
 62
     1
 10
-4.3047150085556041
 20
-0.315350000000512
 30
0.0
 11
-4.7758850085555764
 21
-0.315350000000512
 31
0.0
 12
-4.7758850085555764
 22
-1.224300000000516
 32
0.0
 13
-4.7758850085555764
 23
-1.224300000000516
 33
0.0
210
0.0
220
0.0
230
-1.0
  0
LINE
  5
28C6
  8
AM_8
  6
CONTINUOUS
 62
     1
 10
5.8295250085556063
 20
0.1298499999994878
 30
0.0
 11
5.8295250085556063
 21
1.0387999999994919
 31
0.0
  0
LINE
  5
28C7
  8
AM_8
  6
CONTINUOUS
 62
     1
 10
6.3006950085555777
 20
1.0387999999994919
 30
0.0
 11
6.3006950085555777
 21
0.1298499999994878
 31
0.0
  0
LINE
  5
28C8
  8
AM_8
  6
CONTINUOUS
 62
     1
 10
4.3047150085556041
 20
0.1298499999994878
 30
0.0
 11
4.3047150085556041
 21
1.0387999999994919
 31
0.0
  0
LINE
  5
28C9
  8
AM_8
  6
CONTINUOUS
 62
     1
 10
4.7758850085555764
 20
1.0387999999994919
 30
0.0
 11
4.7758850085555764
 21
0.1298499999994878
 31
0.0
  0
LINE
  5
28CA
  8
AM_8
  6
CONTINUOUS
 62
     1
 10
4.3047150085556041
 20
-0.315350000000512
 30
0.0
 11
4.3047150085556041
 21
0.1298499999994878
 31
0.0
  0
LINE
  5
28CB
  8
AM_8
  6
CONTINUOUS
 62
     1
 10
6.3006950085555777
 20
0.1298499999994878
 30
0.0
 11
6.3006950085555777
 21
-0.315350000000512
 31
0.0
  0
LINE
  5
28CC
  8
AM_8
  6
CONTINUOUS
 62
     1
 10
5.8295250085556063
 20
-1.224300000000516
 30
0.0
 11
5.8295250085556063
 21
-0.315350000000512
 31
0.0
  0
LINE
  5
28CD
  8
AM_8
  6
CONTINUOUS
 62
     1
 10
6.3006950085555777
 20
-0.315350000000512
 30
0.0
 11
6.3006950085555777
 21
-1.224300000000516
 31
0.0
  0
LINE
  5
28CE
  8
AM_8
  6
CONTINUOUS
 62
     1
 10
4.3047150085556041
 20
-1.224300000000516
 30
0.0
 11
4.3047150085556041
 21
-0.315350000000512
 31
0.0
  0
LINE
  5
28CF
  8
AM_8
  6
CONTINUOUS
 62
     1
 10
4.7758850085555764
 20
-0.315350000000512
 30
0.0
 11
4.7758850085555764
 21
-1.224300000000516
 31
0.0
  0
ENDBLK
  5
28D1
  8
0
  0
BLOCK
  8
0
  2
*U99
 70
     1
 10
0.0
 20
0.0
 30
0.0
  3
*U99
  1

  0
SOLID
  5
28D3
  8
AM_8
  6
CONTINUOUS
 62
     1
 10
-6.8052550085556041
 20
1.0387999999994919
 30
0.0
 11
-7.2801350085555887
 21
-1.224300000000516
 31
0.0
 12
-6.8052550085556041
 22
-1.224300000000516
 32
0.0
 13
-6.8052550085556041
 23
-1.224300000000516
 33
0.0
210
0.0
220
0.0
230
-1.0
  0
SOLID
  5
28D4
  8
AM_8
  6
CONTINUOUS
 62
     1
 10
-6.8052550085556041
 20
1.0387999999994919
 30
0.0
 11
-7.2801350085555887
 21
1.0387999999994919
 31
0.0
 12
-7.2801350085555887
 22
-1.224300000000516
 32
0.0
 13
-7.2801350085555887
 23
-1.224300000000516
 33
0.0
210
0.0
220
0.0
230
-1.0
  0
LINE
  5
28D5
  8
AM_8
  6
CONTINUOUS
 62
     1
 10
6.8052550085556041
 20
-1.224300000000516
 30
0.0
 11
6.8052550085556041
 21
1.0387999999994919
 31
0.0
  0
LINE
  5
28D6
  8
AM_8
  6
CONTINUOUS
 62
     1
 10
7.2801350085555887
 20
1.0387999999994919
 30
0.0
 11
7.2801350085555887
 21
-1.224300000000516
 31
0.0
  0
ENDBLK
  5
28D8
  8
0
  0
BLOCK
  8
0
  2
*U100
 70
     1
 10
0.0
 20
0.0
 30
0.0
  3
*U100
  1

  0
TEXT
  5
28DA
  8
RAHM2
 10
-140.0625
 20
22.4580056185973191
 30
0.0
 40
2.5
  1
製図/Created
  0
ENDBLK
  5
28DC
  8
0
  0
BLOCK
  8
0
  2
*U101
 70
     1
 10
0.0
 20
0.0
 30
0.0
  3
*U101
  1

  0
TEXT
  5
28DE
  8
RAHM2
 10
-165.1875
 20
22.4258471271476409
 30
0.0
 40
2.5
  1
検図/Checked
  0
ENDBLK
  5
28E0
  8
0
  0
BLOCK
  8
0
  2
*U102
 70
     1
 10
0.0
 20
0.0
 30
0.0
  3
*U102
  1

  0
TEXT
  5
28E2
  8
RAHM2
 10
-191.3125000000001137
 20
22.3010354072795991
 30
0.0
 40
2.5
  1
承認/Approved
  0
ENDBLK
  5
28E4
  8
0
  0
BLOCK
  8
0
  2
*U103
 70
     1
 10
0.0
 20
0.0
 30
0.0
  3
*U103
  1

  0
TEXT
  5
28E7
  8
0
 10
-170.099431818181813
 20
33.7357954545454533
 30
0.0
 40
2.5
  1
株式会社タカチ電機工業
  7
MtXpl___1
  0
ENDBLK
  5
28E9
  8
0
  0
BLOCK
  8
0
  2
*U104
 70
     1
 10
0.0
 20
0.0
 30
0.0
  3
*U104
  1

  0
TEXT
  5
28EB
  8
0
 10
-170.0491132332878124
 20
28.3850613915416083
 30
0.0
 40
1.5
  1
TAKACHI ELECTRONICS ENCLOSURE Co., LTD.
  0
ENDBLK
  5
28ED
  8
0
  0
BLOCK
  8
0
  2
*U105
 70
     1
 10
0.0
 20
0.0
 30
0.0
  3
*U105
  1

  0
TEXT
  5
28EF
  8
RAHM2
 10
-116.8002551371314013
 20
37.3010354072796702
 30
0.0
 40
2.5
  1
品名/Title
  0
ENDBLK
  5
28F1
  8
0
  0
BLOCK
  8
0
  2
*U106
 70
     1
 10
0.0
 20
0.0
 30
0.0
  3
*U106
  1

  0
TEXT
  5
28F3
  8
RAHM2
 10
-116.8002551371314013
 20
22.3010354072796098
 30
0.0
 40
2.5
  1
型番/Product number
  0
ENDBLK
  5
28F5
  8
0
  0
BLOCK
  8
0
  2
*U107
 70
     1
 10
0.0
 20
0.0
 30
0.0
  3
*U107
  1

  0
TEXT
  5
28F7
  8
RAHM2
 10
-35.8002551371314368
 20
24.3010354072796702
 30
0.0
 40
2.5
  1
尺度/Scale
  0
ENDBLK
  5
28F9
  8
0
  0
BLOCK
  8
0
  2
*U108
 70
     1
 10
0.0
 20
0.0
 30
0.0
  3
*U108
  1

  0
TEXT
  5
28FB
  8
RAHM2
 10
-116.8002551371314013
 20
7.7499999999999982
 30
0.0
 40
2.5
  1
作成日/Date
  0
ENDBLK
  5
28FD
  8
0
  0
BLOCK
  8
0
  2
*U109
 70
     1
 10
0.0
 20
0.0
 30
0.0
  3
*U109
  1

  0
TEXT
  5
28FF
  8
RAHM2
 62
     0
 10
-19.7250000000000014
 20
7.5427130952552801
 30
0.0
 40
3.5
  1
/
  0
ENDBLK
  5
2901
  8
0
  0
BLOCK
  8
0
  2
*U110
 70
     1
 10
0.0
 20
0.0
 30
0.0
  3
*U110
  1

  0
TEXT
  5
2903
  8
RAHM2
 10
-36.1335884704647796
 20
13.3010354072796702
 30
0.0
 40
2.5
  1
ページ/Page
  0
ENDBLK
  5
2905
  8
0
  0
BLOCK
  8
0
  2
*U111
 70
     1
 10
0.0
 20
0.0
 30
0.0
  3
*U111
  1

  0
TEXT
  5
2907
  8
0
 10
-190.1295454545453936
 20
2.0607954545454539
 30
0.0
 40
1.8999999999999999
  1
本図面の著作権は株式会社タカチ電機工業に帰属します。
  7
MtXpl___1
  0
TEXT
  5
2908
  8
0
 10
-121.8051136363636004
 20
2.0607954545454539
 30
0.0
 40
1.8999999999999999
  1
 / Copyright (C)  TAKACHI ELECTRONICS 
  7
MtXpl___1
  0
TEXT
  5
2909
  8
0
 10
-71.1312499999999943
 20
2.0607954545454539
 30
0.0
 40
1.8999999999999999
  1
ENCLOSURE CO., LTD. All Rights Reserved.
  7
MtXpl___1
  0
ENDBLK
  5
290B
  8
0
  0
BLOCK
  8
0
  2
*U112
 70
     1
 10
0.0
 20
0.0
 30
0.0
  3
*U112
  1

  0
TEXT
  5
290D
  8
SYMBOL__ISO_
 62
     2
 10
42.369676881106308
 20
140.0907197730496137
 30
0.0
 40
1.3449999999999991
  1
構成内容/Components
  7
MtXpl___1
  0
ENDBLK
  5
290F
  8
0
  0
BLOCK
  8
0
  2
*U113
 70
     1
 10
0.0
 20
0.0
 30
0.0
  3
*U113
  1

  0
TEXT
  5
2911
  8
SYMBOL__ISO_
 62
     2
 10
74.2210719704639246
 20
137.4950555827132916
 30
0.0
 40
1.3449999999999991
  1
色・表面処理/Color・Finish
  7
MtXpl___1
  0
ENDBLK
  5
2913
  8
0
  0
BLOCK
  8
0
  2
*U114
 70
     1
 10
0.0
 20
0.0
 30
0.0
  3
*U114
  1

  0
TEXT
  5
2915
  8
SYMBOL__ISO_
 62
     2
 10
49.3393686627900792
 20
137.4880839223619944
 30
0.0
 40
1.3449999999999991
  1
材質・規格/Material
  7
MtXpl___1
  0
ENDBLK
  5
2917
  8
0
  0
BLOCK
  8
0
  2
*U115
 70
     1
 10
0.0
 20
0.0
 30
0.0
  3
*U115
  1

  0
TEXT
  5
2919
  8
SYMBOL__ISO_
 62
     2
 10
37.2921780394408628
 20
137.4922400975565893
 30
0.0
 40
1.3449999999999991
  1
数量/Pcs
  7
MtXpl___1
  0
ENDBLK
  5
291B
  8
0
  0
BLOCK
  8
0
  2
*U116
 70
     1
 10
0.0
 20
0.0
 30
0.0
  3
*U116
  1

  0
TEXT
  5
291D
  8
SYMBOL__ISO_
 62
     2
 10
17.4953410683401316
 20
137.4926870209590959
 30
0.0
 40
1.3449999999999991
  1
名称/Part name
  7
MtXpl___1
  0
ENDBLK
  5
291F
  8
0
  0
BLOCK
  8
0
  2
*U117
 70
     1
 10
0.0
 20
0.0
 30
0.0
  3
*U117
  1

  0
TEXT
  5
2921
  8
SYMBOL__ISO_
 62
     2
 10
5.4008960142706171
 20
137.635472584403999
 30
0.0
 40
1.3449999999999991
  1
No.
  7
MtXpl___1
  0
ENDBLK
  5
2923
  8
0
  0
BLOCK
  8
0
  2
*U118
 70
     1
 10
0.0
 20
0.0
 30
0.0
  3
*U118
  1

  0
TEXT
  5
2925
  8
SYMBOL__ISO_
 62
     2
 10
69.9866603546302457
 20
134.8891573334884129
 30
0.0
 40
1.3449999999999991
  1
乳白色/Natural
  7
MtXpl___1
  0
ENDBLK
  5
2927
  8
0
  0
BLOCK
  8
0
  2
*U119
 70
     1
 10
0.0
 20
0.0
 30
0.0
  3
*U119
  1

  0
TEXT
  5
2929
  8
SYMBOL__ISO_
 62
     2
 10
46.4737061330608867
 20
134.8462099726862107
 30
0.0
 40
1.3449999999999991
  1
PA66
  7
MtXpl___1
  0
ENDBLK
  5
292B
  8
0
  0
BLOCK
  8
0
  2
*U120
 70
     1
 10
0.0
 20
0.0
 30
0.0
  3
*U120
  1

  0
TEXT
  5
292D
  8
SYMBOL__ISO_
 62
     2
 10
40.9061674661249626
 20
135.0428474110730974
 30
0.0
 40
1.3449999999999991
  1
1
  7
MtXpl___1
  0
ENDBLK
  5
292F
  8
0
  0
BLOCK
  8
0
  2
*U121
 70
     1
 10
0.0
 20
0.0
 30
0.0
  3
*U121
  1

  0
TEXT
  5
2931
  8
SYMBOL__ISO_
 62
     2
 10
10.1419633644593095
 20
134.8897383319070968
 30
0.0
 40
1.3449999999999991
  1
スペーサー/Spacer
  7
MtXpl___1
  0
ENDBLK
  5
2933
  8
0
  0
BLOCK
  8
0
  2
*U122
 70
     1
 10
0.0
 20
0.0
 30
0.0
  3
*U122
  1

  0
TEXT
  5
2935
  8
SYMBOL__ISO_
 62
     2
 10
6.2669289210357029
 20
135.0428474110730974
 30
0.0
 40
1.3449999999999991
  1
1
  7
MtXpl___1
  0
ENDBLK
  5
2937
  8
0
  0
BLOCK
  8
0
  2
*U123
 70
     1
 10
0.0
 20
0.0
 30
0.0
  3
*U123
  1

  0
TEXT
  5
293E
  8
0
 10
70.2773992528746021
 20
30.4732082117980596
 30
0.0
 40
1.75
  1
販売単位個数 : 20セット/袋
  7
ACISOTS
  0
TEXT
  5
293F
  8
0
 10
70.0842102764966484
 20
27.5518220569424201
 30
0.0
 40
1.75
  1
Sales unit : 20set/pack
  7
ACISOTS
  0
ENDBLK
  5
2941
  8
0
  0
BLOCK
  8
0
  2
*U124
 70
     1
 10
0.0
 20
0.0
 30
0.0
  3
*U124
  1

  0
TEXT
  5
2943
  8
AM_5
 62
     7
 10
62.3957281267448707
 20
104.7107119201512972
 30
0.0
 40
1.75
  1
1
  7
ACISOTS
  0
ENDBLK
  5
2945
  8
0
  0
BLOCK
  8
0
  2
*U125
 70
     1
 10
0.0
 20
0.0
 30
0.0
  3
*U125
  1

  0
TEXT
  5
2965
  8
AM_5
 62
     2
 10
59.1564582950994406
 20
69.2112860825986758
 30
0.0
 40
1.75
  1
7
 50
90.0
  0
ENDBLK
  5
2967
  8
0
  0
BLOCK
  8
0
  2
*U126
 70
     1
 10
0.0
 20
0.0
 30
0.0
  3
*U126
  1

  0
TEXT
  5
2969
  8
AM_5
 62
     2
 10
40.4750725536661022
 20
75.5077672671941542
 30
0.0
 40
1.75
  1
M4
  0
ENDBLK
  5
296B
  8
0
  0
BLOCK
  8
0
  2
*U127
 70
     1
 10
0.0
 20
0.0
 30
0.0
  3
*U127
  1

  0
TEXT
  5
296D
  8
AM_5
 62
     2
 10
59.6979101794268416
 20
91.5230971062207175
 30
0.0
 40
1.75
  1
10
 50
90.0
  0
ENDBLK
  5
296F
  8
0
  0
ENDSEC
  0
SECTION
  2
ENTITIES
  0
INSERT
  5
E67
  8
0
 66
     1
  2
TK-仕様書_和英併記__221115
 10
100.3790535976852993
 20
3.718540564238082
 30
0.0
 41
0.5
 42
0.5
 43
0.5
1001
GENIUS_GENOREF_13
1005
E74
  0
ATTRIB
  5
E69
  8
0
 10
21.2957202643519707
 20
11.5125494160579809
 30
0.0
 40
1.25
  1
野村
 72
     4
 11
22.6290535976852993
 21
12.1375494160579809
 31
0.0
  2
検図
 70
     0
  0
ATTRIB
  5
E6A
  8
0
 10
33.8373869310186421
 20
11.5125494160579809
 30
0.0
 40
1.25
  1
鎌田
 72
     4
 11
35.1290535976852993
 21
12.1375494160579809
 31
0.0
  2
製図
 70
     0
  0
ATTRIB
  5
E6B
  8
0
 10
8.6442947689919265
 20
11.5125494160579809
 30
0.0
 40
1.25
  1
中根
 72
     4
 11
10.0192947689919194
 21
12.1375494160579809
 31
0.0
  2
承認
 70
     0
  0
ATTRIB
  5
E6C
  8
0
 10
45.3790535976853633
 20
19.5935405642380509
 30
0.0
 40
1.5
  1
六角樹脂スペーサー
 11
45.3790535976853633
 21
20.3435405642380616
 31
0.0
  2
品名
 70
     0
 74
     2
  0
ATTRIB
  5
E6D
  8
0
 10
45.3790535976853633
 20
11.3875494160579809
 30
0.0
 40
1.5
  1
HES4-10
 11
45.3790535976853633
 21
12.1375494160579809
 31
0.0
  2
型番
 70
     0
 74
     2
  0
ATTRIB
  5
E6E
  8
0
 10
45.3790535976853633
 20
17.2185405642380509
 30
0.0
 40
1.25
  1
PA66 Hex Standoff
 11
45.3790535976853633
 21
17.8435405642380509
 31
0.0
  2
TITLE
 70
     0
 74
     2
  0
ATTRIB
  5
E6F
  8
0
 10
55.3949246606774821
 20
7.5880558803903373
 30
0.0
 40
1.25
  1
2025/01/27
 72
     4
 11
59.6290535976853491
 21
8.2185405642380829
 31
0.0
  2
GEN-TITLE-DAT
 70
     0
  0
ATTRIB
  5
E70
  8
0
 10
90.207424660677475
 20
13.3874263845619303
 30
0.0
 40
1.25
  1
2:1
 72
     4
 11
91.1290535976853562
 21
14.0437994160579898
 31
0.0
  2
GEN-TITLE-SCA
 70
     0
  0
ATTRIB
  5
E71
  8
0
 10
88.5040535976853562
 20
7.61489711186573
 30
0.0
 40
1.5
  1
1
 72
     4
 11
88.8790535976853562
 21
8.36489711186573
 31
0.0
  2
ページNO.
 70
     0
  0
ATTRIB
  5
E72
  8
0
 10
93.0040535976853562
 20
7.61489711186573
 30
0.0
 40
1.5
  1
1
 72
     4
 11
93.3790535976853562
 21
8.36489711186573
 31
0.0
  2
総ページ数
 70
     0
  0
ATTRIB
  5
E73
  8
0
 10
22.6290535976853597
 20
8.2185405642380829
 30
0.0
 40
1.25
  1

 72
     4
 11
22.6290535976853597
 21
8.2185405642380829
 31
0.0
  2
部品サイズ
 70
     0
  0
SEQEND
  5
E68
  8
0
  0
POINT
  5
E74
  8
0
 10
0.0
 20
0.0
 30
0.0
1001
GENIUS_GENOBJ-N-TIT_13
1002
{
1000
OWNER
1000
GEN
1002
}
1001
GENIUS_GENOENT_13
1002
{
1000
MYREF
1005
E74
1002
}
1002
{
1000
GRP
1005
0
1002
}
1001
GENIUS_GENODEF_13
1002
{
1000
HIER
1070
     1
1002
}
1002
{
1000
MANEDIT
1070
     1
1002
}
1002
{
1000
NOSEL
1070
     0
1002
}
1002
{
1000
BEHIND
1070
     0
1002
}
1002
{
1000
OTHER
1070
     0
1002
}
1002
{
1000
REACTOR
1002
}
1001
GENIUS_GENOLIS_13
1002
{
1000
ENT
1005
E67
1005
23BA
1002
}
1001
GENIUS_GENTITLE_13
1002
{
1000
BORDER
1000
ISO_A4
1002
}
1002
{
1000
TITLE
1000
TK-仕様書(和英併記)_221115
1002
}
1002
{
1000
ADDITIONAL1
1000

1002
}
1002
{
1000
ADDITIONAL2
1000

1002
}
1002
{
1000
SCALE
1000
2:1
1002
}
1002
{
1000
TITLESTD
1000
ISO
1002
}
1002
{
1000
HRA
1005
23BA
1002
}
1002
{
1000
HTIT
1005
E67
1002
}
1002
{
1000
GENIUSID
1005
E74
1002
}
1002
{
1000
INVTXTID
1005
0
1002
}
  0
LINE
  5
124A
  8
SYMBOL__ISO_
 10
100.3790535976852993
 20
142.2185405642381113
 30
0.0
 11
3.8834152514193638
 21
142.2185405642381113
 31
0.0
  0
INSERT
  5
124B
  8
0
  2
*U112
 10
0.0
 20
0.0
 30
0.0
  0
LINE
  5
124C
  8
SYMBOL__ISO_
 62
     1
 10
100.3790535976852993
 20
139.6141171001092971
 30
0.0
 11
3.8834152514193638
 21
139.6141171001092971
 31
0.0
  0
INSERT
  5
124D
  8
0
  2
*U113
 10
0.0
 20
0.0
 30
0.0
  0
LINE
  5
124E
  8
SYMBOL__ISO_
 62
     1
 10
69.4985106811009246
 20
139.6141171001092971
 30
0.0
 11
69.4985106811009246
 21
137.0096936359813924
 31
0.0
  0
INSERT
  5
124F
  8
0
  2
*U114
 10
0.0
 20
0.0
 30
0.0
  0
LINE
  5
1250
  8
SYMBOL__ISO_
 62
     1
 10
46.0084825958952024
 20
139.6141171001092971
 30
0.0
 11
46.0084825958952024
 21
137.0096936359813924
 31
0.0
  0
INSERT
  5
1251
  8
0
  2
*U115
 10
0.0
 20
0.0
 30
0.0
  0
LINE
  5
1252
  8
SYMBOL__ISO_
 62
     1
 10
36.3584732341598666
 20
139.6141171001092971
 30
0.0
 11
36.3584732341598666
 21
137.0096936359813924
 31
0.0
  0
INSERT
  5
1253
  8
0
  2
*U116
 10
0.0
 20
0.0
 30
0.0
  0
LINE
  5
1254
  8
SYMBOL__ISO_
 62
     1
 10
9.605063488456949
 20
139.6141171001092971
 30
0.0
 11
9.605063488456949
 21
137.0096936359813924
 31
0.0
  0
INSERT
  5
1255
  8
0
  2
*U117
 10
0.0
 20
0.0
 30
0.0
  0
INSERT
  5
1256
  8
0
  2
*U118
 10
0.0
 20
0.0
 30
0.0
  0
INSERT
  5
1257
  8
0
  2
*U119
 10
0.0
 20
0.0
 30
0.0
  0
INSERT
  5
1258
  8
0
  2
*U120
 10
0.0
 20
0.0
 30
0.0
  0
INSERT
  5
1259
  8
0
  2
*U121
 10
0.0
 20
0.0
 30
0.0
  0
INSERT
  5
125A
  8
0
  2
*U122
 10
0.0
 20
0.0
 30
0.0
  0
LINE
  5
125B
  8
SYMBOL__ISO_
 62
     1
 10
100.3790535976852993
 20
137.0096936359813924
 30
0.0
 11
3.8834152514193638
 21
137.0096936359813924
 31
0.0
  0
LINE
  5
125C
  8
SYMBOL__ISO_
 10
100.3790535976852993
 20
134.1081274406878094
 30
0.0
 11
3.8834152514193638
 21
134.1081274406878094
 31
0.0
  0
LINE
  5
125D
  8
SYMBOL__ISO_
 62
     1
 10
69.4985106811009246
 20
137.0096936359813924
 30
0.0
 11
69.4985106811009246
 21
134.1081274406874115
 31
0.0
  0
LINE
  5
125E
  8
SYMBOL__ISO_
 62
     1
 10
46.0084825958952024
 20
137.0096936359813924
 30
0.0
 11
46.0084825958950887
 21
134.1081274406874115
 31
0.0
  0
LINE
  5
125F
  8
SYMBOL__ISO_
 62
     1
 10
36.3584732341598666
 20
137.0096936359813924
 30
0.0
 11
36.3584732341598666
 21
134.1081274406874115
 31
0.0
  0
LINE
  5
1260
  8
SYMBOL__ISO_
 62
     1
 10
9.605063488456949
 20
137.0096936359813924
 30
0.0
 11
9.605063488456949
 21
134.1081274406874115
 31
0.0
  0
POLYLINE
  5
1267
  8
0
 66
     1
 10
0.0
 20
0.0
 30
0.0
 70
     1
1001
GENIUS_GENREC_14
1002
{
1000
PYDIR
1011
3.8790535976853562
1021
0.0
1031
0.0
1021
142.2185405642381113
1031
0.0
1002
}
1002
{
1000
PXDIR
1011
100.3790535976852993
1021
0.0
1031
0.0
1021
3.718540564238082
1031
0.0
1002
}
1002
{
1000
PORI
1011
3.8790535976853562
1021
0.0
1031
0.0
1021
3.718540564238082
1031
0.0
1002
}
1002
{
1000
PINS
1011
3.8790535976853562
1021
0.0
1031
0.0
1021
3.718540564238082
1031
0.0
1002
}
1002
{
1000
PINS2
1011
100.3790535976852993
1021
0.0
1031
0.0
1021
142.2185405642381113
1031
0.0
1002
}
1002
{
1000
C
1070
     1
1002
}
1001
GENIUS_GENOBJ-N-REC_13
1002
{
1000
OWNER
1000
GEN
1002
}
1001
GENIUS_GENODEF_13
1002
{
1000
HIER
1070
     0
1002
}
1002
{
1000
MANEDIT
1070
     0
1002
}
1002
{
1000
NOSEL
1070
     0
1002
}
1002
{
1000
BEHIND
1070
     0
1002
}
1002
{
1000
OTHER
1070
     0
1002
}
1002
{
1000
REACTOR
1002
}
  0
VERTEX
  5
2938
  8
0
 10
3.8790535976853562
 20
3.718540564238082
 30
0.0
  0
VERTEX
  5
2939
  8
0
 10
100.3790535976852993
 20
3.718540564238082
 30
0.0
  0
VERTEX
  5
293A
  8
0
 10
100.3790535976852993
 20
142.2185405642381113
 30
0.0
  0
VERTEX
  5
293B
  8
0
 10
3.8790535976853562
 20
142.2185405642381113
 30
0.0
  0
SEQEND
  5
293C
  8
0
  0
INSERT
  5
1694
  8
0
  2
*U123
 10
0.0
 20
0.0
 30
0.0
  0
INSERT
  5
17CE
  8
AM_12
  2
*S22
 10
0.0
 20
0.0
 30
0.0
  0
CIRCLE
  5
17CF
  8
AM_5
 62
     3
 10
62.8332281267448707
 20
105.5857119201512972
 30
0.0
 40
3.0625
  0
INSERT
  5
17D0
  8
0
  2
*U124
 10
0.0
 20
0.0
 30
0.0
  0
LINE
  5
17D1
  8
AM_5
 62
     3
 10
52.9232171487667529
 20
95.9618464886711706
 30
0.0
 11
54.6957168503867592
 21
96.8616366262566828
 31
0.0
  0
LINE
  5
17D2
  8
AM_5
 62
     3
 10
54.0351467761222466
 20
97.527337452567977
 30
0.0
 11
52.9232171487667529
 21
95.9618464886711706
 31
0.0
  0
LINE
  5
17D3
  8
AM_5
 62
     3
 10
54.3654318132545313
 20
97.1944870394123228
 30
0.0
 11
52.9232171487667529
 21
95.7937572629430036
 31
0.0
  0
LINE
  5
17D4
  8
AM_5
 62
     3
 10
60.6593524638912527
 20
103.4285909563542987
 30
0.0
 11
54.3303795218604435
 21
97.1483972700984282
 31
0.0
  0
LINE
  5
1CF1
  8
\U+FF7D\U+FF8D\U+FF9F\U+FF70\U+FF7B\U+FF70
 10
46.3650064107715991
 20
97.5737860825986729
 30
0.0
 11
54.4479101794263585
 21
97.5737860825986729
 31
0.0
  0
LINE
  5
1CF2
  8
\U+FF7D\U+FF8D\U+FF9F\U+FF70\U+FF7B\U+FF70
 10
46.3650064107715991
 20
87.5737860825986729
 30
0.0
 11
54.4479101794263585
 21
87.5737860825986729
 31
0.0
  0
LINE
  5
1CF3
  8
\U+FF7D\U+FF8D\U+FF9F\U+FF70\U+FF7B\U+FF70
 10
46.3650064107715991
 20
87.5737860825986729
 30
0.0
 11
46.3650064107715991
 21
97.5737860825986729
 31
0.0
  0
LINE
  5
1CF4
  8
\U+FF7D\U+FF8D\U+FF9F\U+FF70\U+FF7B\U+FF70
 10
48.606458295099003
 20
87.5737860825986729
 30
0.0
 11
48.606458295099003
 21
97.5737860825986729
 31
0.0
  0
LINE
  5
1CF5
  8
\U+FF7D\U+FF8D\U+FF9F\U+FF70\U+FF7B\U+FF70
 10
52.2064582950989973
 20
87.5737860825986729
 30
0.0
 11
52.2064582950989973
 21
97.5737860825986729
 31
0.0
  0
LINE
  5
1CF6
  8
\U+FF7D\U+FF8D\U+FF9F\U+FF70\U+FF7B\U+FF70
 10
54.4479101794263585
 20
87.5737860825986729
 30
0.0
 11
54.4479101794263585
 21
97.5737860825986729
 31
0.0
  0
LINE
  5
1CFB
  8
\U+FF7D\U+FF8D\U+FF9F\U+FF70\U+FF7B\U+FF700
 10
47.6564582950990001
 20
87.5737860825986729
 30
0.0
 11
48.606458295099003
 21
88.5237860825986758
 31
0.0
  0
LINE
  5
1CFC
  8
\U+FF7D\U+FF8D\U+FF9F\U+FF70\U+FF7B\U+FF700
 10
48.606458295099003
 20
88.5237860825986758
 30
0.0
 11
48.606458295099003
 21
96.6237860825986843
 31
0.0
  0
LINE
  5
1CFD
  8
\U+FF7D\U+FF8D\U+FF9F\U+FF70\U+FF7B\U+FF700
 10
48.4064582950990001
 20
88.3237860825986729
 30
0.0
 11
48.4064582950990001
 21
96.8237860825986729
 31
0.0
  0
LINE
  5
1CFE
  8
\U+FF7D\U+FF8D\U+FF9F\U+FF70\U+FF7B\U+FF700
 10
47.6564582950990001
 20
97.5737860825986729
 30
0.0
 11
48.606458295099003
 21
96.6237860825986843
 31
0.0
  0
LINE
  5
1CFF
  8
\U+FF7D\U+FF8D\U+FF9F\U+FF70\U+FF7B\U+FF700
 10
53.1564582950990001
 20
87.5737860825986729
 30
0.0
 11
52.2064582950989973
 21
88.5237860825986758
 31
0.0
  0
LINE
  5
1D00
  8
\U+FF7D\U+FF8D\U+FF9F\U+FF70\U+FF7B\U+FF700
 10
53.1564582950990001
 20
97.5737860825986729
 30
0.0
 11
52.2064582950989973
 21
96.6237860825986843
 31
0.0
  0
LINE
  5
1D01
  8
\U+FF7D\U+FF8D\U+FF9F\U+FF70\U+FF7B\U+FF700
 10
52.4064582950990001
 20
88.3237860825986729
 30
0.0
 11
52.4064582950990001
 21
96.8237860825986729
 31
0.0
  0
LINE
  5
1D02
  8
\U+FF7D\U+FF8D\U+FF9F\U+FF70\U+FF7B\U+FF700
 10
52.2064582950989973
 20
88.5237860825986758
 30
0.0
 11
52.2064582950989973
 21
96.6237860825986843
 31
0.0
  0
LINE
  5
1D03
  8
\U+FF7D\U+FF8D\U+FF9F\U+FF70\U+FF7B\U+FF700
 10
51.7064582950989973
 20
88.5237860825986758
 30
0.0
 11
49.106458295099003
 21
88.5237860825986758
 31
0.0
  0
LINE
  5
1D04
  8
\U+FF7D\U+FF8D\U+FF9F\U+FF70\U+FF7B\U+FF700
 10
49.106458295099003
 20
96.6237860825986843
 30
0.0
 11
51.7064582950989973
 21
96.6237860825986843
 31
0.0
  0
LINE
  5
1D68
  8
AM_7
  6
AM_ISO08W050X2
 10
50.4064582950990001
 20
69.8237860825986729
 30
0.0
 11
56.0068926712238024
 21
69.8237860825986729
 31
0.0
1001
GENIUS_GENOREF_13
1005
1D6A
  0
LINE
  5
1D69
  8
AM_7
  6
AM_ISO08W050X2
 10
50.4064582950990001
 20
69.8237860825986729
 30
0.0
 11
50.4064582950990001
 21
75.4242204587234539
 31
0.0
1001
GENIUS_GENOREF_13
1005
1D6A
  0
POINT
  5
1D6A
  8
0
 10
0.0
 20
0.0
 30
0.0
1001
GENIUS_GENOBJ-N-CRS_13
1002
{
1000
OWNER
1000
GEN
1002
}
1001
GENIUS_GENODEF_13
1002
{
1000
HIER
1070
    10
1002
}
1002
{
1000
MANEDIT
1070
     0
1002
}
1002
{
1000
NOSEL
1070
     0
1002
}
1002
{
1000
BEHIND
1070
     0
1002
}
1002
{
1000
OTHER
1070
     0
1002
}
1002
{
1000
REACTOR
1002
}
1001
GENIUS_GENOENT_13
1002
{
1000
MYREF
1005
1D6A
1002
}
1002
{
1000
GRP
1005
0
1002
}
1001
GENIUS_GENOLIS_13
1002
{
1000
ENT
1005
1D69
1005
1D68
1005
22F7
1005
22F8
1002
}
1001
GENIUS_GENCRS_20
1002
{
1070
     0
1002
}
  0
POLYLINE
  5
1D6B
  8
0
 66
     1
 10
0.0
 20
0.0
 30
0.0
1001
GENIUS_GENREC_14
1002
{
1000
PYDIR
1011
50.4064582950990214
1021
0.0
1031
0.0
1021
66.3599030231241613
1031
0.0
1002
}
1002
{
1000
PXDIR
1011
53.9064582950990072
1021
0.0
1031
0.0
1021
73.2876691420731845
1031
0.0
1002
}
1002
{
1000
PORI
1011
50.4064582950990214
1021
0.0
1031
0.0
1021
73.2876691420731845
1031
0.0
1002
}
1002
{
1000
PINS
1011
46.4068180216172408
1021
0.0
1031
0.0
1021
69.8237860825986729
1031
0.0
1002
}
1002
{
1000
PINS2
1011
53.9064582950990072
1021
0.0
1031
0.0
1021
66.3599030231241613
1031
0.0
1002
}
1002
{
1000
C
1070
     1
1002
}
1001
GENIUS_GENOBJ-N-REC_13
1002
{
1000
OWNER
1000
GEN
1002
}
1001
GENIUS_GENODEF_13
1002
{
1000
HIER
1070
     0
1002
}
1002
{
1000
MANEDIT
1070
     0
1002
}
1002
{
1000
NOSEL
1070
     0
1002
}
1002
{
1000
BEHIND
1070
     0
1002
}
1002
{
1000
OTHER
1070
     0
1002
}
1002
{
1000
REACTOR
1002
}
  0
VERTEX
  5
2948
  8
0
 10
48.3857323529352001
 20
73.3237860825986729
 30
0.0
  0
VERTEX
  5
2949
  8
0
 10
52.4271842372627006
 20
73.3237860825986729
 30
0.0
  0
SEQEND
  5
294A
  8
0
  0
DIMENSION
  5
1E1A
  8
AM_5
  2
*D19
 10
59.9064582950994406
 20
66.3237860825987013
 30
0.0
 11
58.2814582950994478
 21
69.8237860825986729
 31
0.0
 70
     0
  1
<>
 13
53.9064582950990072
 23
73.3237860825986729
 33
0.0
 14
53.9064582950990072
 24
66.3237860825986729
 34
0.0
 50
90.0
1001
ACAD_DSTYLE_DIMINSPECT
1070
   396
1000
100%
1070
   395
1000

1070
   394
1070
    33
1070
   393
1070
     0
1001
ACAD
1000
DSTYLE
1002
{
1070
     3
1000

1070
    40
1040
0.5
1002
}
  0
POLYLINE
  5
1EA9
  8
0
 66
     1
 10
0.0
 20
0.0
 30
0.0
1001
GENIUS_GENREC_14
1002
{
1000
PYDIR
1011
52.1383998248362275
1021
0.0
1031
0.0
1021
66.8239753573551809
1031
0.0
1002
}
1002
{
1000
PXDIR
1011
51.7056056786072702
1021
0.0
1031
0.0
1021
74.5735968078421649
1031
0.0
1002
}
1002
{
1000
PORI
1011
48.6745167653617088
1021
0.0
1031
0.0
1021
72.8235968078421649
1031
0.0
1002
}
1002
{
1000
PINS
1011
46.9426682122644365
1021
0.0
1031
0.0
1021
67.8239659458577933
1031
0.0
1002
}
1002
{
1000
PINS2
1011
55.1694887380817818
1021
0.0
1031
0.0
1021
68.5739753573551809
1031
0.0
1002
}
1002
{
1000
C
1070
     1
1002
}
1001
GENIUS_GENOBJ-N-REC_13
1002
{
1000
OWNER
1000
GEN
1002
}
1001
GENIUS_GENODEF_13
1002
{
1000
HIER
1070
     0
1002
}
1002
{
1000
MANEDIT
1070
     0
1002
}
1002
{
1000
NOSEL
1070
     0
1002
}
1002
{
1000
BEHIND
1070
     0
1002
}
1002
{
1000
OTHER
1070
     0
1002
}
1002
{
1000
REACTOR
1002
}
  0
VERTEX
  5
294D
  8
0
 10
52.4271842372626296
 20
73.3237860825987156
 30
0.0
  0
VERTEX
  5
294E
  8
0
 10
54.4479101794263585
 20
69.8237860825986729
 30
0.0
  0
SEQEND
  5
294F
  8
0
  0
POLYLINE
  5
1EBB
  8
0
 66
     1
 10
0.0
 20
0.0
 30
0.0
1001
GENIUS_GENREC_14
1002
{
1000
PYDIR
1011
48.6745167653617088
1021
0.0
1031
0.0
1021
66.8239753573552377
1031
0.0
1002
}
1002
{
1000
PXDIR
1011
55.1694887380817534
1021
0.0
1031
0.0
1021
71.0735968078422218
1031
0.0
1002
}
1002
{
1000
PORI
1011
52.1383998248362275
1021
0.0
1031
0.0
1021
72.8235968078422218
1031
0.0
1002
}
1002
{
1000
PINS
1011
46.9426682122644081
1021
0.0
1031
0.0
1021
71.8236062193396094
1031
0.0
1002
}
1002
{
1000
PINS2
1011
51.7056056786072418
1021
0.0
1031
0.0
1021
65.0739753573552377
1031
0.0
1002
}
1002
{
1000
C
1070
     1
1002
}
1001
GENIUS_GENOBJ-N-REC_13
1002
{
1000
OWNER
1000
GEN
1002
}
1001
GENIUS_GENODEF_13
1002
{
1000
HIER
1070
     0
1002
}
1002
{
1000
MANEDIT
1070
     0
1002
}
1002
{
1000
NOSEL
1070
     0
1002
}
1002
{
1000
BEHIND
1070
     0
1002
}
1002
{
1000
OTHER
1070
     0
1002
}
1002
{
1000
REACTOR
1002
}
  0
VERTEX
  5
2952
  8
0
 10
54.44791017942633
 20
69.8237860825987298
 30
0.0
  0
VERTEX
  5
2953
  8
0
 10
52.4271842372625869
 20
66.3237860825986729
 30
0.0
  0
SEQEND
  5
2954
  8
0
  0
POLYLINE
  5
1EBC
  8
0
 66
     1
 10
0.0
 20
0.0
 30
0.0
1001
GENIUS_GENREC_14
1002
{
1000
PYDIR
1011
48.6745167653617088
1021
0.0
1031
0.0
1021
66.8239753573552377
1031
0.0
1002
}
1002
{
1000
PXDIR
1011
55.1694887380817534
1021
0.0
1031
0.0
1021
71.0735968078422218
1031
0.0
1002
}
1002
{
1000
PORI
1011
52.1383998248362275
1021
0.0
1031
0.0
1021
72.8235968078422218
1031
0.0
1002
}
1002
{
1000
PINS
1011
46.9426682122644081
1021
0.0
1031
0.0
1021
71.8236062193396094
1031
0.0
1002
}
1002
{
1000
PINS2
1011
51.7056056786072418
1021
0.0
1031
0.0
1021
65.0739753573552377
1031
0.0
1002
}
1002
{
1000
C
1070
     1
1002
}
1001
GENIUS_GENOBJ-N-REC_13
1002
{
1000
OWNER
1000
GEN
1002
}
1001
GENIUS_GENODEF_13
1002
{
1000
HIER
1070
     0
1002
}
1002
{
1000
MANEDIT
1070
     0
1002
}
1002
{
1000
NOSEL
1070
     0
1002
}
1002
{
1000
BEHIND
1070
     0
1002
}
1002
{
1000
OTHER
1070
     0
1002
}
1002
{
1000
REACTOR
1002
}
  0
VERTEX
  5
2957
  8
0
 10
46.3650064107715068
 20
69.8237860825986729
 30
0.0
  0
VERTEX
  5
2958
  8
0
 10
48.3857323529352712
 20
73.3237860825987724
 30
0.0
  0
SEQEND
  5
2959
  8
0
  0
POLYLINE
  5
1EBD
  8
0
 66
     1
 10
0.0
 20
0.0
 30
0.0
1001
GENIUS_GENREC_14
1002
{
1000
PYDIR
1011
52.1383998248362275
1021
0.0
1031
0.0
1021
66.8239753573551809
1031
0.0
1002
}
1002
{
1000
PXDIR
1011
51.7056056786072702
1021
0.0
1031
0.0
1021
74.5735968078421649
1031
0.0
1002
}
1002
{
1000
PORI
1011
48.6745167653617088
1021
0.0
1031
0.0
1021
72.8235968078421649
1031
0.0
1002
}
1002
{
1000
PINS
1011
46.9426682122644365
1021
0.0
1031
0.0
1021
67.8239659458577933
1031
0.0
1002
}
1002
{
1000
PINS2
1011
55.1694887380817818
1021
0.0
1031
0.0
1021
68.5739753573551809
1031
0.0
1002
}
1002
{
1000
C
1070
     1
1002
}
1001
GENIUS_GENOBJ-N-REC_13
1002
{
1000
OWNER
1000
GEN
1002
}
1001
GENIUS_GENODEF_13
1002
{
1000
HIER
1070
     0
1002
}
1002
{
1000
MANEDIT
1070
     0
1002
}
1002
{
1000
NOSEL
1070
     0
1002
}
1002
{
1000
BEHIND
1070
     0
1002
}
1002
{
1000
OTHER
1070
     0
1002
}
1002
{
1000
REACTOR
1002
}
  0
VERTEX
  5
295C
  8
0
 10
48.3857323529352996
 20
66.3237860825986729
 30
0.0
  0
VERTEX
  5
295D
  8
0
 10
46.3650064107715494
 20
69.823786082598744
 30
0.0
  0
SEQEND
  5
295E
  8
0
  0
POLYLINE
  5
1EC0
  8
0
 66
     1
 10
0.0
 20
0.0
 30
0.0
1001
GENIUS_GENREC_14
1002
{
1000
PYDIR
1011
50.4064582950990214
1021
0.0
1031
0.0
1021
66.3599030231241613
1031
0.0
1002
}
1002
{
1000
PXDIR
1011
53.9064582950990072
1021
0.0
1031
0.0
1021
73.2876691420731845
1031
0.0
1002
}
1002
{
1000
PORI
1011
50.4064582950990214
1021
0.0
1031
0.0
1021
73.2876691420731845
1031
0.0
1002
}
1002
{
1000
PINS
1011
46.4068180216172408
1021
0.0
1031
0.0
1021
69.8237860825986729
1031
0.0
1002
}
1002
{
1000
PINS2
1011
53.9064582950990072
1021
0.0
1031
0.0
1021
66.3599030231241613
1031
0.0
1002
}
1002
{
1000
C
1070
     1
1002
}
1001
GENIUS_GENOBJ-N-REC_13
1002
{
1000
OWNER
1000
GEN
1002
}
1001
GENIUS_GENODEF_13
1002
{
1000
HIER
1070
     0
1002
}
1002
{
1000
MANEDIT
1070
     0
1002
}
1002
{
1000
NOSEL
1070
     0
1002
}
1002
{
1000
BEHIND
1070
     0
1002
}
1002
{
1000
OTHER
1070
     0
1002
}
1002
{
1000
REACTOR
1002
}
  0
VERTEX
  5
2961
  8
0
 10
52.4271842372627006
 20
66.3237860825986729
 30
0.0
  0
VERTEX
  5
2962
  8
0
 10
48.3857323529352286
 20
66.3237860825986729
 30
0.0
  0
SEQEND
  5
2963
  8
0
  0
CIRCLE
  5
1F4E
  8
0
 10
50.4064582950990001
 20
69.8237860825986729
 30
0.0
 40
1.8
  0
CIRCLE
  5
1F4F
  8
0
  6
ACISOWELD
 10
50.4064582950990001
 20
69.8237860825986729
 30
0.0
 40
2.0
  0
CIRCLE
  5
1F8F
  8
0
 10
50.4064582950990001
 20
69.8237860825986729
 30
0.0
 40
2.75
  0
LINE
  5
1F90
  8
AM_7
  6
AM_ISO08W050X2
 10
50.4064582950989788
 20
99.0737860825986729
 30
0.0
 11
50.4064582950989788
 21
86.0737860825986729
 31
0.0
1001
GENIUS_GENOBJ-N-CEN_13
1002
{
1000
OWNER
1000
GEN
1002
}
1001
GENIUS_GENODEF_13
1002
{
1000
HIER
1070
     0
1002
}
1002
{
1000
MANEDIT
1070
     0
1002
}
1002
{
1000
NOSEL
1070
     0
1002
}
1002
{
1000
BEHIND
1070
     0
1002
}
1002
{
1000
OTHER
1070
     0
1002
}
1002
{
1000
REACTOR
1002
}
1001
GENIUS_GENCEN_19
1002
{
1040
1.5
1002
}
  0
DIMENSION
  5
1F91
  8
AM_5
  2
*D20
 10
60.4479101794268203
 20
87.5737860825987013
 30
0.0
 11
58.8229101794268416
 21
92.5737860825986729
 31
0.0
 70
     0
  1
<>
 13
54.4479101794263585
 23
97.5737860825986729
 33
0.0
 14
54.4479101794263585
 24
87.5737860825986729
 34
0.0
 50
90.0
1001
ACAD_DSTYLE_DIMINSPECT
1070
   396
1000
100%
1070
   395
1000

1070
   394
1070
    33
1070
   393
1070
     0
1001
ACAD
1000
DSTYLE
1002
{
1070
     3
1000

1070
    40
1040
0.5
1002
}
  0
DIMENSION
  5
20CF
  8
AM_5
  2
*D21
 10
51.8376692521386104
 20
68.7321656373660517
 30
0.0
 11
41.9625725536660994
 21
74.7577672671941542
 31
0.0
 70
   131
  1
M4
 15
48.9752473380592193
 25
70.91540652783101
 35
0.0
 40
0.0
1001
ACAD_DSTYLE_DIMRADIAL_EXTENSION
1070
   387
1070
     1
1070
   388
1040
0.0
1070
   390
1040
0.0
1001
ACAD_DSTYLE_DIMINSPECT
1070
   396
1000
100%
1070
   395
1000

1070
   394
1070
    33
1070
   393
1070
     0
1001
ACAD
1000
DSTYLE
1002
{
1070
     3
1000

1070
    40
1040
0.5
1002
}
  0
LINE
  5
22F7
  8
AM_7
  6
AM_ISO08W050X2
 10
50.4064582950990001
 20
69.8237860825986729
 30
0.0
 11
50.4064582950990001
 21
64.2233517064738777
 31
0.0
1001
GENIUS_GENOREF_13
1005
1D6A
  0
LINE
  5
22F8
  8
AM_7
  6
AM_ISO08W050X2
 10
50.4064582950990001
 20
69.8237860825986729
 30
0.0
 11
44.8060239189741978
 21
69.8237860825986729
 31
0.0
1001
GENIUS_GENOREF_13
1005
1D6A
  0
VIEWPORT
  5
186
 67
     1
  8
0
 10
5.2499996395561626
 20
3.999999883606677
 30
0.0
 40
14.5758539879390696
 41
8.9929997457669462
 68
     1
 69
     1
1001
ACAD
1000
MVIEW
1002
{
1070
    16
1010
0.0
1020
0.0
1030
0.0
1010
0.0
1020
0.0
1030
1.0
1040
0.0
1040
8.9929997457669462
1040
5.2499996395561626
1040
3.999999883606677
1040
50.0
1040
0.0
1040
0.0
1070
     0
1070
   100
1070
     1
1070
     1
1070
     0
1070
     0
1070
     0
1070
     0
1040
0.0
1040
0.0
1040
0.0
1040
10.0
1040
10.0
1040
10.0
1040
10.0
1070
     0
1002
{
1002
}
1002
}
1001
GENIUS_GENOBJ-N-SDF_13
1002
{
1000
OWNER
1000
GEN
1002
}
1001
GENIUS_GENODEF_13
1002
{
1000
HIER
1070
     0
1002
}
1002
{
1000
MANEDIT
1070
     0
1002
}
1002
{
1000
NOSEL
1070
     0
1002
}
1002
{
1000
BEHIND
1070
     0
1002
}
1002
{
1000
OTHER
1070
     0
1002
}
1002
{
1000
REACTOR
1002
}
1001
GENIUS_GENSCREG_15
1000
PF
1040
1.0
1000
DF
1040
1.0
1000
MIN
1011
-2.0379273544133709
1021
0.0
1031
0.0
1021
-0.4964999892767957
1031
0.0
1000
MAX
1011
12.5379266335257
1021
0.0
1031
0.0
1021
8.4964997564901523
1031
0.0
1000
FLAGS
1070
     4
  0
ENDSEC
  0
EOF
