  0
SECTION
  2
HEADER
  9
$ACADVER
  1
AC1015
  9
$ACADMAINTVER
 70
    20
  9
$DWGCODEPAGE
  3
ANSI_932
  9
$INSBASE
 10
0.0
 20
0.0
 30
0.0
  9
$EXTMIN
 10
-0.002942879106854
 20
-0.004269461916806
 30
-0.0000000000112498
  9
$EXTMAX
 10
193.0029455754505
 20
280.0042733737102
 30
0.0000000000002956
  9
$LIMMIN
 10
0.0
 20
0.0
  9
$LIMMAX
 10
193.0
 20
280.0000000000001
  9
$ORTHOMODE
 70
     1
  9
$REGENMODE
 70
     1
  9
$FILLMODE
 70
     1
  9
$QTEXTMODE
 70
     0
  9
$MIRRTEXT
 70
     1
  9
$LTSCALE
 40
1.0
  9
$ATTMODE
 70
     1
  9
$TEXTSIZE
 40
73.98571745357912
  9
$TRACEWID
 40
1.0
  9
$TEXTSTYLE
  7
STANDARD
  9
$CLAYER
  8
プレート
  9
$CELTYPE
  6
ByLayer
  9
$CECOLOR
 62
   256
  9
$CELTSCALE
 40
1.0
  9
$DISPSILH
 70
     0
  9
$DIMSCALE
 40
1.0
  9
$DIMASZ
 40
2.5
  9
$DIMEXO
 40
1.0
  9
$DIMDLI
 40
10.0
  9
$DIMRND
 40
0.0
  9
$DIMDLE
 40
0.0
  9
$DIMEXE
 40
1.0
  9
$DIMTP
 40
0.1
  9
$DIMTM
 40
0.1
  9
$DIMTXT
 40
3.5
  9
$DIMCEN
 40
0.0
  9
$DIMTSZ
 40
0.0
  9
$DIMTOL
 70
     0
  9
$DIMLIM
 70
     0
  9
$DIMTIH
 70
     0
  9
$DIMTOH
 70
     0
  9
$DIMSE1
 70
     0
  9
$DIMSE2
 70
     0
  9
$DIMTAD
 70
     1
  9
$DIMZIN
 70
     8
  9
$DIMBLK
  1
Open30
  9
$DIMASO
 70
     1
  9
$DIMSHO
 70
     1
  9
$DIMPOST
  1

  9
$DIMAPOST
  1
"
  9
$DIMALT
 70
     0
  9
$DIMALTD
 70
     2
  9
$DIMALTF
 40
0.0393701
  9
$DIMLFAC
 40
1.0
  9
$DIMTOFL
 70
     1
  9
$DIMTVP
 40
0.0
  9
$DIMTIX
 70
     0
  9
$DIMSOXD
 70
     0
  9
$DIMSAH
 70
     0
  9
$DIMBLK1
  1

  9
$DIMBLK2
  1

  9
$DIMSTYLE
  2
AM_ISO
  9
$DIMCLRD
 70
   256
  9
$DIMCLRE
 70
   256
  9
$DIMCLRT
 70
     2
  9
$DIMTFAC
 40
0.71
  9
$DIMGAP
 40
1.5
  9
$DIMJUST
 70
     0
  9
$DIMSD1
 70
     0
  9
$DIMSD2
 70
     0
  9
$DIMTOLJ
 70
     0
  9
$DIMTZIN
 70
     8
  9
$DIMALTZ
 70
     0
  9
$DIMALTTZ
 70
     0
  9
$DIMUPT
 70
     0
  9
$DIMDEC
 70
     2
  9
$DIMTDEC
 70
     2
  9
$DIMALTU
 70
     2
  9
$DIMALTTD
 70
     2
  9
$DIMTXSTY
  7
STANDARD
  9
$DIMAUNIT
 70
     0
  9
$DIMADEC
 70
     0
  9
$DIMALTRND
 40
0.0
  9
$DIMAZIN
 70
     2
  9
$DIMDSEP
 70
    46
  9
$DIMATFIT
 70
     3
  9
$DIMFRAC
 70
     0
  9
$DIMLDRBLK
  1
Open30
  9
$DIMLUNIT
 70
     2
  9
$DIMLWD
 70
    -1
  9
$DIMLWE
 70
    -1
  9
$DIMTMOVE
 70
     0
  9
$LUNITS
 70
     2
  9
$LUPREC
 70
     2
  9
$SKETCHINC
 40
1.0
  9
$FILLETRAD
 40
12.5
  9
$AUNITS
 70
     0
  9
$AUPREC
 70
     0
  9
$MENU
  1
.
  9
$ELEVATION
 40
0.0
  9
$PELEVATION
 40
0.0
  9
$THICKNESS
 40
0.0
  9
$LIMCHECK
 70
     0
  9
$CHAMFERA
 40
12.5
  9
$CHAMFERB
 40
12.5
  9
$CHAMFERC
 40
20.0
  9
$CHAMFERD
 40
0.0
  9
$SKPOLY
 70
     0
  9
$TDCREATE
 40
2453938.637014792
  9
$TDUCREATE
 40
2453938.262014792
  9
$TDUPDATE
 40
2456185.411899954
  9
$TDUUPDATE
 40
2456185.036899954
  9
$TDINDWG
 40
0.0572034259
  9
$TDUSRTIMER
 40
0.0572034259
  9
$USRTIMER
 70
     1
  9
$ANGBASE
 50
0.0
  9
$ANGDIR
 70
     0
  9
$PDMODE
 70
     0
  9
$PDSIZE
 40
0.0
  9
$PLINEWID
 40
0.0
  9
$SPLFRAME
 70
     0
  9
$SPLINETYPE
 70
     6
  9
$SPLINESEGS
 70
     8
  9
$HANDSEED
  5
FAB
  9
$SURFTAB1
 70
     6
  9
$SURFTAB2
 70
     6
  9
$SURFTYPE
 70
     6
  9
$SURFU
 70
     6
  9
$SURFV
 70
     6
  9
$UCSBASE
  2

  9
$UCSNAME
  2

  9
$UCSORG
 10
0.0
 20
0.0
 30
0.0
  9
$UCSXDIR
 10
1.0
 20
0.0
 30
0.0
  9
$UCSYDIR
 10
0.0
 20
1.0
 30
0.0
  9
$UCSORTHOREF
  2

  9
$UCSORTHOVIEW
 70
     0
  9
$UCSORGTOP
 10
0.0
 20
0.0
 30
0.0
  9
$UCSORGBOTTOM
 10
0.0
 20
0.0
 30
0.0
  9
$UCSORGLEFT
 10
0.0
 20
0.0
 30
0.0
  9
$UCSORGRIGHT
 10
0.0
 20
0.0
 30
0.0
  9
$UCSORGFRONT
 10
0.0
 20
0.0
 30
0.0
  9
$UCSORGBACK
 10
0.0
 20
0.0
 30
0.0
  9
$PUCSBASE
  2

  9
$PUCSNAME
  2

  9
$PUCSORG
 10
0.0
 20
0.0
 30
0.0
  9
$PUCSXDIR
 10
1.0
 20
0.0
 30
0.0
  9
$PUCSYDIR
 10
0.0
 20
1.0
 30
0.0
  9
$PUCSORTHOREF
  2

  9
$PUCSORTHOVIEW
 70
     0
  9
$PUCSORGTOP
 10
0.0
 20
0.0
 30
0.0
  9
$PUCSORGBOTTOM
 10
0.0
 20
0.0
 30
0.0
  9
$PUCSORGLEFT
 10
0.0
 20
0.0
 30
0.0
  9
$PUCSORGRIGHT
 10
0.0
 20
0.0
 30
0.0
  9
$PUCSORGFRONT
 10
0.0
 20
0.0
 30
0.0
  9
$PUCSORGBACK
 10
0.0
 20
0.0
 30
0.0
  9
$USERI1
 70
     0
  9
$USERI2
 70
     0
  9
$USERI3
 70
     0
  9
$USERI4
 70
     0
  9
$USERI5
 70
     0
  9
$USERR1
 40
0.0
  9
$USERR2
 40
0.0
  9
$USERR3
 40
0.0
  9
$USERR4
 40
0.0
  9
$USERR5
 40
0.0
  9
$WORLDVIEW
 70
     1
  9
$SHADEDGE
 70
     3
  9
$SHADEDIF
 70
    70
  9
$TILEMODE
 70
     1
  9
$MAXACTVP
 70
    64
  9
$PINSBASE
 10
0.0
 20
0.0
 30
0.0
  9
$PLIMCHECK
 70
     0
  9
$PEXTMIN
 10
1.000000000000000E+20
 20
1.000000000000000E+20
 30
1.000000000000000E+20
  9
$PEXTMAX
 10
-1.000000000000000E+20
 20
-1.000000000000000E+20
 30
-1.000000000000000E+20
  9
$PLIMMIN
 10
-6.350006103515625
 20
-6.349999904632568
  9
$PLIMMAX
 10
273.0499877929688
 20
209.5499939918518
  9
$UNITMODE
 70
     0
  9
$VISRETAIN
 70
     1
  9
$PLINEGEN
 70
     0
  9
$PSLTSCALE
 70
     1
  9
$TREEDEPTH
 70
  3020
  9
$CMLSTYLE
  2
Standard
  9
$CMLJUST
 70
     0
  9
$CMLSCALE
 40
20.0
  9
$PROXYGRAPHICS
 70
     1
  9
$MEASUREMENT
 70
     1
  9
$CELWEIGHT
370
    -1
  9
$ENDCAPS
280
     0
  9
$JOINSTYLE
280
     0
  9
$LWDISPLAY
290
     0
  9
$INSUNITS
 70
     4
  9
$HYPERLINKBASE
  1

  9
$STYLESHEET
  1
takachi-1.ctb
  9
$XEDIT
290
     1
  9
$CEPSNTYPE
380
     0
  9
$PSTYLEMODE
290
     1
  9
$FINGERPRINTGUID
  2
{7D6856D9-5DAF-4DF0-90F0-667A35A307C6}
  9
$VERSIONGUID
  2
{8857FC06-239B-49CF-8B03-899BB7E14977}
  9
$EXTNAMES
290
     1
  9
$PSVPSCALE
 40
0.0
  9
$OLESTARTUP
290
     0
  0
ENDSEC
  0
SECTION
  2
CLASSES
  0
CLASS
  1
ACDBDICTIONARYWDFLT
  2
AcDbDictionaryWithDefault
  3
ObjectDBX Classes
 90
        0
280
     0
281
     0
  0
CLASS
  1
ACDBPLACEHOLDER
  2
AcDbPlaceHolder
  3
ObjectDBX Classes
 90
        0
280
     0
281
     0
  0
CLASS
  1
LAYOUT
  2
AcDbLayout
  3
ObjectDBX Classes
 90
        0
280
     0
281
     0
  0
CLASS
  1
ACME_DOCUMENT
  2
AcMeDbDoc
  3
AcMeServices
 90
        0
280
     0
281
     0
  0
CLASS
  1
AMGSETTINGSOBJ
  2
AmgSettingsObj
  3
"AcadM|Product Description: AutoCAD Mechanical 2000|Company: Autodesk"
 90
        0
280
     0
281
     0
  0
CLASS
  1
ACMESCOPE
  2
AcMeScope
  3
AcMeServices
 90
        0
280
     0
281
     0
  0
CLASS
  1
ACMECOMMANDHISTORY
  2
AcMeCommandHistory
  3
AcMeServices
 90
        0
280
     0
281
     0
  0
CLASS
  1
ACIMSYSVARMAN
  2
AcImSysVarManager
  3
AcMeServices
 90
        0
280
     0
281
     0
  0
CLASS
  1
ACIMREALSYSVAR
  2
AcImRealSysVar
  3
AcMeServices
 90
        0
280
     0
281
     0
  0
CLASS
  1
ACIMINTSYSVAR
  2
AcImIntSysVar
  3
AcMeServices
 90
        0
280
     0
281
     0
  0
CLASS
  1
ACMEDRAWINGMAN
  2
AcMeDrawingMan
  3
AcMeServices
 90
        0
280
     0
281
     0
  0
CLASS
  1
ACMEVIEW
  2
AcMeView
  3
AcMeServices
 90
        0
280
     0
281
     0
  0
CLASS
  1
ACDBENTITYCACHE
  2
AcMeEntityCache
  3
AcMeServices
 90
        0
280
     0
281
     0
  0
CLASS
  1
GSMANAGER
  2
AcMeGSManager
  3
AcMeServices
 90
        0
280
     0
281
     0
  0
CLASS
  1
AMDTINTERNALREACTOR
  2
AmdtInternalReactor
  3
AcMeServices
 90
        0
280
     0
281
     0
  0
CLASS
  1
ACMESTATEMGR
  2
AcMeStateMgr
  3
AcMeServices
 90
        0
280
     0
281
     0
  0
CLASS
  1
ACGREFMASTER
  2
AcGrefMaster
  3
AcAttribServices
 90
        0
280
     0
281
     0
  0
CLASS
  1
ACME_DATABASE
  2
AcMeDbDatabase
  3
AcMeServices
 90
        0
280
     0
281
     0
  0
CLASS
  1
ACRFINSADJUSTERMGR
  2
AcRfInsAdjusterMgr
  3
AcMeServices
 90
        0
280
     0
281
     0
  0
CLASS
  1
ACGREFACADMASTER
  2
AcGrefacadMaster
  3
AcGrefServices
 90
        0
280
     0
281
     0
  0
CLASS
  1
AMIMASTER
  2
AmiMaster
  3
AmiServices
 90
        0
280
     0
281
     0
  0
CLASS
  1
ACMDATADICTIONARY
  2
AcmDataDictionary
  3
"AcmSymBB|Product Description: AutoCAD Mechanical 2004 DX|Company: Autodesk"
 90
        0
280
     0
281
     0
  0
CLASS
  1
ACMDATAENTRYBLOCK
  2
AcmDataEntryBlock
  3
"AcmSymBB|Product Description: AutoCAD Mechanical 2004 DX|Company: Autodesk"
 90
        0
280
     0
281
     0
  0
CLASS
  1
ACIMSTRSYSVAR
  2
AcImStrSysVar
  3
AcMeServices
 90
        0
280
     0
281
     0
  0
CLASS
  1
ACMSTANDARDISO
  2
AcmStandardISO
  3
"Amdt_StdImp|Product Description: AutoCAD Mechanical 2004 DX|Company: Autodesk"
 90
        0
280
     0
281
     0
  0
CLASS
  1
AMGOBJPROPCFG
  2
AmgObjPropCfg
  3
"AmgLay|Product Description: AutoCAD Mechanical 2000|Company: Autodesk"
 90
        1
280
     0
281
     0
  0
CLASS
  1
AMDTEDGESTANDARDISO
  2
AmdtEdgeStdISO
  3
"Amdt_StdImp|Product Description: AutoCAD Mechanical 2004 DX|Company: Autodesk"
 90
        0
280
     0
281
     0
  0
CLASS
  1
ACMSURFSTANDARDISO
  2
AcmSurfTextStdISO
  3
"Amdt_StdImp|Product Description: AutoCAD Mechanical 2004 DX|Company: Autodesk"
 90
        0
280
     0
281
     0
  0
CLASS
  1
ACMFCFSTANDARDISO
  2
AcmFCFStdISO
  3
"Amdt_StdImp|Product Description: AutoCAD Mechanical 2004 DX|Company: Autodesk"
 90
        0
280
     0
281
     0
  0
CLASS
  1
ACMWELDSTANDARDISO
  2
AcmWeldingStdISO
  3
"Amdt_StdImp|Product Description: AutoCAD Mechanical 2004 DX|Company: Autodesk"
 90
        0
280
     0
281
     0
  0
CLASS
  1
ACMIDSTANDARDISO
  2
AcmIdStdISO
  3
"Amdt_StdImp|Product Description: AutoCAD Mechanical 2004 DX|Company: Autodesk"
 90
        0
280
     0
281
     0
  0
CLASS
  1
ACMDATUMSTANDARDISO
  2
AcmDatumStdISO
  3
"Amdt_StdImp|Product Description: AutoCAD Mechanical 2004 DX|Company: Autodesk"
 90
        0
280
     0
281
     0
  0
CLASS
  1
ACMBOMSTANDARDISO
  2
AcmBOMStdISO
  3
"Amdt_StdImp|Product Description: AutoCAD Mechanical 2004 DX|Company: Autodesk"
 90
        0
280
     0
281
     0
  0
CLASS
  1
ACMDETAILSTANDARDISO
  2
AmdtDetailSymStdISO
  3
"Amdt_StdImp|Product Description: AutoCAD Mechanical 2004 DX|Company: Autodesk"
 90
        0
280
     0
281
     0
  0
CLASS
  1
ACMSECTIONSTANDARDISO
  2
AmdtSectionSymStdISO
  3
"Amdt_StdImp|Product Description: AutoCAD Mechanical 2004 DX|Company: Autodesk"
 90
        0
280
     0
281
     0
  0
CLASS
  1
ACMCENTERLINESTANDARDISO
  2
AmdtCenterLineStdISO
  3
"Amdt_StdImp|Product Description: AutoCAD Mechanical 2004 DX|Company: Autodesk"
 90
        0
280
     0
281
     0
  0
CLASS
  1
ACMNOTESTANDARDISO
  2
AmdtNoteStdISO
  3
"Amdt_StdImp|Product Description: AutoCAD Mechanical 2004 DX|Company: Autodesk"
 90
        0
280
     0
281
     0
  0
CLASS
  1
ACAMGLAYSTD
  2
AcAmgLayStd
  3
"AcAmgLayStd|Product Description: AutoCAD Mechanical 2000|Company: Autodesk"
 90
        0
280
     0
281
     0
  0
CLASS
  1
ACAMGDIMSTD
  2
AcAmgDimStd
  3
"AcAmgDimStd|Product Description: AutoCAD Mechanical 2000|Company: Autodesk"
 90
        0
280
     0
281
     0
  0
CLASS
  1
ACAMGHOLECHARTSTDISO
  2
AcAmgHoleChartStdISO
  3
ACMSYMBB_MODULE_NAME
 90
        0
280
     0
281
     0
  0
CLASS
  1
ACAMGTITLESTD
  2
AcAmgTitleStd
  3
"TITLEAPP"
 90
        0
280
     0
281
     0
  0
CLASS
  1
LAYER_INDEX
  2
AcDbLayerIndex
  3
ObjectDBX Classes
 90
    32768
280
     0
281
     0
  0
CLASS
  1
IDBUFFER
  2
AcDbIdBuffer
  3
ObjectDBX Classes
 90
    32768
280
     0
281
     0
  0
CLASS
  1
DICTIONARYVAR
  2
AcDbDictionaryVar
  3
ObjectDBX Classes
 90
        0
280
     0
281
     0
  0
CLASS
  1
AM_DRAWING_MGR
  2
AcDmDwgMgr
  3
AcMechDwgViewMgmt
 90
        0
280
     0
281
     0
  0
CLASS
  1
AM_DWG_DOCUMENT
  2
AcDmDwgDocument
  3
AcMechDwgViewMgmt
 90
        0
280
     0
281
     0
  0
CLASS
  1
AM_DWG_SHEET
  2
AcDmSheet
  3
AcMechDwgViewMgmt
 90
        0
280
     0
281
     0
  0
CLASS
  1
AM_VIEWDIMPARMAP
  2
AcDmViewDimParMap
  3
AcMechDwgViewMgmt
 90
        0
280
     0
281
     0
  0
CLASS
  1
AM_DWGMGR_NAME
  2
AcDmDwgMgrName
  3
AcMechDwgViewMgmt
 90
        0
280
     0
281
     0
  0
CLASS
  1
AMDTMENUSTATEMGR
  2
AmdtMenuStateMgr
  3
McadcomServices
 90
        0
280
     0
281
     0
  0
CLASS
  1
AMDTMCOMMENUSTATE
  2
AmdtMcomMenuState
  3
McadcomServices
 90
        0
280
     0
281
     0
  0
CLASS
  1
MAPIAMMOUDLE
  2
MApiAmModule
  3
MApiAmServices
 90
        0
280
     0
281
     0
  0
CLASS
  1
AMDTADMENUSTATE
  2
AmdtAdMenuState
  3
DesignerServices
 90
        0
280
     0
281
     0
  0
CLASS
  1
ADAPPL
  2
AcAdAppl
  3
DesignerServices
 90
        0
280
     0
281
     0
  0
CLASS
  1
DEPMGR
  2
AcAdDepMgr
  3
DesignerServices
 90
        0
280
     0
281
     0
  0
CLASS
  1
PARAMMGR
  2
AcAdParamMgr
  3
DesignerServices
 90
        0
280
     0
281
     0
  0
CLASS
  1
PARAMSCOPE
  2
AcAdParamScope
  3
DesignerServices
 90
        0
280
     0
281
     0
  0
CLASS
  1
NAMEDAPPL
  2
AcAdNamedAppl
  3
DesignerServices
 90
        0
280
     0
281
     0
  0
CLASS
  1
AMDTDMMENUSTATE
  2
AmdtDmMenuState
  3
AcMechDwgViewMgmt
 90
        0
280
     0
281
     0
  0
CLASS
  1
AMDTAMMENUSTATE
  2
AmdtAmMenuState
  3
DesignerAssemblies
 90
        0
280
     0
281
     0
  0
CLASS
  1
ACAMPROJECT
  2
AcAmProject
  3
DesignerAssemblies
 90
        0
280
     0
281
     0
  0
CLASS
  1
ACAMGRCOMPDEF
  2
AcAmGrCompDef
  3
DesignerAssemblies
 90
        0
280
     0
281
     0
  0
CLASS
  1
ACCMCONTEXT
  2
AcCmContext
  3
DesignerAssemblies
 90
        0
280
     0
281
     0
  0
CLASS
  1
ACAMCOMPDEF
  2
AcAmCompDef
  3
DesignerAssemblies
 90
        0
280
     0
281
     0
  0
CLASS
  1
ACAMCOMPDEFMGR
  2
AcAmCompDefMgr
  3
DesignerAssemblies
 90
        0
280
     0
281
     0
  0
CLASS
  1
AMCONTEXTMGR
  2
AcAmContextMgr
  3
DesignerAssemblies
 90
        0
280
     0
281
     0
  0
CLASS
  1
ACAMCONTEXTMODELER
  2
AcAmContextModeler
  3
DesignerAssemblies
 90
        0
280
     0
281
     0
  0
CLASS
  1
ACMTHREADLINESTANDARDISO
  2
AmdtThreadLineStdISO
  3
"Amdt_StdImp|Product Description: AutoCAD Mechanical 2004 DX|Company: Autodesk"
 90
        0
280
     0
281
     0
  0
CLASS
  1
CATALOGSTATE
  2
AcAmCatalogState
  3
DesignerAssemblies
 90
        0
280
     0
281
     0
  0
CLASS
  1
ACAMGRCOMPDEFSET
  2
AcAmGrCompDefSet
  3
DesignerAssemblies
 90
        0
280
     0
281
     0
  0
CLASS
  1
AMDTBROWSERDBTAB
  2
AmdtBrowserDbTab
  3
McadcomServices
 90
        0
280
     0
281
     0
  0
CLASS
  1
CBROWSERAPPOBJECT
  2
CBrowserAppObject
  3
McadcomServices
 90
        0
280
     0
281
     0
  0
CLASS
  1
DM_PLACEHOLDER
  2
AcDmSelsetPlaceholder
  3
AcMechDwgViewMgmt
 90
        0
280
     0
281
     0
  0
CLASS
  1
AMDTNOTETEMPLATEDB
  2
AmdtNoteTemplateDB
  3
AMDT_STDIMP_MODULE_NAME
 90
        0
280
     0
281
     0
  0
CLASS
  1
ACAMGFILTERDAT
  2
AcAmgFilterDat
  3
"AcadM|Product Description: AutoCAD Mechanical 2000|Company: Autodesk"
 90
    32768
280
     0
281
     0
  0
CLASS
  1
AMDTNOTE
  2
AmdtNote
  3
"AcmSymBB|Product Description: AutoCAD Mechanical 2004 DX|Company: Autodesk"
 90
    33791
280
     0
281
     1
  0
CLASS
  1
AMDTFORMULAUPDATEDISPATCHER
  2
AmdtFormulaUpdateDispatcher
  3
AcMeServices
 90
        0
280
     0
281
     0
  0
CLASS
  1
AMDTSECTIONSYM
  2
AmdtSectionSym
  3
"AcmSymBB|Product Description: AutoCAD Mechanical 2004 DX|Company: Autodesk"
 90
    33791
280
     0
281
     1
  0
CLASS
  1
AMDTSECTIONSYMLABEL
  2
AmdtSectionSymLabel
  3
"AcmSymBB|Product Description: AutoCAD Mechanical 2004 DX|Company: Autodesk"
 90
    33791
280
     0
281
     1
  0
CLASS
  1
AMDTDETAILSYM
  2
AmdtDetailSym
  3
"AcmSymBB|Product Description: AutoCAD Mechanical 2004 DX|Company: Autodesk"
 90
    33791
280
     0
281
     1
  0
CLASS
  1
AMDTDETAILSYMLABEL
  2
AmdtDetailSymLabel
  3
"AcmSymBB|Product Description: AutoCAD Mechanical 2004 DX|Company: Autodesk"
 90
    33791
280
     0
281
     1
  0
CLASS
  1
TABLESTYLE
  2
AcDbTableStyle
  3
ObjectDBX Classes
 90
     2047
280
     0
281
     0
  0
CLASS
  1
DIMASSOC
  2
AcDbDimAssoc
  3
"AcDbDimAssoc|Product Desc:     AcDim ARX App For Dimension|Company:          Autodesk, Inc.|WEB Address:      www.autodesk.com"
 90
        0
280
     0
281
     0
  0
CLASS
  1
ACMPARTREF
  2
AcmPartRef
  3
"AcmSymBB|Product Description: AutoCAD Mechanical 2004 DX|Company: Autodesk"
 90
     1023
280
     0
281
     1
  0
CLASS
  1
AMDTACMWBLOCKBOMENTITY
  2
AmdtAcmWblockBomEntity
  3
"AcmSymBB|Product Description: AutoCAD Mechanical 2004 DX|Company: Autodesk"
 90
     1023
280
     0
281
     1
  0
CLASS
  1
ACMDATAENTRYPART
  2
AcmDataEntryPart
  3
"AcmSymBB|Product Description: AutoCAD Mechanical 2004 DX|Company: Autodesk"
 90
        0
280
     0
281
     0
  0
CLASS
  1
ACMDATAENTRY
  2
AcmDataEntry
  3
"AcmSymBB|Product Description: AutoCAD Mechanical 2004 DX|Company: Autodesk"
 90
        0
280
     0
281
     0
  0
CLASS
  1
ACMBOM
  2
AcmBom
  3
"AcmSymBB|Product Description: AutoCAD Mechanical 2004 DX|Company: Autodesk"
 90
        0
280
     0
281
     0
  0
CLASS
  1
ACMBOMROW
  2
AcmBomRow
  3
"AcmSymBB|Product Description: AutoCAD Mechanical 2004 DX|Company: Autodesk"
 90
        0
280
     0
281
     0
  0
CLASS
  1
ACMPARTLIST
  2
AcmPartList
  3
"AcmSymBB|Product Description: AutoCAD Mechanical 2004 DX|Company: Autodesk"
 90
     1023
280
     0
281
     1
  0
CLASS
  1
ACDBLINERES
  2
AcDbLineRes
  3
AcGrefServices
 90
        0
280
     0
281
     0
  0
CLASS
  1
ACRFINSADJ
  2
AcRfInsAdjuster
  3
AcMeServices
 90
        0
280
     0
281
     0
  0
CLASS
  1
ACMSTANDARDANSI
  2
AcmStandardANSI
  3
"Amdt_StdImp|Product Description: AutoCAD Mechanical 2004 DX|Company: Autodesk"
 90
        0
280
     0
281
     0
  0
CLASS
  1
ACMSURFSTANDARDANSI
  2
AcmSurfTextStdANSI
  3
"Amdt_StdImp|Product Description: AutoCAD Mechanical 2004 DX|Company: Autodesk"
 90
        0
280
     0
281
     0
  0
CLASS
  1
ACMFCFSTANDARDANSI
  2
AcmFCFStdANSI
  3
"Amdt_StdImp|Product Description: AutoCAD Mechanical 2004 DX|Company: Autodesk"
 90
        0
280
     0
281
     0
  0
CLASS
  1
ACMWELDSTANDARDANSI
  2
AcmWeldingStdANSI
  3
"Amdt_StdImp|Product Description: AutoCAD Mechanical 2004 DX|Company: Autodesk"
 90
        0
280
     0
281
     0
  0
CLASS
  1
ACMIDSTANDARDANSI
  2
AcmIdStdANSI
  3
"Amdt_StdImp|Product Description: AutoCAD Mechanical 2004 DX|Company: Autodesk"
 90
        0
280
     0
281
     0
  0
CLASS
  1
ACMDATUMSTANDARDANSI
  2
AcmDatumStdANSI
  3
"Amdt_StdImp|Product Description: AutoCAD Mechanical 2004 DX|Company: Autodesk"
 90
        0
280
     0
281
     0
  0
CLASS
  1
ACMBOMSTANDARDANSI
  2
AcmBOMStdANSI
  3
"Amdt_StdImp|Product Description: AutoCAD Mechanical 2004 DX|Company: Autodesk"
 90
        0
280
     0
281
     0
  0
CLASS
  1
ACMDETAILSTANDARDANSI
  2
AmdtDetailSymStdANSI
  3
"Amdt_StdImp|Product Description: AutoCAD Mechanical 2004 DX|Company: Autodesk"
 90
        0
280
     0
281
     0
  0
CLASS
  1
ACMSECTIONSTANDARDANSI
  2
AmdtSectionSymStdANSI
  3
"Amdt_StdImp|Product Description: AutoCAD Mechanical 2004 DX|Company: Autodesk"
 90
        0
280
     0
281
     0
  0
CLASS
  1
ACMCENTERLINESTANDARDANSI
  2
AmdtCenterLineStdANSI
  3
"Amdt_StdImp|Product Description: AutoCAD Mechanical 2004 DX|Company: Autodesk"
 90
        0
280
     0
281
     0
  0
CLASS
  1
ACMNOTESTANDARDANSI
  2
AmdtNoteStdANSI
  3
"Amdt_StdImp|Product Description: AutoCAD Mechanical 2004 DX|Company: Autodesk"
 90
        0
280
     0
281
     0
  0
CLASS
  1
ACAMGHOLECHARTSTDANSI
  2
AcAmgHoleChartStdANSI
  3
ACMSYMBB_MODULE_NAME
 90
        0
280
     0
281
     0
  0
CLASS
  1
ACMTHREADLINESTANDARDANSI
  2
AmdtThreadLineStdANSI
  3
"Amdt_StdImp|Product Description: AutoCAD Mechanical 2004 DX|Company: Autodesk"
 90
        0
280
     0
281
     0
  0
CLASS
  1
STDPART2D
  2
AmgStdPart
  3
"AmgStdPart|Product Description: AutoCAD Mechanical 2000|Company: Autodesk"
 90
    33791
280
     0
281
     1
  0
CLASS
  1
ACAMSTDPCOMPDEF
  2
AcAmStdpCompDef
  3
DesignerAssemblies
 90
    32768
280
     0
281
     0
  0
CLASS
  1
ACRFATTGENMGR
  2
AcRfAttGeneralMgr
  3
AcAttribServices
 90
    32768
280
     0
281
     0
  0
CLASS
  1
ACRFOBJATTMGR
  2
AcRfObjAttGroupMgr
  3
AcAttribServices
 90
    32768
280
     0
281
     0
  0
CLASS
  1
ACRFMCADAPIATTHOLDER
  2
AcRfMCADAPIAttHolder
  3
AcAttribServices
 90
    32768
280
     0
281
     0
  0
CLASS
  1
AMDTSYSATTR
  2
AmdtSystemAttribute
  3
AcAttribServices
 90
    32768
280
     0
281
     0
  0
CLASS
  1
ACAMCOMP
  2
AcAmComp
  3
DesignerAssemblies
 90
    32768
280
     0
281
     0
  0
CLASS
  1
AC_AM_STDP_VIEW_DEF
  2
AcAmStdpViewDef
  3
DesignerAssemblies
 90
    32768
280
     0
281
     0
  0
CLASS
  1
AC_AM_MVD_DEP_MGR
  2
AcAmMVDdepMgr
  3
DesignerAssemblies
 90
        0
280
     0
281
     0
  0
CLASS
  1
AC_AM_MASTER_VIEW_DEF
  2
AcAmMasterViewDef
  3
DesignerAssemblies
 90
        0
280
     0
281
     0
  0
CLASS
  1
AC_AM_DIRTY_NODES
  2
AcAmDirtyNodes
  3
DesignerAssemblies
 90
        0
280
     0
281
     0
  0
CLASS
  1
AC_AM_MAPPER_CACHE
  2
AcAmMapperCache
  3
DesignerAssemblies
 90
        0
280
     0
281
     0
  0
CLASS
  1
ACAMMVDBACKUPOBJECT
  2
AcAmMVDBackupObject
  3
DesignerAssemblies
 90
        0
280
     0
281
     0
  0
CLASS
  1
AC_AM_COMP_VIEW_INST
  2
AcAmCompView
  3
DesignerAssemblies
 90
    32768
280
     0
281
     0
  0
CLASS
  1
AC_AM_2D_XREF_MGR
  2
AcAmXrefMgr2d
  3
DesignerAssemblies
 90
        0
280
     0
281
     0
  0
CLASS
  1
ACMBALLOON
  2
AcmBalloon
  3
"AcmSymBB|Product Description: AutoCAD Mechanical 2004 DX|Company: Autodesk"
 90
     1023
280
     0
281
     1
  0
CLASS
  1
SORTENTSTABLE
  2
AcDbSortentsTable
  3
ObjectDBX Classes
 90
        0
280
     0
281
     0
  0
ENDSEC
  0
SECTION
  2
TABLES
  0
TABLE
  2
VPORT
  5
8
330
0
100
AcDbSymbolTable
 70
    28
  0
VPORT
  5
F9E
330
8
100
AcDbSymbolTableRecord
100
AcDbViewportTableRecord
  2
*Active
 70
     0
 10
0.0
 20
0.0
 11
1.0
 21
1.0
 12
96.50000134817185
 22
140.0000019558967
 13
0.0
 23
0.0
 14
2.5
 24
2.5
 15
10.0
 25
10.0
 16
0.0
 26
0.0
 36
1.0
 17
0.0
 27
0.0
 37
0.0
 40
282.1735573420881
 41
1.131612903225806
 42
50.0
 43
0.0
 44
0.0
 50
0.0
 51
0.0
 71
    16
 72
   100
 73
     1
 74
     3
 75
     0
 76
     0
 77
     0
 78
     0
281
     0
 65
     1
110
0.0
120
0.0
130
0.0
111
1.0
121
0.0
131
0.0
112
0.0
122
1.0
132
0.0
 79
     0
146
0.0
  0
ENDTAB
  0
TABLE
  2
LTYPE
  5
5
330
0
100
AcDbSymbolTable
 70
    25
  0
LTYPE
  5
14
330
5
100
AcDbSymbolTableRecord
100
AcDbLinetypeTableRecord
  2
ByBlock
 70
     0
  3

 72
    65
 73
     0
 40
0.0
  0
LTYPE
  5
15
330
5
100
AcDbSymbolTableRecord
100
AcDbLinetypeTableRecord
  2
ByLayer
 70
     0
  3

 72
    65
 73
     0
 40
0.0
  0
LTYPE
  5
16
330
5
100
AcDbSymbolTableRecord
100
AcDbLinetypeTableRecord
  2
Continuous
 70
     0
  3
Solid line
 72
    65
 73
     0
 40
0.0
  0
LTYPE
  5
64
330
5
100
AcDbSymbolTableRecord
100
AcDbLinetypeTableRecord
  2
AM_ISO02W050
 70
     0
  3
__ __ __ __ __ __ __ __ __ __ __ __ __ __ __
 72
    65
 73
     2
 40
7.5
 49
6.0
 74
     0
 49
-1.5
 74
     0
  0
LTYPE
  5
65
330
5
100
AcDbSymbolTableRecord
100
AcDbLinetypeTableRecord
  2
AM_ISO08W050
 70
     0
  3
____ . ____ . ____ . ____ . ____ . ____ . ____
 72
    65
 73
     4
 40
18.0
 49
12.0
 74
     0
 49
-1.5
 74
     0
 49
3.0
 74
     0
 49
-1.5
 74
     0
  0
LTYPE
  5
66
330
5
100
AcDbSymbolTableRecord
100
AcDbLinetypeTableRecord
  2
AM_ISO09W050
 70
     0
  3
_____ . . _____ . . _____ . . ____ .. ____
 72
    65
 73
     6
 40
22.5
 49
12.0
 74
     0
 49
-1.5
 74
     0
 49
3.0
 74
     0
 49
-1.5
 74
     0
 49
3.0
 74
     0
 49
-1.5
 74
     0
  0
LTYPE
  5
67
330
5
100
AcDbSymbolTableRecord
100
AcDbLinetypeTableRecord
  2
Amconstr
 70
     0
  3
_______________________
 72
    65
 73
     2
 40
9999.0
 49
9999.0
 74
     0
 49
0.0
 74
     0
  0
LTYPE
  5
68
330
5
100
AcDbSymbolTableRecord
100
AcDbLinetypeTableRecord
  2
AM_ISO08W050x2
 70
     0
  3
__ . __ . __ . __ . __ . __
 72
    65
 73
     4
 40
9.0
 49
6.0
 74
     0
 49
-0.75
 74
     0
 49
1.5
 74
     0
 49
-0.75
 74
     0
  0
LTYPE
  5
69
330
5
100
AcDbSymbolTableRecord
100
AcDbLinetypeTableRecord
  2
AM_ISO02W050x2
 70
     0
  3
 _ _ _ _ _ _ _ _ _ _ _ _
 72
    65
 73
     2
 40
3.75
 49
3.0
 74
     0
 49
-0.75
 74
     0
  0
LTYPE
  5
6C
330
5
100
AcDbSymbolTableRecord
100
AcDbLinetypeTableRecord
  2
Amzigzag
 70
     0
  3
/\/-/\/-/\/-/\/-/\/-/\/
 72
    65
 73
     2
 40
11.0001
 49
0.0001
 74
     4
 75
   135
340
6B
 46
0.04
 50
0.0
 44
0.0
 45
0.0
 49
-11.0
 74
     0
  0
LTYPE
  5
7A
330
5
100
AcDbSymbolTableRecord
100
AcDbLinetypeTableRecord
  2
ACISOWELD
 70
     0
  3
_ _ _ _ _
 72
    65
 73
     2
 40
2.0
 49
2.0
 74
     0
 49
-1.0
 74
     0
  0
LTYPE
  5
7B
330
5
100
AcDbSymbolTableRecord
100
AcDbLinetypeTableRecord
  2
ACISOTGB
 70
     0
  3
__ . . __ . .
 72
    65
 73
     6
 40
9.0
 49
4.0
 74
     0
 49
-1.0
 74
     0
 49
1.0
 74
     0
 49
-1.0
 74
     0
 49
1.0
 74
     0
 49
-1.0
 74
     0
  0
LTYPE
  5
7C
330
5
100
AcDbSymbolTableRecord
100
AcDbLinetypeTableRecord
  2
ACISOTGL
 70
     0
  3
_ _ _ _ _
 72
    65
 73
     2
 40
3.0
 49
2.0
 74
     0
 49
-1.0
 74
     0
  0
LTYPE
  5
7E
330
5
100
AcDbSymbolTableRecord
100
AcDbLinetypeTableRecord
  2
CENTER
 70
     0
  3
__ . __
 72
    65
 73
     4
 40
7.0
 49
4.0
 74
     0
 49
-1.0
 74
     0
 49
1.0
 74
     0
 49
-1.0
 74
     0
  0
LTYPE
  5
D8
330
5
100
AcDbSymbolTableRecord
100
AcDbLinetypeTableRecord
  2
HIDDEN
 70
     0
  3
Hidden __ __ __ __ __ __ __ __ __ __ __ __ __ _
 72
    65
 73
     2
 40
9.524999999999998
 49
6.349999999999999
 74
     0
 49
-3.174999999999999
 74
     0
  0
LTYPE
  5
D9
330
5
100
AcDbSymbolTableRecord
100
AcDbLinetypeTableRecord
  2
PHANTOM2
 70
     0
  3
Phantom (.5x) ___ _ _ ___ _ _ ___ _ _ ___ _ _
 72
    65
 73
     6
 40
31.75
 49
15.875
 74
     0
 49
-3.174999999999999
 74
     0
 49
3.174999999999999
 74
     0
 49
-3.174999999999999
 74
     0
 49
3.174999999999999
 74
     0
 49
-3.174999999999999
 74
     0
  0
LTYPE
  5
5BD
330
5
100
AcDbSymbolTableRecord
100
AcDbLinetypeTableRecord
  2
gen3
 70
     0
  3
-- -- -- -- -- -- -- -- -- -- -- -- -- -- --
 72
    65
 73
     2
 40
6.25
 49
4.75
 74
     0
 49
-1.5
 74
     0
  0
LTYPE
  5
5BE
330
5
100
AcDbSymbolTableRecord
100
AcDbLinetypeTableRecord
  2
gen7
 70
     0
  3
____ . ____ . ____ . ____ . ____ . ____ . ____
 72
    65
 73
     4
 40
13.75
 49
9.75
 74
     0
 49
-1.5
 74
     0
 49
1.0
 74
     0
 49
-1.5
 74
     0
  0
LTYPE
  5
5BF
330
5
100
AcDbSymbolTableRecord
100
AcDbLinetypeTableRecord
  2
gen3a
 70
     0
  3
 - - - - -
 72
    65
 73
     2
 40
3.125
 49
2.25
 74
     0
 49
-0.875
 74
     0
  0
LTYPE
  5
5C0
330
5
100
AcDbSymbolTableRecord
100
AcDbLinetypeTableRecord
  2
gen7a
 70
     0
  3
__ . __ . __
 72
    65
 73
     4
 40
6.875
 49
4.75
 74
     0
 49
-0.875
 74
     0
 49
0.375
 74
     0
 49
-0.875
 74
     0
  0
LTYPE
  5
5C1
330
5
100
AcDbSymbolTableRecord
100
AcDbLinetypeTableRecord
  2
gen4a
 70
     0
  3
_____ . . _____ . . _____ . . ____ .. ____
 72
    65
 73
     6
 40
16.25
 49
9.75
 74
     0
 49
-1.5
 74
     0
 49
1.0
 74
     0
 49
-1.5
 74
     0
 49
1.0
 74
     0
 49
-1.5
 74
     0
  0
LTYPE
  5
5C2
330
5
100
AcDbSymbolTableRecord
100
AcDbLinetypeTableRecord
  2
genzigzag
 70
     0
  3
/\/-/\/-/\/-/\/-/\/-/\/
 72
    65
 73
     2
 40
12.0001
 49
0.0001
 74
     4
 75
   135
340
6B
 46
2.0
 50
0.0
 44
0.0
 45
0.0
 49
-12.0
 74
     0
  0
LTYPE
  5
9C6
330
5
100
AcDbSymbolTableRecord
100
AcDbLinetypeTableRecord
  2
HIDDEN2
 70
     0
  3
Hidden (.5x) _ _ _ _ _ _ _ _ _ _ _ _ _ _ _ _ _
 72
    65
 73
     2
 40
0.1875
 49
0.125
 74
     0
 49
-0.0625
 74
     0
  0
LTYPE
  5
9C7
330
5
100
AcDbSymbolTableRecord
100
AcDbLinetypeTableRecord
  2
CENTER2
 70
     0
  3
Center (.5x) ___ _ ___ _ ___ _ ___ _ ___ _ ___
 72
    65
 73
     4
 40
1.125
 49
0.75
 74
     0
 49
-0.125
 74
     0
 49
0.125
 74
     0
 49
-0.125
 74
     0
  0
LTYPE
  5
9C8
330
5
100
AcDbSymbolTableRecord
100
AcDbLinetypeTableRecord
  2
Amzigzag2
 70
     0
  3
/\/-/\/-/\/-/\/-/\/-/\/
 72
    65
 73
     2
 40
0.4401
 49
0.0001
 74
     4
 75
   135
340
6B
 46
0.0016
 50
0.0
 44
0.0
 45
0.0
 49
-0.4400000000000001
 74
     0
  0
LTYPE
  5
9C9
330
5
100
AcDbSymbolTableRecord
100
AcDbLinetypeTableRecord
  2
ACANSTGB
 70
     0
  3
__ . . __ . .
 72
    65
 73
     6
 40
0.35433070866
 49
0.15748031496
 74
     0
 49
-0.03937007874
 74
     0
 49
0.03937007874
 74
     0
 49
-0.03937007874
 74
     0
 49
0.03937007874
 74
     0
 49
-0.03937007874
 74
     0
  0
LTYPE
  5
9CA
330
5
100
AcDbSymbolTableRecord
100
AcDbLinetypeTableRecord
  2
ACANSTGL
 70
     0
  3
_ _ _ _ _
 72
    65
 73
     2
 40
0.11811023622
 49
0.07874015748
 74
     0
 49
-0.03937007874
 74
     0
  0
ENDTAB
  0
TABLE
  2
LAYER
  5
2
102
{ACAD_XDICTIONARY
360
35D
102
}
330
0
100
AcDbSymbolTable
 70
    20
  0
LAYER
  5
10
330
2
100
AcDbSymbolTableRecord
100
AcDbLayerTableRecord
  2
0
 70
     0
 62
     7
  6
Continuous
370
    -3
390
F
  0
LAYER
  5
1E1
330
2
100
AcDbSymbolTableRecord
100
AcDbLayerTableRecord
  2
Defpoints
 70
     0
 62
     7
  6
Continuous
290
     0
370
    -3
390
F
  0
LAYER
  5
518
330
2
100
AcDbSymbolTableRecord
100
AcDbLayerTableRecord
  2
ハンドル
 70
     0
 62
     7
  6
Continuous
370
    25
390
F
  0
LAYER
  5
519
330
2
100
AcDbSymbolTableRecord
100
AcDbLayerTableRecord
  2
ハンドル0
 70
     0
 62
     7
  6
AM_ISO02W050x2
370
    13
390
F
  0
LAYER
  5
51A
330
2
100
AcDbSymbolTableRecord
100
AcDbLayerTableRecord
  2
プレート
 70
     0
 62
     2
  6
Continuous
370
    25
390
F
  0
LAYER
  5
51C
330
2
100
AcDbSymbolTableRecord
100
AcDbLayerTableRecord
  2
プレート0
 70
     0
 62
     2
  6
AM_ISO02W050x2
370
    13
390
F
  0
LAYER
  5
5E5
330
2
100
AcDbSymbolTableRecord
100
AcDbLayerTableRecord
  2
7A
 70
     0
 62
     4
  6
gen7a
370
    -3
390
F
  0
LAYER
  5
5E6
330
2
100
AcDbSymbolTableRecord
100
AcDbLayerTableRecord
  2
RAHM2
 70
     0
 62
     1
  6
Continuous
370
    -3
390
F
  0
LAYER
  5
5E7
330
2
100
AcDbSymbolTableRecord
100
AcDbLayerTableRecord
  2
KLIN
 70
     0
 62
     1
  6
Continuous
370
    -3
390
F
  0
LAYER
  5
6F9
330
2
100
AcDbSymbolTableRecord
100
AcDbLayerTableRecord
  2
AM_5
 70
     0
 62
     3
  6
Continuous
370
    25
390
F
  0
LAYER
  5
6FA
330
2
100
AcDbSymbolTableRecord
100
AcDbLayerTableRecord
  2
AM_12
 70
     0
 62
     7
  6
Continuous
290
     0
370
    50
390
F
  0
LAYER
  5
6FB
330
2
100
AcDbSymbolTableRecord
100
AcDbLayerTableRecord
  2
AM_PAREF
 70
     0
 62
     4
  6
Continuous
290
     0
370
    25
390
F
  0
LAYER
  5
9CC
330
2
100
AcDbSymbolTableRecord
100
AcDbLayerTableRecord
  2
AM_7
 70
     0
 62
     4
  6
AM_ISO08W050
370
    25
390
F
  0
LAYER
  5
A89
330
2
100
AcDbSymbolTableRecord
100
AcDbLayerTableRecord
  2
AM_0N
 70
     0
 62
     7
  6
Continuous
370
    50
390
F
  0
LAYER
  5
A91
330
2
100
AcDbSymbolTableRecord
100
AcDbLayerTableRecord
  2
AM_4N
 70
     0
 62
     3
  6
Continuous
370
    25
390
F
  0
LAYER
  5
A92
330
2
100
AcDbSymbolTableRecord
100
AcDbLayerTableRecord
  2
AM_7N
 70
     0
 62
     4
  6
AM_ISO08W050
370
    25
390
F
  0
LAYER
  5
A93
330
2
100
AcDbSymbolTableRecord
100
AcDbLayerTableRecord
  2
AM_9
 70
     0
 62
   253
  6
Continuous
370
     0
390
F
  0
LAYER
  5
AFE
330
2
100
AcDbSymbolTableRecord
100
AcDbLayerTableRecord
  2
AM_CL
 70
     0
 62
     1
  6
Amconstr
370
    25
390
F
  0
LAYER
  5
D35
330
2
100
AcDbSymbolTableRecord
100
AcDbLayerTableRecord
  2
ﾋﾞｽ
 70
     0
 62
     8
  6
Continuous
370
    25
390
F
  0
LAYER
  5
D36
330
2
100
AcDbSymbolTableRecord
100
AcDbLayerTableRecord
  2
ﾋﾞｽ0
 70
     0
 62
     8
  6
AM_ISO02W050x2
370
    13
390
F
  0
ENDTAB
  0
TABLE
  2
STYLE
  5
3
330
0
100
AcDbSymbolTable
 70
     8
  0
STYLE
  5
11
330
3
100
AcDbSymbolTableRecord
100
AcDbTextStyleTableRecord
  2
STANDARD
 70
     0
 40
0.0
 41
1.0
 50
0.0
 71
     0
 42
73.98571745357912
  3
ISOCP.SHX
  4
bigfont.shx
  0
STYLE
  5
6B
330
3
100
AcDbSymbolTableRecord
100
AcDbTextStyleTableRecord
  2

 70
     1
 40
0.0
 41
1.0
 50
0.0
 71
     0
 42
2.5
  3
ltypeshp.shx
  4

  0
STYLE
  5
6D
330
3
100
AcDbSymbolTableRecord
100
AcDbTextStyleTableRecord
  2
ACISOTS
 70
     0
 40
1.0
 41
1.0
 50
0.0
 71
     0
 42
2.5
  3
isocp.shx
  4
extfont.shx
  0
STYLE
  5
79
330
3
100
AcDbSymbolTableRecord
100
AcDbTextStyleTableRecord
  2
ACISOGDT
 70
     0
 40
0.0
 41
1.0
 50
0.0
 71
     0
 42
2.5
  3
amgdt.shx
  4

  0
STYLE
  5
5E8
330
3
100
AcDbSymbolTableRecord
100
AcDbTextStyleTableRecord
  2

 70
     1
 40
0.0
 41
1.0
 50
0.0
 71
     0
 42
3.0
  3
genltshp.shx
  4

  0
STYLE
  5
9CD
330
3
100
AcDbSymbolTableRecord
100
AcDbTextStyleTableRecord
  2
STD
 70
     0
 40
0.0
 41
1.0
 50
0.0
 71
     0
 42
3.2
  3
TXT
  4
BIGFONT
  0
STYLE
  5
9CE
330
3
100
AcDbSymbolTableRecord
100
AcDbTextStyleTableRecord
  2
ACANSTS
 70
     0
 40
1.0
 41
1.0
 50
0.0
 71
     0
 42
3.2
  3
romans.shx
  4
extfont.shx
  0
STYLE
  5
9CF
330
3
100
AcDbSymbolTableRecord
100
AcDbTextStyleTableRecord
  2
ACANSGDT
 70
     0
 40
0.0
 41
1.0
 50
0.0
 71
     0
 42
3.2
  3
amgdtans.shx
  4

  0
ENDTAB
  0
TABLE
  2
VIEW
  5
6
330
0
100
AcDbSymbolTable
 70
     6
  0
VIEW
  5
291
330
6
100
AcDbSymbolTableRecord
100
AcDbViewTableRecord
  2
AM_VIEW1
 70
     0
 40
140.0
 10
87.13541666666669
 20
210.0
 41
174.2708333333333
 11
0.0
 21
0.0
 31
1.0
 12
0.0
 22
0.0
 32
0.0
 42
50.0
 43
0.0
 44
0.0
 50
0.0
 71
    16
281
     0
 72
     0
  0
VIEW
  5
292
330
6
100
AcDbSymbolTableRecord
100
AcDbViewTableRecord
  2
AM_VIEW2
 70
     0
 40
140.0
 10
105.8645833333333
 20
210.0
 41
174.2708333333333
 11
0.0
 21
0.0
 31
1.0
 12
0.0
 22
0.0
 32
0.0
 42
50.0
 43
0.0
 44
0.0
 50
0.0
 71
    16
281
     0
 72
     0
  0
VIEW
  5
293
330
6
100
AcDbSymbolTableRecord
100
AcDbViewTableRecord
  2
AM_VIEW3
 70
     0
 40
140.0
 10
87.13541666666669
 20
70.00000000000001
 41
174.2708333333333
 11
0.0
 21
0.0
 31
1.0
 12
0.0
 22
0.0
 32
0.0
 42
50.0
 43
0.0
 44
0.0
 50
0.0
 71
    16
281
     0
 72
     0
  0
VIEW
  5
294
330
6
100
AcDbSymbolTableRecord
100
AcDbViewTableRecord
  2
AM_VIEW4
 70
     0
 40
140.0
 10
105.8645833333333
 20
70.00000000000001
 41
174.2708333333333
 11
0.0
 21
0.0
 31
1.0
 12
0.0
 22
0.0
 32
0.0
 42
50.0
 43
0.0
 44
0.0
 50
0.0
 71
    16
281
     0
 72
     0
  0
VIEW
  5
295
330
6
100
AcDbSymbolTableRecord
100
AcDbViewTableRecord
  2
AM_VIEW5
 70
     0
 40
140.0
 10
96.5
 20
140.0
 41
174.2708333333333
 11
0.0
 21
0.0
 31
1.0
 12
0.0
 22
0.0
 32
0.0
 42
50.0
 43
0.0
 44
0.0
 50
0.0
 71
    16
281
     0
 72
     0
  0
VIEW
  5
296
330
6
100
AcDbSymbolTableRecord
100
AcDbViewTableRecord
  2
AM_VIEW6
 70
     0
 40
279.9972000000001
 10
96.5
 20
140.0
 41
348.5381812500001
 11
0.0
 21
0.0
 31
1.0
 12
0.0
 22
0.0
 32
0.0
 42
50.0
 43
0.0
 44
0.0
 50
0.0
 71
    16
281
     0
 72
     0
  0
ENDTAB
  0
TABLE
  2
UCS
  5
7
330
0
100
AcDbSymbolTable
 70
     0
  0
ENDTAB
  0
TABLE
  2
APPID
  5
9
330
0
100
AcDbSymbolTable
 70
    44
  0
APPID
  5
12
330
9
100
AcDbSymbolTableRecord
100
AcDbRegAppTableRecord
  2
ACAD
 70
     0
  0
APPID
  5
46
330
9
100
AcDbSymbolTableRecord
100
AcDbRegAppTableRecord
  2
MCAD_NO_VIS
 70
     0
  0
APPID
  5
47
330
9
100
AcDbSymbolTableRecord
100
AcDbRegAppTableRecord
  2
ACAD_TEMP_GRAPHIC
 70
     0
  0
APPID
  5
58
330
9
100
AcDbSymbolTableRecord
100
AcDbRegAppTableRecord
  2
ACATTRIBSERVICES
 70
     0
  0
APPID
  5
EE
330
9
100
AcDbSymbolTableRecord
100
AcDbRegAppTableRecord
  2
AD_DRAW
 70
     0
  0
APPID
  5
10C
330
9
100
AcDbSymbolTableRecord
100
AcDbRegAppTableRecord
  2
DESIGNERASSEMBLIES
 70
     0
  0
APPID
  5
111
330
9
100
AcDbSymbolTableRecord
100
AcDbRegAppTableRecord
  2
ACADM_DIM_EDIT
 70
     0
  0
APPID
  5
112
330
9
100
AcDbSymbolTableRecord
100
AcDbRegAppTableRecord
  2
AMDT_DM_ADJ
 70
     0
  0
APPID
  5
1E2
330
9
100
AcDbSymbolTableRecord
100
AcDbRegAppTableRecord
  2
GENIUS_GENREC_14
 70
     0
  0
APPID
  5
1E3
330
9
100
AcDbSymbolTableRecord
100
AcDbRegAppTableRecord
  2
GENIUS_GENODEF_13
 70
     0
  0
APPID
  5
1E4
330
9
100
AcDbSymbolTableRecord
100
AcDbRegAppTableRecord
  2
GENIUS_GENOBJ-N-REC_13
 70
     0
  0
APPID
  5
1E5
330
9
100
AcDbSymbolTableRecord
100
AcDbRegAppTableRecord
  2
GENIUS_GENDIMSH_14
 70
     0
  0
APPID
  5
1E6
330
9
100
AcDbSymbolTableRecord
100
AcDbRegAppTableRecord
  2
GENIUS_GENCFG_13
 70
     0
  0
APPID
  5
1E7
330
9
100
AcDbSymbolTableRecord
100
AcDbRegAppTableRecord
  2
GENIUS_GENCFG0_13
 70
     0
  0
APPID
  5
1E8
330
9
100
AcDbSymbolTableRecord
100
AcDbRegAppTableRecord
  2
GENIUS_GENCFG1_13
 70
     0
  0
APPID
  5
1E9
330
9
100
AcDbSymbolTableRecord
100
AcDbRegAppTableRecord
  2
GENIUS_GENCFG2_13
 70
     0
  0
APPID
  5
1EA
330
9
100
AcDbSymbolTableRecord
100
AcDbRegAppTableRecord
  2
GENIUS_GENCFG3_13
 70
     0
  0
APPID
  5
1EB
330
9
100
AcDbSymbolTableRecord
100
AcDbRegAppTableRecord
  2
GENIUS_GENCFG4_13
 70
     0
  0
APPID
  5
1EC
330
9
100
AcDbSymbolTableRecord
100
AcDbRegAppTableRecord
  2
GENIUS_GEVCFG0_13
 70
     0
  0
APPID
  5
1ED
330
9
100
AcDbSymbolTableRecord
100
AcDbRegAppTableRecord
  2
GENIUS_GENOENT_13
 70
     0
  0
APPID
  5
1EE
330
9
100
AcDbSymbolTableRecord
100
AcDbRegAppTableRecord
  2
GENIUS_GENOBJ-N-CRS_13
 70
     0
  0
APPID
  5
1EF
330
9
100
AcDbSymbolTableRecord
100
AcDbRegAppTableRecord
  2
GENIUS_GENOREF_13
 70
     0
  0
APPID
  5
1F0
330
9
100
AcDbSymbolTableRecord
100
AcDbRegAppTableRecord
  2
GENIUS_GENOLIS_13
 70
     0
  0
APPID
  5
1F1
330
9
100
AcDbSymbolTableRecord
100
AcDbRegAppTableRecord
  2
GENIUS_GENOBJ-N-TIT_13
 70
     0
  0
APPID
  5
1F2
330
9
100
AcDbSymbolTableRecord
100
AcDbRegAppTableRecord
  2
GENIUS_GENTITLE_13
 70
     0
  0
APPID
  5
1F3
330
9
100
AcDbSymbolTableRecord
100
AcDbRegAppTableRecord
  2
GENIUS_GENSCREG_15
 70
     0
  0
APPID
  5
1F4
330
9
100
AcDbSymbolTableRecord
100
AcDbRegAppTableRecord
  2
GENIUS_GENOBJ-N-SDF_13
 70
     0
  0
APPID
  5
1F5
330
9
100
AcDbSymbolTableRecord
100
AcDbRegAppTableRecord
  2
GENIUS_GENOBJ-N-CEN_13
 70
     0
  0
APPID
  5
1F6
330
9
100
AcDbSymbolTableRecord
100
AcDbRegAppTableRecord
  2
GENIUS_GENOBJ-N-HTC_13
 70
     0
  0
APPID
  5
1F7
330
9
100
AcDbSymbolTableRecord
100
AcDbRegAppTableRecord
  2
GENIUS_GENHATCH_13
 70
     0
  0
APPID
  5
484
330
9
100
AcDbSymbolTableRecord
100
AcDbRegAppTableRecord
  2
GENIUS_GENOBJ-N-ZOO_13
 70
     0
  0
APPID
  5
485
330
9
100
AcDbSymbolTableRecord
100
AcDbRegAppTableRecord
  2
GENIUS_GENZOO_17
 70
     0
  0
APPID
  5
5CB
330
9
100
AcDbSymbolTableRecord
100
AcDbRegAppTableRecord
  2
GEV_VCCNULL_SWITCH_OFF
 70
     0
  0
APPID
  5
5CC
330
9
100
AcDbSymbolTableRecord
100
AcDbRegAppTableRecord
  2
GENIUS_GENDTOL_13
 70
     0
  0
APPID
  5
A85
330
9
100
AcDbSymbolTableRecord
100
AcDbRegAppTableRecord
  2
GEVID1153463435
 70
     0
  0
APPID
  5
A86
330
9
100
AcDbSymbolTableRecord
100
AcDbRegAppTableRecord
  2
GEVMK
 70
     0
  0
APPID
  5
A87
330
9
100
AcDbSymbolTableRecord
100
AcDbRegAppTableRecord
  2
GEVDC
 70
     0
  0
APPID
  5
AA1
330
9
100
AcDbSymbolTableRecord
100
AcDbRegAppTableRecord
  2
AMG_2DHIDE
 70
     0
  0
APPID
  5
AA2
330
9
100
AcDbSymbolTableRecord
100
AcDbRegAppTableRecord
  2
AMG_2DSTRUCT_BTR
 70
     0
  0
APPID
  5
AB3
330
9
100
AcDbSymbolTableRecord
100
AcDbRegAppTableRecord
  2
ACADM_2DVIEW_IGN_NOTIFY
 70
     0
  0
APPID
  5
AE4
330
9
100
AcDbSymbolTableRecord
100
AcDbRegAppTableRecord
  2
GEVID1153463437
 70
     0
  0
APPID
  5
BA3
330
9
100
AcDbSymbolTableRecord
100
AcDbRegAppTableRecord
  2
ACAD_DSTYLE_DIMTEXT_FILL
 70
     0
  0
APPID
  5
D3E
330
9
100
AcDbSymbolTableRecord
100
AcDbRegAppTableRecord
  2
GENIUS_GENOBJ-N-FIL_13
 70
     0
  0
APPID
  5
EF5
330
9
100
AcDbSymbolTableRecord
100
AcDbRegAppTableRecord
  2
DCO15
 70
     0
  0
ENDTAB
  0
TABLE
  2
DIMSTYLE
  5
A
330
0
100
AcDbSymbolTable
 70
    30
100
AcDbDimStyleTable
 71
     1
340
81
  0
DIMSTYLE
105
81
330
A
100
AcDbSymbolTableRecord
100
AcDbDimStyleTableRecord
  2
AM_ISO
 70
     0
  4
"
 41
2.5
 42
1.0
 43
10.0
 44
1.0
 47
0.1
 48
0.1
 73
     0
 74
     0
 77
     1
 78
     8
 79
     2
140
3.5
141
0.0
143
0.0393701
146
0.71
147
1.5
172
     1
176
   256
177
   256
178
     2
271
     2
272
     2
283
     0
284
     8
340
11
341
407
342
407
371
    -1
372
    -1
  0
DIMSTYLE
105
82
102
{ACAD_REACTORS
330
96F
102
}
330
A
100
AcDbSymbolTableRecord
100
AcDbDimStyleTableRecord
  2
AM_ISO$3
 70
     0
  4
"
 41
2.5
 42
1.0
 43
10.0
 44
1.0
 47
0.1
 48
0.1
 73
     0
 77
     1
 78
     8
 79
     2
140
3.5
141
0.0
143
0.0393701
146
0.71
147
1.5
176
   256
177
   256
178
     2
271
     2
272
     2
283
     0
284
     8
288
     1
289
     0
340
11
341
407
342
407
371
    -1
372
    -1
  0
DIMSTYLE
105
83
330
A
100
AcDbSymbolTableRecord
100
AcDbDimStyleTableRecord
  2
AM_ISO$4
 70
     0
  4
"
 41
2.5
 42
1.0
 43
10.0
 44
1.0
 47
0.1
 48
0.1
 73
     0
 77
     1
 78
     8
 79
     2
140
3.5
141
0.0
143
0.0393701
146
0.71
147
1.5
176
   256
177
   256
178
     2
271
     2
272
     2
283
     0
284
     8
288
     1
289
     0
340
11
341
407
342
407
371
    -1
372
    -1
  0
DIMSTYLE
105
84
330
A
100
AcDbSymbolTableRecord
100
AcDbDimStyleTableRecord
  2
AM_ISO$6
 70
     0
  4
"
 41
2.5
 42
1.0
 43
10.0
 44
1.0
 47
0.1
 48
0.1
 73
     0
 74
     0
 78
     8
 79
     2
140
3.5
141
0.0
143
0.0393701
146
0.71
147
1.5
172
     1
176
   256
177
   256
178
     2
271
     2
272
     2
283
     0
284
     8
340
11
341
407
342
407
371
    -1
372
    -1
  0
DIMSTYLE
105
85
330
A
100
AcDbSymbolTableRecord
100
AcDbDimStyleTableRecord
  2
AM_ISO$7
 70
     0
  4
"
 41
2.5
 42
1.0
 43
10.0
 44
1.0
 47
0.1
 48
0.1
 73
     0
 74
     0
 77
     1
 78
     8
 79
     2
140
5.0
141
0.0
143
0.0393701
146
0.71
147
1.5
172
     1
176
   256
177
   256
178
     2
271
     2
272
     2
283
     0
284
     8
340
11
341
407
342
407
371
    -1
372
    -1
  0
DIMSTYLE
105
86
330
A
100
AcDbSymbolTableRecord
100
AcDbDimStyleTableRecord
  2
AM_ISO$SF
 70
     0
  4
"
 41
2.5
 42
1.0
 43
10.0
 44
1.0
 47
0.1
 48
0.1
 73
     0
 74
     0
 75
     1
 76
     1
 77
     1
 78
     8
 79
     2
140
3.5
141
0.0
143
0.0393701
146
0.71
147
1.5
172
     1
176
   256
177
   256
178
     2
271
     2
272
     2
283
     0
284
     8
340
11
341
407
342
407
371
    -1
372
    -1
  0
DIMSTYLE
105
8B
330
A
100
AcDbSymbolTableRecord
100
AcDbDimStyleTableRecord
  2
AM_ISO$SH
 70
     0
  4
"
 41
2.5
 42
1.0
 43
10.0
 44
1.0
 47
0.1
 48
0.1
 73
     0
 74
     0
 75
     1
 76
     1
 77
     1
 78
     8
 79
     2
140
3.5
141
0.0
143
0.0393701
144
2.0
146
0.71
147
1.5
172
     1
173
     1
176
   256
177
   256
178
     2
271
     2
272
     2
283
     0
284
     8
340
11
341
407
343
87
344
407
371
    -1
372
    -1
  0
DIMSTYLE
105
5C3
330
A
100
AcDbSymbolTableRecord
100
AcDbDimStyleTableRecord
  2
GEN-ISO
 70
     0
  4
"
 41
2.5
 42
1.0
 43
10.0
 44
1.0
 47
0.1
 48
0.1
 73
     0
 74
     0
 77
     1
 78
     8
140
3.5
141
0.0
143
0.0393701
146
0.71
147
1.5
172
     1
176
   256
177
   256
178
     2
271
     2
272
     3
274
     4
283
     0
340
11
  0
DIMSTYLE
105
5C4
330
A
100
AcDbSymbolTableRecord
100
AcDbDimStyleTableRecord
  2
GEN-ISO$4
 70
     0
  4
"
 41
2.5
 42
1.0
 43
10.0
 44
1.0
 47
0.1
 48
0.1
 73
     0
 77
     1
 78
     8
140
3.5
141
0.0
143
0.0393701
146
0.71
147
1.5
176
   256
177
   256
178
     2
271
     2
272
     3
274
     4
283
     0
288
     1
289
     0
340
11
  0
DIMSTYLE
105
5C5
330
A
100
AcDbSymbolTableRecord
100
AcDbDimStyleTableRecord
  2
GEN-ISO$3
 70
     0
  4
"
 41
2.5
 42
1.0
 43
10.0
 44
1.0
 47
0.1
 48
0.1
 73
     0
 77
     1
 78
     8
140
3.5
141
0.0
143
0.0393701
146
0.71
147
1.5
176
   256
177
   256
178
     2
271
     2
272
     3
274
     4
283
     0
288
     1
289
     0
340
11
  0
DIMSTYLE
105
5C6
330
A
100
AcDbSymbolTableRecord
100
AcDbDimStyleTableRecord
  2
ISO-25
 70
     0
 41
2.5
 42
0.625
 43
3.75
 44
1.25
 74
     0
 77
     1
 78
     8
140
2.5
141
2.5
143
0.0394
145
1.0
147
0.625
172
     1
340
11
  0
DIMSTYLE
105
5C7
330
A
100
AcDbSymbolTableRecord
100
AcDbDimStyleTableRecord
  2
GEN-ISO$6
 70
     0
  4
"
 41
2.5
 42
1.0
 43
10.0
 44
1.0
 47
0.1
 48
0.1
 73
     0
 74
     0
 78
     8
140
3.5
141
0.0
143
0.0393701
146
0.71
147
1.5
176
   256
177
   256
178
     2
271
     2
272
     3
274
     4
283
     0
340
11
  0
DIMSTYLE
105
5C8
330
A
100
AcDbSymbolTableRecord
100
AcDbDimStyleTableRecord
  2
GEN-ISO-POS
 70
     0
  4
"
 41
2.5
 42
1.0
 43
10.0
 44
1.0
 47
0.1
 48
0.1
 73
     0
 74
     0
 78
     8
140
5.0
141
0.0
143
0.0393701
146
0.71
147
1.5
176
   256
177
   256
178
     2
271
     2
272
     3
274
     4
283
     0
340
11
  0
DIMSTYLE
105
5C9
330
A
100
AcDbSymbolTableRecord
100
AcDbDimStyleTableRecord
  2
GEN-ISO-AXE-F
 70
     0
  4
"
 41
2.5
 42
1.0
 43
10.0
 44
1.0
 47
0.1
 48
0.1
 73
     0
 74
     0
 75
     1
 76
     1
 77
     1
 78
     8
140
3.5
141
0.0
143
0.0393701
146
0.71
147
1.5
172
     1
176
   256
177
   256
178
     2
271
     2
272
     3
274
     4
283
     0
340
11
  0
DIMSTYLE
105
5CA
330
A
100
AcDbSymbolTableRecord
100
AcDbDimStyleTableRecord
  2
GEN-ISO-AXE-H
 70
     0
  4
"
 41
2.5
 42
1.0
 43
10.0
 44
1.0
 47
0.1
 48
0.1
 73
     0
 74
     0
 75
     1
 76
     1
 77
     1
 78
     8
140
3.5
141
0.0
143
0.0393701
144
2.0
146
0.71
147
1.5
172
     1
173
     1
176
   256
177
   256
178
     2
271
     2
272
     3
274
     4
283
     0
340
11
  0
DIMSTYLE
105
6FC
102
{ACAD_REACTORS
330
7AB
330
7AE
330
7B1
330
7BA
330
7BD
330
7C0
330
7C1
330
7C4
330
7CA
330
8C8
330
8EC
330
914
330
99B
330
F07
102
}
330
A
100
AcDbSymbolTableRecord
100
AcDbDimStyleTableRecord
  2
AM_ISO$0
 70
     0
  4
"
 41
2.5
 42
1.0
 43
10.0
 44
1.0
 47
0.1
 48
0.1
 73
     0
 74
     0
 77
     1
 78
     8
 79
     2
140
3.5
141
0.0
143
0.0393701
146
0.71
147
1.5
172
     1
176
   256
177
   256
178
     2
271
     2
272
     2
283
     0
284
     8
340
11
341
407
342
407
371
    -1
372
    -1
  0
DIMSTYLE
105
9D0
330
A
100
AcDbSymbolTableRecord
100
AcDbDimStyleTableRecord
  2
Standard
 70
     0
340
11
  0
DIMSTYLE
105
9D1
330
A
100
AcDbSymbolTableRecord
100
AcDbDimStyleTableRecord
  2
AM_ANSI
 70
     0
  4
mm
 41
0.1
 42
0.05
 43
0.5
 44
0.1
 47
0.1
 48
0.1
 78
     7
 79
     2
140
0.12
141
0.0
146
0.71
147
0.06
176
   256
177
   256
178
     2
274
     4
284
     7
340
11
371
    -1
372
    -1
  0
DIMSTYLE
105
9D2
330
A
100
AcDbSymbolTableRecord
100
AcDbDimStyleTableRecord
  2
AM_ANSI$3
 70
     0
  4
mm
 41
0.1
 42
0.05
 43
0.5
 44
0.1
 47
0.1
 48
0.1
 78
     7
 79
     2
140
0.12
141
0.0
146
0.71
147
0.06
176
   256
177
   256
178
     2
274
     4
284
     7
288
     1
289
     0
340
11
371
    -1
372
    -1
  0
DIMSTYLE
105
9D3
330
A
100
AcDbSymbolTableRecord
100
AcDbDimStyleTableRecord
  2
AM_ANSI$4
 70
     0
  4
mm
 41
0.1
 42
0.05
 43
0.5
 44
0.1
 47
0.1
 48
0.1
 78
     7
 79
     2
140
0.12
141
0.0
146
0.71
147
0.06
176
   256
177
   256
178
     2
274
     4
284
     7
288
     1
289
     0
340
11
371
    -1
372
    -1
  0
DIMSTYLE
105
9D4
330
A
100
AcDbSymbolTableRecord
100
AcDbDimStyleTableRecord
  2
AM_ANSI$7
 70
     0
  4
mm
 41
0.1
 42
0.05
 43
0.5
 44
0.1
 47
0.1
 48
0.1
 78
     7
 79
     2
140
0.24
141
0.0
146
0.71
147
0.06
176
   256
177
   256
178
     2
274
     4
284
     7
340
11
371
    -1
372
    -1
  0
DIMSTYLE
105
9D5
330
A
100
AcDbSymbolTableRecord
100
AcDbDimStyleTableRecord
  2
AM_ANSI$SF
 70
     0
  4
mm
 41
0.1
 42
0.05
 43
0.5
 44
0.1
 47
0.1
 48
0.1
 75
     1
 76
     1
 78
     7
 79
     2
140
0.12
141
0.0
146
0.71
147
0.06
176
   256
177
   256
178
     2
274
     4
284
     7
340
11
371
    -1
372
    -1
  0
DIMSTYLE
105
9D6
330
A
100
AcDbSymbolTableRecord
100
AcDbDimStyleTableRecord
  2
AM_ANSI$SH
 70
     0
  4
mm
 41
0.1
 42
0.05
 43
0.5
 44
0.1
 47
0.1
 48
0.1
 75
     1
 76
     1
 78
     7
 79
     2
140
0.12
141
0.0
146
0.71
147
0.06
173
     1
176
   256
177
   256
178
     2
274
     4
284
     7
340
11
343
87
371
    -1
372
    -1
  0
DIMSTYLE
105
D37
330
A
100
AcDbSymbolTableRecord
100
AcDbDimStyleTableRecord
  2
AM_JIS
 70
     0
  4
"
 41
2.5
 42
1.0
 43
10.0
 44
1.0
 47
0.1
 48
0.1
 73
     0
 74
     0
 77
     3
 78
     8
 79
     2
140
3.5
141
0.0
143
0.0393701
146
0.71
147
1.5
172
     1
176
   256
177
   256
178
     2
271
     2
272
     3
274
     4
283
     0
340
11
341
407
342
407
343
407
344
407
371
    -1
372
    -1
  0
DIMSTYLE
105
D38
330
A
100
AcDbSymbolTableRecord
100
AcDbDimStyleTableRecord
  2
AM_JIS$3
 70
     0
  4
"
 41
2.5
 42
1.0
 43
10.0
 44
1.0
 47
0.1
 48
0.1
 73
     0
 77
     3
 78
     8
 79
     2
140
3.5
141
0.0
143
0.0393701
146
0.71
147
1.5
176
   256
177
   256
178
     2
271
     2
272
     3
274
     4
283
     0
288
     1
289
     0
340
11
341
407
342
407
343
407
344
407
371
    -1
372
    -1
  0
DIMSTYLE
105
D39
330
A
100
AcDbSymbolTableRecord
100
AcDbDimStyleTableRecord
  2
AM_JIS$4
 70
     0
  4
"
 41
2.5
 42
1.0
 43
10.0
 44
1.0
 47
0.1
 48
0.1
 73
     0
 77
     3
 78
     8
 79
     2
140
3.5
141
0.0
143
0.0393701
146
0.71
147
1.5
176
   256
177
   256
178
     2
271
     2
272
     3
274
     4
283
     0
288
     1
289
     0
340
11
341
407
342
407
343
407
344
407
371
    -1
372
    -1
  0
DIMSTYLE
105
D3A
330
A
100
AcDbSymbolTableRecord
100
AcDbDimStyleTableRecord
  2
AM_JIS$6
 70
     0
  4
"
 41
2.5
 42
1.0
 43
10.0
 44
1.0
 47
0.1
 48
0.1
 73
     0
 74
     0
 78
     8
 79
     2
140
3.5
141
0.0
143
0.0393701
146
0.71
147
1.5
172
     1
176
   256
177
   256
178
     2
271
     2
272
     3
274
     4
283
     0
340
11
341
407
342
407
343
407
344
407
371
    -1
372
    -1
  0
DIMSTYLE
105
D3B
330
A
100
AcDbSymbolTableRecord
100
AcDbDimStyleTableRecord
  2
AM_JIS$7
 70
     0
  4
"
 41
2.5
 42
1.0
 43
10.0
 44
1.0
 47
0.1
 48
0.1
 73
     0
 74
     0
 77
     3
 78
     8
 79
     2
140
5.0
141
0.0
143
0.0393701
146
0.71
147
1.5
172
     1
176
   256
177
   256
178
     2
271
     2
272
     3
274
     4
283
     0
340
11
341
407
342
407
343
407
344
407
371
    -1
372
    -1
  0
DIMSTYLE
105
D3C
330
A
100
AcDbSymbolTableRecord
100
AcDbDimStyleTableRecord
  2
AM_JIS$SF
 70
     0
  4
"
 41
2.5
 42
1.0
 43
10.0
 44
1.0
 47
0.1
 48
0.1
 73
     0
 74
     0
 75
     1
 76
     1
 77
     3
 78
     8
 79
     2
140
3.5
141
0.0
143
0.0393701
146
0.71
147
1.5
172
     1
176
   256
177
   256
178
     2
271
     2
272
     3
274
     4
283
     0
340
11
341
407
342
407
343
407
344
407
371
    -1
372
    -1
  0
DIMSTYLE
105
D3D
330
A
100
AcDbSymbolTableRecord
100
AcDbDimStyleTableRecord
  2
AM_JIS$SH
 70
     0
  4
"
 41
2.5
 42
1.0
 43
10.0
 44
1.0
 47
0.1
 48
0.1
 73
     0
 74
     0
 75
     1
 76
     1
 77
     3
 78
     8
 79
     2
140
3.5
141
0.0
143
0.0393701
144
2.0
146
0.71
147
1.5
172
     1
173
     1
176
   256
177
   256
178
     2
271
     2
272
     3
274
     4
283
     0
340
11
341
407
342
407
343
87
344
407
371
    -1
372
    -1
  0
ENDTAB
  0
TABLE
  2
BLOCK_RECORD
  5
1
330
0
100
AcDbSymbolTable
 70
    42
  0
BLOCK_RECORD
  5
1F
102
{ACAD_XDICTIONARY
360
8F
102
}
330
1
100
AcDbSymbolTableRecord
100
AcDbBlockTableRecord
  2
*Model_Space
340
22
  0
BLOCK_RECORD
  5
23
330
1
100
AcDbSymbolTableRecord
100
AcDbBlockTableRecord
  2
*Paper_Space
340
26
  0
BLOCK_RECORD
  5
1B
330
1
100
AcDbSymbolTableRecord
100
AcDbBlockTableRecord
  2
*Paper_Space0
340
1E
  0
BLOCK_RECORD
  5
87
330
1
100
AcDbSymbolTableRecord
100
AcDbBlockTableRecord
  2
GENAXEH
340
0
  0
BLOCK_RECORD
  5
407
330
1
100
AcDbSymbolTableRecord
100
AcDbBlockTableRecord
  2
_Open30
340
0
102
{BLKREFS
331
CA5
331
CA6
331
CC2
331
CC3
331
CCC
331
CCD
331
CD7
331
CD8
331
CED
331
CEE
331
CF6
331
CF7
331
D01
331
D02
331
D0C
331
D0D
331
D1D
331
D1E
331
D28
331
D29
331
ECF
331
ED0
331
EDE
331
EDF
331
EE7
331
EE8
331
EEF
331
F1B
331
F1C
102
}
  0
BLOCK_RECORD
  5
5CD
102
{ACAD_XDICTIONARY
360
5D9
102
}
330
1
100
AcDbSymbolTableRecord
100
AcDbBlockTableRecord
  2
TAKACHI-A4
340
0
102
{BLKREFS
331
5E3
102
}
  0
BLOCK_RECORD
  5
5E9
102
{ACAD_XDICTIONARY
360
63E
102
}
330
1
100
AcDbSymbolTableRecord
100
AcDbBlockTableRecord
  2
TAKACHI-TITLE
340
0
  0
BLOCK_RECORD
  5
7DC
330
1
100
AcDbSymbolTableRecord
100
AcDbBlockTableRecord
  2
*D9
340
0
  0
BLOCK_RECORD
  5
7E7
330
1
100
AcDbSymbolTableRecord
100
AcDbBlockTableRecord
  2
*D10
340
0
  0
BLOCK_RECORD
  5
7F1
330
1
100
AcDbSymbolTableRecord
100
AcDbBlockTableRecord
  2
*D11
340
0
  0
BLOCK_RECORD
  5
7FB
330
1
100
AcDbSymbolTableRecord
100
AcDbBlockTableRecord
  2
*D12
340
0
  0
BLOCK_RECORD
  5
81B
330
1
100
AcDbSymbolTableRecord
100
AcDbBlockTableRecord
  2
*D13
340
0
  0
BLOCK_RECORD
  5
825
330
1
100
AcDbSymbolTableRecord
100
AcDbBlockTableRecord
  2
*D14
340
0
  0
BLOCK_RECORD
  5
83B
330
1
100
AcDbSymbolTableRecord
100
AcDbBlockTableRecord
  2
*D15
340
0
  0
BLOCK_RECORD
  5
847
330
1
100
AcDbSymbolTableRecord
100
AcDbBlockTableRecord
  2
*D16
340
0
  0
BLOCK_RECORD
  5
85F
330
1
100
AcDbSymbolTableRecord
100
AcDbBlockTableRecord
  2
*D17
340
0
  0
BLOCK_RECORD
  5
8C9
330
1
100
AcDbSymbolTableRecord
100
AcDbBlockTableRecord
  2
*D18
340
0
  0
BLOCK_RECORD
  5
8ED
330
1
100
AcDbSymbolTableRecord
100
AcDbBlockTableRecord
  2
*D19
340
0
  0
BLOCK_RECORD
  5
915
330
1
100
AcDbSymbolTableRecord
100
AcDbBlockTableRecord
  2
*D20
340
0
  0
BLOCK_RECORD
  5
970
330
1
100
AcDbSymbolTableRecord
100
AcDbBlockTableRecord
  2
*D21
340
0
  0
BLOCK_RECORD
  5
99C
330
1
100
AcDbSymbolTableRecord
100
AcDbBlockTableRecord
  2
*D22
340
0
  0
BLOCK_RECORD
  5
BE0
330
1
100
AcDbSymbolTableRecord
100
AcDbBlockTableRecord
  2
*U24
340
0
  0
BLOCK_RECORD
  5
C1C
102
{ACAD_XDICTIONARY
360
C24
102
}
330
1
100
AcDbSymbolTableRecord
100
AcDbBlockTableRecord
  2
TK-A4
340
0
102
{BLKREFS
331
5E3
102
}
  0
BLOCK_RECORD
  5
C2A
102
{ACAD_XDICTIONARY
360
C83
102
}
330
1
100
AcDbSymbolTableRecord
100
AcDbBlockTableRecord
  2
TK-TITLE
340
0
102
{BLKREFS
331
C87
102
}
  0
BLOCK_RECORD
  5
DB1
102
{ACAD_XDICTIONARY
360
DC3
102
}
330
1
100
AcDbSymbolTableRecord
100
AcDbBlockTableRecord
  2
A$C35C16C4D
340
0
102
{BLKREFS
331
DC8
102
}
  0
BLOCK_RECORD
  5
DCB
102
{ACAD_XDICTIONARY
360
DDB
102
}
330
1
100
AcDbSymbolTableRecord
100
AcDbBlockTableRecord
  2
A$C47270E8E
340
0
102
{BLKREFS
331
DE0
102
}
  0
BLOCK_RECORD
  5
DF5
102
{ACAD_XDICTIONARY
360
DFF
102
}
330
1
100
AcDbSymbolTableRecord
100
AcDbBlockTableRecord
  2
A$C762874DC
340
0
102
{BLKREFS
331
E04
102
}
  0
BLOCK_RECORD
  5
E07
102
{ACAD_XDICTIONARY
360
E18
102
}
330
1
100
AcDbSymbolTableRecord
100
AcDbBlockTableRecord
  2
A$C4B68363E
340
0
102
{BLKREFS
331
E1D
102
}
  0
BLOCK_RECORD
  5
F08
330
1
100
AcDbSymbolTableRecord
100
AcDbBlockTableRecord
  2
*D32
340
0
  0
BLOCK_RECORD
  5
F28
330
1
100
AcDbSymbolTableRecord
100
AcDbBlockTableRecord
  2
*S33
340
0
  0
BLOCK_RECORD
  5
F2F
330
1
100
AcDbSymbolTableRecord
100
AcDbBlockTableRecord
  2
*S34
340
0
  0
BLOCK_RECORD
  5
F36
330
1
100
AcDbSymbolTableRecord
100
AcDbBlockTableRecord
  2
*S35
340
0
  0
BLOCK_RECORD
  5
F3D
330
1
100
AcDbSymbolTableRecord
100
AcDbBlockTableRecord
  2
*S36
340
0
  0
BLOCK_RECORD
  5
F45
330
1
100
AcDbSymbolTableRecord
100
AcDbBlockTableRecord
  2
*S37
340
0
  0
BLOCK_RECORD
  5
F4C
330
1
100
AcDbSymbolTableRecord
100
AcDbBlockTableRecord
  2
*S38
340
0
  0
BLOCK_RECORD
  5
F54
330
1
100
AcDbSymbolTableRecord
100
AcDbBlockTableRecord
  2
*S39
340
0
  0
BLOCK_RECORD
  5
F5C
330
1
100
AcDbSymbolTableRecord
100
AcDbBlockTableRecord
  2
*S40
340
0
  0
BLOCK_RECORD
  5
F64
330
1
100
AcDbSymbolTableRecord
100
AcDbBlockTableRecord
  2
*S41
340
0
  0
ENDTAB
  0
ENDSEC
  0
SECTION
  2
BLOCKS
  0
BLOCK
  5
20
330
1F
100
AcDbEntity
  8
0
100
AcDbBlockBegin
  2
*Model_Space
 70
     0
 10
0.0
 20
0.0
 30
0.0
  3
*Model_Space
  1

  0
ENDBLK
  5
21
330
1F
100
AcDbEntity
  8
0
100
AcDbBlockEnd
  0
BLOCK
  5
24
330
23
100
AcDbEntity
 67
     1
  8
0
100
AcDbBlockBegin
  2
*Paper_Space
 70
     0
 10
0.0
 20
0.0
 30
0.0
  3
*Paper_Space
  1

  0
ENDBLK
  5
25
330
23
100
AcDbEntity
 67
     1
  8
0
100
AcDbBlockEnd
  0
BLOCK
  5
1C
330
1B
100
AcDbEntity
  8
0
100
AcDbBlockBegin
  2
*Paper_Space0
 70
     0
 10
0.0
 20
0.0
 30
0.0
  3
*Paper_Space0
  1

  0
VIEWPORT
  5
178
102
{ACAD_XDICTIONARY
360
FA7
102
}
330
1B
100
AcDbEntity
  8
0
100
AcDbViewport
 10
133.3499908447265
 20
101.5999970436096
 30
0.0
 40
370.2266912936524
 41
228.4221935424805
 69
     0
 12
133.3499908447265
 22
101.5999970436096
 13
0.0
 23
0.0
 14
10.0
 24
10.0
 15
10.0
 25
10.0
 16
0.0
 26
0.0
 36
1.0
 17
0.0
 27
0.0
 37
0.0
 42
50.0
 43
0.0
 44
0.0
 45
228.4221935424805
 50
0.0
 51
0.0
 72
   100
 90
    32800
  1

281
     0
 71
     1
 74
     0
110
0.0
120
0.0
130
0.0
111
1.0
121
0.0
131
0.0
112
0.0
122
1.0
132
0.0
 79
     0
146
0.0
1001
GENIUS_GENSCREG_15
1000
PF
1040
1.0
1000
DF
1040
1.0
1000
MIN
1011
-51.76335480209963
1021
-12.6110997276306
1031
0.0
1000
MAX
1011
318.4633364915527
1021
215.8110938148499
1031
0.0
1000
FLAGS
1070
     4
1001
GENIUS_GENOBJ-N-SDF_13
1002
{
1000
OWNER
1000
GEN
1002
}
1001
GENIUS_GENODEF_13
1002
{
1000
HIER
1070
     0
1002
}
1002
{
1000
MANEDIT
1070
     0
1002
}
1002
{
1000
NOSEL
1070
     0
1002
}
1002
{
1000
BEHIND
1070
     0
1002
}
1002
{
1000
OTHER
1070
     0
1002
}
1002
{
1000
REACTOR
1002
}
  0
ENDBLK
  5
1D
330
1B
100
AcDbEntity
  8
0
100
AcDbBlockEnd
  0
BLOCK
  5
89
330
87
100
AcDbEntity
  8
0
100
AcDbBlockBegin
  2
GENAXEH
 70
     0
 10
0.0
 20
0.0
 30
0.0
  3
GENAXEH
  1

  0
LINE
  5
88
330
87
100
AcDbEntity
  8
0
100
AcDbLine
 10
-1.0
 20
0.0
 30
0.0
 11
1.0
 21
0.0
 31
0.0
  0
ENDBLK
  5
8A
330
87
100
AcDbEntity
  8
0
100
AcDbBlockEnd
  0
BLOCK
  5
40B
330
407
100
AcDbEntity
  8
0
100
AcDbBlockBegin
  2
_Open30
 70
     0
 10
0.0
 20
0.0
 30
0.0
  3
_Open30
  1

  0
LINE
  5
408
330
407
100
AcDbEntity
  8
0
  6
ByBlock
 62
     0
370
    -2
100
AcDbLine
 10
-1.0
 20
0.26794919
 30
0.0
 11
0.0
 21
0.0
 31
0.0
  0
LINE
  5
409
330
407
100
AcDbEntity
  8
0
  6
ByBlock
 62
     0
370
    -2
100
AcDbLine
 10
0.0
 20
0.0
 30
0.0
 11
-1.0
 21
-0.26794919
 31
0.0
  0
LINE
  5
40A
330
407
100
AcDbEntity
  8
0
  6
ByBlock
 62
     0
370
    -2
100
AcDbLine
 10
0.0
 20
0.0
 30
0.0
 11
-1.0
 21
0.0
 31
0.0
  0
ENDBLK
  5
40C
330
407
100
AcDbEntity
  8
0
100
AcDbBlockEnd
  0
BLOCK
  5
5DA
330
5CD
100
AcDbEntity
  8
0
100
AcDbBlockBegin
  2
TAKACHI-A4
 70
     0
 10
0.0
 20
0.0
 30
0.0
  3
TAKACHI-A4
  1

  0
TEXT
  5
5CE
330
5CD
100
AcDbEntity
  8
0
 60
     1
100
AcDbText
 10
10.0
 20
54.99999999999994
 30
0.0
 40
2.5
  1
!GENTITLE-LL
100
AcDbText
  0
TEXT
  5
5CF
330
5CD
100
AcDbEntity
  8
0
 60
     1
100
AcDbText
 10
215.0
 20
15.0
 30
0.0
 40
2.5
  1
!GENTITLE-INSERT
100
AcDbText
  0
TEXT
  5
5D0
330
5CD
100
AcDbEntity
  8
0
 60
     1
100
AcDbText
 10
215.0
 20
285.0000000000001
 30
0.0
 40
2.5
  1
!GENTITLE-RU
100
AcDbText
  0
TEXT
  5
5D1
330
5CD
100
AcDbEntity
  8
0
 60
     1
100
AcDbText
 10
215.0000000000001
 20
290.0
 30
0.0
 40
2.5
  1
!GENTITLE-MAX
100
AcDbText
  0
LINE
  5
5D2
330
5CD
100
AcDbEntity
  8
0
100
AcDbLine
 10
215.0
 20
290.0000000000001
 30
0.0
 11
20.00000000000003
 21
290.0
 31
0.0
1001
GENIUS_GENREC_14
1002
{
1000
PYDIR
1011
15.00000000000003
1021
295.0
1031
0.0
1002
}
1002
{
1000
PXDIR
1011
215.0
1021
15.0
1031
0.0
1002
}
1002
{
1000
PORI
1011
15.0
1021
15.0
1031
0.0
1002
}
1002
{
1000
PINS
1011
115.0
1021
155.0
1031
0.0
1002
}
1002
{
1000
HVAL
1000
280
1002
}
1002
{
1000
H
1070
     2
1002
}
1002
{
1000
WVAL
1000
200
1002
}
1002
{
1000
W
1070
     2
1002
}
1002
{
1000
C
1070
     4
1002
}
  0
LINE
  5
5D3
330
5CD
100
AcDbEntity
  8
0
100
AcDbLine
 10
20.00000000000003
 20
290.0
 30
0.0
 11
19.99999999999997
 21
15.0
 31
0.0
1001
GENIUS_GENREC_14
1002
{
1000
PYDIR
1011
15.00000000000003
1021
295.0
1031
0.0
1002
}
1002
{
1000
PXDIR
1011
215.0
1021
15.0
1031
0.0
1002
}
1002
{
1000
PORI
1011
15.0
1021
15.0
1031
0.0
1002
}
1002
{
1000
PINS
1011
115.0
1021
155.0
1031
0.0
1002
}
1002
{
1000
HVAL
1000
280
1002
}
1002
{
1000
H
1070
     2
1002
}
1002
{
1000
WVAL
1000
200
1002
}
1002
{
1000
W
1070
     2
1002
}
1002
{
1000
C
1070
     4
1002
}
  0
LINE
  5
5D4
330
5CD
100
AcDbEntity
  8
0
100
AcDbLine
 10
19.99999999999997
 20
15.0
 30
0.0
 11
215.0
 21
15.0
 31
0.0
1001
GENIUS_GENREC_14
1002
{
1000
PYDIR
1011
15.00000000000003
1021
295.0
1031
0.0
1002
}
1002
{
1000
PXDIR
1011
215.0
1021
15.0
1031
0.0
1002
}
1002
{
1000
PORI
1011
15.0
1021
15.0
1031
0.0
1002
}
1002
{
1000
PINS
1011
115.0
1021
155.0
1031
0.0
1002
}
1002
{
1000
HVAL
1000
280
1002
}
1002
{
1000
H
1070
     2
1002
}
1002
{
1000
WVAL
1000
200
1002
}
1002
{
1000
W
1070
     2
1002
}
1002
{
1000
C
1070
     4
1002
}
  0
LINE
  5
5D5
330
5CD
100
AcDbEntity
  8
0
100
AcDbLine
 10
215.0
 20
15.0
 30
0.0
 11
215.0000000000001
 21
290.0000000000001
 31
0.0
1001
GENIUS_GENREC_14
1002
{
1000
PYDIR
1011
15.00000000000003
1021
295.0
1031
0.0
1002
}
1002
{
1000
PXDIR
1011
215.0
1021
15.0
1031
0.0
1002
}
1002
{
1000
PORI
1011
15.0
1021
15.0
1031
0.0
1002
}
1002
{
1000
PINS
1011
115.0
1021
155.0
1031
0.0
1002
}
1002
{
1000
HVAL
1000
280
1002
}
1002
{
1000
H
1070
     2
1002
}
1002
{
1000
WVAL
1000
200
1002
}
1002
{
1000
W
1070
     2
1002
}
1002
{
1000
C
1070
     4
1002
}
  0
LINE
  5
5D6
330
5CD
100
AcDbEntity
  8
0
100
AcDbLine
 10
171.0000000000001
 20
285.0000000000001
 30
0.0
 11
215.0000000000001
 21
285.0000000000001
 31
0.0
  0
LINE
  5
5D7
330
5CD
100
AcDbEntity
  8
0
100
AcDbLine
 10
171.0000000000001
 20
290.0000000000001
 30
0.0
 11
171.0000000000001
 21
285.0000000000001
 31
0.0
  0
MTEXT
  5
5D8
330
5CD
100
AcDbEntity
  8
0
100
AcDbMText
 10
214.3592953827349
 20
286.1085429872271
 30
0.0
 40
2.5
 41
43.07840397728298
 71
     9
 72
     5
  1
(文書番号：TY-34)2004.10.29
 73
     1
 44
1.0
1001
ACAD
1000
MTEXTBEGIN
1070
    73
1070
     1
1070
    44
1040
1.0
1070
    74
1070
     0
1000
MTEXTEND
  0
ENDBLK
  5
5DB
330
5CD
100
AcDbEntity
  8
0
100
AcDbBlockEnd
  0
BLOCK
  5
63F
330
5E9
100
AcDbEntity
  8
0
100
AcDbBlockBegin
  2
TAKACHI-TITLE
 70
     2
 10
0.0
 20
0.0
 30
0.0
  3
TAKACHI-TITLE
  1

  0
LINE
  5
5EA
330
5E9
100
AcDbEntity
  8
RAHM2
100
AcDbLine
 10
-195.0
 20
30.00000000000003
 30
0.0
 11
-94.0
 21
30.00000000000003
 31
0.0
  0
LINE
  5
5EB
330
5E9
100
AcDbEntity
  8
RAHM2
100
AcDbLine
 10
-195.0
 20
35.00000000000003
 30
0.0
 11
-94.0
 21
35.00000000000003
 31
0.0
  0
LINE
  5
5EC
330
5E9
100
AcDbEntity
  8
RAHM2
100
AcDbLine
 10
-195.0
 20
40.00000000000002
 30
0.0
 11
-94.0
 21
40.00000000000002
 31
0.0
  0
LINE
  5
5ED
330
5E9
100
AcDbEntity
  8
RAHM2
100
AcDbLine
 10
-195.0
 20
45.00000000000002
 30
0.0
 11
-94.0
 21
45.00000000000002
 31
0.0
  0
LINE
  5
5EE
330
5E9
100
AcDbEntity
  8
0
100
AcDbLine
 10
-195.0
 20
7.0
 30
0.0
 11
-94.0
 21
7.0
 31
0.0
  0
LINE
  5
5EF
330
5E9
100
AcDbEntity
  8
0
100
AcDbLine
 10
-195.0
 20
19.99999999999997
 30
0.0
 11
-94.0
 21
19.99999999999997
 31
0.0
  0
ATTDEF
  5
5F0
330
5E9
100
AcDbEntity
  8
0
100
AcDbText
 10
-183.2438527145607
 20
8.950850524428082
 30
0.0
 40
2.5
  1

 11
-183.2438527145607
 21
8.617517191094748
 31
0.0
100
AcDbAttributeDefinition
  3
サブタイトル
  2
GEN-TITLE-DES2
 70
     0
 74
     1
  0
ATTDEF
  5
5F1
330
5E9
100
AcDbEntity
  8
0
100
AcDbText
 10
-183.2438527145607
 20
2.017517191094748
 30
0.0
 40
3.0
  1

 11
-183.2438527145607
 21
1.617517191094748
 31
0.0
100
AcDbAttributeDefinition
  3
図番
  2
GEN-TITLE-NR
 70
     0
 74
     1
  0
MTEXT
  5
5F2
330
5E9
100
AcDbEntity
  8
RAHM2
100
AcDbMText
 10
-193.8002551371314
 20
5.801035407279641
 30
0.0
 40
2.5
 41
90.0
 71
     1
 72
     5
  1
図番
 73
     1
 44
1.0
1001
ACAD
1000
MTEXTBEGIN
1070
    73
1070
     1
1070
    44
1040
1.0
1070
    74
1070
     0
1000
MTEXTEND
  0
ATTDEF
  5
5F3
330
5E9
100
AcDbEntity
  8
0
100
AcDbText
 10
-183.2438527145607
 20
14.40728619501834
 30
0.0
 40
4.0
  1

 11
-183.2438527145607
 21
13.87395286168501
 31
0.0
100
AcDbAttributeDefinition
  3
品名
  2
GEN-TITLE-DES1
 70
     0
 74
     1
  0
LINE
  5
5F4
330
5E9
100
AcDbEntity
  8
RAHM2
100
AcDbLine
 10
-187.5751288694036
 20
30.40000000000004
 30
0.0
 11
-190.0
 21
34.60000000000003
 31
0.0
  0
LINE
  5
5F5
330
5E9
100
AcDbEntity
  8
RAHM2
100
AcDbLine
 10
-190.0
 20
34.60000000000003
 30
0.0
 11
-192.4248711305964
 21
30.40000000000004
 31
0.0
  0
LINE
  5
5F6
330
5E9
100
AcDbEntity
  8
RAHM2
100
AcDbLine
 10
-185.0
 20
50.00000000000003
 30
0.0
 11
-185.0
 21
19.99999999999994
 31
0.0
  0
LINE
  5
5F7
330
5E9
100
AcDbEntity
  8
RAHM2
100
AcDbLine
 10
-192.4248711305964
 20
30.40000000000004
 30
0.0
 11
-187.5751288694036
 21
30.40000000000004
 31
0.0
  0
MTEXT
  5
5F8
330
5E9
100
AcDbEntity
  8
RAHM2
100
AcDbMText
 10
-190.0
 20
22.49999999999997
 30
0.0
 40
2.5
 41
10.0
 71
     5
 72
     5
  1
符号
 73
     1
 44
1.0
1001
ACAD
1000
MTEXTBEGIN
1070
    73
1070
     1
1070
    44
1040
1.0
1070
    74
1070
     0
1000
MTEXTEND
  0
MTEXT
  5
5F9
330
5E9
100
AcDbEntity
  8
RAHM2
100
AcDbMText
 10
-193.8002551371314
 20
18.80103540727961
 30
0.0
 40
2.5
 41
90.0
 71
     1
 72
     5
  1
品名
 73
     1
 44
1.0
1001
ACAD
1000
MTEXTBEGIN
1070
    73
1070
     1
1070
    44
1040
1.0
1070
    74
1070
     0
1000
MTEXTEND
  0
LINE
  5
5FA
330
5E9
100
AcDbEntity
  8
RAHM2
100
AcDbLine
 10
-192.4248711305964
 20
45.40000000000003
 30
0.0
 11
-187.5751288694036
 21
45.40000000000003
 31
0.0
  0
LINE
  5
5FB
330
5E9
100
AcDbEntity
  8
RAHM2
100
AcDbLine
 10
-187.5751288694036
 20
45.40000000000003
 30
0.0
 11
-190.0
 21
49.60000000000002
 31
0.0
  0
LINE
  5
5FC
330
5E9
100
AcDbEntity
  8
RAHM2
100
AcDbLine
 10
-192.4248711305964
 20
40.40000000000003
 30
0.0
 11
-187.5751288694036
 21
40.40000000000003
 31
0.0
  0
LINE
  5
5FD
330
5E9
100
AcDbEntity
  8
RAHM2
100
AcDbLine
 10
-187.5751288694036
 20
40.40000000000003
 30
0.0
 11
-190.0
 21
44.60000000000002
 31
0.0
  0
LINE
  5
5FE
330
5E9
100
AcDbEntity
  8
RAHM2
100
AcDbLine
 10
-192.4248711305964
 20
35.40000000000004
 30
0.0
 11
-187.5751288694036
 21
35.40000000000004
 31
0.0
  0
LINE
  5
5FF
330
5E9
100
AcDbEntity
  8
RAHM2
100
AcDbLine
 10
-187.5751288694036
 20
35.40000000000004
 30
0.0
 11
-190.0
 21
39.60000000000002
 31
0.0
  0
LINE
  5
600
330
5E9
100
AcDbEntity
  8
RAHM2
100
AcDbLine
 10
-190.0
 20
39.60000000000002
 30
0.0
 11
-192.4248711305964
 21
35.40000000000004
 31
0.0
  0
LINE
  5
601
330
5E9
100
AcDbEntity
  8
RAHM2
100
AcDbLine
 10
-190.0
 20
44.60000000000002
 30
0.0
 11
-192.4248711305964
 21
40.40000000000003
 31
0.0
  0
LINE
  5
602
330
5E9
100
AcDbEntity
  8
RAHM2
100
AcDbLine
 10
-190.0
 20
49.60000000000002
 30
0.0
 11
-192.4248711305964
 21
45.40000000000003
 31
0.0
  0
LINE
  5
603
330
5E9
100
AcDbEntity
  8
RAHM2
100
AcDbLine
 10
-129.0
 20
50.00000000000003
 30
0.0
 11
-129.0
 21
19.99999999999994
 31
0.0
  0
MTEXT
  5
604
330
5E9
100
AcDbEntity
  8
RAHM2
100
AcDbMText
 10
-157.1448171868856
 20
22.49999999999997
 30
0.0
 40
2.5
 41
45.0
 71
     5
 72
     5
  1
変更記事
 73
     1
 44
1.0
1001
ACAD
1000
MTEXTBEGIN
1070
    73
1070
     1
1070
    44
1040
1.0
1070
    74
1070
     0
1000
MTEXTEND
  0
LINE
  5
605
330
5E9
100
AcDbEntity
  8
0
100
AcDbLine
 10
-34.0
 20
50.0
 30
0.0
 11
-34.0
 21
0.0
 31
0.0
  0
LINE
  5
606
330
5E9
100
AcDbEntity
  8
0
100
AcDbLine
 10
-94.0
 20
50.0
 30
0.0
 11
-94.0
 21
0.0
 31
0.0
  0
MTEXT
  5
607
330
5E9
100
AcDbEntity
  8
0
100
AcDbMText
 10
-64.0
 20
5.0
 30
0.0
 40
3.5
 41
60.0
 71
     5
 72
     5
  1
\fＭＳ ゴシック|b0|i0|c128|p49;株式会社タカチ電機工業
 73
     1
 44
1.0
1001
ACAD
1000
MTEXTBEGIN
1070
    73
1070
     1
1070
    44
1040
1.0
1070
    74
1070
     0
1000
MTEXTEND
  0
LINE
  5
608
330
5E9
100
AcDbEntity
  8
0
100
AcDbLine
 10
-94.0
 20
10.0
 30
0.0
 11
-34.0
 21
10.0
 31
0.0
  0
ATTDEF
  5
609
330
5E9
100
AcDbEntity
  8
0
100
AcDbText
 10
-58.01405119799745
 20
39.25500556178349
 30
0.0
 40
3.0
  1

 72
     2
 11
-58.01405119799745
 21
39.25500556178349
 31
0.0
100
AcDbAttributeDefinition
  3
尺度
  2
GEN-TITLE-SCA
 70
     0
  0
ATTDEF
  5
60A
330
5E9
100
AcDbEntity
  8
0
100
AcDbText
 10
-77.00284966649007
 20
31.02180787943475
 30
0.0
 40
3.0
  1

 11
-77.00284966649007
 21
30.62180787943475
 31
0.0
100
AcDbAttributeDefinition
  3
材質
  2
GEN-TITLE-MAT1
 70
     0
 74
     1
  0
ATTDEF
  5
60B
330
5E9
100
AcDbEntity
  8
0
100
AcDbText
 10
-77.00284966649007
 20
21.02180787943475
 30
0.0
 40
3.0
  1

 11
-77.00284966649007
 21
20.62180787943475
 31
0.0
100
AcDbAttributeDefinition
  3
表面処理
  2
GEN-TITLE-MAT2
 70
     0
 74
     1
  0
ATTDEF
  5
60C
330
5E9
100
AcDbEntity
  8
0
100
AcDbText
 10
-77.00284966649007
 20
12.01751719109475
 30
0.0
 40
3.0
  1

 11
-77.00284966649007
 21
11.61751719109475
 31
0.0
100
AcDbAttributeDefinition
  3
日付
  2
GEN-TITLE-DAT
 70
     0
 74
     1
  0
LINE
  5
60D
330
5E9
100
AcDbEntity
  8
0
100
AcDbLine
 10
-94.0
 20
37.5
 30
0.0
 11
-34.0
 21
37.5
 31
0.0
  0
LINE
  5
60E
330
5E9
100
AcDbEntity
  8
0
100
AcDbLine
 10
-94.0
 20
27.5
 30
0.0
 11
-34.0
 21
27.5
 31
0.0
  0
LINE
  5
60F
330
5E9
100
AcDbEntity
  8
0
100
AcDbLine
 10
-94.0
 20
17.5
 30
0.0
 11
-34.0
 21
17.5
 31
0.0
  0
LINE
  5
610
330
5E9
100
AcDbEntity
  8
RAHM2
100
AcDbLine
 10
-109.0
 20
50.00000000000003
 30
0.0
 11
-109.0
 21
19.99999999999994
 31
0.0
  0
MTEXT
  5
611
330
5E9
100
AcDbEntity
  8
RAHM2
100
AcDbMText
 10
-119.4582894723942
 20
32.50000000000003
 30
0.0
 40
2.5
 41
20.0
 71
     5
 72
     5
  1
・  ・   
 73
     1
 44
1.0
1001
ACAD
1000
MTEXTBEGIN
1070
    73
1070
     1
1070
    44
1040
1.0
1070
    74
1070
     0
1000
MTEXTEND
  0
MTEXT
  5
612
330
5E9
100
AcDbEntity
  8
RAHM2
100
AcDbMText
 10
-118.738119805002
 20
22.49999999999997
 30
0.0
 40
2.5
 41
20.0
 71
     5
 72
     5
  1
年・月・日
 73
     1
 44
1.0
1001
ACAD
1000
MTEXTBEGIN
1070
    73
1070
     1
1070
    44
1040
1.0
1070
    74
1070
     0
1000
MTEXTEND
  0
MTEXT
  5
613
330
5E9
100
AcDbEntity
  8
RAHM2
100
AcDbMText
 10
-101.5
 20
22.49999999999997
 30
0.0
 40
2.5
 41
15.0
 71
     5
 72
     5
  1
担当
 73
     1
 44
1.0
1001
ACAD
1000
MTEXTBEGIN
1070
    73
1070
     1
1070
    44
1040
1.0
1070
    74
1070
     0
1000
MTEXTEND
  0
MTEXT
  5
614
330
5E9
100
AcDbEntity
  8
RAHM2
100
AcDbMText
 10
-119.4582894723942
 20
42.50000000000002
 30
0.0
 40
2.5
 41
20.0
 71
     5
 72
     5
  1
・  ・   
 73
     1
 44
1.0
1001
ACAD
1000
MTEXTBEGIN
1070
    73
1070
     1
1070
    44
1040
1.0
1070
    74
1070
     0
1000
MTEXTEND
  0
MTEXT
  5
615
330
5E9
100
AcDbEntity
  8
RAHM2
100
AcDbMText
 10
-119.4582894723942
 20
37.50000000000003
 30
0.0
 40
2.5
 41
20.0
 71
     5
 72
     5
  1
・  ・   
 73
     1
 44
1.0
1001
ACAD
1000
MTEXTBEGIN
1070
    73
1070
     1
1070
    44
1040
1.0
1070
    74
1070
     0
1000
MTEXTEND
  0
MTEXT
  5
616
330
5E9
100
AcDbEntity
  8
RAHM2
100
AcDbMText
 10
-119.4582894723942
 20
47.50000000000002
 30
0.0
 40
2.5
 41
20.0
 71
     5
 72
     5
  1
・  ・   
 73
     1
 44
1.0
1001
ACAD
1000
MTEXTBEGIN
1070
    73
1070
     1
1070
    44
1040
1.0
1070
    74
1070
     0
1000
MTEXTEND
  0
MTEXT
  5
617
330
5E9
100
AcDbEntity
  8
RAHM2
100
AcDbMText
 10
-92.80025513713145
 20
16.30103540727964
 30
0.0
 40
2.5
 41
60.0
 71
     1
 72
     5
  1
日付
 73
     1
 44
1.0
1001
ACAD
1000
MTEXTBEGIN
1070
    73
1070
     1
1070
    44
1040
1.0
1070
    74
1070
     0
1000
MTEXTEND
  0
MTEXT
  5
618
330
5E9
100
AcDbEntity
  8
RAHM2
100
AcDbMText
 10
-92.80025513713145
 20
26.30103540727964
 30
0.0
 40
2.5
 41
60.0
 71
     1
 72
     5
  1
表面処理
 73
     1
 44
1.0
1001
ACAD
1000
MTEXTBEGIN
1070
    73
1070
     1
1070
    44
1040
1.0
1070
    74
1070
     0
1000
MTEXTEND
  0
LINE
  5
619
330
5E9
100
AcDbEntity
  8
7A
100
AcDbLine
 10
-89.0
 20
43.75
 30
0.0
 11
-75.2186915997147
 21
43.75
 31
0.0
1001
GENIUS_GENOREF_13
1005
62C
  0
LINE
  5
61A
330
5E9
100
AcDbEntity
  8
0
100
AcDbLine
 10
-84.0
 20
45.75
 30
0.0
 11
-76.0
 21
46.74999999999999
 31
0.0
  0
LINE
  5
61B
330
5E9
100
AcDbEntity
  8
0
100
AcDbLine
 10
-76.0
 20
40.75
 30
0.0
 11
-84.0
 21
41.74999999999999
 31
0.0
  0
LINE
  5
61C
330
5E9
100
AcDbEntity
  8
7A
100
AcDbLine
 10
-89.0
 20
43.75
 30
0.0
 11
-89.0
 21
47.32478664473148
 31
0.0
1001
GENIUS_GENOREF_13
1005
62C
  0
CIRCLE
  5
61D
330
5E9
100
AcDbEntity
  8
0
100
AcDbCircle
 10
-89.0
 20
43.75
 30
0.0
 40
2.0
  0
CIRCLE
  5
61E
330
5E9
100
AcDbEntity
  8
0
100
AcDbCircle
 10
-89.0
 20
43.75
 30
0.0
 40
3.0
  0
LINE
  5
61F
330
5E9
100
AcDbEntity
  8
0
100
AcDbLine
 10
-84.0
 20
41.74999999999999
 30
0.0
 11
-84.0
 21
45.75
 31
0.0
  0
MTEXT
  5
620
330
5E9
100
AcDbEntity
  8
RAHM2
100
AcDbMText
 10
-92.80025513713145
 20
36.30103540727964
 30
0.0
 40
2.5
 41
60.0
 71
     1
 72
     5
  1
材質
 73
     1
 44
1.0
1001
ACAD
1000
MTEXTBEGIN
1070
    73
1070
     1
1070
    44
1040
1.0
1070
    74
1070
     0
1000
MTEXTEND
  0
LINE
  5
621
330
5E9
100
AcDbEntity
  8
7A
100
AcDbLine
 10
-89.0
 20
43.75
 30
0.0
 11
-92.72303737125117
 21
43.75
 31
0.0
1001
GENIUS_GENOREF_13
1005
62C
  0
LINE
  5
622
330
5E9
100
AcDbEntity
  8
7A
100
AcDbLine
 10
-89.0
 20
43.75
 30
0.0
 11
-89.0
 21
40.03991724228479
 31
0.0
1001
GENIUS_GENOREF_13
1005
62C
  0
LINE
  5
623
330
5E9
100
AcDbEntity
  8
0
100
AcDbLine
 10
-76.0
 20
46.74999999999999
 30
0.0
 11
-76.0
 21
40.75
 31
0.0
  0
LINE
  5
624
330
5E9
100
AcDbEntity
  8
0
100
AcDbLine
 10
-74.0
 20
50.0
 30
0.0
 11
-74.0
 21
37.5
 31
0.0
  0
MTEXT
  5
625
330
5E9
100
AcDbEntity
  8
RAHM2
100
AcDbMText
 10
-72.80025513713145
 20
48.80103540727964
 30
0.0
 40
2.5
 41
20.0
 71
     1
 72
     5
  1
尺度
 73
     1
 44
1.0
1001
ACAD
1000
MTEXTBEGIN
1070
    73
1070
     1
1070
    44
1040
1.0
1070
    74
1070
     0
1000
MTEXTEND
  0
ATTDEF
  5
626
330
5E9
100
AcDbEntity
  8
0
100
AcDbText
 10
-37.76317379391503
 20
39.25500556178349
 30
0.0
 40
3.0
  1

 72
     2
 11
-37.76317379391503
 21
39.25500556178349
 31
0.0
100
AcDbAttributeDefinition
  3
数量
  2
GEN-TITLE-QTY
 70
     0
  0
LINE
  5
627
330
5E9
100
AcDbEntity
  8
0
100
AcDbLine
 10
-34.0
 20
25.0
 30
0.0
 11
0.0
 21
25.0
 31
0.0
  0
LINE
  5
628
330
5E9
100
AcDbEntity
  8
0
100
AcDbLine
 10
-54.0
 20
50.0
 30
0.0
 11
-54.0
 21
37.5
 31
0.0
  0
MTEXT
  5
629
330
5E9
100
AcDbEntity
  8
RAHM2
100
AcDbMText
 10
-52.80025513713145
 20
48.80103540727964
 30
0.0
 40
2.5
 41
20.0
 71
     1
 72
     5
  1
数量
 73
     1
 44
1.0
1001
ACAD
1000
MTEXTBEGIN
1070
    73
1070
     1
1070
    44
1040
1.0
1070
    74
1070
     0
1000
MTEXTEND
  0
MTEXT
  5
62A
330
5E9
100
AcDbEntity
  8
RAHM2
100
AcDbMText
 10
-25.5
 20
23.80103540727964
 30
0.0
 40
2.5
 41
17.0
 71
     2
 72
     5
  1
承認
 73
     1
 44
1.0
1001
ACAD
1000
MTEXTBEGIN
1070
    73
1070
     1
1070
    44
1040
1.0
1070
    74
1070
     0
1000
MTEXTEND
  0
MTEXT
  5
62B
330
5E9
100
AcDbEntity
  8
RAHM2
100
AcDbMText
 10
-25.5
 20
48.80103540727964
 30
0.0
 40
2.5
 41
17.0
 71
     2
 72
     5
  1
承認
 73
     1
 44
1.0
1001
ACAD
1000
MTEXTBEGIN
1070
    73
1070
     1
1070
    44
1040
1.0
1070
    74
1070
     0
1000
MTEXTEND
  0
POINT
  5
62C
330
5E9
100
AcDbEntity
  8
0
 60
     1
100
AcDbPoint
 10
-320.5355579819676
 20
-138.1104841268254
 30
0.0
1001
GENIUS_GENODEF_13
1002
{
1000
HIER
1070
    10
1002
}
1002
{
1000
MANEDIT
1070
     0
1002
}
1002
{
1000
NOSEL
1070
     0
1002
}
1002
{
1000
BEHIND
1070
     0
1002
}
1002
{
1000
REACTOR
1002
}
1001
GENIUS_GENOBJ-N-CRS_13
1002
{
1000
OWNER
1000
GEN
1002
}
1001
GENIUS_GENOENT_13
1002
{
1000
MYREF
1005
62C
1002
}
1002
{
1000
GRP
1005
0
1002
}
1001
GENIUS_GENOLIS_13
1002
{
1000
ENT
1005
622
1005
621
1005
61C
1005
619
1002
}
  0
LINE
  5
62D
330
5E9
100
AcDbEntity
  8
RAHM2
100
AcDbLine
 10
-190.0
 20
29.60000000000002
 30
0.0
 11
-192.4248711305964
 21
25.40000000000004
 31
0.0
  0
LINE
  5
62E
330
5E9
100
AcDbEntity
  8
RAHM2
100
AcDbLine
 10
-187.5751288694036
 20
25.40000000000004
 30
0.0
 11
-190.0
 21
29.60000000000002
 31
0.0
  0
LINE
  5
62F
330
5E9
100
AcDbEntity
  8
RAHM2
100
AcDbLine
 10
-192.4248711305964
 20
25.40000000000004
 30
0.0
 11
-187.5751288694036
 21
25.40000000000004
 31
0.0
  0
LINE
  5
630
330
5E9
100
AcDbEntity
  8
RAHM2
100
AcDbLine
 10
-195.0
 20
25.00000000000003
 30
0.0
 11
-94.0
 21
25.00000000000003
 31
0.0
  0
MTEXT
  5
631
330
5E9
100
AcDbEntity
  8
RAHM2
100
AcDbMText
 10
-119.4582894723942
 20
27.50000000000003
 30
0.0
 40
2.5
 41
20.0
 71
     5
 72
     5
  1
・  ・   
 73
     1
 44
1.0
1001
ACAD
1000
MTEXTBEGIN
1070
    73
1070
     1
1070
    44
1040
1.0
1070
    74
1070
     0
1000
MTEXTEND
  0
TEXT
  5
632
330
5E9
100
AcDbEntity
  8
RAHM2
100
AcDbText
 10
-190.8155863565801
 20
25.98333333333337
 30
0.0
 40
2.5
  1
1
 72
     1
 11
-190.1905863565802
 21
25.65000000000003
 31
0.0
100
AcDbText
 73
     1
  0
TEXT
  5
633
330
5E9
100
AcDbEntity
  8
RAHM2
100
AcDbText
 10
-190.9183316929134
 20
30.98333333333337
 30
0.0
 40
2.5
  1
2
 72
     1
 11
-190.0
 21
30.65000000000003
 31
0.0
100
AcDbText
 73
     1
  0
TEXT
  5
634
330
5E9
100
AcDbEntity
  8
RAHM2
100
AcDbText
 10
-190.9267766952966
 20
35.98333333333334
 30
0.0
 40
2.5
  1
3
 72
     1
 11
-190.0
 21
35.65000000000001
 31
0.0
100
AcDbText
 73
     1
  0
TEXT
  5
635
330
5E9
100
AcDbEntity
  8
RAHM2
100
AcDbText
 10
-191.0
 20
40.98333333333337
 30
0.0
 40
2.5
  1
4
 72
     1
 11
-190.0
 21
40.65000000000003
 31
0.0
100
AcDbText
 73
     1
  0
TEXT
  5
636
330
5E9
100
AcDbEntity
  8
RAHM2
100
AcDbText
 10
-190.9267766952966
 20
45.98333333333337
 30
0.0
 40
2.5
  1
5
 72
     1
 11
-190.0
 21
45.65000000000003
 31
0.0
100
AcDbText
 73
     1
  0
LINE
  5
637
330
5E9
100
AcDbEntity
  8
0
100
AcDbLine
 10
-17.0
 20
50.0
 30
0.0
 11
-17.0
 21
0.0
 31
0.0
  0
LINE
  5
638
330
5E9
100
AcDbEntity
  8
0
100
AcDbLine
 10
-195.0
 20
0.0
 30
0.0
 11
0.0
 21
0.0
 31
0.0
1001
GENIUS_GENREC_14
1002
{
1000
PYDIR
1011
-184.0
1021
50.0
1031
0.0
1002
}
1002
{
1000
PXDIR
1011
0.0
1021
0.0
1031
0.0
1002
}
1002
{
1000
PORI
1011
-184.0
1021
0.0
1031
0.0
1002
}
1002
{
1000
PINS
1011
-100.5
1021
25.0
1031
0.0
1002
}
1002
{
1000
HVAL
1000
50
1002
}
1002
{
1000
H
1070
     2
1002
}
1002
{
1000
WVAL
1000
167
1002
}
1002
{
1000
W
1070
     2
1002
}
1002
{
1000
C
1070
     4
1002
}
1001
GENIUS_GENODEF_13
1002
{
1000
HIER
1070
     0
1002
}
1002
{
1000
MANEDIT
1070
     0
1002
}
1002
{
1000
NOSEL
1070
     0
1002
}
1002
{
1000
BEHIND
1070
     0
1002
}
1002
{
1000
REACTOR
1002
}
1001
GENIUS_GENOBJ-N-REC_13
1002
{
1000
OWNER
1000
GEN
1002
}
  0
LINE
  5
639
330
5E9
100
AcDbEntity
  8
0
100
AcDbLine
 10
0.0
 20
0.0
 30
0.0
 11
0.0
 21
50.0
 31
0.0
1001
GENIUS_GENREC_14
1002
{
1000
PYDIR
1011
-184.0
1021
50.0
1031
0.0
1002
}
1002
{
1000
PXDIR
1011
0.0
1021
0.0
1031
0.0
1002
}
1002
{
1000
PORI
1011
-184.0
1021
0.0
1031
0.0
1002
}
1002
{
1000
PINS
1011
-100.5
1021
25.0
1031
0.0
1002
}
1002
{
1000
HVAL
1000
50
1002
}
1002
{
1000
H
1070
     2
1002
}
1002
{
1000
WVAL
1000
167
1002
}
1002
{
1000
W
1070
     2
1002
}
1002
{
1000
C
1070
     4
1002
}
1001
GENIUS_GENODEF_13
1002
{
1000
HIER
1070
     0
1002
}
1002
{
1000
MANEDIT
1070
     0
1002
}
1002
{
1000
NOSEL
1070
     0
1002
}
1002
{
1000
BEHIND
1070
     0
1002
}
1002
{
1000
REACTOR
1002
}
1001
GENIUS_GENOBJ-N-REC_13
1002
{
1000
OWNER
1000
GEN
1002
}
  0
LINE
  5
63A
330
5E9
100
AcDbEntity
  8
0
100
AcDbLine
 10
0.0
 20
50.0
 30
0.0
 11
-195.0
 21
50.00000000000003
 31
0.0
1001
GENIUS_GENREC_14
1002
{
1000
PYDIR
1011
-184.0
1021
50.0
1031
0.0
1002
}
1002
{
1000
PXDIR
1011
0.0
1021
0.0
1031
0.0
1002
}
1002
{
1000
PORI
1011
-184.0
1021
0.0
1031
0.0
1002
}
1002
{
1000
PINS
1011
-100.5
1021
25.0
1031
0.0
1002
}
1002
{
1000
HVAL
1000
50
1002
}
1002
{
1000
H
1070
     2
1002
}
1002
{
1000
WVAL
1000
167
1002
}
1002
{
1000
W
1070
     2
1002
}
1002
{
1000
C
1070
     4
1002
}
1001
GENIUS_GENODEF_13
1002
{
1000
HIER
1070
     0
1002
}
1002
{
1000
MANEDIT
1070
     0
1002
}
1002
{
1000
NOSEL
1070
     0
1002
}
1002
{
1000
BEHIND
1070
     0
1002
}
1002
{
1000
REACTOR
1002
}
1001
GENIUS_GENOBJ-N-REC_13
1002
{
1000
OWNER
1000
GEN
1002
}
  0
LINE
  5
63B
330
5E9
100
AcDbEntity
  8
0
100
AcDbLine
 10
-195.0
 20
50.00000000000003
 30
0.0
 11
-195.0
 21
0.0
 31
0.0
1001
GENIUS_GENREC_14
1002
{
1000
PYDIR
1011
-195.0
1021
50.0
1031
0.0
1002
}
1002
{
1000
PXDIR
1011
-11.0
1021
0.0
1031
0.0
1002
}
1002
{
1000
PORI
1011
-195.0
1021
0.0
1031
0.0
1002
}
1002
{
1000
PINS
1011
-111.5
1021
25.0
1031
0.0
1002
}
1002
{
1000
HVAL
1000
50
1002
}
1002
{
1000
H
1070
     2
1002
}
1002
{
1000
WVAL
1000
167
1002
}
1002
{
1000
W
1070
     2
1002
}
1002
{
1000
C
1070
     4
1002
}
1001
GENIUS_GENODEF_13
1002
{
1000
HIER
1070
     0
1002
}
1002
{
1000
MANEDIT
1070
     0
1002
}
1002
{
1000
NOSEL
1070
     0
1002
}
1002
{
1000
BEHIND
1070
     0
1002
}
1002
{
1000
REACTOR
1002
}
1001
GENIUS_GENOBJ-N-REC_13
1002
{
1000
OWNER
1000
GEN
1002
}
  0
MTEXT
  5
63C
330
5E9
100
AcDbEntity
  8
RAHM2
100
AcDbMText
 10
-8.5
 20
48.80103540727964
 30
0.0
 40
2.5
 41
17.0
 71
     2
 72
     5
  1
検図
 73
     1
 44
1.0
1001
ACAD
1000
MTEXTBEGIN
1070
    73
1070
     1
1070
    44
1040
1.0
1070
    74
1070
     0
1000
MTEXTEND
  0
MTEXT
  5
63D
330
5E9
100
AcDbEntity
  8
RAHM2
100
AcDbMText
 10
-8.5
 20
23.80103540727964
 30
0.0
 40
2.5
 41
17.0
 71
     2
 72
     5
  1
製図
 73
     1
 44
1.0
1001
ACAD
1000
MTEXTBEGIN
1070
    73
1070
     1
1070
    44
1040
1.0
1070
    74
1070
     0
1000
MTEXTEND
  0
ENDBLK
  5
640
330
5E9
100
AcDbEntity
  8
0
100
AcDbBlockEnd
  0
BLOCK
  5
877
330
7DC
100
AcDbEntity
  8
0
100
AcDbBlockBegin
  2
*D9
 70
     1
 10
0.0
 20
0.0
 30
0.0
  3
*D9
  1

  0
LINE
  5
CC8
330
7DC
100
AcDbEntity
  8
AM_5
100
AcDbLine
 10
80.12641769688896
 20
231.9846274249428
 30
0.0
 11
80.12641769688896
 21
243.9846274249427
 31
0.0
  0
LINE
  5
CC9
330
7DC
100
AcDbEntity
  8
AM_5
100
AcDbLine
 10
69.96641769688896
 20
231.9846274249428
 30
0.0
 11
69.96641769688896
 21
243.9846274249427
 31
0.0
  0
LINE
  5
CCA
330
7DC
100
AcDbEntity
  8
AM_5
100
AcDbLine
 10
77.62641769688895
 20
242.9846274249427
 30
0.0
 11
72.46641769688896
 21
242.9846274249427
 31
0.0
  0
LINE
  5
CCB
330
7DC
100
AcDbEntity
  8
AM_5
100
AcDbLine
 10
69.96641769688896
 20
242.9846274249427
 30
0.0
 11
55.89279564964486
 21
242.9846274249427
 31
0.0
  0
INSERT
  5
CCC
330
7DC
100
AcDbEntity
  8
AM_5
100
AcDbBlockReference
  2
_Open30
 10
80.12641769688896
 20
242.9846274249427
 30
0.0
 41
2.5
 42
2.5
 43
2.5
  0
INSERT
  5
CCD
330
7DC
100
AcDbEntity
  8
AM_5
100
AcDbBlockReference
  2
_Open30
 10
69.96641769688896
 20
242.9846274249427
 30
0.0
 41
2.5
 42
2.5
 43
2.5
 50
180.0
  0
MTEXT
  5
CCE
330
7DC
100
AcDbEntity
  8
AM_5
 62
     2
100
AcDbMText
 10
61.6796066732669
 20
246.2346274249427
 30
0.0
 40
3.5
 41
0.0
 71
     5
 72
     1
  1
10.16
 73
     1
 44
1.0
1001
ACAD
1000
MTEXTBEGIN
1070
    73
1070
     1
1070
    44
1040
1.0
1070
    74
1070
     0
1000
MTEXTEND
  0
POINT
  5
CCF
330
7DC
100
AcDbEntity
  8
Defpoints
 62
     0
100
AcDbPoint
 10
80.12641769688896
 20
230.9846274249428
 30
0.0
  0
POINT
  5
CD0
330
7DC
100
AcDbEntity
  8
Defpoints
 62
     0
100
AcDbPoint
 10
69.96641769688896
 20
230.9846274249428
 30
0.0
  0
POINT
  5
CD1
330
7DC
100
AcDbEntity
  8
Defpoints
 62
     0
100
AcDbPoint
 10
69.96641769688896
 20
242.9846274249427
 30
0.0
  0
ENDBLK
  5
878
330
7DC
100
AcDbEntity
  8
0
100
AcDbBlockEnd
  0
BLOCK
  5
879
330
7E7
100
AcDbEntity
  8
0
100
AcDbBlockBegin
  2
*D10
 70
     1
 10
0.0
 20
0.0
 30
0.0
  3
*D10
  1

  0
LINE
  5
ECC
330
7E7
100
AcDbEntity
  8
AM_5
100
AcDbLine
 10
68.09641769688894
 20
115.2182461101152
 30
0.0
 11
68.09641769688894
 21
103.2182461101152
 31
0.0
  0
LINE
  5
ECD
330
7E7
100
AcDbEntity
  8
AM_5
100
AcDbLine
 10
81.99641769688895
 20
115.2182461101152
 30
0.0
 11
81.99641769688895
 21
103.2182461101152
 31
0.0
  0
LINE
  5
ECE
330
7E7
100
AcDbEntity
  8
AM_5
100
AcDbLine
 10
70.59641769688894
 20
104.2182461101152
 30
0.0
 11
79.49641769688895
 21
104.2182461101152
 31
0.0
  0
INSERT
  5
ECF
330
7E7
100
AcDbEntity
  8
AM_5
100
AcDbBlockReference
  2
_Open30
 10
68.09641769688894
 20
104.2182461101152
 30
0.0
 41
2.5
 42
2.5
 43
2.5
 50
180.0
  0
INSERT
  5
ED0
330
7E7
100
AcDbEntity
  8
AM_5
100
AcDbBlockReference
  2
_Open30
 10
81.99641769688895
 20
104.2182461101152
 30
0.0
 41
2.5
 42
2.5
 43
2.5
  0
MTEXT
  5
ED1
330
7E7
100
AcDbEntity
  8
AM_5
 62
     2
100
AcDbMText
 10
75.04641769688895
 20
107.4682461101152
 30
0.0
 40
3.5
 41
0.0
 71
     5
 72
     1
  1
13.9
 73
     1
 44
1.0
1001
ACAD
1000
MTEXTBEGIN
1070
    73
1070
     1
1070
    44
1040
1.0
1070
    74
1070
     0
1000
MTEXTEND
  0
POINT
  5
ED2
330
7E7
100
AcDbEntity
  8
Defpoints
 62
     0
100
AcDbPoint
 10
68.09641769688894
 20
116.2182461101152
 30
0.0
  0
POINT
  5
ED3
330
7E7
100
AcDbEntity
  8
Defpoints
 62
     0
100
AcDbPoint
 10
81.99641769688895
 20
116.2182461101152
 30
0.0
  0
POINT
  5
ED4
330
7E7
100
AcDbEntity
  8
Defpoints
 62
     0
100
AcDbPoint
 10
81.99641769688895
 20
104.2182461101152
 30
0.0
  0
ENDBLK
  5
87A
330
7E7
100
AcDbEntity
  8
0
100
AcDbBlockEnd
  0
BLOCK
  5
87B
330
7F1
100
AcDbEntity
  8
0
100
AcDbBlockBegin
  2
*D11
 70
     1
 10
0.0
 20
0.0
 30
0.0
  3
*D11
  1

  0
LINE
  5
CA2
330
7F1
100
AcDbEntity
  8
AM_5
100
AcDbLine
 10
105.3498415836694
 20
129.6182461101152
 30
0.0
 11
117.3498425836694
 21
129.6182461101152
 31
0.0
  0
LINE
  5
CA3
330
7F1
100
AcDbEntity
  8
AM_5
100
AcDbLine
 10
105.3498415836694
 20
116.2182461101152
 30
0.0
 11
117.3498425836694
 21
116.2182461101152
 31
0.0
  0
LINE
  5
CA4
330
7F1
100
AcDbEntity
  8
AM_5
100
AcDbLine
 10
116.3498425836694
 20
127.1182461101152
 30
0.0
 11
116.3498425836694
 21
118.7182461101152
 31
0.0
  0
INSERT
  5
CA5
330
7F1
100
AcDbEntity
  8
AM_5
100
AcDbBlockReference
  2
_Open30
 10
116.3498425836694
 20
129.6182461101152
 30
0.0
 41
2.5
 42
2.5
 43
2.5
 50
90.0
  0
INSERT
  5
CA6
330
7F1
100
AcDbEntity
  8
AM_5
100
AcDbBlockReference
  2
_Open30
 10
116.3498425836694
 20
116.2182461101152
 30
0.0
 41
2.5
 42
2.5
 43
2.5
 50
270.0
  0
MTEXT
  5
CA7
330
7F1
100
AcDbEntity
  8
AM_5
 62
     2
100
AcDbMText
 10
113.0998425836694
 20
122.9182461101153
 30
0.0
 40
3.5
 41
0.0
 71
     5
 72
     1
  1
13.4
 11
0.0000000000000001
 21
1.0
 31
0.0
 73
     1
 44
1.0
1001
ACAD
1000
MTEXTBEGIN
1070
    73
1070
     1
1070
    44
1040
1.0
1070
    74
1070
     0
1000
MTEXTEND
  0
POINT
  5
CA8
330
7F1
100
AcDbEntity
  8
Defpoints
 62
     0
100
AcDbPoint
 10
104.3498415836694
 20
129.6182461101152
 30
0.0
  0
POINT
  5
CA9
330
7F1
100
AcDbEntity
  8
Defpoints
 62
     0
100
AcDbPoint
 10
104.3498415836694
 20
116.2182461101152
 30
0.0
  0
POINT
  5
CAA
330
7F1
100
AcDbEntity
  8
Defpoints
 62
     0
100
AcDbPoint
 10
116.3498425836694
 20
116.2182461101152
 30
0.0
  0
ENDBLK
  5
87C
330
7F1
100
AcDbEntity
  8
0
100
AcDbBlockEnd
  0
BLOCK
  5
87D
330
7FB
100
AcDbEntity
  8
0
100
AcDbBlockBegin
  2
*D12
 70
     1
 10
0.0
 20
0.0
 30
0.0
  3
*D12
  1

  0
LINE
  5
EE4
330
7FB
100
AcDbEntity
  8
AM_5
100
AcDbLine
 10
68.09641769688894
 20
179.3962375092654
 30
0.0
 11
68.09641769688894
 21
167.3962375092654
 31
0.0
  0
LINE
  5
EE5
330
7FB
100
AcDbEntity
  8
AM_5
100
AcDbLine
 10
81.99641769688895
 20
179.3962375092654
 30
0.0
 11
81.99641769688895
 21
167.3962375092654
 31
0.0
  0
LINE
  5
EE6
330
7FB
100
AcDbEntity
  8
AM_5
100
AcDbLine
 10
70.59641769688894
 20
168.3962375092654
 30
0.0
 11
79.49641769688895
 21
168.3962375092654
 31
0.0
  0
INSERT
  5
EE7
330
7FB
100
AcDbEntity
  8
AM_5
100
AcDbBlockReference
  2
_Open30
 10
68.09641769688894
 20
168.3962375092654
 30
0.0
 41
2.5
 42
2.5
 43
2.5
 50
180.0
  0
INSERT
  5
EE8
330
7FB
100
AcDbEntity
  8
AM_5
100
AcDbBlockReference
  2
_Open30
 10
81.99641769688895
 20
168.3962375092654
 30
0.0
 41
2.5
 42
2.5
 43
2.5
  0
MTEXT
  5
EE9
330
7FB
100
AcDbEntity
  8
AM_5
 62
     2
100
AcDbMText
 10
75.04641769688895
 20
171.6462375092654
 30
0.0
 40
3.5
 41
0.0
 71
     5
 72
     1
  1
13.9
 73
     1
 44
1.0
1001
ACAD
1000
MTEXTBEGIN
1070
    73
1070
     1
1070
    44
1040
1.0
1070
    74
1070
     0
1000
MTEXTEND
  0
POINT
  5
EEA
330
7FB
100
AcDbEntity
  8
Defpoints
 62
     0
100
AcDbPoint
 10
68.09641769688894
 20
180.3962375092654
 30
0.0
  0
POINT
  5
EEB
330
7FB
100
AcDbEntity
  8
Defpoints
 62
     0
100
AcDbPoint
 10
81.99641769688895
 20
180.3962375092654
 30
0.0
  0
POINT
  5
EEC
330
7FB
100
AcDbEntity
  8
Defpoints
 62
     0
100
AcDbPoint
 10
81.99641769688895
 20
168.3962375092654
 30
0.0
  0
ENDBLK
  5
87E
330
7FB
100
AcDbEntity
  8
0
100
AcDbBlockEnd
  0
BLOCK
  5
883
330
81B
100
AcDbEntity
  8
0
100
AcDbBlockBegin
  2
*D13
 70
     1
 10
0.0
 20
0.0
 30
0.0
  3
*D13
  1

  0
LINE
  5
EDB
330
81B
100
AcDbEntity
  8
AM_5
100
AcDbLine
 10
67.09641769688895
 20
195.3962375092654
 30
0.0
 11
60.7746475313561
 21
195.3962375092654
 31
0.0
  0
LINE
  5
EDC
330
81B
100
AcDbEntity
  8
AM_5
100
AcDbLine
 10
67.09641769688895
 20
180.3962375092654
 30
0.0
 11
60.7746475313561
 21
180.3962375092655
 31
0.0
  0
LINE
  5
EDD
330
81B
100
AcDbEntity
  8
AM_5
100
AcDbLine
 10
61.7746475313561
 20
192.8962375092654
 30
0.0
 11
61.7746475313561
 21
182.8962375092655
 31
0.0
  0
INSERT
  5
EDE
330
81B
100
AcDbEntity
  8
AM_5
100
AcDbBlockReference
  2
_Open30
 10
61.7746475313561
 20
195.3962375092654
 30
0.0
 41
2.5
 42
2.5
 43
2.5
 50
90.0
  0
INSERT
  5
EDF
330
81B
100
AcDbEntity
  8
AM_5
100
AcDbBlockReference
  2
_Open30
 10
61.7746475313561
 20
180.3962375092655
 30
0.0
 41
2.5
 42
2.5
 43
2.5
 50
270.0
  0
MTEXT
  5
EE0
330
81B
100
AcDbEntity
  8
AM_5
 62
     2
100
AcDbMText
 10
58.52464753135607
 20
188.770244917108
 30
0.0
 40
3.5
 41
0.0
 71
     5
 72
     1
  1
15
 11
0.0000000000000001
 21
1.0
 31
0.0
 73
     1
 44
1.0
1001
ACAD
1000
MTEXTBEGIN
1070
    73
1070
     1
1070
    44
1040
1.0
1070
    74
1070
     0
1000
MTEXTEND
  0
POINT
  5
EE1
330
81B
100
AcDbEntity
  8
Defpoints
 62
     0
100
AcDbPoint
 10
68.09641769688894
 20
195.3962375092654
 30
0.0
  0
POINT
  5
EE2
330
81B
100
AcDbEntity
  8
Defpoints
 62
     0
100
AcDbPoint
 10
68.09641769688894
 20
180.3962375092654
 30
0.0
  0
POINT
  5
EE3
330
81B
100
AcDbEntity
  8
Defpoints
 62
     0
100
AcDbPoint
 10
61.7746475313561
 20
180.3962375092655
 30
0.0
  0
ENDBLK
  5
884
330
81B
100
AcDbEntity
  8
0
100
AcDbBlockEnd
  0
BLOCK
  5
885
330
825
100
AcDbEntity
  8
0
100
AcDbBlockBegin
  2
*D14
 70
     1
 10
0.0
 20
0.0
 30
0.0
  3
*D14
  1

  0
LINE
  5
CBD
330
825
100
AcDbEntity
  8
AM_5
100
AcDbLine
 10
80.12641769688896
 20
231.9846274249428
 30
0.0
 11
80.12641769688896
 21
243.9846274249428
 31
0.0
  0
LINE
  5
CBE
330
825
100
AcDbEntity
  8
AM_5
100
AcDbLine
 10
81.9964176968889
 20
229.6846274249427
 30
0.0
 11
81.9964176968889
 21
243.9846274249428
 31
0.0
  0
LINE
  5
CBF
330
825
100
AcDbEntity
  8
AM_5
100
AcDbLine
 10
77.62641769688895
 20
242.9846274249428
 30
0.0
 11
75.12641769688895
 21
242.9846274249428
 31
0.0
  0
LINE
  5
CC0
330
825
100
AcDbEntity
  8
AM_5
100
AcDbLine
 10
84.4964176968889
 20
242.9846274249428
 30
0.0
 11
96.64641769688891
 21
242.9846274249428
 31
0.0
  0
LINE
  5
CC1
330
825
100
AcDbEntity
  8
AM_5
100
AcDbLine
 10
80.12641769688896
 20
242.9846274249428
 30
0.0
 11
81.9964176968889
 21
242.9846274249428
 31
0.0
  0
INSERT
  5
CC2
330
825
100
AcDbEntity
  8
AM_5
100
AcDbBlockReference
  2
_Open30
 10
80.12641769688896
 20
242.9846274249428
 30
0.0
 41
2.5
 42
2.5
 43
2.5
  0
INSERT
  5
CC3
330
825
100
AcDbEntity
  8
AM_5
100
AcDbBlockReference
  2
_Open30
 10
81.9964176968889
 20
242.9846274249428
 30
0.0
 41
2.5
 42
2.5
 43
2.5
 50
180.0
  0
MTEXT
  5
CC4
330
825
100
AcDbEntity
  8
AM_5
 62
     2
100
AcDbMText
 10
91.8214176968889
 20
246.2346274249428
 30
0.0
 40
3.5
 41
0.0
 71
     5
 72
     1
  1
1.87
 73
     1
 44
1.0
1001
ACAD
1000
MTEXTBEGIN
1070
    73
1070
     1
1070
    44
1040
1.0
1070
    74
1070
     0
1000
MTEXTEND
  0
POINT
  5
CC5
330
825
100
AcDbEntity
  8
Defpoints
 62
     0
100
AcDbPoint
 10
80.12641769688896
 20
230.9846274249428
 30
0.0
  0
POINT
  5
CC6
330
825
100
AcDbEntity
  8
Defpoints
 62
     0
100
AcDbPoint
 10
81.9964176968889
 20
228.6846274249427
 30
0.0
  0
POINT
  5
CC7
330
825
100
AcDbEntity
  8
Defpoints
 62
     0
100
AcDbPoint
 10
81.9964176968889
 20
242.9846274249428
 30
0.0
  0
ENDBLK
  5
886
330
825
100
AcDbEntity
  8
0
100
AcDbBlockEnd
  0
BLOCK
  5
887
330
83B
100
AcDbEntity
  8
0
100
AcDbBlockBegin
  2
*D15
 70
     1
 10
0.0
 20
0.0
 30
0.0
  3
*D15
  1

  0
LINE
  5
CD2
330
83B
100
AcDbEntity
  8
AM_5
100
AcDbLine
 10
102.8498415836694
 20
195.3962375092654
 30
0.0
 11
102.8498415836694
 21
205.2317266282896
 31
0.0
  0
LINE
  5
CD3
330
83B
100
AcDbEntity
  8
AM_5
100
AcDbLine
 10
104.3498415836694
 20
195.3962375092654
 30
0.0
 11
104.3498415836694
 21
205.2317266282896
 31
0.0
  0
LINE
  5
CD4
330
83B
100
AcDbEntity
  8
AM_5
100
AcDbLine
 10
100.3498415836694
 20
204.2317266282896
 30
0.0
 11
97.84984158366945
 21
204.2317266282896
 31
0.0
  0
LINE
  5
CD5
330
83B
100
AcDbEntity
  8
AM_5
100
AcDbLine
 10
106.8498415836694
 20
204.2317266282896
 30
0.0
 11
116.6948163305
 21
204.2317266282896
 31
0.0
  0
LINE
  5
CD6
330
83B
100
AcDbEntity
  8
AM_5
100
AcDbLine
 10
102.8498415836694
 20
204.2317266282896
 30
0.0
 11
104.3498415836694
 21
204.2317266282896
 31
0.0
  0
INSERT
  5
CD7
330
83B
100
AcDbEntity
  8
AM_5
100
AcDbBlockReference
  2
_Open30
 10
102.8498415836694
 20
204.2317266282896
 30
0.0
 41
2.5
 42
2.5
 43
2.5
  0
INSERT
  5
CD8
330
83B
100
AcDbEntity
  8
AM_5
100
AcDbBlockReference
  2
_Open30
 10
104.3498415836694
 20
204.2317266282896
 30
0.0
 41
2.5
 42
2.5
 43
2.5
 50
180.0
  0
MTEXT
  5
CD9
330
83B
100
AcDbEntity
  8
AM_5
 62
     2
100
AcDbMText
 10
113.0223289570847
 20
207.4817266282896
 30
0.0
 40
3.5
 41
0.0
 71
     5
 72
     1
  1
1.5
 73
     1
 44
1.0
1001
ACAD
1000
MTEXTBEGIN
1070
    73
1070
     1
1070
    44
1040
1.0
1070
    74
1070
     0
1000
MTEXTEND
  0
POINT
  5
CDA
330
83B
100
AcDbEntity
  8
Defpoints
 62
     0
100
AcDbPoint
 10
102.8498415836694
 20
194.3962375092654
 30
0.0
  0
POINT
  5
CDB
330
83B
100
AcDbEntity
  8
Defpoints
 62
     0
100
AcDbPoint
 10
104.3498415836694
 20
194.3962375092654
 30
0.0
  0
POINT
  5
CDC
330
83B
100
AcDbEntity
  8
Defpoints
 62
     0
100
AcDbPoint
 10
104.3498415836694
 20
204.2317266282896
 30
0.0
  0
ENDBLK
  5
888
330
83B
100
AcDbEntity
  8
0
100
AcDbBlockEnd
  0
BLOCK
  5
889
330
847
100
AcDbEntity
  8
0
100
AcDbBlockBegin
  2
*D16
 70
     1
 10
0.0
 20
0.0
 30
0.0
  3
*D16
  1

  0
LINE
  5
D23
330
847
100
AcDbEntity
  8
AM_5
100
AcDbLine
 10
75.04641769688896
 20
188.8962375092654
 30
0.0
 11
75.04641769688896
 21
205.0853252099439
 31
0.0
  0
LINE
  5
D24
330
847
100
AcDbEntity
  8
AM_5
100
AcDbLine
 10
81.99641769688897
 20
196.3962375092654
 30
0.0
 11
81.99641769688897
 21
205.0853252099439
 31
0.0
  0
LINE
  5
D25
330
847
100
AcDbEntity
  8
AM_5
100
AcDbLine
 10
72.54641769688896
 20
204.0853252099439
 30
0.0
 11
70.04641769688896
 21
204.0853252099439
 31
0.0
  0
LINE
  5
D26
330
847
100
AcDbEntity
  8
AM_5
100
AcDbLine
 10
84.49641769688897
 20
204.0853252099439
 30
0.0
 11
86.99641769688897
 21
204.0853252099439
 31
0.0
  0
LINE
  5
D27
330
847
100
AcDbEntity
  8
AM_5
100
AcDbLine
 10
75.04641769688896
 20
204.0853252099439
 30
0.0
 11
81.99641769688897
 21
204.0853252099439
 31
0.0
  0
INSERT
  5
D28
330
847
100
AcDbEntity
  8
AM_5
100
AcDbBlockReference
  2
_Open30
 10
75.04641769688896
 20
204.0853252099439
 30
0.0
 41
2.5
 42
2.5
 43
2.5
  0
INSERT
  5
D29
330
847
100
AcDbEntity
  8
AM_5
100
AcDbBlockReference
  2
_Open30
 10
81.99641769688897
 20
204.0853252099439
 30
0.0
 41
2.5
 42
2.5
 43
2.5
 50
180.0
  0
MTEXT
  5
D2A
330
847
100
AcDbEntity
  8
AM_5
 62
     2
100
AcDbMText
 10
78.52141769688896
 20
207.3353252099439
 30
0.0
 40
3.5
 41
0.0
 71
     5
 72
     1
  1
6.95
 73
     1
 44
1.0
1001
ACAD
1000
MTEXTBEGIN
1070
    73
1070
     1
1070
    44
1040
1.0
1070
    74
1070
     0
1000
MTEXTEND
  0
POINT
  5
D2B
330
847
100
AcDbEntity
  8
Defpoints
 62
     0
100
AcDbPoint
 10
75.04641769688896
 20
187.8962375092654
 30
0.0
  0
POINT
  5
D2C
330
847
100
AcDbEntity
  8
Defpoints
 62
     0
100
AcDbPoint
 10
81.99641769688897
 20
195.3962375092654
 30
0.0
  0
POINT
  5
D2D
330
847
100
AcDbEntity
  8
Defpoints
 62
     0
100
AcDbPoint
 10
81.99641769688897
 20
204.0853252099439
 30
0.0
  0
ENDBLK
  5
88A
330
847
100
AcDbEntity
  8
0
100
AcDbBlockEnd
  0
BLOCK
  5
88D
330
85F
100
AcDbEntity
  8
0
100
AcDbBlockBegin
  2
*D17
 70
     1
 10
0.0
 20
0.0
 30
0.0
  3
*D17
  1

  0
LINE
  5
CE8
330
85F
100
AcDbEntity
  8
AM_5
100
AcDbLine
 10
119.4498415836694
 20
189.0462375092654
 30
0.0
 11
129.1537051819874
 21
189.0462375092654
 31
0.0
  0
LINE
  5
CE9
330
85F
100
AcDbEntity
  8
AM_5
100
AcDbLine
 10
119.4498415836694
 20
186.7462375092654
 30
0.0
 11
129.1537051819874
 21
186.7462375092654
 31
0.0
  0
LINE
  5
CEA
330
85F
100
AcDbEntity
  8
AM_5
100
AcDbLine
 10
128.1537051819874
 20
184.2462375092654
 30
0.0
 11
128.1537051819874
 21
181.7462375092654
 31
0.0
  0
LINE
  5
CEB
330
85F
100
AcDbEntity
  8
AM_5
100
AcDbLine
 10
128.1537051819874
 20
191.5462375092653
 30
0.0
 11
128.1537051819875
 21
202.1800902088519
 31
0.0
  0
LINE
  5
CEC
330
85F
100
AcDbEntity
  8
AM_5
100
AcDbLine
 10
128.1537051819874
 20
186.7462375092654
 30
0.0
 11
128.1537051819874
 21
189.0462375092654
 31
0.0
  0
INSERT
  5
CED
330
85F
100
AcDbEntity
  8
AM_5
100
AcDbBlockReference
  2
_Open30
 10
128.1537051819874
 20
186.7462375092654
 30
0.0
 41
2.5
 42
2.5
 43
2.5
 50
90.0
  0
INSERT
  5
CEE
330
85F
100
AcDbEntity
  8
AM_5
100
AcDbBlockReference
  2
_Open30
 10
128.1537051819874
 20
189.0462375092654
 30
0.0
 41
2.5
 42
2.5
 43
2.5
 50
270.0
  0
MTEXT
  5
CEF
330
85F
100
AcDbEntity
  8
AM_5
 62
     2
100
AcDbMText
 10
124.9033606937985
 20
198.1131638590586
 30
0.0
 40
3.5
 41
0.0
 71
     5
 72
     1
  1
2.3
 11
0.0000000000000001
 21
1.0
 31
0.0
 73
     1
 44
1.0
1001
ACAD
1000
MTEXTBEGIN
1070
    73
1070
     1
1070
    44
1040
1.0
1070
    74
1070
     0
1000
MTEXTEND
  0
POINT
  5
CF0
330
85F
100
AcDbEntity
  8
Defpoints
 62
     0
100
AcDbPoint
 10
118.4498415836694
 20
189.0462375092654
 30
0.0
  0
POINT
  5
CF1
330
85F
100
AcDbEntity
  8
Defpoints
 62
     0
100
AcDbPoint
 10
118.4498415836694
 20
186.7462375092654
 30
0.0
  0
POINT
  5
CF2
330
85F
100
AcDbEntity
  8
Defpoints
 62
     0
100
AcDbPoint
 10
128.1537051819874
 20
186.7462375092654
 30
0.0
  0
ENDBLK
  5
88E
330
85F
100
AcDbEntity
  8
0
100
AcDbBlockEnd
  0
BLOCK
  5
931
330
8C9
100
AcDbEntity
  8
0
100
AcDbBlockBegin
  2
*D18
 70
     1
 10
0.0
 20
0.0
 30
0.0
  3
*D18
  1

  0
LINE
  5
CF3
330
8C9
100
AcDbEntity
  8
AM_5
100
AcDbLine
 10
102.8498415836694
 20
179.3962375092654
 30
0.0
 11
102.8498415836694
 21
167.3962375092654
 31
0.0
  0
LINE
  5
CF4
330
8C9
100
AcDbEntity
  8
AM_5
100
AcDbLine
 10
116.8498415836694
 20
182.8962375092654
 30
0.0
 11
116.8498415836694
 21
167.3962375092654
 31
0.0
  0
LINE
  5
CF5
330
8C9
100
AcDbEntity
  8
AM_5
100
AcDbLine
 10
105.3498415836694
 20
168.3962375092654
 30
0.0
 11
114.3498415836694
 21
168.3962375092654
 31
0.0
  0
INSERT
  5
CF6
330
8C9
100
AcDbEntity
  8
AM_5
100
AcDbBlockReference
  2
_Open30
 10
102.8498415836694
 20
168.3962375092654
 30
0.0
 41
2.5
 42
2.5
 43
2.5
 50
180.0
  0
INSERT
  5
CF7
330
8C9
100
AcDbEntity
  8
AM_5
100
AcDbBlockReference
  2
_Open30
 10
116.8498415836694
 20
168.3962375092654
 30
0.0
 41
2.5
 42
2.5
 43
2.5
  0
MTEXT
  5
CF8
330
8C9
100
AcDbEntity
  8
AM_5
 62
     2
100
AcDbMText
 10
109.8498415836694
 20
171.6462375092654
 30
0.0
 40
3.5
 41
0.0
 71
     5
 72
     1
  1
14
 73
     1
 44
1.0
1001
ACAD
1000
MTEXTBEGIN
1070
    73
1070
     1
1070
    44
1040
1.0
1070
    74
1070
     0
1000
MTEXTEND
  0
POINT
  5
CF9
330
8C9
100
AcDbEntity
  8
Defpoints
 62
     0
100
AcDbPoint
 10
102.8498415836694
 20
180.3962375092654
 30
0.0
  0
POINT
  5
CFA
330
8C9
100
AcDbEntity
  8
Defpoints
 62
     0
100
AcDbPoint
 10
116.8498415836694
 20
183.8962375092654
 30
0.0
  0
POINT
  5
CFB
330
8C9
100
AcDbEntity
  8
Defpoints
 62
     0
100
AcDbPoint
 10
116.8498415836694
 20
168.3962375092654
 30
0.0
  0
ENDBLK
  5
932
330
8C9
100
AcDbEntity
  8
0
100
AcDbBlockEnd
  0
BLOCK
  5
933
330
8ED
100
AcDbEntity
  8
0
100
AcDbBlockBegin
  2
*D19
 70
     1
 10
0.0
 20
0.0
 30
0.0
  3
*D19
  1

  0
LINE
  5
CFC
330
8ED
100
AcDbEntity
  8
AM_5
100
AcDbLine
 10
108.8498415836694
 20
182.8962375092654
 30
0.0
 11
108.8498415836694
 21
174.63036883821
 31
0.0
  0
LINE
  5
CFD
330
8ED
100
AcDbEntity
  8
AM_5
100
AcDbLine
 10
116.8498415836694
 20
182.8962375092654
 30
0.0
 11
116.8498415836694
 21
174.63036883821
 31
0.0
  0
LINE
  5
CFE
330
8ED
100
AcDbEntity
  8
AM_5
100
AcDbLine
 10
106.3498415836694
 20
175.63036883821
 30
0.0
 11
103.8498415836694
 21
175.63036883821
 31
0.0
  0
LINE
  5
CFF
330
8ED
100
AcDbEntity
  8
AM_5
100
AcDbLine
 10
119.3498415836694
 20
175.63036883821
 30
0.0
 11
121.8498415836694
 21
175.63036883821
 31
0.0
  0
LINE
  5
D00
330
8ED
100
AcDbEntity
  8
AM_5
100
AcDbLine
 10
108.8498415836694
 20
175.63036883821
 30
0.0
 11
116.8498415836694
 21
175.63036883821
 31
0.0
  0
INSERT
  5
D01
330
8ED
100
AcDbEntity
  8
AM_5
100
AcDbBlockReference
  2
_Open30
 10
108.8498415836694
 20
175.63036883821
 30
0.0
 41
2.5
 42
2.5
 43
2.5
  0
INSERT
  5
D02
330
8ED
100
AcDbEntity
  8
AM_5
100
AcDbBlockReference
  2
_Open30
 10
116.8498415836694
 20
175.63036883821
 30
0.0
 41
2.5
 42
2.5
 43
2.5
 50
180.0
  0
MTEXT
  5
D03
330
8ED
100
AcDbEntity
  8
AM_5
 62
     2
100
AcDbMText
 10
112.8498415836694
 20
178.88036883821
 30
0.0
 40
3.5
 41
0.0
 71
     5
 72
     1
  1
8
 73
     1
 44
1.0
1001
ACAD
1000
MTEXTBEGIN
1070
    73
1070
     1
1070
    44
1040
1.0
1070
    74
1070
     0
1000
MTEXTEND
  0
POINT
  5
D04
330
8ED
100
AcDbEntity
  8
Defpoints
 62
     0
100
AcDbPoint
 10
108.8498415836694
 20
183.8962375092654
 30
0.0
  0
POINT
  5
D05
330
8ED
100
AcDbEntity
  8
Defpoints
 62
     0
100
AcDbPoint
 10
116.8498415836694
 20
183.8962375092654
 30
0.0
  0
POINT
  5
D06
330
8ED
100
AcDbEntity
  8
Defpoints
 62
     0
100
AcDbPoint
 10
116.8498415836694
 20
175.63036883821
 30
0.0
  0
ENDBLK
  5
934
330
8ED
100
AcDbEntity
  8
0
100
AcDbBlockEnd
  0
BLOCK
  5
935
330
915
100
AcDbEntity
  8
0
100
AcDbBlockBegin
  2
*D20
 70
     1
 10
0.0
 20
0.0
 30
0.0
  3
*D20
  1

  0
LINE
  5
D07
330
915
100
AcDbEntity
  8
AM_5
100
AcDbLine
 10
116.8498415836694
 20
182.8962375092654
 30
0.0
 11
116.8498415836694
 21
167.3962375092654
 31
0.0
  0
LINE
  5
D08
330
915
100
AcDbEntity
  8
AM_5
100
AcDbLine
 10
119.1498415836694
 20
186.1462375092654
 30
0.0
 11
119.1498415836694
 21
167.3962375092654
 31
0.0
  0
LINE
  5
D09
330
915
100
AcDbEntity
  8
AM_5
100
AcDbLine
 10
114.3498415836694
 20
168.3962375092654
 30
0.0
 11
111.8498415836694
 21
168.3962375092654
 31
0.0
  0
LINE
  5
D0A
330
915
100
AcDbEntity
  8
AM_5
100
AcDbLine
 10
121.6498415836694
 20
168.3962375092654
 30
0.0
 11
132.2836942832559
 21
168.3962375092654
 31
0.0
  0
LINE
  5
D0B
330
915
100
AcDbEntity
  8
AM_5
100
AcDbLine
 10
116.8498415836694
 20
168.3962375092654
 30
0.0
 11
119.1498415836694
 21
168.3962375092654
 31
0.0
  0
INSERT
  5
D0C
330
915
100
AcDbEntity
  8
AM_5
100
AcDbBlockReference
  2
_Open30
 10
116.8498415836694
 20
168.3962375092654
 30
0.0
 41
2.5
 42
2.5
 43
2.5
  0
INSERT
  5
D0D
330
915
100
AcDbEntity
  8
AM_5
100
AcDbBlockReference
  2
_Open30
 10
119.1498415836694
 20
168.3962375092654
 30
0.0
 41
2.5
 42
2.5
 43
2.5
 50
180.0
  0
MTEXT
  5
D0E
330
915
100
AcDbEntity
  8
AM_5
 62
     2
100
AcDbMText
 10
128.2167679334627
 20
171.6465819974544
 30
0.0
 40
3.5
 41
0.0
 71
     5
 72
     1
  1
2.3
 73
     1
 44
1.0
1001
ACAD
1000
MTEXTBEGIN
1070
    73
1070
     1
1070
    44
1040
1.0
1070
    74
1070
     0
1000
MTEXTEND
  0
POINT
  5
D0F
330
915
100
AcDbEntity
  8
Defpoints
 62
     0
100
AcDbPoint
 10
116.8498415836694
 20
183.8962375092654
 30
0.0
  0
POINT
  5
D10
330
915
100
AcDbEntity
  8
Defpoints
 62
     0
100
AcDbPoint
 10
119.1498415836694
 20
187.1462375092654
 30
0.0
  0
POINT
  5
D11
330
915
100
AcDbEntity
  8
Defpoints
 62
     0
100
AcDbPoint
 10
119.1498415836694
 20
168.3962375092654
 30
0.0
  0
ENDBLK
  5
936
330
915
100
AcDbEntity
  8
0
100
AcDbBlockEnd
  0
BLOCK
  5
98A
330
970
100
AcDbEntity
  8
0
100
AcDbBlockBegin
  2
*D21
 70
     1
 10
0.0
 20
0.0
 30
0.0
  3
*D21
  1

  0
LINE
  5
EED
330
970
100
AcDbEntity
  8
AM_5
100
AcDbLine
 10
72.6288351554487
 20
184.8999406856307
 30
0.0
 11
60.87350057920622
 21
170.330646339811
 31
0.0
  0
LINE
  5
EEE
330
970
100
AcDbEntity
  8
AM_5
100
AcDbLine
 10
60.87350057920622
 20
170.330646339811
 30
0.0
 11
51.32350057920621
 21
170.330646339811
 31
0.0
  0
INSERT
  5
EEF
330
970
100
AcDbEntity
  8
AM_5
100
AcDbBlockReference
  2
_Open30
 10
74.19869394859173
 20
186.8455879737051
 30
0.0
 41
2.5
 42
2.5
 43
2.5
 50
51.10143858723317
  0
MTEXT
  5
EF0
330
970
100
AcDbEntity
  8
AM_5
 62
     2
100
AcDbMText
 10
55.34850057920635
 20
173.5809908279999
 30
0.0
 40
3.5
 41
0.0
 71
     5
 72
     1
  1
\U+22052.7
 73
     1
 44
1.0
1001
ACAD
1000
MTEXTBEGIN
1070
    73
1070
     1
1070
    44
1040
1.0
1070
    74
1070
     0
1000
MTEXTEND
  0
POINT
  5
EF1
330
970
100
AcDbEntity
  8
Defpoints
 62
     0
100
AcDbPoint
 10
74.19869394859173
 20
186.8455879737051
 30
0.0
  0
POINT
  5
EF2
330
970
100
AcDbEntity
  8
Defpoints
 62
     0
100
AcDbPoint
 10
75.89414144518622
 20
188.9468870448256
 30
0.0
  0
ENDBLK
  5
98B
330
970
100
AcDbEntity
  8
0
100
AcDbBlockEnd
  0
BLOCK
  5
9B8
330
99C
100
AcDbEntity
  8
0
100
AcDbBlockBegin
  2
*D22
 70
     1
 10
0.0
 20
0.0
 30
0.0
  3
*D22
  1

  0
LINE
  5
D18
330
99C
100
AcDbEntity
  8
AM_5
100
AcDbLine
 10
117.8498415836694
 20
191.8962375092654
 30
0.0
 11
137.0550477770615
 21
191.8962375092654
 31
0.0
  0
LINE
  5
D19
330
99C
100
AcDbEntity
  8
AM_5
100
AcDbLine
 10
117.8498415836694
 20
183.8962375092654
 30
0.0
 11
137.0550477770615
 21
183.8962375092654
 31
0.0
  0
LINE
  5
D1A
330
99C
100
AcDbEntity
  8
AM_5
100
AcDbLine
 10
136.0550477770615
 20
194.3962375092654
 30
0.0
 11
136.0550477770615
 21
196.8962375092654
 31
0.0
  0
LINE
  5
D1B
330
99C
100
AcDbEntity
  8
AM_5
100
AcDbLine
 10
136.0550477770615
 20
181.3962375092654
 30
0.0
 11
136.0550477770615
 21
178.8962375092654
 31
0.0
  0
LINE
  5
D1C
330
99C
100
AcDbEntity
  8
AM_5
100
AcDbLine
 10
136.0550477770615
 20
191.8962375092654
 30
0.0
 11
136.0550477770615
 21
183.8962375092654
 31
0.0
  0
INSERT
  5
D1D
330
99C
100
AcDbEntity
  8
AM_5
100
AcDbBlockReference
  2
_Open30
 10
136.0550477770615
 20
191.8962375092654
 30
0.0
 41
2.5
 42
2.5
 43
2.5
 50
270.0
  0
INSERT
  5
D1E
330
99C
100
AcDbEntity
  8
AM_5
100
AcDbBlockReference
  2
_Open30
 10
136.0550477770615
 20
183.8962375092654
 30
0.0
 41
2.5
 42
2.5
 43
2.5
 50
90.0
  0
MTEXT
  5
D1F
330
99C
100
AcDbEntity
  8
AM_5
 62
     2
100
AcDbMText
 10
132.8050477770615
 20
187.8962375092655
 30
0.0
 40
3.5
 41
0.0
 71
     5
 72
     1
  1
8
 11
0.0000000000000001
 21
1.0
 31
0.0
 73
     1
 44
1.0
1001
ACAD
1000
MTEXTBEGIN
1070
    73
1070
     1
1070
    44
1040
1.0
1070
    74
1070
     0
1000
MTEXTEND
  0
POINT
  5
D20
330
99C
100
AcDbEntity
  8
Defpoints
 62
     0
100
AcDbPoint
 10
116.8498415836694
 20
191.8962375092654
 30
0.0
  0
POINT
  5
D21
330
99C
100
AcDbEntity
  8
Defpoints
 62
     0
100
AcDbPoint
 10
116.8498415836694
 20
183.8962375092654
 30
0.0
  0
POINT
  5
D22
330
99C
100
AcDbEntity
  8
Defpoints
 62
     0
100
AcDbPoint
 10
136.0550477770615
 20
183.8962375092654
 30
0.0
  0
ENDBLK
  5
9B9
330
99C
100
AcDbEntity
  8
0
100
AcDbBlockEnd
  0
BLOCK
  5
BE1
330
BE0
100
AcDbEntity
  8
0
100
AcDbBlockBegin
  2
*U24
 70
     1
 10
0.0
 20
0.0
 30
0.0
  3
*U24
  1

  0
ENDBLK
  5
BE2
330
BE0
100
AcDbEntity
  8
0
100
AcDbBlockEnd
  0
BLOCK
  5
C25
330
C1C
100
AcDbEntity
  8
0
100
AcDbBlockBegin
  2
TK-A4
 70
     0
 10
0.0
 20
0.0
 30
0.0
  3
TK-A4
  1

  0
TEXT
  5
C1D
330
C1C
100
AcDbEntity
  8
0
 60
     1
100
AcDbText
 10
0.0
 20
0.0
 30
0.0
 40
2.5
  1
!GENTITLE-LL
100
AcDbText
  0
TEXT
  5
C1E
330
C1C
100
AcDbEntity
  8
0
 60
     1
100
AcDbText
 10
193.0
 20
280.0
 30
0.0
 40
2.5
  1
!GENTITLE-MAX
100
AcDbText
  0
TEXT
  5
C1F
330
C1C
100
AcDbEntity
  8
0
 60
     1
100
AcDbText
 10
193.0
 20
0.0
 30
0.0
 40
2.5
  1
!GENTITLE-INSERT
100
AcDbText
  0
LWPOLYLINE
  5
C20
330
C1C
100
AcDbEntity
  8
0
100
AcDbPolyline
 90
        4
 70
     1
 43
0.0
 10
0.0
 20
0.0
 10
193.0
 20
0.0
 10
193.0
 20
280.0
 10
0.0
 20
280.0
1001
GENIUS_GENREC_14
1002
{
1000
PYDIR
1011
-8.5
1021
288.5
1031
0.0
1002
}
1002
{
1000
PXDIR
1011
201.5
1021
-8.5
1031
0.0
1002
}
1002
{
1000
PORI
1011
-8.5
1021
-8.5
1031
0.0
1002
}
1002
{
1000
PINS
1011
-8.5
1021
-8.5
1031
0.0
1002
}
1002
{
1000
HVAL
1000
297
1002
}
1002
{
1000
H
1070
     2
1002
}
1002
{
1000
WVAL
1000
210
1002
}
1002
{
1000
W
1070
     2
1002
}
1002
{
1000
C
1070
     1
1002
}
1001
GENIUS_GENOBJ-N-REC_13
1002
{
1000
OWNER
1000
GEN
1002
}
1001
GENIUS_GENODEF_13
1002
{
1000
HIER
1070
     0
1002
}
1002
{
1000
MANEDIT
1070
     0
1002
}
1002
{
1000
NOSEL
1070
     0
1002
}
1002
{
1000
BEHIND
1070
     0
1002
}
1002
{
1000
OTHER
1070
     0
1002
}
1002
{
1000
REACTOR
1002
}
  0
LINE
  5
C21
330
C1C
100
AcDbEntity
  8
0
100
AcDbLine
 10
149.0
 20
280.0000000000001
 30
0.0
 11
149.0
 21
275.0
 31
0.0
  0
MTEXT
  5
C22
330
C1C
100
AcDbEntity
  8
0
100
AcDbMText
 10
192.3592953827349
 20
276.1085429872271
 30
0.0
 40
2.5
 41
43.07840397728298
 71
     9
 72
     5
  1
(文書番号：TY-34)2008.02.08
 73
     1
 44
1.0
1001
ACAD
1000
MTEXTBEGIN
1070
    73
1070
     1
1070
    44
1040
1.0
1070
    74
1070
     0
1000
MTEXTEND
  0
LINE
  5
C23
330
C1C
100
AcDbEntity
  8
0
100
AcDbLine
 10
149.0
 20
275.0
 30
0.0
 11
193.0
 21
275.0
 31
0.0
  0
ENDBLK
  5
C26
330
C1C
100
AcDbEntity
  8
0
100
AcDbBlockEnd
  0
BLOCK
  5
C84
330
C2A
100
AcDbEntity
  8
0
100
AcDbBlockBegin
  2
TK-TITLE
 70
     2
 10
0.0
 20
0.0
 30
0.0
  3
TK-TITLE
  1

  0
ATTDEF
  5
C2B
330
C2A
100
AcDbEntity
  8
0
100
AcDbText
 10
-8.002309189545826
 20
1.705189434395036
 30
0.0
 40
2.5
  1

100
AcDbAttributeDefinition
  3
Rev.
  2
GEN-TITLE-NR2
 70
     0
  0
ATTDEF
  5
C2C
330
C2A
100
AcDbEntity
  8
0
100
AcDbText
 10
-84.14251901585329
 20
12.82790432564377
 30
0.0
 40
3.5
  1

100
AcDbAttributeDefinition
  3
品名
  2
GEN-TITLE-DES1
 70
     0
  0
LINE
  5
C2D
330
C2A
100
AcDbEntity
  8
0
100
AcDbLine
 10
0.0
 20
0.0
 30
0.0
 11
0.0
 21
50.0
 31
0.0
1001
GENIUS_GENREC_14
1002
{
1000
PYDIR
1011
-414.0
1021
291.0
1031
0.0
1002
}
1002
{
1000
PXDIR
1011
6.0
1021
-6.0
1031
0.0
1002
}
1002
{
1000
PORI
1011
-414.0
1021
-6.0
1031
0.0
1002
}
1002
{
1000
PINS
1011
-414.0
1021
-6.0
1031
0.0
1002
}
1002
{
1000
HVAL
1000
297
1002
}
1002
{
1000
H
1070
     2
1002
}
1002
{
1000
WVAL
1000
420
1002
}
1002
{
1000
W
1070
     2
1002
}
1002
{
1000
C
1070
     1
1002
}
1001
GENIUS_GENODEF_13
1002
{
1000
HIER
1070
     0
1002
}
1002
{
1000
MANEDIT
1070
     0
1002
}
1002
{
1000
NOSEL
1070
     0
1002
}
1002
{
1000
BEHIND
1070
     0
1002
}
1002
{
1000
OTHER
1070
     0
1002
}
1002
{
1000
REACTOR
1002
}
1001
GENIUS_GENOBJ-N-REC_13
1002
{
1000
OWNER
1000
GEN
1002
}
  0
ATTDEF
  5
C2E
330
C2A
100
AcDbEntity
  8
0
100
AcDbText
 10
-84.0
 20
9.149999999999948
 30
0.0
 40
2.5
  1

100
AcDbAttributeDefinition
  3
サブタイトル
  2
GEN-TITLE-DES2
 70
     0
  0
ATTDEF
  5
C2F
330
C2A
100
AcDbEntity
  8
0
100
AcDbText
 10
-84.0
 20
1.999999999999957
 30
0.0
 40
3.0
  1

100
AcDbAttributeDefinition
  3
図番
  2
GEN-TITLE-NR1
 70
     0
  0
LINE
  5
C30
330
C2A
100
AcDbEntity
  8
0
100
AcDbLine
 10
-96.0
 20
50.00000000000001
 30
0.0
 11
-96.0
 21
-0.0000000000000142
 31
0.0
1001
GENIUS_GENREC_14
1002
{
1000
PYDIR
1011
-96.0
1021
49.99999999999999
1031
0.0
1002
}
1002
{
1000
PXDIR
1011
88.0
1021
-0.0000000000000142
1031
0.0
1002
}
1002
{
1000
PORI
1011
-96.0
1021
-0.0000000000000142
1031
0.0
1002
}
1002
{
1000
PINS
1011
-12.5
1021
24.99999999999999
1031
0.0
1002
}
1002
{
1000
HVAL
1000
50
1002
}
1002
{
1000
H
1070
     2
1002
}
1002
{
1000
WVAL
1000
167
1002
}
1002
{
1000
W
1070
     2
1002
}
1002
{
1000
C
1070
     4
1002
}
1001
GENIUS_GENODEF_13
1002
{
1000
HIER
1070
     0
1002
}
1002
{
1000
MANEDIT
1070
     0
1002
}
1002
{
1000
NOSEL
1070
     0
1002
}
1002
{
1000
BEHIND
1070
     0
1002
}
1002
{
1000
REACTOR
1002
}
1001
GENIUS_GENOBJ-N-REC_13
1002
{
1000
OWNER
1000
GEN
1002
}
  0
LINE
  5
C31
330
C2A
100
AcDbEntity
  8
0
100
AcDbLine
 10
0.0
 20
50.0
 30
0.0
 11
-193.0000000000001
 21
50.00000000000002
 31
0.0
1001
GENIUS_GENREC_14
1002
{
1000
PYDIR
1011
-184.0
1021
50.0
1031
0.0
1002
}
1002
{
1000
PXDIR
1011
0.0
1021
0.0
1031
0.0
1002
}
1002
{
1000
PORI
1011
-184.0
1021
0.0
1031
0.0
1002
}
1002
{
1000
PINS
1011
-100.5
1021
25.0
1031
0.0
1002
}
1002
{
1000
HVAL
1000
50
1002
}
1002
{
1000
H
1070
     2
1002
}
1002
{
1000
WVAL
1000
167
1002
}
1002
{
1000
W
1070
     2
1002
}
1002
{
1000
C
1070
     4
1002
}
1001
GENIUS_GENODEF_13
1002
{
1000
HIER
1070
     0
1002
}
1002
{
1000
MANEDIT
1070
     0
1002
}
1002
{
1000
NOSEL
1070
     0
1002
}
1002
{
1000
BEHIND
1070
     0
1002
}
1002
{
1000
REACTOR
1002
}
1001
GENIUS_GENOBJ-N-REC_13
1002
{
1000
OWNER
1000
GEN
1002
}
  0
LINE
  5
C32
330
C2A
100
AcDbEntity
  8
0
100
AcDbLine
 10
-193.0000000000001
 20
0.0
 30
0.0
 11
0.0
 21
0.0
 31
0.0
1001
GENIUS_GENREC_14
1002
{
1000
PYDIR
1011
-184.0
1021
50.0
1031
0.0
1002
}
1002
{
1000
PXDIR
1011
0.0
1021
0.0
1031
0.0
1002
}
1002
{
1000
PORI
1011
-184.0
1021
0.0
1031
0.0
1002
}
1002
{
1000
PINS
1011
-100.5
1021
25.0
1031
0.0
1002
}
1002
{
1000
HVAL
1000
50
1002
}
1002
{
1000
H
1070
     2
1002
}
1002
{
1000
WVAL
1000
167
1002
}
1002
{
1000
W
1070
     2
1002
}
1002
{
1000
C
1070
     4
1002
}
1001
GENIUS_GENODEF_13
1002
{
1000
HIER
1070
     0
1002
}
1002
{
1000
MANEDIT
1070
     0
1002
}
1002
{
1000
NOSEL
1070
     0
1002
}
1002
{
1000
BEHIND
1070
     0
1002
}
1002
{
1000
REACTOR
1002
}
1001
GENIUS_GENOBJ-N-REC_13
1002
{
1000
OWNER
1000
GEN
1002
}
  0
TEXT
  5
C33
330
C2A
100
AcDbEntity
  8
RAHM2
100
AcDbText
 10
-91.92677669529663
 20
45.98333333333335
 30
0.0
 40
2.5
  1
5
 72
     1
 11
-91.0
 21
45.65000000000002
 31
0.0
100
AcDbText
 73
     1
  0
TEXT
  5
C34
330
C2A
100
AcDbEntity
  8
RAHM2
100
AcDbText
 10
-92.0
 20
40.98333333333335
 30
0.0
 40
2.5
  1
4
 72
     1
 11
-91.0
 21
40.65000000000002
 31
0.0
100
AcDbText
 73
     1
  0
TEXT
  5
C35
330
C2A
100
AcDbEntity
  8
RAHM2
100
AcDbText
 10
-91.92677669529663
 20
35.98333333333333
 30
0.0
 40
2.5
  1
3
 72
     1
 11
-91.0
 21
35.64999999999999
 31
0.0
100
AcDbText
 73
     1
  0
TEXT
  5
C36
330
C2A
100
AcDbEntity
  8
RAHM2
100
AcDbText
 10
-91.91833169291339
 20
30.98333333333335
 30
0.0
 40
2.5
  1
2
 72
     1
 11
-91.0
 21
30.65000000000002
 31
0.0
100
AcDbText
 73
     1
  0
TEXT
  5
C37
330
C2A
100
AcDbEntity
  8
RAHM2
100
AcDbText
 10
-91.81558635658019
 20
25.98333333333335
 30
0.0
 40
2.5
  1
1
 72
     1
 11
-91.19058635658019
 21
25.65000000000002
 31
0.0
100
AcDbText
 73
     1
  0
MTEXT
  5
C38
330
C2A
100
AcDbEntity
  8
RAHM2
100
AcDbMText
 10
-22.27910888308327
 20
27.50000000000003
 30
0.0
 40
2.5
 41
20.0
 71
     5
 72
     5
  1
・  ・   
 73
     1
 44
1.0
1001
ACAD
1000
MTEXTBEGIN
1070
    73
1070
     1
1070
    44
1040
1.0
1070
    74
1070
     0
1000
MTEXTEND
  0
LINE
  5
C39
330
C2A
100
AcDbEntity
  8
RAHM2
100
AcDbLine
 10
-96.0
 20
25.0
 30
0.0
 11
0.0000000000001137
 21
25.00000000000003
 31
0.0
  0
LINE
  5
C3A
330
C2A
100
AcDbEntity
  8
RAHM2
100
AcDbLine
 10
-93.42487113059645
 20
25.40000000000002
 30
0.0
 11
-88.57512886940355
 21
25.40000000000002
 31
0.0
  0
LINE
  5
C3B
330
C2A
100
AcDbEntity
  8
RAHM2
100
AcDbLine
 10
-88.57512886940355
 20
25.40000000000002
 30
0.0
 11
-91.0
 21
29.60000000000001
 31
0.0
  0
LINE
  5
C3C
330
C2A
100
AcDbEntity
  8
RAHM2
100
AcDbLine
 10
-91.0
 20
29.60000000000001
 30
0.0
 11
-93.42487113059645
 21
25.40000000000002
 31
0.0
  0
MTEXT
  5
C3D
330
C2A
100
AcDbEntity
  8
RAHM2
100
AcDbMText
 10
-22.27910888308327
 20
47.50000000000002
 30
0.0
 40
2.5
 41
20.0
 71
     5
 72
     5
  1
・  ・   
 73
     1
 44
1.0
1001
ACAD
1000
MTEXTBEGIN
1070
    73
1070
     1
1070
    44
1040
1.0
1070
    74
1070
     0
1000
MTEXTEND
  0
MTEXT
  5
C3E
330
C2A
100
AcDbEntity
  8
RAHM2
100
AcDbMText
 10
-22.27910888308327
 20
37.50000000000003
 30
0.0
 40
2.5
 41
20.0
 71
     5
 72
     5
  1
・  ・   
 73
     1
 44
1.0
1001
ACAD
1000
MTEXTBEGIN
1070
    73
1070
     1
1070
    44
1040
1.0
1070
    74
1070
     0
1000
MTEXTEND
  0
MTEXT
  5
C3F
330
C2A
100
AcDbEntity
  8
RAHM2
100
AcDbMText
 10
-22.27910888308327
 20
42.50000000000002
 30
0.0
 40
2.5
 41
20.0
 71
     5
 72
     5
  1
・  ・   
 73
     1
 44
1.0
1001
ACAD
1000
MTEXTBEGIN
1070
    73
1070
     1
1070
    44
1040
1.0
1070
    74
1070
     0
1000
MTEXTEND
  0
MTEXT
  5
C40
330
C2A
100
AcDbEntity
  8
RAHM2
100
AcDbMText
 10
-5.910409705344477
 20
22.49999999999997
 30
0.0
 40
2.5
 41
15.0
 71
     5
 72
     5
  1
担当
 73
     1
 44
1.0
1001
ACAD
1000
MTEXTBEGIN
1070
    73
1070
     1
1070
    44
1040
1.0
1070
    74
1070
     0
1000
MTEXTEND
  0
MTEXT
  5
C41
330
C2A
100
AcDbEntity
  8
RAHM2
100
AcDbMText
 10
-21.55893921569111
 20
22.49999999999997
 30
0.0
 40
2.5
 41
20.0
 71
     5
 72
     5
  1
年・月・日
 73
     1
 44
1.0
1001
ACAD
1000
MTEXTBEGIN
1070
    73
1070
     1
1070
    44
1040
1.0
1070
    74
1070
     0
1000
MTEXTEND
  0
MTEXT
  5
C42
330
C2A
100
AcDbEntity
  8
RAHM2
100
AcDbMText
 10
-22.27910888308327
 20
32.50000000000003
 30
0.0
 40
2.5
 41
20.0
 71
     5
 72
     5
  1
・  ・   
 73
     1
 44
1.0
1001
ACAD
1000
MTEXTBEGIN
1070
    73
1070
     1
1070
    44
1040
1.0
1070
    74
1070
     0
1000
MTEXTEND
  0
LINE
  5
C43
330
C2A
100
AcDbEntity
  8
RAHM2
100
AcDbLine
 10
-11.82081941068907
 20
50.00000000000003
 30
0.0
 11
-11.82081941068907
 21
19.99999999999994
 31
0.0
  0
MTEXT
  5
C44
330
C2A
100
AcDbEntity
  8
RAHM2
100
AcDbMText
 10
-59.0
 20
22.49999999999996
 30
0.0
 40
2.5
 41
45.0
 71
     5
 72
     5
  1
変更記事
 73
     1
 44
1.0
1001
ACAD
1000
MTEXTBEGIN
1070
    73
1070
     1
1070
    44
1040
1.0
1070
    74
1070
     0
1000
MTEXTEND
  0
LINE
  5
C45
330
C2A
100
AcDbEntity
  8
RAHM2
100
AcDbLine
 10
-31.82081941068907
 20
50.00000000000003
 30
0.0
 11
-31.82081941068918
 21
19.99999999999994
 31
0.0
  0
LINE
  5
C46
330
C2A
100
AcDbEntity
  8
RAHM2
100
AcDbLine
 10
-91.0
 20
49.6
 30
0.0
 11
-93.42487113059645
 21
45.40000000000001
 31
0.0
  0
LINE
  5
C47
330
C2A
100
AcDbEntity
  8
RAHM2
100
AcDbLine
 10
-91.0
 20
44.6
 30
0.0
 11
-93.42487113059645
 21
40.40000000000001
 31
0.0
  0
LINE
  5
C48
330
C2A
100
AcDbEntity
  8
RAHM2
100
AcDbLine
 10
-91.0
 20
39.60000000000001
 30
0.0
 11
-93.42487113059645
 21
35.40000000000002
 31
0.0
  0
LINE
  5
C49
330
C2A
100
AcDbEntity
  8
RAHM2
100
AcDbLine
 10
-88.57512886940355
 20
35.40000000000002
 30
0.0
 11
-91.0
 21
39.60000000000001
 31
0.0
  0
LINE
  5
C4A
330
C2A
100
AcDbEntity
  8
RAHM2
100
AcDbLine
 10
-93.42487113059645
 20
35.40000000000002
 30
0.0
 11
-88.57512886940355
 21
35.40000000000002
 31
0.0
  0
LINE
  5
C4B
330
C2A
100
AcDbEntity
  8
RAHM2
100
AcDbLine
 10
-88.57512886940355
 20
40.40000000000001
 30
0.0
 11
-91.0
 21
44.6
 31
0.0
  0
LINE
  5
C4C
330
C2A
100
AcDbEntity
  8
RAHM2
100
AcDbLine
 10
-93.42487113059645
 20
40.40000000000001
 30
0.0
 11
-88.57512886940355
 21
40.40000000000001
 31
0.0
  0
LINE
  5
C4D
330
C2A
100
AcDbEntity
  8
RAHM2
100
AcDbLine
 10
-88.57512886940355
 20
45.40000000000001
 30
0.0
 11
-91.0
 21
49.6
 31
0.0
  0
LINE
  5
C4E
330
C2A
100
AcDbEntity
  8
RAHM2
100
AcDbLine
 10
-93.42487113059645
 20
45.40000000000001
 30
0.0
 11
-88.57512886940355
 21
45.40000000000001
 31
0.0
  0
MTEXT
  5
C4F
330
C2A
100
AcDbEntity
  8
RAHM2
100
AcDbMText
 10
-94.80025513713144
 20
18.8010354072796
 30
0.0
 40
2.5
 41
90.0
 71
     1
 72
     5
  1
品名
 73
     1
 44
1.0
1001
ACAD
1000
MTEXTBEGIN
1070
    73
1070
     1
1070
    44
1040
1.0
1070
    74
1070
     0
1000
MTEXTEND
  0
MTEXT
  5
C50
330
C2A
100
AcDbEntity
  8
RAHM2
100
AcDbMText
 10
-91.0
 20
22.49999999999996
 30
0.0
 40
2.5
 41
10.0
 71
     5
 72
     5
  1
符号
 73
     1
 44
1.0
1001
ACAD
1000
MTEXTBEGIN
1070
    73
1070
     1
1070
    44
1040
1.0
1070
    74
1070
     0
1000
MTEXTEND
  0
LINE
  5
C51
330
C2A
100
AcDbEntity
  8
RAHM2
100
AcDbLine
 10
-93.42487113059645
 20
30.40000000000002
 30
0.0
 11
-88.57512886940355
 21
30.40000000000002
 31
0.0
  0
LINE
  5
C52
330
C2A
100
AcDbEntity
  8
RAHM2
100
AcDbLine
 10
-86.0
 20
50.00000000000001
 30
0.0
 11
-86.0
 21
19.99999999999993
 31
0.0
  0
LINE
  5
C53
330
C2A
100
AcDbEntity
  8
RAHM2
100
AcDbLine
 10
-91.0
 20
34.60000000000001
 30
0.0
 11
-93.42487113059645
 21
30.40000000000002
 31
0.0
  0
LINE
  5
C54
330
C2A
100
AcDbEntity
  8
RAHM2
100
AcDbLine
 10
-88.57512886940355
 20
30.40000000000002
 30
0.0
 11
-91.0
 21
34.60000000000001
 31
0.0
  0
MTEXT
  5
C55
330
C2A
100
AcDbEntity
  8
RAHM2
100
AcDbMText
 10
-94.80025513713144
 20
5.801035407279627
 30
0.0
 40
2.5
 41
90.0
 71
     1
 72
     5
  1
図番
 73
     1
 44
1.0
1001
ACAD
1000
MTEXTBEGIN
1070
    73
1070
     1
1070
    44
1040
1.0
1070
    74
1070
     0
1000
MTEXTEND
  0
LINE
  5
C56
330
C2A
100
AcDbEntity
  8
0
100
AcDbLine
 10
-96.0
 20
19.99999999999997
 30
0.0
 11
0.0000000000001137
 21
19.99999999999997
 31
0.0
  0
LINE
  5
C57
330
C2A
100
AcDbEntity
  8
0
100
AcDbLine
 10
-96.0
 20
7.0
 30
0.0
 11
0.0000000000001137
 21
7.0
 31
0.0
  0
LINE
  5
C58
330
C2A
100
AcDbEntity
  8
RAHM2
100
AcDbLine
 10
-96.0
 20
45.00000000000002
 30
0.0
 11
0.0000000000001137
 21
45.00000000000002
 31
0.0
  0
LINE
  5
C59
330
C2A
100
AcDbEntity
  8
RAHM2
100
AcDbLine
 10
-96.0
 20
39.99999999999993
 30
0.0
 11
0.0000000000001137
 21
40.00000000000002
 31
0.0
  0
LINE
  5
C5A
330
C2A
100
AcDbEntity
  8
RAHM2
100
AcDbLine
 10
-96.0
 20
35.00000000000003
 30
0.0
 11
0.0000000000001137
 21
35.00000000000003
 31
0.0
  0
LINE
  5
C5B
330
C2A
100
AcDbEntity
  8
RAHM2
100
AcDbLine
 10
-96.0
 20
29.99999999999992
 30
0.0
 11
0.0000000000001137
 21
30.00000000000003
 31
0.0
  0
LINE
  5
C5C
330
C2A
100
AcDbEntity
  8
0
100
AcDbLine
 10
-21.17541926625711
 20
0.0
 30
0.0
 11
-21.17541926625734
 21
7.0
 31
0.0
  0
MTEXT
  5
C5D
330
C2A
100
AcDbEntity
  8
RAHM2
100
AcDbMText
 10
-16.85742592933491
 20
3.434762466565985
 30
0.0
 40
2.5
 41
7.936478436748416
 71
     5
 72
     5
  1
Rev.
 73
     1
 44
1.0
1001
ACAD
1000
MTEXTBEGIN
1070
    73
1070
     1
1070
    44
1040
1.0
1070
    74
1070
     0
1000
MTEXTEND
  0
MTEXT
  5
C5E
330
C2A
100
AcDbEntity
  8
RAHM2
100
AcDbMText
 10
-104.875
 20
18.80103540727957
 30
0.0
 40
2.5
 41
17.0
 71
     2
 72
     5
  1
製図
 73
     1
 44
1.0
1001
ACAD
1000
MTEXTBEGIN
1070
    73
1070
     1
1070
    44
1040
1.0
1070
    74
1070
     0
1000
MTEXTEND
  0
LINE
  5
C5F
330
C2A
100
AcDbEntity
  8
0
100
AcDbLine
 10
-167.0
 20
19.99999999999993
 30
0.0
 11
-96.0
 21
19.99999999999993
 31
0.0
  0
LINE
  5
C60
330
C2A
100
AcDbEntity
  8
0
100
AcDbLine
 10
-113.75
 20
19.99999999999993
 30
0.0
 11
-113.75
 21
-0.0000000000000533
 31
0.0
  0
LINE
  5
C61
330
C2A
100
AcDbEntity
  8
0
100
AcDbLine
 10
-131.5000000000001
 20
19.99999999999993
 30
0.0
 11
-131.5000000000001
 21
-0.0000000000000533
 31
0.0
  0
MTEXT
  5
C62
330
C2A
100
AcDbEntity
  8
RAHM2
100
AcDbMText
 10
-122.6250000000001
 20
18.80103540727958
 30
0.0
 40
2.5
 41
17.0
 71
     2
 72
     5
  1
検図
 73
     1
 44
1.0
1001
ACAD
1000
MTEXTBEGIN
1070
    73
1070
     1
1070
    44
1040
1.0
1070
    74
1070
     0
1000
MTEXTEND
  0
LINE
  5
C63
330
C2A
100
AcDbEntity
  8
0
100
AcDbLine
 10
-167.0
 20
49.99999999999995
 30
0.0
 11
-167.0
 21
-0.0000000000000497
 31
0.0
  0
LINE
  5
C64
330
C2A
100
AcDbEntity
  8
0
100
AcDbLine
 10
-149.2500000000001
 20
19.99999999999993
 30
0.0
 11
-149.2500000000001
 21
-0.0000000000000462
 31
0.0
  0
MTEXT
  5
C65
330
C2A
100
AcDbEntity
  8
RAHM2
100
AcDbMText
 10
-140.3750000000001
 20
18.80103540727958
 30
0.0
 40
2.5
 41
17.0
 71
     2
 72
     5
  1
承認
 73
     1
 44
1.0
1001
ACAD
1000
MTEXTBEGIN
1070
    73
1070
     1
1070
    44
1040
1.0
1070
    74
1070
     0
1000
MTEXTEND
  0
MTEXT
  5
C66
330
C2A
100
AcDbEntity
  8
RAHM2
100
AcDbMText
 10
-158.1250000000001
 20
18.80103540727956
 30
0.0
 40
2.5
 41
17.0
 71
     2
 72
     5
  1
承認
 73
     1
 44
1.0
1001
ACAD
1000
MTEXTBEGIN
1070
    73
1070
     1
1070
    44
1040
1.0
1070
    74
1070
     0
1000
MTEXTEND
  0
LINE
  5
C67
330
C2A
100
AcDbEntity
  8
0
100
AcDbLine
 10
-167.0
 20
29.99999999999992
 30
0.0
 11
-96.0
 21
29.99999999999992
 31
0.0
  0
MTEXT
  5
C68
330
C2A
100
AcDbEntity
  8
0
100
AcDbMText
 10
-131.5000000000001
 20
24.99999999999992
 30
0.0
 40
3.5
 41
60.0
 71
     5
 72
     5
  1
\fＭＳ ゴシック|b0|i0|c128|p49;株式会社タカチ電機工業
 73
     1
 44
1.0
1001
ACAD
1000
MTEXTBEGIN
1070
    73
1070
     1
1070
    44
1040
1.0
1070
    74
1070
     0
1000
MTEXTEND
  0
ATTDEF
  5
C69
330
C2A
100
AcDbEntity
  8
0
100
AcDbText
 10
-148.9618675835291
 20
43.29999999999991
 30
0.0
 40
3.0
  1

100
AcDbAttributeDefinition
  3
材質
  2
GEN-TITLE-MAT1
 70
     0
  0
ATTDEF
  5
C6A
330
C2A
100
AcDbEntity
  8
0
100
AcDbText
 10
-148.9618675835291
 20
33.29999999999991
 30
0.0
 40
3.0
  1

100
AcDbAttributeDefinition
  3
表面処理
  2
GEN-TITLE-MAT2
 70
     0
  0
MTEXT
  5
C6B
330
C2A
100
AcDbEntity
  8
RAHM2
100
AcDbMText
 10
-165.8002551371314
 20
48.80103540727955
 30
0.0
 40
2.5
 41
60.0
 71
     1
 72
     5
  1
材質
 73
     1
 44
1.0
1001
ACAD
1000
MTEXTBEGIN
1070
    73
1070
     1
1070
    44
1040
1.0
1070
    74
1070
     0
1000
MTEXTEND
  0
MTEXT
  5
C6C
330
C2A
100
AcDbEntity
  8
RAHM2
100
AcDbMText
 10
-165.8002551371314
 20
38.80103540727956
 30
0.0
 40
2.5
 41
60.0
 71
     1
 72
     5
  1
表面処理
 73
     1
 44
1.0
1001
ACAD
1000
MTEXTBEGIN
1070
    73
1070
     1
1070
    44
1040
1.0
1070
    74
1070
     0
1000
MTEXTEND
  0
LINE
  5
C6D
330
C2A
100
AcDbEntity
  8
0
100
AcDbLine
 10
-167.0
 20
39.99999999999991
 30
0.0
 11
-96.0
 21
39.99999999999992
 31
0.0
  0
LINE
  5
C6E
330
C2A
100
AcDbEntity
  8
0
100
AcDbLine
 10
-167.0
 20
24.99999999999997
 30
0.0
 11
-193.0000000000001
 21
24.99999999999997
 31
0.0
  0
LINE
  5
C6F
330
C2A
100
AcDbEntity
  8
0
100
AcDbLine
 10
-171.7167418745796
 20
46.74999999999995
 30
0.0
 11
-171.7167418745796
 21
40.74999999999994
 31
0.0
  0
LINE
  5
C70
330
C2A
100
AcDbEntity
  8
7A
100
AcDbLine
 10
-184.7167418745796
 20
43.74999999999995
 30
0.0
 11
-184.7167418745796
 21
40.03991724228473
 31
0.0
1001
GENIUS_GENOREF_13
1005
C82
  0
LINE
  5
C71
330
C2A
100
AcDbEntity
  8
7A
100
AcDbLine
 10
-184.7167418745796
 20
43.74999999999995
 30
0.0
 11
-188.4397792458307
 21
43.74999999999995
 31
0.0
1001
GENIUS_GENOREF_13
1005
C82
  0
LINE
  5
C72
330
C2A
100
AcDbEntity
  8
0
100
AcDbLine
 10
-179.7167418745796
 20
41.74999999999995
 30
0.0
 11
-179.7167418745796
 21
45.74999999999994
 31
0.0
  0
CIRCLE
  5
C73
330
C2A
100
AcDbEntity
  8
0
100
AcDbCircle
 10
-184.7167418745796
 20
43.74999999999995
 30
0.0
 40
3.0
  0
CIRCLE
  5
C74
330
C2A
100
AcDbEntity
  8
0
100
AcDbCircle
 10
-184.7167418745796
 20
43.74999999999995
 30
0.0
 40
2.0
  0
LINE
  5
C75
330
C2A
100
AcDbEntity
  8
7A
100
AcDbLine
 10
-184.7167418745796
 20
43.74999999999995
 30
0.0
 11
-184.7167418745796
 21
47.32478664473144
 31
0.0
1001
GENIUS_GENOREF_13
1005
C82
  0
LINE
  5
C76
330
C2A
100
AcDbEntity
  8
0
100
AcDbLine
 10
-171.7167418745796
 20
40.74999999999994
 30
0.0
 11
-179.7167418745796
 21
41.74999999999995
 31
0.0
  0
LINE
  5
C77
330
C2A
100
AcDbEntity
  8
0
100
AcDbLine
 10
-179.7167418745796
 20
45.74999999999994
 30
0.0
 11
-171.7167418745796
 21
46.74999999999995
 31
0.0
  0
LINE
  5
C78
330
C2A
100
AcDbEntity
  8
7A
100
AcDbLine
 10
-184.7167418745796
 20
43.74999999999995
 30
0.0
 11
-170.9354334742943
 21
43.74999999999995
 31
0.0
1001
GENIUS_GENOREF_13
1005
C82
  0
LINE
  5
C79
330
C2A
100
AcDbEntity
  8
0
100
AcDbLine
 10
-193.0000000000001
 20
49.99999999999999
 30
0.0
 11
-193.0000000000001
 21
-0.0000000000000142
 31
0.0
  0
ATTDEF
  5
C7A
330
C2A
100
AcDbEntity
  8
0
100
AcDbText
 10
-175.6127409126095
 20
16.19999999999994
 30
0.0
 40
3.0
  1

 72
     2
 11
-175.6127409126095
 21
15.79999999999994
 31
0.0
100
AcDbAttributeDefinition
  3
数量
  2
GEN-TITLE-QTY
 70
     0
 74
     1
  0
MTEXT
  5
C7B
330
C2A
100
AcDbEntity
  8
RAHM2
100
AcDbMText
 10
-191.8002551371315
 20
23.80103540727963
 30
0.0
 40
2.5
 41
20.0
 71
     1
 72
     5
  1
数量
 73
     1
 44
1.0
1001
ACAD
1000
MTEXTBEGIN
1070
    73
1070
     1
1070
    44
1040
1.0
1070
    74
1070
     0
1000
MTEXTEND
  0
MTEXT
  5
C7C
330
C2A
100
AcDbEntity
  8
RAHM2
100
AcDbMText
 10
-191.8002551371315
 20
36.30103540727966
 30
0.0
 40
2.5
 41
20.0
 71
     1
 72
     5
  1
尺度
 73
     1
 44
1.0
1001
ACAD
1000
MTEXTBEGIN
1070
    73
1070
     1
1070
    44
1040
1.0
1070
    74
1070
     0
1000
MTEXTEND
  0
ATTDEF
  5
C7D
330
C2A
100
AcDbEntity
  8
0
100
AcDbText
 10
-177.824739614424
 20
28.69999999999997
 30
0.0
 40
3.0
  1

 72
     2
 11
-177.824739614424
 21
28.29999999999998
 31
0.0
100
AcDbAttributeDefinition
  3
尺度
  2
GEN-TITLE-SCA
 70
     0
 74
     1
  0
MTEXT
  5
C7E
330
C2A
100
AcDbEntity
  8
RAHM2
100
AcDbMText
 10
-191.8002551371315
 20
11.3010354072796
 30
0.0
 40
2.5
 41
60.0
 71
     1
 72
     5
  1
日付
 73
     1
 44
1.0
1001
ACAD
1000
MTEXTBEGIN
1070
    73
1070
     1
1070
    44
1040
1.0
1070
    74
1070
     0
1000
MTEXTEND
  0
ATTDEF
  5
C7F
330
C2A
100
AcDbEntity
  8
0
100
AcDbText
 10
-180.2171951662138
 20
3.988342537610664
 30
0.0
 40
3.0
  1

 72
     1
 11
-180.2171951662138
 21
3.588342537610664
 31
0.0
100
AcDbAttributeDefinition
  3
日付
  2
GEN-TITLE-DAT
 70
     0
 74
     1
  0
LINE
  5
C80
330
C2A
100
AcDbEntity
  8
0
100
AcDbLine
 10
-167.0
 20
37.49999999999998
 30
0.0
 11
-193.0000000000001
 21
37.49999999999998
 31
0.0
  0
LINE
  5
C81
330
C2A
100
AcDbEntity
  8
0
100
AcDbLine
 10
-167.0
 20
12.49999999999996
 30
0.0
 11
-193.0000000000001
 21
12.49999999999996
 31
0.0
  0
POINT
  5
C82
330
C2A
100
AcDbEntity
  8
0
 60
     1
100
AcDbPoint
 10
-418.5355579819675
 20
-138.1104841268254
 30
0.0
1001
GENIUS_GENODEF_13
1002
{
1000
HIER
1070
    10
1002
}
1002
{
1000
MANEDIT
1070
     0
1002
}
1002
{
1000
NOSEL
1070
     0
1002
}
1002
{
1000
BEHIND
1070
     0
1002
}
1002
{
1000
REACTOR
1002
}
1001
GENIUS_GENOBJ-N-CRS_13
1002
{
1000
OWNER
1000
GEN
1002
}
1001
GENIUS_GENOENT_13
1002
{
1000
MYREF
1005
C82
1002
}
1002
{
1000
GRP
1005
0
1002
}
1001
GENIUS_GENOLIS_13
1002
{
1000
ENT
1005
C70
1005
C71
1005
C75
1005
C78
1002
}
  0
ENDBLK
  5
C85
330
C2A
100
AcDbEntity
  8
0
100
AcDbBlockEnd
  0
BLOCK
  5
DC5
330
DB1
100
AcDbEntity
  8
0
100
AcDbBlockBegin
  2
A$C35C16C4D
 70
     0
 10
0.0
 20
0.0
 30
0.0
  3
A$C35C16C4D
  1

  0
CIRCLE
  5
DB2
330
DB1
100
AcDbEntity
  8
ﾋﾞｽ
100
AcDbCircle
 10
0.0
 20
0.0
 30
0.0
 40
2.650000000000516
  0
LINE
  5
DB3
330
DB1
100
AcDbEntity
  8
ﾋﾞｽ
100
AcDbLine
 10
0.2840909090908781
 20
-1.250000000000056
 30
0.0
 11
-0.2840909090908781
 21
-1.250000000000056
 31
0.0
  0
LINE
  5
DB4
330
DB1
100
AcDbEntity
  8
ﾋﾞｽ
100
AcDbLine
 10
-0.2840909090909349
 20
1.249999999999943
 30
0.0
 11
0.2840909090908781
 21
1.249999999999943
 31
0.0
  0
LINE
  5
DB5
330
DB1
100
AcDbEntity
  8
ﾋﾞｽ
100
AcDbLine
 10
-1.25
 20
0.2840909090908781
 30
0.0
 11
-1.079545454545495
 21
0.2840909090908781
 31
0.0
  0
LINE
  5
DB6
330
DB1
100
AcDbEntity
  8
ﾋﾞｽ
100
AcDbLine
 10
-0.2840909090909349
 20
1.079545454545382
 30
0.0
 11
-0.2840909090909349
 21
1.249999999999943
 31
0.0
  0
ARC
  5
DB7
330
DB1
100
AcDbEntity
  8
ﾋﾞｽ
100
AcDbCircle
 10
-1.079545454545495
 20
1.079545454545382
 30
0.0
 40
0.7954545454545431
100
AcDbArc
 50
270.0
 51
0.0
  0
ARC
  5
DB8
330
DB1
100
AcDbEntity
  8
ﾋﾞｽ
100
AcDbCircle
 10
-1.079545454545439
 20
-1.079545454545439
 30
0.0
 40
0.7954545454545431
100
AcDbArc
 50
0.0
 51
90.0
  0
LINE
  5
DB9
330
DB1
100
AcDbEntity
  8
ﾋﾞｽ
100
AcDbLine
 10
-1.25
 20
-0.2840909090909349
 30
0.0
 11
-1.25
 21
0.2840909090908781
 31
0.0
  0
LINE
  5
DBA
330
DB1
100
AcDbEntity
  8
ﾋﾞｽ
100
AcDbLine
 10
-1.079545454545439
 20
-0.2840909090909349
 30
0.0
 11
-1.25
 21
-0.2840909090909349
 31
0.0
  0
LINE
  5
DBB
330
DB1
100
AcDbEntity
  8
ﾋﾞｽ
100
AcDbLine
 10
-0.2840909090908781
 20
-1.249999999999943
 30
0.0
 11
-0.2840909090908781
 21
-1.079545454545439
 31
0.0
  0
ARC
  5
DBC
330
DB1
100
AcDbEntity
  8
ﾋﾞｽ
100
AcDbCircle
 10
1.079545454545495
 20
-1.079545454545439
 30
0.0
 40
0.7954545454545431
100
AcDbArc
 50
90.0
 51
180.0
  0
LINE
  5
DBD
330
DB1
100
AcDbEntity
  8
ﾋﾞｽ
100
AcDbLine
 10
0.2840909090908781
 20
-1.079545454545439
 30
0.0
 11
0.2840909090908781
 21
-1.250000000000056
 31
0.0
  0
LINE
  5
DBE
330
DB1
100
AcDbEntity
  8
ﾋﾞｽ
100
AcDbLine
 10
1.25
 20
-0.2840909090909349
 30
0.0
 11
1.079545454545495
 21
-0.2840909090909349
 31
0.0
  0
LINE
  5
DBF
330
DB1
100
AcDbEntity
  8
ﾋﾞｽ
100
AcDbLine
 10
1.25
 20
0.2840909090908781
 30
0.0
 11
1.25
 21
-0.2840909090909349
 31
0.0
  0
ARC
  5
DC0
330
DB1
100
AcDbEntity
  8
ﾋﾞｽ
100
AcDbCircle
 10
1.079545454545439
 20
1.079545454545382
 30
0.0
 40
0.7954545454545431
100
AcDbArc
 50
180.0
 51
270.0
  0
LINE
  5
DC1
330
DB1
100
AcDbEntity
  8
ﾋﾞｽ
100
AcDbLine
 10
1.079545454545439
 20
0.2840909090908781
 30
0.0
 11
1.25
 21
0.2840909090908781
 31
0.0
  0
LINE
  5
DC2
330
DB1
100
AcDbEntity
  8
ﾋﾞｽ
100
AcDbLine
 10
0.2840909090908781
 20
1.249999999999943
 30
0.0
 11
0.2840909090908781
 21
1.079545454545439
 31
0.0
  0
ENDBLK
  5
DC6
330
DB1
100
AcDbEntity
  8
0
100
AcDbBlockEnd
  0
BLOCK
  5
DDD
330
DCB
100
AcDbEntity
  8
0
100
AcDbBlockBegin
  2
A$C47270E8E
 70
     0
 10
0.0
 20
0.0
 30
0.0
  3
A$C47270E8E
  1

  0
LINE
  5
DCC
330
DCB
100
AcDbEntity
  8
ﾋﾞｽ
100
AcDbLine
 10
-7.999999999999943
 20
-2.649999999999977
 30
0.0
 11
-7.999999999999943
 21
2.650000000000034
 31
0.0
  0
ARC
  5
DCD
330
DCB
100
AcDbEntity
  8
ﾋﾞｽ
100
AcDbCircle
 10
-7.89999999999992
 20
1.12527740156986
 30
0.0
 40
0.1
100
AcDbArc
 50
180.0
 51
282.8042660652839
1001
GENIUS_GENOBJ-N-FIL_13
1002
{
1000
OWNER
1000
GEN
1002
}
1001
GENIUS_GENODEF_13
1002
{
1000
HIER
1070
     0
1002
}
1002
{
1000
MANEDIT
1070
     0
1002
}
1002
{
1000
NOSEL
1070
     0
1002
}
1002
{
1000
BEHIND
1070
     0
1002
}
1002
{
1000
OTHER
1070
     0
1002
}
1002
{
1000
REACTOR
1002
}
  0
ARC
  5
DCE
330
DCB
100
AcDbEntity
  8
ﾋﾞｽ
100
AcDbCircle
 10
-7.899999999999977
 20
-1.12527740156986
 30
0.0
 40
0.1
100
AcDbArc
 50
77.19573393471296
 51
180.0
1001
GENIUS_GENOBJ-N-FIL_13
1002
{
1000
OWNER
1000
GEN
1002
}
1001
GENIUS_GENODEF_13
1002
{
1000
HIER
1070
     0
1002
}
1002
{
1000
MANEDIT
1070
     0
1002
}
1002
{
1000
NOSEL
1070
     0
1002
}
1002
{
1000
BEHIND
1070
     0
1002
}
1002
{
1000
OTHER
1070
     0
1002
}
1002
{
1000
REACTOR
1002
}
  0
LINE
  5
DCF
330
DCB
100
AcDbEntity
  8
ﾋﾞｽ
100
AcDbLine
 10
0.0
 20
-1.25
 30
0.0
 11
0.0
 21
1.25
 31
0.0
  0
LINE
  5
DD0
330
DCB
100
AcDbEntity
  8
ﾋﾞｽ
100
AcDbLine
 10
-7.877837889641057
 20
1.027764115990692
 30
0.0
 11
-6.89999999999992
 21
1.25
 31
0.0
  0
LINE
  5
DD1
330
DCB
100
AcDbEntity
  8
ﾋﾞｽ
100
AcDbLine
 10
-7.877837889641114
 20
-1.027764115990692
 30
0.0
 11
-6.900000000000034
 21
-1.25
 31
0.0
  0
LINE
  5
DD2
330
DCB
100
AcDbEntity
  8
ﾋﾞｽ
100
AcDbLine
 10
-6.900000000000034
 20
-1.25
 30
0.0
 11
-6.89999999999992
 21
1.25
 31
0.0
  0
LINE
  5
DD3
330
DCB
100
AcDbEntity
  8
ﾋﾞｽ
100
AcDbLine
 10
-6.900000000000034
 20
-1.25
 30
0.0
 11
0.0
 21
-1.25
 31
0.0
  0
LINE
  5
DD4
330
DCB
100
AcDbEntity
  8
ﾋﾞｽ
100
AcDbLine
 10
0.0
 20
1.25
 30
0.0
 11
-6.89999999999992
 21
1.250000000000056
 31
0.0
  0
LINE
  5
DD5
330
DCB
100
AcDbEntity
  8
ﾋﾞｽ0
100
AcDbLine
 10
-8.0
 20
-1.0
 30
0.0
 11
0.0
 21
-1.0
 31
0.0
  0
LINE
  5
DD6
330
DCB
100
AcDbEntity
  8
ﾋﾞｽ0
100
AcDbLine
 10
-7.999999999999943
 20
1.000000000000056
 30
0.0
 11
0.0
 21
1.0
 31
0.0
  0
LINE
  5
DD7
330
DCB
100
AcDbEntity
  8
ﾋﾞｽ
100
AcDbLine
 10
-7.999999999999943
 20
2.650000000000034
 30
0.0
 11
-8.999999999999943
 21
2.56251133647413
 31
0.0
  0
LINE
  5
DD8
330
DCB
100
AcDbEntity
  8
ﾋﾞｽ
100
AcDbLine
 10
-7.999999999999943
 20
-2.649999999999977
 30
0.0
 11
-8.999999999999943
 21
-2.562511336474074
 31
0.0
  0
LINE
  5
DD9
330
DCB
100
AcDbEntity
  8
ﾋﾞｽ
100
AcDbLine
 10
-8.999999999999943
 20
2.56251133647413
 30
0.0
 11
-8.999999999999943
 21
-2.562511336474074
 31
0.0
  0
ARC
  5
DDA
330
DCB
100
AcDbEntity
  8
ﾋﾞｽ
100
AcDbCircle
 10
-2.683535650441683
 20
0.0
 30
0.0
 40
6.816464349558272
100
AcDbArc
 50
157.918214928471
 51
202.081785071529
  0
ENDBLK
  5
DDE
330
DCB
100
AcDbEntity
  8
0
100
AcDbBlockEnd
  0
BLOCK
  5
E01
330
DF5
100
AcDbEntity
  8
0
100
AcDbBlockBegin
  2
A$C762874DC
 70
     0
 10
0.0
 20
0.0
 30
0.0
  3
A$C762874DC
  1

  0
CIRCLE
  5
DF6
330
DF5
100
AcDbEntity
  8
ﾋﾞｽ
100
AcDbCircle
 10
0.0
 20
0.0
 30
0.0
 40
2.049999999999999
  0
CIRCLE
  5
DF7
330
DF5
100
AcDbEntity
  8
ﾋﾞｽ
100
AcDbCircle
 10
0.0
 20
0.0
 30
0.0
 40
1.006430355185645
  0
LINE
  5
DF8
330
DF5
100
AcDbEntity
  8
ﾋﾞｽ
100
AcDbLine
 10
-2.5
 20
-1.44337567297407
 30
0.0
 11
0.0000000000001137
 21
-2.886751345948169
 31
0.0
  0
LINE
  5
DF9
330
DF5
100
AcDbEntity
  8
ﾋﾞｽ
100
AcDbLine
 10
0.0000000000001137
 20
-2.886751345948169
 30
0.0
 11
2.5
 21
-1.443375672973985
 31
0.0
  0
LINE
  5
DFA
330
DF5
100
AcDbEntity
  8
ﾋﾞｽ
100
AcDbLine
 10
2.5
 20
-1.443375672973985
 30
0.0
 11
2.5
 21
1.44337567297407
 31
0.0
  0
LINE
  5
DFB
330
DF5
100
AcDbEntity
  8
ﾋﾞｽ
100
AcDbLine
 10
2.5
 20
1.44337567297407
 30
0.0
 11
0.0
 21
2.886751345948113
 31
0.0
  0
LINE
  5
DFC
330
DF5
100
AcDbEntity
  8
ﾋﾞｽ
100
AcDbLine
 10
0.0
 20
2.886751345948113
 30
0.0
 11
-2.5
 21
1.4433756729739
 31
0.0
  0
LINE
  5
DFD
330
DF5
100
AcDbEntity
  8
ﾋﾞｽ
100
AcDbLine
 10
-2.5
 20
1.4433756729739
 30
0.0
 11
-2.5
 21
-1.44337567297407
 31
0.0
  0
CIRCLE
  5
DFE
330
DF5
100
AcDbEntity
  8
ﾋﾞｽ0
 48
0.5
100
AcDbCircle
 10
0.0
 20
0.0
 30
0.0
 40
1.249999999999996
  0
ENDBLK
  5
E02
330
DF5
100
AcDbEntity
  8
0
100
AcDbBlockEnd
  0
BLOCK
  5
E1A
330
E07
100
AcDbEntity
  8
0
100
AcDbBlockBegin
  2
A$C4B68363E
 70
     0
 10
0.0
 20
0.0
 30
0.0
  3
A$C4B68363E
  1

  0
ARC
  5
E08
330
E07
100
AcDbEntity
  8
ﾋﾞｽ
100
AcDbCircle
 10
-1.536285706842818
 20
2.165625000000005
 30
0.0
 40
1.276478085707444
100
AcDbArc
 50
325.5615305952682
 51
25.56153059526836
  0
ARC
  5
E09
330
E07
100
AcDbEntity
  8
ﾋﾞｽ
100
AcDbCircle
 10
-0.4637142931572385
 20
2.165625000000005
 30
0.0
 40
1.276478085707444
100
AcDbArc
 50
154.4384694047316
 51
214.4384694047318
  0
LINE
  5
E0A
330
E07
100
AcDbEntity
  8
ﾋﾞｽ
100
AcDbLine
 10
0.0
 20
2.050000000000011
 30
0.0
 11
0.0
 21
-2.050000000000011
 31
0.0
  0
LINE
  5
E0B
330
E07
100
AcDbEntity
  8
ﾋﾞｽ
100
AcDbLine
 10
-2.0
 20
2.050000000000011
 30
0.0
 11
-2.0
 21
-2.050000000000011
 31
0.0
  0
ARC
  5
E0C
330
E07
100
AcDbEntity
  8
ﾋﾞｽ
100
AcDbCircle
 10
-1.536285706842818
 20
-2.165625000000005
 30
0.0
 40
1.276478085707443
100
AcDbArc
 50
334.4384694047316
 51
34.43846940473181
  0
ARC
  5
E0D
330
E07
100
AcDbEntity
  8
ﾋﾞｽ
100
AcDbCircle
 10
-5.030135119998647
 20
0.0
 30
0.0
 40
4.770327498863328
100
AcDbArc
 50
342.383031159614
 51
17.61696884038601
  0
ARC
  5
E0E
330
E07
100
AcDbEntity
  8
ﾋﾞｽ
100
AcDbCircle
 10
3.030135119998647
 20
0.0
 30
0.0
 40
4.770327498863318
100
AcDbArc
 50
162.383031159614
 51
197.616968840386
  0
ARC
  5
E0F
330
E07
100
AcDbEntity
  8
ﾋﾞｽ
100
AcDbCircle
 10
-0.4637142931572385
 20
-2.165625000000005
 30
0.0
 40
1.276478085707444
100
AcDbArc
 50
145.5615305952681
 51
205.5615305952669
  0
LINE
  5
E10
330
E07
100
AcDbEntity
  8
ﾋﾞｽ
100
AcDbLine
 10
-0.4835308504463001
 20
-2.887499999999988
 30
0.0
 11
0.0
 21
-2.050000000000011
 31
0.0
  0
LINE
  5
E11
330
E07
100
AcDbEntity
  8
ﾋﾞｽ
100
AcDbLine
 10
-1.516469149553699
 20
1.443749999999994
 30
0.0
 11
-0.4835308504463001
 21
1.443749999999994
 31
0.0
  0
LINE
  5
E12
330
E07
100
AcDbEntity
  8
ﾋﾞｽ
100
AcDbLine
 10
-1.516469149553699
 20
-2.887499999999988
 30
0.0
 11
-2.0
 21
-2.050000000000011
 31
0.0
  0
LINE
  5
E13
330
E07
100
AcDbEntity
  8
ﾋﾞｽ
100
AcDbLine
 10
-1.516469149553699
 20
-2.887499999999988
 30
0.0
 11
-0.4835308504463001
 21
-2.887499999999988
 31
0.0
  0
LINE
  5
E14
330
E07
100
AcDbEntity
  8
ﾋﾞｽ
100
AcDbLine
 10
-1.516469149553699
 20
-1.443750000000022
 30
0.0
 11
-0.4835308504463001
 21
-1.443750000000022
 31
0.0
  0
LINE
  5
E15
330
E07
100
AcDbEntity
  8
ﾋﾞｽ
100
AcDbLine
 10
-0.4835308504463001
 20
2.887499999999988
 30
0.0
 11
0.0
 21
2.050000000000011
 31
0.0
  0
LINE
  5
E16
330
E07
100
AcDbEntity
  8
ﾋﾞｽ
100
AcDbLine
 10
-1.516469149553699
 20
2.887499999999988
 30
0.0
 11
-2.0
 21
2.050000000000011
 31
0.0
  0
LINE
  5
E17
330
E07
100
AcDbEntity
  8
ﾋﾞｽ
100
AcDbLine
 10
-1.516469149553699
 20
2.887499999999988
 30
0.0
 11
-0.4835308504463001
 21
2.887499999999988
 31
0.0
  0
ENDBLK
  5
E1B
330
E07
100
AcDbEntity
  8
0
100
AcDbBlockEnd
  0
BLOCK
  5
F24
330
F08
100
AcDbEntity
  8
0
100
AcDbBlockBegin
  2
*D32
 70
     1
 10
0.0
 20
0.0
 30
0.0
  3
*D32
  1

  0
LINE
  5
F16
330
F08
100
AcDbEntity
  8
AM_5
100
AcDbLine
 10
102.8498415836694
 20
115.2182461101152
 30
0.0
 11
102.8498415836694
 21
103.2182461101152
 31
0.0
  0
LINE
  5
F17
330
F08
100
AcDbEntity
  8
AM_5
100
AcDbLine
 10
104.3498415836694
 20
115.2182461101152
 30
0.0
 11
104.3498415836694
 21
103.2182461101152
 31
0.0
  0
LINE
  5
F18
330
F08
100
AcDbEntity
  8
AM_5
100
AcDbLine
 10
100.3498415836694
 20
104.2182461101152
 30
0.0
 11
97.84984158366945
 21
104.2182461101152
 31
0.0
  0
LINE
  5
F19
330
F08
100
AcDbEntity
  8
AM_5
100
AcDbLine
 10
106.8498415836694
 20
104.2182461101152
 30
0.0
 11
116.6948163305
 21
104.2182461101152
 31
0.0
  0
LINE
  5
F1A
330
F08
100
AcDbEntity
  8
AM_5
100
AcDbLine
 10
102.8498415836694
 20
104.2182461101152
 30
0.0
 11
104.3498415836694
 21
104.2182461101152
 31
0.0
  0
INSERT
  5
F1B
330
F08
100
AcDbEntity
  8
AM_5
100
AcDbBlockReference
  2
_Open30
 10
102.8498415836694
 20
104.2182461101152
 30
0.0
 41
2.5
 42
2.5
 43
2.5
  0
INSERT
  5
F1C
330
F08
100
AcDbEntity
  8
AM_5
100
AcDbBlockReference
  2
_Open30
 10
104.3498415836694
 20
104.2182461101152
 30
0.0
 41
2.5
 42
2.5
 43
2.5
 50
180.0
  0
MTEXT
  5
F1D
330
F08
100
AcDbEntity
  8
AM_5
 62
     2
100
AcDbMText
 10
113.0223289570847
 20
107.4682461101152
 30
0.0
 40
3.5
 41
0.0
 71
     5
 72
     1
  1
1.5
 73
     1
 44
1.0
1001
ACAD
1000
MTEXTBEGIN
1070
    73
1070
     1
1070
    44
1040
1.0
1070
    74
1070
     0
1000
MTEXTEND
  0
POINT
  5
F1E
330
F08
100
AcDbEntity
  8
Defpoints
 62
     0
100
AcDbPoint
 10
102.8498415836694
 20
116.2182461101152
 30
0.0
  0
POINT
  5
F1F
330
F08
100
AcDbEntity
  8
Defpoints
 62
     0
100
AcDbPoint
 10
104.3498415836694
 20
116.2182461101152
 30
0.0
  0
POINT
  5
F20
330
F08
100
AcDbEntity
  8
Defpoints
 62
     0
100
AcDbPoint
 10
104.3498415836694
 20
104.2182461101152
 30
0.0
  0
ENDBLK
  5
F25
330
F08
100
AcDbEntity
  8
0
100
AcDbBlockEnd
  0
BLOCK
  5
F2C
330
F28
100
AcDbEntity
  8
0
100
AcDbBlockBegin
  2
*S33
 70
     1
 10
0.0
 20
0.0
 30
0.0
  3
*S33
  1

  0
CIRCLE
  5
F29
330
F28
100
AcDbEntity
  8
AM_12
 62
     4
100
AcDbCircle
 10
70.75355512207386
 20
223.5173818445895
 30
0.0
 40
1.75
  0
LINE
  5
F2A
330
F28
100
AcDbEntity
  8
AM_12
 62
     4
100
AcDbLine
 10
69.00355512207386
 20
221.7673818445895
 30
0.0
 11
72.50355512207386
 21
225.2673818445895
 31
0.0
  0
LINE
  5
F2B
330
F28
100
AcDbEntity
  8
AM_12
 62
     4
100
AcDbLine
 10
69.00355512207386
 20
225.2673818445895
 30
0.0
 11
72.50355512207386
 21
221.7673818445895
 31
0.0
  0
ENDBLK
  5
F2D
330
F28
100
AcDbEntity
  8
0
100
AcDbBlockEnd
  0
BLOCK
  5
F33
330
F2F
100
AcDbEntity
  8
0
100
AcDbBlockBegin
  2
*S34
 70
     1
 10
0.0
 20
0.0
 30
0.0
  3
*S34
  1

  0
CIRCLE
  5
F30
330
F2F
100
AcDbEntity
  8
AM_12
 62
     4
100
AcDbCircle
 10
72.99285623541857
 20
124.4670034613717
 30
0.0
 40
1.75
  0
LINE
  5
F31
330
F2F
100
AcDbEntity
  8
AM_12
 62
     4
100
AcDbLine
 10
71.24285623541857
 20
122.7170034613717
 30
0.0
 11
74.74285623541857
 21
126.2170034613717
 31
0.0
  0
LINE
  5
F32
330
F2F
100
AcDbEntity
  8
AM_12
 62
     4
100
AcDbLine
 10
71.24285623541857
 20
126.2170034613717
 30
0.0
 11
74.74285623541857
 21
122.7170034613717
 31
0.0
  0
ENDBLK
  5
F34
330
F2F
100
AcDbEntity
  8
0
100
AcDbBlockEnd
  0
BLOCK
  5
F3A
330
F36
100
AcDbEntity
  8
0
100
AcDbBlockBegin
  2
*S35
 70
     1
 10
0.0
 20
0.0
 30
0.0
  3
*S35
  1

  0
CIRCLE
  5
F37
330
F36
100
AcDbEntity
  8
AM_12
 62
     4
100
AcDbCircle
 10
145.8645644674781
 20
254.1246384338726
 30
0.0
 40
1.75
  0
LINE
  5
F38
330
F36
100
AcDbEntity
  8
AM_12
 62
     4
100
AcDbLine
 10
144.1145644674781
 20
252.3746384338726
 30
0.0
 11
147.6145644674781
 21
255.8746384338726
 31
0.0
  0
LINE
  5
F39
330
F36
100
AcDbEntity
  8
AM_12
 62
     4
100
AcDbLine
 10
144.1145644674781
 20
255.8746384338726
 30
0.0
 11
147.6145644674781
 21
252.3746384338726
 31
0.0
  0
ENDBLK
  5
F3B
330
F36
100
AcDbEntity
  8
0
100
AcDbBlockEnd
  0
BLOCK
  5
F42
330
F3D
100
AcDbEntity
  8
0
100
AcDbBlockBegin
  2
*S36
 70
     1
 10
0.0
 20
0.0
 30
0.0
  3
*S36
  1

  0
LINE
  5
F3E
330
F3D
100
AcDbEntity
  8
AM_5
100
AcDbLine
 10
135.1337015918417
 20
259.9518632677075
 30
0.0
 11
142.7888057420289
 21
255.7948804111991
 31
0.0
  0
TRACE
  5
F3F
330
F3D
100
AcDbEntity
  8
AM_5
370
    35
100
AcDbTrace
 10
142.5689142151197
 20
255.3899490948241
 30
0.0
 11
143.0086972689381
 21
256.199811727574
 31
0.0
 12
145.8645644674781
 22
254.1246384338726
 32
0.0
 13
145.8645644674781
 23
254.1246384338726
 33
0.0
  0
MTEXT
  5
F40
330
F3D
100
AcDbEntity
  8
AM_5
 62
     7
370
    35
100
AcDbMText
 10
129.7511238223056
 20
262.8747867280288
 30
0.0
 40
3.5
 41
0.0
 71
     5
 72
     5
  1
3
  7
ACISOTS
 73
     1
 44
1.0
1001
ACAD
1000
MTEXTBEGIN
1070
    73
1070
     1
1070
    44
1040
1.0
1070
    74
1070
     0
1000
MTEXTEND
  0
CIRCLE
  5
F41
330
F3D
100
AcDbEntity
  8
AM_5
 62
     3
100
AcDbCircle
 10
129.7511238223056
 20
262.8747867280288
 30
0.0
 40
6.125
  0
ENDBLK
  5
F43
330
F3D
100
AcDbEntity
  8
0
100
AcDbBlockEnd
  0
BLOCK
  5
F49
330
F45
100
AcDbEntity
  8
0
100
AcDbBlockBegin
  2
*S37
 70
     1
 10
0.0
 20
0.0
 30
0.0
  3
*S37
  1

  0
CIRCLE
  5
F46
330
F45
100
AcDbEntity
  8
AM_12
 62
     4
100
AcDbCircle
 10
146.8478756985404
 20
235.1394081624496
 30
0.0
 40
1.75
  0
LINE
  5
F47
330
F45
100
AcDbEntity
  8
AM_12
 62
     4
100
AcDbLine
 10
145.0978756985404
 20
233.3894081624496
 30
0.0
 11
148.5978756985404
 21
236.8894081624496
 31
0.0
  0
LINE
  5
F48
330
F45
100
AcDbEntity
  8
AM_12
 62
     4
100
AcDbLine
 10
145.0978756985404
 20
236.8894081624496
 30
0.0
 11
148.5978756985404
 21
233.3894081624496
 31
0.0
  0
ENDBLK
  5
F4A
330
F45
100
AcDbEntity
  8
0
100
AcDbBlockEnd
  0
BLOCK
  5
F51
330
F4C
100
AcDbEntity
  8
0
100
AcDbBlockBegin
  2
*S38
 70
     1
 10
0.0
 20
0.0
 30
0.0
  3
*S38
  1

  0
LINE
  5
F4D
330
F4C
100
AcDbEntity
  8
AM_5
100
AcDbLine
 10
133.2327697961908
 20
239.1310822070513
 30
0.0
 11
143.4892450208147
 21
236.1240908375485
 31
0.0
  0
TRACE
  5
F4E
330
F4C
100
AcDbEntity
  8
AM_5
370
    35
100
AcDbTrace
 10
143.3596090878853
 20
235.6819187223251
 30
0.0
 11
143.6188809537441
 21
236.5662629527719
 31
0.0
 12
146.8478756985404
 22
235.1394081624496
 32
0.0
 13
146.8478756985404
 23
235.1394081624496
 33
0.0
  0
MTEXT
  5
F4F
330
F4C
100
AcDbEntity
  8
AM_5
 62
     7
370
    35
100
AcDbMText
 10
127.3551661101709
 20
240.8542768884744
 30
0.0
 40
3.5
 41
0.0
 71
     5
 72
     5
  1
4
  7
ACISOTS
 73
     1
 44
1.0
1001
ACAD
1000
MTEXTBEGIN
1070
    73
1070
     1
1070
    44
1040
1.0
1070
    74
1070
     0
1000
MTEXTEND
  0
CIRCLE
  5
F50
330
F4C
100
AcDbEntity
  8
AM_5
 62
     3
100
AcDbCircle
 10
127.3551661101709
 20
240.8542768884744
 30
0.0
 40
6.125
  0
ENDBLK
  5
F52
330
F4C
100
AcDbEntity
  8
0
100
AcDbBlockEnd
  0
BLOCK
  5
F59
330
F54
100
AcDbEntity
  8
0
100
AcDbBlockBegin
  2
*S39
 70
     1
 10
0.0
 20
0.0
 30
0.0
  3
*S39
  1

  0
LINE
  5
F55
330
F54
100
AcDbEntity
  8
AM_5
100
AcDbLine
 10
51.71021323337507
 20
231.4298222526389
 30
0.0
 11
67.69654113219496
 21
225.2530931593021
 31
0.0
  0
TRACE
  5
F56
330
F54
100
AcDbEntity
  8
AM_5
100
AcDbTrace
 10
67.5304704821728
 20
224.8232766940651
 30
0.0
 11
67.86261178221713
 21
225.6829096245391
 31
0.0
 12
70.96132133030232
 22
223.9916613307652
 32
0.0
 13
70.96132133030232
 23
223.9916613307652
 33
0.0
  0
MTEXT
  5
F57
330
F54
100
AcDbEntity
  8
AM_5
 62
     7
100
AcDbMText
 10
45.99684788668719
 20
233.6373279525785
 30
0.0
 40
3.5
 41
0.0
 71
     5
 72
     5
  1
1
  7
ACISOTS
 73
     1
 44
1.0
1001
ACAD
1000
MTEXTBEGIN
1070
    73
1070
     1
1070
    44
1040
1.0
1070
    74
1070
     0
1000
MTEXTEND
  0
CIRCLE
  5
F58
330
F54
100
AcDbEntity
  8
AM_5
 62
     3
100
AcDbCircle
 10
45.99684788668719
 20
233.6373279525785
 30
0.0
 40
6.125
  0
ENDBLK
  5
F5A
330
F54
100
AcDbEntity
  8
0
100
AcDbBlockEnd
  0
BLOCK
  5
F61
330
F5C
100
AcDbEntity
  8
0
100
AcDbBlockBegin
  2
*S40
 70
     1
 10
0.0
 20
0.0
 30
0.0
  3
*S40
  1

  0
LINE
  5
F5D
330
F5C
100
AcDbEntity
  8
AM_5
100
AcDbLine
 10
56.30693339130613
 20
137.8673086812998
 30
0.0
 11
71.93842803283648
 21
126.140800286281
 31
0.0
  0
TRACE
  5
F5E
330
F5C
100
AcDbEntity
  8
AM_5
100
AcDbTrace
 10
71.66191421609472
 20
125.7722059784865
 30
0.0
 11
72.21494184957826
 21
126.5093945940755
 31
0.0
 12
74.73817977468525
 22
124.0404693161682
 32
0.0
 13
74.73817977468525
 23
124.0404693161682
 33
0.0
  0
MTEXT
  5
F5F
330
F5C
100
AcDbEntity
  8
AM_5
 62
     7
100
AcDbMText
 10
51.4073678430708
 20
141.5428878789971
 30
0.0
 40
3.5
 41
0.0
 71
     5
 72
     5
  1
2
  7
ACISOTS
 73
     1
 44
1.0
1001
ACAD
1000
MTEXTBEGIN
1070
    73
1070
     1
1070
    44
1040
1.0
1070
    74
1070
     0
1000
MTEXTEND
  0
CIRCLE
  5
F60
330
F5C
100
AcDbEntity
  8
AM_5
 62
     3
100
AcDbCircle
 10
51.4073678430708
 20
141.5428878789971
 30
0.0
 40
6.125
  0
ENDBLK
  5
F62
330
F5C
100
AcDbEntity
  8
0
100
AcDbBlockEnd
  0
BLOCK
  5
F9A
330
F64
100
AcDbEntity
  8
0
100
AcDbBlockBegin
  2
*S41
 70
     1
 10
0.0
 20
0.0
 30
0.0
  3
*S41
  1

  0
LINE
  5
F65
330
F64
100
AcDbEntity
  8
プレート
 62
     1
100
AcDbLine
 10
0.0
 20
68.525
 30
0.0
 11
193.0
 21
68.525
 31
0.0
  0
LINE
  5
F66
330
F64
100
AcDbEntity
  8
プレート
 62
     1
100
AcDbLine
 10
0.0
 20
62.35
 30
0.0
 11
193.0
 21
62.35
 31
0.0
  0
LINE
  5
F67
330
F64
100
AcDbEntity
  8
プレート
 62
     1
100
AcDbLine
 10
0.0
 20
56.17499999999999
 30
0.0
 11
193.0
 21
56.17499999999999
 31
0.0
  0
MTEXT
  5
F68
330
F64
100
AcDbEntity
  8
プレート
 62
     2
100
AcDbMText
 10
7.5
 20
73.34999999999999
 30
0.0
 40
3.5
 41
13.2
 71
     2
 72
     5
  1
1
  7
ACISOTS
 73
     1
 44
1.0
1001
ACAD
1000
MTEXTBEGIN
1070
    73
1070
     1
1070
    44
1040
1.0
1070
    74
1070
     0
1000
MTEXTEND
  0
LINE
  5
F69
330
F64
100
AcDbEntity
  8
プレート
 62
     1
100
AcDbLine
 10
15.0
 20
74.7
 30
0.0
 11
15.0
 21
68.525
 31
0.0
  0
MTEXT
  5
F6A
330
F64
100
AcDbEntity
  8
プレート
 62
     2
100
AcDbMText
 10
15.9
 20
73.34999999999999
 30
0.0
 40
3.5
 41
48.2
 71
     1
 72
     5
  1
ハンドル
  7
ACISOTS
 73
     1
 44
1.0
1001
ACAD
1000
MTEXTBEGIN
1070
    73
1070
     1
1070
    44
1040
1.0
1070
    74
1070
     0
1000
MTEXTEND
  0
LINE
  5
F6B
330
F64
100
AcDbEntity
  8
プレート
 62
     1
100
AcDbLine
 10
65.0
 20
74.7
 30
0.0
 11
65.0
 21
68.525
 31
0.0
  0
MTEXT
  5
F6C
330
F64
100
AcDbEntity
  8
プレート
 62
     2
100
AcDbMText
 10
65.9
 20
73.34999999999999
 30
0.0
 40
3.5
 41
13.2
 71
     1
 72
     5
  1
1
  7
ACISOTS
 73
     1
 44
1.0
1001
ACAD
1000
MTEXTBEGIN
1070
    73
1070
     1
1070
    44
1040
1.0
1070
    74
1070
     0
1000
MTEXTEND
  0
LINE
  5
F6D
330
F64
100
AcDbEntity
  8
プレート
 62
     1
100
AcDbLine
 10
80.0
 20
74.7
 30
0.0
 11
80.0
 21
68.525
 31
0.0
  0
MTEXT
  5
F6E
330
F64
100
AcDbEntity
  8
プレート
 62
     2
100
AcDbMText
 10
80.90000000000001
 20
73.34999999999999
 30
0.0
 40
3.5
 41
53.2
 71
     1
 72
     5
  1
ノリル(UL94V-1)
  7
ACISOTS
 73
     1
 44
1.0
1001
ACAD
1000
MTEXTBEGIN
1070
    73
1070
     1
1070
    44
1040
1.0
1070
    74
1070
     0
1000
MTEXTEND
  0
LINE
  5
F6F
330
F64
100
AcDbEntity
  8
プレート
 62
     1
100
AcDbLine
 10
135.0
 20
74.7
 30
0.0
 11
135.0
 21
68.525
 31
0.0
  0
MTEXT
  5
F70
330
F64
100
AcDbEntity
  8
プレート
 62
     2
100
AcDbMText
 10
135.9
 20
73.34999999999999
 30
0.0
 40
3.5
 41
56.2
 71
     1
 72
     5
  1
グレー/ブラック
  7
ACISOTS
 73
     1
 44
1.0
1001
ACAD
1000
MTEXTBEGIN
1070
    73
1070
     1
1070
    44
1040
1.0
1070
    74
1070
     0
1000
MTEXTEND
  0
MTEXT
  5
F71
330
F64
100
AcDbEntity
  8
プレート
 62
     2
100
AcDbMText
 10
7.5
 20
67.175
 30
0.0
 40
3.5
 41
13.2
 71
     2
 72
     5
  1
2
  7
ACISOTS
 73
     1
 44
1.0
1001
ACAD
1000
MTEXTBEGIN
1070
    73
1070
     1
1070
    44
1040
1.0
1070
    74
1070
     0
1000
MTEXTEND
  0
LINE
  5
F72
330
F64
100
AcDbEntity
  8
プレート
 62
     1
100
AcDbLine
 10
15.0
 20
68.525
 30
0.0
 11
15.0
 21
62.35
 31
0.0
  0
MTEXT
  5
F73
330
F64
100
AcDbEntity
  8
プレート
 62
     2
100
AcDbMText
 10
15.9
 20
67.175
 30
0.0
 40
3.5
 41
48.2
 71
     1
 72
     5
  1
プレート
  7
ACISOTS
 73
     1
 44
1.0
1001
ACAD
1000
MTEXTBEGIN
1070
    73
1070
     1
1070
    44
1040
1.0
1070
    74
1070
     0
1000
MTEXTEND
  0
LINE
  5
F74
330
F64
100
AcDbEntity
  8
プレート
 62
     1
100
AcDbLine
 10
65.0
 20
68.525
 30
0.0
 11
65.0
 21
62.35
 31
0.0
  0
MTEXT
  5
F75
330
F64
100
AcDbEntity
  8
プレート
 62
     2
100
AcDbMText
 10
65.9
 20
67.175
 30
0.0
 40
3.5
 41
13.2
 71
     1
 72
     5
  1
1
  7
ACISOTS
 73
     1
 44
1.0
1001
ACAD
1000
MTEXTBEGIN
1070
    73
1070
     1
1070
    44
1040
1.0
1070
    74
1070
     0
1000
MTEXTEND
  0
LINE
  5
F76
330
F64
100
AcDbEntity
  8
プレート
 62
     1
100
AcDbLine
 10
80.0
 20
68.525
 30
0.0
 11
80.0
 21
62.35
 31
0.0
  0
MTEXT
  5
F77
330
F64
100
AcDbEntity
  8
プレート
 62
     2
100
AcDbMText
 10
80.90000000000001
 20
67.175
 30
0.0
 40
3.5
 41
53.2
 71
     1
 72
     5
  1
アルミ　ｔ1.5
  7
ACISOTS
 73
     1
 44
1.0
1001
ACAD
1000
MTEXTBEGIN
1070
    73
1070
     1
1070
    44
1040
1.0
1070
    74
1070
     0
1000
MTEXTEND
  0
LINE
  5
F78
330
F64
100
AcDbEntity
  8
プレート
 62
     1
100
AcDbLine
 10
135.0
 20
68.525
 30
0.0
 11
135.0
 21
62.35
 31
0.0
  0
MTEXT
  5
F79
330
F64
100
AcDbEntity
  8
プレート
 62
     2
100
AcDbMText
 10
135.9
 20
67.175
 30
0.0
 40
3.5
 41
56.2
 71
     1
 72
     5
  1
シルバーアルマイト
  7
ACISOTS
 73
     1
 44
1.0
1001
ACAD
1000
MTEXTBEGIN
1070
    73
1070
     1
1070
    44
1040
1.0
1070
    74
1070
     0
1000
MTEXTEND
  0
MTEXT
  5
F7A
330
F64
100
AcDbEntity
  8
プレート
 62
     2
100
AcDbMText
 10
7.5
 20
61.0
 30
0.0
 40
3.5
 41
13.2
 71
     2
 72
     5
  1
3
  7
ACISOTS
 73
     1
 44
1.0
1001
ACAD
1000
MTEXTBEGIN
1070
    73
1070
     1
1070
    44
1040
1.0
1070
    74
1070
     0
1000
MTEXTEND
  0
LINE
  5
F7B
330
F64
100
AcDbEntity
  8
プレート
 62
     1
100
AcDbLine
 10
15.0
 20
62.35
 30
0.0
 11
15.0
 21
56.17499999999999
 31
0.0
  0
MTEXT
  5
F7C
330
F64
100
AcDbEntity
  8
プレート
 62
     2
100
AcDbMText
 10
15.9
 20
61.0
 30
0.0
 40
3.5
 41
48.2
 71
     1
 72
     5
  1
取付ビス
  7
ACISOTS
 73
     1
 44
1.0
1001
ACAD
1000
MTEXTBEGIN
1070
    73
1070
     1
1070
    44
1040
1.0
1070
    74
1070
     0
1000
MTEXTEND
  0
LINE
  5
F7D
330
F64
100
AcDbEntity
  8
プレート
 62
     1
100
AcDbLine
 10
65.0
 20
62.35
 30
0.0
 11
65.0
 21
56.17499999999999
 31
0.0
  0
MTEXT
  5
F7E
330
F64
100
AcDbEntity
  8
プレート
 62
     2
100
AcDbMText
 10
65.9
 20
61.0
 30
0.0
 40
3.5
 41
13.2
 71
     1
 72
     5
  1
2
  7
ACISOTS
 73
     1
 44
1.0
1001
ACAD
1000
MTEXTBEGIN
1070
    73
1070
     1
1070
    44
1040
1.0
1070
    74
1070
     0
1000
MTEXTEND
  0
LINE
  5
F7F
330
F64
100
AcDbEntity
  8
プレート
 62
     1
100
AcDbLine
 10
80.0
 20
62.35
 30
0.0
 11
80.0
 21
56.17499999999999
 31
0.0
  0
MTEXT
  5
F80
330
F64
100
AcDbEntity
  8
プレート
 62
     2
100
AcDbMText
 10
80.90000000000001
 20
61.0
 30
0.0
 40
3.5
 41
53.2
 71
     1
 72
     5
  1
バインドM2.5X8
  7
ACISOTS
 73
     1
 44
1.0
1001
ACAD
1000
MTEXTBEGIN
1070
    73
1070
     1
1070
    44
1040
1.0
1070
    74
1070
     0
1000
MTEXTEND
  0
LINE
  5
F81
330
F64
100
AcDbEntity
  8
プレート
 62
     1
100
AcDbLine
 10
135.0
 20
62.35
 30
0.0
 11
135.0
 21
56.17499999999999
 31
0.0
  0
MTEXT
  5
F82
330
F64
100
AcDbEntity
  8
プレート
 62
     2
100
AcDbMText
 10
135.9
 20
61.0
 30
0.0
 40
3.5
 41
56.2
 71
     1
 72
     5
  1
ニッケルメッキ
  7
ACISOTS
 73
     1
 44
1.0
1001
ACAD
1000
MTEXTBEGIN
1070
    73
1070
     1
1070
    44
1040
1.0
1070
    74
1070
     0
1000
MTEXTEND
  0
MTEXT
  5
F83
330
F64
100
AcDbEntity
  8
プレート
 62
     2
100
AcDbMText
 10
7.5
 20
54.825
 30
0.0
 40
3.5
 41
13.2
 71
     2
 72
     5
  1
4
  7
ACISOTS
 73
     1
 44
1.0
1001
ACAD
1000
MTEXTBEGIN
1070
    73
1070
     1
1070
    44
1040
1.0
1070
    74
1070
     0
1000
MTEXTEND
  0
LINE
  5
F84
330
F64
100
AcDbEntity
  8
プレート
 62
     1
100
AcDbLine
 10
15.0
 20
56.17499999999999
 30
0.0
 11
15.0
 21
50.0
 31
0.0
  0
MTEXT
  5
F85
330
F64
100
AcDbEntity
  8
プレート
 62
     2
100
AcDbMText
 10
15.9
 20
54.825
 30
0.0
 40
3.5
 41
48.2
 71
     1
 72
     5
  1
取付ナット
  7
ACISOTS
 73
     1
 44
1.0
1001
ACAD
1000
MTEXTBEGIN
1070
    73
1070
     1
1070
    44
1040
1.0
1070
    74
1070
     0
1000
MTEXTEND
  0
LINE
  5
F86
330
F64
100
AcDbEntity
  8
プレート
 62
     1
100
AcDbLine
 10
65.0
 20
56.17499999999999
 30
0.0
 11
65.0
 21
50.0
 31
0.0
  0
MTEXT
  5
F87
330
F64
100
AcDbEntity
  8
プレート
 62
     2
100
AcDbMText
 10
65.9
 20
54.825
 30
0.0
 40
3.5
 41
13.2
 71
     1
 72
     5
  1
2
  7
ACISOTS
 73
     1
 44
1.0
1001
ACAD
1000
MTEXTBEGIN
1070
    73
1070
     1
1070
    44
1040
1.0
1070
    74
1070
     0
1000
MTEXTEND
  0
LINE
  5
F88
330
F64
100
AcDbEntity
  8
プレート
 62
     1
100
AcDbLine
 10
80.0
 20
56.17499999999999
 30
0.0
 11
80.0
 21
50.0
 31
0.0
  0
MTEXT
  5
F89
330
F64
100
AcDbEntity
  8
プレート
 62
     2
100
AcDbMText
 10
80.90000000000001
 20
54.825
 30
0.0
 40
3.5
 41
53.2
 71
     1
 72
     5
  1
ナットＭ2.5
  7
ACISOTS
 73
     1
 44
1.0
1001
ACAD
1000
MTEXTBEGIN
1070
    73
1070
     1
1070
    44
1040
1.0
1070
    74
1070
     0
1000
MTEXTEND
  0
LINE
  5
F8A
330
F64
100
AcDbEntity
  8
プレート
 62
     1
100
AcDbLine
 10
135.0
 20
56.17499999999999
 30
0.0
 11
135.0
 21
50.0
 31
0.0
  0
MTEXT
  5
F8B
330
F64
100
AcDbEntity
  8
プレート
 62
     2
100
AcDbMText
 10
135.9
 20
54.825
 30
0.0
 40
3.5
 41
56.2
 71
     1
 72
     5
  1
ニッケルメッキ
  7
ACISOTS
 73
     1
 44
1.0
1001
ACAD
1000
MTEXTBEGIN
1070
    73
1070
     1
1070
    44
1040
1.0
1070
    74
1070
     0
1000
MTEXTEND
  0
LINE
  5
F8C
330
F64
100
AcDbEntity
  8
プレート
 62
     1
100
AcDbLine
 10
0.0
 20
74.7
 30
0.0
 11
193.0
 21
74.7
 31
0.0
  0
MTEXT
  5
F8D
330
F64
100
AcDbEntity
  8
プレート
 62
     2
100
AcDbMText
 10
7.5
 20
79.525
 30
0.0
 40
3.5
 41
13.2
 71
     2
 72
     5
  1
照番
  7
ACISOTS
 73
     1
 44
1.0
1001
ACAD
1000
MTEXTBEGIN
1070
    73
1070
     1
1070
    44
1040
1.0
1070
    74
1070
     0
1000
MTEXTEND
  0
LINE
  5
F8E
330
F64
100
AcDbEntity
  8
プレート
 62
     1
100
AcDbLine
 10
15.0
 20
80.875
 30
0.0
 11
15.0
 21
74.7
 31
0.0
  0
MTEXT
  5
F8F
330
F64
100
AcDbEntity
  8
プレート
 62
     2
100
AcDbMText
 10
40.0
 20
79.525
 30
0.0
 40
3.5
 41
48.2
 71
     2
 72
     5
  1
名称
  7
ACISOTS
 73
     1
 44
1.0
1001
ACAD
1000
MTEXTBEGIN
1070
    73
1070
     1
1070
    44
1040
1.0
1070
    74
1070
     0
1000
MTEXTEND
  0
LINE
  5
F90
330
F64
100
AcDbEntity
  8
プレート
 62
     1
100
AcDbLine
 10
65.0
 20
80.875
 30
0.0
 11
65.0
 21
74.7
 31
0.0
  0
MTEXT
  5
F91
330
F64
100
AcDbEntity
  8
プレート
 62
     2
100
AcDbMText
 10
72.5
 20
79.525
 30
0.0
 40
3.5
 41
13.2
 71
     2
 72
     5
  1
個数
  7
ACISOTS
 73
     1
 44
1.0
1001
ACAD
1000
MTEXTBEGIN
1070
    73
1070
     1
1070
    44
1040
1.0
1070
    74
1070
     0
1000
MTEXTEND
  0
LINE
  5
F92
330
F64
100
AcDbEntity
  8
プレート
 62
     1
100
AcDbLine
 10
80.0
 20
80.875
 30
0.0
 11
80.0
 21
74.7
 31
0.0
  0
MTEXT
  5
F93
330
F64
100
AcDbEntity
  8
プレート
 62
     2
100
AcDbMText
 10
107.5
 20
79.525
 30
0.0
 40
3.5
 41
53.2
 71
     2
 72
     5
  1
材質
  7
ACISOTS
 73
     1
 44
1.0
1001
ACAD
1000
MTEXTBEGIN
1070
    73
1070
     1
1070
    44
1040
1.0
1070
    74
1070
     0
1000
MTEXTEND
  0
LINE
  5
F94
330
F64
100
AcDbEntity
  8
プレート
 62
     1
100
AcDbLine
 10
135.0
 20
80.875
 30
0.0
 11
135.0
 21
74.7
 31
0.0
  0
MTEXT
  5
F95
330
F64
100
AcDbEntity
  8
プレート
 62
     2
100
AcDbMText
 10
164.0
 20
79.525
 30
0.0
 40
3.5
 41
56.2
 71
     2
 72
     5
  1
色・表面処理
  7
ACISOTS
 73
     1
 44
1.0
1001
ACAD
1000
MTEXTBEGIN
1070
    73
1070
     1
1070
    44
1040
1.0
1070
    74
1070
     0
1000
MTEXTEND
  0
LINE
  5
F96
330
F64
100
AcDbEntity
  8
プレート
 62
     7
100
AcDbLine
 10
0.0
 20
80.875
 30
0.0
 11
193.0
 21
80.875
 31
0.0
  0
LINE
  5
F97
330
F64
100
AcDbEntity
  8
プレート
 62
     7
100
AcDbLine
 10
193.0
 20
80.875
 30
0.0
 11
193.0
 21
50.0
 31
0.0
  0
LINE
  5
F98
330
F64
100
AcDbEntity
  8
プレート
 62
     7
100
AcDbLine
 10
193.0
 20
50.0
 30
0.0
 11
0.0
 21
50.0
 31
0.0
  0
LINE
  5
F99
330
F64
100
AcDbEntity
  8
プレート
 62
     7
100
AcDbLine
 10
0.0
 20
50.0
 30
0.0
 11
0.0
 21
80.875
 31
0.0
  0
ENDBLK
  5
F9B
330
F64
100
AcDbEntity
  8
0
100
AcDbBlockEnd
  0
ENDSEC
  0
SECTION
  2
ENTITIES
  0
INSERT
  5
5E3
330
1F
100
AcDbEntity
  8
0
370
     0
100
AcDbBlockReference
  2
TK-A4
 10
0.0
 20
0.0
 30
0.0
1001
GENIUS_GENOREF_13
1005
64C
1001
GENIUS_GENODEF_13
1002
{
1000
HIER
1070
     0
1002
}
1002
{
1000
MANEDIT
1070
     0
1002
}
1002
{
1000
NOSEL
1070
     0
1002
}
1002
{
1000
BEHIND
1070
     0
1002
}
1002
{
1000
OTHER
1070
     0
1002
}
1002
{
1000
REACTOR
1002
}
1001
GENIUS_GENOBJ-N-SDF_13
1002
{
1000
OWNER
1000
GEN
1002
}
1001
GENIUS_GENSCREG_15
1040
1.0
1040
1.0
1011
0.0
1021
0.0
1031
0.0
1011
193.0
1021
280.0000000000001
1031
0.0
1070
     3
  0
POINT
  5
64C
330
1F
100
AcDbEntity
  8
0
 60
     1
100
AcDbPoint
 10
0.0
 20
0.0
 30
0.0
1001
GENIUS_GENOBJ-N-TIT_13
1002
{
1000
OWNER
1000
GEN
1002
}
1001
GENIUS_GENOENT_13
1002
{
1000
MYREF
1005
64C
1002
}
1002
{
1000
GRP
1005
0
1002
}
1001
GENIUS_GENODEF_13
1002
{
1000
HIER
1070
     1
1002
}
1002
{
1000
MANEDIT
1070
     1
1002
}
1002
{
1000
NOSEL
1070
     0
1002
}
1002
{
1000
BEHIND
1070
     0
1002
}
1002
{
1000
OTHER
1070
     0
1002
}
1002
{
1000
REACTOR
1002
}
1001
GENIUS_GENOLIS_13
1002
{
1000
ENT
1005
5E3
1005
C87
1002
}
1001
GENIUS_GENTITLE_13
1002
{
1000
BORDER
1000
TK-A4
1002
}
1002
{
1000
TITLE
1000
TK-TITLE
1002
}
1002
{
1000
SCALE
1000
1:1
1002
}
1002
{
1000
TITLESTD
1000
ISO
1002
}
1002
{
1000
HRA
1005
5E3
1002
}
1002
{
1000
HTIT
1005
C87
1002
}
1002
{
1000
GENIUSID
1005
64C
1002
}
1002
{
1000
INVTXTID
1005
0
1002
}
1002
{
1000
UNCHG
1002
{
1000
GEN-TITLE-SIZ
1000
GEN-TITLE-SCA
1002
}
1002
}
  0
LINE
  5
771
330
1F
100
AcDbEntity
  8
ハンドル
 62
     0
100
AcDbLine
 10
102.8498415836694
 20
194.4962375092654
 30
0.0
 11
102.8498415836694
 21
194.3962375092654
 31
0.0
  0
LINE
  5
772
102
{ACAD_REACTORS
330
7C3
102
}
330
1F
100
AcDbEntity
  8
ハンドル
 62
     0
100
AcDbLine
 10
102.8498415836694
 20
194.3962375092654
 30
0.0
 11
104.3498415836694
 21
194.3962375092654
 31
0.0
  0
LINE
  5
773
330
1F
100
AcDbEntity
  8
ハンドル
 62
     0
100
AcDbLine
 10
102.8498415836694
 20
195.3962375092654
 30
0.0
 11
102.8498415836694
 21
194.4962375092654
 31
0.0
  0
LINE
  5
774
330
1F
100
AcDbEntity
  8
ハンドル
 62
     0
100
AcDbLine
 10
108.8498415836694
 20
191.8962375092654
 30
0.0
 11
116.8498415836694
 21
191.8962375092654
 31
0.0
  0
LINE
  5
775
330
1F
100
AcDbEntity
  8
ハンドル
 62
     0
100
AcDbLine
 10
104.3498415836694
 20
195.3962375092654
 30
0.0
 11
108.8498415836694
 21
191.8962375092654
 31
0.0
  0
LINE
  5
776
330
1F
100
AcDbEntity
  8
ハンドル
 62
     0
100
AcDbLine
 10
102.8498415836694
 20
195.3962375092654
 30
0.0
 11
104.3498415836694
 21
195.3962375092654
 31
0.0
  0
LINE
  5
777
102
{ACAD_REACTORS
330
9A9
102
}
330
1F
100
AcDbEntity
  8
ハンドル
100
AcDbLine
 10
116.8498415836694
 20
191.8962375092654
 30
0.0
 11
116.8498415836694
 21
187.8962375092654
 31
0.0
  0
LINE
  5
778
102
{ACAD_REACTORS
330
7C3
102
}
330
1F
100
AcDbEntity
  8
ハンドル
100
AcDbLine
 10
104.3498415836694
 20
181.3962375092654
 30
0.0
 11
104.3498415836694
 21
194.3962375092654
 31
0.0
  0
LINE
  5
779
330
1F
100
AcDbEntity
  8
ハンドル
100
AcDbLine
 10
116.8498415836694
 20
183.8962375092654
 30
0.0
 11
116.8498415836694
 21
187.8962375092654
 31
0.0
  0
LINE
  5
77A
330
1F
100
AcDbEntity
  8
ハンドル
 62
     0
100
AcDbLine
 10
102.8498415836694
 20
180.3962375092654
 30
0.0
 11
104.3498415836694
 21
180.3962375092654
 31
0.0
  0
LINE
  5
77B
330
1F
100
AcDbEntity
  8
ハンドル
 62
     0
100
AcDbLine
 10
104.3498415836694
 20
180.3962375092654
 30
0.0
 11
108.8498415836694
 21
183.8962375092654
 31
0.0
  0
LINE
  5
77C
102
{ACAD_REACTORS
330
8D4
330
8FA
330
922
330
9A9
102
}
330
1F
100
AcDbEntity
  8
ハンドル
 62
     0
100
AcDbLine
 10
108.8498415836694
 20
183.8962375092654
 30
0.0
 11
116.8498415836694
 21
183.8962375092654
 31
0.0
  0
LINE
  5
77D
102
{ACAD_REACTORS
330
8D4
102
}
330
1F
100
AcDbEntity
  8
ハンドル
 62
     0
100
AcDbLine
 10
102.8498415836694
 20
180.3962375092654
 30
0.0
 11
102.8498415836694
 21
181.2962375092654
 31
0.0
  0
LINE
  5
77E
330
1F
100
AcDbEntity
  8
ハンドル
 62
     0
100
AcDbLine
 10
102.8498415836694
 20
181.3962375092654
 30
0.0
 11
104.3498415836694
 21
181.3962375092654
 31
0.0
  0
LINE
  5
77F
330
1F
100
AcDbEntity
  8
ハンドル
 62
     0
100
AcDbLine
 10
102.8498415836694
 20
181.2962375092654
 30
0.0
 11
102.8498415836694
 21
181.3962375092654
 31
0.0
  0
LINE
  5
780
330
1F
100
AcDbEntity
  8
ハンドル
100
AcDbLine
 10
68.09641769688894
 20
228.6846274249427
 30
0.0
 11
81.9964176968889
 21
228.6846274249427
 31
0.0
  0
LINE
  5
781
102
{ACAD_REACTORS
330
7BF
102
}
330
1F
100
AcDbEntity
  8
ハンドル
100
AcDbLine
 10
81.9964176968889
 20
228.6846274249427
 30
0.0
 11
81.9964176968889
 21
214.6846274249427
 31
0.0
  0
LINE
  5
782
330
1F
100
AcDbEntity
  8
ハンドル
100
AcDbLine
 10
81.9964176968889
 20
214.6846274249427
 30
0.0
 11
68.09641769688894
 21
214.6846274249427
 31
0.0
  0
LINE
  5
783
330
1F
100
AcDbEntity
  8
ハンドル
100
AcDbLine
 10
68.09641769688894
 20
220.6846274249427
 30
0.0
 11
81.9964176968889
 21
220.6846274249427
 31
0.0
  0
LINE
  5
784
330
1F
100
AcDbEntity
  8
ハンドル0
100
AcDbLine
 10
68.09641769688894
 20
216.1846274249427
 30
0.0
 11
81.9964176968889
 21
216.1846274249427
 31
0.0
  0
LINE
  5
785
330
1F
100
AcDbEntity
  8
ハンドル
 62
     0
100
AcDbLine
 10
81.996417696889
 20
180.3962375092654
 30
0.0
 11
68.09641769688894
 21
180.3962375092654
 31
0.0
  0
LINE
  5
786
330
1F
100
AcDbEntity
  8
ハンドル
 62
     0
100
AcDbLine
 10
68.09641769688894
 20
195.3962375092654
 30
0.0
 11
81.996417696889
 21
195.3962375092654
 31
0.0
  0
LINE
  5
787
102
{ACAD_REACTORS
330
7B3
330
7C6
102
}
330
1F
100
AcDbEntity
  8
ハンドル
 62
     0
100
AcDbLine
 10
81.99641769688895
 20
195.3962375092654
 30
0.0
 11
81.99641769688895
 21
180.3962375092654
 31
0.0
  0
LINE
  5
788
330
1F
100
AcDbEntity
  8
ハンドル
 62
     0
100
AcDbLine
 10
81.996417696889
 20
181.3962375092654
 30
0.0
 11
68.09641769688894
 21
181.3962375092654
 31
0.0
  0
LINE
  5
789
330
1F
100
AcDbEntity
  8
ハンドル
 62
     0
100
AcDbLine
 10
81.996417696889
 20
194.3962375092654
 30
0.0
 11
68.09641769688894
 21
194.3962375092654
 31
0.0
  0
LINE
  5
78A
330
1F
100
AcDbEntity
  8
ハンドル
100
AcDbLine
 10
116.8498415836694
 20
189.0462375092654
 30
0.0
 11
118.4498415836694
 21
189.0462375092654
 31
0.0
  0
LINE
  5
78B
330
1F
100
AcDbEntity
  8
ハンドル
100
AcDbLine
 10
118.4498415836694
 20
186.7462375092654
 30
0.0
 11
116.8498415836694
 21
186.7462375092654
 31
0.0
  0
LINE
  5
78C
102
{ACAD_REACTORS
330
7B3
330
7BC
102
}
330
1F
100
AcDbEntity
  8
ハンドル
100
AcDbLine
 10
68.09641769688894
 20
195.3962375092654
 30
0.0
 11
68.09641769688894
 21
180.3962375092654
 31
0.0
  0
LINE
  5
78D
330
1F
100
AcDbEntity
  8
ハンドル
100
AcDbLine
 10
68.09641769688894
 20
228.6846274249427
 30
0.0
 11
68.09641769688894
 21
214.6846274249428
 31
0.0
  0
LINE
  5
78E
102
{ACAD_REACTORS
330
922
102
}
330
1F
100
AcDbEntity
  8
ハンドル
100
AcDbLine
 10
119.1498415836694
 20
188.6462375092654
 30
0.0
 11
119.1498415836694
 21
187.1462375092654
 31
0.0
  0
LINE
  5
78F
330
1F
100
AcDbEntity
  8
ハンドル
100
AcDbLine
 10
118.4498415836694
 20
189.0462375092654
 30
0.0
 11
119.1498415836694
 21
188.6462375092654
 31
0.0
  0
LINE
  5
790
330
1F
100
AcDbEntity
  8
ハンドル
100
AcDbLine
 10
118.4498415836694
 20
186.7462375092654
 30
0.0
 11
119.1498415836693
 21
187.1462375092654
 31
0.0
  0
LINE
  5
791
102
{ACAD_REACTORS
330
7CC
102
}
330
1F
100
AcDbEntity
  8
ハンドル
100
AcDbLine
 10
118.4498415836694
 20
189.0462375092654
 30
0.0
 11
118.4498415836694
 21
186.7462375092654
 31
0.0
  0
LINE
  5
792
330
1F
100
AcDbEntity
  8
ハンドル
100
AcDbLine
 10
70.09641769688895
 20
190.3962375092654
 30
0.0
 11
79.99641769688896
 21
190.3962375092654
 31
0.0
  0
LINE
  5
793
330
1F
100
AcDbEntity
  8
ハンドル
100
AcDbLine
 10
70.09641769688895
 20
185.3962375092654
 30
0.0
 11
79.99641769688896
 21
185.3962375092654
 31
0.0
  0
CIRCLE
  5
794
102
{ACAD_REACTORS
330
7C6
330
977
102
}
330
1F
100
AcDbEntity
  8
ハンドル
100
AcDbCircle
 10
75.04641769688896
 20
187.8962375092654
 30
0.0
 40
1.35
  0
LINE
  5
795
330
1F
100
AcDbEntity
  8
ハンドル
100
AcDbLine
 10
70.09641769688895
 20
194.3962375092654
 30
0.0
 11
70.09641769688895
 21
181.3962375092654
 31
0.0
  0
LINE
  5
796
330
1F
100
AcDbEntity
  8
ハンドル
100
AcDbLine
 10
79.99641769688896
 20
194.3962375092654
 30
0.0
 11
79.99641769688896
 21
181.3962375092654
 31
0.0
  0
LINE
  5
797
330
1F
100
AcDbEntity
  8
ハンドル
100
AcDbLine
 10
68.81641769688894
 20
228.6846274249427
 30
0.0
 11
68.81641769688897
 21
230.2846274249427
 31
0.0
  0
LINE
  5
798
330
1F
100
AcDbEntity
  8
ハンドル
100
AcDbLine
 10
71.11641769688896
 20
230.2846274249427
 30
0.0
 11
71.11641769688896
 21
228.6846274249427
 31
0.0
  0
LINE
  5
799
330
1F
100
AcDbEntity
  8
ハンドル
100
AcDbLine
 10
69.21641769688895
 20
230.9846274249428
 30
0.0
 11
70.71641769688895
 21
230.9846274249428
 31
0.0
  0
LINE
  5
79A
330
1F
100
AcDbEntity
  8
ハンドル
100
AcDbLine
 10
68.81641769688897
 20
230.2846274249427
 30
0.0
 11
69.21641769688895
 21
230.9846274249428
 31
0.0
  0
LINE
  5
79B
330
1F
100
AcDbEntity
  8
ハンドル
100
AcDbLine
 10
71.11641769688896
 20
230.2846274249427
 30
0.0
 11
70.71641769688895
 21
230.9846274249427
 31
0.0
  0
LINE
  5
79C
330
1F
100
AcDbEntity
  8
ハンドル
100
AcDbLine
 10
68.81641769688897
 20
230.2846274249427
 30
0.0
 11
71.11641769688896
 21
230.2846274249427
 31
0.0
  0
LINE
  5
79D
330
1F
100
AcDbEntity
  8
ハンドル
100
AcDbLine
 10
78.97641769688894
 20
228.6846274249427
 30
0.0
 11
78.97641769688897
 21
230.2846274249427
 31
0.0
  0
LINE
  5
79E
330
1F
100
AcDbEntity
  8
ハンドル
100
AcDbLine
 10
81.27641769688896
 20
230.2846274249427
 30
0.0
 11
81.27641769688896
 21
228.6846274249427
 31
0.0
  0
LINE
  5
79F
330
1F
100
AcDbEntity
  8
ハンドル
100
AcDbLine
 10
79.37641769688895
 20
230.9846274249428
 30
0.0
 11
80.87641769688895
 21
230.9846274249428
 31
0.0
  0
LINE
  5
7A0
330
1F
100
AcDbEntity
  8
ハンドル
100
AcDbLine
 10
78.97641769688897
 20
230.2846274249427
 30
0.0
 11
79.37641769688895
 21
230.9846274249428
 31
0.0
  0
LINE
  5
7A1
330
1F
100
AcDbEntity
  8
ハンドル
100
AcDbLine
 10
81.27641769688896
 20
230.2846274249427
 30
0.0
 11
80.87641769688895
 21
230.9846274249427
 31
0.0
  0
LINE
  5
7A2
330
1F
100
AcDbEntity
  8
ハンドル
100
AcDbLine
 10
78.97641769688897
 20
230.2846274249427
 30
0.0
 11
81.27641769688896
 21
230.2846274249427
 31
0.0
  0
LINE
  5
7A3
330
1F
100
AcDbEntity
  8
プレート
100
AcDbLine
 10
68.09641769688894
 20
129.6182461101152
 30
0.0
 11
81.99641769688895
 21
129.6182461101152
 31
0.0
  0
LINE
  5
7A4
330
1F
100
AcDbEntity
  8
プレート
100
AcDbLine
 10
81.99641769688895
 20
129.6182461101152
 30
0.0
 11
81.99641769688895
 21
116.2182461101152
 31
0.0
  0
LINE
  5
7A5
102
{ACAD_REACTORS
330
7AD
102
}
330
1F
100
AcDbEntity
  8
プレート
100
AcDbLine
 10
81.99641769688895
 20
116.2182461101152
 30
0.0
 11
68.09641769688894
 21
116.2182461101152
 31
0.0
  0
LINE
  5
7A6
102
{ACAD_REACTORS
330
7AD
102
}
330
1F
100
AcDbEntity
  8
プレート
100
AcDbLine
 10
68.09641769688894
 20
116.2182461101152
 30
0.0
 11
68.09641769688894
 21
129.6182461101152
 31
0.0
  0
LINE
  5
7A7
330
1F
100
AcDbEntity
  8
プレート
100
AcDbLine
 10
104.3498415836694
 20
129.6182461101152
 30
0.0
 11
102.8498415836694
 21
129.6182461101152
 31
0.0
  0
LINE
  5
7A8
330
1F
100
AcDbEntity
  8
プレート
100
AcDbLine
 10
102.8498415836694
 20
129.6182461101152
 30
0.0
 11
102.8498415836694
 21
116.2182461101152
 31
0.0
  0
LINE
  5
7A9
102
{ACAD_REACTORS
330
F15
102
}
330
1F
100
AcDbEntity
  8
プレート
100
AcDbLine
 10
102.8498415836694
 20
116.2182461101152
 30
0.0
 11
104.3498415836694
 21
116.2182461101152
 31
0.0
  0
LINE
  5
7AA
102
{ACAD_REACTORS
330
7B0
330
F15
102
}
330
1F
100
AcDbEntity
  8
プレート
100
AcDbLine
 10
104.3498415836694
 20
116.2182461101152
 30
0.0
 11
104.3498415836694
 21
129.6182461101152
 31
0.0
  0
DIMENSION
  5
7AB
102
{ACAD_XDICTIONARY
360
7AC
102
}
102
{ACAD_REACTORS
330
7AD
102
}
330
1F
100
AcDbEntity
  8
AM_5
100
AcDbDimension
  2
*D10
 10
81.99641769688895
 20
104.2182461101152
 30
0.0
 11
75.04641769688895
 21
107.4682461101152
 31
0.0
 70
    32
 71
     5
 42
13.9
  3
AM_ISO$0
100
AcDbAlignedDimension
 13
68.09641769688894
 23
116.2182461101152
 33
0.0
 14
81.99641769688895
 24
116.2182461101152
 34
0.0
100
AcDbRotatedDimension
1001
ACAD
1000
DSTYLE
1002
{
1070
    40
1040
1.0
1070
   144
1040
1.0
1002
}
  0
DIMENSION
  5
7AE
102
{ACAD_XDICTIONARY
360
7AF
102
}
102
{ACAD_REACTORS
330
7B0
102
}
330
1F
100
AcDbEntity
  8
AM_5
100
AcDbDimension
  2
*D11
 10
116.3498425836694
 20
116.2182461101152
 30
0.0
 11
113.0998425836694
 21
122.9182461101153
 31
0.0
 70
    32
 71
     5
 42
13.4
  3
AM_ISO$0
100
AcDbAlignedDimension
 13
104.3498415836694
 23
129.6182461101152
 33
0.0
 14
104.3498415836694
 24
116.2182461101152
 34
0.0
 50
90.0
100
AcDbRotatedDimension
1001
ACAD
1000
DSTYLE
1002
{
1070
    40
1040
1.0
1070
   144
1040
1.0
1002
}
  0
DIMENSION
  5
7B1
102
{ACAD_XDICTIONARY
360
7B2
102
}
102
{ACAD_REACTORS
330
7B3
102
}
330
1F
100
AcDbEntity
  8
AM_5
100
AcDbDimension
  2
*D12
 10
81.99641769688895
 20
168.3962375092654
 30
0.0
 11
75.04641769688895
 21
171.6462375092654
 31
0.0
 70
    32
 71
     5
 42
13.9
  3
AM_ISO$0
100
AcDbAlignedDimension
 13
68.09641769688894
 23
180.3962375092654
 33
0.0
 14
81.99641769688895
 24
180.3962375092654
 34
0.0
100
AcDbRotatedDimension
1001
ACAD
1000
DSTYLE
1002
{
1070
    40
1040
1.0
1070
   144
1040
1.0
1002
}
  0
DIMENSION
  5
7BA
102
{ACAD_XDICTIONARY
360
7BB
102
}
102
{ACAD_REACTORS
330
7BC
102
}
330
1F
100
AcDbEntity
  8
AM_5
100
AcDbDimension
  2
*D13
 10
61.7746475313561
 20
180.3962375092655
 30
0.0
 11
61.77464753135607
 21
188.770244917108
 31
0.0
 70
   160
 71
     5
 42
14.99999999999997
  3
AM_ISO$0
100
AcDbAlignedDimension
 13
68.09641769688894
 23
195.3962375092654
 33
0.0
 14
68.09641769688894
 24
180.3962375092654
 34
0.0
 50
90.0
100
AcDbRotatedDimension
1001
ACAD
1000
DSTYLE
1002
{
1070
    40
1040
1.0
1070
   144
1040
1.0
1002
}
  0
DIMENSION
  5
7BD
102
{ACAD_XDICTIONARY
360
7BE
102
}
102
{ACAD_REACTORS
330
7BF
102
}
330
1F
100
AcDbEntity
  8
AM_5
100
AcDbDimension
  2
*D14
 10
81.9964176968889
 20
242.9846274249428
 30
0.0
 11
91.8214176968889
 21
246.2346274249428
 31
0.0
 70
    32
 71
     5
 42
1.869999999999947
  3
AM_ISO$0
100
AcDbAlignedDimension
 13
80.12641769688896
 23
230.9846274249428
 33
0.0
 14
81.9964176968889
 24
228.6846274249427
 34
0.0
100
AcDbRotatedDimension
1001
ACAD
1000
DSTYLE
1002
{
1070
    40
1040
1.0
1070
   144
1040
1.0
1002
}
  0
DIMENSION
  5
7C0
330
1F
100
AcDbEntity
  8
AM_5
100
AcDbDimension
  2
*D9
 10
69.96641769688896
 20
242.9846274249427
 30
0.0
 11
61.6796066732669
 21
246.2346274249427
 31
0.0
 70
    32
 71
     5
 42
10.16
  3
AM_ISO$0
100
AcDbAlignedDimension
 13
80.12641769688896
 23
230.9846274249428
 33
0.0
 14
69.96641769688896
 24
230.9846274249428
 34
0.0
100
AcDbRotatedDimension
  0
DIMENSION
  5
7C1
102
{ACAD_XDICTIONARY
360
7C2
102
}
102
{ACAD_REACTORS
330
7C3
102
}
330
1F
100
AcDbEntity
  8
AM_5
100
AcDbDimension
  2
*D15
 10
104.3498415836694
 20
204.2317266282896
 30
0.0
 11
113.0223289570847
 21
204.2317266282896
 31
0.0
 70
   160
 71
     5
 42
1.499999999999971
  3
AM_ISO$0
100
AcDbAlignedDimension
 13
102.8498415836694
 23
194.3962375092654
 33
0.0
 14
104.3498415836694
 24
194.3962375092654
 34
0.0
100
AcDbRotatedDimension
1001
ACAD
1000
DSTYLE
1002
{
1070
    40
1040
1.0
1070
   144
1040
1.0
1002
}
  0
DIMENSION
  5
7C4
102
{ACAD_XDICTIONARY
360
7C5
102
}
102
{ACAD_REACTORS
330
7C6
102
}
330
1F
100
AcDbEntity
  8
AM_5
100
AcDbDimension
  2
*D16
 10
81.99641769688897
 20
204.0853252099439
 30
0.0
 11
78.52141769688896
 21
204.0853252099439
 31
0.0
 70
   160
 71
     5
 42
6.950000000000002
  3
AM_ISO$0
100
AcDbAlignedDimension
 13
75.04641769688896
 23
187.8962375092654
 33
0.0
 14
81.99641769688897
 24
195.3962375092654
 34
0.0
100
AcDbRotatedDimension
1001
ACAD
1000
DSTYLE
1002
{
1070
    40
1040
1.0
1070
   144
1040
1.0
1002
}
  0
DIMENSION
  5
7CA
102
{ACAD_XDICTIONARY
360
7CB
102
}
102
{ACAD_REACTORS
330
7CC
102
}
330
1F
100
AcDbEntity
  8
AM_5
100
AcDbDimension
  2
*D17
 10
128.1537051819874
 20
186.7462375092654
 30
0.0
 11
128.1537051819874
 21
198.1131638590586
 31
0.0
 70
   160
 71
     5
 42
2.299999999999982
  3
AM_ISO$0
100
AcDbAlignedDimension
 13
118.4498415836694
 23
189.0462375092654
 33
0.0
 14
118.4498415836694
 24
186.7462375092654
 34
0.0
 50
90.0
100
AcDbRotatedDimension
1001
ACAD
1000
DSTYLE
1002
{
1070
    40
1040
1.0
1070
   144
1040
1.0
1002
}
  0
INSERT
  5
7D0
102
{ACAD_REACTORS
330
76D
102
}
330
1F
100
AcDbEntity
  8
AM_12
100
AcDbBlockReference
  2
*S33
 10
0.0
 20
0.0
 30
0.0
  0
AMDTACMWBLOCKBOMENTITY
  5
7D1
330
1F
100
AcDbEntity
  8
AM_5
 92
        8
310
0800000000000000
370
    35
  0
INSERT
  5
7D2
102
{ACAD_REACTORS
330
76E
102
}
330
1F
100
AcDbEntity
  8
AM_12
100
AcDbBlockReference
  2
*S34
 10
0.0
 20
0.0
 30
0.0
  0
AMDTACMWBLOCKBOMENTITY
  5
7D3
330
1F
100
AcDbEntity
  8
AM_5
 92
        8
310
0800000000000000
370
    35
  0
DIMENSION
  5
8C8
102
{ACAD_XDICTIONARY
360
8D3
102
}
102
{ACAD_REACTORS
330
8D4
102
}
330
1F
100
AcDbEntity
  8
AM_5
100
AcDbDimension
  2
*D18
 10
116.8498415836694
 20
168.3962375092654
 30
0.0
 11
109.8498415836694
 21
171.6462375092654
 31
0.0
 70
    32
 71
     5
 42
14.0
  3
AM_ISO$0
100
AcDbAlignedDimension
 13
102.8498415836694
 23
180.3962375092654
 33
0.0
 14
116.8498415836694
 24
183.8962375092654
 34
0.0
 50
0.0000000000001018
100
AcDbRotatedDimension
1001
ACAD
1000
DSTYLE
1002
{
1070
    40
1040
1.0
1070
   144
1040
1.0
1002
}
  0
DIMENSION
  5
8EC
102
{ACAD_XDICTIONARY
360
8F9
102
}
102
{ACAD_REACTORS
330
8FA
102
}
330
1F
100
AcDbEntity
  8
AM_5
100
AcDbDimension
  2
*D19
 10
116.8498415836694
 20
175.63036883821
 30
0.0
 11
112.8498415836694
 21
178.88036883821
 31
0.0
 70
    32
 71
     5
 42
8.0
  3
AM_ISO$0
100
AcDbAlignedDimension
 13
108.8498415836694
 23
183.8962375092654
 33
0.0
 14
116.8498415836694
 24
183.8962375092654
 34
0.0
 50
0.0000000000001018
100
AcDbRotatedDimension
1001
ACAD
1000
DSTYLE
1002
{
1070
    40
1040
1.0
1070
   144
1040
1.0
1002
}
  0
DIMENSION
  5
914
102
{ACAD_XDICTIONARY
360
921
102
}
102
{ACAD_REACTORS
330
922
102
}
330
1F
100
AcDbEntity
  8
AM_5
100
AcDbDimension
  2
*D20
 10
119.1498415836694
 20
168.3962375092654
 30
0.0
 11
128.2167679334627
 21
171.6465819974544
 31
0.0
 70
    32
 71
     5
 42
2.300000000000011
  3
AM_ISO$0
100
AcDbAlignedDimension
 13
116.8498415836694
 23
183.8962375092654
 33
0.0
 14
119.1498415836694
 24
187.1462375092654
 34
0.0
 50
0.0000000000001018
100
AcDbRotatedDimension
1001
ACAD
1000
DSTYLE
1002
{
1070
    40
1040
1.0
1070
   144
1040
1.0
1002
}
  0
DIMENSION
  5
96F
102
{ACAD_XDICTIONARY
360
976
102
}
102
{ACAD_REACTORS
330
977
102
}
330
1F
100
AcDbEntity
  8
AM_5
100
AcDbDimension
  2
*D21
 10
75.89414144518622
 20
188.9468870448256
 30
0.0
 11
55.34850057920635
 21
170.330646339811
 31
0.0
 70
   163
 71
     5
 42
2.700000000000045
  3
AM_ISO$3
100
AcDbDiametricDimension
 15
74.19869394859173
 25
186.8455879737051
 35
0.0
 40
0.0
1001
ACAD
1000
DSTYLE
1002
{
1070
    40
1040
1.0
1070
   144
1040
1.0
1002
}
  0
DIMENSION
  5
99B
102
{ACAD_XDICTIONARY
360
9A8
102
}
102
{ACAD_REACTORS
330
9A9
102
}
330
1F
100
AcDbEntity
  8
AM_5
100
AcDbDimension
  2
*D22
 10
136.0550477770615
 20
183.8962375092654
 30
0.0
 11
132.8050477770615
 21
187.8962375092655
 31
0.0
 70
    32
 71
     5
 42
8.0
  3
AM_ISO$0
100
AcDbAlignedDimension
 13
116.8498415836694
 23
191.8962375092654
 33
0.0
 14
116.8498415836694
 24
183.8962375092654
 34
0.0
 50
90.0
100
AcDbRotatedDimension
1001
ACAD
1000
DSTYLE
1002
{
1070
    40
1040
1.0
1070
   144
1040
1.0
1002
}
  0
INSERT
  5
B81
102
{ACAD_REACTORS
330
B80
102
}
330
1F
100
AcDbEntity
  8
AM_12
100
AcDbBlockReference
  2
*S35
 10
0.0
 20
0.0
 30
0.0
  0
INSERT
  5
B83
102
{ACAD_REACTORS
330
B82
102
}
330
1F
100
AcDbEntity
  8
AM_5
100
AcDbBlockReference
  2
*S36
 10
0.0
 20
0.0
 30
0.0
  0
INSERT
  5
B85
102
{ACAD_REACTORS
330
B84
102
}
330
1F
100
AcDbEntity
  8
AM_12
100
AcDbBlockReference
  2
*S37
 10
0.0
 20
0.0
 30
0.0
  0
INSERT
  5
B87
102
{ACAD_REACTORS
330
B86
102
}
330
1F
100
AcDbEntity
  8
AM_5
100
AcDbBlockReference
  2
*S38
 10
0.0
 20
0.0
 30
0.0
  0
INSERT
  5
C17
102
{ACAD_REACTORS
330
957
102
}
330
1F
100
AcDbEntity
  8
AM_5
100
AcDbBlockReference
  2
*S39
 10
0.0
 20
0.0
 30
0.0
  0
INSERT
  5
C18
102
{ACAD_REACTORS
330
958
102
}
330
1F
100
AcDbEntity
  8
AM_5
100
AcDbBlockReference
  2
*S40
 10
0.0
 20
0.0
 30
0.0
  0
INSERT
  5
C87
330
1F
100
AcDbEntity
  8
0
370
     0
100
AcDbBlockReference
 66
     1
  2
TK-TITLE
 10
193.0
 20
0.0
 30
0.0
1001
GENIUS_GENOREF_13
1005
64C
  0
ATTRIB
  5
C89
330
C87
100
AcDbEntity
  8
0
100
AcDbText
 10
184.9976908104542
 20
1.705189434395036
 30
0.0
 40
2.5
  1

100
AcDbAttribute
  2
GEN-TITLE-NR2
 70
     0
  0
ATTRIB
  5
C8A
330
C87
100
AcDbEntity
  8
0
100
AcDbText
 10
108.8574809841467
 20
12.82790432564377
 30
0.0
 40
3.5
  1
HN-15□
100
AcDbAttribute
  2
GEN-TITLE-DES1
 70
     0
  0
ATTRIB
  5
C8B
330
C87
100
AcDbEntity
  8
0
100
AcDbText
 10
109.0
 20
9.149999999999948
 30
0.0
 40
2.5
  1
HN型ハンドル
100
AcDbAttribute
  2
GEN-TITLE-DES2
 70
     0
  0
ATTRIB
  5
C8C
330
C87
100
AcDbEntity
  8
0
100
AcDbText
 10
109.0
 20
1.999999999999957
 30
0.0
 40
3.0
  1

100
AcDbAttribute
  2
GEN-TITLE-NR1
 70
     0
  0
ATTRIB
  5
C8D
330
C87
100
AcDbEntity
  8
0
100
AcDbText
 10
44.03813241647083
 20
43.29999999999991
 30
0.0
 40
3.0
  1

100
AcDbAttribute
  2
GEN-TITLE-MAT1
 70
     0
  0
ATTRIB
  5
C8E
330
C87
100
AcDbEntity
  8
0
100
AcDbText
 10
44.03813241647083
 20
33.29999999999991
 30
0.0
 40
3.0
  1

100
AcDbAttribute
  2
GEN-TITLE-MAT2
 70
     0
  0
ATTRIB
  5
C8F
330
C87
100
AcDbEntity
  8
0
100
AcDbText
 10
17.38725908739047
 20
16.19999999999994
 30
0.0
 40
3.0
  1

 72
     2
 11
17.38725908739047
 21
15.79999999999994
 31
0.0
100
AcDbAttribute
  2
GEN-TITLE-QTY
 70
     0
 74
     1
  0
ATTRIB
  5
C90
330
C87
100
AcDbEntity
  8
0
100
AcDbText
 10
11.72526038557594
 20
28.69999999999997
 30
0.0
 40
3.0
  1
1:1
 72
     2
 11
15.17526038557594
 21
28.29999999999998
 31
0.0
100
AcDbAttribute
  2
GEN-TITLE-SCA
 70
     0
 74
     1
  0
ATTRIB
  5
C91
330
C87
100
AcDbEntity
  8
0
100
AcDbText
 10
2.765653889225838
 20
3.988342537610664
 30
0.0
 40
3.0
  1
2012/09/14
 72
     1
 11
12.78280483378614
 21
3.588342537610664
 31
0.0
100
AcDbAttribute
  2
GEN-TITLE-DAT
 70
     0
 74
     1
  0
SEQEND
  5
C88
330
C87
100
AcDbEntity
  8
0
370
     0
  0
INSERT
  5
C93
102
{ACAD_REACTORS
330
956
102
}
330
1F
100
AcDbEntity
  8
プレート
100
AcDbBlockReference
  2
*S41
 10
0.0
 20
0.0
 30
0.0
  0
INSERT
  5
DC8
330
1F
100
AcDbEntity
  8
0
100
AcDbBlockReference
  2
A$C35C16C4D
 10
146.3605755159523
 20
253.5981281648831
 30
0.0
  0
INSERT
  5
DE0
330
1F
100
AcDbEntity
  8
0
100
AcDbBlockReference
  2
A$C47270E8E
 10
168.2741360667442
 20
253.598128164883
 30
0.0
  0
INSERT
  5
E04
330
1F
100
AcDbEntity
  8
0
100
AcDbBlockReference
  2
A$C762874DC
 10
164.0948819750029
 20
234.3345986834641
 30
0.0
  0
INSERT
  5
E1D
330
1F
100
AcDbEntity
  8
0
100
AcDbBlockReference
  2
A$C4B68363E
 10
147.5733421725857
 20
234.3338500294123
 30
0.0
  0
DIMENSION
  5
F07
102
{ACAD_XDICTIONARY
360
F14
102
}
102
{ACAD_REACTORS
330
F15
102
}
330
1F
100
AcDbEntity
  8
AM_5
100
AcDbDimension
  2
*D32
 10
104.3498415836694
 20
104.2182461101152
 30
0.0
 11
113.0223289570847
 21
107.4682461101152
 31
0.0
 70
    32
 71
     5
 42
1.500000000000014
  3
AM_ISO$0
100
AcDbAlignedDimension
 13
102.8498415836694
 23
116.2182461101152
 33
0.0
 14
104.3498415836694
 24
116.2182461101152
 34
0.0
 50
0.0000000000001132
100
AcDbRotatedDimension
  0
VIEWPORT
  5
17C
102
{ACAD_XDICTIONARY
360
FA9
102
}
330
23
100
AcDbEntity
 67
     1
  8
0
100
AcDbViewport
 10
133.3499908447265
 20
101.5999970436096
 30
0.0
 40
370.2266912936524
 41
228.4221935424805
 68
     1
 69
     1
 12
133.3499908447265
 22
101.5999970436096
 13
0.0
 23
0.0
 14
10.0
 24
10.0
 15
10.0
 25
10.0
 16
0.0
 26
0.0
 36
1.0
 17
0.0
 27
0.0
 37
0.0
 42
50.0
 43
0.0
 44
0.0
 45
228.4221935424805
 50
0.0
 51
0.0
 72
   100
 90
    32800
  1

281
     0
 71
     1
 74
     0
110
0.0
120
0.0
130
0.0
111
1.0
121
0.0
131
0.0
112
0.0
122
1.0
132
0.0
 79
     0
146
0.0
1001
GENIUS_GENSCREG_15
1000
PF
1040
1.0
1000
DF
1040
1.0
1000
MIN
1011
-51.76335480209963
1021
-12.6110997276306
1031
0.0
1000
MAX
1011
318.4633364915527
1021
215.8110938148499
1031
0.0
1000
FLAGS
1070
     4
1001
GENIUS_GENOBJ-N-SDF_13
1002
{
1000
OWNER
1000
GEN
1002
}
1001
GENIUS_GENODEF_13
1002
{
1000
HIER
1070
     0
1002
}
1002
{
1000
MANEDIT
1070
     0
1002
}
1002
{
1000
NOSEL
1070
     0
1002
}
1002
{
1000
BEHIND
1070
     0
1002
}
1002
{
1000
OTHER
1070
     0
1002
}
1002
{
1000
REACTOR
1002
}
  0
ENDSEC
  0
SECTION
  2
OBJECTS
  0
DICTIONARY
  5
C
330
0
100
AcDbDictionary
281
     1
  3
ACAD_COLOR
350
BE
  3
ACAD_GROUP
350
D
  3
ACAD_LAYOUT
350
1A
  3
ACAD_MATERIAL
350
BD
  3
ACAD_MLINESTYLE
350
17
  3
ACAD_PLOTSETTINGS
350
19
  3
ACAD_PLOTSTYLENAME
350
E
  3
ACAD_TABLESTYLE
350
583
  3
ACDBHEADERROUNDTRIPXREC
350
FA0
  3
AcDbVariableDictionary
350
94
  3
AcmDictionary
350
5B
  3
AMG
350
41
  3
AMGSNAPSETTINGS
350
220
  3
ASE_INDEX_DICTIONARY
350
EF4
  3
DWGPROPS
350
F9F
  0
DICTIONARY
  5
35D
330
2
100
AcDbDictionary
280
     1
281
     1
  3
ACAD_LAYERFILTERS
360
E4F
  3
ACAD_LAYERSTATES
360
35E
  3
ACLYDICTIONARY
360
E4E
  3
AMLAYER_GROUPCOLORS
360
4A4
  0
DICTIONARY
  5
8F
330
1F
100
AcDbDictionary
280
     1
281
     1
  3
ACAD_SORTENTS
360
B31
  0
DICTIONARY
  5
5D9
330
5CD
100
AcDbDictionary
280
     1
281
     1
  0
DICTIONARY
  5
63E
330
5E9
100
AcDbDictionary
280
     1
281
     1
  0
DICTIONARY
  5
C24
330
C1C
100
AcDbDictionary
280
     1
281
     1
  0
DICTIONARY
  5
C83
330
C2A
100
AcDbDictionary
280
     1
281
     1
  0
DICTIONARY
  5
DC3
330
DB1
100
AcDbDictionary
280
     1
281
     1
  3
ACAD_SORTENTS
360
DC4
  0
DICTIONARY
  5
DDB
330
DCB
100
AcDbDictionary
280
     1
281
     1
  3
ACAD_SORTENTS
360
DDC
  0
DICTIONARY
  5
DFF
330
DF5
100
AcDbDictionary
280
     1
281
     1
  3
ACAD_SORTENTS
360
E00
  0
DICTIONARY
  5
E18
330
E07
100
AcDbDictionary
280
     1
281
     1
  3
ACAD_SORTENTS
360
E19
  0
DICTIONARY
  5
FA7
330
178
100
AcDbDictionary
280
     1
281
     1
  3
ACAD_XREC_ROUNDTRIP
360
FA8
  0
DICTIONARY
  5
7AC
330
7AB
100
AcDbDictionary
280
     1
281
     1
  3
ACAD_DIMASSOC
360
7AD
  0
DICTIONARY
  5
7AF
330
7AE
100
AcDbDictionary
280
     1
281
     1
  3
ACAD_DIMASSOC
360
7B0
  0
DICTIONARY
  5
7B2
330
7B1
100
AcDbDictionary
280
     1
281
     1
  3
ACAD_DIMASSOC
360
7B3
  0
DICTIONARY
  5
7BB
330
7BA
100
AcDbDictionary
280
     1
281
     1
  3
ACAD_DIMASSOC
360
7BC
  0
DICTIONARY
  5
7BE
330
7BD
100
AcDbDictionary
280
     1
281
     1
  3
ACAD_DIMASSOC
360
7BF
  0
DICTIONARY
  5
7C2
330
7C1
100
AcDbDictionary
280
     1
281
     1
  3
ACAD_DIMASSOC
360
7C3
  0
DICTIONARY
  5
7C5
330
7C4
100
AcDbDictionary
280
     1
281
     1
  3
ACAD_DIMASSOC
360
7C6
  0
DICTIONARY
  5
7CB
330
7CA
100
AcDbDictionary
280
     1
281
     1
  3
ACAD_DIMASSOC
360
7CC
  0
DICTIONARY
  5
8D3
330
8C8
100
AcDbDictionary
280
     1
281
     1
  3
ACAD_DIMASSOC
360
8D4
  0
DICTIONARY
  5
8F9
330
8EC
100
AcDbDictionary
280
     1
281
     1
  3
ACAD_DIMASSOC
360
8FA
  0
DICTIONARY
  5
921
330
914
100
AcDbDictionary
280
     1
281
     1
  3
ACAD_DIMASSOC
360
922
  0
DICTIONARY
  5
976
330
96F
100
AcDbDictionary
280
     1
281
     1
  3
ACAD_DIMASSOC
360
977
  0
DICTIONARY
  5
9A8
330
99B
100
AcDbDictionary
280
     1
281
     1
  3
ACAD_DIMASSOC
360
9A9
  0
DICTIONARY
  5
F14
330
F07
100
AcDbDictionary
280
     1
281
     1
  3
ACAD_DIMASSOC
360
F15
  0
DICTIONARY
  5
FA9
330
17C
100
AcDbDictionary
280
     1
281
     1
  3
ACAD_XREC_ROUNDTRIP
360
FAA
  0
DICTIONARY
  5
BE
102
{ACAD_REACTORS
330
C
102
}
330
C
100
AcDbDictionary
281
     1
  0
DICTIONARY
  5
D
102
{ACAD_REACTORS
330
C
102
}
330
C
100
AcDbDictionary
281
     1
  0
DICTIONARY
  5
1A
102
{ACAD_REACTORS
330
C
102
}
330
C
100
AcDbDictionary
281
     1
  3
Model
350
22
  3
レイアウト1
350
1E
  3
レイアウト2
350
26
  0
DICTIONARY
  5
BD
102
{ACAD_REACTORS
330
C
102
}
330
C
100
AcDbDictionary
281
     1
  0
DICTIONARY
  5
17
102
{ACAD_REACTORS
330
C
102
}
330
C
100
AcDbDictionary
281
     1
  3
Standard
350
18
  0
DICTIONARY
  5
19
102
{ACAD_REACTORS
330
C
102
}
330
C
100
AcDbDictionary
281
     1
  0
ACDBDICTIONARYWDFLT
  5
E
102
{ACAD_REACTORS
330
C
102
}
330
C
100
AcDbDictionary
281
     1
  3
Normal
350
F
100
AcDbDictionaryWithDefault
340
F
  0
DICTIONARY
  5
583
102
{ACAD_REACTORS
330
C
102
}
330
C
100
AcDbDictionary
281
     1
  3
Standard
350
584
  0
DICTIONARY
  5
FA0
102
{ACAD_REACTORS
330
C
102
}
330
C
100
AcDbDictionary
281
     1
  0
DICTIONARY
  5
94
102
{ACAD_REACTORS
330
C
102
}
330
C
100
AcDbDictionary
281
     1
  3
CTABLESTYLE
350
A70
  3
DIMASSOC
350
96
  3
INDEXCTL
350
95
  3
PROJECTNAME
350
F9D
  0
DICTIONARY
  5
5B
102
{ACAD_REACTORS
330
C
102
}
330
C
100
AcDbDictionary
281
     1
  3
AcmBOM
350
954
  3
AcmStdDictionary
350
61
  3
AMDTSECTSYM_ARROWCOLOR
350
58F
  0
DICTIONARY
  5
41
102
{ACAD_REACTORS
330
C
102
}
330
C
100
AcDbDictionary
281
     1
  0
DICTIONARY
  5
220
102
{ACAD_REACTORS
330
C
102
}
330
C
100
AcDbDictionary
281
     1
  0
DICTIONARY
  5
EF4
102
{ACAD_REACTORS
330
C
102
}
330
C
100
AcDbDictionary
281
     1
  3
ASEBlockHierarchyIndexRecord
350
EF6
1001
DCO15
1040
1761022084.156
  0
XRECORD
  5
F9F
102
{ACAD_REACTORS
330
C
102
}
330
C
100
AcDbXrecord
280
     1
  1
DWGPROPS COOKIE
  2

  3

  4

  6

  7

  8

  9

300
AmdtFileType=84
301
=
302
=
303
=
304
=
305
=
306
=
307
=
308
=
309
=
 40
0.0572025231481482
 41
2453938.637014792
 42
2456185.411899954
  1

 90
        1
  0
DICTIONARY
  5
E4F
102
{ACAD_REACTORS
330
35D
102
}
330
35D
100
AcDbDictionary
281
     1
  0
DICTIONARY
  5
35E
102
{ACAD_REACTORS
330
35D
102
}
330
35D
100
AcDbDictionary
281
     1
  3
takachi1
350
35F
  0
DICTIONARY
  5
E4E
102
{ACAD_REACTORS
330
35D
102
}
330
35D
100
AcDbDictionary
281
     1
1001
ACAD
1000
<All
  0
DICTIONARY
  5
4A4
102
{ACAD_REACTORS
330
35D
102
}
330
35D
100
AcDbDictionary
280
     1
281
     1
  0
SORTENTSTABLE
  5
B31
102
{ACAD_REACTORS
330
8F
102
}
330
8F
100
AcDbSortentsTable
330
1F
331
DE0
  5
DF1
331
778
  5
778
331
77A
  5
77A
331
77C
  5
77C
331
B81
  5
D6F
331
77E
  5
77E
331
B83
  5
D70
331
780
  5
780
331
B85
  5
D71
331
782
  5
782
331
B87
  5
D72
331
784
  5
784
331
8C8
  5
8C8
331
7D0
  5
7D0
331
786
  5
786
331
7D2
  5
7D2
331
788
  5
788
331
C93
  5
D76
331
78A
  5
78A
331
78C
  5
78C
331
78E
  5
78E
331
790
  5
790
331
792
  5
792
331
794
  5
794
331
5E3
  5
5E3
331
796
  5
796
331
7B1
  5
7B1
331
8EC
  5
8EC
331
798
  5
798
331
79A
  5
79A
331
79C
  5
79C
331
79E
  5
79E
331
96F
  5
96F
331
7A0
  5
7A0
331
7A2
  5
7A2
331
7A4
  5
7A4
331
771
  5
771
331
7BD
  5
7BD
331
773
  5
773
331
7A6
  5
7A6
331
7A8
  5
7A8
331
7C1
  5
7C1
331
775
  5
775
331
914
  5
914
331
7AA
  5
7AA
331
777
  5
777
331
7AE
  5
7AE
331
C18
  5
D74
331
779
  5
779
331
77B
  5
77B
331
77D
  5
77D
331
77F
  5
77F
331
781
  5
781
331
783
  5
783
331
785
  5
785
331
7D1
  5
7D1
331
787
  5
787
331
7D3
  5
7D3
331
789
  5
789
331
99B
  5
99B
331
78B
  5
78B
331
78D
  5
78D
331
78F
  5
78F
331
791
  5
791
331
793
  5
793
331
795
  5
795
331
797
  5
797
331
799
  5
799
331
79B
  5
79B
331
79D
  5
79D
331
79F
  5
79F
331
DC8
  5
DF0
331
7A1
  5
7A1
331
7BA
  5
7BA
331
7A3
  5
7A3
331
7A5
  5
7A5
331
772
  5
772
331
7A7
  5
7A7
331
774
  5
774
331
C87
  5
D75
331
7C0
  5
7C0
331
7A9
  5
7A9
331
776
  5
776
331
7AB
  5
7AB
331
7C4
  5
7C4
331
C17
  5
D73
331
7CA
  5
7CA
  0
SORTENTSTABLE
  5
DC4
102
{ACAD_REACTORS
330
DC3
102
}
330
DC3
100
AcDbSortentsTable
330
DB1
  0
SORTENTSTABLE
  5
DDC
102
{ACAD_REACTORS
330
DDB
102
}
330
DDB
100
AcDbSortentsTable
330
DCB
  0
SORTENTSTABLE
  5
E00
102
{ACAD_REACTORS
330
DFF
102
}
330
DFF
100
AcDbSortentsTable
330
DF5
  0
SORTENTSTABLE
  5
E19
102
{ACAD_REACTORS
330
E18
102
}
330
E18
100
AcDbSortentsTable
330
E07
  0
XRECORD
  5
FA8
102
{ACAD_REACTORS
330
FA7
102
}
330
FA7
100
AcDbXrecord
280
     1
102
SHADEPLOT
 70
     0
  0
DIMASSOC
  5
7AD
102
{ACAD_REACTORS
330
7AC
102
}
330
7AC
100
AcDbDimAssoc
330
7AB
 90
        3
 70
     0
 71
     0
  1
AcDbOsnapPointRef
 72
    13
331
7A6
 73
     0
 91
        0
 40
0.0
 10
0.0
 20
0.0
 30
2.000000000000000E+50
 75
     0
  1
AcDbOsnapPointRef
 72
    13
331
7A5
 73
     0
 91
        0
 40
0.0
 10
0.0
 20
0.0
 30
2.000000000000000E+50
 75
     0
  0
DIMASSOC
  5
7B0
102
{ACAD_REACTORS
330
7AF
102
}
330
7AF
100
AcDbDimAssoc
330
7AE
 90
        3
 70
     0
 71
     0
  1
AcDbOsnapPointRef
 72
     1
331
7AA
 73
     0
 91
        0
 40
0.0
 10
0.0
 20
0.0
 30
2.000000000000000E+50
 75
     0
  1
AcDbOsnapPointRef
 72
    13
331
7AA
 73
     0
 91
        0
 40
0.0
 10
0.0
 20
0.0
 30
2.000000000000000E+50
 75
     0
  0
DIMASSOC
  5
7B3
102
{ACAD_REACTORS
330
7B2
102
}
330
7B2
100
AcDbDimAssoc
330
7B1
 90
        3
 70
     0
 71
     0
  1
AcDbOsnapPointRef
 72
     1
331
78C
 73
     0
 91
        0
 40
0.0
 10
0.0
 20
0.0
 30
2.000000000000000E+50
 75
     0
  1
AcDbOsnapPointRef
 72
     8
331
787
 73
     0
 91
        0
 40
1.0
 10
0.0
 20
0.0
 30
0.0
 75
     1
  1
AcDbOsnapPointRef
 72
     1
331
78C
 73
     0
 91
        0
 40
0.0
 10
0.0
 20
0.0
 30
2.000000000000000E+50
 75
     0
  0
DIMASSOC
  5
7BC
102
{ACAD_REACTORS
330
7BB
102
}
330
7BB
100
AcDbDimAssoc
330
7BA
 90
        1
 70
     0
 71
     0
  1
AcDbOsnapPointRef
 72
    13
331
78C
 73
     0
 91
        0
 40
0.0
 10
0.0
 20
0.0
 30
2.000000000000000E+50
 75
     0
  0
DIMASSOC
  5
7BF
102
{ACAD_REACTORS
330
7BE
102
}
330
7BE
100
AcDbDimAssoc
330
7BD
 90
        2
 70
     0
 71
     0
  1
AcDbOsnapPointRef
 72
    13
331
781
 73
     0
 91
        0
 40
0.0
 10
0.0
 20
0.0
 30
2.000000000000000E+50
 75
     0
  0
DIMASSOC
  5
7C3
102
{ACAD_REACTORS
330
7C2
102
}
330
7C2
100
AcDbDimAssoc
330
7C1
 90
        3
 70
     0
 71
     0
  1
AcDbOsnapPointRef
 72
    13
331
772
 73
     0
 91
        0
 40
0.0
 10
0.0
 20
0.0
 30
2.000000000000000E+50
 75
     0
  1
AcDbOsnapPointRef
 72
     1
331
778
 73
     0
 91
        0
 40
0.0
 10
0.0
 20
0.0
 30
2.000000000000000E+50
 75
     0
  0
DIMASSOC
  5
7C6
102
{ACAD_REACTORS
330
7C5
102
}
330
7C5
100
AcDbDimAssoc
330
7C4
 90
        3
 70
     0
 71
     0
  1
AcDbOsnapPointRef
 72
     3
331
794
 73
     0
 91
        0
 40
0.0
 10
0.0
 20
0.0
 30
0.0
 75
     0
  1
AcDbOsnapPointRef
 72
    13
331
787
 73
     0
 91
        0
 40
0.0
 10
0.0
 20
0.0
 30
2.000000000000000E+50
 75
     0
  0
DIMASSOC
  5
7CC
102
{ACAD_REACTORS
330
7CB
102
}
330
7CB
100
AcDbDimAssoc
330
7CA
 90
        3
 70
     0
 71
     0
  1
AcDbOsnapPointRef
 72
    13
331
791
 73
     0
 91
        0
 40
0.0
 10
0.0
 20
0.0
 30
2.000000000000000E+50
 75
     0
  1
AcDbOsnapPointRef
 72
     1
331
791
 73
     0
 91
        0
 40
0.0
 10
0.0
 20
0.0
 30
2.000000000000000E+50
 75
     0
  0
DIMASSOC
  5
8D4
102
{ACAD_REACTORS
330
8D3
102
}
330
8D3
100
AcDbDimAssoc
330
8C8
 90
        3
 70
     0
 71
     0
  1
AcDbOsnapPointRef
 72
    13
331
77D
 73
     0
 91
        0
 40
0.0
 10
0.0
 20
0.0
 30
2.000000000000000E+50
 75
     0
  1
AcDbOsnapPointRef
 72
     1
331
77C
 73
     0
 91
        0
 40
0.0
 10
0.0
 20
0.0
 30
2.000000000000000E+50
 75
     0
  0
DIMASSOC
  5
8FA
102
{ACAD_REACTORS
330
8F9
102
}
330
8F9
100
AcDbDimAssoc
330
8EC
 90
        3
 70
     0
 71
     0
  1
AcDbOsnapPointRef
 72
    13
331
77C
 73
     0
 91
        0
 40
0.0
 10
0.0
 20
0.0
 30
2.000000000000000E+50
 75
     0
  1
AcDbOsnapPointRef
 72
     1
331
77C
 73
     0
 91
        0
 40
0.0
 10
0.0
 20
0.0
 30
2.000000000000000E+50
 75
     0
  0
DIMASSOC
  5
922
102
{ACAD_REACTORS
330
921
102
}
330
921
100
AcDbDimAssoc
330
914
 90
        3
 70
     0
 71
     0
  1
AcDbOsnapPointRef
 72
     1
331
77C
 73
     0
 91
        0
 40
0.0
 10
0.0
 20
0.0
 30
2.000000000000000E+50
 75
     0
  1
AcDbOsnapPointRef
 72
     1
331
78E
 73
     0
 91
        0
 40
0.0
 10
0.0
 20
0.0
 30
2.000000000000000E+50
 75
     0
  0
DIMASSOC
  5
977
102
{ACAD_REACTORS
330
976
102
}
330
976
100
AcDbDimAssoc
330
96F
 90
        2
 70
     0
 71
     0
  1
AcDbOsnapPointRef
 72
     3
331
794
 73
     2
 91
        0
 40
0.0
 10
0.0
 20
0.0
 30
0.0
 75
     0
  0
DIMASSOC
  5
9A9
102
{ACAD_REACTORS
330
9A8
102
}
330
9A8
100
AcDbDimAssoc
330
99B
 90
        3
 70
     0
 71
     0
  1
AcDbOsnapPointRef
 72
    13
331
777
 73
     0
 91
        0
 40
0.0
 10
0.0
 20
0.0
 30
2.000000000000000E+50
 75
     0
  1
AcDbOsnapPointRef
 72
     1
331
77C
 73
     0
 91
        0
 40
0.0
 10
0.0
 20
0.0
 30
2.000000000000000E+50
 75
     0
  0
DIMASSOC
  5
F15
102
{ACAD_REACTORS
330
F14
102
}
330
F14
100
AcDbDimAssoc
330
F07
 90
        3
 70
     0
 71
     0
  1
AcDbOsnapPointRef
 72
    13
331
7A9
 73
     0
 91
        0
 40
0.0
 10
0.0
 20
0.0
 30
2.000000000000000E+50
 75
     0
  1
AcDbOsnapPointRef
 72
     8
331
7AA
 73
     0
 91
        0
 40
0.0000000000000011
 10
0.0
 20
0.0
 30
0.0
 75
     1
  1
AcDbOsnapPointRef
 72
    13
331
7A9
 73
     0
 91
        0
 40
0.0
 10
0.0
 20
0.0
 30
2.000000000000000E+50
 75
     0
  0
XRECORD
  5
FAA
102
{ACAD_REACTORS
330
FA9
102
}
330
FA9
100
AcDbXrecord
280
     1
102
SHADEPLOT
 70
     0
  0
LAYOUT
  5
22
102
{ACAD_XDICTIONARY
360
FA3
102
}
102
{ACAD_REACTORS
330
1A
102
}
330
1A
100
AcDbPlotSettings
  1

  2
RICOH IPSiO CX7200 RPCS
  4
A3
  6
AM_VIEW1
 40
5.873749732971191
 41
5.873747825622558
 42
5.873748779296875
 43
5.873748779296875
 44
296.9259948730469
 45
419.9466552734374
 46
2.589999999999999
 47
4.099999999999999
 48
10.0
 49
0.0
140
410.0
141
280.0
142
1.0
143
1.0
 70
 11956
 72
     1
 73
     1
 74
     4
  7
takachi-1.ctb
 75
    16
147
1.0
148
-10.0
149
0.0
100
AcDbLayout
  1
Model
 70
     1
 71
     0
 10
0.0
 20
0.0
 11
12.0
 21
9.0
 12
0.0
 22
0.0
 32
0.0
 14
0.0
 24
0.0
 34
0.0
 15
0.0
 25
0.0
 35
0.0
146
0.0
 13
0.0
 23
0.0
 33
0.0
 16
1.0
 26
0.0
 36
0.0
 17
0.0
 27
1.0
 37
0.0
 76
     0
330
1F
  0
LAYOUT
  5
1E
102
{ACAD_XDICTIONARY
360
FA1
102
}
102
{ACAD_REACTORS
330
1A
102
}
330
1A
100
AcDbPlotSettings
  1

  2
none_device
  4
Letter_(8.50_x_11.00_Inches)
  6

 40
6.349999904632568
 41
6.349999904632568
 42
6.350006103515625
 43
6.350006103515625
 44
215.8999938964844
 45
279.3999938964844
 46
0.0
 47
0.0
 48
0.0
 49
0.0
140
0.0
141
0.0
142
1.0
143
1.0
 70
   688
 72
     1
 73
     1
 74
     5
  7
takachi-1.ctb
 75
    16
147
1.0
148
0.0
149
0.0
100
AcDbLayout
  1
レイアウト1
 70
     1
 71
     1
 10
-6.350006103515625
 20
-6.349999904632568
 11
273.0499877929688
 21
209.5499939918518
 12
0.0
 22
0.0
 32
0.0
 14
1.000000000000000E+20
 24
1.000000000000000E+20
 34
1.000000000000000E+20
 15
-1.000000000000000E+20
 25
-1.000000000000000E+20
 35
-1.000000000000000E+20
146
0.0
 13
0.0
 23
0.0
 33
0.0
 16
1.0
 26
0.0
 36
0.0
 17
0.0
 27
1.0
 37
0.0
 76
     0
330
1B
331
178
  0
LAYOUT
  5
26
102
{ACAD_XDICTIONARY
360
FA5
102
}
102
{ACAD_REACTORS
330
1A
102
}
330
1A
100
AcDbPlotSettings
  1

  2
none_device
  4
Letter_(8.50_x_11.00_Inches)
  6

 40
6.349999904632568
 41
6.349999904632568
 42
6.350006103515625
 43
6.350006103515625
 44
215.8999938964844
 45
279.3999938964844
 46
0.0
 47
0.0
 48
0.0
 49
0.0
140
0.0
141
0.0
142
1.0
143
1.0
 70
   688
 72
     1
 73
     1
 74
     5
  7
takachi-1.ctb
 75
    16
147
1.0
148
0.0
149
0.0
100
AcDbLayout
  1
レイアウト2
 70
     1
 71
     2
 10
-6.350006103515625
 20
-6.349999904632568
 11
273.0499877929688
 21
209.5499939918518
 12
0.0
 22
0.0
 32
0.0
 14
1.000000000000000E+20
 24
1.000000000000000E+20
 34
1.000000000000000E+20
 15
-1.000000000000000E+20
 25
-1.000000000000000E+20
 35
-1.000000000000000E+20
146
0.0
 13
0.0
 23
0.0
 33
0.0
 16
1.0
 26
0.0
 36
0.0
 17
0.0
 27
1.0
 37
0.0
 76
     0
330
23
331
17C
  0
MLINESTYLE
  5
18
102
{ACAD_REACTORS
330
17
102
}
330
17
100
AcDbMlineStyle
  2
STANDARD
 70
     0
  3

 62
   256
 51
90.0
 52
90.0
 71
     2
 49
0.5
 62
   256
  6
BYLAYER
 49
-0.5
 62
   256
  6
BYLAYER
  0
ACDBPLACEHOLDER
  5
F
102
{ACAD_REACTORS
330
E
102
}
330
E
  0
TABLESTYLE
  5
584
102
{ACAD_REACTORS
330
583
102
}
330
583
100
AcDbTableStyle
  3
Standard
 70
     0
 71
     0
 40
1.5
 41
1.5
280
     0
281
     0
  7
STANDARD
140
4.5
170
     2
 62
     0
 63
     7
283
     0
274
    -2
284
     1
 64
     0
275
    -2
285
     1
 65
     0
276
    -2
286
     1
 66
     0
277
    -2
287
     1
 67
     0
278
    -2
288
     1
 68
     0
279
    -2
289
     1
 69
     0
  7
STANDARD
140
6.0
170
     5
 62
     0
 63
     7
283
     0
274
    -2
284
     1
 64
     0
275
    -2
285
     1
 65
     0
276
    -2
286
     1
 66
     0
277
    -2
287
     1
 67
     0
278
    -2
288
     1
 68
     0
279
    -2
289
     1
 69
     0
  7
STANDARD
140
4.5
170
     5
 62
     0
 63
     7
283
     0
274
    -2
284
     1
 64
     0
275
    -2
285
     1
 65
     0
276
    -2
286
     1
 66
     0
277
    -2
287
     1
 67
     0
278
    -2
288
     1
 68
     0
279
    -2
289
     1
 69
     0
  0
DICTIONARYVAR
  5
A70
102
{ACAD_REACTORS
330
94
102
}
330
94
100
DictionaryVariables
280
     0
  1
STANDARD
  0
DICTIONARYVAR
  5
96
102
{ACAD_REACTORS
330
94
102
}
330
94
100
DictionaryVariables
280
     0
  1
2
  0
DICTIONARYVAR
  5
95
102
{ACAD_REACTORS
330
94
102
}
330
94
100
DictionaryVariables
280
     0
  1
0
  0
DICTIONARYVAR
  5
F9D
102
{ACAD_REACTORS
330
94
102
}
330
94
100
DictionaryVariables
280
     0
  1

  0
DICTIONARY
  5
954
102
{ACAD_REACTORS
330
5B
102
}
330
5B
100
AcDbDictionary
281
     1
  0
DICTIONARY
  5
61
102
{ACAD_REACTORS
330
5B
102
}
330
5B
100
AcDbDictionary
281
     1
  0
XRECORD
  5
58F
102
{ACAD_REACTORS
330
5B
102
}
330
5B
100
AcDbXrecord
280
     1
 90
-1023410169
  0
XRECORD
  5
EF6
102
{ACAD_REACTORS
330
EF4
102
}
330
EF4
100
AcDbXrecord
280
     1
330
F2E
330
F35
330
F3C
330
F44
330
F4B
330
F53
330
F5B
330
F63
330
F9C
330
5E3
330
C87
330
DC8
330
DE0
330
E04
330
E1D
330
CCC
330
CCD
330
ECF
330
ED0
330
CA5
330
CA6
330
EE7
330
EE8
330
EDE
330
EDF
330
CC2
330
CC3
330
CD7
330
CD8
330
D28
330
D29
330
CED
330
CEE
330
CF6
330
CF7
330
D01
330
D02
330
D0C
330
D0D
330
EEF
330
D1D
330
D1E
330
F1B
330
F1C
  0
XRECORD
  5
35F
102
{ACAD_REACTORS
330
35E
102
}
330
35E
100
AcDbXrecord
280
     1
 91
       16
330
1E1
 90
        0
 62
     7
370
    -3
331
16
  1
色_7
330
10
 90
        8
 62
     7
370
    -3
331
16
  1
色_7
  0
DICTIONARY
  5
FA3
330
22
100
AcDbDictionary
280
     1
281
     1
  3
ACAD_XREC_ROUNDTRIP
360
FA4
  0
DICTIONARY
  5
FA1
330
1E
100
AcDbDictionary
280
     1
281
     1
  3
ACAD_XREC_ROUNDTRIP
360
FA2
  0
DICTIONARY
  5
FA5
330
26
100
AcDbDictionary
280
     1
281
     1
  3
ACAD_XREC_ROUNDTRIP
360
FA6
  0
XRECORD
  5
FA4
102
{ACAD_REACTORS
330
FA3
102
}
330
FA3
100
AcDbXrecord
280
     1
102
SHADEPLOT
 70
     0
102
SHADEPLOTRESLEVEL
 70
     2
102
SHADEPLOTCUSTOMDPI
 70
   300
  0
XRECORD
  5
FA2
102
{ACAD_REACTORS
330
FA1
102
}
330
FA1
100
AcDbXrecord
280
     1
102
SHADEPLOT
 70
     1
102
SHADEPLOTRESLEVEL
 70
     2
102
SHADEPLOTCUSTOMDPI
 70
   300
  0
XRECORD
  5
FA6
102
{ACAD_REACTORS
330
FA5
102
}
330
FA5
100
AcDbXrecord
280
     1
102
SHADEPLOT
 70
     1
102
SHADEPLOTRESLEVEL
 70
     2
102
SHADEPLOTCUSTOMDPI
 70
   300
  0
ENDSEC
  0
EOF
