  0
SECTION
  2
HEADER
  9
$ACADVER
  1
AC1015
  9
$ACADMAINTVER
 70
    20
  9
$DWGCODEPAGE
  3
ANSI_932
  9
$INSBASE
 10
0.0
 20
0.0
 30
0.0
  9
$EXTMIN
 10
-0.0000000000001137
 20
-0.0000000000000533
 30
0.0
  9
$EXTMAX
 10
193.0000000000001
 20
280.0000000000001
 30
0.0
  9
$LIMMIN
 10
0.0
 20
0.0
  9
$LIMMAX
 10
193.0
 20
280.0000000000001
  9
$ORTHOMODE
 70
     0
  9
$REGENMODE
 70
     1
  9
$FILLMODE
 70
     1
  9
$QTEXTMODE
 70
     0
  9
$MIRRTEXT
 70
     1
  9
$LTSCALE
 40
1.0
  9
$ATTMODE
 70
     1
  9
$TEXTSIZE
 40
73.98571745357912
  9
$TRACEWID
 40
1.0
  9
$TEXTSTYLE
  7
STANDARD
  9
$CLAYER
  8
ハンドル
  9
$CELTYPE
  6
ByLayer
  9
$CECOLOR
 62
   256
  9
$CELTSCALE
 40
1.0
  9
$DISPSILH
 70
     0
  9
$DIMSCALE
 40
1.0
  9
$DIMASZ
 40
2.5
  9
$DIMEXO
 40
1.0
  9
$DIMDLI
 40
10.0
  9
$DIMRND
 40
0.0
  9
$DIMDLE
 40
0.0
  9
$DIMEXE
 40
1.0
  9
$DIMTP
 40
0.1
  9
$DIMTM
 40
0.1
  9
$DIMTXT
 40
3.5
  9
$DIMCEN
 40
0.0
  9
$DIMTSZ
 40
0.0
  9
$DIMTOL
 70
     0
  9
$DIMLIM
 70
     0
  9
$DIMTIH
 70
     0
  9
$DIMTOH
 70
     0
  9
$DIMSE1
 70
     0
  9
$DIMSE2
 70
     0
  9
$DIMTAD
 70
     1
  9
$DIMZIN
 70
     8
  9
$DIMBLK
  1
Open30
  9
$DIMASO
 70
     1
  9
$DIMSHO
 70
     1
  9
$DIMPOST
  1

  9
$DIMAPOST
  1
"
  9
$DIMALT
 70
     0
  9
$DIMALTD
 70
     2
  9
$DIMALTF
 40
0.0393701
  9
$DIMLFAC
 40
1.0
  9
$DIMTOFL
 70
     1
  9
$DIMTVP
 40
0.0
  9
$DIMTIX
 70
     0
  9
$DIMSOXD
 70
     0
  9
$DIMSAH
 70
     0
  9
$DIMBLK1
  1

  9
$DIMBLK2
  1

  9
$DIMSTYLE
  2
AM_ISO
  9
$DIMCLRD
 70
   256
  9
$DIMCLRE
 70
   256
  9
$DIMCLRT
 70
     2
  9
$DIMTFAC
 40
0.71
  9
$DIMGAP
 40
1.5
  9
$DIMJUST
 70
     0
  9
$DIMSD1
 70
     0
  9
$DIMSD2
 70
     0
  9
$DIMTOLJ
 70
     0
  9
$DIMTZIN
 70
     8
  9
$DIMALTZ
 70
     0
  9
$DIMALTTZ
 70
     0
  9
$DIMUPT
 70
     0
  9
$DIMDEC
 70
     2
  9
$DIMTDEC
 70
     2
  9
$DIMALTU
 70
     2
  9
$DIMALTTD
 70
     2
  9
$DIMTXSTY
  7
STANDARD
  9
$DIMAUNIT
 70
     0
  9
$DIMADEC
 70
     0
  9
$DIMALTRND
 40
0.0
  9
$DIMAZIN
 70
     2
  9
$DIMDSEP
 70
    46
  9
$DIMATFIT
 70
     3
  9
$DIMFRAC
 70
     0
  9
$DIMLDRBLK
  1
Open30
  9
$DIMLUNIT
 70
     2
  9
$DIMLWD
 70
    -1
  9
$DIMLWE
 70
    -1
  9
$DIMTMOVE
 70
     0
  9
$LUNITS
 70
     2
  9
$LUPREC
 70
     2
  9
$SKETCHINC
 40
1.0
  9
$FILLETRAD
 40
12.5
  9
$AUNITS
 70
     0
  9
$AUPREC
 70
     0
  9
$MENU
  1
.
  9
$ELEVATION
 40
0.0
  9
$PELEVATION
 40
0.0
  9
$THICKNESS
 40
0.0
  9
$LIMCHECK
 70
     0
  9
$CHAMFERA
 40
12.5
  9
$CHAMFERB
 40
12.5
  9
$CHAMFERC
 40
20.0
  9
$CHAMFERD
 40
0.0
  9
$SKPOLY
 70
     0
  9
$TDCREATE
 40
2453938.637014792
  9
$TDUCREATE
 40
2453938.262014792
  9
$TDUPDATE
 40
2458575.634186898
  9
$TDUUPDATE
 40
2458575.259186898
  9
$TDINDWG
 40
0.0372551968
  9
$TDUSRTIMER
 40
0.0372551968
  9
$USRTIMER
 70
     1
  9
$ANGBASE
 50
0.0
  9
$ANGDIR
 70
     0
  9
$PDMODE
 70
     0
  9
$PDSIZE
 40
0.0
  9
$PLINEWID
 40
0.0
  9
$SPLFRAME
 70
     0
  9
$SPLINETYPE
 70
     6
  9
$SPLINESEGS
 70
     8
  9
$HANDSEED
  5
1208
  9
$SURFTAB1
 70
     6
  9
$SURFTAB2
 70
     6
  9
$SURFTYPE
 70
     6
  9
$SURFU
 70
     6
  9
$SURFV
 70
     6
  9
$UCSBASE
  2

  9
$UCSNAME
  2

  9
$UCSORG
 10
0.0
 20
0.0
 30
0.0
  9
$UCSXDIR
 10
1.0
 20
0.0
 30
0.0
  9
$UCSYDIR
 10
0.0
 20
1.0
 30
0.0
  9
$UCSORTHOREF
  2

  9
$UCSORTHOVIEW
 70
     0
  9
$UCSORGTOP
 10
0.0
 20
0.0
 30
0.0
  9
$UCSORGBOTTOM
 10
0.0
 20
0.0
 30
0.0
  9
$UCSORGLEFT
 10
0.0
 20
0.0
 30
0.0
  9
$UCSORGRIGHT
 10
0.0
 20
0.0
 30
0.0
  9
$UCSORGFRONT
 10
0.0
 20
0.0
 30
0.0
  9
$UCSORGBACK
 10
0.0
 20
0.0
 30
0.0
  9
$PUCSBASE
  2

  9
$PUCSNAME
  2

  9
$PUCSORG
 10
0.0
 20
0.0
 30
0.0
  9
$PUCSXDIR
 10
1.0
 20
0.0
 30
0.0
  9
$PUCSYDIR
 10
0.0
 20
1.0
 30
0.0
  9
$PUCSORTHOREF
  2

  9
$PUCSORTHOVIEW
 70
     0
  9
$PUCSORGTOP
 10
0.0
 20
0.0
 30
0.0
  9
$PUCSORGBOTTOM
 10
0.0
 20
0.0
 30
0.0
  9
$PUCSORGLEFT
 10
0.0
 20
0.0
 30
0.0
  9
$PUCSORGRIGHT
 10
0.0
 20
0.0
 30
0.0
  9
$PUCSORGFRONT
 10
0.0
 20
0.0
 30
0.0
  9
$PUCSORGBACK
 10
0.0
 20
0.0
 30
0.0
  9
$USERI1
 70
     0
  9
$USERI2
 70
     0
  9
$USERI3
 70
     0
  9
$USERI4
 70
     0
  9
$USERI5
 70
     0
  9
$USERR1
 40
0.0
  9
$USERR2
 40
0.0
  9
$USERR3
 40
0.0
  9
$USERR4
 40
0.0
  9
$USERR5
 40
0.0
  9
$WORLDVIEW
 70
     1
  9
$SHADEDGE
 70
     3
  9
$SHADEDIF
 70
    70
  9
$TILEMODE
 70
     1
  9
$MAXACTVP
 70
    64
  9
$PINSBASE
 10
0.0
 20
0.0
 30
0.0
  9
$PLIMCHECK
 70
     0
  9
$PEXTMIN
 10
1.000000000000000E+20
 20
1.000000000000000E+20
 30
1.000000000000000E+20
  9
$PEXTMAX
 10
-1.000000000000000E+20
 20
-1.000000000000000E+20
 30
-1.000000000000000E+20
  9
$PLIMMIN
 10
-6.350006103515625
 20
-6.349999904632568
  9
$PLIMMAX
 10
273.0499877929688
 20
209.5499939918518
  9
$UNITMODE
 70
     0
  9
$VISRETAIN
 70
     1
  9
$PLINEGEN
 70
     0
  9
$PSLTSCALE
 70
     1
  9
$TREEDEPTH
 70
  3020
  9
$CMLSTYLE
  2
Standard
  9
$CMLJUST
 70
     0
  9
$CMLSCALE
 40
20.0
  9
$PROXYGRAPHICS
 70
     1
  9
$MEASUREMENT
 70
     1
  9
$CELWEIGHT
370
    -1
  9
$ENDCAPS
280
     0
  9
$JOINSTYLE
280
     0
  9
$LWDISPLAY
290
     0
  9
$INSUNITS
 70
     4
  9
$HYPERLINKBASE
  1

  9
$STYLESHEET
  1
takachi-1.ctb
  9
$XEDIT
290
     1
  9
$CEPSNTYPE
380
     0
  9
$PSTYLEMODE
290
     1
  9
$FINGERPRINTGUID
  2
{7D6856D9-5DAF-4DF0-90F0-667A35A307C6}
  9
$VERSIONGUID
  2
{2B6FC127-065B-4831-B127-E6A90F7F8BA2}
  9
$EXTNAMES
290
     1
  9
$PSVPSCALE
 40
0.0
  9
$OLESTARTUP
290
     0
  0
ENDSEC
  0
SECTION
  2
CLASSES
  0
CLASS
  1
ACDBDICTIONARYWDFLT
  2
AcDbDictionaryWithDefault
  3
ObjectDBX Classes
 90
        0
280
     0
281
     0
  0
CLASS
  1
ACDBPLACEHOLDER
  2
AcDbPlaceHolder
  3
ObjectDBX Classes
 90
        0
280
     0
281
     0
  0
CLASS
  1
LAYOUT
  2
AcDbLayout
  3
ObjectDBX Classes
 90
        0
280
     0
281
     0
  0
CLASS
  1
ACME_DOCUMENT
  2
AcMeDbDoc
  3
AcMeServices
 90
     1024
280
     0
281
     0
  0
CLASS
  1
AMGSETTINGSOBJ
  2
AmgSettingsObj
  3
"AcadM|Product Description: AutoCAD Mechanical|Company: Autodesk, Inc."
 90
     1024
280
     0
281
     0
  0
CLASS
  1
ACMESCOPE
  2
AcMeScope
  3
AcMeServices
 90
     1024
280
     0
281
     0
  0
CLASS
  1
ACMECOMMANDHISTORY
  2
AcMeCommandHistory
  3
AcMeServices
 90
     1024
280
     0
281
     0
  0
CLASS
  1
ACIMSYSVARMAN
  2
AcImSysVarManager
  3
AcMeServices
 90
     1024
280
     0
281
     0
  0
CLASS
  1
ACIMREALSYSVAR
  2
AcImRealSysVar
  3
AcMeServices
 90
     1024
280
     0
281
     0
  0
CLASS
  1
ACIMINTSYSVAR
  2
AcImIntSysVar
  3
AcMeServices
 90
     1024
280
     0
281
     0
  0
CLASS
  1
ACMEDRAWINGMAN
  2
AcMeDrawingMan
  3
AcMeServices
 90
    33792
280
     0
281
     0
  0
CLASS
  1
ACMEVIEW
  2
AcMeView
  3
AcMeServices
 90
    33792
280
     0
281
     0
  0
CLASS
  1
ACDBENTITYCACHE
  2
AcMeEntityCache
  3
AcMeServices
 90
     1024
280
     0
281
     0
  0
CLASS
  1
GSMANAGER
  2
AcMeGSManager
  3
AcMeServices
 90
    32768
280
     0
281
     0
  0
CLASS
  1
AMDTINTERNALREACTOR
  2
AmdtInternalReactor
  3
AcMeServices
 90
     1024
280
     0
281
     0
  0
CLASS
  1
ACMESTATEMGR
  2
AcMeStateMgr
  3
AcMeServices
 90
     1024
280
     0
281
     0
  0
CLASS
  1
ACGREFMASTER
  2
AcGrefMaster
  3
AcAttribServices
 90
     1024
280
     0
281
     0
  0
CLASS
  1
ACME_DATABASE
  2
AcMeDbDatabase
  3
AcMeServices
 90
     1024
280
     0
281
     0
  0
CLASS
  1
ACRFINSADJUSTERMGR
  2
AcRfInsAdjusterMgr
  3
AcMeServices
 90
     1024
280
     0
281
     0
  0
CLASS
  1
ACGREFACADMASTER
  2
AcGrefacadMaster
  3
AcGrefServices
 90
     1024
280
     0
281
     0
  0
CLASS
  1
AMIMASTER
  2
AmiMaster
  3
AmiServices
 90
     1024
280
     0
281
     0
  0
CLASS
  1
ACMDATADICTIONARY
  2
AcmDataDictionary
  3
"AcmSymBB|Product Description: AutoCAD Mechanical|Company: Autodesk, Inc."
 90
     1024
280
     0
281
     0
  0
CLASS
  1
ACMDATAENTRYBLOCK
  2
AcmDataEntryBlock
  3
AcmSymBB|Product Description: AutoCAD Mechanical|Company: Autodesk, Inc.
 90
     1024
280
     0
281
     0
  0
CLASS
  1
ACIMSTRSYSVAR
  2
AcImStrSysVar
  3
AcMeServices
 90
     1024
280
     0
281
     0
  0
CLASS
  1
ACMSTANDARDISO
  2
AcmStandardISO
  3
"Amdt_StdImp|Product Description: AutoCAD Mechanical|Company: Autodesk, Inc."
 90
     1024
280
     0
281
     0
  0
CLASS
  1
AMGOBJPROPCFG
  2
AmgObjPropCfg
  3
"AmgLay|Product Description: AutoCAD Mechanical|Company: Autodesk, Inc."
 90
     1025
280
     0
281
     0
  0
CLASS
  1
AMDTEDGESTANDARDISO
  2
AmdtEdgeStdISO
  3
"Amdt_StdImp|Product Description: AutoCAD Mechanical|Company: Autodesk, Inc."
 90
     1024
280
     0
281
     0
  0
CLASS
  1
ACMSURFSTANDARDISO
  2
AcmSurfTextStdISO
  3
"Amdt_StdImp|Product Description: AutoCAD Mechanical|Company: Autodesk, Inc."
 90
     1024
280
     0
281
     0
  0
CLASS
  1
ACMFCFSTANDARDISO
  2
AcmFCFStdISO
  3
"Amdt_StdImp|Product Description: AutoCAD Mechanical|Company: Autodesk, Inc."
 90
     1024
280
     0
281
     0
  0
CLASS
  1
ACMWELDSTANDARDISO
  2
AcmWeldingStdISO
  3
"Amdt_StdImp|Product Description: AutoCAD Mechanical|Company: Autodesk, Inc."
 90
     1024
280
     0
281
     0
  0
CLASS
  1
ACMIDSTANDARDISO
  2
AcmIdStdISO
  3
"Amdt_StdImp|Product Description: AutoCAD Mechanical|Company: Autodesk, Inc."
 90
     1024
280
     0
281
     0
  0
CLASS
  1
ACMDATUMSTANDARDISO
  2
AcmDatumStdISO
  3
"Amdt_StdImp|Product Description: AutoCAD Mechanical|Company: Autodesk, Inc."
 90
     1024
280
     0
281
     0
  0
CLASS
  1
ACMBOMSTANDARDISO
  2
AcmBOMStdISO
  3
"Amdt_StdImp|Product Description: AutoCAD Mechanical|Company: Autodesk, Inc."
 90
     1024
280
     0
281
     0
  0
CLASS
  1
ACMDETAILSTANDARDISO
  2
AmdtDetailSymStdISO
  3
"Amdt_StdImp|Product Description: AutoCAD Mechanical|Company: Autodesk, Inc."
 90
     1024
280
     0
281
     0
  0
CLASS
  1
ACMSECTIONSTANDARDISO
  2
AmdtSectionSymStdISO
  3
"Amdt_StdImp|Product Description: AutoCAD Mechanical|Company: Autodesk, Inc."
 90
     1024
280
     0
281
     0
  0
CLASS
  1
ACMCENTERLINESTANDARDISO
  2
AmdtCenterLineStdISO
  3
"Amdt_StdImp|Product Description: AutoCAD Mechanical|Company: Autodesk, Inc."
 90
     1024
280
     0
281
     0
  0
CLASS
  1
ACMNOTESTANDARDISO
  2
AmdtNoteStdISO
  3
"Amdt_StdImp|Product Description: AutoCAD Mechanical|Company: Autodesk, Inc."
 90
     1024
280
     0
281
     0
  0
CLASS
  1
ACAMGLAYSTD
  2
AcAmgLayStd
  3
"AmgLay|Product Description: AutoCAD Mechanical|Company: Autodesk, Inc."
 90
     1024
280
     0
281
     0
  0
CLASS
  1
ACAMGDIMSTD
  2
AcAmgDimStd
  3
"AmgDim|Product Description: AutoCAD Mechanical|Company: Autodesk, Inc."
 90
     1024
280
     0
281
     0
  0
CLASS
  1
ACAMGHOLECHARTSTDISO
  2
AcAmgHoleChartStdISO
  3
AmgDim|Product Description: AutoCAD Mechanical|Company: Autodesk, Inc.
 90
     1024
280
     0
281
     0
  0
CLASS
  1
ACAMGTITLESTD
  2
AcAmgTitleStd
  3
"AmgTitle|Product Description: AutoCAD Mechanical|Company: Autodesk, Inc."
 90
     4095
280
     0
281
     0
  0
CLASS
  1
LAYER_INDEX
  2
AcDbLayerIndex
  3
ObjectDBX Classes
 90
    32768
280
     0
281
     0
  0
CLASS
  1
IDBUFFER
  2
AcDbIdBuffer
  3
ObjectDBX Classes
 90
    32768
280
     0
281
     0
  0
CLASS
  1
DICTIONARYVAR
  2
AcDbDictionaryVar
  3
ObjectDBX Classes
 90
        0
280
     0
281
     0
  0
CLASS
  1
AM_DRAWING_MGR
  2
AcDmDwgMgr
  3
AcMechDwgViewMgmt
 90
    33792
280
     0
281
     0
  0
CLASS
  1
AM_DWG_DOCUMENT
  2
AcDmDwgDocument
  3
AcMechDwgViewMgmt
 90
    33792
280
     0
281
     0
  0
CLASS
  1
AM_DWG_SHEET
  2
AcDmSheet
  3
AcMechDwgViewMgmt
 90
    33792
280
     0
281
     0
  0
CLASS
  1
AM_VIEWDIMPARMAP
  2
AcDmViewDimParMap
  3
AcMechDwgViewMgmt
 90
    33792
280
     0
281
     0
  0
CLASS
  1
AM_DWGMGR_NAME
  2
AcDmDwgMgrName
  3
AcMechDwgViewMgmt
 90
    33792
280
     0
281
     0
  0
CLASS
  1
AMDTMENUSTATEMGR
  2
AmdtMenuStateMgr
  3
McadcomServices
 90
     1024
280
     0
281
     0
  0
CLASS
  1
AMDTMCOMMENUSTATE
  2
AmdtMcomMenuState
  3
McadcomServices
 90
     1024
280
     0
281
     0
  0
CLASS
  1
MAPIAMMOUDLE
  2
MApiAmModule
  3
MApiAmServices
 90
     1024
280
     0
281
     0
  0
CLASS
  1
AMDTADMENUSTATE
  2
AmdtAdMenuState
  3
DesignerServices
 90
    32768
280
     0
281
     0
  0
CLASS
  1
ADAPPL
  2
AcAdAppl
  3
DesignerAssemblies
 90
    33792
280
     0
281
     0
  0
CLASS
  1
DEPMGR
  2
AcAdDepMgr
  3
DesignerAssemblies
 90
    33792
280
     0
281
     0
  0
CLASS
  1
PARAMMGR
  2
AcAdParamMgr
  3
DesignerAssemblies
 90
    33792
280
     0
281
     0
  0
CLASS
  1
PARAMSCOPE
  2
AcAdParamScope
  3
DesignerAssemblies
 90
    33792
280
     0
281
     0
  0
CLASS
  1
NAMEDAPPL
  2
AcAdNamedAppl
  3
DesignerAssemblies
 90
    33792
280
     0
281
     0
  0
CLASS
  1
AMDTDMMENUSTATE
  2
AmdtDmMenuState
  3
AcMechDwgViewMgmt
 90
    32768
280
     0
281
     0
  0
CLASS
  1
AMDTAMMENUSTATE
  2
AmdtAmMenuState
  3
DesignerAssemblies
 90
     1024
280
     0
281
     0
  0
CLASS
  1
ACAMPROJECT
  2
AcAmProject
  3
DesignerAssemblies
 90
     1024
280
     0
281
     0
  0
CLASS
  1
ACAMGRCOMPDEF
  2
AcAmGrCompDef
  3
DesignerAssemblies
 90
     1024
280
     0
281
     0
  0
CLASS
  1
ACCMCONTEXT
  2
AcCmContext
  3
DesignerAssemblies
 90
     1024
280
     0
281
     0
  0
CLASS
  1
ACAMCOMPDEF
  2
AcAmCompDef
  3
DesignerAssemblies
 90
     1024
280
     0
281
     0
  0
CLASS
  1
ACAMCOMPDEFMGR
  2
AcAmCompDefMgr
  3
DesignerAssemblies
 90
     1024
280
     0
281
     0
  0
CLASS
  1
AMCONTEXTMGR
  2
AcAmContextMgr
  3
DesignerAssemblies
 90
     1024
280
     0
281
     0
  0
CLASS
  1
ACAMCONTEXTMODELER
  2
AcAmContextModeler
  3
DesignerAssemblies
 90
     1024
280
     0
281
     0
  0
CLASS
  1
ACMTHREADLINESTANDARDISO
  2
AmdtThreadLineStdISO
  3
"Amdt_StdImp|Product Description: AutoCAD Mechanical|Company: Autodesk, Inc."
 90
     1024
280
     0
281
     0
  0
CLASS
  1
CATALOGSTATE
  2
AcAmCatalogState
  3
DesignerAssemblies
 90
    33792
280
     0
281
     0
  0
CLASS
  1
ACAMGRCOMPDEFSET
  2
AcAmGrCompDefSet
  3
DesignerAssemblies
 90
     1024
280
     0
281
     0
  0
CLASS
  1
AMDTBROWSERDBTAB
  2
AmdtBrowserDbTab
  3
McadcomServices
 90
     1024
280
     0
281
     0
  0
CLASS
  1
CBROWSERAPPOBJECT
  2
CBrowserAppObject
  3
McadcomServices
 90
     1024
280
     0
281
     0
  0
CLASS
  1
DM_PLACEHOLDER
  2
AcDmSelsetPlaceholder
  3
McadcomServices
 90
     1024
280
     0
281
     0
  0
CLASS
  1
AMDTNOTETEMPLATEDB
  2
AmdtNoteTemplateDB
  3
AcmSymBB|Product Description: AutoCAD Mechanical|Company: Autodesk, Inc.
 90
     1024
280
     0
281
     0
  0
CLASS
  1
ACAMGFILTERDAT
  2
AcAmgFilterDat
  3
"AcadM|Product Description: AutoCAD Mechanical|Company: Autodesk, Inc."
 90
    33792
280
     0
281
     0
  0
CLASS
  1
AMDTNOTE
  2
AmdtNote
  3
"AcmSymBB|Product Description: AutoCAD Mechanical|Company: Autodesk, Inc."
 90
    36863
280
     0
281
     1
  0
CLASS
  1
AMDTFORMULAUPDATEDISPATCHER
  2
AmdtFormulaUpdateDispatcher
  3
AcMeServices
 90
     1024
280
     0
281
     0
  0
CLASS
  1
AMDTSECTIONSYM
  2
AmdtSectionSym
  3
"AcmSymBB|Product Description: AutoCAD Mechanical|Company: Autodesk, Inc."
 90
    36863
280
     0
281
     1
  0
CLASS
  1
AMDTSECTIONSYMLABEL
  2
AmdtSectionSymLabel
  3
"AcmSymBB|Product Description: AutoCAD Mechanical|Company: Autodesk, Inc."
 90
    36863
280
     0
281
     1
  0
CLASS
  1
AMDTDETAILSYM
  2
AmdtDetailSym
  3
"AcmSymBB|Product Description: AutoCAD Mechanical|Company: Autodesk, Inc."
 90
    36863
280
     0
281
     1
  0
CLASS
  1
AMDTDETAILSYMLABEL
  2
AmdtDetailSymLabel
  3
"AcmSymBB|Product Description: AutoCAD Mechanical|Company: Autodesk, Inc."
 90
    36863
280
     0
281
     1
  0
CLASS
  1
TABLESTYLE
  2
AcDbTableStyle
  3
ObjectDBX Classes
 90
     4095
280
     0
281
     0
  0
CLASS
  1
DIMASSOC
  2
AcDbDimAssoc
  3
"AcDbDimAssoc|Product Desc:     AcDim ARX App For Dimension|Company:          Autodesk, Inc.|WEB Address:      www.autodesk.com"
 90
        0
280
     0
281
     0
  0
CLASS
  1
ACMPARTREF
  2
AcmPartRef
  3
"AcmSymBB|Product Description: AutoCAD Mechanical|Company: Autodesk, Inc."
 90
     4095
280
     0
281
     1
  0
CLASS
  1
AMDTACMWBLOCKBOMENTITY
  2
AmdtAcmWblockBomEntity
  3
"AcmSymBB|Product Description: AutoCAD Mechanical|Company: Autodesk, Inc."
 90
     4095
280
     0
281
     1
  0
CLASS
  1
ACMDATAENTRYPART
  2
AcmDataEntryPart
  3
AcmSymBB|Product Description: AutoCAD Mechanical|Company: Autodesk, Inc.
 90
     1024
280
     0
281
     0
  0
CLASS
  1
ACMDATAENTRY
  2
AcmDataEntry
  3
AcmSymBB|Product Description: AutoCAD Mechanical|Company: Autodesk, Inc.
 90
     1024
280
     0
281
     0
  0
CLASS
  1
ACMBOM
  2
AcmBom
  3
"AcmSymBB|Product Description: AutoCAD Mechanical|Company: Autodesk, Inc."
 90
     1024
280
     0
281
     0
  0
CLASS
  1
ACMBOMROW
  2
AcmBomRow
  3
"AcmSymBB|Product Description: AutoCAD Mechanical|Company: Autodesk, Inc."
 90
     1024
280
     0
281
     0
  0
CLASS
  1
ACMPARTLIST
  2
AcmPartList
  3
"AcmSymBB|Product Description: AutoCAD Mechanical|Company: Autodesk, Inc."
 90
     4095
280
     0
281
     1
  0
CLASS
  1
ACDBLINERES
  2
AcDbLineRes
  3
AcGrefServices
 90
     1024
280
     0
281
     0
  0
CLASS
  1
ACRFINSADJ
  2
AcRfInsAdjuster
  3
AcMeServices
 90
     1024
280
     0
281
     0
  0
CLASS
  1
ACMSTANDARDANSI
  2
AcmStandardANSI
  3
"Amdt_StdImp|Product Description: AutoCAD Mechanical|Company: Autodesk, Inc."
 90
     1024
280
     0
281
     0
  0
CLASS
  1
ACMSURFSTANDARDANSI
  2
AcmSurfTextStdANSI
  3
"Amdt_StdImp|Product Description: AutoCAD Mechanical|Company: Autodesk, Inc."
 90
     1024
280
     0
281
     0
  0
CLASS
  1
ACMFCFSTANDARDANSI
  2
AcmFCFStdANSI
  3
"Amdt_StdImp|Product Description: AutoCAD Mechanical|Company: Autodesk, Inc."
 90
     1024
280
     0
281
     0
  0
CLASS
  1
ACMWELDSTANDARDANSI
  2
AcmWeldingStdANSI
  3
"Amdt_StdImp|Product Description: AutoCAD Mechanical|Company: Autodesk, Inc."
 90
     1024
280
     0
281
     0
  0
CLASS
  1
ACMIDSTANDARDANSI
  2
AcmIdStdANSI
  3
"Amdt_StdImp|Product Description: AutoCAD Mechanical|Company: Autodesk, Inc."
 90
     1024
280
     0
281
     0
  0
CLASS
  1
ACMDATUMSTANDARDANSI
  2
AcmDatumStdANSI
  3
"Amdt_StdImp|Product Description: AutoCAD Mechanical|Company: Autodesk, Inc."
 90
     1024
280
     0
281
     0
  0
CLASS
  1
ACMBOMSTANDARDANSI
  2
AcmBOMStdANSI
  3
"Amdt_StdImp|Product Description: AutoCAD Mechanical|Company: Autodesk, Inc."
 90
     1024
280
     0
281
     0
  0
CLASS
  1
ACMDETAILSTANDARDANSI
  2
AmdtDetailSymStdANSI
  3
"Amdt_StdImp|Product Description: AutoCAD Mechanical|Company: Autodesk, Inc."
 90
     1024
280
     0
281
     0
  0
CLASS
  1
ACMSECTIONSTANDARDANSI
  2
AmdtSectionSymStdANSI
  3
"Amdt_StdImp|Product Description: AutoCAD Mechanical|Company: Autodesk, Inc."
 90
     1024
280
     0
281
     0
  0
CLASS
  1
ACMCENTERLINESTANDARDANSI
  2
AmdtCenterLineStdANSI
  3
"Amdt_StdImp|Product Description: AutoCAD Mechanical|Company: Autodesk, Inc."
 90
     1024
280
     0
281
     0
  0
CLASS
  1
ACMNOTESTANDARDANSI
  2
AmdtNoteStdANSI
  3
"Amdt_StdImp|Product Description: AutoCAD Mechanical|Company: Autodesk, Inc."
 90
     1024
280
     0
281
     0
  0
CLASS
  1
ACAMGHOLECHARTSTDANSI
  2
AcAmgHoleChartStdANSI
  3
AmgDim|Product Description: AutoCAD Mechanical|Company: Autodesk, Inc.
 90
     1024
280
     0
281
     0
  0
CLASS
  1
ACMTHREADLINESTANDARDANSI
  2
AmdtThreadLineStdANSI
  3
"Amdt_StdImp|Product Description: AutoCAD Mechanical|Company: Autodesk, Inc."
 90
     1024
280
     0
281
     0
  0
CLASS
  1
STDPART2D
  2
AmgStdPart
  3
AmgStdPart|Product Description: AutoCAD Mechanical|Company: Autodesk, Inc.
 90
    36863
280
     0
281
     1
  0
CLASS
  1
ACAMSTDPCOMPDEF
  2
AcAmStdpCompDef
  3
DesignerAssemblies
 90
    33792
280
     0
281
     0
  0
CLASS
  1
ACRFATTGENMGR
  2
AcRfAttGeneralMgr
  3
AcAttribServices
 90
     1024
280
     0
281
     0
  0
CLASS
  1
ACRFOBJATTMGR
  2
AcRfObjAttGroupMgr
  3
AcAttribServices
 90
     1024
280
     0
281
     0
  0
CLASS
  1
ACRFMCADAPIATTHOLDER
  2
AcRfMCADAPIAttHolder
  3
AcAttribServices
 90
     1024
280
     0
281
     0
  0
CLASS
  1
AMDTSYSATTR
  2
AmdtSystemAttribute
  3
AcAttribServices
 90
     1024
280
     0
281
     0
  0
CLASS
  1
ACAMCOMP
  2
AcAmComp
  3
DesignerAssemblies
 90
    33792
280
     0
281
     0
  0
CLASS
  1
AC_AM_STDP_VIEW_DEF
  2
AcAmStdpViewDef
  3
DesignerAssemblies
 90
    33792
280
     0
281
     0
  0
CLASS
  1
AC_AM_MVD_DEP_MGR
  2
AcAmMVDdepMgr
  3
DesignerAssemblies
 90
    33792
280
     0
281
     0
  0
CLASS
  1
AC_AM_MASTER_VIEW_DEF
  2
AcAmMasterViewDef
  3
DesignerAssemblies
 90
    33792
280
     0
281
     0
  0
CLASS
  1
AC_AM_DIRTY_NODES
  2
AcAmDirtyNodes
  3
DesignerAssemblies
 90
    33792
280
     0
281
     0
  0
CLASS
  1
AC_AM_MAPPER_CACHE
  2
AcAmMapperCache
  3
DesignerAssemblies
 90
    33792
280
     0
281
     0
  0
CLASS
  1
ACAMMVDBACKUPOBJECT
  2
AcAmMVDBackupObject
  3
DesignerAssemblies
 90
    33792
280
     0
281
     0
  0
CLASS
  1
AC_AM_COMP_VIEW_INST
  2
AcAmCompView
  3
DesignerAssemblies
 90
    33792
280
     0
281
     0
  0
CLASS
  1
AC_AM_2D_XREF_MGR
  2
AcAmXrefMgr2d
  3
DesignerAssemblies
 90
    33792
280
     0
281
     0
  0
CLASS
  1
ACMBALLOON
  2
AcmBalloon
  3
"AcmSymBB|Product Description: AutoCAD Mechanical|Company: Autodesk, Inc."
 90
     4095
280
     0
281
     1
  0
CLASS
  1
SORTENTSTABLE
  2
AcDbSortentsTable
  3
ObjectDBX Classes
 90
        0
280
     0
281
     0
  0
CLASS
  1
MATERIAL
  2
AcDbMaterial
  3
ObjectDBX Classes
 90
     1153
280
     0
281
     0
  0
CLASS
  1
VISUALSTYLE
  2
AcDbVisualStyle
  3
ObjectDBX Classes
 90
     4095
280
     0
281
     0
  0
CLASS
  1
SCALE
  2
AcDbScale
  3
ObjectDBX Classes
 90
     1153
280
     0
281
     0
  0
CLASS
  1
MLEADERSTYLE
  2
AcDbMLeaderStyle
  3
ACDB_MLEADERSTYLE_CLASS
 90
     4095
280
     0
281
     0
  0
CLASS
  1
ACMTAPERSTANDARDISO
  2
AcmTaperStdISO
  3
"Amdt_StdImp|Product Description: AutoCAD Mechanical|Company: Autodesk, Inc."
 90
     1024
280
     0
281
     0
  0
CLASS
  1
ACMANOOTATIONVIEWSTANDARDISO
  2
AmdtAnViewStdISO
  3
"Amdt_StdImp|Product Description: AutoCAD Mechanical|Company: Autodesk, Inc."
 90
     1024
280
     0
281
     0
  0
CLASS
  1
ACMTAPERSTANDARDANSI
  2
AcmTaperStdANSI
  3
"Amdt_StdImp|Product Description: AutoCAD Mechanical|Company: Autodesk, Inc."
 90
     1024
280
     0
281
     0
  0
CLASS
  1
ACMANOOTATIONVIEWSTANDARDANSI
  2
AmdtAnViewStdANSI
  3
"Amdt_StdImp|Product Description: AutoCAD Mechanical|Company: Autodesk, Inc."
 90
     1024
280
     0
281
     0
  0
CLASS
  1
CELLSTYLEMAP
  2
AcDbCellStyleMap
  3
ObjectDBX Classes
 90
     1152
280
     0
281
     0
  0
ENDSEC
  0
SECTION
  2
TABLES
  0
TABLE
  2
VPORT
  5
8
102
{ACAD_XDICTIONARY
360
10DD
102
}
330
0
100
AcDbSymbolTable
 70
     1
  0
VPORT
  5
103F
330
8
100
AcDbSymbolTableRecord
100
AcDbViewportTableRecord
  2
*Active
 70
     0
 10
0.0
 20
0.0
 11
1.0
 21
1.0
 12
300.5256559683535
 22
78.99257267953197
 13
0.0
 23
0.0
 14
2.5
 24
2.5
 15
10.0
 25
10.0
 16
0.0
 26
0.0
 36
1.0
 17
0.0
 27
0.0
 37
0.0
 40
451.3294303105372
 41
1.914036996735582
 42
50.0
 43
0.0
 44
0.0
 50
0.0
 51
0.0
 71
    16
 72
   100
 73
     1
 74
     3
 75
     0
 76
     0
 77
     0
 78
     0
281
     0
 65
     1
110
0.0
120
0.0
130
0.0
111
1.0
121
0.0
131
0.0
112
0.0
122
1.0
132
0.0
 79
     0
146
0.0
1001
ACAD_NAV_VCDISPLAY
1070
     3
  0
ENDTAB
  0
TABLE
  2
LTYPE
  5
5
330
0
100
AcDbSymbolTable
 70
    25
  0
LTYPE
  5
14
330
5
100
AcDbSymbolTableRecord
100
AcDbLinetypeTableRecord
  2
ByBlock
 70
     0
  3

 72
    65
 73
     0
 40
0.0
  0
LTYPE
  5
15
330
5
100
AcDbSymbolTableRecord
100
AcDbLinetypeTableRecord
  2
ByLayer
 70
     0
  3

 72
    65
 73
     0
 40
0.0
  0
LTYPE
  5
16
330
5
100
AcDbSymbolTableRecord
100
AcDbLinetypeTableRecord
  2
Continuous
 70
     0
  3
Solid line
 72
    65
 73
     0
 40
0.0
  0
LTYPE
  5
64
330
5
100
AcDbSymbolTableRecord
100
AcDbLinetypeTableRecord
  2
AM_ISO02W050
 70
     0
  3
__ __ __ __ __ __ __ __ __ __ __ __ __ __ __
 72
    65
 73
     2
 40
7.5
 49
6.0
 74
     0
 49
-1.5
 74
     0
  0
LTYPE
  5
65
330
5
100
AcDbSymbolTableRecord
100
AcDbLinetypeTableRecord
  2
AM_ISO08W050
 70
     0
  3
____ . ____ . ____ . ____ . ____ . ____ . ____
 72
    65
 73
     4
 40
18.0
 49
12.0
 74
     0
 49
-1.5
 74
     0
 49
3.0
 74
     0
 49
-1.5
 74
     0
  0
LTYPE
  5
66
330
5
100
AcDbSymbolTableRecord
100
AcDbLinetypeTableRecord
  2
AM_ISO09W050
 70
     0
  3
_____ . . _____ . . _____ . . ____ .. ____
 72
    65
 73
     6
 40
22.5
 49
12.0
 74
     0
 49
-1.5
 74
     0
 49
3.0
 74
     0
 49
-1.5
 74
     0
 49
3.0
 74
     0
 49
-1.5
 74
     0
  0
LTYPE
  5
67
330
5
100
AcDbSymbolTableRecord
100
AcDbLinetypeTableRecord
  2
Amconstr
 70
     0
  3
_______________________
 72
    65
 73
     2
 40
9999.0
 49
9999.0
 74
     0
 49
0.0
 74
     0
  0
LTYPE
  5
68
330
5
100
AcDbSymbolTableRecord
100
AcDbLinetypeTableRecord
  2
AM_ISO08W050x2
 70
     0
  3
__ . __ . __ . __ . __ . __
 72
    65
 73
     4
 40
9.0
 49
6.0
 74
     0
 49
-0.75
 74
     0
 49
1.5
 74
     0
 49
-0.75
 74
     0
  0
LTYPE
  5
69
330
5
100
AcDbSymbolTableRecord
100
AcDbLinetypeTableRecord
  2
AM_ISO02W050x2
 70
     0
  3
 _ _ _ _ _ _ _ _ _ _ _ _
 72
    65
 73
     2
 40
3.75
 49
3.0
 74
     0
 49
-0.75
 74
     0
  0
LTYPE
  5
6C
330
5
100
AcDbSymbolTableRecord
100
AcDbLinetypeTableRecord
  2
Amzigzag
 70
     0
  3
/\/-/\/-/\/-/\/-/\/-/\/
 72
    65
 73
     2
 40
11.0001
 49
0.0001
 74
     4
 75
   135
340
6B
 46
0.04
 50
0.0
 44
0.0
 45
0.0
 49
-11.0
 74
     0
  0
LTYPE
  5
7A
330
5
100
AcDbSymbolTableRecord
100
AcDbLinetypeTableRecord
  2
ACISOWELD
 70
     0
  3
_ _ _ _ _
 72
    65
 73
     2
 40
2.0
 49
2.0
 74
     0
 49
-1.0
 74
     0
  0
LTYPE
  5
7B
330
5
100
AcDbSymbolTableRecord
100
AcDbLinetypeTableRecord
  2
ACISOTGB
 70
     0
  3
__ . . __ . .
 72
    65
 73
     6
 40
9.0
 49
4.0
 74
     0
 49
-1.0
 74
     0
 49
1.0
 74
     0
 49
-1.0
 74
     0
 49
1.0
 74
     0
 49
-1.0
 74
     0
  0
LTYPE
  5
7C
330
5
100
AcDbSymbolTableRecord
100
AcDbLinetypeTableRecord
  2
ACISOTGL
 70
     0
  3
_ _ _ _ _
 72
    65
 73
     2
 40
3.0
 49
2.0
 74
     0
 49
-1.0
 74
     0
  0
LTYPE
  5
7E
330
5
100
AcDbSymbolTableRecord
100
AcDbLinetypeTableRecord
  2
CENTER
 70
     0
  3
__ . __
 72
    65
 73
     4
 40
7.0
 49
4.0
 74
     0
 49
-1.0
 74
     0
 49
1.0
 74
     0
 49
-1.0
 74
     0
  0
LTYPE
  5
D8
330
5
100
AcDbSymbolTableRecord
100
AcDbLinetypeTableRecord
  2
HIDDEN
 70
     0
  3
Hidden __ __ __ __ __ __ __ __ __ __ __ __ __ _
 72
    65
 73
     2
 40
9.524999999999998
 49
6.349999999999999
 74
     0
 49
-3.174999999999999
 74
     0
  0
LTYPE
  5
D9
330
5
100
AcDbSymbolTableRecord
100
AcDbLinetypeTableRecord
  2
PHANTOM2
 70
     0
  3
Phantom (.5x) ___ _ _ ___ _ _ ___ _ _ ___ _ _
 72
    65
 73
     6
 40
31.75
 49
15.875
 74
     0
 49
-3.174999999999999
 74
     0
 49
3.174999999999999
 74
     0
 49
-3.174999999999999
 74
     0
 49
3.174999999999999
 74
     0
 49
-3.174999999999999
 74
     0
  0
LTYPE
  5
5BD
330
5
100
AcDbSymbolTableRecord
100
AcDbLinetypeTableRecord
  2
gen3
 70
     0
  3
-- -- -- -- -- -- -- -- -- -- -- -- -- -- --
 72
    65
 73
     2
 40
6.25
 49
4.75
 74
     0
 49
-1.5
 74
     0
  0
LTYPE
  5
5BE
330
5
100
AcDbSymbolTableRecord
100
AcDbLinetypeTableRecord
  2
gen7
 70
     0
  3
____ . ____ . ____ . ____ . ____ . ____ . ____
 72
    65
 73
     4
 40
13.75
 49
9.75
 74
     0
 49
-1.5
 74
     0
 49
1.0
 74
     0
 49
-1.5
 74
     0
  0
LTYPE
  5
5BF
330
5
100
AcDbSymbolTableRecord
100
AcDbLinetypeTableRecord
  2
gen3a
 70
     0
  3
 - - - - -
 72
    65
 73
     2
 40
3.125
 49
2.25
 74
     0
 49
-0.875
 74
     0
  0
LTYPE
  5
5C0
330
5
100
AcDbSymbolTableRecord
100
AcDbLinetypeTableRecord
  2
gen7a
 70
     0
  3
__ . __ . __
 72
    65
 73
     4
 40
6.875
 49
4.75
 74
     0
 49
-0.875
 74
     0
 49
0.375
 74
     0
 49
-0.875
 74
     0
  0
LTYPE
  5
5C1
330
5
100
AcDbSymbolTableRecord
100
AcDbLinetypeTableRecord
  2
gen4a
 70
     0
  3
_____ . . _____ . . _____ . . ____ .. ____
 72
    65
 73
     6
 40
16.25
 49
9.75
 74
     0
 49
-1.5
 74
     0
 49
1.0
 74
     0
 49
-1.5
 74
     0
 49
1.0
 74
     0
 49
-1.5
 74
     0
  0
LTYPE
  5
5C2
330
5
100
AcDbSymbolTableRecord
100
AcDbLinetypeTableRecord
  2
genzigzag
 70
     0
  3
/\/-/\/-/\/-/\/-/\/-/\/
 72
    65
 73
     2
 40
12.0001
 49
0.0001
 74
     4
 75
   135
340
6B
 46
2.0
 50
0.0
 44
0.0
 45
0.0
 49
-12.0
 74
     0
  0
LTYPE
  5
9C6
330
5
100
AcDbSymbolTableRecord
100
AcDbLinetypeTableRecord
  2
HIDDEN2
 70
     0
  3
Hidden (.5x) _ _ _ _ _ _ _ _ _ _ _ _ _ _ _ _ _
 72
    65
 73
     2
 40
0.1875
 49
0.125
 74
     0
 49
-0.0625
 74
     0
  0
LTYPE
  5
9C7
330
5
100
AcDbSymbolTableRecord
100
AcDbLinetypeTableRecord
  2
CENTER2
 70
     0
  3
Center (.5x) ___ _ ___ _ ___ _ ___ _ ___ _ ___
 72
    65
 73
     4
 40
1.125
 49
0.75
 74
     0
 49
-0.125
 74
     0
 49
0.125
 74
     0
 49
-0.125
 74
     0
  0
LTYPE
  5
9C8
330
5
100
AcDbSymbolTableRecord
100
AcDbLinetypeTableRecord
  2
Amzigzag2
 70
     0
  3
/\/-/\/-/\/-/\/-/\/-/\/
 72
    65
 73
     2
 40
0.4401
 49
0.0001
 74
     4
 75
   135
340
6B
 46
0.0016
 50
0.0
 44
0.0
 45
0.0
 49
-0.4400000000000001
 74
     0
  0
LTYPE
  5
9C9
330
5
100
AcDbSymbolTableRecord
100
AcDbLinetypeTableRecord
  2
ACANSTGB
 70
     0
  3
__ . . __ . .
 72
    65
 73
     6
 40
0.35433070866
 49
0.15748031496
 74
     0
 49
-0.03937007874
 74
     0
 49
0.03937007874
 74
     0
 49
-0.03937007874
 74
     0
 49
0.03937007874
 74
     0
 49
-0.03937007874
 74
     0
  0
LTYPE
  5
9CA
330
5
100
AcDbSymbolTableRecord
100
AcDbLinetypeTableRecord
  2
ACANSTGL
 70
     0
  3
_ _ _ _ _
 72
    65
 73
     2
 40
0.11811023622
 49
0.07874015748
 74
     0
 49
-0.03937007874
 74
     0
  0
ENDTAB
  0
TABLE
  2
LAYER
  5
2
102
{ACAD_XDICTIONARY
360
35D
102
}
330
0
100
AcDbSymbolTable
 70
    20
  0
LAYER
  5
10
102
{ACAD_XDICTIONARY
360
10B2
102
}
330
2
100
AcDbSymbolTableRecord
100
AcDbLayerTableRecord
  2
0
 70
     0
 62
     7
  6
Continuous
370
    -3
390
F
  0
LAYER
  5
1E1
330
2
100
AcDbSymbolTableRecord
100
AcDbLayerTableRecord
  2
Defpoints
 70
     0
 62
     7
  6
Continuous
290
     0
370
    -3
390
F
  0
LAYER
  5
518
102
{ACAD_XDICTIONARY
360
10B4
102
}
330
2
100
AcDbSymbolTableRecord
100
AcDbLayerTableRecord
  2
ハンドル
 70
     0
 62
     7
  6
Continuous
370
    25
390
F
  0
LAYER
  5
519
102
{ACAD_XDICTIONARY
360
10B6
102
}
330
2
100
AcDbSymbolTableRecord
100
AcDbLayerTableRecord
  2
ハンドル0
 70
     0
 62
     7
  6
AM_ISO02W050x2
370
    13
390
F
  0
LAYER
  5
51C
102
{ACAD_XDICTIONARY
360
10B8
102
}
330
2
100
AcDbSymbolTableRecord
100
AcDbLayerTableRecord
  2
プレート0
 70
     0
 62
     2
  6
AM_ISO02W050x2
370
    13
390
F
  0
LAYER
  5
5E5
102
{ACAD_XDICTIONARY
360
10BA
102
}
330
2
100
AcDbSymbolTableRecord
100
AcDbLayerTableRecord
  2
7A
 70
     0
 62
     4
  6
gen7a
370
    -3
390
F
  0
LAYER
  5
5E6
102
{ACAD_XDICTIONARY
360
10BC
102
}
330
2
100
AcDbSymbolTableRecord
100
AcDbLayerTableRecord
  2
RAHM2
 70
     0
 62
     1
  6
Continuous
370
    -3
390
F
  0
LAYER
  5
5E7
102
{ACAD_XDICTIONARY
360
10BE
102
}
330
2
100
AcDbSymbolTableRecord
100
AcDbLayerTableRecord
  2
KLIN
 70
     0
 62
     1
  6
Continuous
370
    -3
390
F
  0
LAYER
  5
6F9
102
{ACAD_XDICTIONARY
360
10C0
102
}
330
2
100
AcDbSymbolTableRecord
100
AcDbLayerTableRecord
  2
AM_5
 70
     0
 62
     3
  6
Continuous
370
    25
390
F
  0
LAYER
  5
6FA
102
{ACAD_XDICTIONARY
360
10C2
102
}
330
2
100
AcDbSymbolTableRecord
100
AcDbLayerTableRecord
  2
AM_12
 70
     0
 62
     7
  6
Continuous
290
     0
370
    50
390
F
  0
LAYER
  5
6FB
102
{ACAD_XDICTIONARY
360
10C4
102
}
330
2
100
AcDbSymbolTableRecord
100
AcDbLayerTableRecord
  2
AM_PAREF
 70
     0
 62
     4
  6
Continuous
290
     0
370
    25
390
F
  0
LAYER
  5
9CC
102
{ACAD_XDICTIONARY
360
10C6
102
}
330
2
100
AcDbSymbolTableRecord
100
AcDbLayerTableRecord
  2
AM_7
 70
     0
 62
     4
  6
AM_ISO08W050
370
    25
390
F
  0
LAYER
  5
A89
102
{ACAD_XDICTIONARY
360
10C8
102
}
330
2
100
AcDbSymbolTableRecord
100
AcDbLayerTableRecord
  2
AM_0N
 70
     0
 62
     7
  6
Continuous
370
    50
390
F
  0
LAYER
  5
A91
102
{ACAD_XDICTIONARY
360
10CA
102
}
330
2
100
AcDbSymbolTableRecord
100
AcDbLayerTableRecord
  2
AM_4N
 70
     0
 62
     3
  6
Continuous
370
    25
390
F
  0
LAYER
  5
A92
102
{ACAD_XDICTIONARY
360
10CC
102
}
330
2
100
AcDbSymbolTableRecord
100
AcDbLayerTableRecord
  2
AM_7N
 70
     0
 62
     4
  6
AM_ISO08W050
370
    25
390
F
  0
LAYER
  5
A93
102
{ACAD_XDICTIONARY
360
10CE
102
}
330
2
100
AcDbSymbolTableRecord
100
AcDbLayerTableRecord
  2
AM_9
 70
     0
 62
   253
  6
Continuous
370
     0
390
F
  0
LAYER
  5
AFE
102
{ACAD_XDICTIONARY
360
10D0
102
}
330
2
100
AcDbSymbolTableRecord
100
AcDbLayerTableRecord
  2
AM_CL
 70
     0
 62
     1
  6
Amconstr
370
    25
390
F
  0
LAYER
  5
FCB
102
{ACAD_XDICTIONARY
360
10D2
102
}
330
2
100
AcDbSymbolTableRecord
100
AcDbLayerTableRecord
  2
プレート
 70
     0
 62
     2
  6
Continuous
370
    25
390
F
  0
LAYER
  5
FCC
102
{ACAD_XDICTIONARY
360
10D4
102
}
330
2
100
AcDbSymbolTableRecord
100
AcDbLayerTableRecord
  2
ﾋﾞｽ
 70
     0
 62
     8
  6
Continuous
370
    25
390
F
  0
LAYER
  5
FCD
102
{ACAD_XDICTIONARY
360
10D6
102
}
330
2
100
AcDbSymbolTableRecord
100
AcDbLayerTableRecord
  2
ﾋﾞｽ0
 70
     0
 62
     8
  6
AM_ISO02W050x2
370
    13
390
F
  0
ENDTAB
  0
TABLE
  2
STYLE
  5
3
330
0
100
AcDbSymbolTable
 70
     8
  0
STYLE
  5
11
330
3
100
AcDbSymbolTableRecord
100
AcDbTextStyleTableRecord
  2
STANDARD
 70
     0
 40
0.0
 41
1.0
 50
0.0
 71
     0
 42
73.98571745357912
  3
ISOCP.SHX
  4
bigfont.shx
  0
STYLE
  5
6B
330
3
100
AcDbSymbolTableRecord
100
AcDbTextStyleTableRecord
  2

 70
     1
 40
0.0
 41
1.0
 50
0.0
 71
     0
 42
2.5
  3
ltypeshp.shx
  4

  0
STYLE
  5
6D
330
3
100
AcDbSymbolTableRecord
100
AcDbTextStyleTableRecord
  2
ACISOTS
 70
     0
 40
1.0
 41
1.0
 50
0.0
 71
     0
 42
2.5
  3
isocp.shx
  4
extfont.shx
  0
STYLE
  5
79
330
3
100
AcDbSymbolTableRecord
100
AcDbTextStyleTableRecord
  2
ACISOGDT
 70
     0
 40
0.0
 41
1.0
 50
0.0
 71
     0
 42
2.5
  3
amgdt.shx
  4

  0
STYLE
  5
5E8
330
3
100
AcDbSymbolTableRecord
100
AcDbTextStyleTableRecord
  2

 70
     1
 40
0.0
 41
1.0
 50
0.0
 71
     0
 42
3.0
  3
genltshp.shx
  4

  0
STYLE
  5
9CD
330
3
100
AcDbSymbolTableRecord
100
AcDbTextStyleTableRecord
  2
STD
 70
     0
 40
0.0
 41
1.0
 50
0.0
 71
     0
 42
3.2
  3
TXT
  4
BIGFONT
  0
STYLE
  5
9CE
330
3
100
AcDbSymbolTableRecord
100
AcDbTextStyleTableRecord
  2
ACANSTS
 70
     0
 40
1.0
 41
1.0
 50
0.0
 71
     0
 42
3.2
  3
romans.shx
  4
extfont.shx
  0
STYLE
  5
9CF
330
3
100
AcDbSymbolTableRecord
100
AcDbTextStyleTableRecord
  2
ACANSGDT
 70
     0
 40
0.0
 41
1.0
 50
0.0
 71
     0
 42
3.2
  3
amgdtans.shx
  4

  0
ENDTAB
  0
TABLE
  2
VIEW
  5
6
330
0
100
AcDbSymbolTable
 70
     6
  0
VIEW
  5
291
330
6
100
AcDbSymbolTableRecord
100
AcDbViewTableRecord
  2
AM_VIEW1
 70
     0
 40
140.0
 10
87.13541666666669
 20
210.0
 41
174.2708333333333
 11
0.0
 21
0.0
 31
1.0
 12
0.0
 22
0.0
 32
0.0
 42
50.0
 43
0.0
 44
0.0
 50
0.0
 71
    16
281
     0
 72
     0
  0
VIEW
  5
292
330
6
100
AcDbSymbolTableRecord
100
AcDbViewTableRecord
  2
AM_VIEW2
 70
     0
 40
140.0
 10
105.8645833333333
 20
210.0
 41
174.2708333333333
 11
0.0
 21
0.0
 31
1.0
 12
0.0
 22
0.0
 32
0.0
 42
50.0
 43
0.0
 44
0.0
 50
0.0
 71
    16
281
     0
 72
     0
  0
VIEW
  5
293
330
6
100
AcDbSymbolTableRecord
100
AcDbViewTableRecord
  2
AM_VIEW3
 70
     0
 40
140.0
 10
87.13541666666669
 20
70.00000000000001
 41
174.2708333333333
 11
0.0
 21
0.0
 31
1.0
 12
0.0
 22
0.0
 32
0.0
 42
50.0
 43
0.0
 44
0.0
 50
0.0
 71
    16
281
     0
 72
     0
  0
VIEW
  5
294
330
6
100
AcDbSymbolTableRecord
100
AcDbViewTableRecord
  2
AM_VIEW4
 70
     0
 40
140.0
 10
105.8645833333333
 20
70.00000000000001
 41
174.2708333333333
 11
0.0
 21
0.0
 31
1.0
 12
0.0
 22
0.0
 32
0.0
 42
50.0
 43
0.0
 44
0.0
 50
0.0
 71
    16
281
     0
 72
     0
  0
VIEW
  5
295
330
6
100
AcDbSymbolTableRecord
100
AcDbViewTableRecord
  2
AM_VIEW5
 70
     0
 40
140.0
 10
96.5
 20
140.0
 41
174.2708333333333
 11
0.0
 21
0.0
 31
1.0
 12
0.0
 22
0.0
 32
0.0
 42
50.0
 43
0.0
 44
0.0
 50
0.0
 71
    16
281
     0
 72
     0
  0
VIEW
  5
296
330
6
100
AcDbSymbolTableRecord
100
AcDbViewTableRecord
  2
AM_VIEW6
 70
     0
 40
279.9972000000001
 10
96.5
 20
140.0
 41
348.5381812500001
 11
0.0
 21
0.0
 31
1.0
 12
0.0
 22
0.0
 32
0.0
 42
50.0
 43
0.0
 44
0.0
 50
0.0
 71
    16
281
     0
 72
     0
  0
ENDTAB
  0
TABLE
  2
UCS
  5
7
330
0
100
AcDbSymbolTable
 70
     0
  0
ENDTAB
  0
TABLE
  2
APPID
  5
9
330
0
100
AcDbSymbolTable
 70
    46
  0
APPID
  5
12
330
9
100
AcDbSymbolTableRecord
100
AcDbRegAppTableRecord
  2
ACAD
 70
     0
  0
APPID
  5
46
330
9
100
AcDbSymbolTableRecord
100
AcDbRegAppTableRecord
  2
MCAD_NO_VIS
 70
     0
  0
APPID
  5
47
330
9
100
AcDbSymbolTableRecord
100
AcDbRegAppTableRecord
  2
ACAD_TEMP_GRAPHIC
 70
     0
  0
APPID
  5
58
330
9
100
AcDbSymbolTableRecord
100
AcDbRegAppTableRecord
  2
ACATTRIBSERVICES
 70
     0
  0
APPID
  5
EE
330
9
100
AcDbSymbolTableRecord
100
AcDbRegAppTableRecord
  2
AD_DRAW
 70
     0
  0
APPID
  5
10C
330
9
100
AcDbSymbolTableRecord
100
AcDbRegAppTableRecord
  2
DESIGNERASSEMBLIES
 70
     0
  0
APPID
  5
111
330
9
100
AcDbSymbolTableRecord
100
AcDbRegAppTableRecord
  2
ACADM_DIM_EDIT
 70
     0
  0
APPID
  5
112
330
9
100
AcDbSymbolTableRecord
100
AcDbRegAppTableRecord
  2
AMDT_DM_ADJ
 70
     0
  0
APPID
  5
1E2
330
9
100
AcDbSymbolTableRecord
100
AcDbRegAppTableRecord
  2
GENIUS_GENREC_14
 70
     0
  0
APPID
  5
1E3
330
9
100
AcDbSymbolTableRecord
100
AcDbRegAppTableRecord
  2
GENIUS_GENODEF_13
 70
     0
  0
APPID
  5
1E4
330
9
100
AcDbSymbolTableRecord
100
AcDbRegAppTableRecord
  2
GENIUS_GENOBJ-N-REC_13
 70
     0
  0
APPID
  5
1E5
330
9
100
AcDbSymbolTableRecord
100
AcDbRegAppTableRecord
  2
GENIUS_GENDIMSH_14
 70
     0
  0
APPID
  5
1E6
330
9
100
AcDbSymbolTableRecord
100
AcDbRegAppTableRecord
  2
GENIUS_GENCFG_13
 70
     0
  0
APPID
  5
1E7
330
9
100
AcDbSymbolTableRecord
100
AcDbRegAppTableRecord
  2
GENIUS_GENCFG0_13
 70
     0
  0
APPID
  5
1E8
330
9
100
AcDbSymbolTableRecord
100
AcDbRegAppTableRecord
  2
GENIUS_GENCFG1_13
 70
     0
  0
APPID
  5
1E9
330
9
100
AcDbSymbolTableRecord
100
AcDbRegAppTableRecord
  2
GENIUS_GENCFG2_13
 70
     0
  0
APPID
  5
1EA
330
9
100
AcDbSymbolTableRecord
100
AcDbRegAppTableRecord
  2
GENIUS_GENCFG3_13
 70
     0
  0
APPID
  5
1EB
330
9
100
AcDbSymbolTableRecord
100
AcDbRegAppTableRecord
  2
GENIUS_GENCFG4_13
 70
     0
  0
APPID
  5
1EC
330
9
100
AcDbSymbolTableRecord
100
AcDbRegAppTableRecord
  2
GENIUS_GEVCFG0_13
 70
     0
  0
APPID
  5
1ED
330
9
100
AcDbSymbolTableRecord
100
AcDbRegAppTableRecord
  2
GENIUS_GENOENT_13
 70
     0
  0
APPID
  5
1EE
330
9
100
AcDbSymbolTableRecord
100
AcDbRegAppTableRecord
  2
GENIUS_GENOBJ-N-CRS_13
 70
     0
  0
APPID
  5
1EF
330
9
100
AcDbSymbolTableRecord
100
AcDbRegAppTableRecord
  2
GENIUS_GENOREF_13
 70
     0
  0
APPID
  5
1F0
330
9
100
AcDbSymbolTableRecord
100
AcDbRegAppTableRecord
  2
GENIUS_GENOLIS_13
 70
     0
  0
APPID
  5
1F1
330
9
100
AcDbSymbolTableRecord
100
AcDbRegAppTableRecord
  2
GENIUS_GENOBJ-N-TIT_13
 70
     0
  0
APPID
  5
1F2
330
9
100
AcDbSymbolTableRecord
100
AcDbRegAppTableRecord
  2
GENIUS_GENTITLE_13
 70
     0
  0
APPID
  5
1F3
330
9
100
AcDbSymbolTableRecord
100
AcDbRegAppTableRecord
  2
GENIUS_GENSCREG_15
 70
     0
  0
APPID
  5
1F4
330
9
100
AcDbSymbolTableRecord
100
AcDbRegAppTableRecord
  2
GENIUS_GENOBJ-N-SDF_13
 70
     0
  0
APPID
  5
1F5
330
9
100
AcDbSymbolTableRecord
100
AcDbRegAppTableRecord
  2
GENIUS_GENOBJ-N-CEN_13
 70
     0
  0
APPID
  5
1F6
330
9
100
AcDbSymbolTableRecord
100
AcDbRegAppTableRecord
  2
GENIUS_GENOBJ-N-HTC_13
 70
     0
  0
APPID
  5
1F7
330
9
100
AcDbSymbolTableRecord
100
AcDbRegAppTableRecord
  2
GENIUS_GENHATCH_13
 70
     0
  0
APPID
  5
484
330
9
100
AcDbSymbolTableRecord
100
AcDbRegAppTableRecord
  2
GENIUS_GENOBJ-N-ZOO_13
 70
     0
  0
APPID
  5
485
330
9
100
AcDbSymbolTableRecord
100
AcDbRegAppTableRecord
  2
GENIUS_GENZOO_17
 70
     0
  0
APPID
  5
5CB
330
9
100
AcDbSymbolTableRecord
100
AcDbRegAppTableRecord
  2
GEV_VCCNULL_SWITCH_OFF
 70
     0
  0
APPID
  5
5CC
330
9
100
AcDbSymbolTableRecord
100
AcDbRegAppTableRecord
  2
GENIUS_GENDTOL_13
 70
     0
  0
APPID
  5
A85
330
9
100
AcDbSymbolTableRecord
100
AcDbRegAppTableRecord
  2
GEVID1153463435
 70
     0
  0
APPID
  5
A86
330
9
100
AcDbSymbolTableRecord
100
AcDbRegAppTableRecord
  2
GEVMK
 70
     0
  0
APPID
  5
A87
330
9
100
AcDbSymbolTableRecord
100
AcDbRegAppTableRecord
  2
GEVDC
 70
     0
  0
APPID
  5
AA1
330
9
100
AcDbSymbolTableRecord
100
AcDbRegAppTableRecord
  2
AMG_2DHIDE
 70
     0
  0
APPID
  5
AA2
330
9
100
AcDbSymbolTableRecord
100
AcDbRegAppTableRecord
  2
AMG_2DSTRUCT_BTR
 70
     0
  0
APPID
  5
AB3
330
9
100
AcDbSymbolTableRecord
100
AcDbRegAppTableRecord
  2
ACADM_2DVIEW_IGN_NOTIFY
 70
     0
  0
APPID
  5
AE4
330
9
100
AcDbSymbolTableRecord
100
AcDbRegAppTableRecord
  2
GEVID1153463437
 70
     0
  0
APPID
  5
BA3
330
9
100
AcDbSymbolTableRecord
100
AcDbRegAppTableRecord
  2
ACAD_DSTYLE_DIMTEXT_FILL
 70
     0
  0
APPID
  5
FCE
330
9
100
AcDbSymbolTableRecord
100
AcDbRegAppTableRecord
  2
GENIUS_GENOBJ-N-FIL_13
 70
     0
  0
APPID
  5
FDF
330
9
100
AcDbSymbolTableRecord
100
AcDbRegAppTableRecord
  2
AcAecLayerStandard
 70
     0
  0
APPID
  5
10B0
330
9
100
AcDbSymbolTableRecord
100
AcDbRegAppTableRecord
  2
ACAD_NAV_VCDISPLAY
 70
     0
  0
APPID
  5
1125
330
9
100
AcDbSymbolTableRecord
100
AcDbRegAppTableRecord
  2
ACAD_MLEADERVER
 70
     0
  0
ENDTAB
  0
TABLE
  2
DIMSTYLE
  5
A
330
0
100
AcDbSymbolTable
 70
    23
100
AcDbDimStyleTable
 71
     1
340
81
  0
DIMSTYLE
105
81
330
A
100
AcDbSymbolTableRecord
100
AcDbDimStyleTableRecord
  2
AM_ISO
 70
     0
  4
"
 41
2.5
 42
1.0
 43
10.0
 44
1.0
 47
0.1
 48
0.1
 73
     0
 74
     0
 77
     1
 78
     8
 79
     2
140
3.5
141
0.0
143
0.0393701
146
0.71
147
1.5
172
     1
176
   256
177
   256
178
     2
271
     2
272
     2
283
     0
284
     8
340
11
341
407
342
407
371
    -1
372
    -1
  0
DIMSTYLE
105
82
102
{ACAD_REACTORS
330
96F
102
}
330
A
100
AcDbSymbolTableRecord
100
AcDbDimStyleTableRecord
  2
AM_ISO$3
 70
     0
  4
"
 41
2.5
 42
1.0
 43
10.0
 44
1.0
 47
0.1
 48
0.1
 73
     0
 77
     1
 78
     8
 79
     2
140
3.5
141
0.0
143
0.0393701
146
0.71
147
1.5
176
   256
177
   256
178
     2
271
     2
272
     2
283
     0
284
     8
288
     1
289
     0
340
11
341
407
342
407
371
    -1
372
    -1
  0
DIMSTYLE
105
83
330
A
100
AcDbSymbolTableRecord
100
AcDbDimStyleTableRecord
  2
AM_ISO$4
 70
     0
  4
"
 41
2.5
 42
1.0
 43
10.0
 44
1.0
 47
0.1
 48
0.1
 73
     0
 77
     1
 78
     8
 79
     2
140
3.5
141
0.0
143
0.0393701
146
0.71
147
1.5
176
   256
177
   256
178
     2
271
     2
272
     2
283
     0
284
     8
288
     1
289
     0
340
11
341
407
342
407
371
    -1
372
    -1
  0
DIMSTYLE
105
84
330
A
100
AcDbSymbolTableRecord
100
AcDbDimStyleTableRecord
  2
AM_ISO$6
 70
     0
  4
"
 41
2.5
 42
1.0
 43
10.0
 44
1.0
 47
0.1
 48
0.1
 73
     0
 74
     0
 78
     8
 79
     2
140
3.5
141
0.0
143
0.0393701
146
0.71
147
1.5
172
     1
176
   256
177
   256
178
     2
271
     2
272
     2
283
     0
284
     8
340
11
341
407
342
407
371
    -1
372
    -1
  0
DIMSTYLE
105
85
330
A
100
AcDbSymbolTableRecord
100
AcDbDimStyleTableRecord
  2
AM_ISO$7
 70
     0
  4
"
 41
2.5
 42
1.0
 43
10.0
 44
1.0
 47
0.1
 48
0.1
 73
     0
 74
     0
 77
     1
 78
     8
 79
     2
140
5.0
141
0.0
143
0.0393701
146
0.71
147
1.5
172
     1
176
   256
177
   256
178
     2
271
     2
272
     2
283
     0
284
     8
340
11
341
407
342
407
371
    -1
372
    -1
  0
DIMSTYLE
105
86
330
A
100
AcDbSymbolTableRecord
100
AcDbDimStyleTableRecord
  2
AM_ISO$SF
 70
     0
  4
"
 41
2.5
 42
1.0
 43
10.0
 44
1.0
 47
0.1
 48
0.1
 73
     0
 74
     0
 75
     1
 76
     1
 77
     1
 78
     8
 79
     2
140
3.5
141
0.0
143
0.0393701
146
0.71
147
1.5
172
     1
176
   256
177
   256
178
     2
271
     2
272
     2
283
     0
284
     8
340
11
341
407
342
407
371
    -1
372
    -1
  0
DIMSTYLE
105
8B
330
A
100
AcDbSymbolTableRecord
100
AcDbDimStyleTableRecord
  2
AM_ISO$SH
 70
     0
  4
"
 41
2.5
 42
1.0
 43
10.0
 44
1.0
 47
0.1
 48
0.1
 73
     0
 74
     0
 75
     1
 76
     1
 77
     1
 78
     8
 79
     2
140
3.5
141
0.0
143
0.0393701
144
2.0
146
0.71
147
1.5
172
     1
173
     1
176
   256
177
   256
178
     2
271
     2
272
     2
283
     0
284
     8
340
11
341
407
343
87
344
407
371
    -1
372
    -1
  0
DIMSTYLE
105
5C3
330
A
100
AcDbSymbolTableRecord
100
AcDbDimStyleTableRecord
  2
GEN-ISO
 70
     0
  4
"
 41
2.5
 42
1.0
 43
10.0
 44
1.0
 47
0.1
 48
0.1
 73
     0
 74
     0
 77
     1
 78
     8
140
3.5
141
0.0
143
0.0393701
146
0.71
147
1.5
172
     1
176
   256
177
   256
178
     2
271
     2
272
     3
274
     4
283
     0
340
11
  0
DIMSTYLE
105
5C4
330
A
100
AcDbSymbolTableRecord
100
AcDbDimStyleTableRecord
  2
GEN-ISO$4
 70
     0
  4
"
 41
2.5
 42
1.0
 43
10.0
 44
1.0
 47
0.1
 48
0.1
 73
     0
 77
     1
 78
     8
140
3.5
141
0.0
143
0.0393701
146
0.71
147
1.5
176
   256
177
   256
178
     2
271
     2
272
     3
274
     4
283
     0
288
     1
289
     0
340
11
  0
DIMSTYLE
105
5C5
330
A
100
AcDbSymbolTableRecord
100
AcDbDimStyleTableRecord
  2
GEN-ISO$3
 70
     0
  4
"
 41
2.5
 42
1.0
 43
10.0
 44
1.0
 47
0.1
 48
0.1
 73
     0
 77
     1
 78
     8
140
3.5
141
0.0
143
0.0393701
146
0.71
147
1.5
176
   256
177
   256
178
     2
271
     2
272
     3
274
     4
283
     0
288
     1
289
     0
340
11
  0
DIMSTYLE
105
5C6
330
A
100
AcDbSymbolTableRecord
100
AcDbDimStyleTableRecord
  2
ISO-25
 70
     0
 41
2.5
 42
0.625
 43
3.75
 44
1.25
 74
     0
 77
     1
 78
     8
140
2.5
141
2.5
143
0.0394
145
1.0
147
0.625
172
     1
340
11
  0
DIMSTYLE
105
5C7
330
A
100
AcDbSymbolTableRecord
100
AcDbDimStyleTableRecord
  2
GEN-ISO$6
 70
     0
  4
"
 41
2.5
 42
1.0
 43
10.0
 44
1.0
 47
0.1
 48
0.1
 73
     0
 74
     0
 78
     8
140
3.5
141
0.0
143
0.0393701
146
0.71
147
1.5
176
   256
177
   256
178
     2
271
     2
272
     3
274
     4
283
     0
340
11
  0
DIMSTYLE
105
5C8
330
A
100
AcDbSymbolTableRecord
100
AcDbDimStyleTableRecord
  2
GEN-ISO-POS
 70
     0
  4
"
 41
2.5
 42
1.0
 43
10.0
 44
1.0
 47
0.1
 48
0.1
 73
     0
 74
     0
 78
     8
140
5.0
141
0.0
143
0.0393701
146
0.71
147
1.5
176
   256
177
   256
178
     2
271
     2
272
     3
274
     4
283
     0
340
11
  0
DIMSTYLE
105
5C9
330
A
100
AcDbSymbolTableRecord
100
AcDbDimStyleTableRecord
  2
GEN-ISO-AXE-F
 70
     0
  4
"
 41
2.5
 42
1.0
 43
10.0
 44
1.0
 47
0.1
 48
0.1
 73
     0
 74
     0
 75
     1
 76
     1
 77
     1
 78
     8
140
3.5
141
0.0
143
0.0393701
146
0.71
147
1.5
172
     1
176
   256
177
   256
178
     2
271
     2
272
     3
274
     4
283
     0
340
11
  0
DIMSTYLE
105
5CA
330
A
100
AcDbSymbolTableRecord
100
AcDbDimStyleTableRecord
  2
GEN-ISO-AXE-H
 70
     0
  4
"
 41
2.5
 42
1.0
 43
10.0
 44
1.0
 47
0.1
 48
0.1
 73
     0
 74
     0
 75
     1
 76
     1
 77
     1
 78
     8
140
3.5
141
0.0
143
0.0393701
144
2.0
146
0.71
147
1.5
172
     1
173
     1
176
   256
177
   256
178
     2
271
     2
272
     3
274
     4
283
     0
340
11
  0
DIMSTYLE
105
6FC
102
{ACAD_REACTORS
330
7AB
330
7AE
330
7B1
330
7BA
330
7BD
330
7C1
330
7C4
330
7CA
330
8C8
330
8EC
330
914
330
99B
330
DEA
330
E28
330
E2C
330
F00
102
}
330
A
100
AcDbSymbolTableRecord
100
AcDbDimStyleTableRecord
  2
AM_ISO$0
 70
     0
  4
"
 41
2.5
 42
1.0
 43
10.0
 44
1.0
 47
0.1
 48
0.1
 73
     0
 74
     0
 77
     1
 78
     8
 79
     2
140
3.5
141
0.0
143
0.0393701
146
0.71
147
1.5
172
     1
176
   256
177
   256
178
     2
271
     2
272
     2
283
     0
284
     8
340
11
341
407
342
407
371
    -1
372
    -1
  0
DIMSTYLE
105
9D0
330
A
100
AcDbSymbolTableRecord
100
AcDbDimStyleTableRecord
  2
Standard
 70
     0
340
11
  0
DIMSTYLE
105
9D1
330
A
100
AcDbSymbolTableRecord
100
AcDbDimStyleTableRecord
  2
AM_ANSI
 70
     0
  4
mm
 41
0.1
 42
0.05
 43
0.5
 44
0.1
 47
0.1
 48
0.1
 78
     7
 79
     2
140
0.12
141
0.0
146
0.71
147
0.06
176
   256
177
   256
178
     2
274
     4
284
     7
340
11
371
    -1
372
    -1
  0
DIMSTYLE
105
9D2
330
A
100
AcDbSymbolTableRecord
100
AcDbDimStyleTableRecord
  2
AM_ANSI$3
 70
     0
  4
mm
 41
0.1
 42
0.05
 43
0.5
 44
0.1
 47
0.1
 48
0.1
 78
     7
 79
     2
140
0.12
141
0.0
146
0.71
147
0.06
176
   256
177
   256
178
     2
274
     4
284
     7
288
     1
289
     0
340
11
371
    -1
372
    -1
  0
DIMSTYLE
105
9D3
330
A
100
AcDbSymbolTableRecord
100
AcDbDimStyleTableRecord
  2
AM_ANSI$4
 70
     0
  4
mm
 41
0.1
 42
0.05
 43
0.5
 44
0.1
 47
0.1
 48
0.1
 78
     7
 79
     2
140
0.12
141
0.0
146
0.71
147
0.06
176
   256
177
   256
178
     2
274
     4
284
     7
288
     1
289
     0
340
11
371
    -1
372
    -1
  0
DIMSTYLE
105
9D4
330
A
100
AcDbSymbolTableRecord
100
AcDbDimStyleTableRecord
  2
AM_ANSI$7
 70
     0
  4
mm
 41
0.1
 42
0.05
 43
0.5
 44
0.1
 47
0.1
 48
0.1
 78
     7
 79
     2
140
0.24
141
0.0
146
0.71
147
0.06
176
   256
177
   256
178
     2
274
     4
284
     7
340
11
371
    -1
372
    -1
  0
DIMSTYLE
105
9D5
330
A
100
AcDbSymbolTableRecord
100
AcDbDimStyleTableRecord
  2
AM_ANSI$SF
 70
     0
  4
mm
 41
0.1
 42
0.05
 43
0.5
 44
0.1
 47
0.1
 48
0.1
 75
     1
 76
     1
 78
     7
 79
     2
140
0.12
141
0.0
146
0.71
147
0.06
176
   256
177
   256
178
     2
274
     4
284
     7
340
11
371
    -1
372
    -1
  0
DIMSTYLE
105
9D6
330
A
100
AcDbSymbolTableRecord
100
AcDbDimStyleTableRecord
  2
AM_ANSI$SH
 70
     0
  4
mm
 41
0.1
 42
0.05
 43
0.5
 44
0.1
 47
0.1
 48
0.1
 75
     1
 76
     1
 78
     7
 79
     2
140
0.12
141
0.0
146
0.71
147
0.06
173
     1
176
   256
177
   256
178
     2
274
     4
284
     7
340
11
343
87
371
    -1
372
    -1
  0
ENDTAB
  0
TABLE
  2
BLOCK_RECORD
  5
1
330
0
100
AcDbSymbolTable
 70
    41
  0
BLOCK_RECORD
  5
1F
102
{ACAD_XDICTIONARY
360
8F
102
}
330
1
100
AcDbSymbolTableRecord
100
AcDbBlockTableRecord
  2
*Model_Space
340
22
  0
BLOCK_RECORD
  5
23
330
1
100
AcDbSymbolTableRecord
100
AcDbBlockTableRecord
  2
*Paper_Space
340
26
  0
BLOCK_RECORD
  5
1B
330
1
100
AcDbSymbolTableRecord
100
AcDbBlockTableRecord
  2
*Paper_Space0
340
1E
  0
BLOCK_RECORD
  5
87
330
1
100
AcDbSymbolTableRecord
100
AcDbBlockTableRecord
  2
GENAXEH
340
0
  0
BLOCK_RECORD
  5
407
330
1
100
AcDbSymbolTableRecord
100
AcDbBlockTableRecord
  2
_Open30
340
0
102
{BLKREFS
331
EB3
331
EB4
331
EBE
331
EBF
331
EC9
331
ECA
331
EDB
331
EDC
331
F16
331
F17
331
F1F
331
F20
331
FE4
331
D3A
331
D3B
331
DC2
331
DC3
331
E5F
331
E60
331
E6B
331
E6C
331
E75
331
E76
331
E81
331
E82
331
E89
331
E8A
331
E94
331
E95
331
E9F
331
EA0
331
EA8
331
EA9
102
}
  0
BLOCK_RECORD
  5
5A7
330
1
100
AcDbSymbolTableRecord
100
AcDbBlockTableRecord
  2
GEVCON
340
0
  0
BLOCK_RECORD
  5
5AA
330
1
100
AcDbSymbolTableRecord
100
AcDbBlockTableRecord
  2
GEVEP
340
0
  0
BLOCK_RECORD
  5
5B3
330
1
100
AcDbSymbolTableRecord
100
AcDbBlockTableRecord
  2
GEVFRAME
340
0
  0
BLOCK_RECORD
  5
5CD
102
{ACAD_XDICTIONARY
360
5D9
102
}
330
1
100
AcDbSymbolTableRecord
100
AcDbBlockTableRecord
  2
TAKACHI-A4
340
0
102
{BLKREFS
331
5E3
102
}
  0
BLOCK_RECORD
  5
5E9
102
{ACAD_XDICTIONARY
360
63E
102
}
330
1
100
AcDbSymbolTableRecord
100
AcDbBlockTableRecord
  2
TAKACHI-TITLE
340
0
  0
BLOCK_RECORD
  5
7E7
330
1
100
AcDbSymbolTableRecord
100
AcDbBlockTableRecord
  2
*D9
340
0
  0
BLOCK_RECORD
  5
7F1
330
1
100
AcDbSymbolTableRecord
100
AcDbBlockTableRecord
  2
*D10
340
0
  0
BLOCK_RECORD
  5
7FB
330
1
100
AcDbSymbolTableRecord
100
AcDbBlockTableRecord
  2
*D11
340
0
  0
BLOCK_RECORD
  5
81B
330
1
100
AcDbSymbolTableRecord
100
AcDbBlockTableRecord
  2
*D12
340
0
  0
BLOCK_RECORD
  5
825
330
1
100
AcDbSymbolTableRecord
100
AcDbBlockTableRecord
  2
*D13
340
0
  0
BLOCK_RECORD
  5
83B
330
1
100
AcDbSymbolTableRecord
100
AcDbBlockTableRecord
  2
*D14
340
0
  0
BLOCK_RECORD
  5
847
330
1
100
AcDbSymbolTableRecord
100
AcDbBlockTableRecord
  2
*D15
340
0
  0
BLOCK_RECORD
  5
85F
330
1
100
AcDbSymbolTableRecord
100
AcDbBlockTableRecord
  2
*D16
340
0
  0
BLOCK_RECORD
  5
8C9
330
1
100
AcDbSymbolTableRecord
100
AcDbBlockTableRecord
  2
*D17
340
0
  0
BLOCK_RECORD
  5
8ED
330
1
100
AcDbSymbolTableRecord
100
AcDbBlockTableRecord
  2
*D18
340
0
  0
BLOCK_RECORD
  5
915
330
1
100
AcDbSymbolTableRecord
100
AcDbBlockTableRecord
  2
*D19
340
0
  0
BLOCK_RECORD
  5
970
330
1
100
AcDbSymbolTableRecord
100
AcDbBlockTableRecord
  2
*D20
340
0
  0
BLOCK_RECORD
  5
99C
330
1
100
AcDbSymbolTableRecord
100
AcDbBlockTableRecord
  2
*D21
340
0
  0
BLOCK_RECORD
  5
BEA
102
{ACAD_XDICTIONARY
360
BF2
102
}
330
1
100
AcDbSymbolTableRecord
100
AcDbBlockTableRecord
  2
TK-A4
340
0
102
{BLKREFS
331
5E3
102
}
  0
BLOCK_RECORD
  5
C9F
102
{ACAD_XDICTIONARY
360
CF8
102
}
330
1
100
AcDbSymbolTableRecord
100
AcDbBlockTableRecord
  2
TK-TITLE
340
0
102
{BLKREFS
331
CFC
102
}
  0
BLOCK_RECORD
  5
DED
330
1
100
AcDbSymbolTableRecord
100
AcDbBlockTableRecord
  2
*D24
340
0
  0
BLOCK_RECORD
  5
E2D
330
1
100
AcDbSymbolTableRecord
100
AcDbBlockTableRecord
  2
*D25
340
0
  0
BLOCK_RECORD
  5
E39
330
1
100
AcDbSymbolTableRecord
100
AcDbBlockTableRecord
  2
*D26
340
0
  0
BLOCK_RECORD
  5
F03
330
1
100
AcDbSymbolTableRecord
100
AcDbBlockTableRecord
  2
*D27
340
0
  0
BLOCK_RECORD
  5
F7E
102
{ACAD_XDICTIONARY
360
F7F
102
}
330
1
100
AcDbSymbolTableRecord
100
AcDbBlockTableRecord
  2
A$C35C16C4D
340
0
102
{BLKREFS
331
FDA
102
}
  0
BLOCK_RECORD
  5
F94
102
{ACAD_XDICTIONARY
360
F95
102
}
330
1
100
AcDbSymbolTableRecord
100
AcDbBlockTableRecord
  2
A$C47270E8E
340
0
102
{BLKREFS
331
FDB
102
}
  0
BLOCK_RECORD
  5
FA8
102
{ACAD_XDICTIONARY
360
FA9
102
}
330
1
100
AcDbSymbolTableRecord
100
AcDbBlockTableRecord
  2
A$C762874DC
340
0
102
{BLKREFS
331
FDC
102
}
  0
BLOCK_RECORD
  5
FB6
102
{ACAD_XDICTIONARY
360
FB7
102
}
330
1
100
AcDbSymbolTableRecord
100
AcDbBlockTableRecord
  2
A$C4B68363E
340
0
102
{BLKREFS
331
FDD
102
}
  0
BLOCK_RECORD
  5
114C
330
1
100
AcDbSymbolTableRecord
100
AcDbBlockTableRecord
  2
*S32
340
0
  0
BLOCK_RECORD
  5
1153
330
1
100
AcDbSymbolTableRecord
100
AcDbBlockTableRecord
  2
*S33
340
0
  0
BLOCK_RECORD
  5
115A
330
1
100
AcDbSymbolTableRecord
100
AcDbBlockTableRecord
  2
*S34
340
0
  0
BLOCK_RECORD
  5
1161
330
1
100
AcDbSymbolTableRecord
100
AcDbBlockTableRecord
  2
*S35
340
0
  0
BLOCK_RECORD
  5
1169
330
1
100
AcDbSymbolTableRecord
100
AcDbBlockTableRecord
  2
*S36
340
0
  0
BLOCK_RECORD
  5
1170
330
1
100
AcDbSymbolTableRecord
100
AcDbBlockTableRecord
  2
*S37
340
0
  0
BLOCK_RECORD
  5
1178
330
1
100
AcDbSymbolTableRecord
100
AcDbBlockTableRecord
  2
*S38
340
0
  0
BLOCK_RECORD
  5
11B1
330
1
100
AcDbSymbolTableRecord
100
AcDbBlockTableRecord
  2
*S39
340
0
  0
BLOCK_RECORD
  5
11B9
330
1
100
AcDbSymbolTableRecord
100
AcDbBlockTableRecord
  2
*S40
340
0
  0
ENDTAB
  0
ENDSEC
  0
SECTION
  2
BLOCKS
  0
BLOCK
  5
20
330
1F
100
AcDbEntity
  8
0
100
AcDbBlockBegin
  2
*Model_Space
 70
     0
 10
0.0
 20
0.0
 30
0.0
  3
*Model_Space
  1

  0
ENDBLK
  5
21
330
1F
100
AcDbEntity
  8
0
100
AcDbBlockEnd
  0
BLOCK
  5
24
330
23
100
AcDbEntity
 67
     1
  8
0
100
AcDbBlockBegin
  2
*Paper_Space
 70
     0
 10
0.0
 20
0.0
 30
0.0
  3
*Paper_Space
  1

  0
ENDBLK
  5
25
330
23
100
AcDbEntity
 67
     1
  8
0
100
AcDbBlockEnd
  0
BLOCK
  5
1C
330
1B
100
AcDbEntity
 67
     1
  8
0
100
AcDbBlockBegin
  2
*Paper_Space0
 70
     0
 10
0.0
 20
0.0
 30
0.0
  3
*Paper_Space0
  1

  0
VIEWPORT
  5
178
102
{ACAD_XDICTIONARY
360
11CE
102
}
330
1B
100
AcDbEntity
 67
     1
  8
0
100
AcDbViewport
 10
133.3499908447265
 20
101.5999970436096
 30
0.0
 40
370.2266912936524
 41
228.4221935424805
 68
     0
 69
     0
 12
133.3499908447265
 22
101.5999970436096
 13
0.0
 23
0.0
 14
10.0
 24
10.0
 15
10.0
 25
10.0
 16
0.0
 26
0.0
 36
1.0
 17
0.0
 27
0.0
 37
0.0
 42
50.0
 43
0.0
 44
0.0
 45
228.4221935424805
 50
0.0
 51
0.0
 72
   100
 90
    32800
  1

281
     0
 71
     1
 74
     0
110
0.0
120
0.0
130
0.0
111
1.0
121
0.0
131
0.0
112
0.0
122
1.0
132
0.0
 79
     0
146
0.0
1001
GENIUS_GENSCREG_15
1000
PF
1040
1.0
1000
DF
1040
1.0
1000
MIN
1011
-51.76335480209963
1021
-12.6110997276306
1031
0.0
1000
MAX
1011
318.4633364915527
1021
215.8110938148499
1031
0.0
1000
FLAGS
1070
     4
1001
GENIUS_GENODEF_13
1002
{
1000
HIER
1070
     0
1002
}
1002
{
1000
MANEDIT
1070
     0
1002
}
1002
{
1000
NOSEL
1070
     0
1002
}
1002
{
1000
BEHIND
1070
     0
1002
}
1002
{
1000
OTHER
1070
     0
1002
}
1002
{
1000
REACTOR
1002
}
1001
GENIUS_GENOBJ-N-SDF_13
1002
{
1000
OWNER
1000
GEN
1002
}
  0
ENDBLK
  5
1D
330
1B
100
AcDbEntity
 67
     1
  8
0
100
AcDbBlockEnd
  0
BLOCK
  5
89
330
87
100
AcDbEntity
  8
0
100
AcDbBlockBegin
  2
GENAXEH
 70
     0
 10
0.0
 20
0.0
 30
0.0
  3
GENAXEH
  1

  0
LINE
  5
88
330
87
100
AcDbEntity
  8
0
100
AcDbLine
 10
-1.0
 20
0.0
 30
0.0
 11
1.0
 21
0.0
 31
0.0
  0
ENDBLK
  5
8A
330
87
100
AcDbEntity
  8
0
100
AcDbBlockEnd
  0
BLOCK
  5
40B
330
407
100
AcDbEntity
  8
0
100
AcDbBlockBegin
  2
_Open30
 70
     0
 10
0.0
 20
0.0
 30
0.0
  3
_Open30
  1

  0
LINE
  5
408
330
407
100
AcDbEntity
  8
0
  6
ByBlock
 62
     0
370
    -2
100
AcDbLine
 10
-1.0
 20
0.26794919
 30
0.0
 11
0.0
 21
0.0
 31
0.0
  0
LINE
  5
409
330
407
100
AcDbEntity
  8
0
  6
ByBlock
 62
     0
370
    -2
100
AcDbLine
 10
0.0
 20
0.0
 30
0.0
 11
-1.0
 21
-0.26794919
 31
0.0
  0
LINE
  5
40A
330
407
100
AcDbEntity
  8
0
  6
ByBlock
 62
     0
370
    -2
100
AcDbLine
 10
0.0
 20
0.0
 30
0.0
 11
-1.0
 21
0.0
 31
0.0
  0
ENDBLK
  5
40C
330
407
100
AcDbEntity
  8
0
100
AcDbBlockEnd
  0
BLOCK
  5
5A8
330
5A7
100
AcDbEntity
  8
0
100
AcDbBlockBegin
  2
GEVCON
 70
     0
 10
0.0
 20
0.0
 30
0.0
  3
GEVCON
  1
GEVCON
  0
ENDBLK
  5
5A9
330
5A7
100
AcDbEntity
  8
0
100
AcDbBlockEnd
  0
BLOCK
  5
5AB
330
5AA
100
AcDbEntity
  8
0
100
AcDbBlockBegin
  2
GEVEP
 70
     0
 10
0.0
 20
0.0
 30
0.0
  3
GEVEP
  1

  0
LINE
  5
5AC
330
5AA
100
AcDbEntity
  8
0
100
AcDbLine
 10
2.0
 20
-2.0
 30
0.0
 11
-2.0
 21
-2.0
 31
0.0
  0
LINE
  5
5AD
330
5AA
100
AcDbEntity
  8
0
100
AcDbLine
 10
-2.0
 20
2.0
 30
0.0
 11
2.0
 21
2.0
 31
0.0
  0
LINE
  5
5AE
330
5AA
100
AcDbEntity
  8
0
100
AcDbLine
 10
2.0
 20
-2.0
 30
0.0
 11
-2.0
 21
2.0
 31
0.0
  0
LINE
  5
5AF
330
5AA
100
AcDbEntity
  8
0
100
AcDbLine
 10
-2.0
 20
-2.0
 30
0.0
 11
2.0
 21
2.0
 31
0.0
  0
LINE
  5
5B0
330
5AA
100
AcDbEntity
  8
0
100
AcDbLine
 10
-2.0
 20
-2.0
 30
0.0
 11
-2.0
 21
2.0
 31
0.0
  0
LINE
  5
5B1
330
5AA
100
AcDbEntity
  8
0
100
AcDbLine
 10
2.0
 20
2.0
 30
0.0
 11
2.0
 21
-2.0
 31
0.0
  0
ENDBLK
  5
5B2
330
5AA
100
AcDbEntity
  8
0
100
AcDbBlockEnd
  0
BLOCK
  5
5B4
330
5B3
100
AcDbEntity
  8
0
100
AcDbBlockBegin
  2
GEVFRAME
 70
     0
 10
0.0
 20
0.0
 30
0.0
  3
GEVFRAME
  1
GEVFRAME
  0
LINE
  5
5B5
330
5B3
100
AcDbEntity
  8
0
100
AcDbLine
 10
0.0
 20
0.0
 30
0.0
 11
1.0
 21
0.0
 31
0.0
  0
LINE
  5
5B6
330
5B3
100
AcDbEntity
  8
0
100
AcDbLine
 10
1.0
 20
0.0
 30
0.0
 11
1.0
 21
1.0
 31
0.0
  0
LINE
  5
5B7
330
5B3
100
AcDbEntity
  8
0
100
AcDbLine
 10
1.0
 20
1.0
 30
0.0
 11
0.0
 21
1.0
 31
0.0
  0
LINE
  5
5B8
330
5B3
100
AcDbEntity
  8
0
100
AcDbLine
 10
0.0
 20
1.0
 30
0.0
 11
0.0
 21
0.0
 31
0.0
  0
ENDBLK
  5
5B9
330
5B3
100
AcDbEntity
  8
0
100
AcDbBlockEnd
  0
BLOCK
  5
5DA
330
5CD
100
AcDbEntity
  8
0
100
AcDbBlockBegin
  2
TAKACHI-A4
 70
     0
 10
0.0
 20
0.0
 30
0.0
  3
TAKACHI-A4
  1

  0
TEXT
  5
5CE
330
5CD
100
AcDbEntity
  8
0
 60
     1
100
AcDbText
 10
10.0
 20
54.99999999999994
 30
0.0
 40
2.5
  1
!GENTITLE-LL
100
AcDbText
  0
TEXT
  5
5CF
330
5CD
100
AcDbEntity
  8
0
 60
     1
100
AcDbText
 10
215.0
 20
15.0
 30
0.0
 40
2.5
  1
!GENTITLE-INSERT
100
AcDbText
  0
TEXT
  5
5D0
330
5CD
100
AcDbEntity
  8
0
 60
     1
100
AcDbText
 10
215.0
 20
285.0000000000001
 30
0.0
 40
2.5
  1
!GENTITLE-RU
100
AcDbText
  0
TEXT
  5
5D1
330
5CD
100
AcDbEntity
  8
0
 60
     1
100
AcDbText
 10
215.0000000000001
 20
290.0
 30
0.0
 40
2.5
  1
!GENTITLE-MAX
100
AcDbText
  0
LINE
  5
5D2
330
5CD
100
AcDbEntity
  8
0
100
AcDbLine
 10
215.0
 20
290.0000000000001
 30
0.0
 11
20.00000000000003
 21
290.0
 31
0.0
1001
GENIUS_GENREC_14
1002
{
1000
PYDIR
1011
15.00000000000003
1021
295.0
1031
0.0
1002
}
1002
{
1000
PXDIR
1011
215.0
1021
15.0
1031
0.0
1002
}
1002
{
1000
PORI
1011
15.0
1021
15.0
1031
0.0
1002
}
1002
{
1000
PINS
1011
115.0
1021
155.0
1031
0.0
1002
}
1002
{
1000
HVAL
1000
280
1002
}
1002
{
1000
H
1070
     2
1002
}
1002
{
1000
WVAL
1000
200
1002
}
1002
{
1000
W
1070
     2
1002
}
1002
{
1000
C
1070
     4
1002
}
  0
LINE
  5
5D3
330
5CD
100
AcDbEntity
  8
0
100
AcDbLine
 10
20.00000000000003
 20
290.0
 30
0.0
 11
19.99999999999997
 21
15.0
 31
0.0
1001
GENIUS_GENREC_14
1002
{
1000
PYDIR
1011
15.00000000000003
1021
295.0
1031
0.0
1002
}
1002
{
1000
PXDIR
1011
215.0
1021
15.0
1031
0.0
1002
}
1002
{
1000
PORI
1011
15.0
1021
15.0
1031
0.0
1002
}
1002
{
1000
PINS
1011
115.0
1021
155.0
1031
0.0
1002
}
1002
{
1000
HVAL
1000
280
1002
}
1002
{
1000
H
1070
     2
1002
}
1002
{
1000
WVAL
1000
200
1002
}
1002
{
1000
W
1070
     2
1002
}
1002
{
1000
C
1070
     4
1002
}
  0
LINE
  5
5D4
330
5CD
100
AcDbEntity
  8
0
100
AcDbLine
 10
19.99999999999997
 20
15.0
 30
0.0
 11
215.0
 21
15.0
 31
0.0
1001
GENIUS_GENREC_14
1002
{
1000
PYDIR
1011
15.00000000000003
1021
295.0
1031
0.0
1002
}
1002
{
1000
PXDIR
1011
215.0
1021
15.0
1031
0.0
1002
}
1002
{
1000
PORI
1011
15.0
1021
15.0
1031
0.0
1002
}
1002
{
1000
PINS
1011
115.0
1021
155.0
1031
0.0
1002
}
1002
{
1000
HVAL
1000
280
1002
}
1002
{
1000
H
1070
     2
1002
}
1002
{
1000
WVAL
1000
200
1002
}
1002
{
1000
W
1070
     2
1002
}
1002
{
1000
C
1070
     4
1002
}
  0
LINE
  5
5D5
330
5CD
100
AcDbEntity
  8
0
100
AcDbLine
 10
215.0
 20
15.0
 30
0.0
 11
215.0000000000001
 21
290.0000000000001
 31
0.0
1001
GENIUS_GENREC_14
1002
{
1000
PYDIR
1011
15.00000000000003
1021
295.0
1031
0.0
1002
}
1002
{
1000
PXDIR
1011
215.0
1021
15.0
1031
0.0
1002
}
1002
{
1000
PORI
1011
15.0
1021
15.0
1031
0.0
1002
}
1002
{
1000
PINS
1011
115.0
1021
155.0
1031
0.0
1002
}
1002
{
1000
HVAL
1000
280
1002
}
1002
{
1000
H
1070
     2
1002
}
1002
{
1000
WVAL
1000
200
1002
}
1002
{
1000
W
1070
     2
1002
}
1002
{
1000
C
1070
     4
1002
}
  0
LINE
  5
5D6
330
5CD
100
AcDbEntity
  8
0
100
AcDbLine
 10
171.0000000000001
 20
285.0000000000001
 30
0.0
 11
215.0000000000001
 21
285.0000000000001
 31
0.0
  0
LINE
  5
5D7
330
5CD
100
AcDbEntity
  8
0
100
AcDbLine
 10
171.0000000000001
 20
290.0000000000001
 30
0.0
 11
171.0000000000001
 21
285.0000000000001
 31
0.0
  0
MTEXT
  5
5D8
330
5CD
100
AcDbEntity
  8
0
100
AcDbMText
 10
214.3592953827349
 20
286.1085429872271
 30
0.0
 40
2.5
 41
43.07840397728298
 71
     9
 72
     5
  1
(文書番号：TY-34)2004.10.29
 73
     1
 44
1.0
1001
ACAD
1000
MTEXTBEGIN
1070
    73
1070
     1
1070
    44
1040
1.0
1070
    74
1070
     0
1000
MTEXTEND
  0
ENDBLK
  5
5DB
330
5CD
100
AcDbEntity
  8
0
100
AcDbBlockEnd
  0
BLOCK
  5
63F
330
5E9
100
AcDbEntity
  8
0
100
AcDbBlockBegin
  2
TAKACHI-TITLE
 70
     2
 10
0.0
 20
0.0
 30
0.0
  3
TAKACHI-TITLE
  1

  0
LINE
  5
5EA
330
5E9
100
AcDbEntity
  8
RAHM2
100
AcDbLine
 10
-195.0
 20
30.00000000000003
 30
0.0
 11
-94.0
 21
30.00000000000003
 31
0.0
  0
LINE
  5
5EB
330
5E9
100
AcDbEntity
  8
RAHM2
100
AcDbLine
 10
-195.0
 20
35.00000000000003
 30
0.0
 11
-94.0
 21
35.00000000000003
 31
0.0
  0
LINE
  5
5EC
330
5E9
100
AcDbEntity
  8
RAHM2
100
AcDbLine
 10
-195.0
 20
40.00000000000002
 30
0.0
 11
-94.0
 21
40.00000000000002
 31
0.0
  0
LINE
  5
5ED
330
5E9
100
AcDbEntity
  8
RAHM2
100
AcDbLine
 10
-195.0
 20
45.00000000000002
 30
0.0
 11
-94.0
 21
45.00000000000002
 31
0.0
  0
LINE
  5
5EE
330
5E9
100
AcDbEntity
  8
0
100
AcDbLine
 10
-195.0
 20
7.0
 30
0.0
 11
-94.0
 21
7.0
 31
0.0
  0
LINE
  5
5EF
330
5E9
100
AcDbEntity
  8
0
100
AcDbLine
 10
-195.0
 20
19.99999999999997
 30
0.0
 11
-94.0
 21
19.99999999999997
 31
0.0
  0
ATTDEF
  5
5F0
330
5E9
100
AcDbEntity
  8
0
100
AcDbText
 10
-183.2438527145607
 20
8.950850524428082
 30
0.0
 40
2.5
  1

 11
-183.2438527145607
 21
8.617517191094748
 31
0.0
100
AcDbAttributeDefinition
  3
サブタイトル
  2
GEN-TITLE-DES2
 70
     0
 74
     1
  0
ATTDEF
  5
5F1
330
5E9
100
AcDbEntity
  8
0
100
AcDbText
 10
-183.2438527145607
 20
2.017517191094748
 30
0.0
 40
3.0
  1

 11
-183.2438527145607
 21
1.617517191094748
 31
0.0
100
AcDbAttributeDefinition
  3
図番
  2
GEN-TITLE-NR
 70
     0
 74
     1
  0
MTEXT
  5
5F2
330
5E9
100
AcDbEntity
  8
RAHM2
100
AcDbMText
 10
-193.8002551371314
 20
5.801035407279641
 30
0.0
 40
2.5
 41
90.0
 71
     1
 72
     5
  1
図番
 73
     1
 44
1.0
1001
ACAD
1000
MTEXTBEGIN
1070
    73
1070
     1
1070
    44
1040
1.0
1070
    74
1070
     0
1000
MTEXTEND
  0
ATTDEF
  5
5F3
330
5E9
100
AcDbEntity
  8
0
100
AcDbText
 10
-183.2438527145607
 20
14.40728619501834
 30
0.0
 40
4.0
  1

 11
-183.2438527145607
 21
13.87395286168501
 31
0.0
100
AcDbAttributeDefinition
  3
品名
  2
GEN-TITLE-DES1
 70
     0
 74
     1
  0
LINE
  5
5F4
330
5E9
100
AcDbEntity
  8
RAHM2
100
AcDbLine
 10
-187.5751288694036
 20
30.40000000000004
 30
0.0
 11
-190.0
 21
34.60000000000003
 31
0.0
  0
LINE
  5
5F5
330
5E9
100
AcDbEntity
  8
RAHM2
100
AcDbLine
 10
-190.0
 20
34.60000000000003
 30
0.0
 11
-192.4248711305964
 21
30.40000000000004
 31
0.0
  0
LINE
  5
5F6
330
5E9
100
AcDbEntity
  8
RAHM2
100
AcDbLine
 10
-185.0
 20
50.00000000000003
 30
0.0
 11
-185.0
 21
19.99999999999994
 31
0.0
  0
LINE
  5
5F7
330
5E9
100
AcDbEntity
  8
RAHM2
100
AcDbLine
 10
-192.4248711305964
 20
30.40000000000004
 30
0.0
 11
-187.5751288694036
 21
30.40000000000004
 31
0.0
  0
MTEXT
  5
5F8
330
5E9
100
AcDbEntity
  8
RAHM2
100
AcDbMText
 10
-190.0
 20
22.49999999999997
 30
0.0
 40
2.5
 41
10.0
 71
     5
 72
     5
  1
符号
 73
     1
 44
1.0
1001
ACAD
1000
MTEXTBEGIN
1070
    73
1070
     1
1070
    44
1040
1.0
1070
    74
1070
     0
1000
MTEXTEND
  0
MTEXT
  5
5F9
330
5E9
100
AcDbEntity
  8
RAHM2
100
AcDbMText
 10
-193.8002551371314
 20
18.80103540727961
 30
0.0
 40
2.5
 41
90.0
 71
     1
 72
     5
  1
品名
 73
     1
 44
1.0
1001
ACAD
1000
MTEXTBEGIN
1070
    73
1070
     1
1070
    44
1040
1.0
1070
    74
1070
     0
1000
MTEXTEND
  0
LINE
  5
5FA
330
5E9
100
AcDbEntity
  8
RAHM2
100
AcDbLine
 10
-192.4248711305964
 20
45.40000000000003
 30
0.0
 11
-187.5751288694036
 21
45.40000000000003
 31
0.0
  0
LINE
  5
5FB
330
5E9
100
AcDbEntity
  8
RAHM2
100
AcDbLine
 10
-187.5751288694036
 20
45.40000000000003
 30
0.0
 11
-190.0
 21
49.60000000000002
 31
0.0
  0
LINE
  5
5FC
330
5E9
100
AcDbEntity
  8
RAHM2
100
AcDbLine
 10
-192.4248711305964
 20
40.40000000000003
 30
0.0
 11
-187.5751288694036
 21
40.40000000000003
 31
0.0
  0
LINE
  5
5FD
330
5E9
100
AcDbEntity
  8
RAHM2
100
AcDbLine
 10
-187.5751288694036
 20
40.40000000000003
 30
0.0
 11
-190.0
 21
44.60000000000002
 31
0.0
  0
LINE
  5
5FE
330
5E9
100
AcDbEntity
  8
RAHM2
100
AcDbLine
 10
-192.4248711305964
 20
35.40000000000004
 30
0.0
 11
-187.5751288694036
 21
35.40000000000004
 31
0.0
  0
LINE
  5
5FF
330
5E9
100
AcDbEntity
  8
RAHM2
100
AcDbLine
 10
-187.5751288694036
 20
35.40000000000004
 30
0.0
 11
-190.0
 21
39.60000000000002
 31
0.0
  0
LINE
  5
600
330
5E9
100
AcDbEntity
  8
RAHM2
100
AcDbLine
 10
-190.0
 20
39.60000000000002
 30
0.0
 11
-192.4248711305964
 21
35.40000000000004
 31
0.0
  0
LINE
  5
601
330
5E9
100
AcDbEntity
  8
RAHM2
100
AcDbLine
 10
-190.0
 20
44.60000000000002
 30
0.0
 11
-192.4248711305964
 21
40.40000000000003
 31
0.0
  0
LINE
  5
602
330
5E9
100
AcDbEntity
  8
RAHM2
100
AcDbLine
 10
-190.0
 20
49.60000000000002
 30
0.0
 11
-192.4248711305964
 21
45.40000000000003
 31
0.0
  0
LINE
  5
603
330
5E9
100
AcDbEntity
  8
RAHM2
100
AcDbLine
 10
-129.0
 20
50.00000000000003
 30
0.0
 11
-129.0
 21
19.99999999999994
 31
0.0
  0
MTEXT
  5
604
330
5E9
100
AcDbEntity
  8
RAHM2
100
AcDbMText
 10
-157.1448171868856
 20
22.49999999999997
 30
0.0
 40
2.5
 41
45.0
 71
     5
 72
     5
  1
変更記事
 73
     1
 44
1.0
1001
ACAD
1000
MTEXTBEGIN
1070
    73
1070
     1
1070
    44
1040
1.0
1070
    74
1070
     0
1000
MTEXTEND
  0
LINE
  5
605
330
5E9
100
AcDbEntity
  8
0
100
AcDbLine
 10
-34.0
 20
50.0
 30
0.0
 11
-34.0
 21
0.0
 31
0.0
  0
LINE
  5
606
330
5E9
100
AcDbEntity
  8
0
100
AcDbLine
 10
-94.0
 20
50.0
 30
0.0
 11
-94.0
 21
0.0
 31
0.0
  0
MTEXT
  5
607
330
5E9
100
AcDbEntity
  8
0
100
AcDbMText
 10
-64.0
 20
5.0
 30
0.0
 40
3.5
 41
60.0
 71
     5
 72
     5
  1
\fＭＳ ゴシック|b0|i0|c128|p49;株式会社タカチ電機工業
 73
     1
 44
1.0
1001
ACAD
1000
MTEXTBEGIN
1070
    73
1070
     1
1070
    44
1040
1.0
1070
    74
1070
     0
1000
MTEXTEND
  0
LINE
  5
608
330
5E9
100
AcDbEntity
  8
0
100
AcDbLine
 10
-94.0
 20
10.0
 30
0.0
 11
-34.0
 21
10.0
 31
0.0
  0
ATTDEF
  5
609
330
5E9
100
AcDbEntity
  8
0
100
AcDbText
 10
-58.01405119799745
 20
39.25500556178349
 30
0.0
 40
3.0
  1

 72
     2
 11
-58.01405119799745
 21
39.25500556178349
 31
0.0
100
AcDbAttributeDefinition
  3
尺度
  2
GEN-TITLE-SCA
 70
     0
  0
ATTDEF
  5
60A
330
5E9
100
AcDbEntity
  8
0
100
AcDbText
 10
-77.00284966649007
 20
31.02180787943475
 30
0.0
 40
3.0
  1

 11
-77.00284966649007
 21
30.62180787943475
 31
0.0
100
AcDbAttributeDefinition
  3
材質
  2
GEN-TITLE-MAT1
 70
     0
 74
     1
  0
ATTDEF
  5
60B
330
5E9
100
AcDbEntity
  8
0
100
AcDbText
 10
-77.00284966649007
 20
21.02180787943475
 30
0.0
 40
3.0
  1

 11
-77.00284966649007
 21
20.62180787943475
 31
0.0
100
AcDbAttributeDefinition
  3
表面処理
  2
GEN-TITLE-MAT2
 70
     0
 74
     1
  0
ATTDEF
  5
60C
330
5E9
100
AcDbEntity
  8
0
100
AcDbText
 10
-77.00284966649007
 20
12.01751719109475
 30
0.0
 40
3.0
  1

 11
-77.00284966649007
 21
11.61751719109475
 31
0.0
100
AcDbAttributeDefinition
  3
日付
  2
GEN-TITLE-DAT
 70
     0
 74
     1
  0
LINE
  5
60D
330
5E9
100
AcDbEntity
  8
0
100
AcDbLine
 10
-94.0
 20
37.5
 30
0.0
 11
-34.0
 21
37.5
 31
0.0
  0
LINE
  5
60E
330
5E9
100
AcDbEntity
  8
0
100
AcDbLine
 10
-94.0
 20
27.5
 30
0.0
 11
-34.0
 21
27.5
 31
0.0
  0
LINE
  5
60F
330
5E9
100
AcDbEntity
  8
0
100
AcDbLine
 10
-94.0
 20
17.5
 30
0.0
 11
-34.0
 21
17.5
 31
0.0
  0
LINE
  5
610
330
5E9
100
AcDbEntity
  8
RAHM2
100
AcDbLine
 10
-109.0
 20
50.00000000000003
 30
0.0
 11
-109.0
 21
19.99999999999994
 31
0.0
  0
MTEXT
  5
611
330
5E9
100
AcDbEntity
  8
RAHM2
100
AcDbMText
 10
-119.4582894723942
 20
32.50000000000003
 30
0.0
 40
2.5
 41
20.0
 71
     5
 72
     5
  1
・  ・   
 73
     1
 44
1.0
1001
ACAD
1000
MTEXTBEGIN
1070
    73
1070
     1
1070
    44
1040
1.0
1070
    74
1070
     0
1000
MTEXTEND
  0
MTEXT
  5
612
330
5E9
100
AcDbEntity
  8
RAHM2
100
AcDbMText
 10
-118.738119805002
 20
22.49999999999997
 30
0.0
 40
2.5
 41
20.0
 71
     5
 72
     5
  1
年・月・日
 73
     1
 44
1.0
1001
ACAD
1000
MTEXTBEGIN
1070
    73
1070
     1
1070
    44
1040
1.0
1070
    74
1070
     0
1000
MTEXTEND
  0
MTEXT
  5
613
330
5E9
100
AcDbEntity
  8
RAHM2
100
AcDbMText
 10
-101.5
 20
22.49999999999997
 30
0.0
 40
2.5
 41
15.0
 71
     5
 72
     5
  1
担当
 73
     1
 44
1.0
1001
ACAD
1000
MTEXTBEGIN
1070
    73
1070
     1
1070
    44
1040
1.0
1070
    74
1070
     0
1000
MTEXTEND
  0
MTEXT
  5
614
330
5E9
100
AcDbEntity
  8
RAHM2
100
AcDbMText
 10
-119.4582894723942
 20
42.50000000000002
 30
0.0
 40
2.5
 41
20.0
 71
     5
 72
     5
  1
・  ・   
 73
     1
 44
1.0
1001
ACAD
1000
MTEXTBEGIN
1070
    73
1070
     1
1070
    44
1040
1.0
1070
    74
1070
     0
1000
MTEXTEND
  0
MTEXT
  5
615
330
5E9
100
AcDbEntity
  8
RAHM2
100
AcDbMText
 10
-119.4582894723942
 20
37.50000000000003
 30
0.0
 40
2.5
 41
20.0
 71
     5
 72
     5
  1
・  ・   
 73
     1
 44
1.0
1001
ACAD
1000
MTEXTBEGIN
1070
    73
1070
     1
1070
    44
1040
1.0
1070
    74
1070
     0
1000
MTEXTEND
  0
MTEXT
  5
616
330
5E9
100
AcDbEntity
  8
RAHM2
100
AcDbMText
 10
-119.4582894723942
 20
47.50000000000002
 30
0.0
 40
2.5
 41
20.0
 71
     5
 72
     5
  1
・  ・   
 73
     1
 44
1.0
1001
ACAD
1000
MTEXTBEGIN
1070
    73
1070
     1
1070
    44
1040
1.0
1070
    74
1070
     0
1000
MTEXTEND
  0
MTEXT
  5
617
330
5E9
100
AcDbEntity
  8
RAHM2
100
AcDbMText
 10
-92.80025513713145
 20
16.30103540727964
 30
0.0
 40
2.5
 41
60.0
 71
     1
 72
     5
  1
日付
 73
     1
 44
1.0
1001
ACAD
1000
MTEXTBEGIN
1070
    73
1070
     1
1070
    44
1040
1.0
1070
    74
1070
     0
1000
MTEXTEND
  0
MTEXT
  5
618
330
5E9
100
AcDbEntity
  8
RAHM2
100
AcDbMText
 10
-92.80025513713145
 20
26.30103540727964
 30
0.0
 40
2.5
 41
60.0
 71
     1
 72
     5
  1
表面処理
 73
     1
 44
1.0
1001
ACAD
1000
MTEXTBEGIN
1070
    73
1070
     1
1070
    44
1040
1.0
1070
    74
1070
     0
1000
MTEXTEND
  0
LINE
  5
619
330
5E9
100
AcDbEntity
  8
7A
100
AcDbLine
 10
-89.0
 20
43.75
 30
0.0
 11
-75.2186915997147
 21
43.75
 31
0.0
1001
GENIUS_GENOREF_13
1005
62C
  0
LINE
  5
61A
330
5E9
100
AcDbEntity
  8
0
100
AcDbLine
 10
-84.0
 20
45.75
 30
0.0
 11
-76.0
 21
46.74999999999999
 31
0.0
  0
LINE
  5
61B
330
5E9
100
AcDbEntity
  8
0
100
AcDbLine
 10
-76.0
 20
40.75
 30
0.0
 11
-84.0
 21
41.74999999999999
 31
0.0
  0
LINE
  5
61C
330
5E9
100
AcDbEntity
  8
7A
100
AcDbLine
 10
-89.0
 20
43.75
 30
0.0
 11
-89.0
 21
47.32478664473148
 31
0.0
1001
GENIUS_GENOREF_13
1005
62C
  0
CIRCLE
  5
61D
330
5E9
100
AcDbEntity
  8
0
100
AcDbCircle
 10
-89.0
 20
43.75
 30
0.0
 40
2.0
  0
CIRCLE
  5
61E
330
5E9
100
AcDbEntity
  8
0
100
AcDbCircle
 10
-89.0
 20
43.75
 30
0.0
 40
3.0
  0
LINE
  5
61F
330
5E9
100
AcDbEntity
  8
0
100
AcDbLine
 10
-84.0
 20
41.74999999999999
 30
0.0
 11
-84.0
 21
45.75
 31
0.0
  0
MTEXT
  5
620
330
5E9
100
AcDbEntity
  8
RAHM2
100
AcDbMText
 10
-92.80025513713145
 20
36.30103540727964
 30
0.0
 40
2.5
 41
60.0
 71
     1
 72
     5
  1
材質
 73
     1
 44
1.0
1001
ACAD
1000
MTEXTBEGIN
1070
    73
1070
     1
1070
    44
1040
1.0
1070
    74
1070
     0
1000
MTEXTEND
  0
LINE
  5
621
330
5E9
100
AcDbEntity
  8
7A
100
AcDbLine
 10
-89.0
 20
43.75
 30
0.0
 11
-92.72303737125117
 21
43.75
 31
0.0
1001
GENIUS_GENOREF_13
1005
62C
  0
LINE
  5
622
330
5E9
100
AcDbEntity
  8
7A
100
AcDbLine
 10
-89.0
 20
43.75
 30
0.0
 11
-89.0
 21
40.03991724228479
 31
0.0
1001
GENIUS_GENOREF_13
1005
62C
  0
LINE
  5
623
330
5E9
100
AcDbEntity
  8
0
100
AcDbLine
 10
-76.0
 20
46.74999999999999
 30
0.0
 11
-76.0
 21
40.75
 31
0.0
  0
LINE
  5
624
330
5E9
100
AcDbEntity
  8
0
100
AcDbLine
 10
-74.0
 20
50.0
 30
0.0
 11
-74.0
 21
37.5
 31
0.0
  0
MTEXT
  5
625
330
5E9
100
AcDbEntity
  8
RAHM2
100
AcDbMText
 10
-72.80025513713145
 20
48.80103540727964
 30
0.0
 40
2.5
 41
20.0
 71
     1
 72
     5
  1
尺度
 73
     1
 44
1.0
1001
ACAD
1000
MTEXTBEGIN
1070
    73
1070
     1
1070
    44
1040
1.0
1070
    74
1070
     0
1000
MTEXTEND
  0
ATTDEF
  5
626
330
5E9
100
AcDbEntity
  8
0
100
AcDbText
 10
-37.76317379391503
 20
39.25500556178349
 30
0.0
 40
3.0
  1

 72
     2
 11
-37.76317379391503
 21
39.25500556178349
 31
0.0
100
AcDbAttributeDefinition
  3
数量
  2
GEN-TITLE-QTY
 70
     0
  0
LINE
  5
627
330
5E9
100
AcDbEntity
  8
0
100
AcDbLine
 10
-34.0
 20
25.0
 30
0.0
 11
0.0
 21
25.0
 31
0.0
  0
LINE
  5
628
330
5E9
100
AcDbEntity
  8
0
100
AcDbLine
 10
-54.0
 20
50.0
 30
0.0
 11
-54.0
 21
37.5
 31
0.0
  0
MTEXT
  5
629
330
5E9
100
AcDbEntity
  8
RAHM2
100
AcDbMText
 10
-52.80025513713145
 20
48.80103540727964
 30
0.0
 40
2.5
 41
20.0
 71
     1
 72
     5
  1
数量
 73
     1
 44
1.0
1001
ACAD
1000
MTEXTBEGIN
1070
    73
1070
     1
1070
    44
1040
1.0
1070
    74
1070
     0
1000
MTEXTEND
  0
MTEXT
  5
62A
330
5E9
100
AcDbEntity
  8
RAHM2
100
AcDbMText
 10
-25.5
 20
23.80103540727964
 30
0.0
 40
2.5
 41
17.0
 71
     2
 72
     5
  1
承認
 73
     1
 44
1.0
1001
ACAD
1000
MTEXTBEGIN
1070
    73
1070
     1
1070
    44
1040
1.0
1070
    74
1070
     0
1000
MTEXTEND
  0
MTEXT
  5
62B
330
5E9
100
AcDbEntity
  8
RAHM2
100
AcDbMText
 10
-25.5
 20
48.80103540727964
 30
0.0
 40
2.5
 41
17.0
 71
     2
 72
     5
  1
承認
 73
     1
 44
1.0
1001
ACAD
1000
MTEXTBEGIN
1070
    73
1070
     1
1070
    44
1040
1.0
1070
    74
1070
     0
1000
MTEXTEND
  0
POINT
  5
62C
330
5E9
100
AcDbEntity
  8
0
 60
     1
100
AcDbPoint
 10
-320.5355579819676
 20
-138.1104841268254
 30
0.0
1001
GENIUS_GENODEF_13
1002
{
1000
HIER
1070
    10
1002
}
1002
{
1000
MANEDIT
1070
     0
1002
}
1002
{
1000
NOSEL
1070
     0
1002
}
1002
{
1000
BEHIND
1070
     0
1002
}
1002
{
1000
REACTOR
1002
}
1001
GENIUS_GENOBJ-N-CRS_13
1002
{
1000
OWNER
1000
GEN
1002
}
1001
GENIUS_GENOENT_13
1002
{
1000
MYREF
1005
62C
1002
}
1002
{
1000
GRP
1005
0
1002
}
1001
GENIUS_GENOLIS_13
1002
{
1000
ENT
1005
622
1005
621
1005
61C
1005
619
1002
}
  0
LINE
  5
62D
330
5E9
100
AcDbEntity
  8
RAHM2
100
AcDbLine
 10
-190.0
 20
29.60000000000002
 30
0.0
 11
-192.4248711305964
 21
25.40000000000004
 31
0.0
  0
LINE
  5
62E
330
5E9
100
AcDbEntity
  8
RAHM2
100
AcDbLine
 10
-187.5751288694036
 20
25.40000000000004
 30
0.0
 11
-190.0
 21
29.60000000000002
 31
0.0
  0
LINE
  5
62F
330
5E9
100
AcDbEntity
  8
RAHM2
100
AcDbLine
 10
-192.4248711305964
 20
25.40000000000004
 30
0.0
 11
-187.5751288694036
 21
25.40000000000004
 31
0.0
  0
LINE
  5
630
330
5E9
100
AcDbEntity
  8
RAHM2
100
AcDbLine
 10
-195.0
 20
25.00000000000003
 30
0.0
 11
-94.0
 21
25.00000000000003
 31
0.0
  0
MTEXT
  5
631
330
5E9
100
AcDbEntity
  8
RAHM2
100
AcDbMText
 10
-119.4582894723942
 20
27.50000000000003
 30
0.0
 40
2.5
 41
20.0
 71
     5
 72
     5
  1
・  ・   
 73
     1
 44
1.0
1001
ACAD
1000
MTEXTBEGIN
1070
    73
1070
     1
1070
    44
1040
1.0
1070
    74
1070
     0
1000
MTEXTEND
  0
TEXT
  5
632
330
5E9
100
AcDbEntity
  8
RAHM2
100
AcDbText
 10
-190.8155863565801
 20
25.98333333333337
 30
0.0
 40
2.5
  1
1
 72
     1
 11
-190.1905863565802
 21
25.65000000000003
 31
0.0
100
AcDbText
 73
     1
  0
TEXT
  5
633
330
5E9
100
AcDbEntity
  8
RAHM2
100
AcDbText
 10
-190.9183316929134
 20
30.98333333333337
 30
0.0
 40
2.5
  1
2
 72
     1
 11
-190.0
 21
30.65000000000003
 31
0.0
100
AcDbText
 73
     1
  0
TEXT
  5
634
330
5E9
100
AcDbEntity
  8
RAHM2
100
AcDbText
 10
-190.9267766952966
 20
35.98333333333334
 30
0.0
 40
2.5
  1
3
 72
     1
 11
-190.0
 21
35.65000000000001
 31
0.0
100
AcDbText
 73
     1
  0
TEXT
  5
635
330
5E9
100
AcDbEntity
  8
RAHM2
100
AcDbText
 10
-191.0
 20
40.98333333333337
 30
0.0
 40
2.5
  1
4
 72
     1
 11
-190.0
 21
40.65000000000003
 31
0.0
100
AcDbText
 73
     1
  0
TEXT
  5
636
330
5E9
100
AcDbEntity
  8
RAHM2
100
AcDbText
 10
-190.9267766952966
 20
45.98333333333337
 30
0.0
 40
2.5
  1
5
 72
     1
 11
-190.0
 21
45.65000000000003
 31
0.0
100
AcDbText
 73
     1
  0
LINE
  5
637
330
5E9
100
AcDbEntity
  8
0
100
AcDbLine
 10
-17.0
 20
50.0
 30
0.0
 11
-17.0
 21
0.0
 31
0.0
  0
LINE
  5
638
330
5E9
100
AcDbEntity
  8
0
100
AcDbLine
 10
-195.0
 20
0.0
 30
0.0
 11
0.0
 21
0.0
 31
0.0
1001
GENIUS_GENREC_14
1002
{
1000
PYDIR
1011
-184.0
1021
50.0
1031
0.0
1002
}
1002
{
1000
PXDIR
1011
0.0
1021
0.0
1031
0.0
1002
}
1002
{
1000
PORI
1011
-184.0
1021
0.0
1031
0.0
1002
}
1002
{
1000
PINS
1011
-100.5
1021
25.0
1031
0.0
1002
}
1002
{
1000
HVAL
1000
50
1002
}
1002
{
1000
H
1070
     2
1002
}
1002
{
1000
WVAL
1000
167
1002
}
1002
{
1000
W
1070
     2
1002
}
1002
{
1000
C
1070
     4
1002
}
1001
GENIUS_GENODEF_13
1002
{
1000
HIER
1070
     0
1002
}
1002
{
1000
MANEDIT
1070
     0
1002
}
1002
{
1000
NOSEL
1070
     0
1002
}
1002
{
1000
BEHIND
1070
     0
1002
}
1002
{
1000
REACTOR
1002
}
1001
GENIUS_GENOBJ-N-REC_13
1002
{
1000
OWNER
1000
GEN
1002
}
  0
LINE
  5
639
330
5E9
100
AcDbEntity
  8
0
100
AcDbLine
 10
0.0
 20
0.0
 30
0.0
 11
0.0
 21
50.0
 31
0.0
1001
GENIUS_GENREC_14
1002
{
1000
PYDIR
1011
-184.0
1021
50.0
1031
0.0
1002
}
1002
{
1000
PXDIR
1011
0.0
1021
0.0
1031
0.0
1002
}
1002
{
1000
PORI
1011
-184.0
1021
0.0
1031
0.0
1002
}
1002
{
1000
PINS
1011
-100.5
1021
25.0
1031
0.0
1002
}
1002
{
1000
HVAL
1000
50
1002
}
1002
{
1000
H
1070
     2
1002
}
1002
{
1000
WVAL
1000
167
1002
}
1002
{
1000
W
1070
     2
1002
}
1002
{
1000
C
1070
     4
1002
}
1001
GENIUS_GENODEF_13
1002
{
1000
HIER
1070
     0
1002
}
1002
{
1000
MANEDIT
1070
     0
1002
}
1002
{
1000
NOSEL
1070
     0
1002
}
1002
{
1000
BEHIND
1070
     0
1002
}
1002
{
1000
REACTOR
1002
}
1001
GENIUS_GENOBJ-N-REC_13
1002
{
1000
OWNER
1000
GEN
1002
}
  0
LINE
  5
63A
330
5E9
100
AcDbEntity
  8
0
100
AcDbLine
 10
0.0
 20
50.0
 30
0.0
 11
-195.0
 21
50.00000000000003
 31
0.0
1001
GENIUS_GENREC_14
1002
{
1000
PYDIR
1011
-184.0
1021
50.0
1031
0.0
1002
}
1002
{
1000
PXDIR
1011
0.0
1021
0.0
1031
0.0
1002
}
1002
{
1000
PORI
1011
-184.0
1021
0.0
1031
0.0
1002
}
1002
{
1000
PINS
1011
-100.5
1021
25.0
1031
0.0
1002
}
1002
{
1000
HVAL
1000
50
1002
}
1002
{
1000
H
1070
     2
1002
}
1002
{
1000
WVAL
1000
167
1002
}
1002
{
1000
W
1070
     2
1002
}
1002
{
1000
C
1070
     4
1002
}
1001
GENIUS_GENODEF_13
1002
{
1000
HIER
1070
     0
1002
}
1002
{
1000
MANEDIT
1070
     0
1002
}
1002
{
1000
NOSEL
1070
     0
1002
}
1002
{
1000
BEHIND
1070
     0
1002
}
1002
{
1000
REACTOR
1002
}
1001
GENIUS_GENOBJ-N-REC_13
1002
{
1000
OWNER
1000
GEN
1002
}
  0
LINE
  5
63B
330
5E9
100
AcDbEntity
  8
0
100
AcDbLine
 10
-195.0
 20
50.00000000000003
 30
0.0
 11
-195.0
 21
0.0
 31
0.0
1001
GENIUS_GENREC_14
1002
{
1000
PYDIR
1011
-195.0
1021
50.0
1031
0.0
1002
}
1002
{
1000
PXDIR
1011
-11.0
1021
0.0
1031
0.0
1002
}
1002
{
1000
PORI
1011
-195.0
1021
0.0
1031
0.0
1002
}
1002
{
1000
PINS
1011
-111.5
1021
25.0
1031
0.0
1002
}
1002
{
1000
HVAL
1000
50
1002
}
1002
{
1000
H
1070
     2
1002
}
1002
{
1000
WVAL
1000
167
1002
}
1002
{
1000
W
1070
     2
1002
}
1002
{
1000
C
1070
     4
1002
}
1001
GENIUS_GENODEF_13
1002
{
1000
HIER
1070
     0
1002
}
1002
{
1000
MANEDIT
1070
     0
1002
}
1002
{
1000
NOSEL
1070
     0
1002
}
1002
{
1000
BEHIND
1070
     0
1002
}
1002
{
1000
REACTOR
1002
}
1001
GENIUS_GENOBJ-N-REC_13
1002
{
1000
OWNER
1000
GEN
1002
}
  0
MTEXT
  5
63C
330
5E9
100
AcDbEntity
  8
RAHM2
100
AcDbMText
 10
-8.5
 20
48.80103540727964
 30
0.0
 40
2.5
 41
17.0
 71
     2
 72
     5
  1
検図
 73
     1
 44
1.0
1001
ACAD
1000
MTEXTBEGIN
1070
    73
1070
     1
1070
    44
1040
1.0
1070
    74
1070
     0
1000
MTEXTEND
  0
MTEXT
  5
63D
330
5E9
100
AcDbEntity
  8
RAHM2
100
AcDbMText
 10
-8.5
 20
23.80103540727964
 30
0.0
 40
2.5
 41
17.0
 71
     2
 72
     5
  1
製図
 73
     1
 44
1.0
1001
ACAD
1000
MTEXTBEGIN
1070
    73
1070
     1
1070
    44
1040
1.0
1070
    74
1070
     0
1000
MTEXTEND
  0
ENDBLK
  5
640
330
5E9
100
AcDbEntity
  8
0
100
AcDbBlockEnd
  0
BLOCK
  5
879
330
7E7
100
AcDbEntity
  8
0
100
AcDbBlockBegin
  2
*D9
 70
     1
 10
0.0
 20
0.0
 30
0.0
  3
*D9
  1

  0
LINE
  5
F1C
330
7E7
100
AcDbEntity
  8
AM_5
100
AcDbLine
 10
49.07543118358383
 20
114.1790870042926
 30
0.0
 11
49.07543118358383
 21
102.1790870042926
 31
0.0
  0
LINE
  5
F1D
330
7E7
100
AcDbEntity
  8
AM_5
100
AcDbLine
 10
88.37543118358388
 20
114.1790870042926
 30
0.0
 11
88.37543118358388
 21
102.1790870042926
 31
0.0
  0
LINE
  5
F1E
330
7E7
100
AcDbEntity
  8
AM_5
100
AcDbLine
 10
51.57543118358383
 20
103.1790870042926
 30
0.0
 11
85.87543118358388
 21
103.1790870042926
 31
0.0
  0
INSERT
  5
F1F
330
7E7
100
AcDbEntity
  8
AM_5
100
AcDbBlockReference
  2
_Open30
 10
49.07543118358383
 20
103.1790870042926
 30
0.0
 41
2.5
 42
2.5
 43
2.5
 50
180.0
  0
INSERT
  5
F20
330
7E7
100
AcDbEntity
  8
AM_5
100
AcDbBlockReference
  2
_Open30
 10
88.37543118358388
 20
103.1790870042926
 30
0.0
 41
2.5
 42
2.5
 43
2.5
  0
MTEXT
  5
F21
330
7E7
100
AcDbEntity
  8
AM_5
 62
     2
100
AcDbMText
 10
68.72543118358385
 20
106.4290870042926
 30
0.0
 40
3.5
 41
0.0
 71
     5
 72
     1
  1
39.3
 73
     1
 44
1.0
1001
ACAD
1000
MTEXTBEGIN
1070
    73
1070
     1
1070
    44
1040
1.0
1070
    74
1070
     0
1000
MTEXTEND
  0
POINT
  5
F22
330
7E7
100
AcDbEntity
  8
Defpoints
 62
     0
100
AcDbPoint
 10
49.07543118358383
 20
115.1790870042926
 30
0.0
  0
POINT
  5
F23
330
7E7
100
AcDbEntity
  8
Defpoints
 62
     0
100
AcDbPoint
 10
88.37543118358388
 20
115.1790870042926
 30
0.0
  0
POINT
  5
F24
330
7E7
100
AcDbEntity
  8
Defpoints
 62
     0
100
AcDbPoint
 10
88.37543118358388
 20
103.1790870042926
 30
0.0
  0
ENDBLK
  5
87A
330
7E7
100
AcDbEntity
  8
0
100
AcDbBlockEnd
  0
BLOCK
  5
87B
330
7F1
100
AcDbEntity
  8
0
100
AcDbBlockBegin
  2
*D10
 70
     1
 10
0.0
 20
0.0
 30
0.0
  3
*D10
  1

  0
LINE
  5
E86
330
7F1
100
AcDbEntity
  8
AM_5
100
AcDbLine
 10
124.6834248755436
 20
128.5790870042926
 30
0.0
 11
136.6834258755436
 21
128.5790870042926
 31
0.0
  0
LINE
  5
E87
330
7F1
100
AcDbEntity
  8
AM_5
100
AcDbLine
 10
124.6834248755436
 20
115.1790870042926
 30
0.0
 11
136.6834258755436
 21
115.1790870042926
 31
0.0
  0
LINE
  5
E88
330
7F1
100
AcDbEntity
  8
AM_5
100
AcDbLine
 10
135.6834258755436
 20
126.0790870042926
 30
0.0
 11
135.6834258755436
 21
117.6790870042926
 31
0.0
  0
INSERT
  5
E89
330
7F1
100
AcDbEntity
  8
AM_5
100
AcDbBlockReference
  2
_Open30
 10
135.6834258755436
 20
128.5790870042926
 30
0.0
 41
2.5
 42
2.5
 43
2.5
 50
90.0
  0
INSERT
  5
E8A
330
7F1
100
AcDbEntity
  8
AM_5
100
AcDbBlockReference
  2
_Open30
 10
135.6834258755436
 20
115.1790870042926
 30
0.0
 41
2.5
 42
2.5
 43
2.5
 50
270.0
  0
MTEXT
  5
E8B
330
7F1
100
AcDbEntity
  8
AM_5
 62
     2
100
AcDbMText
 10
132.4334258755436
 20
121.8790870042926
 30
0.0
 40
3.5
 41
0.0
 71
     5
 72
     1
  1
13.4
 11
0.0000000000000001
 21
1.0
 31
0.0
 73
     1
 44
1.0
1001
ACAD
1000
MTEXTBEGIN
1070
    73
1070
     1
1070
    44
1040
1.0
1070
    74
1070
     0
1000
MTEXTEND
  0
POINT
  5
E8C
330
7F1
100
AcDbEntity
  8
Defpoints
 62
     0
100
AcDbPoint
 10
123.6834248755436
 20
128.5790870042926
 30
0.0
  0
POINT
  5
E8D
330
7F1
100
AcDbEntity
  8
Defpoints
 62
     0
100
AcDbPoint
 10
123.6834248755436
 20
115.1790870042926
 30
0.0
  0
POINT
  5
E8E
330
7F1
100
AcDbEntity
  8
Defpoints
 62
     0
100
AcDbPoint
 10
135.6834258755436
 20
115.1790870042926
 30
0.0
  0
ENDBLK
  5
87C
330
7F1
100
AcDbEntity
  8
0
100
AcDbBlockEnd
  0
BLOCK
  5
87D
330
7FB
100
AcDbEntity
  8
0
100
AcDbBlockBegin
  2
*D11
 70
     1
 10
0.0
 20
0.0
 30
0.0
  3
*D11
  1

  0
LINE
  5
ED8
330
7FB
100
AcDbEntity
  8
AM_5
100
AcDbLine
 10
49.07543118358383
 20
178.3570784034429
 30
0.0
 11
49.07543118358383
 21
159.821225106084
 31
0.0
  0
LINE
  5
ED9
330
7FB
100
AcDbEntity
  8
AM_5
100
AcDbLine
 10
88.37543118358388
 20
178.3570784034428
 30
0.0
 11
88.37543118358388
 21
159.821225106084
 31
0.0
  0
LINE
  5
EDA
330
7FB
100
AcDbEntity
  8
AM_5
100
AcDbLine
 10
51.57543118358383
 20
160.821225106084
 30
0.0
 11
85.87543118358388
 21
160.821225106084
 31
0.0
  0
INSERT
  5
EDB
330
7FB
100
AcDbEntity
  8
AM_5
100
AcDbBlockReference
  2
_Open30
 10
49.07543118358383
 20
160.821225106084
 30
0.0
 41
2.5
 42
2.5
 43
2.5
 50
180.0
  0
INSERT
  5
EDC
330
7FB
100
AcDbEntity
  8
AM_5
100
AcDbBlockReference
  2
_Open30
 10
88.37543118358388
 20
160.821225106084
 30
0.0
 41
2.5
 42
2.5
 43
2.5
  0
MTEXT
  5
EDD
330
7FB
100
AcDbEntity
  8
AM_5
 62
     2
100
AcDbMText
 10
68.72543118358385
 20
164.071225106084
 30
0.0
 40
3.5
 41
0.0
 71
     5
 72
     1
  1
39.3
 73
     1
 44
1.0
1001
ACAD
1000
MTEXTBEGIN
1070
    73
1070
     1
1070
    44
1040
1.0
1070
    74
1070
     0
1000
MTEXTEND
  0
POINT
  5
EDE
330
7FB
100
AcDbEntity
  8
Defpoints
 62
     0
100
AcDbPoint
 10
49.07543118358383
 20
179.3570784034429
 30
0.0
  0
POINT
  5
EDF
330
7FB
100
AcDbEntity
  8
Defpoints
 62
     0
100
AcDbPoint
 10
88.37543118358388
 20
179.3570784034428
 30
0.0
  0
POINT
  5
EE0
330
7FB
100
AcDbEntity
  8
Defpoints
 62
     0
100
AcDbPoint
 10
88.37543118358388
 20
160.821225106084
 30
0.0
  0
ENDBLK
  5
87E
330
7FB
100
AcDbEntity
  8
0
100
AcDbBlockEnd
  0
BLOCK
  5
883
330
81B
100
AcDbEntity
  8
0
100
AcDbBlockBegin
  2
*D12
 70
     1
 10
0.0
 20
0.0
 30
0.0
  3
*D12
  1

  0
LINE
  5
DBF
330
81B
100
AcDbEntity
  8
AM_5
100
AcDbLine
 10
48.07543118358383
 20
194.3570784034428
 30
0.0
 11
41.75366101805098
 21
194.3570784034428
 31
0.0
  0
LINE
  5
DC0
330
81B
100
AcDbEntity
  8
AM_5
100
AcDbLine
 10
48.07543118358383
 20
179.3570784034429
 30
0.0
 11
41.75366101805098
 21
179.3570784034429
 31
0.0
  0
LINE
  5
DC1
330
81B
100
AcDbEntity
  8
AM_5
100
AcDbLine
 10
42.75366101805097
 20
191.8570784034428
 30
0.0
 11
42.75366101805097
 21
181.8570784034428
 31
0.0
  0
INSERT
  5
DC2
330
81B
100
AcDbEntity
  8
AM_5
100
AcDbBlockReference
  2
_Open30
 10
42.75366101805097
 20
194.3570784034428
 30
0.0
 41
2.5
 42
2.5
 43
2.5
 50
90.0
  0
INSERT
  5
DC3
330
81B
100
AcDbEntity
  8
AM_5
100
AcDbBlockReference
  2
_Open30
 10
42.75366101805097
 20
179.3570784034429
 30
0.0
 41
2.5
 42
2.5
 43
2.5
 50
270.0
  0
MTEXT
  5
DC4
330
81B
100
AcDbEntity
  8
AM_5
 62
     2
100
AcDbMText
 10
39.50366101805095
 20
187.7310858112854
 30
0.0
 40
3.5
 41
0.0
 71
     5
 72
     1
  1
15
 11
0.0000000000000001
 21
1.0
 31
0.0
 73
     1
 44
1.0
1001
ACAD
1000
MTEXTBEGIN
1070
    73
1070
     1
1070
    44
1040
1.0
1070
    74
1070
     0
1000
MTEXTEND
  0
POINT
  5
DC5
330
81B
100
AcDbEntity
  8
Defpoints
 62
     0
100
AcDbPoint
 10
49.07543118358383
 20
194.3570784034428
 30
0.0
  0
POINT
  5
DC6
330
81B
100
AcDbEntity
  8
Defpoints
 62
     0
100
AcDbPoint
 10
49.07543118358383
 20
179.3570784034429
 30
0.0
  0
POINT
  5
DC7
330
81B
100
AcDbEntity
  8
Defpoints
 62
     0
100
AcDbPoint
 10
42.75366101805097
 20
179.3570784034429
 30
0.0
  0
ENDBLK
  5
884
330
81B
100
AcDbEntity
  8
0
100
AcDbBlockEnd
  0
BLOCK
  5
885
330
825
100
AcDbEntity
  8
0
100
AcDbBlockBegin
  2
*D13
 70
     1
 10
0.0
 20
0.0
 30
0.0
  3
*D13
  1

  0
LINE
  5
D35
330
825
100
AcDbEntity
  8
AM_5
100
AcDbLine
 10
86.50543118358388
 20
230.9454683191202
 30
0.0
 11
86.50543118358388
 21
242.9454683191202
 31
0.0
  0
LINE
  5
D36
330
825
100
AcDbEntity
  8
AM_5
100
AcDbLine
 10
88.37543118358382
 20
228.6454683191201
 30
0.0
 11
88.37543118358382
 21
242.9454683191202
 31
0.0
  0
LINE
  5
D37
330
825
100
AcDbEntity
  8
AM_5
100
AcDbLine
 10
84.00543118358388
 20
241.9454683191202
 30
0.0
 11
81.50543118358388
 21
241.9454683191202
 31
0.0
  0
LINE
  5
D38
330
825
100
AcDbEntity
  8
AM_5
100
AcDbLine
 10
90.87543118358382
 20
241.9454683191202
 30
0.0
 11
103.0254311835838
 21
241.9454683191202
 31
0.0
  0
LINE
  5
D39
330
825
100
AcDbEntity
  8
AM_5
100
AcDbLine
 10
86.50543118358388
 20
241.9454683191202
 30
0.0
 11
88.37543118358382
 21
241.9454683191202
 31
0.0
  0
INSERT
  5
D3A
330
825
100
AcDbEntity
  8
AM_5
100
AcDbBlockReference
  2
_Open30
 10
86.50543118358388
 20
241.9454683191202
 30
0.0
 41
2.5
 42
2.5
 43
2.5
  0
INSERT
  5
D3B
330
825
100
AcDbEntity
  8
AM_5
100
AcDbBlockReference
  2
_Open30
 10
88.37543118358382
 20
241.9454683191202
 30
0.0
 41
2.5
 42
2.5
 43
2.5
 50
180.0
  0
MTEXT
  5
D3C
330
825
100
AcDbEntity
  8
AM_5
 62
     2
100
AcDbMText
 10
98.20043118358384
 20
245.1954683191202
 30
0.0
 40
3.5
 41
0.0
 71
     5
 72
     1
  1
1.87
 73
     1
 44
1.0
1001
ACAD
1000
MTEXTBEGIN
1070
    73
1070
     1
1070
    44
1040
1.0
1070
    74
1070
     0
1000
MTEXTEND
  0
POINT
  5
D3D
330
825
100
AcDbEntity
  8
Defpoints
 62
     0
100
AcDbPoint
 10
86.50543118358388
 20
229.9454683191202
 30
0.0
  0
POINT
  5
D3E
330
825
100
AcDbEntity
  8
Defpoints
 62
     0
100
AcDbPoint
 10
88.37543118358382
 20
227.6454683191202
 30
0.0
  0
POINT
  5
D3F
330
825
100
AcDbEntity
  8
Defpoints
 62
     0
100
AcDbPoint
 10
88.37543118358382
 20
241.9454683191202
 30
0.0
  0
ENDBLK
  5
886
330
825
100
AcDbEntity
  8
0
100
AcDbBlockEnd
  0
BLOCK
  5
887
330
83B
100
AcDbEntity
  8
0
100
AcDbBlockBegin
  2
*D14
 70
     1
 10
0.0
 20
0.0
 30
0.0
  3
*D14
  1

  0
LINE
  5
E8F
330
83B
100
AcDbEntity
  8
AM_5
100
AcDbLine
 10
122.1834248755437
 20
194.3570784034428
 30
0.0
 11
122.1834248755437
 21
204.192567522467
 31
0.0
  0
LINE
  5
E90
330
83B
100
AcDbEntity
  8
AM_5
100
AcDbLine
 10
123.6834248755436
 20
194.3570784034428
 30
0.0
 11
123.6834248755436
 21
204.192567522467
 31
0.0
  0
LINE
  5
E91
330
83B
100
AcDbEntity
  8
AM_5
100
AcDbLine
 10
119.6834248755436
 20
203.192567522467
 30
0.0
 11
117.1834248755436
 21
203.192567522467
 31
0.0
  0
LINE
  5
E92
330
83B
100
AcDbEntity
  8
AM_5
100
AcDbLine
 10
126.1834248755436
 20
203.192567522467
 30
0.0
 11
136.0283996223742
 21
203.192567522467
 31
0.0
  0
LINE
  5
E93
330
83B
100
AcDbEntity
  8
AM_5
100
AcDbLine
 10
122.1834248755437
 20
203.192567522467
 30
0.0
 11
123.6834248755436
 21
203.192567522467
 31
0.0
  0
INSERT
  5
E94
330
83B
100
AcDbEntity
  8
AM_5
100
AcDbBlockReference
  2
_Open30
 10
122.1834248755437
 20
203.192567522467
 30
0.0
 41
2.5
 42
2.5
 43
2.5
  0
INSERT
  5
E95
330
83B
100
AcDbEntity
  8
AM_5
100
AcDbBlockReference
  2
_Open30
 10
123.6834248755436
 20
203.192567522467
 30
0.0
 41
2.5
 42
2.5
 43
2.5
 50
180.0
  0
MTEXT
  5
E96
330
83B
100
AcDbEntity
  8
AM_5
 62
     2
100
AcDbMText
 10
132.3559122489589
 20
206.442567522467
 30
0.0
 40
3.5
 41
0.0
 71
     5
 72
     1
  1
1.5
 73
     1
 44
1.0
1001
ACAD
1000
MTEXTBEGIN
1070
    73
1070
     1
1070
    44
1040
1.0
1070
    74
1070
     0
1000
MTEXTEND
  0
POINT
  5
E97
330
83B
100
AcDbEntity
  8
Defpoints
 62
     0
100
AcDbPoint
 10
122.1834248755437
 20
193.3570784034428
 30
0.0
  0
POINT
  5
E98
330
83B
100
AcDbEntity
  8
Defpoints
 62
     0
100
AcDbPoint
 10
123.6834248755436
 20
193.3570784034428
 30
0.0
  0
POINT
  5
E99
330
83B
100
AcDbEntity
  8
Defpoints
 62
     0
100
AcDbPoint
 10
123.6834248755436
 20
203.192567522467
 30
0.0
  0
ENDBLK
  5
888
330
83B
100
AcDbEntity
  8
0
100
AcDbBlockEnd
  0
BLOCK
  5
889
330
847
100
AcDbEntity
  8
0
100
AcDbBlockBegin
  2
*D15
 70
     1
 10
0.0
 20
0.0
 30
0.0
  3
*D15
  1

  0
LINE
  5
E70
330
847
100
AcDbEntity
  8
AM_5
100
AcDbLine
 10
81.42543118358389
 20
187.8570784034428
 30
0.0
 11
81.42543118358389
 21
204.0461661041213
 31
0.0
  0
LINE
  5
E71
330
847
100
AcDbEntity
  8
AM_5
100
AcDbLine
 10
88.37543118358389
 20
195.3570784034428
 30
0.0
 11
88.37543118358389
 21
204.0461661041213
 31
0.0
  0
LINE
  5
E72
330
847
100
AcDbEntity
  8
AM_5
100
AcDbLine
 10
78.92543118358389
 20
203.0461661041213
 30
0.0
 11
76.42543118358389
 21
203.0461661041213
 31
0.0
  0
LINE
  5
E73
330
847
100
AcDbEntity
  8
AM_5
100
AcDbLine
 10
90.87543118358389
 20
203.0461661041213
 30
0.0
 11
104.0920849060421
 21
203.0461661041213
 31
0.0
  0
LINE
  5
E74
330
847
100
AcDbEntity
  8
AM_5
100
AcDbLine
 10
81.42543118358389
 20
203.0461661041213
 30
0.0
 11
88.37543118358389
 21
203.0461661041213
 31
0.0
  0
INSERT
  5
E75
330
847
100
AcDbEntity
  8
AM_5
100
AcDbBlockReference
  2
_Open30
 10
81.42543118358389
 20
203.0461661041213
 30
0.0
 41
2.5
 42
2.5
 43
2.5
  0
INSERT
  5
E76
330
847
100
AcDbEntity
  8
AM_5
100
AcDbBlockReference
  2
_Open30
 10
88.37543118358389
 20
203.0461661041213
 30
0.0
 41
2.5
 42
2.5
 43
2.5
 50
180.0
  0
MTEXT
  5
E77
330
847
100
AcDbEntity
  8
AM_5
 62
     2
100
AcDbMText
 10
98.73375804481298
 20
206.2961661041213
 30
0.0
 40
3.5
 41
0.0
 71
     5
 72
     1
  1
6.95
 73
     1
 44
1.0
1001
ACAD
1000
MTEXTBEGIN
1070
    73
1070
     1
1070
    44
1040
1.0
1070
    74
1070
     0
1000
MTEXTEND
  0
POINT
  5
E78
330
847
100
AcDbEntity
  8
Defpoints
 62
     0
100
AcDbPoint
 10
81.42543118358389
 20
186.8570784034428
 30
0.0
  0
POINT
  5
E79
330
847
100
AcDbEntity
  8
Defpoints
 62
     0
100
AcDbPoint
 10
88.37543118358389
 20
194.3570784034428
 30
0.0
  0
POINT
  5
E7A
330
847
100
AcDbEntity
  8
Defpoints
 62
     0
100
AcDbPoint
 10
88.37543118358389
 20
203.0461661041213
 30
0.0
  0
ENDBLK
  5
88A
330
847
100
AcDbEntity
  8
0
100
AcDbBlockEnd
  0
BLOCK
  5
88D
330
85F
100
AcDbEntity
  8
0
100
AcDbBlockBegin
  2
*D16
 70
     1
 10
0.0
 20
0.0
 30
0.0
  3
*D16
  1

  0
LINE
  5
E9A
330
85F
100
AcDbEntity
  8
AM_5
100
AcDbLine
 10
138.7834248755437
 20
188.0070784034428
 30
0.0
 11
148.4872884738617
 21
188.0070784034428
 31
0.0
  0
LINE
  5
E9B
330
85F
100
AcDbEntity
  8
AM_5
100
AcDbLine
 10
138.7834248755437
 20
185.7070784034428
 30
0.0
 11
148.4872884738617
 21
185.7070784034428
 31
0.0
  0
LINE
  5
E9C
330
85F
100
AcDbEntity
  8
AM_5
100
AcDbLine
 10
147.4872884738617
 20
183.2070784034428
 30
0.0
 11
147.4872884738617
 21
180.7070784034428
 31
0.0
  0
LINE
  5
E9D
330
85F
100
AcDbEntity
  8
AM_5
100
AcDbLine
 10
147.4872884738617
 20
190.5070784034428
 30
0.0
 11
147.4872884738617
 21
201.1409311030293
 31
0.0
  0
LINE
  5
E9E
330
85F
100
AcDbEntity
  8
AM_5
100
AcDbLine
 10
147.4872884738617
 20
185.7070784034428
 30
0.0
 11
147.4872884738617
 21
188.0070784034428
 31
0.0
  0
INSERT
  5
E9F
330
85F
100
AcDbEntity
  8
AM_5
100
AcDbBlockReference
  2
_Open30
 10
147.4872884738617
 20
185.7070784034428
 30
0.0
 41
2.5
 42
2.5
 43
2.5
 50
90.0
  0
INSERT
  5
EA0
330
85F
100
AcDbEntity
  8
AM_5
100
AcDbBlockReference
  2
_Open30
 10
147.4872884738617
 20
188.0070784034428
 30
0.0
 41
2.5
 42
2.5
 43
2.5
 50
270.0
  0
MTEXT
  5
EA1
330
85F
100
AcDbEntity
  8
AM_5
 62
     2
100
AcDbMText
 10
144.2369439856727
 20
197.074004753236
 30
0.0
 40
3.5
 41
0.0
 71
     5
 72
     1
  1
2.3
 11
0.0000000000000001
 21
1.0
 31
0.0
 73
     1
 44
1.0
1001
ACAD
1000
MTEXTBEGIN
1070
    73
1070
     1
1070
    44
1040
1.0
1070
    74
1070
     0
1000
MTEXTEND
  0
POINT
  5
EA2
330
85F
100
AcDbEntity
  8
Defpoints
 62
     0
100
AcDbPoint
 10
137.7834248755437
 20
188.0070784034428
 30
0.0
  0
POINT
  5
EA3
330
85F
100
AcDbEntity
  8
Defpoints
 62
     0
100
AcDbPoint
 10
137.7834248755437
 20
185.7070784034428
 30
0.0
  0
POINT
  5
EA4
330
85F
100
AcDbEntity
  8
Defpoints
 62
     0
100
AcDbPoint
 10
147.4872884738617
 20
185.7070784034428
 30
0.0
  0
ENDBLK
  5
88E
330
85F
100
AcDbEntity
  8
0
100
AcDbBlockEnd
  0
BLOCK
  5
931
330
8C9
100
AcDbEntity
  8
0
100
AcDbBlockBegin
  2
*D17
 70
     1
 10
0.0
 20
0.0
 30
0.0
  3
*D17
  1

  0
LINE
  5
EA5
330
8C9
100
AcDbEntity
  8
AM_5
100
AcDbLine
 10
122.1834248755437
 20
178.3570784034428
 30
0.0
 11
122.1834248755437
 21
166.3570784034428
 31
0.0
  0
LINE
  5
EA6
330
8C9
100
AcDbEntity
  8
AM_5
100
AcDbLine
 10
136.1834248755436
 20
181.8570784034428
 30
0.0
 11
136.1834248755436
 21
166.3570784034428
 31
0.0
  0
LINE
  5
EA7
330
8C9
100
AcDbEntity
  8
AM_5
100
AcDbLine
 10
124.6834248755436
 20
167.3570784034428
 30
0.0
 11
133.6834248755436
 21
167.3570784034428
 31
0.0
  0
INSERT
  5
EA8
330
8C9
100
AcDbEntity
  8
AM_5
100
AcDbBlockReference
  2
_Open30
 10
122.1834248755437
 20
167.3570784034428
 30
0.0
 41
2.5
 42
2.5
 43
2.5
 50
180.0
  0
INSERT
  5
EA9
330
8C9
100
AcDbEntity
  8
AM_5
100
AcDbBlockReference
  2
_Open30
 10
136.1834248755436
 20
167.3570784034428
 30
0.0
 41
2.5
 42
2.5
 43
2.5
  0
MTEXT
  5
EAA
330
8C9
100
AcDbEntity
  8
AM_5
 62
     2
100
AcDbMText
 10
129.1834248755436
 20
170.6070784034428
 30
0.0
 40
3.5
 41
0.0
 71
     5
 72
     1
  1
14
 73
     1
 44
1.0
1001
ACAD
1000
MTEXTBEGIN
1070
    73
1070
     1
1070
    44
1040
1.0
1070
    74
1070
     0
1000
MTEXTEND
  0
POINT
  5
EAB
330
8C9
100
AcDbEntity
  8
Defpoints
 62
     0
100
AcDbPoint
 10
122.1834248755437
 20
179.3570784034428
 30
0.0
  0
POINT
  5
EAC
330
8C9
100
AcDbEntity
  8
Defpoints
 62
     0
100
AcDbPoint
 10
136.1834248755436
 20
182.8570784034428
 30
0.0
  0
POINT
  5
EAD
330
8C9
100
AcDbEntity
  8
Defpoints
 62
     0
100
AcDbPoint
 10
136.1834248755436
 20
167.3570784034428
 30
0.0
  0
ENDBLK
  5
932
330
8C9
100
AcDbEntity
  8
0
100
AcDbBlockEnd
  0
BLOCK
  5
933
330
8ED
100
AcDbEntity
  8
0
100
AcDbBlockBegin
  2
*D18
 70
     1
 10
0.0
 20
0.0
 30
0.0
  3
*D18
  1

  0
LINE
  5
EAE
330
8ED
100
AcDbEntity
  8
AM_5
100
AcDbLine
 10
128.1834248755436
 20
181.8570784034428
 30
0.0
 11
128.1834248755436
 21
173.5912097323874
 31
0.0
  0
LINE
  5
EAF
330
8ED
100
AcDbEntity
  8
AM_5
100
AcDbLine
 10
136.1834248755436
 20
181.8570784034428
 30
0.0
 11
136.1834248755436
 21
173.5912097323874
 31
0.0
  0
LINE
  5
EB0
330
8ED
100
AcDbEntity
  8
AM_5
100
AcDbLine
 10
125.6834248755436
 20
174.5912097323874
 30
0.0
 11
123.1834248755436
 21
174.5912097323874
 31
0.0
  0
LINE
  5
EB1
330
8ED
100
AcDbEntity
  8
AM_5
100
AcDbLine
 10
138.6834248755436
 20
174.5912097323874
 30
0.0
 11
141.1834248755436
 21
174.5912097323874
 31
0.0
  0
LINE
  5
EB2
330
8ED
100
AcDbEntity
  8
AM_5
100
AcDbLine
 10
128.1834248755436
 20
174.5912097323874
 30
0.0
 11
136.1834248755436
 21
174.5912097323874
 31
0.0
  0
INSERT
  5
EB3
330
8ED
100
AcDbEntity
  8
AM_5
100
AcDbBlockReference
  2
_Open30
 10
128.1834248755436
 20
174.5912097323874
 30
0.0
 41
2.5
 42
2.5
 43
2.5
  0
INSERT
  5
EB4
330
8ED
100
AcDbEntity
  8
AM_5
100
AcDbBlockReference
  2
_Open30
 10
136.1834248755436
 20
174.5912097323874
 30
0.0
 41
2.5
 42
2.5
 43
2.5
 50
180.0
  0
MTEXT
  5
EB5
330
8ED
100
AcDbEntity
  8
AM_5
 62
     2
100
AcDbMText
 10
132.1834248755436
 20
177.8412097323874
 30
0.0
 40
3.5
 41
0.0
 71
     5
 72
     1
  1
8
 73
     1
 44
1.0
1001
ACAD
1000
MTEXTBEGIN
1070
    73
1070
     1
1070
    44
1040
1.0
1070
    74
1070
     0
1000
MTEXTEND
  0
POINT
  5
EB6
330
8ED
100
AcDbEntity
  8
Defpoints
 62
     0
100
AcDbPoint
 10
128.1834248755436
 20
182.8570784034428
 30
0.0
  0
POINT
  5
EB7
330
8ED
100
AcDbEntity
  8
Defpoints
 62
     0
100
AcDbPoint
 10
136.1834248755436
 20
182.8570784034428
 30
0.0
  0
POINT
  5
EB8
330
8ED
100
AcDbEntity
  8
Defpoints
 62
     0
100
AcDbPoint
 10
136.1834248755436
 20
174.5912097323874
 30
0.0
  0
ENDBLK
  5
934
330
8ED
100
AcDbEntity
  8
0
100
AcDbBlockEnd
  0
BLOCK
  5
935
330
915
100
AcDbEntity
  8
0
100
AcDbBlockBegin
  2
*D19
 70
     1
 10
0.0
 20
0.0
 30
0.0
  3
*D19
  1

  0
LINE
  5
EB9
330
915
100
AcDbEntity
  8
AM_5
100
AcDbLine
 10
136.1834248755436
 20
181.8570784034428
 30
0.0
 11
136.1834248755436
 21
166.3570784034428
 31
0.0
  0
LINE
  5
EBA
330
915
100
AcDbEntity
  8
AM_5
100
AcDbLine
 10
138.4834248755437
 20
185.1070784034428
 30
0.0
 11
138.4834248755437
 21
166.3570784034428
 31
0.0
  0
LINE
  5
EBB
330
915
100
AcDbEntity
  8
AM_5
100
AcDbLine
 10
133.6834248755436
 20
167.3570784034428
 30
0.0
 11
131.1834248755436
 21
167.3570784034428
 31
0.0
  0
LINE
  5
EBC
330
915
100
AcDbEntity
  8
AM_5
100
AcDbLine
 10
140.9834248755436
 20
167.3570784034428
 30
0.0
 11
151.6172775751301
 21
167.3570784034428
 31
0.0
  0
LINE
  5
EBD
330
915
100
AcDbEntity
  8
AM_5
100
AcDbLine
 10
136.1834248755436
 20
167.3570784034428
 30
0.0
 11
138.4834248755437
 21
167.3570784034428
 31
0.0
  0
INSERT
  5
EBE
330
915
100
AcDbEntity
  8
AM_5
100
AcDbBlockReference
  2
_Open30
 10
136.1834248755436
 20
167.3570784034428
 30
0.0
 41
2.5
 42
2.5
 43
2.5
  0
INSERT
  5
EBF
330
915
100
AcDbEntity
  8
AM_5
100
AcDbBlockReference
  2
_Open30
 10
138.4834248755437
 20
167.3570784034428
 30
0.0
 41
2.5
 42
2.5
 43
2.5
 50
180.0
  0
MTEXT
  5
EC0
330
915
100
AcDbEntity
  8
AM_5
 62
     2
100
AcDbMText
 10
147.5503512253369
 20
170.6074228916318
 30
0.0
 40
3.5
 41
0.0
 71
     5
 72
     1
  1
2.3
 73
     1
 44
1.0
1001
ACAD
1000
MTEXTBEGIN
1070
    73
1070
     1
1070
    44
1040
1.0
1070
    74
1070
     0
1000
MTEXTEND
  0
POINT
  5
EC1
330
915
100
AcDbEntity
  8
Defpoints
 62
     0
100
AcDbPoint
 10
136.1834248755436
 20
182.8570784034428
 30
0.0
  0
POINT
  5
EC2
330
915
100
AcDbEntity
  8
Defpoints
 62
     0
100
AcDbPoint
 10
138.4834248755437
 20
186.1070784034428
 30
0.0
  0
POINT
  5
EC3
330
915
100
AcDbEntity
  8
Defpoints
 62
     0
100
AcDbPoint
 10
138.4834248755437
 20
167.3570784034428
 30
0.0
  0
ENDBLK
  5
936
330
915
100
AcDbEntity
  8
0
100
AcDbBlockEnd
  0
BLOCK
  5
98A
330
970
100
AcDbEntity
  8
0
100
AcDbBlockBegin
  2
*D20
 70
     1
 10
0.0
 20
0.0
 30
0.0
  3
*D20
  1

  0
LINE
  5
FE2
330
970
100
AcDbEntity
  8
AM_5
100
AcDbLine
 10
79.4977232853876
 20
183.5244454714757
 30
0.0
 11
73.69335133936679
 21
173.4898125715459
 31
0.0
  0
LINE
  5
FE3
330
970
100
AcDbEntity
  8
AM_5
100
AcDbLine
 10
73.69335133936679
 20
173.4898125715459
 30
0.0
 11
58.89335133936682
 21
173.4898125715459
 31
0.0
  0
INSERT
  5
FE4
330
970
100
AcDbEntity
  8
AM_5
100
AcDbBlockReference
  2
_Open30
 10
80.74948166083975
 20
185.6884928298959
 30
0.0
 41
2.5
 42
2.5
 43
2.5
 50
59.95345580663519
  0
MTEXT
  5
FE5
102
{ACAD_XDICTIONARY
360
11D3
102
}
330
970
100
AcDbEntity
  8
AM_5
 62
     2
100
AcDbMText
 10
65.54335133936691
 20
176.7401570597348
 30
0.0
 40
3.5
 41
0.0
 71
     5
 72
     1
  1
4-\U+22052.7
 73
     1
 44
1.0
1001
ACAD
1000
MTEXTBEGIN
1070
    73
1070
     1
1070
    44
1040
1.0
1070
    74
1070
     0
1000
MTEXTEND
  0
POINT
  5
FE6
330
970
100
AcDbEntity
  8
Defpoints
 62
     0
100
AcDbPoint
 10
80.74948166083975
 20
185.6884928298959
 30
0.0
  0
POINT
  5
FE7
330
970
100
AcDbEntity
  8
Defpoints
 62
     0
100
AcDbPoint
 10
82.10138070632813
 20
188.0256639769898
 30
0.0
  0
ENDBLK
  5
98B
330
970
100
AcDbEntity
  8
0
100
AcDbBlockEnd
  0
BLOCK
  5
9B8
330
99C
100
AcDbEntity
  8
0
100
AcDbBlockBegin
  2
*D21
 70
     1
 10
0.0
 20
0.0
 30
0.0
  3
*D21
  1

  0
LINE
  5
EC4
330
99C
100
AcDbEntity
  8
AM_5
100
AcDbLine
 10
137.1834248755436
 20
190.8570784034428
 30
0.0
 11
156.3886310689357
 21
190.8570784034428
 31
0.0
  0
LINE
  5
EC5
330
99C
100
AcDbEntity
  8
AM_5
100
AcDbLine
 10
137.1834248755436
 20
182.8570784034428
 30
0.0
 11
156.3886310689357
 21
182.8570784034428
 31
0.0
  0
LINE
  5
EC6
330
99C
100
AcDbEntity
  8
AM_5
100
AcDbLine
 10
155.3886310689358
 20
193.3570784034428
 30
0.0
 11
155.3886310689358
 21
195.8570784034428
 31
0.0
  0
LINE
  5
EC7
330
99C
100
AcDbEntity
  8
AM_5
100
AcDbLine
 10
155.3886310689357
 20
180.3570784034428
 30
0.0
 11
155.3886310689357
 21
177.8570784034428
 31
0.0
  0
LINE
  5
EC8
330
99C
100
AcDbEntity
  8
AM_5
100
AcDbLine
 10
155.3886310689357
 20
190.8570784034428
 30
0.0
 11
155.3886310689357
 21
182.8570784034428
 31
0.0
  0
INSERT
  5
EC9
330
99C
100
AcDbEntity
  8
AM_5
100
AcDbBlockReference
  2
_Open30
 10
155.3886310689357
 20
190.8570784034428
 30
0.0
 41
2.5
 42
2.5
 43
2.5
 50
270.0
  0
INSERT
  5
ECA
330
99C
100
AcDbEntity
  8
AM_5
100
AcDbBlockReference
  2
_Open30
 10
155.3886310689357
 20
182.8570784034428
 30
0.0
 41
2.5
 42
2.5
 43
2.5
 50
90.0
  0
MTEXT
  5
ECB
330
99C
100
AcDbEntity
  8
AM_5
 62
     2
100
AcDbMText
 10
152.1386310689357
 20
186.8570784034428
 30
0.0
 40
3.5
 41
0.0
 71
     5
 72
     1
  1
8
 11
0.0000000000000001
 21
1.0
 31
0.0
 73
     1
 44
1.0
1001
ACAD
1000
MTEXTBEGIN
1070
    73
1070
     1
1070
    44
1040
1.0
1070
    74
1070
     0
1000
MTEXTEND
  0
POINT
  5
ECC
330
99C
100
AcDbEntity
  8
Defpoints
 62
     0
100
AcDbPoint
 10
136.1834248755436
 20
190.8570784034428
 30
0.0
  0
POINT
  5
ECD
330
99C
100
AcDbEntity
  8
Defpoints
 62
     0
100
AcDbPoint
 10
136.1834248755436
 20
182.8570784034428
 30
0.0
  0
POINT
  5
ECE
330
99C
100
AcDbEntity
  8
Defpoints
 62
     0
100
AcDbPoint
 10
155.3886310689357
 20
182.8570784034428
 30
0.0
  0
ENDBLK
  5
9B9
330
99C
100
AcDbEntity
  8
0
100
AcDbBlockEnd
  0
BLOCK
  5
BF3
330
BEA
100
AcDbEntity
  8
0
100
AcDbBlockBegin
  2
TK-A4
 70
     0
 10
0.0
 20
0.0
 30
0.0
  3
TK-A4
  1

  0
TEXT
  5
BEB
330
BEA
100
AcDbEntity
  8
0
 60
     1
100
AcDbText
 10
0.0
 20
0.0
 30
0.0
 40
2.5
  1
!GENTITLE-LL
100
AcDbText
  0
TEXT
  5
BEC
330
BEA
100
AcDbEntity
  8
0
 60
     1
100
AcDbText
 10
193.0
 20
280.0
 30
0.0
 40
2.5
  1
!GENTITLE-MAX
100
AcDbText
  0
TEXT
  5
BED
330
BEA
100
AcDbEntity
  8
0
 60
     1
100
AcDbText
 10
193.0
 20
0.0
 30
0.0
 40
2.5
  1
!GENTITLE-INSERT
100
AcDbText
  0
LWPOLYLINE
  5
BEE
330
BEA
100
AcDbEntity
  8
0
100
AcDbPolyline
 90
        4
 70
     1
 43
0.0
 10
0.0
 20
0.0
 10
193.0
 20
0.0
 10
193.0
 20
280.0
 10
0.0
 20
280.0
1001
GENIUS_GENREC_14
1002
{
1000
PYDIR
1011
-8.5
1021
288.5
1031
0.0
1002
}
1002
{
1000
PXDIR
1011
201.5
1021
-8.5
1031
0.0
1002
}
1002
{
1000
PORI
1011
-8.5
1021
-8.5
1031
0.0
1002
}
1002
{
1000
PINS
1011
-8.5
1021
-8.5
1031
0.0
1002
}
1002
{
1000
HVAL
1000
297
1002
}
1002
{
1000
H
1070
     2
1002
}
1002
{
1000
WVAL
1000
210
1002
}
1002
{
1000
W
1070
     2
1002
}
1002
{
1000
C
1070
     1
1002
}
1001
GENIUS_GENOBJ-N-REC_13
1002
{
1000
OWNER
1000
GEN
1002
}
1001
GENIUS_GENODEF_13
1002
{
1000
HIER
1070
     0
1002
}
1002
{
1000
MANEDIT
1070
     0
1002
}
1002
{
1000
NOSEL
1070
     0
1002
}
1002
{
1000
BEHIND
1070
     0
1002
}
1002
{
1000
OTHER
1070
     0
1002
}
1002
{
1000
REACTOR
1002
}
  0
LINE
  5
BEF
330
BEA
100
AcDbEntity
  8
0
100
AcDbLine
 10
149.0
 20
280.0000000000001
 30
0.0
 11
149.0
 21
275.0
 31
0.0
  0
MTEXT
  5
BF0
330
BEA
100
AcDbEntity
  8
0
100
AcDbMText
 10
192.3592953827349
 20
276.1085429872271
 30
0.0
 40
2.5
 41
43.07840397728298
 71
     9
 72
     5
  1
(文書番号：TY-34)2008.02.08
 73
     1
 44
1.0
1001
ACAD
1000
MTEXTBEGIN
1070
    73
1070
     1
1070
    44
1040
1.0
1070
    74
1070
     0
1000
MTEXTEND
  0
LINE
  5
BF1
330
BEA
100
AcDbEntity
  8
0
100
AcDbLine
 10
149.0
 20
275.0
 30
0.0
 11
193.0
 21
275.0
 31
0.0
  0
ENDBLK
  5
BF4
330
BEA
100
AcDbEntity
  8
0
100
AcDbBlockEnd
  0
BLOCK
  5
CF9
330
C9F
100
AcDbEntity
  8
0
100
AcDbBlockBegin
  2
TK-TITLE
 70
     2
 10
0.0
 20
0.0
 30
0.0
  3
TK-TITLE
  1

  0
ATTDEF
  5
CA0
330
C9F
100
AcDbEntity
  8
0
100
AcDbText
 10
-8.002309189545826
 20
1.705189434395036
 30
0.0
 40
2.5
  1

100
AcDbAttributeDefinition
  3
Rev.
  2
GEN-TITLE-NR2
 70
     0
  0
ATTDEF
  5
CA1
330
C9F
100
AcDbEntity
  8
0
100
AcDbText
 10
-84.14251901585329
 20
12.82790432564377
 30
0.0
 40
3.5
  1

100
AcDbAttributeDefinition
  3
品名
  2
GEN-TITLE-DES1
 70
     0
  0
LINE
  5
CA2
330
C9F
100
AcDbEntity
  8
0
100
AcDbLine
 10
0.0
 20
0.0
 30
0.0
 11
0.0
 21
50.0
 31
0.0
1001
GENIUS_GENREC_14
1002
{
1000
PYDIR
1011
-414.0
1021
291.0
1031
0.0
1002
}
1002
{
1000
PXDIR
1011
6.0
1021
-6.0
1031
0.0
1002
}
1002
{
1000
PORI
1011
-414.0
1021
-6.0
1031
0.0
1002
}
1002
{
1000
PINS
1011
-414.0
1021
-6.0
1031
0.0
1002
}
1002
{
1000
HVAL
1000
297
1002
}
1002
{
1000
H
1070
     2
1002
}
1002
{
1000
WVAL
1000
420
1002
}
1002
{
1000
W
1070
     2
1002
}
1002
{
1000
C
1070
     1
1002
}
1001
GENIUS_GENODEF_13
1002
{
1000
HIER
1070
     0
1002
}
1002
{
1000
MANEDIT
1070
     0
1002
}
1002
{
1000
NOSEL
1070
     0
1002
}
1002
{
1000
BEHIND
1070
     0
1002
}
1002
{
1000
OTHER
1070
     0
1002
}
1002
{
1000
REACTOR
1002
}
1001
GENIUS_GENOBJ-N-REC_13
1002
{
1000
OWNER
1000
GEN
1002
}
  0
ATTDEF
  5
CA3
330
C9F
100
AcDbEntity
  8
0
100
AcDbText
 10
-84.0
 20
9.149999999999948
 30
0.0
 40
2.5
  1

100
AcDbAttributeDefinition
  3
サブタイトル
  2
GEN-TITLE-DES2
 70
     0
  0
ATTDEF
  5
CA4
330
C9F
100
AcDbEntity
  8
0
100
AcDbText
 10
-84.0
 20
1.999999999999957
 30
0.0
 40
3.0
  1

100
AcDbAttributeDefinition
  3
図番
  2
GEN-TITLE-NR1
 70
     0
  0
LINE
  5
CA5
330
C9F
100
AcDbEntity
  8
0
100
AcDbLine
 10
-96.0
 20
50.00000000000001
 30
0.0
 11
-96.0
 21
-0.0000000000000142
 31
0.0
1001
GENIUS_GENREC_14
1002
{
1000
PYDIR
1011
-96.0
1021
49.99999999999999
1031
0.0
1002
}
1002
{
1000
PXDIR
1011
88.0
1021
-0.0000000000000142
1031
0.0
1002
}
1002
{
1000
PORI
1011
-96.0
1021
-0.0000000000000142
1031
0.0
1002
}
1002
{
1000
PINS
1011
-12.5
1021
24.99999999999999
1031
0.0
1002
}
1002
{
1000
HVAL
1000
50
1002
}
1002
{
1000
H
1070
     2
1002
}
1002
{
1000
WVAL
1000
167
1002
}
1002
{
1000
W
1070
     2
1002
}
1002
{
1000
C
1070
     4
1002
}
1001
GENIUS_GENODEF_13
1002
{
1000
HIER
1070
     0
1002
}
1002
{
1000
MANEDIT
1070
     0
1002
}
1002
{
1000
NOSEL
1070
     0
1002
}
1002
{
1000
BEHIND
1070
     0
1002
}
1002
{
1000
REACTOR
1002
}
1001
GENIUS_GENOBJ-N-REC_13
1002
{
1000
OWNER
1000
GEN
1002
}
  0
LINE
  5
CA6
330
C9F
100
AcDbEntity
  8
0
100
AcDbLine
 10
0.0
 20
50.0
 30
0.0
 11
-193.0000000000001
 21
50.00000000000002
 31
0.0
1001
GENIUS_GENREC_14
1002
{
1000
PYDIR
1011
-184.0
1021
50.0
1031
0.0
1002
}
1002
{
1000
PXDIR
1011
0.0
1021
0.0
1031
0.0
1002
}
1002
{
1000
PORI
1011
-184.0
1021
0.0
1031
0.0
1002
}
1002
{
1000
PINS
1011
-100.5
1021
25.0
1031
0.0
1002
}
1002
{
1000
HVAL
1000
50
1002
}
1002
{
1000
H
1070
     2
1002
}
1002
{
1000
WVAL
1000
167
1002
}
1002
{
1000
W
1070
     2
1002
}
1002
{
1000
C
1070
     4
1002
}
1001
GENIUS_GENODEF_13
1002
{
1000
HIER
1070
     0
1002
}
1002
{
1000
MANEDIT
1070
     0
1002
}
1002
{
1000
NOSEL
1070
     0
1002
}
1002
{
1000
BEHIND
1070
     0
1002
}
1002
{
1000
REACTOR
1002
}
1001
GENIUS_GENOBJ-N-REC_13
1002
{
1000
OWNER
1000
GEN
1002
}
  0
LINE
  5
CA7
330
C9F
100
AcDbEntity
  8
0
100
AcDbLine
 10
-193.0000000000001
 20
0.0
 30
0.0
 11
0.0
 21
0.0
 31
0.0
1001
GENIUS_GENREC_14
1002
{
1000
PYDIR
1011
-184.0
1021
50.0
1031
0.0
1002
}
1002
{
1000
PXDIR
1011
0.0
1021
0.0
1031
0.0
1002
}
1002
{
1000
PORI
1011
-184.0
1021
0.0
1031
0.0
1002
}
1002
{
1000
PINS
1011
-100.5
1021
25.0
1031
0.0
1002
}
1002
{
1000
HVAL
1000
50
1002
}
1002
{
1000
H
1070
     2
1002
}
1002
{
1000
WVAL
1000
167
1002
}
1002
{
1000
W
1070
     2
1002
}
1002
{
1000
C
1070
     4
1002
}
1001
GENIUS_GENODEF_13
1002
{
1000
HIER
1070
     0
1002
}
1002
{
1000
MANEDIT
1070
     0
1002
}
1002
{
1000
NOSEL
1070
     0
1002
}
1002
{
1000
BEHIND
1070
     0
1002
}
1002
{
1000
REACTOR
1002
}
1001
GENIUS_GENOBJ-N-REC_13
1002
{
1000
OWNER
1000
GEN
1002
}
  0
TEXT
  5
CA8
330
C9F
100
AcDbEntity
  8
RAHM2
100
AcDbText
 10
-91.92677669529663
 20
45.98333333333335
 30
0.0
 40
2.5
  1
5
 72
     1
 11
-91.0
 21
45.65000000000002
 31
0.0
100
AcDbText
 73
     1
  0
TEXT
  5
CA9
330
C9F
100
AcDbEntity
  8
RAHM2
100
AcDbText
 10
-92.0
 20
40.98333333333335
 30
0.0
 40
2.5
  1
4
 72
     1
 11
-91.0
 21
40.65000000000002
 31
0.0
100
AcDbText
 73
     1
  0
TEXT
  5
CAA
330
C9F
100
AcDbEntity
  8
RAHM2
100
AcDbText
 10
-91.92677669529663
 20
35.98333333333333
 30
0.0
 40
2.5
  1
3
 72
     1
 11
-91.0
 21
35.64999999999999
 31
0.0
100
AcDbText
 73
     1
  0
TEXT
  5
CAB
330
C9F
100
AcDbEntity
  8
RAHM2
100
AcDbText
 10
-91.91833169291339
 20
30.98333333333335
 30
0.0
 40
2.5
  1
2
 72
     1
 11
-91.0
 21
30.65000000000002
 31
0.0
100
AcDbText
 73
     1
  0
TEXT
  5
CAC
330
C9F
100
AcDbEntity
  8
RAHM2
100
AcDbText
 10
-91.81558635658019
 20
25.98333333333335
 30
0.0
 40
2.5
  1
1
 72
     1
 11
-91.19058635658019
 21
25.65000000000002
 31
0.0
100
AcDbText
 73
     1
  0
MTEXT
  5
CAD
330
C9F
100
AcDbEntity
  8
RAHM2
100
AcDbMText
 10
-22.27910888308327
 20
27.50000000000003
 30
0.0
 40
2.5
 41
20.0
 71
     5
 72
     5
  1
・  ・   
 73
     1
 44
1.0
1001
ACAD
1000
MTEXTBEGIN
1070
    73
1070
     1
1070
    44
1040
1.0
1070
    74
1070
     0
1000
MTEXTEND
  0
LINE
  5
CAE
330
C9F
100
AcDbEntity
  8
RAHM2
100
AcDbLine
 10
-96.0
 20
25.0
 30
0.0
 11
0.0000000000001137
 21
25.00000000000003
 31
0.0
  0
LINE
  5
CAF
330
C9F
100
AcDbEntity
  8
RAHM2
100
AcDbLine
 10
-93.42487113059645
 20
25.40000000000002
 30
0.0
 11
-88.57512886940355
 21
25.40000000000002
 31
0.0
  0
LINE
  5
CB0
330
C9F
100
AcDbEntity
  8
RAHM2
100
AcDbLine
 10
-88.57512886940355
 20
25.40000000000002
 30
0.0
 11
-91.0
 21
29.60000000000001
 31
0.0
  0
LINE
  5
CB1
330
C9F
100
AcDbEntity
  8
RAHM2
100
AcDbLine
 10
-91.0
 20
29.60000000000001
 30
0.0
 11
-93.42487113059645
 21
25.40000000000002
 31
0.0
  0
MTEXT
  5
CB2
330
C9F
100
AcDbEntity
  8
RAHM2
100
AcDbMText
 10
-22.27910888308327
 20
47.50000000000002
 30
0.0
 40
2.5
 41
20.0
 71
     5
 72
     5
  1
・  ・   
 73
     1
 44
1.0
1001
ACAD
1000
MTEXTBEGIN
1070
    73
1070
     1
1070
    44
1040
1.0
1070
    74
1070
     0
1000
MTEXTEND
  0
MTEXT
  5
CB3
330
C9F
100
AcDbEntity
  8
RAHM2
100
AcDbMText
 10
-22.27910888308327
 20
37.50000000000003
 30
0.0
 40
2.5
 41
20.0
 71
     5
 72
     5
  1
・  ・   
 73
     1
 44
1.0
1001
ACAD
1000
MTEXTBEGIN
1070
    73
1070
     1
1070
    44
1040
1.0
1070
    74
1070
     0
1000
MTEXTEND
  0
MTEXT
  5
CB4
330
C9F
100
AcDbEntity
  8
RAHM2
100
AcDbMText
 10
-22.27910888308327
 20
42.50000000000002
 30
0.0
 40
2.5
 41
20.0
 71
     5
 72
     5
  1
・  ・   
 73
     1
 44
1.0
1001
ACAD
1000
MTEXTBEGIN
1070
    73
1070
     1
1070
    44
1040
1.0
1070
    74
1070
     0
1000
MTEXTEND
  0
MTEXT
  5
CB5
330
C9F
100
AcDbEntity
  8
RAHM2
100
AcDbMText
 10
-5.910409705344477
 20
22.49999999999997
 30
0.0
 40
2.5
 41
15.0
 71
     5
 72
     5
  1
担当
 73
     1
 44
1.0
1001
ACAD
1000
MTEXTBEGIN
1070
    73
1070
     1
1070
    44
1040
1.0
1070
    74
1070
     0
1000
MTEXTEND
  0
MTEXT
  5
CB6
330
C9F
100
AcDbEntity
  8
RAHM2
100
AcDbMText
 10
-21.55893921569111
 20
22.49999999999997
 30
0.0
 40
2.5
 41
20.0
 71
     5
 72
     5
  1
年・月・日
 73
     1
 44
1.0
1001
ACAD
1000
MTEXTBEGIN
1070
    73
1070
     1
1070
    44
1040
1.0
1070
    74
1070
     0
1000
MTEXTEND
  0
MTEXT
  5
CB7
330
C9F
100
AcDbEntity
  8
RAHM2
100
AcDbMText
 10
-22.27910888308327
 20
32.50000000000003
 30
0.0
 40
2.5
 41
20.0
 71
     5
 72
     5
  1
・  ・   
 73
     1
 44
1.0
1001
ACAD
1000
MTEXTBEGIN
1070
    73
1070
     1
1070
    44
1040
1.0
1070
    74
1070
     0
1000
MTEXTEND
  0
LINE
  5
CB8
330
C9F
100
AcDbEntity
  8
RAHM2
100
AcDbLine
 10
-11.82081941068907
 20
50.00000000000003
 30
0.0
 11
-11.82081941068907
 21
19.99999999999994
 31
0.0
  0
MTEXT
  5
CB9
330
C9F
100
AcDbEntity
  8
RAHM2
100
AcDbMText
 10
-59.0
 20
22.49999999999996
 30
0.0
 40
2.5
 41
45.0
 71
     5
 72
     5
  1
変更記事
 73
     1
 44
1.0
1001
ACAD
1000
MTEXTBEGIN
1070
    73
1070
     1
1070
    44
1040
1.0
1070
    74
1070
     0
1000
MTEXTEND
  0
LINE
  5
CBA
330
C9F
100
AcDbEntity
  8
RAHM2
100
AcDbLine
 10
-31.82081941068907
 20
50.00000000000003
 30
0.0
 11
-31.82081941068918
 21
19.99999999999994
 31
0.0
  0
LINE
  5
CBB
330
C9F
100
AcDbEntity
  8
RAHM2
100
AcDbLine
 10
-91.0
 20
49.6
 30
0.0
 11
-93.42487113059645
 21
45.40000000000001
 31
0.0
  0
LINE
  5
CBC
330
C9F
100
AcDbEntity
  8
RAHM2
100
AcDbLine
 10
-91.0
 20
44.6
 30
0.0
 11
-93.42487113059645
 21
40.40000000000001
 31
0.0
  0
LINE
  5
CBD
330
C9F
100
AcDbEntity
  8
RAHM2
100
AcDbLine
 10
-91.0
 20
39.60000000000001
 30
0.0
 11
-93.42487113059645
 21
35.40000000000002
 31
0.0
  0
LINE
  5
CBE
330
C9F
100
AcDbEntity
  8
RAHM2
100
AcDbLine
 10
-88.57512886940355
 20
35.40000000000002
 30
0.0
 11
-91.0
 21
39.60000000000001
 31
0.0
  0
LINE
  5
CBF
330
C9F
100
AcDbEntity
  8
RAHM2
100
AcDbLine
 10
-93.42487113059645
 20
35.40000000000002
 30
0.0
 11
-88.57512886940355
 21
35.40000000000002
 31
0.0
  0
LINE
  5
CC0
330
C9F
100
AcDbEntity
  8
RAHM2
100
AcDbLine
 10
-88.57512886940355
 20
40.40000000000001
 30
0.0
 11
-91.0
 21
44.6
 31
0.0
  0
LINE
  5
CC1
330
C9F
100
AcDbEntity
  8
RAHM2
100
AcDbLine
 10
-93.42487113059645
 20
40.40000000000001
 30
0.0
 11
-88.57512886940355
 21
40.40000000000001
 31
0.0
  0
LINE
  5
CC2
330
C9F
100
AcDbEntity
  8
RAHM2
100
AcDbLine
 10
-88.57512886940355
 20
45.40000000000001
 30
0.0
 11
-91.0
 21
49.6
 31
0.0
  0
LINE
  5
CC3
330
C9F
100
AcDbEntity
  8
RAHM2
100
AcDbLine
 10
-93.42487113059645
 20
45.40000000000001
 30
0.0
 11
-88.57512886940355
 21
45.40000000000001
 31
0.0
  0
MTEXT
  5
CC4
330
C9F
100
AcDbEntity
  8
RAHM2
100
AcDbMText
 10
-94.80025513713144
 20
18.8010354072796
 30
0.0
 40
2.5
 41
90.0
 71
     1
 72
     5
  1
品名
 73
     1
 44
1.0
1001
ACAD
1000
MTEXTBEGIN
1070
    73
1070
     1
1070
    44
1040
1.0
1070
    74
1070
     0
1000
MTEXTEND
  0
MTEXT
  5
CC5
330
C9F
100
AcDbEntity
  8
RAHM2
100
AcDbMText
 10
-91.0
 20
22.49999999999996
 30
0.0
 40
2.5
 41
10.0
 71
     5
 72
     5
  1
符号
 73
     1
 44
1.0
1001
ACAD
1000
MTEXTBEGIN
1070
    73
1070
     1
1070
    44
1040
1.0
1070
    74
1070
     0
1000
MTEXTEND
  0
LINE
  5
CC6
330
C9F
100
AcDbEntity
  8
RAHM2
100
AcDbLine
 10
-93.42487113059645
 20
30.40000000000002
 30
0.0
 11
-88.57512886940355
 21
30.40000000000002
 31
0.0
  0
LINE
  5
CC7
330
C9F
100
AcDbEntity
  8
RAHM2
100
AcDbLine
 10
-86.0
 20
50.00000000000001
 30
0.0
 11
-86.0
 21
19.99999999999993
 31
0.0
  0
LINE
  5
CC8
330
C9F
100
AcDbEntity
  8
RAHM2
100
AcDbLine
 10
-91.0
 20
34.60000000000001
 30
0.0
 11
-93.42487113059645
 21
30.40000000000002
 31
0.0
  0
LINE
  5
CC9
330
C9F
100
AcDbEntity
  8
RAHM2
100
AcDbLine
 10
-88.57512886940355
 20
30.40000000000002
 30
0.0
 11
-91.0
 21
34.60000000000001
 31
0.0
  0
MTEXT
  5
CCA
330
C9F
100
AcDbEntity
  8
RAHM2
100
AcDbMText
 10
-94.80025513713144
 20
5.801035407279627
 30
0.0
 40
2.5
 41
90.0
 71
     1
 72
     5
  1
図番
 73
     1
 44
1.0
1001
ACAD
1000
MTEXTBEGIN
1070
    73
1070
     1
1070
    44
1040
1.0
1070
    74
1070
     0
1000
MTEXTEND
  0
LINE
  5
CCB
330
C9F
100
AcDbEntity
  8
0
100
AcDbLine
 10
-96.0
 20
19.99999999999997
 30
0.0
 11
0.0000000000001137
 21
19.99999999999997
 31
0.0
  0
LINE
  5
CCC
330
C9F
100
AcDbEntity
  8
0
100
AcDbLine
 10
-96.0
 20
7.0
 30
0.0
 11
0.0000000000001137
 21
7.0
 31
0.0
  0
LINE
  5
CCD
330
C9F
100
AcDbEntity
  8
RAHM2
100
AcDbLine
 10
-96.0
 20
45.00000000000002
 30
0.0
 11
0.0000000000001137
 21
45.00000000000002
 31
0.0
  0
LINE
  5
CCE
330
C9F
100
AcDbEntity
  8
RAHM2
100
AcDbLine
 10
-96.0
 20
39.99999999999993
 30
0.0
 11
0.0000000000001137
 21
40.00000000000002
 31
0.0
  0
LINE
  5
CCF
330
C9F
100
AcDbEntity
  8
RAHM2
100
AcDbLine
 10
-96.0
 20
35.00000000000003
 30
0.0
 11
0.0000000000001137
 21
35.00000000000003
 31
0.0
  0
LINE
  5
CD0
330
C9F
100
AcDbEntity
  8
RAHM2
100
AcDbLine
 10
-96.0
 20
29.99999999999992
 30
0.0
 11
0.0000000000001137
 21
30.00000000000003
 31
0.0
  0
LINE
  5
CD1
330
C9F
100
AcDbEntity
  8
0
100
AcDbLine
 10
-21.17541926625711
 20
0.0
 30
0.0
 11
-21.17541926625734
 21
7.0
 31
0.0
  0
MTEXT
  5
CD2
330
C9F
100
AcDbEntity
  8
RAHM2
100
AcDbMText
 10
-16.85742592933491
 20
3.434762466565985
 30
0.0
 40
2.5
 41
7.936478436748416
 71
     5
 72
     5
  1
Rev.
 73
     1
 44
1.0
1001
ACAD
1000
MTEXTBEGIN
1070
    73
1070
     1
1070
    44
1040
1.0
1070
    74
1070
     0
1000
MTEXTEND
  0
MTEXT
  5
CD3
330
C9F
100
AcDbEntity
  8
RAHM2
100
AcDbMText
 10
-104.875
 20
18.80103540727957
 30
0.0
 40
2.5
 41
17.0
 71
     2
 72
     5
  1
製図
 73
     1
 44
1.0
1001
ACAD
1000
MTEXTBEGIN
1070
    73
1070
     1
1070
    44
1040
1.0
1070
    74
1070
     0
1000
MTEXTEND
  0
LINE
  5
CD4
330
C9F
100
AcDbEntity
  8
0
100
AcDbLine
 10
-167.0
 20
19.99999999999993
 30
0.0
 11
-96.0
 21
19.99999999999993
 31
0.0
  0
LINE
  5
CD5
330
C9F
100
AcDbEntity
  8
0
100
AcDbLine
 10
-113.75
 20
19.99999999999993
 30
0.0
 11
-113.75
 21
-0.0000000000000533
 31
0.0
  0
LINE
  5
CD6
330
C9F
100
AcDbEntity
  8
0
100
AcDbLine
 10
-131.5000000000001
 20
19.99999999999993
 30
0.0
 11
-131.5000000000001
 21
-0.0000000000000533
 31
0.0
  0
MTEXT
  5
CD7
330
C9F
100
AcDbEntity
  8
RAHM2
100
AcDbMText
 10
-122.6250000000001
 20
18.80103540727958
 30
0.0
 40
2.5
 41
17.0
 71
     2
 72
     5
  1
検図
 73
     1
 44
1.0
1001
ACAD
1000
MTEXTBEGIN
1070
    73
1070
     1
1070
    44
1040
1.0
1070
    74
1070
     0
1000
MTEXTEND
  0
LINE
  5
CD8
330
C9F
100
AcDbEntity
  8
0
100
AcDbLine
 10
-167.0
 20
49.99999999999995
 30
0.0
 11
-167.0
 21
-0.0000000000000497
 31
0.0
  0
LINE
  5
CD9
330
C9F
100
AcDbEntity
  8
0
100
AcDbLine
 10
-149.2500000000001
 20
19.99999999999993
 30
0.0
 11
-149.2500000000001
 21
-0.0000000000000462
 31
0.0
  0
MTEXT
  5
CDA
330
C9F
100
AcDbEntity
  8
RAHM2
100
AcDbMText
 10
-140.3750000000001
 20
18.80103540727958
 30
0.0
 40
2.5
 41
17.0
 71
     2
 72
     5
  1
承認
 73
     1
 44
1.0
1001
ACAD
1000
MTEXTBEGIN
1070
    73
1070
     1
1070
    44
1040
1.0
1070
    74
1070
     0
1000
MTEXTEND
  0
MTEXT
  5
CDB
330
C9F
100
AcDbEntity
  8
RAHM2
100
AcDbMText
 10
-158.1250000000001
 20
18.80103540727956
 30
0.0
 40
2.5
 41
17.0
 71
     2
 72
     5
  1
承認
 73
     1
 44
1.0
1001
ACAD
1000
MTEXTBEGIN
1070
    73
1070
     1
1070
    44
1040
1.0
1070
    74
1070
     0
1000
MTEXTEND
  0
LINE
  5
CDC
330
C9F
100
AcDbEntity
  8
0
100
AcDbLine
 10
-167.0
 20
29.99999999999992
 30
0.0
 11
-96.0
 21
29.99999999999992
 31
0.0
  0
MTEXT
  5
CDD
330
C9F
100
AcDbEntity
  8
0
100
AcDbMText
 10
-131.5000000000001
 20
24.99999999999992
 30
0.0
 40
3.5
 41
60.0
 71
     5
 72
     5
  1
\fＭＳ ゴシック|b0|i0|c128|p49;株式会社タカチ電機工業
 73
     1
 44
1.0
1001
ACAD
1000
MTEXTBEGIN
1070
    73
1070
     1
1070
    44
1040
1.0
1070
    74
1070
     0
1000
MTEXTEND
  0
ATTDEF
  5
CDE
330
C9F
100
AcDbEntity
  8
0
100
AcDbText
 10
-148.9618675835291
 20
43.29999999999991
 30
0.0
 40
3.0
  1

100
AcDbAttributeDefinition
  3
材質
  2
GEN-TITLE-MAT1
 70
     0
  0
ATTDEF
  5
CDF
330
C9F
100
AcDbEntity
  8
0
100
AcDbText
 10
-148.9618675835291
 20
33.29999999999991
 30
0.0
 40
3.0
  1

100
AcDbAttributeDefinition
  3
表面処理
  2
GEN-TITLE-MAT2
 70
     0
  0
MTEXT
  5
CE0
330
C9F
100
AcDbEntity
  8
RAHM2
100
AcDbMText
 10
-165.8002551371314
 20
48.80103540727955
 30
0.0
 40
2.5
 41
60.0
 71
     1
 72
     5
  1
材質
 73
     1
 44
1.0
1001
ACAD
1000
MTEXTBEGIN
1070
    73
1070
     1
1070
    44
1040
1.0
1070
    74
1070
     0
1000
MTEXTEND
  0
MTEXT
  5
CE1
330
C9F
100
AcDbEntity
  8
RAHM2
100
AcDbMText
 10
-165.8002551371314
 20
38.80103540727956
 30
0.0
 40
2.5
 41
60.0
 71
     1
 72
     5
  1
表面処理
 73
     1
 44
1.0
1001
ACAD
1000
MTEXTBEGIN
1070
    73
1070
     1
1070
    44
1040
1.0
1070
    74
1070
     0
1000
MTEXTEND
  0
LINE
  5
CE2
330
C9F
100
AcDbEntity
  8
0
100
AcDbLine
 10
-167.0
 20
39.99999999999991
 30
0.0
 11
-96.0
 21
39.99999999999992
 31
0.0
  0
LINE
  5
CE3
330
C9F
100
AcDbEntity
  8
0
100
AcDbLine
 10
-167.0
 20
24.99999999999997
 30
0.0
 11
-193.0000000000001
 21
24.99999999999997
 31
0.0
  0
LINE
  5
CE4
330
C9F
100
AcDbEntity
  8
0
100
AcDbLine
 10
-171.7167418745796
 20
46.74999999999995
 30
0.0
 11
-171.7167418745796
 21
40.74999999999994
 31
0.0
  0
LINE
  5
CE5
330
C9F
100
AcDbEntity
  8
7A
100
AcDbLine
 10
-184.7167418745796
 20
43.74999999999995
 30
0.0
 11
-184.7167418745796
 21
40.03991724228473
 31
0.0
1001
GENIUS_GENOREF_13
1005
CF7
  0
LINE
  5
CE6
330
C9F
100
AcDbEntity
  8
7A
100
AcDbLine
 10
-184.7167418745796
 20
43.74999999999995
 30
0.0
 11
-188.4397792458307
 21
43.74999999999995
 31
0.0
1001
GENIUS_GENOREF_13
1005
CF7
  0
LINE
  5
CE7
330
C9F
100
AcDbEntity
  8
0
100
AcDbLine
 10
-179.7167418745796
 20
41.74999999999995
 30
0.0
 11
-179.7167418745796
 21
45.74999999999994
 31
0.0
  0
CIRCLE
  5
CE8
330
C9F
100
AcDbEntity
  8
0
100
AcDbCircle
 10
-184.7167418745796
 20
43.74999999999995
 30
0.0
 40
3.0
  0
CIRCLE
  5
CE9
330
C9F
100
AcDbEntity
  8
0
100
AcDbCircle
 10
-184.7167418745796
 20
43.74999999999995
 30
0.0
 40
2.0
  0
LINE
  5
CEA
330
C9F
100
AcDbEntity
  8
7A
100
AcDbLine
 10
-184.7167418745796
 20
43.74999999999995
 30
0.0
 11
-184.7167418745796
 21
47.32478664473144
 31
0.0
1001
GENIUS_GENOREF_13
1005
CF7
  0
LINE
  5
CEB
330
C9F
100
AcDbEntity
  8
0
100
AcDbLine
 10
-171.7167418745796
 20
40.74999999999994
 30
0.0
 11
-179.7167418745796
 21
41.74999999999995
 31
0.0
  0
LINE
  5
CEC
330
C9F
100
AcDbEntity
  8
0
100
AcDbLine
 10
-179.7167418745796
 20
45.74999999999994
 30
0.0
 11
-171.7167418745796
 21
46.74999999999995
 31
0.0
  0
LINE
  5
CED
330
C9F
100
AcDbEntity
  8
7A
100
AcDbLine
 10
-184.7167418745796
 20
43.74999999999995
 30
0.0
 11
-170.9354334742943
 21
43.74999999999995
 31
0.0
1001
GENIUS_GENOREF_13
1005
CF7
  0
LINE
  5
CEE
330
C9F
100
AcDbEntity
  8
0
100
AcDbLine
 10
-193.0000000000001
 20
49.99999999999999
 30
0.0
 11
-193.0000000000001
 21
-0.0000000000000142
 31
0.0
  0
ATTDEF
  5
CEF
330
C9F
100
AcDbEntity
  8
0
100
AcDbText
 10
-175.6127409126095
 20
16.19999999999994
 30
0.0
 40
3.0
  1

 72
     2
 11
-175.6127409126095
 21
15.79999999999994
 31
0.0
100
AcDbAttributeDefinition
  3
数量
  2
GEN-TITLE-QTY
 70
     0
 74
     1
  0
MTEXT
  5
CF0
330
C9F
100
AcDbEntity
  8
RAHM2
100
AcDbMText
 10
-191.8002551371315
 20
23.80103540727963
 30
0.0
 40
2.5
 41
20.0
 71
     1
 72
     5
  1
数量
 73
     1
 44
1.0
1001
ACAD
1000
MTEXTBEGIN
1070
    73
1070
     1
1070
    44
1040
1.0
1070
    74
1070
     0
1000
MTEXTEND
  0
MTEXT
  5
CF1
330
C9F
100
AcDbEntity
  8
RAHM2
100
AcDbMText
 10
-191.8002551371315
 20
36.30103540727966
 30
0.0
 40
2.5
 41
20.0
 71
     1
 72
     5
  1
尺度
 73
     1
 44
1.0
1001
ACAD
1000
MTEXTBEGIN
1070
    73
1070
     1
1070
    44
1040
1.0
1070
    74
1070
     0
1000
MTEXTEND
  0
ATTDEF
  5
CF2
330
C9F
100
AcDbEntity
  8
0
100
AcDbText
 10
-177.824739614424
 20
28.69999999999997
 30
0.0
 40
3.0
  1

 72
     2
 11
-177.824739614424
 21
28.29999999999998
 31
0.0
100
AcDbAttributeDefinition
  3
尺度
  2
GEN-TITLE-SCA
 70
     0
 74
     1
  0
MTEXT
  5
CF3
330
C9F
100
AcDbEntity
  8
RAHM2
100
AcDbMText
 10
-191.8002551371315
 20
11.3010354072796
 30
0.0
 40
2.5
 41
60.0
 71
     1
 72
     5
  1
日付
 73
     1
 44
1.0
1001
ACAD
1000
MTEXTBEGIN
1070
    73
1070
     1
1070
    44
1040
1.0
1070
    74
1070
     0
1000
MTEXTEND
  0
ATTDEF
  5
CF4
330
C9F
100
AcDbEntity
  8
0
100
AcDbText
 10
-180.2171951662138
 20
3.988342537610664
 30
0.0
 40
3.0
  1

 72
     1
 11
-180.2171951662138
 21
3.588342537610664
 31
0.0
100
AcDbAttributeDefinition
  3
日付
  2
GEN-TITLE-DAT
 70
     0
 74
     1
  0
LINE
  5
CF5
330
C9F
100
AcDbEntity
  8
0
100
AcDbLine
 10
-167.0
 20
37.49999999999998
 30
0.0
 11
-193.0000000000001
 21
37.49999999999998
 31
0.0
  0
LINE
  5
CF6
330
C9F
100
AcDbEntity
  8
0
100
AcDbLine
 10
-167.0
 20
12.49999999999996
 30
0.0
 11
-193.0000000000001
 21
12.49999999999996
 31
0.0
  0
POINT
  5
CF7
330
C9F
100
AcDbEntity
  8
0
 60
     1
100
AcDbPoint
 10
-418.5355579819675
 20
-138.1104841268254
 30
0.0
1001
GENIUS_GENODEF_13
1002
{
1000
HIER
1070
    10
1002
}
1002
{
1000
MANEDIT
1070
     0
1002
}
1002
{
1000
NOSEL
1070
     0
1002
}
1002
{
1000
BEHIND
1070
     0
1002
}
1002
{
1000
REACTOR
1002
}
1001
GENIUS_GENOBJ-N-CRS_13
1002
{
1000
OWNER
1000
GEN
1002
}
1001
GENIUS_GENOENT_13
1002
{
1000
MYREF
1005
CF7
1002
}
1002
{
1000
GRP
1005
0
1002
}
1001
GENIUS_GENOLIS_13
1002
{
1000
ENT
1005
CE5
1005
CE6
1005
CEA
1005
CED
1002
}
  0
ENDBLK
  5
CFA
330
C9F
100
AcDbEntity
  8
0
100
AcDbBlockEnd
  0
BLOCK
  5
DF9
330
DED
100
AcDbEntity
  8
0
100
AcDbBlockBegin
  2
*D24
 70
     1
 10
0.0
 20
0.0
 30
0.0
  3
*D24
  1

  0
LINE
  5
E7B
330
DED
100
AcDbEntity
  8
AM_5
100
AcDbLine
 10
76.3454311835839
 20
187.8570784034428
 30
0.0
 11
76.3454311835839
 21
204.0461661041213
 31
0.0
  0
LINE
  5
E7C
330
DED
100
AcDbEntity
  8
AM_5
100
AcDbLine
 10
81.42543118358389
 20
187.8570784034428
 30
0.0
 11
81.42543118358389
 21
204.0461661041213
 31
0.0
  0
LINE
  5
E7D
330
DED
100
AcDbEntity
  8
AM_5
100
AcDbLine
 10
73.8454311835839
 20
203.0461661041213
 30
0.0
 11
71.3454311835839
 21
203.0461661041213
 31
0.0
  0
LINE
  5
E7E
330
DED
100
AcDbEntity
  8
AM_5
100
AcDbLine
 10
83.92543118358389
 20
203.0461661041213
 30
0.0
 11
86.42543118358389
 21
203.0461661041213
 31
0.0
  0
MTEXT
  5
E7F
330
DED
100
AcDbEntity
  8
AM_5
 62
     2
100
AcDbMText
 10
78.92543118358389
 20
205.6262931291213
 30
0.0
 40
3.5
 41
0.0
 71
     5
 72
     1
  1
5.08
 73
     1
 44
1.0
1001
ACAD
1000
MTEXTBEGIN
1070
    73
1070
     1
1070
    44
1040
1.0
1070
    74
1070
     0
1000
MTEXTEND
  0
LINE
  5
E80
330
DED
100
AcDbEntity
  8
AM_5
100
AcDbLine
 10
76.3454311835839
 20
203.0461661041213
 30
0.0
 11
81.42543118358389
 21
203.0461661041213
 31
0.0
  0
INSERT
  5
E81
330
DED
100
AcDbEntity
  8
AM_5
100
AcDbBlockReference
  2
_Open30
 10
76.3454311835839
 20
203.0461661041213
 30
0.0
 41
2.5
 42
2.5
 43
2.5
  0
INSERT
  5
E82
330
DED
100
AcDbEntity
  8
AM_5
100
AcDbBlockReference
  2
_Open30
 10
81.42543118358389
 20
203.0461661041213
 30
0.0
 41
2.5
 42
2.5
 43
2.5
 50
180.0
  0
POINT
  5
E83
330
DED
100
AcDbEntity
  8
Defpoints
 62
     0
100
AcDbPoint
 10
76.3454311835839
 20
186.8570784034428
 30
0.0
  0
POINT
  5
E84
330
DED
100
AcDbEntity
  8
Defpoints
 62
     0
100
AcDbPoint
 10
81.42543118358389
 20
186.8570784034428
 30
0.0
  0
POINT
  5
E85
330
DED
100
AcDbEntity
  8
Defpoints
 62
     0
100
AcDbPoint
 10
81.42543118358389
 20
203.0461661041213
 30
0.0
  0
ENDBLK
  5
DFA
330
DED
100
AcDbEntity
  8
0
100
AcDbBlockEnd
  0
BLOCK
  5
E50
330
E2D
100
AcDbEntity
  8
0
100
AcDbBlockBegin
  2
*D25
 70
     1
 10
0.0
 20
0.0
 30
0.0
  3
*D25
  1

  0
LINE
  5
E65
330
E2D
100
AcDbEntity
  8
AM_5
100
AcDbLine
 10
61.10543118358386
 20
187.8570784034428
 30
0.0
 11
61.10543118358386
 21
204.0461661041213
 31
0.0
  0
LINE
  5
E66
330
E2D
100
AcDbEntity
  8
AM_5
100
AcDbLine
 10
56.02543118358386
 20
187.8570784034428
 30
0.0
 11
56.02543118358386
 21
204.0461661041213
 31
0.0
  0
LINE
  5
E67
330
E2D
100
AcDbEntity
  8
AM_5
100
AcDbLine
 10
63.60543118358386
 20
203.0461661041213
 30
0.0
 11
66.10543118358386
 21
203.0461661041213
 31
0.0
  0
LINE
  5
E68
330
E2D
100
AcDbEntity
  8
AM_5
100
AcDbLine
 10
53.52543118358386
 20
203.0461661041213
 30
0.0
 11
51.02543118358386
 21
203.0461661041213
 31
0.0
  0
MTEXT
  5
E69
330
E2D
100
AcDbEntity
  8
AM_5
 62
     2
100
AcDbMText
 10
58.52543118358386
 20
206.2961661041213
 30
0.0
 40
3.5
 41
0.0
 71
     5
 72
     1
  1
5.08
 73
     1
 44
1.0
1001
ACAD
1000
MTEXTBEGIN
1070
    73
1070
     1
1070
    44
1040
1.0
1070
    74
1070
     0
1000
MTEXTEND
  0
LINE
  5
E6A
330
E2D
100
AcDbEntity
  8
AM_5
100
AcDbLine
 10
61.10543118358386
 20
203.0461661041213
 30
0.0
 11
56.02543118358386
 21
203.0461661041213
 31
0.0
  0
INSERT
  5
E6B
330
E2D
100
AcDbEntity
  8
AM_5
100
AcDbBlockReference
  2
_Open30
 10
61.10543118358386
 20
203.0461661041213
 30
0.0
 41
2.5
 42
2.5
 43
2.5
 50
180.0
  0
INSERT
  5
E6C
330
E2D
100
AcDbEntity
  8
AM_5
100
AcDbBlockReference
  2
_Open30
 10
56.02543118358386
 20
203.0461661041213
 30
0.0
 41
2.5
 42
2.5
 43
2.5
  0
POINT
  5
E6D
330
E2D
100
AcDbEntity
  8
Defpoints
 62
     0
100
AcDbPoint
 10
61.10543118358386
 20
186.8570784034428
 30
0.0
  0
POINT
  5
E6E
330
E2D
100
AcDbEntity
  8
Defpoints
 62
     0
100
AcDbPoint
 10
56.02543118358386
 20
186.8570784034428
 30
0.0
  0
POINT
  5
E6F
330
E2D
100
AcDbEntity
  8
Defpoints
 62
     0
100
AcDbPoint
 10
56.02543118358386
 20
203.0461661041213
 30
0.0
  0
ENDBLK
  5
E51
330
E2D
100
AcDbEntity
  8
0
100
AcDbBlockEnd
  0
BLOCK
  5
E52
330
E39
100
AcDbEntity
  8
0
100
AcDbBlockBegin
  2
*D26
 70
     1
 10
0.0
 20
0.0
 30
0.0
  3
*D26
  1

  0
LINE
  5
E5A
330
E39
100
AcDbEntity
  8
AM_5
100
AcDbLine
 10
56.02543118358386
 20
187.8570784034428
 30
0.0
 11
56.02543118358386
 21
204.0461661041213
 31
0.0
  0
LINE
  5
E5B
330
E39
100
AcDbEntity
  8
AM_5
100
AcDbLine
 10
49.07543118358386
 20
195.3570784034428
 30
0.0
 11
49.07543118358386
 21
204.0461661041213
 31
0.0
  0
LINE
  5
E5C
330
E39
100
AcDbEntity
  8
AM_5
100
AcDbLine
 10
58.52543118358386
 20
203.0461661041213
 30
0.0
 11
61.02543118358386
 21
203.0461661041213
 31
0.0
  0
LINE
  5
E5D
330
E39
100
AcDbEntity
  8
AM_5
100
AcDbLine
 10
46.57543118358385
 20
203.0461661041213
 30
0.0
 11
33.35877746112569
 21
203.0461661041213
 31
0.0
  0
LINE
  5
E5E
330
E39
100
AcDbEntity
  8
AM_5
100
AcDbLine
 10
56.02543118358386
 20
203.0461661041213
 30
0.0
 11
49.07543118358386
 21
203.0461661041213
 31
0.0
  0
INSERT
  5
E5F
330
E39
100
AcDbEntity
  8
AM_5
100
AcDbBlockReference
  2
_Open30
 10
56.02543118358386
 20
203.0461661041213
 30
0.0
 41
2.5
 42
2.5
 43
2.5
 50
180.0
  0
INSERT
  5
E60
330
E39
100
AcDbEntity
  8
AM_5
100
AcDbBlockReference
  2
_Open30
 10
49.07543118358386
 20
203.0461661041213
 30
0.0
 41
2.5
 42
2.5
 43
2.5
  0
MTEXT
  5
E61
330
E39
100
AcDbEntity
  8
AM_5
 62
     2
100
AcDbMText
 10
38.71710432235477
 20
206.2961661041213
 30
0.0
 40
3.5
 41
0.0
 71
     5
 72
     1
  1
6.95
 73
     1
 44
1.0
1001
ACAD
1000
MTEXTBEGIN
1070
    73
1070
     1
1070
    44
1040
1.0
1070
    74
1070
     0
1000
MTEXTEND
  0
POINT
  5
E62
330
E39
100
AcDbEntity
  8
Defpoints
 62
     0
100
AcDbPoint
 10
56.02543118358386
 20
186.8570784034428
 30
0.0
  0
POINT
  5
E63
330
E39
100
AcDbEntity
  8
Defpoints
 62
     0
100
AcDbPoint
 10
49.07543118358386
 20
194.3570784034428
 30
0.0
  0
POINT
  5
E64
330
E39
100
AcDbEntity
  8
Defpoints
 62
     0
100
AcDbPoint
 10
49.07543118358386
 20
203.0461661041213
 30
0.0
  0
ENDBLK
  5
E53
330
E39
100
AcDbEntity
  8
0
100
AcDbBlockEnd
  0
BLOCK
  5
F0F
330
F03
100
AcDbEntity
  8
0
100
AcDbBlockBegin
  2
*D27
 70
     1
 10
0.0
 20
0.0
 30
0.0
  3
*D27
  1

  0
LINE
  5
F11
330
F03
100
AcDbEntity
  8
AM_5
100
AcDbLine
 10
50.94543118358377
 20
230.9454683191202
 30
0.0
 11
50.94543118358377
 21
242.9454683191202
 31
0.0
  0
LINE
  5
F12
330
F03
100
AcDbEntity
  8
AM_5
100
AcDbLine
 10
49.07543118358382
 20
228.6454683191201
 30
0.0
 11
49.07543118358382
 21
242.9454683191202
 31
0.0
  0
LINE
  5
F13
330
F03
100
AcDbEntity
  8
AM_5
100
AcDbLine
 10
53.44543118358377
 20
241.9454683191202
 30
0.0
 11
55.94543118358377
 21
241.9454683191202
 31
0.0
  0
LINE
  5
F14
330
F03
100
AcDbEntity
  8
AM_5
100
AcDbLine
 10
46.57543118358382
 20
241.9454683191202
 30
0.0
 11
34.42543118358382
 21
241.9454683191202
 31
0.0
  0
LINE
  5
F15
330
F03
100
AcDbEntity
  8
AM_5
100
AcDbLine
 10
50.94543118358377
 20
241.9454683191202
 30
0.0
 11
49.07543118358382
 21
241.9454683191202
 31
0.0
  0
INSERT
  5
F16
330
F03
100
AcDbEntity
  8
AM_5
100
AcDbBlockReference
  2
_Open30
 10
50.94543118358377
 20
241.9454683191202
 30
0.0
 41
2.5
 42
2.5
 43
2.5
 50
180.0
  0
INSERT
  5
F17
330
F03
100
AcDbEntity
  8
AM_5
100
AcDbBlockReference
  2
_Open30
 10
49.07543118358382
 20
241.9454683191202
 30
0.0
 41
2.5
 42
2.5
 43
2.5
  0
MTEXT
  5
F18
330
F03
100
AcDbEntity
  8
AM_5
 62
     2
100
AcDbMText
 10
39.25043118358381
 20
245.1954683191202
 30
0.0
 40
3.5
 41
0.0
 71
     5
 72
     1
  1
1.87
 73
     1
 44
1.0
1001
ACAD
1000
MTEXTBEGIN
1070
    73
1070
     1
1070
    44
1040
1.0
1070
    74
1070
     0
1000
MTEXTEND
  0
POINT
  5
F19
330
F03
100
AcDbEntity
  8
Defpoints
 62
     0
100
AcDbPoint
 10
50.94543118358377
 20
229.9454683191202
 30
0.0
  0
POINT
  5
F1A
330
F03
100
AcDbEntity
  8
Defpoints
 62
     0
100
AcDbPoint
 10
49.07543118358382
 20
227.6454683191202
 30
0.0
  0
POINT
  5
F1B
330
F03
100
AcDbEntity
  8
Defpoints
 62
     0
100
AcDbPoint
 10
49.07543118358382
 20
241.9454683191202
 30
0.0
  0
ENDBLK
  5
F10
330
F03
100
AcDbEntity
  8
0
100
AcDbBlockEnd
  0
BLOCK
  5
F81
330
F7E
100
AcDbEntity
  8
0
100
AcDbBlockBegin
  2
A$C35C16C4D
 70
     0
 10
0.0
 20
0.0
 30
0.0
  3
A$C35C16C4D
  1

  0
CIRCLE
  5
F82
330
F7E
100
AcDbEntity
  8
ﾋﾞｽ
100
AcDbCircle
 10
0.0
 20
0.0
 30
0.0
 40
2.650000000000516
  0
LINE
  5
F83
330
F7E
100
AcDbEntity
  8
ﾋﾞｽ
100
AcDbLine
 10
0.2840909090908781
 20
-1.250000000000056
 30
0.0
 11
-0.2840909090908781
 21
-1.250000000000056
 31
0.0
  0
LINE
  5
F84
330
F7E
100
AcDbEntity
  8
ﾋﾞｽ
100
AcDbLine
 10
-0.2840909090909349
 20
1.249999999999943
 30
0.0
 11
0.2840909090908781
 21
1.249999999999943
 31
0.0
  0
LINE
  5
F85
330
F7E
100
AcDbEntity
  8
ﾋﾞｽ
100
AcDbLine
 10
-1.25
 20
0.2840909090908781
 30
0.0
 11
-1.079545454545495
 21
0.2840909090908781
 31
0.0
  0
LINE
  5
F86
330
F7E
100
AcDbEntity
  8
ﾋﾞｽ
100
AcDbLine
 10
-0.2840909090909349
 20
1.079545454545382
 30
0.0
 11
-0.2840909090909349
 21
1.249999999999943
 31
0.0
  0
ARC
  5
F87
330
F7E
100
AcDbEntity
  8
ﾋﾞｽ
100
AcDbCircle
 10
-1.079545454545495
 20
1.079545454545382
 30
0.0
 40
0.7954545454545431
100
AcDbArc
 50
270.0
 51
0.0
  0
ARC
  5
F88
330
F7E
100
AcDbEntity
  8
ﾋﾞｽ
100
AcDbCircle
 10
-1.079545454545439
 20
-1.079545454545439
 30
0.0
 40
0.7954545454545431
100
AcDbArc
 50
0.0
 51
90.0
  0
LINE
  5
F89
330
F7E
100
AcDbEntity
  8
ﾋﾞｽ
100
AcDbLine
 10
-1.25
 20
-0.2840909090909349
 30
0.0
 11
-1.25
 21
0.2840909090908781
 31
0.0
  0
LINE
  5
F8A
330
F7E
100
AcDbEntity
  8
ﾋﾞｽ
100
AcDbLine
 10
-1.079545454545439
 20
-0.2840909090909349
 30
0.0
 11
-1.25
 21
-0.2840909090909349
 31
0.0
  0
LINE
  5
F8B
330
F7E
100
AcDbEntity
  8
ﾋﾞｽ
100
AcDbLine
 10
-0.2840909090908781
 20
-1.249999999999943
 30
0.0
 11
-0.2840909090908781
 21
-1.079545454545439
 31
0.0
  0
ARC
  5
F8C
330
F7E
100
AcDbEntity
  8
ﾋﾞｽ
100
AcDbCircle
 10
1.079545454545495
 20
-1.079545454545439
 30
0.0
 40
0.7954545454545431
100
AcDbArc
 50
90.0
 51
180.0
  0
LINE
  5
F8D
330
F7E
100
AcDbEntity
  8
ﾋﾞｽ
100
AcDbLine
 10
0.2840909090908781
 20
-1.079545454545439
 30
0.0
 11
0.2840909090908781
 21
-1.250000000000056
 31
0.0
  0
LINE
  5
F8E
330
F7E
100
AcDbEntity
  8
ﾋﾞｽ
100
AcDbLine
 10
1.25
 20
-0.2840909090909349
 30
0.0
 11
1.079545454545495
 21
-0.2840909090909349
 31
0.0
  0
LINE
  5
F8F
330
F7E
100
AcDbEntity
  8
ﾋﾞｽ
100
AcDbLine
 10
1.25
 20
0.2840909090908781
 30
0.0
 11
1.25
 21
-0.2840909090909349
 31
0.0
  0
ARC
  5
F90
330
F7E
100
AcDbEntity
  8
ﾋﾞｽ
100
AcDbCircle
 10
1.079545454545439
 20
1.079545454545382
 30
0.0
 40
0.7954545454545431
100
AcDbArc
 50
180.0
 51
270.0
  0
LINE
  5
F91
330
F7E
100
AcDbEntity
  8
ﾋﾞｽ
100
AcDbLine
 10
1.079545454545439
 20
0.2840909090908781
 30
0.0
 11
1.25
 21
0.2840909090908781
 31
0.0
  0
LINE
  5
F92
330
F7E
100
AcDbEntity
  8
ﾋﾞｽ
100
AcDbLine
 10
0.2840909090908781
 20
1.249999999999943
 30
0.0
 11
0.2840909090908781
 21
1.079545454545439
 31
0.0
  0
ENDBLK
  5
F93
330
F7E
100
AcDbEntity
  8
0
100
AcDbBlockEnd
  0
BLOCK
  5
F97
330
F94
100
AcDbEntity
  8
0
100
AcDbBlockBegin
  2
A$C47270E8E
 70
     0
 10
0.0
 20
0.0
 30
0.0
  3
A$C47270E8E
  1

  0
LINE
  5
F98
330
F94
100
AcDbEntity
  8
ﾋﾞｽ
100
AcDbLine
 10
-7.999999999999943
 20
-2.649999999999977
 30
0.0
 11
-7.999999999999943
 21
2.650000000000034
 31
0.0
  0
ARC
  5
F99
330
F94
100
AcDbEntity
  8
ﾋﾞｽ
100
AcDbCircle
 10
-7.89999999999992
 20
1.12527740156986
 30
0.0
 40
0.1
100
AcDbArc
 50
180.0
 51
282.8042660652839
1001
GENIUS_GENOBJ-N-FIL_13
1002
{
1000
OWNER
1000
GEN
1002
}
1001
GENIUS_GENODEF_13
1002
{
1000
HIER
1070
     0
1002
}
1002
{
1000
MANEDIT
1070
     0
1002
}
1002
{
1000
NOSEL
1070
     0
1002
}
1002
{
1000
BEHIND
1070
     0
1002
}
1002
{
1000
OTHER
1070
     0
1002
}
1002
{
1000
REACTOR
1002
}
  0
ARC
  5
F9A
330
F94
100
AcDbEntity
  8
ﾋﾞｽ
100
AcDbCircle
 10
-7.899999999999977
 20
-1.12527740156986
 30
0.0
 40
0.1
100
AcDbArc
 50
77.19573393471296
 51
180.0
1001
GENIUS_GENOBJ-N-FIL_13
1002
{
1000
OWNER
1000
GEN
1002
}
1001
GENIUS_GENODEF_13
1002
{
1000
HIER
1070
     0
1002
}
1002
{
1000
MANEDIT
1070
     0
1002
}
1002
{
1000
NOSEL
1070
     0
1002
}
1002
{
1000
BEHIND
1070
     0
1002
}
1002
{
1000
OTHER
1070
     0
1002
}
1002
{
1000
REACTOR
1002
}
  0
LINE
  5
F9B
330
F94
100
AcDbEntity
  8
ﾋﾞｽ
100
AcDbLine
 10
0.0
 20
-1.25
 30
0.0
 11
0.0
 21
1.25
 31
0.0
  0
LINE
  5
F9C
330
F94
100
AcDbEntity
  8
ﾋﾞｽ
100
AcDbLine
 10
-7.877837889641057
 20
1.027764115990692
 30
0.0
 11
-6.89999999999992
 21
1.25
 31
0.0
  0
LINE
  5
F9D
330
F94
100
AcDbEntity
  8
ﾋﾞｽ
100
AcDbLine
 10
-7.877837889641114
 20
-1.027764115990692
 30
0.0
 11
-6.900000000000034
 21
-1.25
 31
0.0
  0
LINE
  5
F9E
330
F94
100
AcDbEntity
  8
ﾋﾞｽ
100
AcDbLine
 10
-6.900000000000034
 20
-1.25
 30
0.0
 11
-6.89999999999992
 21
1.25
 31
0.0
  0
LINE
  5
F9F
330
F94
100
AcDbEntity
  8
ﾋﾞｽ
100
AcDbLine
 10
-6.900000000000034
 20
-1.25
 30
0.0
 11
0.0
 21
-1.25
 31
0.0
  0
LINE
  5
FA0
330
F94
100
AcDbEntity
  8
ﾋﾞｽ
100
AcDbLine
 10
0.0
 20
1.25
 30
0.0
 11
-6.89999999999992
 21
1.250000000000056
 31
0.0
  0
LINE
  5
FA1
330
F94
100
AcDbEntity
  8
ﾋﾞｽ0
100
AcDbLine
 10
-8.0
 20
-1.0
 30
0.0
 11
0.0
 21
-1.0
 31
0.0
  0
LINE
  5
FA2
330
F94
100
AcDbEntity
  8
ﾋﾞｽ0
100
AcDbLine
 10
-7.999999999999943
 20
1.000000000000056
 30
0.0
 11
0.0
 21
1.0
 31
0.0
  0
LINE
  5
FA3
330
F94
100
AcDbEntity
  8
ﾋﾞｽ
100
AcDbLine
 10
-7.999999999999943
 20
2.650000000000034
 30
0.0
 11
-8.999999999999943
 21
2.56251133647413
 31
0.0
  0
LINE
  5
FA4
330
F94
100
AcDbEntity
  8
ﾋﾞｽ
100
AcDbLine
 10
-7.999999999999943
 20
-2.649999999999977
 30
0.0
 11
-8.999999999999943
 21
-2.562511336474074
 31
0.0
  0
LINE
  5
FA5
330
F94
100
AcDbEntity
  8
ﾋﾞｽ
100
AcDbLine
 10
-8.999999999999943
 20
2.56251133647413
 30
0.0
 11
-8.999999999999943
 21
-2.562511336474074
 31
0.0
  0
ARC
  5
FA6
330
F94
100
AcDbEntity
  8
ﾋﾞｽ
100
AcDbCircle
 10
-2.683535650441683
 20
0.0
 30
0.0
 40
6.816464349558272
100
AcDbArc
 50
157.918214928471
 51
202.081785071529
  0
ENDBLK
  5
FA7
330
F94
100
AcDbEntity
  8
0
100
AcDbBlockEnd
  0
BLOCK
  5
FAB
330
FA8
100
AcDbEntity
  8
0
100
AcDbBlockBegin
  2
A$C762874DC
 70
     0
 10
0.0
 20
0.0
 30
0.0
  3
A$C762874DC
  1

  0
CIRCLE
  5
FAC
330
FA8
100
AcDbEntity
  8
ﾋﾞｽ
100
AcDbCircle
 10
0.0
 20
0.0
 30
0.0
 40
2.049999999999999
  0
CIRCLE
  5
FAD
330
FA8
100
AcDbEntity
  8
ﾋﾞｽ
100
AcDbCircle
 10
0.0
 20
0.0
 30
0.0
 40
1.006430355185645
  0
LINE
  5
FAE
330
FA8
100
AcDbEntity
  8
ﾋﾞｽ
100
AcDbLine
 10
-2.5
 20
-1.44337567297407
 30
0.0
 11
0.0000000000001137
 21
-2.886751345948169
 31
0.0
  0
LINE
  5
FAF
330
FA8
100
AcDbEntity
  8
ﾋﾞｽ
100
AcDbLine
 10
0.0000000000001137
 20
-2.886751345948169
 30
0.0
 11
2.5
 21
-1.443375672973985
 31
0.0
  0
LINE
  5
FB0
330
FA8
100
AcDbEntity
  8
ﾋﾞｽ
100
AcDbLine
 10
2.5
 20
-1.443375672973985
 30
0.0
 11
2.5
 21
1.44337567297407
 31
0.0
  0
LINE
  5
FB1
330
FA8
100
AcDbEntity
  8
ﾋﾞｽ
100
AcDbLine
 10
2.5
 20
1.44337567297407
 30
0.0
 11
0.0
 21
2.886751345948113
 31
0.0
  0
LINE
  5
FB2
330
FA8
100
AcDbEntity
  8
ﾋﾞｽ
100
AcDbLine
 10
0.0
 20
2.886751345948113
 30
0.0
 11
-2.5
 21
1.4433756729739
 31
0.0
  0
LINE
  5
FB3
330
FA8
100
AcDbEntity
  8
ﾋﾞｽ
100
AcDbLine
 10
-2.5
 20
1.4433756729739
 30
0.0
 11
-2.5
 21
-1.44337567297407
 31
0.0
  0
CIRCLE
  5
FB4
330
FA8
100
AcDbEntity
  8
ﾋﾞｽ0
 48
0.5
100
AcDbCircle
 10
0.0
 20
0.0
 30
0.0
 40
1.249999999999996
  0
ENDBLK
  5
FB5
330
FA8
100
AcDbEntity
  8
0
100
AcDbBlockEnd
  0
BLOCK
  5
FB9
330
FB6
100
AcDbEntity
  8
0
100
AcDbBlockBegin
  2
A$C4B68363E
 70
     0
 10
0.0
 20
0.0
 30
0.0
  3
A$C4B68363E
  1

  0
ARC
  5
FBA
330
FB6
100
AcDbEntity
  8
ﾋﾞｽ
100
AcDbCircle
 10
-1.536285706842818
 20
2.165625000000005
 30
0.0
 40
1.276478085707444
100
AcDbArc
 50
325.5615305952682
 51
25.56153059526836
  0
ARC
  5
FBB
330
FB6
100
AcDbEntity
  8
ﾋﾞｽ
100
AcDbCircle
 10
-0.4637142931572385
 20
2.165625000000005
 30
0.0
 40
1.276478085707444
100
AcDbArc
 50
154.4384694047316
 51
214.4384694047318
  0
LINE
  5
FBC
330
FB6
100
AcDbEntity
  8
ﾋﾞｽ
100
AcDbLine
 10
0.0
 20
2.050000000000011
 30
0.0
 11
0.0
 21
-2.050000000000011
 31
0.0
  0
LINE
  5
FBD
330
FB6
100
AcDbEntity
  8
ﾋﾞｽ
100
AcDbLine
 10
-2.0
 20
2.050000000000011
 30
0.0
 11
-2.0
 21
-2.050000000000011
 31
0.0
  0
ARC
  5
FBE
330
FB6
100
AcDbEntity
  8
ﾋﾞｽ
100
AcDbCircle
 10
-1.536285706842818
 20
-2.165625000000005
 30
0.0
 40
1.276478085707443
100
AcDbArc
 50
334.4384694047316
 51
34.43846940473181
  0
ARC
  5
FBF
330
FB6
100
AcDbEntity
  8
ﾋﾞｽ
100
AcDbCircle
 10
-5.030135119998647
 20
0.0
 30
0.0
 40
4.770327498863328
100
AcDbArc
 50
342.383031159614
 51
17.61696884038601
  0
ARC
  5
FC0
330
FB6
100
AcDbEntity
  8
ﾋﾞｽ
100
AcDbCircle
 10
3.030135119998647
 20
0.0
 30
0.0
 40
4.770327498863318
100
AcDbArc
 50
162.383031159614
 51
197.616968840386
  0
ARC
  5
FC1
330
FB6
100
AcDbEntity
  8
ﾋﾞｽ
100
AcDbCircle
 10
-0.4637142931572385
 20
-2.165625000000005
 30
0.0
 40
1.276478085707444
100
AcDbArc
 50
145.5615305952681
 51
205.5615305952669
  0
LINE
  5
FC2
330
FB6
100
AcDbEntity
  8
ﾋﾞｽ
100
AcDbLine
 10
-0.4835308504463001
 20
-2.887499999999988
 30
0.0
 11
0.0
 21
-2.050000000000011
 31
0.0
  0
LINE
  5
FC3
330
FB6
100
AcDbEntity
  8
ﾋﾞｽ
100
AcDbLine
 10
-1.516469149553699
 20
1.443749999999994
 30
0.0
 11
-0.4835308504463001
 21
1.443749999999994
 31
0.0
  0
LINE
  5
FC4
330
FB6
100
AcDbEntity
  8
ﾋﾞｽ
100
AcDbLine
 10
-1.516469149553699
 20
-2.887499999999988
 30
0.0
 11
-2.0
 21
-2.050000000000011
 31
0.0
  0
LINE
  5
FC5
330
FB6
100
AcDbEntity
  8
ﾋﾞｽ
100
AcDbLine
 10
-1.516469149553699
 20
-2.887499999999988
 30
0.0
 11
-0.4835308504463001
 21
-2.887499999999988
 31
0.0
  0
LINE
  5
FC6
330
FB6
100
AcDbEntity
  8
ﾋﾞｽ
100
AcDbLine
 10
-1.516469149553699
 20
-1.443750000000022
 30
0.0
 11
-0.4835308504463001
 21
-1.443750000000022
 31
0.0
  0
LINE
  5
FC7
330
FB6
100
AcDbEntity
  8
ﾋﾞｽ
100
AcDbLine
 10
-0.4835308504463001
 20
2.887499999999988
 30
0.0
 11
0.0
 21
2.050000000000011
 31
0.0
  0
LINE
  5
FC8
330
FB6
100
AcDbEntity
  8
ﾋﾞｽ
100
AcDbLine
 10
-1.516469149553699
 20
2.887499999999988
 30
0.0
 11
-2.0
 21
2.050000000000011
 31
0.0
  0
LINE
  5
FC9
330
FB6
100
AcDbEntity
  8
ﾋﾞｽ
100
AcDbLine
 10
-1.516469149553699
 20
2.887499999999988
 30
0.0
 11
-0.4835308504463001
 21
2.887499999999988
 31
0.0
  0
ENDBLK
  5
FCA
330
FB6
100
AcDbEntity
  8
0
100
AcDbBlockEnd
  0
BLOCK
  5
1150
330
114C
100
AcDbEntity
  8
0
100
AcDbBlockBegin
  2
*S32
 70
     1
 10
0.0
 20
0.0
 30
0.0
  3
*S32
  1

  0
CIRCLE
  5
114D
330
114C
100
AcDbEntity
  8
AM_12
 62
     4
100
AcDbCircle
 10
52.80032327516176
 20
222.3851917858318
 30
0.0
 40
1.75
  0
LINE
  5
114E
330
114C
100
AcDbEntity
  8
AM_12
 62
     4
100
AcDbLine
 10
51.05032327516176
 20
220.6351917858318
 30
0.0
 11
54.55032327516176
 21
224.1351917858318
 31
0.0
  0
LINE
  5
114F
330
114C
100
AcDbEntity
  8
AM_12
 62
     4
100
AcDbLine
 10
51.05032327516176
 20
224.1351917858318
 30
0.0
 11
54.55032327516176
 21
220.6351917858318
 31
0.0
  0
ENDBLK
  5
1151
330
114C
100
AcDbEntity
  8
0
100
AcDbBlockEnd
  0
BLOCK
  5
1157
330
1153
100
AcDbEntity
  8
0
100
AcDbBlockBegin
  2
*S33
 70
     1
 10
0.0
 20
0.0
 30
0.0
  3
*S33
  1

  0
CIRCLE
  5
1154
330
1153
100
AcDbEntity
  8
AM_12
 62
     4
100
AcDbCircle
 10
53.18285863764879
 20
123.4278443555491
 30
0.0
 40
1.75
  0
LINE
  5
1155
330
1153
100
AcDbEntity
  8
AM_12
 62
     4
100
AcDbLine
 10
51.43285863764879
 20
121.6778443555491
 30
0.0
 11
54.93285863764879
 21
125.1778443555491
 31
0.0
  0
LINE
  5
1156
330
1153
100
AcDbEntity
  8
AM_12
 62
     4
100
AcDbLine
 10
51.43285863764879
 20
125.1778443555491
 30
0.0
 11
54.93285863764879
 21
121.6778443555491
 31
0.0
  0
ENDBLK
  5
1158
330
1153
100
AcDbEntity
  8
0
100
AcDbBlockEnd
  0
BLOCK
  5
115E
330
115A
100
AcDbEntity
  8
0
100
AcDbBlockBegin
  2
*S34
 70
     1
 10
0.0
 20
0.0
 30
0.0
  3
*S34
  1

  0
CIRCLE
  5
115B
330
115A
100
AcDbEntity
  8
AM_12
 62
     4
100
AcDbCircle
 10
160.4557118051526
 20
251.7718746562499
 30
0.0
 40
1.75
  0
LINE
  5
115C
330
115A
100
AcDbEntity
  8
AM_12
 62
     4
100
AcDbLine
 10
158.7057118051526
 20
250.0218746562499
 30
0.0
 11
162.2057118051526
 21
253.5218746562499
 31
0.0
  0
LINE
  5
115D
330
115A
100
AcDbEntity
  8
AM_12
 62
     4
100
AcDbLine
 10
158.7057118051526
 20
253.5218746562499
 30
0.0
 11
162.2057118051526
 21
250.0218746562499
 31
0.0
  0
ENDBLK
  5
115F
330
115A
100
AcDbEntity
  8
0
100
AcDbBlockEnd
  0
BLOCK
  5
1166
330
1161
100
AcDbEntity
  8
0
100
AcDbBlockBegin
  2
*S35
 70
     1
 10
0.0
 20
0.0
 30
0.0
  3
*S35
  1

  0
LINE
  5
1162
330
1161
100
AcDbEntity
  8
AM_5
 62
     3
100
AcDbLine
 10
149.7248489295162
 20
257.5990994900848
 30
0.0
 11
157.3799530797035
 21
253.4421166335763
 31
0.0
  0
TRACE
  5
1163
330
1161
100
AcDbEntity
  8
AM_5
  6
Continuous
 62
     3
100
AcDbTrace
 10
157.1600615527942
 20
253.0371853172014
 30
0.0
 11
157.5998446066127
 21
253.8470479499512
 31
0.0
 12
160.4557118051526
 22
251.7718746562499
 32
0.0
 13
160.4557118051526
 23
251.7718746562499
 33
0.0
  0
MTEXT
  5
1164
330
1161
100
AcDbEntity
  8
AM_5
 62
     7
100
AcDbMText
 10
144.3422711599802
 20
260.522022950406
 30
0.0
 40
3.5
 41
0.0
 71
     5
 72
     5
  1
3
  7
ACISOTS
 73
     1
 44
1.0
1001
ACAD
1000
MTEXTBEGIN
1070
    73
1070
     1
1070
    44
1040
1.0
1070
    74
1070
     0
1000
MTEXTEND
  0
CIRCLE
  5
1165
330
1161
100
AcDbEntity
  8
AM_5
 62
     3
100
AcDbCircle
 10
144.3422711599802
 20
260.522022950406
 30
0.0
 40
6.125
  0
ENDBLK
  5
1167
330
1161
100
AcDbEntity
  8
0
100
AcDbBlockEnd
  0
BLOCK
  5
116D
330
1169
100
AcDbEntity
  8
0
100
AcDbBlockBegin
  2
*S36
 70
     1
 10
0.0
 20
0.0
 30
0.0
  3
*S36
  1

  0
CIRCLE
  5
116A
330
1169
100
AcDbEntity
  8
AM_12
 62
     4
100
AcDbCircle
 10
161.4390230362149
 20
232.7866443848269
 30
0.0
 40
1.75
  0
LINE
  5
116B
330
1169
100
AcDbEntity
  8
AM_12
 62
     4
100
AcDbLine
 10
159.6890230362149
 20
231.0366443848269
 30
0.0
 11
163.1890230362149
 21
234.5366443848269
 31
0.0
  0
LINE
  5
116C
330
1169
100
AcDbEntity
  8
AM_12
 62
     4
100
AcDbLine
 10
159.6890230362149
 20
234.5366443848269
 30
0.0
 11
163.1890230362149
 21
231.0366443848269
 31
0.0
  0
ENDBLK
  5
116E
330
1169
100
AcDbEntity
  8
0
100
AcDbBlockEnd
  0
BLOCK
  5
1175
330
1170
100
AcDbEntity
  8
0
100
AcDbBlockBegin
  2
*S37
 70
     1
 10
0.0
 20
0.0
 30
0.0
  3
*S37
  1

  0
LINE
  5
1171
330
1170
100
AcDbEntity
  8
AM_5
 62
     3
100
AcDbLine
 10
147.8239171338654
 20
236.7783184294286
 30
0.0
 11
158.0803923584893
 21
233.7713270599258
 31
0.0
  0
TRACE
  5
1172
330
1170
100
AcDbEntity
  8
AM_5
  6
Continuous
 62
     3
100
AcDbTrace
 10
157.9507564255598
 20
233.3291549447024
 30
0.0
 11
158.2100282914187
 21
234.2134991751492
 31
0.0
 12
161.4390230362149
 22
232.7866443848269
 32
0.0
 13
161.4390230362149
 23
232.7866443848269
 33
0.0
  0
MTEXT
  5
1173
330
1170
100
AcDbEntity
  8
AM_5
 62
     7
100
AcDbMText
 10
141.9463134478454
 20
238.5015131108517
 30
0.0
 40
3.5
 41
0.0
 71
     5
 72
     5
  1
4
  7
ACISOTS
 73
     1
 44
1.0
1001
ACAD
1000
MTEXTBEGIN
1070
    73
1070
     1
1070
    44
1040
1.0
1070
    74
1070
     0
1000
MTEXTEND
  0
CIRCLE
  5
1174
330
1170
100
AcDbEntity
  8
AM_5
 62
     3
100
AcDbCircle
 10
141.9463134478454
 20
238.5015131108517
 30
0.0
 40
6.125
  0
ENDBLK
  5
1176
330
1170
100
AcDbEntity
  8
0
100
AcDbBlockEnd
  0
BLOCK
  5
11AE
330
1178
100
AcDbEntity
  8
0
100
AcDbBlockBegin
  2
*S38
 70
     1
 10
0.0
 20
0.0
 30
0.0
  3
*S38
  1

  0
LINE
  5
1179
330
1178
100
AcDbEntity
  8
0
 62
     1
100
AcDbLine
 10
0.0
 20
68.525
 30
0.0
 11
193.0
 21
68.525
 31
0.0
  0
LINE
  5
117A
330
1178
100
AcDbEntity
  8
0
 62
     1
100
AcDbLine
 10
0.0
 20
62.35
 30
0.0
 11
193.0
 21
62.35
 31
0.0
  0
LINE
  5
117B
330
1178
100
AcDbEntity
  8
0
 62
     1
100
AcDbLine
 10
0.0
 20
56.17499999999999
 30
0.0
 11
193.0
 21
56.17499999999999
 31
0.0
  0
MTEXT
  5
117C
330
1178
100
AcDbEntity
  8
0
 62
     2
100
AcDbMText
 10
7.5
 20
73.34999999999999
 30
0.0
 40
3.5
 41
13.2
 71
     2
 72
     5
  1
1
  7
ACISOTS
 73
     1
 44
1.0
1001
ACAD
1000
MTEXTBEGIN
1070
    73
1070
     1
1070
    44
1040
1.0
1070
    74
1070
     0
1000
MTEXTEND
  0
LINE
  5
117D
330
1178
100
AcDbEntity
  8
0
 62
     1
100
AcDbLine
 10
15.0
 20
74.7
 30
0.0
 11
15.0
 21
68.525
 31
0.0
  0
MTEXT
  5
117E
330
1178
100
AcDbEntity
  8
0
 62
     2
100
AcDbMText
 10
15.9
 20
73.34999999999999
 30
0.0
 40
3.5
 41
48.2
 71
     1
 72
     5
  1
ハンドル
  7
ACISOTS
 73
     1
 44
1.0
1001
ACAD
1000
MTEXTBEGIN
1070
    73
1070
     1
1070
    44
1040
1.0
1070
    74
1070
     0
1000
MTEXTEND
  0
LINE
  5
117F
330
1178
100
AcDbEntity
  8
0
 62
     1
100
AcDbLine
 10
65.0
 20
74.7
 30
0.0
 11
65.0
 21
68.525
 31
0.0
  0
MTEXT
  5
1180
330
1178
100
AcDbEntity
  8
0
 62
     2
100
AcDbMText
 10
65.9
 20
73.34999999999999
 30
0.0
 40
3.5
 41
13.2
 71
     1
 72
     5
  1
1
  7
ACISOTS
 73
     1
 44
1.0
1001
ACAD
1000
MTEXTBEGIN
1070
    73
1070
     1
1070
    44
1040
1.0
1070
    74
1070
     0
1000
MTEXTEND
  0
LINE
  5
1181
330
1178
100
AcDbEntity
  8
0
 62
     1
100
AcDbLine
 10
80.0
 20
74.7
 30
0.0
 11
80.0
 21
68.525
 31
0.0
  0
MTEXT
  5
1182
330
1178
100
AcDbEntity
  8
0
 62
     2
100
AcDbMText
 10
80.90000000000001
 20
73.34999999999999
 30
0.0
 40
3.5
 41
53.2
 71
     1
 72
     5
  1
ノリル(UL94V-1)
  7
ACISOTS
 73
     1
 44
1.0
1001
ACAD
1000
MTEXTBEGIN
1070
    73
1070
     1
1070
    44
1040
1.0
1070
    74
1070
     0
1000
MTEXTEND
  0
LINE
  5
1183
330
1178
100
AcDbEntity
  8
0
 62
     1
100
AcDbLine
 10
135.0
 20
74.7
 30
0.0
 11
135.0
 21
68.525
 31
0.0
  0
MTEXT
  5
1184
330
1178
100
AcDbEntity
  8
0
 62
     2
100
AcDbMText
 10
135.9
 20
73.34999999999999
 30
0.0
 40
3.5
 41
56.2
 71
     1
 72
     5
  1
グレー/ブラック
  7
ACISOTS
 73
     1
 44
1.0
1001
ACAD
1000
MTEXTBEGIN
1070
    73
1070
     1
1070
    44
1040
1.0
1070
    74
1070
     0
1000
MTEXTEND
  0
MTEXT
  5
1185
330
1178
100
AcDbEntity
  8
0
 62
     2
100
AcDbMText
 10
7.5
 20
67.175
 30
0.0
 40
3.5
 41
13.2
 71
     2
 72
     5
  1
2
  7
ACISOTS
 73
     1
 44
1.0
1001
ACAD
1000
MTEXTBEGIN
1070
    73
1070
     1
1070
    44
1040
1.0
1070
    74
1070
     0
1000
MTEXTEND
  0
LINE
  5
1186
330
1178
100
AcDbEntity
  8
0
 62
     1
100
AcDbLine
 10
15.0
 20
68.525
 30
0.0
 11
15.0
 21
62.35
 31
0.0
  0
MTEXT
  5
1187
330
1178
100
AcDbEntity
  8
0
 62
     2
100
AcDbMText
 10
15.9
 20
67.175
 30
0.0
 40
3.5
 41
48.2
 71
     1
 72
     5
  1
プレート
  7
ACISOTS
 73
     1
 44
1.0
1001
ACAD
1000
MTEXTBEGIN
1070
    73
1070
     1
1070
    44
1040
1.0
1070
    74
1070
     0
1000
MTEXTEND
  0
LINE
  5
1188
330
1178
100
AcDbEntity
  8
0
 62
     1
100
AcDbLine
 10
65.0
 20
68.525
 30
0.0
 11
65.0
 21
62.35
 31
0.0
  0
MTEXT
  5
1189
330
1178
100
AcDbEntity
  8
0
 62
     2
100
AcDbMText
 10
65.9
 20
67.175
 30
0.0
 40
3.5
 41
13.2
 71
     1
 72
     5
  1
1
  7
ACISOTS
 73
     1
 44
1.0
1001
ACAD
1000
MTEXTBEGIN
1070
    73
1070
     1
1070
    44
1040
1.0
1070
    74
1070
     0
1000
MTEXTEND
  0
LINE
  5
118A
330
1178
100
AcDbEntity
  8
0
 62
     1
100
AcDbLine
 10
80.0
 20
68.525
 30
0.0
 11
80.0
 21
62.35
 31
0.0
  0
MTEXT
  5
118B
330
1178
100
AcDbEntity
  8
0
 62
     2
100
AcDbMText
 10
80.90000000000001
 20
67.175
 30
0.0
 40
3.5
 41
53.2
 71
     1
 72
     5
  1
アルミ　ｔ1.5
  7
ACISOTS
 73
     1
 44
1.0
1001
ACAD
1000
MTEXTBEGIN
1070
    73
1070
     1
1070
    44
1040
1.0
1070
    74
1070
     0
1000
MTEXTEND
  0
LINE
  5
118C
330
1178
100
AcDbEntity
  8
0
 62
     1
100
AcDbLine
 10
135.0
 20
68.525
 30
0.0
 11
135.0
 21
62.35
 31
0.0
  0
MTEXT
  5
118D
330
1178
100
AcDbEntity
  8
0
 62
     2
100
AcDbMText
 10
135.9
 20
67.175
 30
0.0
 40
3.5
 41
56.2
 71
     1
 72
     5
  1
シルバーアルマイト
  7
ACISOTS
 73
     1
 44
1.0
1001
ACAD
1000
MTEXTBEGIN
1070
    73
1070
     1
1070
    44
1040
1.0
1070
    74
1070
     0
1000
MTEXTEND
  0
MTEXT
  5
118E
330
1178
100
AcDbEntity
  8
0
 62
     2
100
AcDbMText
 10
7.5
 20
61.0
 30
0.0
 40
3.5
 41
13.2
 71
     2
 72
     5
  1
3
  7
ACISOTS
 73
     1
 44
1.0
1001
ACAD
1000
MTEXTBEGIN
1070
    73
1070
     1
1070
    44
1040
1.0
1070
    74
1070
     0
1000
MTEXTEND
  0
LINE
  5
118F
330
1178
100
AcDbEntity
  8
0
 62
     1
100
AcDbLine
 10
15.0
 20
62.35
 30
0.0
 11
15.0
 21
56.17499999999999
 31
0.0
  0
MTEXT
  5
1190
330
1178
100
AcDbEntity
  8
0
 62
     2
100
AcDbMText
 10
15.9
 20
61.0
 30
0.0
 40
3.5
 41
48.2
 71
     1
 72
     5
  1
取付ビス
  7
ACISOTS
 73
     1
 44
1.0
1001
ACAD
1000
MTEXTBEGIN
1070
    73
1070
     1
1070
    44
1040
1.0
1070
    74
1070
     0
1000
MTEXTEND
  0
LINE
  5
1191
330
1178
100
AcDbEntity
  8
0
 62
     1
100
AcDbLine
 10
65.0
 20
62.35
 30
0.0
 11
65.0
 21
56.17499999999999
 31
0.0
  0
MTEXT
  5
1192
330
1178
100
AcDbEntity
  8
0
 62
     2
100
AcDbMText
 10
65.9
 20
61.0
 30
0.0
 40
3.5
 41
13.2
 71
     1
 72
     5
  1
2
  7
ACISOTS
 73
     1
 44
1.0
1001
ACAD
1000
MTEXTBEGIN
1070
    73
1070
     1
1070
    44
1040
1.0
1070
    74
1070
     0
1000
MTEXTEND
  0
LINE
  5
1193
330
1178
100
AcDbEntity
  8
0
 62
     1
100
AcDbLine
 10
80.0
 20
62.35
 30
0.0
 11
80.0
 21
56.17499999999999
 31
0.0
  0
MTEXT
  5
1194
330
1178
100
AcDbEntity
  8
0
 62
     2
100
AcDbMText
 10
80.90000000000001
 20
61.0
 30
0.0
 40
3.5
 41
53.2
 71
     1
 72
     5
  1
バインドM2.5X8
  7
ACISOTS
 73
     1
 44
1.0
1001
ACAD
1000
MTEXTBEGIN
1070
    73
1070
     1
1070
    44
1040
1.0
1070
    74
1070
     0
1000
MTEXTEND
  0
LINE
  5
1195
330
1178
100
AcDbEntity
  8
0
 62
     1
100
AcDbLine
 10
135.0
 20
62.35
 30
0.0
 11
135.0
 21
56.17499999999999
 31
0.0
  0
MTEXT
  5
1196
330
1178
100
AcDbEntity
  8
0
 62
     2
100
AcDbMText
 10
135.9
 20
61.0
 30
0.0
 40
3.5
 41
56.2
 71
     1
 72
     5
  1
ニッケルメッキ
  7
ACISOTS
 73
     1
 44
1.0
1001
ACAD
1000
MTEXTBEGIN
1070
    73
1070
     1
1070
    44
1040
1.0
1070
    74
1070
     0
1000
MTEXTEND
  0
MTEXT
  5
1197
330
1178
100
AcDbEntity
  8
0
 62
     2
100
AcDbMText
 10
7.5
 20
54.825
 30
0.0
 40
3.5
 41
13.2
 71
     2
 72
     5
  1
4
  7
ACISOTS
 73
     1
 44
1.0
1001
ACAD
1000
MTEXTBEGIN
1070
    73
1070
     1
1070
    44
1040
1.0
1070
    74
1070
     0
1000
MTEXTEND
  0
LINE
  5
1198
330
1178
100
AcDbEntity
  8
0
 62
     1
100
AcDbLine
 10
15.0
 20
56.17499999999999
 30
0.0
 11
15.0
 21
50.0
 31
0.0
  0
MTEXT
  5
1199
330
1178
100
AcDbEntity
  8
0
 62
     2
100
AcDbMText
 10
15.9
 20
54.825
 30
0.0
 40
3.5
 41
48.2
 71
     1
 72
     5
  1
取付ナット
  7
ACISOTS
 73
     1
 44
1.0
1001
ACAD
1000
MTEXTBEGIN
1070
    73
1070
     1
1070
    44
1040
1.0
1070
    74
1070
     0
1000
MTEXTEND
  0
LINE
  5
119A
330
1178
100
AcDbEntity
  8
0
 62
     1
100
AcDbLine
 10
65.0
 20
56.17499999999999
 30
0.0
 11
65.0
 21
50.0
 31
0.0
  0
MTEXT
  5
119B
330
1178
100
AcDbEntity
  8
0
 62
     2
100
AcDbMText
 10
65.9
 20
54.825
 30
0.0
 40
3.5
 41
13.2
 71
     1
 72
     5
  1
2
  7
ACISOTS
 73
     1
 44
1.0
1001
ACAD
1000
MTEXTBEGIN
1070
    73
1070
     1
1070
    44
1040
1.0
1070
    74
1070
     0
1000
MTEXTEND
  0
LINE
  5
119C
330
1178
100
AcDbEntity
  8
0
 62
     1
100
AcDbLine
 10
80.0
 20
56.17499999999999
 30
0.0
 11
80.0
 21
50.0
 31
0.0
  0
MTEXT
  5
119D
330
1178
100
AcDbEntity
  8
0
 62
     2
100
AcDbMText
 10
80.90000000000001
 20
54.825
 30
0.0
 40
3.5
 41
53.2
 71
     1
 72
     5
  1
ナットＭ2.5
  7
ACISOTS
 73
     1
 44
1.0
1001
ACAD
1000
MTEXTBEGIN
1070
    73
1070
     1
1070
    44
1040
1.0
1070
    74
1070
     0
1000
MTEXTEND
  0
LINE
  5
119E
330
1178
100
AcDbEntity
  8
0
 62
     1
100
AcDbLine
 10
135.0
 20
56.17499999999999
 30
0.0
 11
135.0
 21
50.0
 31
0.0
  0
MTEXT
  5
119F
330
1178
100
AcDbEntity
  8
0
 62
     2
100
AcDbMText
 10
135.9
 20
54.825
 30
0.0
 40
3.5
 41
56.2
 71
     1
 72
     5
  1
ニッケルメッキ
  7
ACISOTS
 73
     1
 44
1.0
1001
ACAD
1000
MTEXTBEGIN
1070
    73
1070
     1
1070
    44
1040
1.0
1070
    74
1070
     0
1000
MTEXTEND
  0
LINE
  5
11A0
330
1178
100
AcDbEntity
  8
0
 62
     1
100
AcDbLine
 10
0.0
 20
74.7
 30
0.0
 11
193.0
 21
74.7
 31
0.0
  0
MTEXT
  5
11A1
330
1178
100
AcDbEntity
  8
0
 62
     2
100
AcDbMText
 10
7.5
 20
79.525
 30
0.0
 40
3.5
 41
13.2
 71
     2
 72
     5
  1
照番
  7
ACISOTS
 73
     1
 44
1.0
1001
ACAD
1000
MTEXTBEGIN
1070
    73
1070
     1
1070
    44
1040
1.0
1070
    74
1070
     0
1000
MTEXTEND
  0
LINE
  5
11A2
330
1178
100
AcDbEntity
  8
0
 62
     1
100
AcDbLine
 10
15.0
 20
80.875
 30
0.0
 11
15.0
 21
74.7
 31
0.0
  0
MTEXT
  5
11A3
330
1178
100
AcDbEntity
  8
0
 62
     2
100
AcDbMText
 10
40.0
 20
79.525
 30
0.0
 40
3.5
 41
48.2
 71
     2
 72
     5
  1
名称
  7
ACISOTS
 73
     1
 44
1.0
1001
ACAD
1000
MTEXTBEGIN
1070
    73
1070
     1
1070
    44
1040
1.0
1070
    74
1070
     0
1000
MTEXTEND
  0
LINE
  5
11A4
330
1178
100
AcDbEntity
  8
0
 62
     1
100
AcDbLine
 10
65.0
 20
80.875
 30
0.0
 11
65.0
 21
74.7
 31
0.0
  0
MTEXT
  5
11A5
330
1178
100
AcDbEntity
  8
0
 62
     2
100
AcDbMText
 10
72.5
 20
79.525
 30
0.0
 40
3.5
 41
13.2
 71
     2
 72
     5
  1
個数
  7
ACISOTS
 73
     1
 44
1.0
1001
ACAD
1000
MTEXTBEGIN
1070
    73
1070
     1
1070
    44
1040
1.0
1070
    74
1070
     0
1000
MTEXTEND
  0
LINE
  5
11A6
330
1178
100
AcDbEntity
  8
0
 62
     1
100
AcDbLine
 10
80.0
 20
80.875
 30
0.0
 11
80.0
 21
74.7
 31
0.0
  0
MTEXT
  5
11A7
330
1178
100
AcDbEntity
  8
0
 62
     2
100
AcDbMText
 10
107.5
 20
79.525
 30
0.0
 40
3.5
 41
53.2
 71
     2
 72
     5
  1
材質
  7
ACISOTS
 73
     1
 44
1.0
1001
ACAD
1000
MTEXTBEGIN
1070
    73
1070
     1
1070
    44
1040
1.0
1070
    74
1070
     0
1000
MTEXTEND
  0
LINE
  5
11A8
330
1178
100
AcDbEntity
  8
0
 62
     1
100
AcDbLine
 10
135.0
 20
80.875
 30
0.0
 11
135.0
 21
74.7
 31
0.0
  0
MTEXT
  5
11A9
330
1178
100
AcDbEntity
  8
0
 62
     2
100
AcDbMText
 10
164.0
 20
79.525
 30
0.0
 40
3.5
 41
56.2
 71
     2
 72
     5
  1
色・表面処理
  7
ACISOTS
 73
     1
 44
1.0
1001
ACAD
1000
MTEXTBEGIN
1070
    73
1070
     1
1070
    44
1040
1.0
1070
    74
1070
     0
1000
MTEXTEND
  0
LINE
  5
11AA
330
1178
100
AcDbEntity
  8
0
 62
     7
100
AcDbLine
 10
0.0
 20
80.875
 30
0.0
 11
193.0
 21
80.875
 31
0.0
  0
LINE
  5
11AB
330
1178
100
AcDbEntity
  8
0
 62
     7
100
AcDbLine
 10
193.0
 20
80.875
 30
0.0
 11
193.0
 21
50.0
 31
0.0
  0
LINE
  5
11AC
330
1178
100
AcDbEntity
  8
0
 62
     7
100
AcDbLine
 10
193.0
 20
50.0
 30
0.0
 11
0.0
 21
50.0
 31
0.0
  0
LINE
  5
11AD
330
1178
100
AcDbEntity
  8
0
 62
     7
100
AcDbLine
 10
0.0
 20
50.0
 30
0.0
 11
0.0
 21
80.875
 31
0.0
  0
ENDBLK
  5
11AF
330
1178
100
AcDbEntity
  8
0
100
AcDbBlockEnd
  0
BLOCK
  5
11B6
330
11B1
100
AcDbEntity
  8
0
100
AcDbBlockBegin
  2
*S39
 70
     1
 10
0.0
 20
0.0
 30
0.0
  3
*S39
  1

  0
LINE
  5
11B2
330
11B1
100
AcDbEntity
  8
AM_5
 62
     3
100
AcDbLine
 10
34.21594620802253
 20
227.4430016399772
 30
0.0
 11
49.71835072760532
 21
223.4687577033389
 31
0.0
  0
TRACE
  5
11B3
330
11B1
100
AcDbEntity
  8
AM_5
  6
Continuous
 62
     3
100
AcDbTrace
 10
49.60392316947674
 20
223.0224080774532
 30
0.0
 11
49.83277828573388
 21
223.9151073292246
 31
0.0
 12
53.10871274926705
 22
222.5995941041968
 32
0.0
 13
53.10871274926705
 23
222.5995941041968
 33
0.0
  0
MTEXT
  5
11B4
330
11B1
100
AcDbEntity
  8
AM_5
 62
     7
100
AcDbMText
 10
28.28281267011448
 20
228.9640379384759
 30
0.0
 40
3.5
 41
0.0
 71
     5
 72
     5
  1
1
  7
ACISOTS
 73
     1
 44
1.0
1001
ACAD
1000
MTEXTBEGIN
1070
    73
1070
     1
1070
    44
1040
1.0
1070
    74
1070
     0
1000
MTEXTEND
  0
CIRCLE
  5
11B5
330
11B1
100
AcDbEntity
  8
AM_5
 62
     3
100
AcDbCircle
 10
28.28281267011448
 20
228.9640379384759
 30
0.0
 40
6.125
  0
ENDBLK
  5
11B7
330
11B1
100
AcDbEntity
  8
0
100
AcDbBlockEnd
  0
BLOCK
  5
11BE
330
11B9
100
AcDbEntity
  8
0
100
AcDbBlockBegin
  2
*S40
 70
     1
 10
0.0
 20
0.0
 30
0.0
  3
*S40
  1

  0
LINE
  5
11BA
330
11B9
100
AcDbEntity
  8
AM_5
 62
     3
100
AcDbLine
 10
34.20491505358835
 20
131.795073891127
 30
0.0
 11
49.79210334399951
 21
125.2565655316925
 31
0.0
  0
TRACE
  5
11BB
330
11B9
100
AcDbEntity
  8
AM_5
  6
Continuous
 62
     3
100
AcDbTrace
 10
49.61386087697005
 20
124.8316522728562
 30
0.0
 11
49.97034581102896
 21
125.6814787905288
 31
0.0
 12
53.01963999175689
 22
123.9026795736506
 32
0.0
 13
53.01963999175689
 23
123.9026795736506
 33
0.0
  0
MTEXT
  5
11BC
330
11B9
100
AcDbEntity
  8
AM_5
 62
     7
100
AcDbMText
 10
28.55672592001292
 20
134.1643743177003
 30
0.0
 40
3.5
 41
0.0
 71
     5
 72
     5
  1
2
  7
ACISOTS
 73
     1
 44
1.0
1001
ACAD
1000
MTEXTBEGIN
1070
    73
1070
     1
1070
    44
1040
1.0
1070
    74
1070
     0
1000
MTEXTEND
  0
CIRCLE
  5
11BD
330
11B9
100
AcDbEntity
  8
AM_5
 62
     3
100
AcDbCircle
 10
28.55672592001292
 20
134.1643743177003
 30
0.0
 40
6.125
  0
ENDBLK
  5
11BF
330
11B9
100
AcDbEntity
  8
0
100
AcDbBlockEnd
  0
ENDSEC
  0
SECTION
  2
ENTITIES
  0
INSERT
  5
5E3
330
1F
100
AcDbEntity
  8
0
370
     0
100
AcDbBlockReference
  2
TK-A4
 10
0.0
 20
0.0
 30
0.0
1001
GENIUS_GENOREF_13
1005
64C
1001
GENIUS_GENODEF_13
1002
{
1000
HIER
1070
     0
1002
}
1002
{
1000
MANEDIT
1070
     0
1002
}
1002
{
1000
NOSEL
1070
     0
1002
}
1002
{
1000
BEHIND
1070
     0
1002
}
1002
{
1000
OTHER
1070
     0
1002
}
1002
{
1000
REACTOR
1002
}
1001
GENIUS_GENOBJ-N-SDF_13
1002
{
1000
OWNER
1000
GEN
1002
}
1001
GENIUS_GENSCREG_15
1040
1.0
1040
1.0
1011
0.0
1021
0.0
1031
0.0
1011
193.0
1021
280.0000000000001
1031
0.0
1070
     3
  0
POINT
  5
64C
330
1F
100
AcDbEntity
  8
0
 60
     1
100
AcDbPoint
 10
0.0
 20
0.0
 30
0.0
1001
GENIUS_GENOBJ-N-TIT_13
1002
{
1000
OWNER
1000
GEN
1002
}
1001
GENIUS_GENOENT_13
1002
{
1000
MYREF
1005
64C
1002
}
1002
{
1000
GRP
1005
0
1002
}
1001
GENIUS_GENODEF_13
1002
{
1000
HIER
1070
     1
1002
}
1002
{
1000
MANEDIT
1070
     1
1002
}
1002
{
1000
NOSEL
1070
     0
1002
}
1002
{
1000
BEHIND
1070
     0
1002
}
1002
{
1000
OTHER
1070
     0
1002
}
1002
{
1000
REACTOR
1002
}
1001
GENIUS_GENOLIS_13
1002
{
1000
ENT
1005
5E3
1005
CFC
1002
}
1001
GENIUS_GENTITLE_13
1002
{
1000
BORDER
1000
TK-A4
1002
}
1002
{
1000
TITLE
1000
TK-TITLE
1002
}
1002
{
1000
SCALE
1000
1:1
1002
}
1002
{
1000
TITLESTD
1000
ISO
1002
}
1002
{
1000
HRA
1005
5E3
1002
}
1002
{
1000
HTIT
1005
CFC
1002
}
1002
{
1000
GENIUSID
1005
64C
1002
}
1002
{
1000
INVTXTID
1005
0
1002
}
1002
{
1000
UNCHG
1002
{
1000
GEN-TITLE-SIZ
1000
GEN-TITLE-SCA
1002
}
1002
}
  0
LINE
  5
771
330
1F
100
AcDbEntity
  8
ハンドル
 62
     0
100
AcDbLine
 10
122.1834248755437
 20
193.4570784034428
 30
0.0
 11
122.1834248755437
 21
193.3570784034428
 31
0.0
  0
LINE
  5
772
102
{ACAD_REACTORS
330
7C3
102
}
330
1F
100
AcDbEntity
  8
ハンドル
 62
     0
100
AcDbLine
 10
122.1834248755437
 20
193.3570784034428
 30
0.0
 11
123.6834248755436
 21
193.3570784034428
 31
0.0
  0
LINE
  5
773
330
1F
100
AcDbEntity
  8
ハンドル
 62
     0
100
AcDbLine
 10
122.1834248755437
 20
194.3570784034428
 30
0.0
 11
122.1834248755437
 21
193.4570784034428
 31
0.0
  0
LINE
  5
774
330
1F
100
AcDbEntity
  8
ハンドル
 62
     0
100
AcDbLine
 10
128.1834248755436
 20
190.8570784034428
 30
0.0
 11
136.1834248755436
 21
190.8570784034428
 31
0.0
  0
LINE
  5
775
330
1F
100
AcDbEntity
  8
ハンドル
 62
     0
100
AcDbLine
 10
123.6834248755436
 20
194.3570784034428
 30
0.0
 11
128.1834248755436
 21
190.8570784034428
 31
0.0
  0
LINE
  5
776
330
1F
100
AcDbEntity
  8
ハンドル
 62
     0
100
AcDbLine
 10
122.1834248755437
 20
194.3570784034428
 30
0.0
 11
123.6834248755436
 21
194.3570784034428
 31
0.0
  0
LINE
  5
777
102
{ACAD_REACTORS
330
9A9
102
}
330
1F
100
AcDbEntity
  8
ハンドル
100
AcDbLine
 10
136.1834248755436
 20
190.8570784034428
 30
0.0
 11
136.1834248755436
 21
186.8570784034428
 31
0.0
  0
LINE
  5
778
102
{ACAD_REACTORS
330
7C3
102
}
330
1F
100
AcDbEntity
  8
ハンドル
100
AcDbLine
 10
123.6834248755436
 20
180.3570784034428
 30
0.0
 11
123.6834248755436
 21
193.3570784034428
 31
0.0
  0
LINE
  5
779
330
1F
100
AcDbEntity
  8
ハンドル
100
AcDbLine
 10
136.1834248755436
 20
182.8570784034428
 30
0.0
 11
136.1834248755436
 21
186.8570784034428
 31
0.0
  0
LINE
  5
77A
330
1F
100
AcDbEntity
  8
ハンドル
 62
     0
100
AcDbLine
 10
122.1834248755437
 20
179.3570784034428
 30
0.0
 11
123.6834248755436
 21
179.3570784034428
 31
0.0
  0
LINE
  5
77B
330
1F
100
AcDbEntity
  8
ハンドル
 62
     0
100
AcDbLine
 10
123.6834248755436
 20
179.3570784034428
 30
0.0
 11
128.1834248755436
 21
182.8570784034428
 31
0.0
  0
LINE
  5
77C
102
{ACAD_REACTORS
330
8D4
330
8FA
330
922
330
9A9
102
}
330
1F
100
AcDbEntity
  8
ハンドル
 62
     0
100
AcDbLine
 10
128.1834248755436
 20
182.8570784034428
 30
0.0
 11
136.1834248755436
 21
182.8570784034428
 31
0.0
  0
LINE
  5
77D
102
{ACAD_REACTORS
330
8D4
102
}
330
1F
100
AcDbEntity
  8
ハンドル
 62
     0
100
AcDbLine
 10
122.1834248755437
 20
179.3570784034428
 30
0.0
 11
122.1834248755437
 21
180.2570784034428
 31
0.0
  0
LINE
  5
77E
330
1F
100
AcDbEntity
  8
ハンドル
 62
     0
100
AcDbLine
 10
122.1834248755437
 20
180.3570784034428
 30
0.0
 11
123.6834248755436
 21
180.3570784034428
 31
0.0
  0
LINE
  5
77F
330
1F
100
AcDbEntity
  8
ハンドル
 62
     0
100
AcDbLine
 10
122.1834248755437
 20
180.2570784034428
 30
0.0
 11
122.1834248755437
 21
180.3570784034428
 31
0.0
  0
LINE
  5
780
330
1F
100
AcDbEntity
  8
ハンドル
100
AcDbLine
 10
49.07543118358383
 20
227.6454683191202
 30
0.0
 11
88.37543118358382
 21
227.6454683191202
 31
0.0
  0
LINE
  5
781
102
{ACAD_REACTORS
330
7BF
102
}
330
1F
100
AcDbEntity
  8
ハンドル
100
AcDbLine
 10
88.37543118358382
 20
227.6454683191202
 30
0.0
 11
88.37543118358382
 21
213.6454683191201
 31
0.0
  0
LINE
  5
782
330
1F
100
AcDbEntity
  8
ハンドル
100
AcDbLine
 10
88.37543118358382
 20
213.6454683191201
 30
0.0
 11
49.07543118358383
 21
213.6454683191201
 31
0.0
  0
LINE
  5
783
330
1F
100
AcDbEntity
  8
ハンドル
100
AcDbLine
 10
49.07543118358383
 20
219.6454683191201
 30
0.0
 11
88.37543118358382
 21
219.6454683191201
 31
0.0
  0
LINE
  5
784
330
1F
100
AcDbEntity
  8
ハンドル0
100
AcDbLine
 10
49.07543118358383
 20
215.1454683191202
 30
0.0
 11
88.37543118358382
 21
215.1454683191201
 31
0.0
  0
LINE
  5
785
330
1F
100
AcDbEntity
  8
ハンドル
 62
     0
100
AcDbLine
 10
88.37543118358395
 20
179.3570784034429
 30
0.0
 11
49.07543118358383
 21
179.3570784034429
 31
0.0
  0
LINE
  5
786
330
1F
100
AcDbEntity
  8
ハンドル
 62
     0
100
AcDbLine
 10
49.07543118358383
 20
194.3570784034428
 30
0.0
 11
88.37543118358395
 21
194.3570784034428
 31
0.0
  0
LINE
  5
787
102
{ACAD_REACTORS
330
7B3
330
7C6
102
}
330
1F
100
AcDbEntity
  8
ハンドル
 62
     0
100
AcDbLine
 10
88.37543118358388
 20
194.3570784034428
 30
0.0
 11
88.37543118358388
 21
179.3570784034429
 31
0.0
  0
LINE
  5
788
330
1F
100
AcDbEntity
  8
ハンドル
 62
     0
100
AcDbLine
 10
88.37543118358395
 20
180.3570784034429
 30
0.0
 11
49.07543118358383
 21
180.3570784034429
 31
0.0
  0
LINE
  5
789
330
1F
100
AcDbEntity
  8
ハンドル
 62
     0
100
AcDbLine
 10
88.37543118358395
 20
193.3570784034428
 30
0.0
 11
49.07543118358383
 21
193.3570784034428
 31
0.0
  0
LINE
  5
78A
330
1F
100
AcDbEntity
  8
ハンドル
100
AcDbLine
 10
136.1834248755436
 20
188.0070784034428
 30
0.0
 11
137.7834248755437
 21
188.0070784034428
 31
0.0
  0
LINE
  5
78B
330
1F
100
AcDbEntity
  8
ハンドル
100
AcDbLine
 10
137.7834248755437
 20
185.7070784034428
 30
0.0
 11
136.1834248755436
 21
185.7070784034428
 31
0.0
  0
LINE
  5
78C
102
{ACAD_REACTORS
330
7B3
330
7BC
102
}
330
1F
100
AcDbEntity
  8
ハンドル
100
AcDbLine
 10
49.07543118358383
 20
194.3570784034428
 30
0.0
 11
49.07543118358383
 21
179.3570784034429
 31
0.0
  0
LINE
  5
78D
330
1F
100
AcDbEntity
  8
ハンドル
100
AcDbLine
 10
49.07543118358383
 20
227.6454683191202
 30
0.0
 11
49.07543118358383
 21
213.6454683191202
 31
0.0
  0
LINE
  5
78E
102
{ACAD_REACTORS
330
922
102
}
330
1F
100
AcDbEntity
  8
ハンドル
100
AcDbLine
 10
138.4834248755437
 20
187.6070784034428
 30
0.0
 11
138.4834248755437
 21
186.1070784034428
 31
0.0
  0
LINE
  5
78F
330
1F
100
AcDbEntity
  8
ハンドル
100
AcDbLine
 10
137.7834248755437
 20
188.0070784034428
 30
0.0
 11
138.4834248755437
 21
187.6070784034428
 31
0.0
  0
LINE
  5
790
330
1F
100
AcDbEntity
  8
ハンドル
100
AcDbLine
 10
137.7834248755437
 20
185.7070784034428
 30
0.0
 11
138.4834248755435
 21
186.1070784034428
 31
0.0
  0
LINE
  5
791
102
{ACAD_REACTORS
330
7CC
102
}
330
1F
100
AcDbEntity
  8
ハンドル
100
AcDbLine
 10
137.7834248755437
 20
188.0070784034428
 30
0.0
 11
137.7834248755437
 21
185.7070784034428
 31
0.0
  0
LINE
  5
792
330
1F
100
AcDbEntity
  8
ハンドル
100
AcDbLine
 10
51.07543118358383
 20
189.3570784034428
 30
0.0
 11
86.37543118358388
 21
189.3570784034428
 31
0.0
  0
LINE
  5
793
330
1F
100
AcDbEntity
  8
ハンドル
100
AcDbLine
 10
51.07543118358383
 20
184.3570784034428
 30
0.0
 11
86.37543118358388
 21
184.3570784034428
 31
0.0
  0
CIRCLE
  5
794
102
{ACAD_REACTORS
330
7C6
330
977
102
}
330
1F
100
AcDbEntity
  8
ハンドル
100
AcDbCircle
 10
81.42543118358389
 20
186.8570784034428
 30
0.0
 40
1.35
  0
LINE
  5
795
330
1F
100
AcDbEntity
  8
ハンドル
100
AcDbLine
 10
51.07543118358383
 20
193.3570784034428
 30
0.0
 11
51.07543118358383
 21
180.3570784034429
 31
0.0
  0
LINE
  5
796
330
1F
100
AcDbEntity
  8
ハンドル
100
AcDbLine
 10
86.37543118358388
 20
193.3570784034428
 30
0.0
 11
86.37543118358388
 21
180.3570784034429
 31
0.0
  0
LINE
  5
79D
330
1F
100
AcDbEntity
  8
ハンドル
100
AcDbLine
 10
85.35543118358388
 20
227.6454683191202
 30
0.0
 11
85.3554311835839
 21
229.2454683191202
 31
0.0
  0
LINE
  5
79E
330
1F
100
AcDbEntity
  8
ハンドル
100
AcDbLine
 10
87.65543118358388
 20
229.2454683191202
 30
0.0
 11
87.65543118358388
 21
227.6454683191202
 31
0.0
  0
LINE
  5
79F
330
1F
100
AcDbEntity
  8
ハンドル
100
AcDbLine
 10
85.75543118358387
 20
229.9454683191202
 30
0.0
 11
87.25543118358388
 21
229.9454683191202
 31
0.0
  0
LINE
  5
7A0
330
1F
100
AcDbEntity
  8
ハンドル
100
AcDbLine
 10
85.3554311835839
 20
229.2454683191202
 30
0.0
 11
85.75543118358387
 21
229.9454683191202
 31
0.0
  0
LINE
  5
7A1
330
1F
100
AcDbEntity
  8
ハンドル
100
AcDbLine
 10
87.65543118358388
 20
229.2454683191202
 30
0.0
 11
87.25543118358388
 21
229.9454683191201
 31
0.0
  0
LINE
  5
7A2
330
1F
100
AcDbEntity
  8
ハンドル
100
AcDbLine
 10
85.3554311835839
 20
229.2454683191202
 30
0.0
 11
87.65543118358388
 21
229.2454683191202
 31
0.0
  0
LINE
  5
7A3
330
1F
100
AcDbEntity
  8
プレート
100
AcDbLine
 10
49.07543118358383
 20
128.5790870042926
 30
0.0
 11
88.37543118358388
 21
128.5790870042926
 31
0.0
  0
LINE
  5
7A4
330
1F
100
AcDbEntity
  8
プレート
100
AcDbLine
 10
88.37543118358388
 20
128.5790870042926
 30
0.0
 11
88.37543118358388
 21
115.1790870042926
 31
0.0
  0
LINE
  5
7A5
102
{ACAD_REACTORS
330
7AD
102
}
330
1F
100
AcDbEntity
  8
プレート
100
AcDbLine
 10
88.37543118358388
 20
115.1790870042926
 30
0.0
 11
49.07543118358383
 21
115.1790870042926
 31
0.0
  0
LINE
  5
7A6
102
{ACAD_REACTORS
330
7AD
102
}
330
1F
100
AcDbEntity
  8
プレート
100
AcDbLine
 10
49.07543118358383
 20
115.1790870042926
 30
0.0
 11
49.07543118358383
 21
128.5790870042926
 31
0.0
  0
LINE
  5
7A7
330
1F
100
AcDbEntity
  8
プレート
100
AcDbLine
 10
123.6834248755436
 20
128.5790870042926
 30
0.0
 11
122.1834248755437
 21
128.5790870042926
 31
0.0
  0
LINE
  5
7A8
330
1F
100
AcDbEntity
  8
プレート
100
AcDbLine
 10
122.1834248755437
 20
128.5790870042926
 30
0.0
 11
122.1834248755437
 21
115.1790870042926
 31
0.0
  0
LINE
  5
7A9
330
1F
100
AcDbEntity
  8
プレート
100
AcDbLine
 10
122.1834248755437
 20
115.1790870042926
 30
0.0
 11
123.6834248755436
 21
115.1790870042926
 31
0.0
  0
LINE
  5
7AA
102
{ACAD_REACTORS
330
7B0
102
}
330
1F
100
AcDbEntity
  8
プレート
100
AcDbLine
 10
123.6834248755436
 20
115.1790870042926
 30
0.0
 11
123.6834248755436
 21
128.5790870042926
 31
0.0
  0
DIMENSION
  5
7AB
102
{ACAD_XDICTIONARY
360
7AC
102
}
102
{ACAD_REACTORS
330
7AD
102
}
330
1F
100
AcDbEntity
  8
AM_5
100
AcDbDimension
  2
*D9
 10
88.37543118358388
 20
103.1790870042926
 30
0.0
 11
68.72543118358385
 21
106.4290870042926
 31
0.0
 70
    32
 71
     5
 42
39.30000000000005
  3
AM_ISO$0
100
AcDbAlignedDimension
 13
49.07543118358383
 23
115.1790870042926
 33
0.0
 14
88.37543118358388
 24
115.1790870042926
 34
0.0
100
AcDbRotatedDimension
1001
ACAD
1000
DSTYLE
1002
{
1070
    40
1040
1.0
1070
   144
1040
1.0
1002
}
  0
DIMENSION
  5
7AE
102
{ACAD_XDICTIONARY
360
7AF
102
}
102
{ACAD_REACTORS
330
7B0
102
}
330
1F
100
AcDbEntity
  8
AM_5
100
AcDbDimension
  2
*D10
 10
135.6834258755436
 20
115.1790870042926
 30
0.0
 11
132.4334258755436
 21
121.8790870042926
 31
0.0
 70
    32
 71
     5
 42
13.4
  3
AM_ISO$0
100
AcDbAlignedDimension
 13
123.6834248755436
 23
128.5790870042926
 33
0.0
 14
123.6834248755436
 24
115.1790870042926
 34
0.0
 50
90.0
100
AcDbRotatedDimension
1001
ACAD
1000
DSTYLE
1002
{
1070
    40
1040
1.0
1070
   144
1040
1.0
1002
}
  0
DIMENSION
  5
7B1
102
{ACAD_XDICTIONARY
360
7B2
102
}
102
{ACAD_REACTORS
330
7B3
102
}
330
1F
100
AcDbEntity
  8
AM_5
100
AcDbDimension
  2
*D11
 10
88.37543118358388
 20
160.821225106084
 30
0.0
 11
68.72543118358385
 21
164.071225106084
 31
0.0
 70
    32
 71
     5
 42
39.30000000000005
  3
AM_ISO$0
100
AcDbAlignedDimension
 13
49.07543118358383
 23
179.3570784034429
 33
0.0
 14
88.37543118358388
 24
179.3570784034428
 34
0.0
100
AcDbRotatedDimension
1001
ACAD
1000
DSTYLE
1002
{
1070
    40
1040
1.0
1070
   144
1040
1.0
1002
}
  0
DIMENSION
  5
7BA
102
{ACAD_XDICTIONARY
360
7BB
102
}
102
{ACAD_REACTORS
330
7BC
102
}
330
1F
100
AcDbEntity
  8
AM_5
100
AcDbDimension
  2
*D12
 10
42.75366101805097
 20
179.3570784034429
 30
0.0
 11
42.75366101805095
 21
187.7310858112854
 31
0.0
 70
   160
 71
     5
 42
14.99999999999997
  3
AM_ISO$0
100
AcDbAlignedDimension
 13
49.07543118358383
 23
194.3570784034428
 33
0.0
 14
49.07543118358383
 24
179.3570784034429
 34
0.0
 50
90.0
100
AcDbRotatedDimension
1001
ACAD
1000
DSTYLE
1002
{
1070
    40
1040
1.0
1070
   144
1040
1.0
1002
}
  0
DIMENSION
  5
7BD
102
{ACAD_XDICTIONARY
360
7BE
102
}
102
{ACAD_REACTORS
330
7BF
102
}
330
1F
100
AcDbEntity
  8
AM_5
100
AcDbDimension
  2
*D13
 10
88.37543118358382
 20
241.9454683191202
 30
0.0
 11
98.20043118358384
 21
245.1954683191202
 31
0.0
 70
    32
 71
     5
 42
1.869999999999947
  3
AM_ISO$0
100
AcDbAlignedDimension
 13
86.50543118358388
 23
229.9454683191202
 33
0.0
 14
88.37543118358382
 24
227.6454683191202
 34
0.0
100
AcDbRotatedDimension
1001
ACAD
1000
DSTYLE
1002
{
1070
    40
1040
1.0
1070
   144
1040
1.0
1002
}
  0
DIMENSION
  5
7C1
102
{ACAD_XDICTIONARY
360
7C2
102
}
102
{ACAD_REACTORS
330
7C3
102
}
330
1F
100
AcDbEntity
  8
AM_5
100
AcDbDimension
  2
*D14
 10
123.6834248755436
 20
203.192567522467
 30
0.0
 11
132.3559122489589
 21
203.192567522467
 31
0.0
 70
   160
 71
     5
 42
1.499999999999971
  3
AM_ISO$0
100
AcDbAlignedDimension
 13
122.1834248755437
 23
193.3570784034428
 33
0.0
 14
123.6834248755436
 24
193.3570784034428
 34
0.0
100
AcDbRotatedDimension
1001
ACAD
1000
DSTYLE
1002
{
1070
    40
1040
1.0
1070
   144
1040
1.0
1002
}
  0
DIMENSION
  5
7C4
102
{ACAD_XDICTIONARY
360
7C5
102
}
102
{ACAD_REACTORS
330
7C6
102
}
330
1F
100
AcDbEntity
  8
AM_5
100
AcDbDimension
  2
*D15
 10
88.37543118358389
 20
203.0461661041213
 30
0.0
 11
98.73375804481298
 21
203.0461661041213
 31
0.0
 70
   160
 71
     5
 42
6.950000000000002
  3
AM_ISO$0
100
AcDbAlignedDimension
 13
81.42543118358389
 23
186.8570784034428
 33
0.0
 14
88.37543118358389
 24
194.3570784034428
 34
0.0
100
AcDbRotatedDimension
1001
ACAD
1000
DSTYLE
1002
{
1070
    40
1040
1.0
1070
   144
1040
1.0
1002
}
  0
DIMENSION
  5
7CA
102
{ACAD_XDICTIONARY
360
7CB
102
}
102
{ACAD_REACTORS
330
7CC
102
}
330
1F
100
AcDbEntity
  8
AM_5
100
AcDbDimension
  2
*D16
 10
147.4872884738617
 20
185.7070784034428
 30
0.0
 11
147.4872884738616
 21
197.074004753236
 31
0.0
 70
   160
 71
     5
 42
2.299999999999982
  3
AM_ISO$0
100
AcDbAlignedDimension
 13
137.7834248755437
 23
188.0070784034428
 33
0.0
 14
137.7834248755437
 24
185.7070784034428
 34
0.0
 50
90.0
100
AcDbRotatedDimension
1001
ACAD
1000
DSTYLE
1002
{
1070
    40
1040
1.0
1070
   144
1040
1.0
1002
}
  0
INSERT
  5
7D0
102
{ACAD_REACTORS
330
76D
102
}
330
1F
100
AcDbEntity
  8
AM_12
100
AcDbBlockReference
  2
*S32
 10
0.0
 20
0.0
 30
0.0
  0
INSERT
  5
7D2
102
{ACAD_REACTORS
330
76E
102
}
330
1F
100
AcDbEntity
  8
AM_12
100
AcDbBlockReference
  2
*S33
 10
0.0
 20
0.0
 30
0.0
  0
DIMENSION
  5
8C8
102
{ACAD_XDICTIONARY
360
8D3
102
}
102
{ACAD_REACTORS
330
8D4
102
}
330
1F
100
AcDbEntity
  8
AM_5
100
AcDbDimension
  2
*D17
 10
136.1834248755436
 20
167.3570784034428
 30
0.0
 11
129.1834248755436
 21
170.6070784034428
 31
0.0
 70
    32
 71
     5
 42
14.0
  3
AM_ISO$0
100
AcDbAlignedDimension
 13
122.1834248755437
 23
179.3570784034428
 33
0.0
 14
136.1834248755436
 24
182.8570784034428
 34
0.0
 50
0.0000000000001018
100
AcDbRotatedDimension
1001
ACAD
1000
DSTYLE
1002
{
1070
    40
1040
1.0
1070
   144
1040
1.0
1002
}
  0
DIMENSION
  5
8EC
102
{ACAD_XDICTIONARY
360
8F9
102
}
102
{ACAD_REACTORS
330
8FA
102
}
330
1F
100
AcDbEntity
  8
AM_5
100
AcDbDimension
  2
*D18
 10
136.1834248755436
 20
174.5912097323874
 30
0.0
 11
132.1834248755436
 21
177.8412097323874
 31
0.0
 70
    32
 71
     5
 42
8.0
  3
AM_ISO$0
100
AcDbAlignedDimension
 13
128.1834248755436
 23
182.8570784034428
 33
0.0
 14
136.1834248755436
 24
182.8570784034428
 34
0.0
 50
0.0000000000001018
100
AcDbRotatedDimension
1001
ACAD
1000
DSTYLE
1002
{
1070
    40
1040
1.0
1070
   144
1040
1.0
1002
}
  0
DIMENSION
  5
914
102
{ACAD_XDICTIONARY
360
921
102
}
102
{ACAD_REACTORS
330
922
102
}
330
1F
100
AcDbEntity
  8
AM_5
100
AcDbDimension
  2
*D19
 10
138.4834248755437
 20
167.3570784034428
 30
0.0
 11
147.5503512253369
 21
170.6074228916318
 31
0.0
 70
    32
 71
     5
 42
2.300000000000011
  3
AM_ISO$0
100
AcDbAlignedDimension
 13
136.1834248755436
 23
182.8570784034428
 33
0.0
 14
138.4834248755437
 24
186.1070784034428
 34
0.0
 50
0.0000000000001018
100
AcDbRotatedDimension
1001
ACAD
1000
DSTYLE
1002
{
1070
    40
1040
1.0
1070
   144
1040
1.0
1002
}
  0
DIMENSION
  5
96F
102
{ACAD_XDICTIONARY
360
976
102
}
102
{ACAD_REACTORS
330
977
102
}
330
1F
100
AcDbEntity
  8
AM_5
100
AcDbDimension
  2
*D20
 10
82.10138070632813
 20
188.0256639769898
 30
0.0
 11
65.54335133936691
 21
173.4898125715458
 31
0.0
 70
   163
  1
4-<>
 71
     5
 42
2.700000000000159
  3
AM_ISO$3
100
AcDbDiametricDimension
 15
80.74948166083975
 25
185.6884928298959
 35
0.0
 40
0.0
1001
ACAD
1000
DSTYLE
1002
{
1070
    40
1040
1.0
1070
   144
1040
1.0
1002
}
  0
DIMENSION
  5
99B
102
{ACAD_XDICTIONARY
360
9A8
102
}
102
{ACAD_REACTORS
330
9A9
102
}
330
1F
100
AcDbEntity
  8
AM_5
100
AcDbDimension
  2
*D21
 10
155.3886310689357
 20
182.8570784034428
 30
0.0
 11
152.1386310689357
 21
186.8570784034428
 31
0.0
 70
    32
 71
     5
 42
8.0
  3
AM_ISO$0
100
AcDbAlignedDimension
 13
136.1834248755436
 23
190.8570784034428
 33
0.0
 14
136.1834248755436
 24
182.8570784034428
 34
0.0
 50
90.0
100
AcDbRotatedDimension
1001
ACAD
1000
DSTYLE
1002
{
1070
    40
1040
1.0
1070
   144
1040
1.0
1002
}
  0
INSERT
  5
B81
102
{ACAD_REACTORS
330
B80
102
}
330
1F
100
AcDbEntity
  8
AM_12
100
AcDbBlockReference
  2
*S34
 10
0.0
 20
0.0
 30
0.0
  0
INSERT
  5
B83
102
{ACAD_REACTORS
330
B82
102
}
330
1F
100
AcDbEntity
  8
AM_5
100
AcDbBlockReference
  2
*S35
 10
0.0
 20
0.0
 30
0.0
  0
INSERT
  5
B85
102
{ACAD_REACTORS
330
B84
102
}
330
1F
100
AcDbEntity
  8
AM_12
100
AcDbBlockReference
  2
*S36
 10
0.0
 20
0.0
 30
0.0
  0
INSERT
  5
B87
102
{ACAD_REACTORS
330
B86
102
}
330
1F
100
AcDbEntity
  8
AM_5
100
AcDbBlockReference
  2
*S37
 10
0.0
 20
0.0
 30
0.0
  0
INSERT
  5
CFC
330
1F
100
AcDbEntity
  8
0
370
     0
100
AcDbBlockReference
 66
     1
  2
TK-TITLE
 10
193.0
 20
0.0
 30
0.0
1001
GENIUS_GENOREF_13
1005
64C
  0
ATTRIB
  5
CFE
330
CFC
100
AcDbEntity
  8
0
100
AcDbText
 10
184.9976908104542
 20
1.705189434395036
 30
0.0
 40
2.5
  1

100
AcDbAttribute
  2
GEN-TITLE-NR2
 70
     0
  0
ATTRIB
  5
CFF
330
CFC
100
AcDbEntity
  8
0
100
AcDbText
 10
108.8574809841467
 20
12.82790432564377
 30
0.0
 40
3.5
  1
HN-40□
100
AcDbAttribute
  2
GEN-TITLE-DES1
 70
     0
  0
ATTRIB
  5
D00
330
CFC
100
AcDbEntity
  8
0
100
AcDbText
 10
109.0
 20
9.149999999999948
 30
0.0
 40
2.5
  1
HN型ハンドル
100
AcDbAttribute
  2
GEN-TITLE-DES2
 70
     0
  0
ATTRIB
  5
D01
330
CFC
100
AcDbEntity
  8
0
100
AcDbText
 10
109.0
 20
1.999999999999957
 30
0.0
 40
3.0
  1

100
AcDbAttribute
  2
GEN-TITLE-NR1
 70
     0
  0
ATTRIB
  5
D02
330
CFC
100
AcDbEntity
  8
0
100
AcDbText
 10
44.03813241647083
 20
43.29999999999991
 30
0.0
 40
3.0
  1

100
AcDbAttribute
  2
GEN-TITLE-MAT1
 70
     0
  0
ATTRIB
  5
D03
330
CFC
100
AcDbEntity
  8
0
100
AcDbText
 10
44.03813241647083
 20
33.29999999999991
 30
0.0
 40
3.0
  1

100
AcDbAttribute
  2
GEN-TITLE-MAT2
 70
     0
  0
ATTRIB
  5
D04
330
CFC
100
AcDbEntity
  8
0
100
AcDbText
 10
17.38725908739047
 20
16.19999999999994
 30
0.0
 40
3.0
  1

 72
     2
 11
17.38725908739047
 21
15.79999999999994
 31
0.0
100
AcDbAttribute
  2
GEN-TITLE-QTY
 70
     0
 74
     1
  0
ATTRIB
  5
D05
330
CFC
100
AcDbEntity
  8
0
100
AcDbText
 10
11.72526038557594
 20
28.69999999999997
 30
0.0
 40
3.0
  1
1:1
 72
     2
 11
15.17526038557594
 21
28.29999999999998
 31
0.0
100
AcDbAttribute
  2
GEN-TITLE-SCA
 70
     0
 74
     1
  0
ATTRIB
  5
D06
330
CFC
100
AcDbEntity
  8
0
100
AcDbText
 10
2.164472786863633
 20
3.988342537610664
 30
0.0
 40
3.0
  1
2009/04/20
 72
     1
 11
12.78280483378614
 21
3.588342537610664
 31
0.0
100
AcDbAttribute
  2
GEN-TITLE-DAT
 70
     0
 74
     1
  0
SEQEND
  5
CFD
330
CFC
100
AcDbEntity
  8
0
370
     0
  0
INSERT
  5
D09
102
{ACAD_REACTORS
330
956
102
}
330
1F
100
AcDbEntity
  8
0
100
AcDbBlockReference
  2
*S38
 10
0.0
 20
0.0
 30
0.0
  0
INSERT
  5
DB8
102
{ACAD_REACTORS
330
957
102
}
330
1F
100
AcDbEntity
  8
AM_5
100
AcDbBlockReference
  2
*S39
 10
0.0
 20
0.0
 30
0.0
  0
CIRCLE
  5
DE3
330
1F
100
AcDbEntity
  8
ハンドル
100
AcDbCircle
 10
76.3454311835839
 20
186.8570784034428
 30
0.0
 40
1.35
  0
DIMENSION
  5
DEA
330
1F
100
AcDbEntity
  8
AM_5
100
AcDbDimension
  2
*D24
 10
81.42543118358389
 20
203.0461661041213
 30
0.0
 11
78.92543118358389
 21
202.3762931291213
 31
0.0
 70
   160
 71
     5
 42
5.079999999999998
  3
AM_ISO$0
100
AcDbAlignedDimension
 13
76.3454311835839
 23
186.8570784034428
 33
0.0
 14
81.42543118358389
 24
186.8570784034428
 34
0.0
100
AcDbRotatedDimension
1001
ACAD
1000
DSTYLE
1002
{
1070
   279
1070
     1
1070
    40
1040
1.0
1070
   144
1040
1.0
1002
}
  0
CIRCLE
  5
E27
102
{ACAD_REACTORS
330
E2A
102
}
330
1F
100
AcDbEntity
  8
ハンドル
100
AcDbCircle
 10
56.02543118358386
 20
186.8570784034428
 30
0.0
 40
1.35
  0
DIMENSION
  5
E28
102
{ACAD_XDICTIONARY
360
E29
102
}
102
{ACAD_REACTORS
330
E2A
102
}
330
1F
100
AcDbEntity
  8
AM_5
100
AcDbDimension
  2
*D26
 10
49.07543118358386
 20
203.0461661041213
 30
0.0
 11
38.71710432235477
 21
203.0461661041213
 31
0.0
 70
   160
 71
     5
 42
6.950000000000002
  3
AM_ISO$0
100
AcDbAlignedDimension
 13
56.02543118358386
 23
186.8570784034428
 33
0.0
 14
49.07543118358386
 24
194.3570784034428
 34
0.0
 50
180.0
100
AcDbRotatedDimension
1001
ACAD
1000
DSTYLE
1002
{
1070
    40
1040
1.0
1070
   144
1040
1.0
1002
}
  0
CIRCLE
  5
E2B
330
1F
100
AcDbEntity
  8
ハンドル
100
AcDbCircle
 10
61.10543118358386
 20
186.8570784034428
 30
0.0
 40
1.35
  0
DIMENSION
  5
E2C
330
1F
100
AcDbEntity
  8
AM_5
100
AcDbDimension
  2
*D25
 10
56.02543118358386
 20
203.0461661041213
 30
0.0
 11
58.52543118358386
 21
203.0461661041213
 31
0.0
 70
   160
 71
     5
 42
5.079999999999998
  3
AM_ISO$0
100
AcDbAlignedDimension
 13
61.10543118358386
 23
186.8570784034428
 33
0.0
 14
56.02543118358386
 24
186.8570784034428
 34
0.0
 50
180.0
100
AcDbRotatedDimension
1001
ACAD
1000
DSTYLE
1002
{
1070
   279
1070
     1
1070
    40
1040
1.0
1070
   144
1040
1.0
1002
}
  0
LINE
  5
EFA
330
1F
100
AcDbEntity
  8
ハンドル
100
AcDbLine
 10
52.09543118358377
 20
227.6454683191202
 30
0.0
 11
52.09543118358374
 21
229.2454683191202
 31
0.0
  0
LINE
  5
EFB
330
1F
100
AcDbEntity
  8
ハンドル
100
AcDbLine
 10
49.79543118358376
 20
229.2454683191202
 30
0.0
 11
49.79543118358376
 21
227.6454683191202
 31
0.0
  0
LINE
  5
EFC
330
1F
100
AcDbEntity
  8
ハンドル
100
AcDbLine
 10
51.69543118358376
 20
229.9454683191202
 30
0.0
 11
50.19543118358376
 21
229.9454683191202
 31
0.0
  0
LINE
  5
EFD
330
1F
100
AcDbEntity
  8
ハンドル
100
AcDbLine
 10
52.09543118358374
 20
229.2454683191202
 30
0.0
 11
51.69543118358376
 21
229.9454683191202
 31
0.0
  0
LINE
  5
EFE
330
1F
100
AcDbEntity
  8
ハンドル
100
AcDbLine
 10
49.79543118358376
 20
229.2454683191202
 30
0.0
 11
50.19543118358376
 21
229.9454683191201
 31
0.0
  0
LINE
  5
EFF
330
1F
100
AcDbEntity
  8
ハンドル
100
AcDbLine
 10
52.09543118358374
 20
229.2454683191202
 30
0.0
 11
49.79543118358376
 21
229.2454683191202
 31
0.0
  0
DIMENSION
  5
F00
330
1F
100
AcDbEntity
  8
AM_5
100
AcDbDimension
  2
*D27
 10
49.07543118358382
 20
241.9454683191202
 30
0.0
 11
39.25043118358381
 21
245.1954683191202
 31
0.0
 70
    32
 71
     5
 42
1.869999999999947
  3
AM_ISO$0
100
AcDbAlignedDimension
 13
50.94543118358377
 23
229.9454683191202
 33
0.0
 14
49.07543118358382
 24
227.6454683191202
 34
0.0
 50
180.0
100
AcDbRotatedDimension
1001
ACAD
1000
DSTYLE
1002
{
1070
    40
1040
1.0
1070
   144
1040
1.0
1002
}
  0
INSERT
  5
F54
102
{ACAD_REACTORS
330
958
102
}
330
1F
100
AcDbEntity
  8
AM_5
100
AcDbBlockReference
  2
*S40
 10
0.0
 20
0.0
 30
0.0
  0
INSERT
  5
FDA
330
1F
100
AcDbEntity
  8
0
100
AcDbBlockReference
  2
A$C35C16C4D
 10
161.3916501756745
 20
250.3902600810009
 30
0.0
  0
INSERT
  5
FDB
330
1F
100
AcDbEntity
  8
0
100
AcDbBlockReference
  2
A$C47270E8E
 10
183.3052107264664
 20
250.3902600810008
 30
0.0
  0
INSERT
  5
FDC
330
1F
100
AcDbEntity
  8
0
100
AcDbBlockReference
  2
A$C762874DC
 10
179.1259566347252
 20
231.1267305995819
 30
0.0
  0
INSERT
  5
FDD
330
1F
100
AcDbEntity
  8
0
100
AcDbBlockReference
  2
A$C4B68363E
 10
162.6044168323079
 20
231.12598194553
 30
0.0
  0
VIEWPORT
  5
17C
102
{ACAD_XDICTIONARY
360
11D0
102
}
330
23
100
AcDbEntity
 67
     1
  8
0
100
AcDbViewport
 10
133.3499908447265
 20
101.5999970436096
 30
0.0
 40
370.2266912936524
 41
228.4221935424805
 68
     1
 69
     1
 12
133.3499908447265
 22
101.5999970436096
 13
0.0
 23
0.0
 14
10.0
 24
10.0
 15
10.0
 25
10.0
 16
0.0
 26
0.0
 36
1.0
 17
0.0
 27
0.0
 37
0.0
 42
50.0
 43
0.0
 44
0.0
 45
228.4221935424805
 50
0.0
 51
0.0
 72
   100
 90
    32800
  1

281
     0
 71
     1
 74
     0
110
0.0
120
0.0
130
0.0
111
1.0
121
0.0
131
0.0
112
0.0
122
1.0
132
0.0
 79
     0
146
0.0
1001
GENIUS_GENSCREG_15
1000
PF
1040
1.0
1000
DF
1040
1.0
1000
MIN
1011
-51.76335480209963
1021
-12.6110997276306
1031
0.0
1000
MAX
1011
318.4633364915527
1021
215.8110938148499
1031
0.0
1000
FLAGS
1070
     4
1001
GENIUS_GENOBJ-N-SDF_13
1002
{
1000
OWNER
1000
GEN
1002
}
1001
GENIUS_GENODEF_13
1002
{
1000
HIER
1070
     0
1002
}
1002
{
1000
MANEDIT
1070
     0
1002
}
1002
{
1000
NOSEL
1070
     0
1002
}
1002
{
1000
BEHIND
1070
     0
1002
}
1002
{
1000
OTHER
1070
     0
1002
}
1002
{
1000
REACTOR
1002
}
  0
ENDSEC
  0
SECTION
  2
OBJECTS
  0
DICTIONARY
  5
C
330
0
100
AcDbDictionary
281
     1
  3
ACAD_CIP_PREVIOUS_PRODUCT_INFO
350
1093
  3
ACAD_COLOR
350
BE
  3
ACAD_GROUP
350
D
  3
ACAD_LAYOUT
350
1A
  3
ACAD_MATERIAL
350
BD
  3
ACAD_MLEADERSTYLE
350
1084
  3
ACAD_MLINESTYLE
350
17
  3
ACAD_PLOTSETTINGS
350
19
  3
ACAD_PLOTSTYLENAME
350
E
  3
ACAD_SCALELIST
350
1072
  3
ACAD_TABLESTYLE
350
583
  3
ACAD_VISUALSTYLE
350
1059
  3
ACDB_RECOMPOSE_DATA
350
11C6
  3
AcDbVariableDictionary
350
94
  3
AcmDictionary
350
5B
  3
AMG
350
41
  3
AMGSNAPSETTINGS
350
220
  3
DWGPROPS
350
11C7
  0
DICTIONARY
  5
10DD
330
8
100
AcDbDictionary
280
     1
281
     1
  0
DICTIONARY
  5
35D
330
2
100
AcDbDictionary
280
     1
281
     1
  3
ACAD_LAYERFILTERS
360
FEE
  3
ACAD_LAYERSTATES
360
35E
  3
ACLYDICTIONARY
360
FED
  3
AMLAYER_GROUPCOLORS
360
4A4
  0
DICTIONARY
  5
10B2
330
10
100
AcDbDictionary
280
     1
281
     1
  3
ADSK_XREC_LAYER_RECONCILED
360
10B3
  0
DICTIONARY
  5
10B4
330
518
100
AcDbDictionary
280
     1
281
     1
  3
ADSK_XREC_LAYER_RECONCILED
360
10B5
  0
DICTIONARY
  5
10B6
330
519
100
AcDbDictionary
280
     1
281
     1
  3
ADSK_XREC_LAYER_RECONCILED
360
10B7
  0
DICTIONARY
  5
10B8
330
51C
100
AcDbDictionary
280
     1
281
     1
  3
ADSK_XREC_LAYER_RECONCILED
360
10B9
  0
DICTIONARY
  5
10BA
330
5E5
100
AcDbDictionary
280
     1
281
     1
  3
ADSK_XREC_LAYER_RECONCILED
360
10BB
  0
DICTIONARY
  5
10BC
330
5E6
100
AcDbDictionary
280
     1
281
     1
  3
ADSK_XREC_LAYER_RECONCILED
360
10BD
  0
DICTIONARY
  5
10BE
330
5E7
100
AcDbDictionary
280
     1
281
     1
  3
ADSK_XREC_LAYER_RECONCILED
360
10BF
  0
DICTIONARY
  5
10C0
330
6F9
100
AcDbDictionary
280
     1
281
     1
  3
ADSK_XREC_LAYER_RECONCILED
360
10C1
  0
DICTIONARY
  5
10C2
330
6FA
100
AcDbDictionary
280
     1
281
     1
  3
ADSK_XREC_LAYER_RECONCILED
360
10C3
  0
DICTIONARY
  5
10C4
330
6FB
100
AcDbDictionary
280
     1
281
     1
  3
ADSK_XREC_LAYER_RECONCILED
360
10C5
  0
DICTIONARY
  5
10C6
330
9CC
100
AcDbDictionary
280
     1
281
     1
  3
ADSK_XREC_LAYER_RECONCILED
360
10C7
  0
DICTIONARY
  5
10C8
330
A89
100
AcDbDictionary
280
     1
281
     1
  3
ADSK_XREC_LAYER_RECONCILED
360
10C9
  0
DICTIONARY
  5
10CA
330
A91
100
AcDbDictionary
280
     1
281
     1
  3
ADSK_XREC_LAYER_RECONCILED
360
10CB
  0
DICTIONARY
  5
10CC
330
A92
100
AcDbDictionary
280
     1
281
     1
  3
ADSK_XREC_LAYER_RECONCILED
360
10CD
  0
DICTIONARY
  5
10CE
330
A93
100
AcDbDictionary
280
     1
281
     1
  3
ADSK_XREC_LAYER_RECONCILED
360
10CF
  0
DICTIONARY
  5
10D0
330
AFE
100
AcDbDictionary
280
     1
281
     1
  3
ADSK_XREC_LAYER_RECONCILED
360
10D1
  0
DICTIONARY
  5
10D2
330
FCB
100
AcDbDictionary
280
     1
281
     1
  3
ADSK_XREC_LAYER_RECONCILED
360
10D3
  0
DICTIONARY
  5
10D4
330
FCC
100
AcDbDictionary
280
     1
281
     1
  3
ADSK_XREC_LAYER_RECONCILED
360
10D5
  0
DICTIONARY
  5
10D6
330
FCD
100
AcDbDictionary
280
     1
281
     1
  3
ADSK_XREC_LAYER_RECONCILED
360
10D7
  0
DICTIONARY
  5
8F
330
1F
100
AcDbDictionary
280
     1
281
     1
  3
ACAD_SORTENTS
360
B31
  0
DICTIONARY
  5
5D9
330
5CD
100
AcDbDictionary
280
     1
281
     1
  0
DICTIONARY
  5
63E
330
5E9
100
AcDbDictionary
280
     1
281
     1
  0
DICTIONARY
  5
BF2
330
BEA
100
AcDbDictionary
280
     1
281
     1
  0
DICTIONARY
  5
CF8
330
C9F
100
AcDbDictionary
280
     1
281
     1
  0
DICTIONARY
  5
F7F
330
F7E
100
AcDbDictionary
280
     1
281
     1
  3
ACAD_SORTENTS
360
F80
  0
DICTIONARY
  5
F95
330
F94
100
AcDbDictionary
280
     1
281
     1
  3
ACAD_SORTENTS
360
F96
  0
DICTIONARY
  5
FA9
330
FA8
100
AcDbDictionary
280
     1
281
     1
  3
ACAD_SORTENTS
360
FAA
  0
DICTIONARY
  5
FB7
330
FB6
100
AcDbDictionary
280
     1
281
     1
  3
ACAD_SORTENTS
360
FB8
  0
DICTIONARY
  5
11CE
330
178
100
AcDbDictionary
280
     1
281
     1
  3
ACAD_XREC_ROUNDTRIP
360
11CF
  0
DICTIONARY
  5
11D3
330
FE5
100
AcDbDictionary
280
     1
281
     1
  3
ACAD_MTEXT_RT
360
11D4
  0
DICTIONARY
  5
7AC
330
7AB
100
AcDbDictionary
280
     1
281
     1
  3
ACAD_DIMASSOC
360
7AD
  0
DICTIONARY
  5
7AF
330
7AE
100
AcDbDictionary
280
     1
281
     1
  3
ACAD_DIMASSOC
360
7B0
  0
DICTIONARY
  5
7B2
330
7B1
100
AcDbDictionary
280
     1
281
     1
  3
ACAD_DIMASSOC
360
7B3
  0
DICTIONARY
  5
7BB
330
7BA
100
AcDbDictionary
280
     1
281
     1
  3
ACAD_DIMASSOC
360
7BC
  0
DICTIONARY
  5
7BE
330
7BD
100
AcDbDictionary
280
     1
281
     1
  3
ACAD_DIMASSOC
360
7BF
  0
DICTIONARY
  5
7C2
330
7C1
100
AcDbDictionary
280
     1
281
     1
  3
ACAD_DIMASSOC
360
7C3
  0
DICTIONARY
  5
7C5
330
7C4
100
AcDbDictionary
280
     1
281
     1
  3
ACAD_DIMASSOC
360
7C6
  0
DICTIONARY
  5
7CB
330
7CA
100
AcDbDictionary
280
     1
281
     1
  3
ACAD_DIMASSOC
360
7CC
  0
DICTIONARY
  5
8D3
330
8C8
100
AcDbDictionary
280
     1
281
     1
  3
ACAD_DIMASSOC
360
8D4
  0
DICTIONARY
  5
8F9
330
8EC
100
AcDbDictionary
280
     1
281
     1
  3
ACAD_DIMASSOC
360
8FA
  0
DICTIONARY
  5
921
330
914
100
AcDbDictionary
280
     1
281
     1
  3
ACAD_DIMASSOC
360
922
  0
DICTIONARY
  5
976
330
96F
100
AcDbDictionary
280
     1
281
     1
  3
ACAD_DIMASSOC
360
977
  0
DICTIONARY
  5
9A8
330
99B
100
AcDbDictionary
280
     1
281
     1
  3
ACAD_DIMASSOC
360
9A9
  0
DICTIONARY
  5
E29
330
E28
100
AcDbDictionary
280
     1
281
     1
  3
ACAD_DIMASSOC
360
E2A
  0
DICTIONARY
  5
11D0
330
17C
100
AcDbDictionary
280
     1
281
     1
  3
ACAD_XREC_ROUNDTRIP
360
11D1
  0
XRECORD
  5
1093
102
{ACAD_REACTORS
330
C
102
}
330
C
100
AcDbXrecord
280
     1
300
AMECH_PP
300
2012
300
PDSP_F_S
  0
DICTIONARY
  5
BE
102
{ACAD_REACTORS
330
C
102
}
330
C
100
AcDbDictionary
281
     1
  0
DICTIONARY
  5
D
102
{ACAD_REACTORS
330
C
102
}
330
C
100
AcDbDictionary
281
     1
  0
DICTIONARY
  5
1A
102
{ACAD_REACTORS
330
C
102
}
330
C
100
AcDbDictionary
281
     1
  3
Model
350
22
  3
レイアウト1
350
1E
  3
レイアウト2
350
26
  0
DICTIONARY
  5
BD
102
{ACAD_REACTORS
330
C
102
}
330
C
100
AcDbDictionary
281
     1
  3
ByBlock
350
1049
  3
ByLayer
350
1041
  3
Global
350
1051
  0
DICTIONARY
  5
1084
102
{ACAD_REACTORS
330
C
102
}
330
C
100
AcDbDictionary
281
     1
  3
Standard
350
1085
  0
DICTIONARY
  5
17
102
{ACAD_REACTORS
330
C
102
}
330
C
100
AcDbDictionary
281
     1
  3
Standard
350
18
  0
DICTIONARY
  5
19
102
{ACAD_REACTORS
330
C
102
}
330
C
100
AcDbDictionary
281
     1
  0
ACDBDICTIONARYWDFLT
  5
E
102
{ACAD_REACTORS
330
C
102
}
330
C
100
AcDbDictionary
281
     1
  3
Normal
350
F
100
AcDbDictionaryWithDefault
340
F
  0
DICTIONARY
  5
1072
102
{ACAD_REACTORS
330
C
102
}
330
C
100
AcDbDictionary
281
     1
  3
A0
350
1073
  3
A1
350
1074
  3
A2
350
1075
  3
A3
350
1076
  3
A4
350
1077
  3
A5
350
1078
  3
A6
350
1079
  3
A7
350
107A
  3
A8
350
107B
  3
A9
350
107C
  3
B0
350
107D
  3
B1
350
107E
  3
B2
350
107F
  3
B3
350
1080
  3
B4
350
1081
  3
B5
350
1082
  3
B6
350
1083
  0
DICTIONARY
  5
583
102
{ACAD_REACTORS
330
C
102
}
330
C
100
AcDbDictionary
281
     1
  3
Standard
350
584
  0
DICTIONARY
  5
1059
102
{ACAD_REACTORS
330
C
102
}
330
C
100
AcDbDictionary
281
     1
  3
2dWireframe
350
105F
  3
Basic
350
105E
  3
Brighten
350
1065
  3
ColorChange
350
1069
  3
Conceptual
350
1062
  3
Dim
350
1064
  3
EdgeColorOff
350
1071
  3
Facepattern
350
1068
  3
Flat
350
105A
  3
FlatWithEdges
350
105B
  3
Gouraud
350
105C
  3
GouraudWithEdges
350
105D
  3
Hidden
350
1061
  3
JitterOff
350
106F
  3
Linepattern
350
1067
  3
OverhangOff
350
1070
  3
Realistic
350
1063
  3
Shaded
350
106E
  3
Shaded with edges
350
106D
  3
Shades of Gray
350
106A
  3
Sketchy
350
106B
  3
Thicken
350
1066
  3
Wireframe
350
1060
  3
X-Ray
350
106C
  0
XRECORD
  5
11C6
102
{ACAD_REACTORS
330
C
102
}
330
C
100
AcDbXrecord
280
     1
 90
        1
330
584
  0
DICTIONARY
  5
94
102
{ACAD_REACTORS
330
C
102
}
330
C
100
AcDbDictionary
281
     1
  3
CANNOSCALE
350
1127
  3
CMLEADERSTYLE
350
1126
  3
CTABLESTYLE
350
A70
  3
DIMASSOC
350
96
  3
INDEXCTL
350
95
  3
SORTENTS
350
11C1
  3
XCLIPFRAME
350
11C2
  0
DICTIONARY
  5
5B
102
{ACAD_REACTORS
330
C
102
}
330
C
100
AcDbDictionary
281
     1
  3
AcmBOM
350
954
  3
AcmStdDictionary
350
61
  3
AMDTSECTSYM_ARROWCOLOR
350
58F
  0
DICTIONARY
  5
41
102
{ACAD_REACTORS
330
C
102
}
330
C
100
AcDbDictionary
281
     1
  0
DICTIONARY
  5
220
102
{ACAD_REACTORS
330
C
102
}
330
C
100
AcDbDictionary
281
     1
  0
XRECORD
  5
11C7
102
{ACAD_REACTORS
330
C
102
}
330
C
100
AcDbXrecord
280
     1
  1
DWGPROPS COOKIE
  2

  3

  4

  6

  7

  8
takachi
  9

300
AmdtFileType=84
301
=
302
=
303
=
304
=
305
=
306
=
307
=
308
=
309
=
 40
0.0372546643518519
 41
2453938.637014792
 42
2458575.634186898
  1

 90
        1
  0
DICTIONARY
  5
FEE
102
{ACAD_REACTORS
330
35D
102
}
330
35D
100
AcDbDictionary
281
     1
  0
DICTIONARY
  5
35E
102
{ACAD_REACTORS
330
35D
102
}
330
35D
100
AcDbDictionary
281
     1
  3
takachi1
350
35F
  0
DICTIONARY
  5
FED
102
{ACAD_REACTORS
330
35D
102
}
330
35D
100
AcDbDictionary
281
     1
1001
ACAD
1000
<All
  0
DICTIONARY
  5
4A4
102
{ACAD_REACTORS
330
35D
102
}
330
35D
100
AcDbDictionary
280
     1
281
     1
  0
XRECORD
  5
10B3
102
{ACAD_REACTORS
330
10B2
102
}
330
10B2
100
AcDbXrecord
280
     1
290
     1
  0
XRECORD
  5
10B5
102
{ACAD_REACTORS
330
10B4
102
}
330
10B4
100
AcDbXrecord
280
     1
290
     1
  0
XRECORD
  5
10B7
102
{ACAD_REACTORS
330
10B6
102
}
330
10B6
100
AcDbXrecord
280
     1
290
     1
  0
XRECORD
  5
10B9
102
{ACAD_REACTORS
330
10B8
102
}
330
10B8
100
AcDbXrecord
280
     1
290
     1
  0
XRECORD
  5
10BB
102
{ACAD_REACTORS
330
10BA
102
}
330
10BA
100
AcDbXrecord
280
     1
290
     1
  0
XRECORD
  5
10BD
102
{ACAD_REACTORS
330
10BC
102
}
330
10BC
100
AcDbXrecord
280
     1
290
     1
  0
XRECORD
  5
10BF
102
{ACAD_REACTORS
330
10BE
102
}
330
10BE
100
AcDbXrecord
280
     1
290
     1
  0
XRECORD
  5
10C1
102
{ACAD_REACTORS
330
10C0
102
}
330
10C0
100
AcDbXrecord
280
     1
290
     1
  0
XRECORD
  5
10C3
102
{ACAD_REACTORS
330
10C2
102
}
330
10C2
100
AcDbXrecord
280
     1
290
     1
  0
XRECORD
  5
10C5
102
{ACAD_REACTORS
330
10C4
102
}
330
10C4
100
AcDbXrecord
280
     1
290
     1
  0
XRECORD
  5
10C7
102
{ACAD_REACTORS
330
10C6
102
}
330
10C6
100
AcDbXrecord
280
     1
290
     1
  0
XRECORD
  5
10C9
102
{ACAD_REACTORS
330
10C8
102
}
330
10C8
100
AcDbXrecord
280
     1
290
     1
  0
XRECORD
  5
10CB
102
{ACAD_REACTORS
330
10CA
102
}
330
10CA
100
AcDbXrecord
280
     1
290
     1
  0
XRECORD
  5
10CD
102
{ACAD_REACTORS
330
10CC
102
}
330
10CC
100
AcDbXrecord
280
     1
290
     1
  0
XRECORD
  5
10CF
102
{ACAD_REACTORS
330
10CE
102
}
330
10CE
100
AcDbXrecord
280
     1
290
     1
  0
XRECORD
  5
10D1
102
{ACAD_REACTORS
330
10D0
102
}
330
10D0
100
AcDbXrecord
280
     1
290
     1
  0
XRECORD
  5
10D3
102
{ACAD_REACTORS
330
10D2
102
}
330
10D2
100
AcDbXrecord
280
     1
290
     1
  0
XRECORD
  5
10D5
102
{ACAD_REACTORS
330
10D4
102
}
330
10D4
100
AcDbXrecord
280
     1
290
     1
  0
XRECORD
  5
10D7
102
{ACAD_REACTORS
330
10D6
102
}
330
10D6
100
AcDbXrecord
280
     1
290
     1
  0
SORTENTSTABLE
  5
B31
102
{ACAD_REACTORS
330
8F
102
}
330
8F
100
AcDbSortentsTable
330
1F
331
7A0
  5
7A0
331
7BA
  5
7BA
331
772
  5
772
331
78E
  5
78E
331
774
  5
774
331
7A2
  5
7A2
331
7A4
  5
7A4
331
776
  5
776
331
96F
  5
96F
331
781
  5
781
331
B81
  5
B81
331
7A6
  5
7A6
331
79D
  5
79D
331
778
  5
778
331
99B
  5
99B
331
783
  5
783
331
B83
  5
B83
331
7A8
  5
7A8
331
77A
  5
77A
331
79F
  5
79F
331
7B1
  5
7B1
331
8EC
  5
8EC
331
B85
  5
B85
331
7AA
  5
7AA
331
7C4
  5
7C4
331
77C
  5
77C
331
785
  5
785
331
B87
  5
B87
331
77E
  5
77E
331
787
  5
787
331
790
  5
790
331
7AE
  5
7AE
331
789
  5
789
331
792
  5
792
331
78B
  5
78B
331
794
  5
794
331
8C8
  5
8C8
331
78D
  5
78D
331
796
  5
796
331
771
  5
771
331
CFC
  5
CFC
331
5E3
  5
5E3
331
78F
  5
78F
331
773
  5
773
331
7A1
  5
7A1
331
7BD
  5
7BD
331
775
  5
775
331
7A3
  5
7A3
331
780
  5
780
331
777
  5
777
331
7A5
  5
7A5
331
D09
  5
D09
331
7CA
  5
7CA
331
7C1
  5
7C1
331
79E
  5
79E
331
779
  5
779
331
7A7
  5
7A7
331
782
  5
782
331
77B
  5
77B
331
7A9
  5
7A9
331
784
  5
784
331
7AB
  5
7AB
331
77D
  5
77D
331
786
  5
786
331
7D0
  5
7D0
331
77F
  5
77F
331
788
  5
788
331
791
  5
791
331
78A
  5
78A
331
793
  5
793
331
7D2
  5
7D2
331
914
  5
914
331
78C
  5
78C
331
795
  5
795
  0
SORTENTSTABLE
  5
F80
102
{ACAD_REACTORS
330
F7F
102
}
330
F7F
100
AcDbSortentsTable
330
F7E
  0
SORTENTSTABLE
  5
F96
102
{ACAD_REACTORS
330
F95
102
}
330
F95
100
AcDbSortentsTable
330
F94
  0
SORTENTSTABLE
  5
FAA
102
{ACAD_REACTORS
330
FA9
102
}
330
FA9
100
AcDbSortentsTable
330
FA8
  0
SORTENTSTABLE
  5
FB8
102
{ACAD_REACTORS
330
FB7
102
}
330
FB7
100
AcDbSortentsTable
330
FB6
  0
XRECORD
  5
11CF
102
{ACAD_REACTORS
330
11CE
102
}
330
11CE
100
AcDbXrecord
280
     1
102
SHADEPLOT
 70
     0
  0
XRECORD
  5
11D4
102
{ACAD_REACTORS
330
11D3
102
}
330
11D3
100
AcDbXrecord
280
     1
 40
4150.0
  1
4-\U+22052.7
  0
DIMASSOC
  5
7AD
102
{ACAD_REACTORS
330
7AC
102
}
330
7AC
100
AcDbDimAssoc
330
7AB
 90
        3
 70
     0
 71
     0
  1
AcDbOsnapPointRef
 72
    13
331
7A6
 73
     0
 91
        0
 40
0.0
 10
0.0
 20
0.0
 30
2.000000000000000E+50
 75
     0
  1
AcDbOsnapPointRef
 72
    13
331
7A5
 73
     0
 91
        0
 40
0.0
 10
0.0
 20
0.0
 30
2.000000000000000E+50
 75
     0
  0
DIMASSOC
  5
7B0
102
{ACAD_REACTORS
330
7AF
102
}
330
7AF
100
AcDbDimAssoc
330
7AE
 90
        3
 70
     0
 71
     0
  1
AcDbOsnapPointRef
 72
     1
331
7AA
 73
     0
 91
        0
 40
0.0
 10
0.0
 20
0.0
 30
2.000000000000000E+50
 75
     0
  1
AcDbOsnapPointRef
 72
    13
331
7AA
 73
     0
 91
        0
 40
0.0
 10
0.0
 20
0.0
 30
2.000000000000000E+50
 75
     0
  0
DIMASSOC
  5
7B3
102
{ACAD_REACTORS
330
7B2
102
}
330
7B2
100
AcDbDimAssoc
330
7B1
 90
        3
 70
     0
 71
     0
  1
AcDbOsnapPointRef
 72
     1
331
78C
 73
     0
 91
        0
 40
0.0
 10
0.0
 20
0.0
 30
2.000000000000000E+50
 75
     0
  1
AcDbOsnapPointRef
 72
     8
331
787
 73
     0
 91
        0
 40
1.0
 10
0.0
 20
0.0
 30
0.0
 75
     1
  1
AcDbOsnapPointRef
 72
     1
331
78C
 73
     0
 91
        0
 40
0.0
 10
0.0
 20
0.0
 30
2.000000000000000E+50
 75
     0
  0
DIMASSOC
  5
7BC
102
{ACAD_REACTORS
330
7BB
102
}
330
7BB
100
AcDbDimAssoc
330
7BA
 90
        1
 70
     0
 71
     0
  1
AcDbOsnapPointRef
 72
    13
331
78C
 73
     0
 91
        0
 40
0.0
 10
0.0
 20
0.0
 30
2.000000000000000E+50
 75
     0
  0
DIMASSOC
  5
7BF
102
{ACAD_REACTORS
330
7BE
102
}
330
7BE
100
AcDbDimAssoc
330
7BD
 90
        2
 70
     0
 71
     0
  1
AcDbOsnapPointRef
 72
    13
331
781
 73
     0
 91
        0
 40
0.0
 10
0.0
 20
0.0
 30
2.000000000000000E+50
 75
     0
  0
DIMASSOC
  5
7C3
102
{ACAD_REACTORS
330
7C2
102
}
330
7C2
100
AcDbDimAssoc
330
7C1
 90
        3
 70
     0
 71
     0
  1
AcDbOsnapPointRef
 72
    13
331
772
 73
     0
 91
        0
 40
0.0
 10
0.0
 20
0.0
 30
2.000000000000000E+50
 75
     0
  1
AcDbOsnapPointRef
 72
     1
331
778
 73
     0
 91
        0
 40
0.0
 10
0.0
 20
0.0
 30
2.000000000000000E+50
 75
     0
  0
DIMASSOC
  5
7C6
102
{ACAD_REACTORS
330
7C5
102
}
330
7C5
100
AcDbDimAssoc
330
7C4
 90
        3
 70
     0
 71
     0
  1
AcDbOsnapPointRef
 72
     3
331
794
 73
     0
 91
        0
 40
0.0
 10
0.0
 20
0.0
 30
0.0
 75
     0
  1
AcDbOsnapPointRef
 72
    13
331
787
 73
     0
 91
        0
 40
0.0
 10
0.0
 20
0.0
 30
2.000000000000000E+50
 75
     0
  0
DIMASSOC
  5
7CC
102
{ACAD_REACTORS
330
7CB
102
}
330
7CB
100
AcDbDimAssoc
330
7CA
 90
        3
 70
     0
 71
     0
  1
AcDbOsnapPointRef
 72
    13
331
791
 73
     0
 91
        0
 40
0.0
 10
0.0
 20
0.0
 30
2.000000000000000E+50
 75
     0
  1
AcDbOsnapPointRef
 72
     1
331
791
 73
     0
 91
        0
 40
0.0
 10
0.0
 20
0.0
 30
2.000000000000000E+50
 75
     0
  0
DIMASSOC
  5
8D4
102
{ACAD_REACTORS
330
8D3
102
}
330
8D3
100
AcDbDimAssoc
330
8C8
 90
        3
 70
     0
 71
     0
  1
AcDbOsnapPointRef
 72
    13
331
77D
 73
     0
 91
        0
 40
0.0
 10
0.0
 20
0.0
 30
2.000000000000000E+50
 75
     0
  1
AcDbOsnapPointRef
 72
     1
331
77C
 73
     0
 91
        0
 40
0.0
 10
0.0
 20
0.0
 30
2.000000000000000E+50
 75
     0
  0
DIMASSOC
  5
8FA
102
{ACAD_REACTORS
330
8F9
102
}
330
8F9
100
AcDbDimAssoc
330
8EC
 90
        3
 70
     0
 71
     0
  1
AcDbOsnapPointRef
 72
    13
331
77C
 73
     0
 91
        0
 40
0.0
 10
0.0
 20
0.0
 30
2.000000000000000E+50
 75
     0
  1
AcDbOsnapPointRef
 72
     1
331
77C
 73
     0
 91
        0
 40
0.0
 10
0.0
 20
0.0
 30
2.000000000000000E+50
 75
     0
  0
DIMASSOC
  5
922
102
{ACAD_REACTORS
330
921
102
}
330
921
100
AcDbDimAssoc
330
914
 90
        3
 70
     0
 71
     0
  1
AcDbOsnapPointRef
 72
     1
331
77C
 73
     0
 91
        0
 40
0.0
 10
0.0
 20
0.0
 30
2.000000000000000E+50
 75
     0
  1
AcDbOsnapPointRef
 72
     1
331
78E
 73
     0
 91
        0
 40
0.0
 10
0.0
 20
0.0
 30
2.000000000000000E+50
 75
     0
  0
DIMASSOC
  5
977
102
{ACAD_REACTORS
330
976
102
}
330
976
100
AcDbDimAssoc
330
96F
 90
        2
 70
     0
 71
     0
  1
AcDbOsnapPointRef
 72
     3
331
794
 73
     2
 91
        0
 40
0.0
 10
0.0
 20
0.0
 30
0.0
 75
     0
  0
DIMASSOC
  5
9A9
102
{ACAD_REACTORS
330
9A8
102
}
330
9A8
100
AcDbDimAssoc
330
99B
 90
        3
 70
     0
 71
     0
  1
AcDbOsnapPointRef
 72
    13
331
777
 73
     0
 91
        0
 40
0.0
 10
0.0
 20
0.0
 30
2.000000000000000E+50
 75
     0
  1
AcDbOsnapPointRef
 72
     1
331
77C
 73
     0
 91
        0
 40
0.0
 10
0.0
 20
0.0
 30
2.000000000000000E+50
 75
     0
  0
DIMASSOC
  5
E2A
102
{ACAD_REACTORS
330
E29
102
}
330
E29
100
AcDbDimAssoc
330
E28
 90
        1
 70
     0
 71
     0
  1
AcDbOsnapPointRef
 72
     3
331
E27
 73
     0
 91
        0
 40
0.0
 10
0.0
 20
0.0
 30
0.0
 75
     0
  0
XRECORD
  5
11D1
102
{ACAD_REACTORS
330
11D0
102
}
330
11D0
100
AcDbXrecord
280
     1
102
SHADEPLOT
 70
     0
  0
LAYOUT
  5
22
102
{ACAD_XDICTIONARY
360
11CA
102
}
102
{ACAD_REACTORS
330
1A
102
}
330
1A
100
AcDbPlotSettings
  1

  2
RICOH IPSiO CX7200 RPCS
  4
A3
  6
AM_VIEW1
 40
5.873749732971191
 41
5.873747825622558
 42
5.873748779296875
 43
5.873748779296875
 44
296.9259948730469
 45
419.9466552734374
 46
2.589999999999999
 47
4.099999999999999
 48
10.0
 49
0.0
140
410.0
141
280.0
142
1.0
143
1.0
 70
 11956
 72
     1
 73
     1
 74
     4
  7
takachi-1.ctb
 75
    16
147
1.0
148
-10.0
149
0.0
100
AcDbLayout
  1
Model
 70
     1
 71
     0
 10
0.0
 20
0.0
 11
12.0
 21
9.0
 12
0.0
 22
0.0
 32
0.0
 14
0.0
 24
0.0
 34
0.0
 15
0.0
 25
0.0
 35
0.0
146
0.0
 13
0.0
 23
0.0
 33
0.0
 16
1.0
 26
0.0
 36
0.0
 17
0.0
 27
1.0
 37
0.0
 76
     0
330
1F
331
103F
  0
LAYOUT
  5
1E
102
{ACAD_XDICTIONARY
360
11C8
102
}
102
{ACAD_REACTORS
330
1A
102
}
330
1A
100
AcDbPlotSettings
  1

  2
none_device
  4
Letter_(8.50_x_11.00_Inches)
  6

 40
6.349999904632568
 41
6.349999904632568
 42
6.350006103515625
 43
6.350006103515625
 44
215.8999938964844
 45
279.3999938964844
 46
0.0
 47
0.0
 48
0.0
 49
0.0
140
0.0
141
0.0
142
1.0
143
1.0
 70
   688
 72
     1
 73
     1
 74
     5
  7
takachi-1.ctb
 75
    16
147
1.0
148
0.0
149
0.0
100
AcDbLayout
  1
レイアウト1
 70
     1
 71
     1
 10
-6.350006103515625
 20
-6.349999904632568
 11
273.0499877929688
 21
209.5499939918518
 12
0.0
 22
0.0
 32
0.0
 14
1.000000000000000E+20
 24
1.000000000000000E+20
 34
1.000000000000000E+20
 15
-1.000000000000000E+20
 25
-1.000000000000000E+20
 35
-1.000000000000000E+20
146
0.0
 13
0.0
 23
0.0
 33
0.0
 16
1.0
 26
0.0
 36
0.0
 17
0.0
 27
1.0
 37
0.0
 76
     0
330
1B
331
178
  0
LAYOUT
  5
26
102
{ACAD_XDICTIONARY
360
11CC
102
}
102
{ACAD_REACTORS
330
1A
102
}
330
1A
100
AcDbPlotSettings
  1

  2
none_device
  4
Letter_(8.50_x_11.00_Inches)
  6

 40
6.349999904632568
 41
6.349999904632568
 42
6.350006103515625
 43
6.350006103515625
 44
215.8999938964844
 45
279.3999938964844
 46
0.0
 47
0.0
 48
0.0
 49
0.0
140
0.0
141
0.0
142
1.0
143
1.0
 70
   688
 72
     1
 73
     1
 74
     5
  7
takachi-1.ctb
 75
    16
147
1.0
148
0.0
149
0.0
100
AcDbLayout
  1
レイアウト2
 70
     1
 71
     2
 10
-6.350006103515625
 20
-6.349999904632568
 11
273.0499877929688
 21
209.5499939918518
 12
0.0
 22
0.0
 32
0.0
 14
1.000000000000000E+20
 24
1.000000000000000E+20
 34
1.000000000000000E+20
 15
-1.000000000000000E+20
 25
-1.000000000000000E+20
 35
-1.000000000000000E+20
146
0.0
 13
0.0
 23
0.0
 33
0.0
 16
1.0
 26
0.0
 36
0.0
 17
0.0
 27
1.0
 37
0.0
 76
     0
330
23
331
17C
  0
MATERIAL
  5
1049
102
{ACAD_XDICTIONARY
360
104A
102
}
102
{ACAD_REACTORS
330
BD
102
}
330
BD
100
AcDbMaterial
  1
ByBlock
 72
     0
 43
0.0008202099737533
 43
0.0
 43
0.0
 43
0.0
 43
0.0
 43
0.0008202099737533
 43
0.0
 43
0.0
 43
0.0
 43
0.0
 43
1.0
 43
0.0
 43
0.0
 43
0.0
 43
0.0
 43
1.0
 77
     0
 47
0.0008202099737533
 47
0.0
 47
0.0
 47
0.0
 47
0.0
 47
0.0008202099737533
 47
0.0
 47
0.0
 47
0.0
 47
0.0
 47
1.0
 47
0.0
 47
0.0
 47
0.0
 47
0.0
 47
1.0
171
     0
 49
0.0008202099737533
 49
0.0
 49
0.0
 49
0.0
 49
0.0
 49
0.0008202099737533
 49
0.0
 49
0.0
 49
0.0
 49
0.0
 49
1.0
 49
0.0
 49
0.0
 49
0.0
 49
0.0
 49
1.0
175
     0
142
0.0008202099737533
142
0.0
142
0.0
142
0.0
142
0.0
142
0.0008202099737533
142
0.0
142
0.0
142
0.0
142
0.0
142
1.0
142
0.0
142
0.0
142
0.0
142
0.0
142
1.0
179
     0
144
0.0008202099737533
144
0.0
144
0.0
144
0.0
144
0.0
144
0.0008202099737533
144
0.0
144
0.0
144
0.0
144
0.0
144
1.0
144
0.0
144
0.0
144
0.0
144
0.0
144
1.0
147
0.0008202099737533
147
0.0
147
0.0
147
0.0
147
0.0
147
0.0008202099737533
147
0.0
147
0.0
147
0.0
147
0.0
147
1.0
147
0.0
147
0.0
147
0.0
147
0.0
147
1.0
  0
MATERIAL
  5
1041
102
{ACAD_XDICTIONARY
360
1042
102
}
102
{ACAD_REACTORS
330
BD
102
}
330
BD
100
AcDbMaterial
  1
ByLayer
 72
     0
 43
0.0008202099737533
 43
0.0
 43
0.0
 43
0.0
 43
0.0
 43
0.0008202099737533
 43
0.0
 43
0.0
 43
0.0
 43
0.0
 43
1.0
 43
0.0
 43
0.0
 43
0.0
 43
0.0
 43
1.0
 77
     0
 47
0.0008202099737533
 47
0.0
 47
0.0
 47
0.0
 47
0.0
 47
0.0008202099737533
 47
0.0
 47
0.0
 47
0.0
 47
0.0
 47
1.0
 47
0.0
 47
0.0
 47
0.0
 47
0.0
 47
1.0
171
     0
 49
0.0008202099737533
 49
0.0
 49
0.0
 49
0.0
 49
0.0
 49
0.0008202099737533
 49
0.0
 49
0.0
 49
0.0
 49
0.0
 49
1.0
 49
0.0
 49
0.0
 49
0.0
 49
0.0
 49
1.0
175
     0
142
0.0008202099737533
142
0.0
142
0.0
142
0.0
142
0.0
142
0.0008202099737533
142
0.0
142
0.0
142
0.0
142
0.0
142
1.0
142
0.0
142
0.0
142
0.0
142
0.0
142
1.0
179
     0
144
0.0008202099737533
144
0.0
144
0.0
144
0.0
144
0.0
144
0.0008202099737533
144
0.0
144
0.0
144
0.0
144
0.0
144
1.0
144
0.0
144
0.0
144
0.0
144
0.0
144
1.0
147
0.0008202099737533
147
0.0
147
0.0
147
0.0
147
0.0
147
0.0008202099737533
147
0.0
147
0.0
147
0.0
147
0.0
147
1.0
147
0.0
147
0.0
147
0.0
147
0.0
147
1.0
  0
MATERIAL
  5
1051
102
{ACAD_XDICTIONARY
360
1052
102
}
102
{ACAD_REACTORS
330
BD
102
}
330
BD
100
AcDbMaterial
  1
Global
 72
     0
 43
0.0008202099737533
 43
0.0
 43
0.0
 43
0.0
 43
0.0
 43
0.0008202099737533
 43
0.0
 43
0.0
 43
0.0
 43
0.0
 43
1.0
 43
0.0
 43
0.0
 43
0.0
 43
0.0
 43
1.0
 77
     0
 47
0.0008202099737533
 47
0.0
 47
0.0
 47
0.0
 47
0.0
 47
0.0008202099737533
 47
0.0
 47
0.0
 47
0.0
 47
0.0
 47
1.0
 47
0.0
 47
0.0
 47
0.0
 47
0.0
 47
1.0
171
     0
 49
0.0008202099737533
 49
0.0
 49
0.0
 49
0.0
 49
0.0
 49
0.0008202099737533
 49
0.0
 49
0.0
 49
0.0
 49
0.0
 49
1.0
 49
0.0
 49
0.0
 49
0.0
 49
0.0
 49
1.0
175
     0
142
0.0008202099737533
142
0.0
142
0.0
142
0.0
142
0.0
142
0.0008202099737533
142
0.0
142
0.0
142
0.0
142
0.0
142
1.0
142
0.0
142
0.0
142
0.0
142
0.0
142
1.0
179
     0
144
0.0008202099737533
144
0.0
144
0.0
144
0.0
144
0.0
144
0.0008202099737533
144
0.0
144
0.0
144
0.0
144
0.0
144
1.0
144
0.0
144
0.0
144
0.0
144
0.0
144
1.0
147
0.0008202099737533
147
0.0
147
0.0
147
0.0
147
0.0
147
0.0008202099737533
147
0.0
147
0.0
147
0.0
147
0.0
147
1.0
147
0.0
147
0.0
147
0.0
147
0.0
147
1.0
  0
MLEADERSTYLE
  5
1085
102
{ACAD_XDICTIONARY
360
11C4
102
}
102
{ACAD_REACTORS
330
1084
102
}
330
1084
100
AcDbMLeaderStyle
170
     2
171
     1
172
     0
 90
        2
 40
0.0
 41
0.0
173
     1
 91
-1056964608
340
14
 92
       -2
290
     1
 42
2.0
291
     1
 43
0.36
  3
Standard
 44
4.0
300

342
11
174
     1
178
     6
175
     1
176
     0
 93
-1056964608
 45
4.0
292
     0
297
     0
 46
4.0
 94
-1056964608
 47
1.0
 49
1.0
140
1.0
293
     1
141
0.0
294
     1
177
     0
142
1.0
295
     0
296
     0
143
0.125
1001
ACAD_MLEADERVER
1070
     2
  0
MLINESTYLE
  5
18
102
{ACAD_REACTORS
330
17
102
}
330
17
100
AcDbMlineStyle
  2
STANDARD
 70
     0
  3

 62
   256
 51
90.0
 52
90.0
 71
     2
 49
0.5
 62
   256
  6
BYLAYER
 49
-0.5
 62
   256
  6
BYLAYER
  0
ACDBPLACEHOLDER
  5
F
102
{ACAD_REACTORS
330
E
102
}
330
E
  0
SCALE
  5
1073
102
{ACAD_REACTORS
330
1072
102
}
330
1072
100
AcDbScale
 70
     0
300
1:1
140
1.0
141
1.0
290
     1
  0
SCALE
  5
1074
102
{ACAD_REACTORS
330
1072
102
}
330
1072
100
AcDbScale
 70
     0
300
1:2
140
1.0
141
2.0
290
     0
  0
SCALE
  5
1075
102
{ACAD_REACTORS
330
1072
102
}
330
1072
100
AcDbScale
 70
     0
300
1:4
140
1.0
141
4.0
290
     0
  0
SCALE
  5
1076
102
{ACAD_REACTORS
330
1072
102
}
330
1072
100
AcDbScale
 70
     0
300
1:5
140
1.0
141
5.0
290
     0
  0
SCALE
  5
1077
102
{ACAD_REACTORS
330
1072
102
}
330
1072
100
AcDbScale
 70
     0
300
1:8
140
1.0
141
8.0
290
     0
  0
SCALE
  5
1078
102
{ACAD_REACTORS
330
1072
102
}
330
1072
100
AcDbScale
 70
     0
300
1:10
140
1.0
141
10.0
290
     0
  0
SCALE
  5
1079
102
{ACAD_REACTORS
330
1072
102
}
330
1072
100
AcDbScale
 70
     0
300
1:16
140
1.0
141
16.0
290
     0
  0
SCALE
  5
107A
102
{ACAD_REACTORS
330
1072
102
}
330
1072
100
AcDbScale
 70
     0
300
1:20
140
1.0
141
20.0
290
     0
  0
SCALE
  5
107B
102
{ACAD_REACTORS
330
1072
102
}
330
1072
100
AcDbScale
 70
     0
300
1:30
140
1.0
141
30.0
290
     0
  0
SCALE
  5
107C
102
{ACAD_REACTORS
330
1072
102
}
330
1072
100
AcDbScale
 70
     0
300
1:40
140
1.0
141
40.0
290
     0
  0
SCALE
  5
107D
102
{ACAD_REACTORS
330
1072
102
}
330
1072
100
AcDbScale
 70
     0
300
1:50
140
1.0
141
50.0
290
     0
  0
SCALE
  5
107E
102
{ACAD_REACTORS
330
1072
102
}
330
1072
100
AcDbScale
 70
     0
300
1:100
140
1.0
141
100.0
290
     0
  0
SCALE
  5
107F
102
{ACAD_REACTORS
330
1072
102
}
330
1072
100
AcDbScale
 70
     0
300
2:1
140
2.0
141
1.0
290
     0
  0
SCALE
  5
1080
102
{ACAD_REACTORS
330
1072
102
}
330
1072
100
AcDbScale
 70
     0
300
4:1
140
4.0
141
1.0
290
     0
  0
SCALE
  5
1081
102
{ACAD_REACTORS
330
1072
102
}
330
1072
100
AcDbScale
 70
     0
300
8:1
140
8.0
141
1.0
290
     0
  0
SCALE
  5
1082
102
{ACAD_REACTORS
330
1072
102
}
330
1072
100
AcDbScale
 70
     0
300
10:1
140
10.0
141
1.0
290
     0
  0
SCALE
  5
1083
102
{ACAD_REACTORS
330
1072
102
}
330
1072
100
AcDbScale
 70
     0
300
100:1
140
100.0
141
1.0
290
     0
  0
TABLESTYLE
  5
584
102
{ACAD_XDICTIONARY
360
10D8
102
}
102
{ACAD_REACTORS
330
583
102
}
330
583
100
AcDbTableStyle
  3
Standard
 70
     0
 71
     0
 40
1.5
 41
1.5
280
     0
281
     0
  7
STANDARD
140
4.5
170
     2
 62
     0
 63
     7
283
     0
274
    -2
284
     1
 64
     0
275
    -2
285
     1
 65
     0
276
    -2
286
     1
 66
     0
277
    -2
287
     1
 67
     0
278
    -2
288
     1
 68
     0
279
    -2
289
     1
 69
     0
  7
STANDARD
140
6.0
170
     5
 62
     0
 63
     7
283
     0
274
    -2
284
     1
 64
     0
275
    -2
285
     1
 65
     0
276
    -2
286
     1
 66
     0
277
    -2
287
     1
 67
     0
278
    -2
288
     1
 68
     0
279
    -2
289
     1
 69
     0
  7
STANDARD
140
4.5
170
     5
 62
     0
 63
     7
283
     0
274
    -2
284
     1
 64
     0
275
    -2
285
     1
 65
     0
276
    -2
286
     1
 66
     0
277
    -2
287
     1
 67
     0
278
    -2
288
     1
 68
     0
279
    -2
289
     1
 69
     0
  0
VISUALSTYLE
  5
105F
102
{ACAD_XDICTIONARY
360
11E2
102
}
102
{ACAD_REACTORS
330
1059
102
}
330
1059
100
AcDbVisualStyle
  2
2dWireframe
 70
     4
 71
     0
 72
     2
 73
     0
 90
        0
 40
-0.6
 41
-30.0
 62
     5
 63
     7
 74
     1
 91
        4
 64
     7
 65
   257
 75
     1
175
     1
 42
1.0
 92
        0
 66
   257
 43
1.0
 76
     1
 77
     6
 78
     2
 67
     7
 79
     5
170
     0
171
     0
290
     0
174
     0
 93
        1
 44
0.0
173
     0
291
     0
 45
0.0
1001
ACAD
1000
AcDbSavedByObjectVersion
1070
     0
  0
VISUALSTYLE
  5
105E
102
{ACAD_XDICTIONARY
360
11E0
102
}
102
{ACAD_REACTORS
330
1059
102
}
330
1059
100
AcDbVisualStyle
  2
Basic
 70
     7
 71
     1
 72
     0
 73
     1
 90
        0
 40
-0.6
 41
-30.0
 62
     5
 63
     7
 74
     0
 91
        4
 64
     7
 65
   257
 75
     1
175
     1
 42
1.0
 92
        8
 66
     7
 43
1.0
 76
     1
 77
     6
 78
     2
 67
     7
 79
     5
170
     0
171
     0
290
     0
174
     0
 93
        1
 44
0.0
173
     0
291
     1
 45
0.0
1001
ACAD
1000
AcDbSavedByObjectVersion
1070
     0
  0
VISUALSTYLE
  5
1065
102
{ACAD_XDICTIONARY
360
11EE
102
}
102
{ACAD_REACTORS
330
1059
102
}
330
1059
100
AcDbVisualStyle
  2
Brighten
 70
    12
 71
     2
 72
     2
 73
     0
 90
        0
 40
-0.6
 41
-30.0
 62
     5
 63
     7
 74
     1
 91
        4
 64
     7
 65
   257
 75
     1
175
     1
 42
1.0
 92
        8
 66
     7
 43
1.0
 76
     1
 77
     6
 78
     2
 67
     7
 79
     5
170
     0
171
     0
290
     0
174
     0
 93
        1
 44
50.0
173
     0
291
     1
 45
0.0
1001
ACAD
1000
AcDbSavedByObjectVersion
1070
     0
  0
VISUALSTYLE
  5
1069
102
{ACAD_XDICTIONARY
360
11F6
102
}
102
{ACAD_REACTORS
330
1059
102
}
330
1059
100
AcDbVisualStyle
  2
ColorChange
 70
    16
 71
     2
 72
     2
 73
     3
 90
        0
 40
-0.6
 41
-30.0
 62
     5
 63
     8
 74
     1
 91
        4
 64
     7
 65
   257
 75
     1
175
     1
 42
1.0
 92
        8
 66
     8
 43
1.0
 76
     1
 77
     6
 78
     2
 67
     7
 79
     5
170
     0
171
     0
290
     0
174
     0
 93
        1
 44
0.0
173
     0
291
     1
 45
0.0
1001
ACAD
1000
AcDbSavedByObjectVersion
1070
     0
  0
VISUALSTYLE
  5
1062
102
{ACAD_XDICTIONARY
360
11E8
102
}
102
{ACAD_REACTORS
330
1059
102
}
330
1059
100
AcDbVisualStyle
  2
Conceptual
 70
     9
 71
     3
 72
     2
 73
     0
 90
        0
 40
-0.6
 41
-30.0
 62
     5
 63
     7
 74
     2
 91
        2
 64
     7
 65
   257
 75
     1
175
     1
 42
179.0
 92
        8
 66
     7
 43
1.0
 76
     1
 77
     6
 78
     2
 67
     7
 79
     3
170
     0
171
     0
290
     0
174
     0
 93
        1
 44
0.0
173
     0
291
     0
 45
0.0
1001
ACAD
1000
AcDbSavedByObjectVersion
1070
     0
  0
VISUALSTYLE
  5
1064
102
{ACAD_XDICTIONARY
360
11EC
102
}
102
{ACAD_REACTORS
330
1059
102
}
330
1059
100
AcDbVisualStyle
  2
Dim
 70
    11
 71
     2
 72
     2
 73
     0
 90
        0
 40
-0.6
 41
-30.0
 62
     5
 63
     7
 74
     1
 91
        4
 64
     7
 65
   257
 75
     1
175
     1
 42
1.0
 92
        8
 66
     7
 43
1.0
 76
     1
 77
     6
 78
     2
 67
     7
 79
     5
170
     0
171
     0
290
     0
174
     0
 93
        1
 44
-50.0
173
     0
291
     1
 45
0.0
1001
ACAD
1000
AcDbSavedByObjectVersion
1070
     0
  0
VISUALSTYLE
  5
1071
102
{ACAD_XDICTIONARY
360
1206
102
}
102
{ACAD_REACTORS
330
1059
102
}
330
1059
100
AcDbVisualStyle
  2
EdgeColorOff
 70
    22
 71
     2
 72
     2
 73
     0
 90
        0
 40
-0.6
 41
-30.0
 62
     5
 63
     7
 74
     1
 91
        4
 64
     7
 65
   257
 75
     1
175
     1
 42
1.0
 92
        8
 66
     7
 43
1.0
 76
     1
 77
     6
 78
     2
 67
     7
 79
     5
170
     0
171
     0
290
     0
174
     0
 93
        1
 44
0.0
173
     0
291
     1
 45
0.0
1001
ACAD
1000
AcDbSavedByObjectVersion
1070
     0
  0
VISUALSTYLE
  5
1068
102
{ACAD_XDICTIONARY
360
11F4
102
}
102
{ACAD_REACTORS
330
1059
102
}
330
1059
100
AcDbVisualStyle
  2
Facepattern
 70
    15
 71
     2
 72
     2
 73
     0
 90
        0
 40
-0.6
 41
-30.0
 62
     5
 63
     7
 74
     1
 91
        4
 64
     7
 65
   257
 75
     1
175
     1
 42
1.0
 92
        8
 66
     7
 43
1.0
 76
     1
 77
     6
 78
     2
 67
     7
 79
     5
170
     0
171
     0
290
     0
174
     0
 93
        1
 44
0.0
173
     0
291
     1
 45
0.0
1001
ACAD
1000
AcDbSavedByObjectVersion
1070
     0
  0
VISUALSTYLE
  5
105A
102
{ACAD_XDICTIONARY
360
11D8
102
}
102
{ACAD_REACTORS
330
1059
102
}
330
1059
100
AcDbVisualStyle
  2
Flat
 70
     0
 71
     2
 72
     1
 73
     1
 90
        2
 40
-0.6
 41
30.0
 62
     5
 63
     7
 74
     0
 91
        0
 64
     7
 65
   257
 75
     1
175
     1
 42
1.0
 92
        8
 66
     7
 43
1.0
 76
     1
 77
     6
 78
     2
 67
     7
 79
     5
170
     0
171
     0
290
     0
174
     0
 93
       13
 44
0.0
173
     0
291
     1
 45
0.0
1001
ACAD
1000
AcDbSavedByObjectVersion
1070
     0
  0
VISUALSTYLE
  5
105B
102
{ACAD_XDICTIONARY
360
11DA
102
}
102
{ACAD_REACTORS
330
1059
102
}
330
1059
100
AcDbVisualStyle
  2
FlatWithEdges
 70
     1
 71
     2
 72
     1
 73
     1
 90
        2
 40
-0.6
 41
30.0
 62
     5
 63
     7
 74
     1
 91
        0
 64
     7
 65
   257
 75
     1
175
     1
 42
1.0
 92
        0
 66
   257
 43
1.0
 76
     1
 77
     6
 78
     2
 67
     7
 79
     5
170
     0
171
     0
290
     0
174
     0
 93
       13
 44
0.0
173
     0
291
     1
 45
0.0
1001
ACAD
1000
AcDbSavedByObjectVersion
1070
     0
  0
VISUALSTYLE
  5
105C
102
{ACAD_XDICTIONARY
360
11DC
102
}
102
{ACAD_REACTORS
330
1059
102
}
330
1059
100
AcDbVisualStyle
  2
Gouraud
 70
     2
 71
     2
 72
     2
 73
     1
 90
        2
 40
-0.6
 41
30.0
 62
     5
 63
     7
 74
     0
 91
        0
 64
     7
 65
   257
 75
     1
175
     1
 42
1.0
 92
        0
 66
     7
 43
1.0
 76
     1
 77
     6
 78
     2
 67
     7
 79
     5
170
     0
171
     0
290
     0
174
     0
 93
       13
 44
0.0
173
     0
291
     1
 45
0.0
1001
ACAD
1000
AcDbSavedByObjectVersion
1070
     0
  0
VISUALSTYLE
  5
105D
102
{ACAD_XDICTIONARY
360
11DE
102
}
102
{ACAD_REACTORS
330
1059
102
}
330
1059
100
AcDbVisualStyle
  2
GouraudWithEdges
 70
     3
 71
     2
 72
     2
 73
     1
 90
        2
 40
-0.6
 41
30.0
 62
     5
 63
     7
 74
     1
 91
        0
 64
     7
 65
   257
 75
     1
175
     1
 42
1.0
 92
        0
 66
   257
 43
1.0
 76
     1
 77
     6
 78
     2
 67
     7
 79
     5
170
     0
171
     0
290
     0
174
     0
 93
       13
 44
0.0
173
     0
291
     1
 45
0.0
1001
ACAD
1000
AcDbSavedByObjectVersion
1070
     0
  0
VISUALSTYLE
  5
1061
102
{ACAD_XDICTIONARY
360
11E6
102
}
102
{ACAD_REACTORS
330
1059
102
}
330
1059
100
AcDbVisualStyle
  2
Hidden
 70
     6
 71
     1
 72
     2
 73
     2
 90
        0
 40
-0.6
 41
-30.0
 62
     5
 63
     7
 74
     2
 91
        2
 64
     7
 65
   257
 75
     2
175
     1
 42
40.0
 92
        0
 66
   257
 43
1.0
 76
     1
 77
     6
 78
     2
 67
     7
 79
     3
170
     0
171
     0
290
     0
174
     0
 93
        1
 44
0.0
173
     0
291
     0
 45
0.0
1001
ACAD
1000
AcDbSavedByObjectVersion
1070
     0
  0
VISUALSTYLE
  5
106F
102
{ACAD_XDICTIONARY
360
1202
102
}
102
{ACAD_REACTORS
330
1059
102
}
330
1059
100
AcDbVisualStyle
  2
JitterOff
 70
    20
 71
     2
 72
     2
 73
     0
 90
        0
 40
-0.6
 41
-30.0
 62
     5
 63
     7
 74
     1
 91
        4
 64
     7
 65
   257
 75
     1
175
     1
 42
1.0
 92
       10
 66
     7
 43
1.0
 76
     1
 77
     6
 78
     2
 67
     7
 79
     5
170
     0
171
     0
290
     0
174
     0
 93
        1
 44
0.0
173
     0
291
     1
 45
0.0
1001
ACAD
1000
AcDbSavedByObjectVersion
1070
     0
  0
VISUALSTYLE
  5
1067
102
{ACAD_XDICTIONARY
360
11F2
102
}
102
{ACAD_REACTORS
330
1059
102
}
330
1059
100
AcDbVisualStyle
  2
Linepattern
 70
    14
 71
     2
 72
     2
 73
     0
 90
        0
 40
-0.6
 41
-30.0
 62
     5
 63
     7
 74
     1
 91
        4
 64
     7
 65
   257
 75
     7
175
     7
 42
1.0
 92
        8
 66
     7
 43
1.0
 76
     1
 77
     6
 78
     2
 67
     7
 79
     5
170
     0
171
     0
290
     0
174
     0
 93
        1
 44
0.0
173
     0
291
     1
 45
0.0
1001
ACAD
1000
AcDbSavedByObjectVersion
1070
     0
  0
VISUALSTYLE
  5
1070
102
{ACAD_XDICTIONARY
360
1204
102
}
102
{ACAD_REACTORS
330
1059
102
}
330
1059
100
AcDbVisualStyle
  2
OverhangOff
 70
    21
 71
     2
 72
     2
 73
     0
 90
        0
 40
-0.6
 41
-30.0
 62
     5
 63
     7
 74
     1
 91
        4
 64
     7
 65
   257
 75
     1
175
     1
 42
1.0
 92
        9
 66
     7
 43
1.0
 76
     1
 77
     6
 78
     2
 67
     7
 79
     5
170
     0
171
     0
290
     0
174
     0
 93
        1
 44
0.0
173
     0
291
     1
 45
0.0
1001
ACAD
1000
AcDbSavedByObjectVersion
1070
     0
  0
VISUALSTYLE
  5
1063
102
{ACAD_XDICTIONARY
360
11EA
102
}
102
{ACAD_REACTORS
330
1059
102
}
330
1059
100
AcDbVisualStyle
  2
Realistic
 70
     8
 71
     2
 72
     2
 73
     0
 90
        2
 40
-0.6
 41
30.0
 62
     5
 63
     7
 74
     0
 91
        0
 64
     7
 65
   257
 75
     1
175
     1
 42
1.0
 92
        8
 66
   257
 43
1.0
 76
     1
 77
     6
 78
     2
 67
     7
 79
     3
170
     0
171
     0
290
     0
174
     0
 93
       13
 44
0.0
173
     0
291
     0
 45
0.0
1001
ACAD
1000
AcDbSavedByObjectVersion
1070
     0
  0
VISUALSTYLE
  5
106E
102
{ACAD_XDICTIONARY
360
1200
102
}
102
{ACAD_REACTORS
330
1059
102
}
330
1059
100
AcDbVisualStyle
  2
Shaded
 70
    27
 71
     2
 72
     2
 73
     1
 90
        2
 40
-0.6
 41
30.0
 62
     5
 63
     7
 74
     0
 91
        4
 64
     7
 65
   257
 75
     1
175
     1
 42
1.0
 92
        8
 66
   257
 43
1.0
 76
     1
 77
     6
 78
     2
 67
     8
 79
     3
170
     0
171
     0
290
     0
174
     0
 93
        5
 44
0.0
173
     0
291
     0
 45
0.0
1001
ACAD
1000
AcDbSavedByObjectVersion
1070
     0
  0
VISUALSTYLE
  5
106D
102
{ACAD_XDICTIONARY
360
11FE
102
}
102
{ACAD_REACTORS
330
1059
102
}
330
1059
100
AcDbVisualStyle
  2
Shaded with edges
 70
    26
 71
     2
 72
     2
 73
     1
 90
        2
 40
-0.6
 41
30.0
 62
     5
 63
     7
 74
     1
 91
       10
 64
     7
 65
   257
 75
     2
175
     1
 42
1.0
 92
        8
 66
   257
 43
1.0
 76
     1
 77
     6
 78
     2
 67
     7
 79
     3
170
     0
171
     0
290
     0
174
     0
 93
        5
 44
0.0
173
     0
291
     0
 45
0.0
1001
ACAD
1000
AcDbSavedByObjectVersion
1070
     0
  0
VISUALSTYLE
  5
106A
102
{ACAD_XDICTIONARY
360
11F8
102
}
102
{ACAD_REACTORS
330
1059
102
}
330
1059
100
AcDbVisualStyle
  2
Shades of Gray
 70
    23
 71
     2
 72
     2
 73
     3
 90
        0
 40
-0.6
 41
-30.0
 62
     5
 63
     7
 74
     2
 91
        2
 64
     7
 65
     7
 75
     1
175
     1
 42
40.0
 92
        8
 66
     7
 43
1.0
 76
     1
 77
     6
 78
     2
 67
     7
 79
     3
170
     0
171
     0
290
     0
174
     0
 93
        1
 44
0.0
173
     0
291
     0
 45
0.0
1001
ACAD
1000
AcDbSavedByObjectVersion
1070
     0
  0
VISUALSTYLE
  5
106B
102
{ACAD_XDICTIONARY
360
11FA
102
}
102
{ACAD_REACTORS
330
1059
102
}
330
1059
100
AcDbVisualStyle
  2
Sketchy
 70
    24
 71
     1
 72
     2
 73
     2
 90
        0
 40
-0.6
 41
-30.0
 62
     5
 63
     7
 74
     2
 91
        2
 64
     7
 65
     7
 75
     1
175
     1
 42
40.0
 92
       11
 66
     7
 43
1.0
 76
     1
 77
     6
 78
     2
 67
     7
 79
     6
170
     0
171
     0
290
     0
174
     0
 93
        1
 44
0.0
173
     0
291
     0
 45
0.0
1001
ACAD
1000
AcDbSavedByObjectVersion
1070
     0
  0
VISUALSTYLE
  5
1066
102
{ACAD_XDICTIONARY
360
11F0
102
}
102
{ACAD_REACTORS
330
1059
102
}
330
1059
100
AcDbVisualStyle
  2
Thicken
 70
    13
 71
     2
 72
     2
 73
     0
 90
        0
 40
-0.6
 41
-30.0
 62
     5
 63
     7
 74
     1
 91
        4
 64
     7
 65
   257
 75
     1
175
     1
 42
1.0
 92
       12
 66
     7
 43
1.0
 76
     1
 77
     6
 78
     2
 67
     7
 79
     5
170
     0
171
     0
290
     0
174
     0
 93
        1
 44
0.0
173
     0
291
     1
 45
0.0
1001
ACAD
1000
AcDbSavedByObjectVersion
1070
     0
  0
VISUALSTYLE
  5
1060
102
{ACAD_XDICTIONARY
360
11E4
102
}
102
{ACAD_REACTORS
330
1059
102
}
330
1059
100
AcDbVisualStyle
  2
Wireframe
 70
     5
 71
     0
 72
     2
 73
     0
 90
        0
 40
-0.6
 41
-30.0
 62
     5
 63
     7
 74
     1
 91
        4
 64
     7
 65
   257
 75
     1
175
     1
 42
1.0
 92
        0
 66
   257
 43
1.0
 76
     1
 77
     6
 78
     2
 67
     7
 79
     3
170
     0
171
     0
290
     0
174
     0
 93
        1
 44
0.0
173
     0
291
     0
 45
0.0
1001
ACAD
1000
AcDbSavedByObjectVersion
1070
     0
  0
VISUALSTYLE
  5
106C
102
{ACAD_XDICTIONARY
360
11FC
102
}
102
{ACAD_REACTORS
330
1059
102
}
330
1059
100
AcDbVisualStyle
  2
X-Ray
 70
    25
 71
     2
 72
     2
 73
     1
 90
        1
 40
0.5
 41
-30.0
 62
     5
 63
     7
 74
     1
 91
        0
 64
     7
 65
   257
 75
     1
175
     1
 42
1.0
 92
        8
 66
     7
 43
1.0
 76
     1
 77
     6
 78
     2
 67
     7
 79
     3
170
     0
171
     0
290
     0
174
     0
 93
       13
 44
0.0
173
     0
291
     0
 45
0.0
1001
ACAD
1000
AcDbSavedByObjectVersion
1070
     0
  0
DICTIONARYVAR
  5
1127
102
{ACAD_REACTORS
330
94
102
}
330
94
100
DictionaryVariables
280
     0
  1
1:1
  0
DICTIONARYVAR
  5
1126
102
{ACAD_REACTORS
330
94
102
}
330
94
100
DictionaryVariables
280
     0
  1
STANDARD
  0
DICTIONARYVAR
  5
A70
102
{ACAD_REACTORS
330
94
102
}
330
94
100
DictionaryVariables
280
     0
  1
STANDARD
  0
DICTIONARYVAR
  5
96
102
{ACAD_REACTORS
330
94
102
}
330
94
100
DictionaryVariables
280
     0
  1
2
  0
DICTIONARYVAR
  5
95
102
{ACAD_REACTORS
330
94
102
}
330
94
100
DictionaryVariables
280
     0
  1
0
  0
DICTIONARYVAR
  5
11C1
102
{ACAD_REACTORS
330
94
102
}
330
94
100
DictionaryVariables
280
     0
  1
127
  0
DICTIONARYVAR
  5
11C2
102
{ACAD_REACTORS
330
94
102
}
330
94
100
DictionaryVariables
280
     0
  1
0
  0
DICTIONARY
  5
954
102
{ACAD_REACTORS
330
5B
102
}
330
5B
100
AcDbDictionary
281
     1
  0
DICTIONARY
  5
61
102
{ACAD_REACTORS
330
5B
102
}
330
5B
100
AcDbDictionary
281
     1
  0
XRECORD
  5
58F
102
{ACAD_REACTORS
330
5B
102
}
330
5B
100
AcDbXrecord
280
     1
 90
-1023410169
  0
XRECORD
  5
35F
102
{ACAD_REACTORS
330
35E
102
}
330
35E
100
AcDbXrecord
280
     1
 91
       16
330
1E1
 90
        0
 62
     7
370
    -3
331
16
  1
色_7
330
10
 90
        8
 62
     7
370
    -3
331
16
  1
色_7
  0
DICTIONARY
  5
11CA
330
22
100
AcDbDictionary
280
     1
281
     1
  3
ACAD_XREC_ROUNDTRIP
360
11CB
  0
DICTIONARY
  5
11C8
330
1E
100
AcDbDictionary
280
     1
281
     1
  3
ACAD_XREC_ROUNDTRIP
360
11C9
  0
DICTIONARY
  5
11CC
330
26
100
AcDbDictionary
280
     1
281
     1
  3
ACAD_XREC_ROUNDTRIP
360
11CD
  0
DICTIONARY
  5
104A
330
1049
100
AcDbDictionary
280
     1
281
     1
  3
ACAD_XREC_ROUNDTRIP
360
11D6
  3
BUMPTILE
360
104C
  3
DIFFUSETILE
360
104B
  3
OPACITYTILE
360
104F
  3
REFLECTIONTILE
360
104E
  3
REFRACTIONTILE
360
1050
  3
SPECULARTILE
360
104D
  0
DICTIONARY
  5
1042
330
1041
100
AcDbDictionary
280
     1
281
     1
  3
ACAD_XREC_ROUNDTRIP
360
11D5
  3
BUMPTILE
360
1044
  3
DIFFUSETILE
360
1043
  3
OPACITYTILE
360
1047
  3
REFLECTIONTILE
360
1046
  3
REFRACTIONTILE
360
1048
  3
SPECULARTILE
360
1045
  0
DICTIONARY
  5
1052
330
1051
100
AcDbDictionary
280
     1
281
     1
  3
ACAD_XREC_ROUNDTRIP
360
11D7
  3
BUMPTILE
360
1054
  3
DIFFUSETILE
360
1053
  3
OPACITYTILE
360
1057
  3
REFLECTIONTILE
360
1056
  3
REFRACTIONTILE
360
1058
  3
SPECULARTILE
360
1055
  0
DICTIONARY
  5
11C4
330
1085
100
AcDbDictionary
280
     1
281
     1
  3
ACAD_XREC_ROUNDTRIP
360
11C5
  0
DICTIONARY
  5
10D8
330
584
100
AcDbDictionary
280
     1
281
     1
  3
ACAD_ROUNDTRIP_2008_TABLESTYLE_CELLSTYLEMAP
360
11C3
  3
ACAD_XREC_ROUNDTRIP
360
11D2
  0
DICTIONARY
  5
11E2
330
105F
100
AcDbDictionary
280
     1
281
     1
  3
ACAD_XREC_ROUNDTRIP
360
11E3
  0
DICTIONARY
  5
11E0
330
105E
100
AcDbDictionary
280
     1
281
     1
  3
ACAD_XREC_ROUNDTRIP
360
11E1
  0
DICTIONARY
  5
11EE
330
1065
100
AcDbDictionary
280
     1
281
     1
  3
ACAD_XREC_ROUNDTRIP
360
11EF
  0
DICTIONARY
  5
11F6
330
1069
100
AcDbDictionary
280
     1
281
     1
  3
ACAD_XREC_ROUNDTRIP
360
11F7
  0
DICTIONARY
  5
11E8
330
1062
100
AcDbDictionary
280
     1
281
     1
  3
ACAD_XREC_ROUNDTRIP
360
11E9
  0
DICTIONARY
  5
11EC
330
1064
100
AcDbDictionary
280
     1
281
     1
  3
ACAD_XREC_ROUNDTRIP
360
11ED
  0
DICTIONARY
  5
1206
330
1071
100
AcDbDictionary
280
     1
281
     1
  3
ACAD_XREC_ROUNDTRIP
360
1207
  0
DICTIONARY
  5
11F4
330
1068
100
AcDbDictionary
280
     1
281
     1
  3
ACAD_XREC_ROUNDTRIP
360
11F5
  0
DICTIONARY
  5
11D8
330
105A
100
AcDbDictionary
280
     1
281
     1
  3
ACAD_XREC_ROUNDTRIP
360
11D9
  0
DICTIONARY
  5
11DA
330
105B
100
AcDbDictionary
280
     1
281
     1
  3
ACAD_XREC_ROUNDTRIP
360
11DB
  0
DICTIONARY
  5
11DC
330
105C
100
AcDbDictionary
280
     1
281
     1
  3
ACAD_XREC_ROUNDTRIP
360
11DD
  0
DICTIONARY
  5
11DE
330
105D
100
AcDbDictionary
280
     1
281
     1
  3
ACAD_XREC_ROUNDTRIP
360
11DF
  0
DICTIONARY
  5
11E6
330
1061
100
AcDbDictionary
280
     1
281
     1
  3
ACAD_XREC_ROUNDTRIP
360
11E7
  0
DICTIONARY
  5
1202
330
106F
100
AcDbDictionary
280
     1
281
     1
  3
ACAD_XREC_ROUNDTRIP
360
1203
  0
DICTIONARY
  5
11F2
330
1067
100
AcDbDictionary
280
     1
281
     1
  3
ACAD_XREC_ROUNDTRIP
360
11F3
  0
DICTIONARY
  5
1204
330
1070
100
AcDbDictionary
280
     1
281
     1
  3
ACAD_XREC_ROUNDTRIP
360
1205
  0
DICTIONARY
  5
11EA
330
1063
100
AcDbDictionary
280
     1
281
     1
  3
ACAD_XREC_ROUNDTRIP
360
11EB
  0
DICTIONARY
  5
1200
330
106E
100
AcDbDictionary
280
     1
281
     1
  3
ACAD_XREC_ROUNDTRIP
360
1201
  0
DICTIONARY
  5
11FE
330
106D
100
AcDbDictionary
280
     1
281
     1
  3
ACAD_XREC_ROUNDTRIP
360
11FF
  0
DICTIONARY
  5
11F8
330
106A
100
AcDbDictionary
280
     1
281
     1
  3
ACAD_XREC_ROUNDTRIP
360
11F9
  0
DICTIONARY
  5
11FA
330
106B
100
AcDbDictionary
280
     1
281
     1
  3
ACAD_XREC_ROUNDTRIP
360
11FB
  0
DICTIONARY
  5
11F0
330
1066
100
AcDbDictionary
280
     1
281
     1
  3
ACAD_XREC_ROUNDTRIP
360
11F1
  0
DICTIONARY
  5
11E4
330
1060
100
AcDbDictionary
280
     1
281
     1
  3
ACAD_XREC_ROUNDTRIP
360
11E5
  0
DICTIONARY
  5
11FC
330
106C
100
AcDbDictionary
280
     1
281
     1
  3
ACAD_XREC_ROUNDTRIP
360
11FD
  0
XRECORD
  5
11CB
102
{ACAD_REACTORS
330
11CA
102
}
330
11CA
100
AcDbXrecord
280
     1
102
SHADEPLOT
 70
     0
102
SHADEPLOTRESLEVEL
 70
     2
102
SHADEPLOTCUSTOMDPI
 70
   300
  0
XRECORD
  5
11C9
102
{ACAD_REACTORS
330
11C8
102
}
330
11C8
100
AcDbXrecord
280
     1
102
SHADEPLOT
 70
     1
102
SHADEPLOTRESLEVEL
 70
     2
102
SHADEPLOTCUSTOMDPI
 70
   300
  0
XRECORD
  5
11CD
102
{ACAD_REACTORS
330
11CC
102
}
330
11CC
100
AcDbXrecord
280
     1
102
SHADEPLOT
 70
     1
102
SHADEPLOTRESLEVEL
 70
     2
102
SHADEPLOTCUSTOMDPI
 70
   300
  0
XRECORD
  5
11D6
102
{ACAD_REACTORS
330
104A
102
}
330
104A
100
AcDbXrecord
280
     1
102
MATERIAL
148
0.0
149
0.0
149
0.0
 93
        0
 94
      127
282
     0
 72
     0
 77
     0
171
     0
175
     0
179
     0
273
     0
  0
XRECORD
  5
104C
102
{ACAD_REACTORS
330
104A
102
}
330
104A
100
AcDbXrecord
280
     1
270
     1
271
     1
  0
XRECORD
  5
104B
102
{ACAD_REACTORS
330
104A
102
}
330
104A
100
AcDbXrecord
280
     1
270
     1
271
     1
  0
XRECORD
  5
104F
102
{ACAD_REACTORS
330
104A
102
}
330
104A
100
AcDbXrecord
280
     1
270
     1
271
     1
  0
XRECORD
  5
104E
102
{ACAD_REACTORS
330
104A
102
}
330
104A
100
AcDbXrecord
280
     1
270
     1
271
     1
  0
XRECORD
  5
1050
102
{ACAD_REACTORS
330
104A
102
}
330
104A
100
AcDbXrecord
280
     1
270
     1
271
     1
  0
XRECORD
  5
104D
102
{ACAD_REACTORS
330
104A
102
}
330
104A
100
AcDbXrecord
280
     1
270
     1
271
     1
  0
XRECORD
  5
11D5
102
{ACAD_REACTORS
330
1042
102
}
330
1042
100
AcDbXrecord
280
     1
102
MATERIAL
148
0.0
149
0.0
149
0.0
 93
        0
 94
      127
282
     0
 72
     0
 77
     0
171
     0
175
     0
179
     0
273
     0
  0
XRECORD
  5
1044
102
{ACAD_REACTORS
330
1042
102
}
330
1042
100
AcDbXrecord
280
     1
270
     1
271
     1
  0
XRECORD
  5
1043
102
{ACAD_REACTORS
330
1042
102
}
330
1042
100
AcDbXrecord
280
     1
270
     1
271
     1
  0
XRECORD
  5
1047
102
{ACAD_REACTORS
330
1042
102
}
330
1042
100
AcDbXrecord
280
     1
270
     1
271
     1
  0
XRECORD
  5
1046
102
{ACAD_REACTORS
330
1042
102
}
330
1042
100
AcDbXrecord
280
     1
270
     1
271
     1
  0
XRECORD
  5
1048
102
{ACAD_REACTORS
330
1042
102
}
330
1042
100
AcDbXrecord
280
     1
270
     1
271
     1
  0
XRECORD
  5
1045
102
{ACAD_REACTORS
330
1042
102
}
330
1042
100
AcDbXrecord
280
     1
270
     1
271
     1
  0
XRECORD
  5
11D7
102
{ACAD_REACTORS
330
1052
102
}
330
1052
100
AcDbXrecord
280
     1
102
MATERIAL
148
0.0
149
0.0
149
0.0
 93
        0
 94
      127
282
     0
 72
     0
 77
     0
171
     0
175
     0
179
     0
273
     0
  0
XRECORD
  5
1054
102
{ACAD_REACTORS
330
1052
102
}
330
1052
100
AcDbXrecord
280
     1
270
     1
271
     1
  0
XRECORD
  5
1053
102
{ACAD_REACTORS
330
1052
102
}
330
1052
100
AcDbXrecord
280
     1
270
     1
271
     1
  0
XRECORD
  5
1057
102
{ACAD_REACTORS
330
1052
102
}
330
1052
100
AcDbXrecord
280
     1
270
     1
271
     1
  0
XRECORD
  5
1056
102
{ACAD_REACTORS
330
1052
102
}
330
1052
100
AcDbXrecord
280
     1
270
     1
271
     1
  0
XRECORD
  5
1058
102
{ACAD_REACTORS
330
1052
102
}
330
1052
100
AcDbXrecord
280
     1
270
     1
271
     1
  0
XRECORD
  5
1055
102
{ACAD_REACTORS
330
1052
102
}
330
1052
100
AcDbXrecord
280
     1
270
     1
271
     1
  0
XRECORD
  5
11C5
102
{ACAD_REACTORS
330
11C4
102
}
330
11C4
100
AcDbXrecord
280
     1
102
ACAD_ROUNDTRIP_2012_MLEADER_STYLE
298
     1
  0
CELLSTYLEMAP
  5
11C3
102
{ACAD_REACTORS
330
10D8
102
}
330
10D8
100
AcDbCellStyleMap
 90
        3
300
CELLSTYLE
  1
TABLEFORMAT_BEGIN
 90
        5
170
     1
 91
        0
 92
    32768
 62
   257
 93
        1
300
CONTENTFORMAT
  1
CONTENTFORMAT_BEGIN
 90
        0
 91
        0
 92
        4
 93
        0
300

 40
0.0
140
1.0
 94
        5
 62
     0
340
11
144
6.0
309
CONTENTFORMAT_END
171
     1
301
MARGIN
  1
CELLMARGIN_BEGIN
 40
1.5
 40
1.5
 40
1.5
 40
1.5
 40
0.18
 40
0.18
309
CELLMARGIN_END
 94
        6
 95
        1
302
GRIDFORMAT
  1
GRIDFORMAT_BEGIN
 90
        0
 91
        1
 62
     0
 92
       -2
340
0
 93
        0
 40
0.045
309
GRIDFORMAT_END
 95
        2
302
GRIDFORMAT
  1
GRIDFORMAT_BEGIN
 90
        0
 91
        1
 62
     0
 92
       -2
340
0
 93
        0
 40
0.045
309
GRIDFORMAT_END
 95
        4
302
GRIDFORMAT
  1
GRIDFORMAT_BEGIN
 90
        0
 91
        1
 62
     0
 92
       -2
340
0
 93
        0
 40
0.045
309
GRIDFORMAT_END
 95
        8
302
GRIDFORMAT
  1
GRIDFORMAT_BEGIN
 90
        0
 91
        1
 62
     0
 92
       -2
340
0
 93
        0
 40
0.045
309
GRIDFORMAT_END
 95
       16
302
GRIDFORMAT
  1
GRIDFORMAT_BEGIN
 90
        0
 91
        1
 62
     0
 92
       -2
340
0
 93
        0
 40
0.045
309
GRIDFORMAT_END
 95
       32
302
GRIDFORMAT
  1
GRIDFORMAT_BEGIN
 90
        0
 91
        1
 62
     0
 92
       -2
340
0
 93
        0
 40
0.045
309
GRIDFORMAT_END
309
TABLEFORMAT_END
  1
CELLSTYLE_BEGIN
 90
        1
 91
        1
300
_TITLE
309
CELLSTYLE_END
300
CELLSTYLE
  1
TABLEFORMAT_BEGIN
 90
        5
170
     1
 91
        0
 92
        0
 62
   257
 93
        1
300
CONTENTFORMAT
  1
CONTENTFORMAT_BEGIN
 90
        0
 91
        0
 92
        4
 93
        0
300

 40
0.0
140
1.0
 94
        5
 62
     0
340
11
144
4.5
309
CONTENTFORMAT_END
171
     1
301
MARGIN
  1
CELLMARGIN_BEGIN
 40
1.5
 40
1.5
 40
1.5
 40
1.5
 40
0.18
 40
0.18
309
CELLMARGIN_END
 94
        6
 95
        1
302
GRIDFORMAT
  1
GRIDFORMAT_BEGIN
 90
        0
 91
        1
 62
     0
 92
       -2
340
0
 93
        0
 40
0.045
309
GRIDFORMAT_END
 95
        2
302
GRIDFORMAT
  1
GRIDFORMAT_BEGIN
 90
        0
 91
        1
 62
     0
 92
       -2
340
0
 93
        0
 40
0.045
309
GRIDFORMAT_END
 95
        4
302
GRIDFORMAT
  1
GRIDFORMAT_BEGIN
 90
        0
 91
        1
 62
     0
 92
       -2
340
0
 93
        0
 40
0.045
309
GRIDFORMAT_END
 95
        8
302
GRIDFORMAT
  1
GRIDFORMAT_BEGIN
 90
        0
 91
        1
 62
     0
 92
       -2
340
0
 93
        0
 40
0.045
309
GRIDFORMAT_END
 95
       16
302
GRIDFORMAT
  1
GRIDFORMAT_BEGIN
 90
        0
 91
        1
 62
     0
 92
       -2
340
0
 93
        0
 40
0.045
309
GRIDFORMAT_END
 95
       32
302
GRIDFORMAT
  1
GRIDFORMAT_BEGIN
 90
        0
 91
        1
 62
     0
 92
       -2
340
0
 93
        0
 40
0.045
309
GRIDFORMAT_END
309
TABLEFORMAT_END
  1
CELLSTYLE_BEGIN
 90
        2
 91
        1
300
_HEADER
309
CELLSTYLE_END
300
CELLSTYLE
  1
TABLEFORMAT_BEGIN
 90
        5
170
     1
 91
        0
 92
        0
 62
   257
 93
        1
300
CONTENTFORMAT
  1
CONTENTFORMAT_BEGIN
 90
        0
 91
        0
 92
        4
 93
        0
300

 40
0.0
140
1.0
 94
        2
 62
     0
340
11
144
4.5
309
CONTENTFORMAT_END
171
     1
301
MARGIN
  1
CELLMARGIN_BEGIN
 40
1.5
 40
1.5
 40
1.5
 40
1.5
 40
0.18
 40
0.18
309
CELLMARGIN_END
 94
        6
 95
        1
302
GRIDFORMAT
  1
GRIDFORMAT_BEGIN
 90
        0
 91
        1
 62
     0
 92
       -2
340
0
 93
        0
 40
0.045
309
GRIDFORMAT_END
 95
        2
302
GRIDFORMAT
  1
GRIDFORMAT_BEGIN
 90
        0
 91
        1
 62
     0
 92
       -2
340
0
 93
        0
 40
0.045
309
GRIDFORMAT_END
 95
        4
302
GRIDFORMAT
  1
GRIDFORMAT_BEGIN
 90
        0
 91
        1
 62
     0
 92
       -2
340
0
 93
        0
 40
0.045
309
GRIDFORMAT_END
 95
        8
302
GRIDFORMAT
  1
GRIDFORMAT_BEGIN
 90
        0
 91
        1
 62
     0
 92
       -2
340
0
 93
        0
 40
0.045
309
GRIDFORMAT_END
 95
       16
302
GRIDFORMAT
  1
GRIDFORMAT_BEGIN
 90
        0
 91
        1
 62
     0
 92
       -2
340
0
 93
        0
 40
0.045
309
GRIDFORMAT_END
 95
       32
302
GRIDFORMAT
  1
GRIDFORMAT_BEGIN
 90
        0
 91
        1
 62
     0
 92
       -2
340
0
 93
        0
 40
0.045
309
GRIDFORMAT_END
309
TABLEFORMAT_END
  1
CELLSTYLE_BEGIN
 90
        3
 91
        2
300
_DATA
309
CELLSTYLE_END
  0
XRECORD
  5
11D2
102
{ACAD_REACTORS
330
10D8
102
}
330
10D8
100
AcDbXrecord
280
     1
102
ACAD_ROUNDTRIP_PRE2007_TABLESTYLE
 90
        4
 91
        0
  1

 92
        4
 93
        0
  2

 94
        4
 95
        0
  3

  0
XRECORD
  5
11E3
102
{ACAD_REACTORS
330
11E2
102
}
330
11E2
100
AcDbXrecord
280
     1
102
RTVSPropertyOp0
 70
     1
102
RTVSPropertyOp1
 70
     1
102
RTVSPropertyOp2
 70
     1
102
RTVSPropertyOp3
 70
     1
102
RTVSPropertyOp4
 70
     1
102
RTVSPropertyOp5
 70
     1
102
RTVSPropertyOp6
 70
     1
102
RTVSPropertyOp7
 70
     1
102
RTVSPropertyOp8
 70
     1
102
RTVSPropertyOp9
 70
     1
102
RTVSPropertyOp10
 70
     1
102
RTVSPropertyOp11
 70
     1
102
RTVSPropertyOp12
 70
     1
102
RTVSPropertyOp13
 70
     1
102
RTVSPropertyOp14
 70
     1
102
RTVSPropertyOp15
 70
     1
102
RTVSPropertyOp16
 70
     1
102
RTVSPropertyOp17
 70
     1
102
RTVSPropertyOp18
 70
     1
102
RTVSPropertyOp19
 70
     1
102
RTVSPropertyOp20
 70
     1
102
RTVSPropertyOp21
 70
     1
102
RTVSPropertyOp22
 70
     1
102
RTVSPropertyOp23
 70
     1
102
RTVSPropertyOp24
 70
     1
102
RTVSPropertyOp25
 70
     1
102
RTVSPropertyOp26
 70
     1
102
RTVSPropertyOp27
 70
     1
102
RTVSPropertyOp28
 70
     1
102
RTVSPropertyOp29
 70
     1
102
RTVSPropertyOp30
 70
     1
102
RTVSPropertyOp31
 70
     1
102
RTVSPropertyOp32
 70
     1
  0
XRECORD
  5
11E1
102
{ACAD_REACTORS
330
11E0
102
}
330
11E0
100
AcDbXrecord
280
     1
102
RTVSPropertyOp0
 70
     1
102
RTVSPropertyOp1
 70
     1
102
RTVSPropertyOp2
 70
     1
102
RTVSPropertyOp3
 70
     1
102
RTVSPropertyOp4
 70
     1
102
RTVSPropertyOp5
 70
     1
102
RTVSPropertyOp6
 70
     1
102
RTVSPropertyOp7
 70
     1
102
RTVSPropertyOp8
 70
     1
102
RTVSPropertyOp9
 70
     1
102
RTVSPropertyOp10
 70
     1
102
RTVSPropertyOp11
 70
     1
102
RTVSPropertyOp12
 70
     1
102
RTVSPropertyOp13
 70
     1
102
RTVSPropertyOp14
 70
     1
102
RTVSPropertyOp15
 70
     1
102
RTVSPropertyOp16
 70
     1
102
RTVSPropertyOp17
 70
     1
102
RTVSPropertyOp18
 70
     1
102
RTVSPropertyOp19
 70
     1
102
RTVSPropertyOp20
 70
     1
102
RTVSPropertyOp21
 70
     1
102
RTVSPropertyOp22
 70
     1
102
RTVSPropertyOp23
 70
     1
102
RTVSPropertyOp24
 70
     1
102
RTVSPropertyOp25
 70
     1
102
RTVSPropertyOp26
 70
     1
102
RTVSPropertyOp27
 70
     1
102
RTVSPropertyOp28
 70
     1
102
RTVSPropertyOp29
 70
     1
102
RTVSPropertyOp30
 70
     1
102
RTVSPropertyOp31
 70
     1
102
RTVSPropertyOp32
 70
     1
  0
XRECORD
  5
11EF
102
{ACAD_REACTORS
330
11EE
102
}
330
11EE
100
AcDbXrecord
280
     1
102
RTVSPropertyOp0
 70
     1
102
RTVSPropertyOp1
 70
     1
102
RTVSPropertyOp2
 70
     1
102
RTVSPropertyOp3
 70
     1
102
RTVSPropertyOp4
 70
     1
102
RTVSPropertyOp5
 70
     1
102
RTVSPropertyOp6
 70
     1
102
RTVSPropertyOp7
 70
     1
102
RTVSPropertyOp8
 70
     1
102
RTVSPropertyOp9
 70
     1
102
RTVSPropertyOp10
 70
     1
102
RTVSPropertyOp11
 70
     1
102
RTVSPropertyOp12
 70
     1
102
RTVSPropertyOp13
 70
     1
102
RTVSPropertyOp14
 70
     1
102
RTVSPropertyOp15
 70
     1
102
RTVSPropertyOp16
 70
     1
102
RTVSPropertyOp17
 70
     1
102
RTVSPropertyOp18
 70
     1
102
RTVSPropertyOp19
 70
     1
102
RTVSPropertyOp20
 70
     1
102
RTVSPropertyOp21
 70
     1
102
RTVSPropertyOp22
 70
     1
102
RTVSPropertyOp23
 70
     1
102
RTVSPropertyOp24
 70
     1
102
RTVSPropertyOp25
 70
     1
102
RTVSPropertyOp26
 70
     1
102
RTVSPropertyOp27
 70
     1
102
RTVSPropertyOp28
 70
     1
102
RTVSPropertyOp29
 70
     1
102
RTVSPropertyOp30
 70
     1
102
RTVSPropertyOp31
 70
     1
102
RTVSPropertyOp32
 70
     1
  0
XRECORD
  5
11F7
102
{ACAD_REACTORS
330
11F6
102
}
330
11F6
100
AcDbXrecord
280
     1
102
RTVSPropertyOp0
 70
     1
102
RTVSPropertyOp1
 70
     1
102
RTVSPropertyOp2
 70
     1
102
RTVSPropertyOp3
 70
     1
102
RTVSPropertyOp4
 70
     1
102
RTVSPropertyOp5
 70
     1
102
RTVSPropertyOp6
 70
     1
102
RTVSPropertyOp7
 70
     1
102
RTVSPropertyOp8
 70
     1
102
RTVSPropertyOp9
 70
     1
102
RTVSPropertyOp10
 70
     1
102
RTVSPropertyOp11
 70
     1
102
RTVSPropertyOp12
 70
     1
102
RTVSPropertyOp13
 70
     1
102
RTVSPropertyOp14
 70
     1
102
RTVSPropertyOp15
 70
     1
102
RTVSPropertyOp16
 70
     1
102
RTVSPropertyOp17
 70
     1
102
RTVSPropertyOp18
 70
     1
102
RTVSPropertyOp19
 70
     1
102
RTVSPropertyOp20
 70
     1
102
RTVSPropertyOp21
 70
     1
102
RTVSPropertyOp22
 70
     1
102
RTVSPropertyOp23
 70
     1
102
RTVSPropertyOp24
 70
     1
102
RTVSPropertyOp25
 70
     1
102
RTVSPropertyOp26
 70
     1
102
RTVSPropertyOp27
 70
     1
102
RTVSPropertyOp28
 70
     1
102
RTVSPropertyOp29
 70
     1
102
RTVSPropertyOp30
 70
     1
102
RTVSPropertyOp31
 70
     1
102
RTVSPropertyOp32
 70
     1
  0
XRECORD
  5
11E9
102
{ACAD_REACTORS
330
11E8
102
}
330
11E8
100
AcDbXrecord
280
     1
102
RTVSPropertyOp0
 70
     1
102
RTVSPropertyOp1
 70
     1
102
RTVSPropertyOp2
 70
     1
102
RTVSPropertyOp3
 70
     1
102
RTVSPropertyOp4
 70
     1
102
RTVSPropertyOp5
 70
     1
102
RTVSPropertyOp6
 70
     1
102
RTVSPropertyOp7
 70
     1
102
RTVSPropertyOp8
 70
     1
102
RTVSPropertyOp9
 70
     1
102
RTVSPropertyOp10
 70
     1
102
RTVSPropertyOp11
 70
     1
102
RTVSPropertyOp12
 70
     1
102
RTVSPropertyOp13
 70
     1
102
RTVSPropertyOp14
 70
     1
102
RTVSPropertyOp15
 70
     1
102
RTVSPropertyOp16
 70
     1
102
RTVSPropertyOp17
 70
     1
102
RTVSPropertyOp18
 70
     1
102
RTVSPropertyOp19
 70
     1
102
RTVSPropertyOp20
 70
     1
102
RTVSPropertyOp21
 70
     1
102
RTVSPropertyOp22
 70
     1
102
RTVSPropertyOp23
 70
     1
102
RTVSPropertyOp24
 70
     1
102
RTVSPropertyOp25
 70
     1
102
RTVSPropertyOp26
 70
     1
102
RTVSPropertyOp27
 70
     1
102
RTVSPropertyOp28
 70
     1
102
RTVSPropertyOp29
 70
     1
102
RTVSPropertyOp30
 70
     1
102
RTVSPropertyOp31
 70
     1
102
RTVSPropertyOp32
 70
     1
  0
XRECORD
  5
11ED
102
{ACAD_REACTORS
330
11EC
102
}
330
11EC
100
AcDbXrecord
280
     1
102
RTVSPropertyOp0
 70
     1
102
RTVSPropertyOp1
 70
     1
102
RTVSPropertyOp2
 70
     1
102
RTVSPropertyOp3
 70
     1
102
RTVSPropertyOp4
 70
     1
102
RTVSPropertyOp5
 70
     1
102
RTVSPropertyOp6
 70
     1
102
RTVSPropertyOp7
 70
     1
102
RTVSPropertyOp8
 70
     1
102
RTVSPropertyOp9
 70
     1
102
RTVSPropertyOp10
 70
     1
102
RTVSPropertyOp11
 70
     1
102
RTVSPropertyOp12
 70
     1
102
RTVSPropertyOp13
 70
     1
102
RTVSPropertyOp14
 70
     1
102
RTVSPropertyOp15
 70
     1
102
RTVSPropertyOp16
 70
     1
102
RTVSPropertyOp17
 70
     1
102
RTVSPropertyOp18
 70
     1
102
RTVSPropertyOp19
 70
     1
102
RTVSPropertyOp20
 70
     1
102
RTVSPropertyOp21
 70
     1
102
RTVSPropertyOp22
 70
     1
102
RTVSPropertyOp23
 70
     1
102
RTVSPropertyOp24
 70
     1
102
RTVSPropertyOp25
 70
     1
102
RTVSPropertyOp26
 70
     1
102
RTVSPropertyOp27
 70
     1
102
RTVSPropertyOp28
 70
     1
102
RTVSPropertyOp29
 70
     1
102
RTVSPropertyOp30
 70
     1
102
RTVSPropertyOp31
 70
     1
102
RTVSPropertyOp32
 70
     1
  0
XRECORD
  5
1207
102
{ACAD_REACTORS
330
1206
102
}
330
1206
100
AcDbXrecord
280
     1
102
RTVSPropertyOp0
 70
     0
102
RTVSPropertyOp1
 70
     0
102
RTVSPropertyOp2
 70
     0
102
RTVSPropertyOp3
 70
     0
102
RTVSPropertyOp4
 70
     0
102
RTVSPropertyOp5
 70
     0
102
RTVSPropertyOp6
 70
     0
102
RTVSPropertyOp7
 70
     0
102
RTVSPropertyOp8
 70
     0
102
RTVSPropertyOp9
 70
     0
102
RTVSPropertyOp10
 70
     0
102
RTVSPropertyOp11
 70
     0
102
RTVSPropertyOp12
 70
     0
102
RTVSPropertyOp13
 70
     0
102
RTVSPropertyOp14
 70
     2
102
RTVSPropertyOp15
 70
     0
102
RTVSPropertyOp16
 70
     0
102
RTVSPropertyOp17
 70
     0
102
RTVSPropertyOp18
 70
     0
102
RTVSPropertyOp19
 70
     0
102
RTVSPropertyOp20
 70
     0
102
RTVSPropertyOp21
 70
     0
102
RTVSPropertyOp22
 70
     0
102
RTVSPropertyOp23
 70
     0
102
RTVSPropertyOp24
 70
     0
102
RTVSPropertyOp25
 70
     0
102
RTVSPropertyOp26
 70
     0
102
RTVSPropertyOp27
 70
     0
102
RTVSPropertyOp28
 70
     0
102
RTVSPropertyOp29
 70
     0
102
RTVSPropertyOp30
 70
     0
102
RTVSPropertyOp31
 70
     0
102
RTVSPropertyOp32
 70
     0
  0
XRECORD
  5
11F5
102
{ACAD_REACTORS
330
11F4
102
}
330
11F4
100
AcDbXrecord
280
     1
102
RTVSPropertyOp0
 70
     1
102
RTVSPropertyOp1
 70
     1
102
RTVSPropertyOp2
 70
     1
102
RTVSPropertyOp3
 70
     1
102
RTVSPropertyOp4
 70
     1
102
RTVSPropertyOp5
 70
     1
102
RTVSPropertyOp6
 70
     1
102
RTVSPropertyOp7
 70
     1
102
RTVSPropertyOp8
 70
     1
102
RTVSPropertyOp9
 70
     1
102
RTVSPropertyOp10
 70
     1
102
RTVSPropertyOp11
 70
     1
102
RTVSPropertyOp12
 70
     1
102
RTVSPropertyOp13
 70
     1
102
RTVSPropertyOp14
 70
     1
102
RTVSPropertyOp15
 70
     1
102
RTVSPropertyOp16
 70
     1
102
RTVSPropertyOp17
 70
     1
102
RTVSPropertyOp18
 70
     1
102
RTVSPropertyOp19
 70
     1
102
RTVSPropertyOp20
 70
     1
102
RTVSPropertyOp21
 70
     1
102
RTVSPropertyOp22
 70
     1
102
RTVSPropertyOp23
 70
     1
102
RTVSPropertyOp24
 70
     1
102
RTVSPropertyOp25
 70
     1
102
RTVSPropertyOp26
 70
     1
102
RTVSPropertyOp27
 70
     1
102
RTVSPropertyOp28
 70
     1
102
RTVSPropertyOp29
 70
     1
102
RTVSPropertyOp30
 70
     1
102
RTVSPropertyOp31
 70
     1
102
RTVSPropertyOp32
 70
     1
  0
XRECORD
  5
11D9
102
{ACAD_REACTORS
330
11D8
102
}
330
11D8
100
AcDbXrecord
280
     1
102
RTVSPropertyOp0
 70
     1
102
RTVSPropertyOp1
 70
     1
102
RTVSPropertyOp2
 70
     1
102
RTVSPropertyOp3
 70
     1
102
RTVSPropertyOp4
 70
     1
102
RTVSPropertyOp5
 70
     1
102
RTVSPropertyOp6
 70
     1
102
RTVSPropertyOp7
 70
     1
102
RTVSPropertyOp8
 70
     1
102
RTVSPropertyOp9
 70
     1
102
RTVSPropertyOp10
 70
     1
102
RTVSPropertyOp11
 70
     1
102
RTVSPropertyOp12
 70
     1
102
RTVSPropertyOp13
 70
     1
102
RTVSPropertyOp14
 70
     1
102
RTVSPropertyOp15
 70
     1
102
RTVSPropertyOp16
 70
     1
102
RTVSPropertyOp17
 70
     1
102
RTVSPropertyOp18
 70
     1
102
RTVSPropertyOp19
 70
     1
102
RTVSPropertyOp20
 70
     1
102
RTVSPropertyOp21
 70
     1
102
RTVSPropertyOp22
 70
     1
102
RTVSPropertyOp23
 70
     1
102
RTVSPropertyOp24
 70
     1
102
RTVSPropertyOp25
 70
     1
102
RTVSPropertyOp26
 70
     1
102
RTVSPropertyOp27
 70
     1
102
RTVSPropertyOp28
 70
     1
102
RTVSPropertyOp29
 70
     1
102
RTVSPropertyOp30
 70
     1
102
RTVSPropertyOp31
 70
     1
102
RTVSPropertyOp32
 70
     1
  0
XRECORD
  5
11DB
102
{ACAD_REACTORS
330
11DA
102
}
330
11DA
100
AcDbXrecord
280
     1
102
RTVSPropertyOp0
 70
     1
102
RTVSPropertyOp1
 70
     1
102
RTVSPropertyOp2
 70
     1
102
RTVSPropertyOp3
 70
     1
102
RTVSPropertyOp4
 70
     1
102
RTVSPropertyOp5
 70
     1
102
RTVSPropertyOp6
 70
     1
102
RTVSPropertyOp7
 70
     1
102
RTVSPropertyOp8
 70
     1
102
RTVSPropertyOp9
 70
     1
102
RTVSPropertyOp10
 70
     1
102
RTVSPropertyOp11
 70
     1
102
RTVSPropertyOp12
 70
     1
102
RTVSPropertyOp13
 70
     1
102
RTVSPropertyOp14
 70
     1
102
RTVSPropertyOp15
 70
     1
102
RTVSPropertyOp16
 70
     1
102
RTVSPropertyOp17
 70
     1
102
RTVSPropertyOp18
 70
     1
102
RTVSPropertyOp19
 70
     1
102
RTVSPropertyOp20
 70
     1
102
RTVSPropertyOp21
 70
     1
102
RTVSPropertyOp22
 70
     1
102
RTVSPropertyOp23
 70
     1
102
RTVSPropertyOp24
 70
     1
102
RTVSPropertyOp25
 70
     1
102
RTVSPropertyOp26
 70
     1
102
RTVSPropertyOp27
 70
     1
102
RTVSPropertyOp28
 70
     1
102
RTVSPropertyOp29
 70
     1
102
RTVSPropertyOp30
 70
     1
102
RTVSPropertyOp31
 70
     1
102
RTVSPropertyOp32
 70
     1
  0
XRECORD
  5
11DD
102
{ACAD_REACTORS
330
11DC
102
}
330
11DC
100
AcDbXrecord
280
     1
102
RTVSPropertyOp0
 70
     1
102
RTVSPropertyOp1
 70
     1
102
RTVSPropertyOp2
 70
     1
102
RTVSPropertyOp3
 70
     1
102
RTVSPropertyOp4
 70
     1
102
RTVSPropertyOp5
 70
     1
102
RTVSPropertyOp6
 70
     1
102
RTVSPropertyOp7
 70
     1
102
RTVSPropertyOp8
 70
     1
102
RTVSPropertyOp9
 70
     1
102
RTVSPropertyOp10
 70
     1
102
RTVSPropertyOp11
 70
     1
102
RTVSPropertyOp12
 70
     1
102
RTVSPropertyOp13
 70
     1
102
RTVSPropertyOp14
 70
     1
102
RTVSPropertyOp15
 70
     1
102
RTVSPropertyOp16
 70
     1
102
RTVSPropertyOp17
 70
     1
102
RTVSPropertyOp18
 70
     1
102
RTVSPropertyOp19
 70
     1
102
RTVSPropertyOp20
 70
     1
102
RTVSPropertyOp21
 70
     1
102
RTVSPropertyOp22
 70
     1
102
RTVSPropertyOp23
 70
     1
102
RTVSPropertyOp24
 70
     1
102
RTVSPropertyOp25
 70
     1
102
RTVSPropertyOp26
 70
     1
102
RTVSPropertyOp27
 70
     1
102
RTVSPropertyOp28
 70
     1
102
RTVSPropertyOp29
 70
     1
102
RTVSPropertyOp30
 70
     1
102
RTVSPropertyOp31
 70
     1
102
RTVSPropertyOp32
 70
     1
  0
XRECORD
  5
11DF
102
{ACAD_REACTORS
330
11DE
102
}
330
11DE
100
AcDbXrecord
280
     1
102
RTVSPropertyOp0
 70
     1
102
RTVSPropertyOp1
 70
     1
102
RTVSPropertyOp2
 70
     1
102
RTVSPropertyOp3
 70
     1
102
RTVSPropertyOp4
 70
     1
102
RTVSPropertyOp5
 70
     1
102
RTVSPropertyOp6
 70
     1
102
RTVSPropertyOp7
 70
     1
102
RTVSPropertyOp8
 70
     1
102
RTVSPropertyOp9
 70
     1
102
RTVSPropertyOp10
 70
     1
102
RTVSPropertyOp11
 70
     1
102
RTVSPropertyOp12
 70
     1
102
RTVSPropertyOp13
 70
     1
102
RTVSPropertyOp14
 70
     1
102
RTVSPropertyOp15
 70
     1
102
RTVSPropertyOp16
 70
     1
102
RTVSPropertyOp17
 70
     1
102
RTVSPropertyOp18
 70
     1
102
RTVSPropertyOp19
 70
     1
102
RTVSPropertyOp20
 70
     1
102
RTVSPropertyOp21
 70
     1
102
RTVSPropertyOp22
 70
     1
102
RTVSPropertyOp23
 70
     1
102
RTVSPropertyOp24
 70
     1
102
RTVSPropertyOp25
 70
     1
102
RTVSPropertyOp26
 70
     1
102
RTVSPropertyOp27
 70
     1
102
RTVSPropertyOp28
 70
     1
102
RTVSPropertyOp29
 70
     1
102
RTVSPropertyOp30
 70
     1
102
RTVSPropertyOp31
 70
     1
102
RTVSPropertyOp32
 70
     1
  0
XRECORD
  5
11E7
102
{ACAD_REACTORS
330
11E6
102
}
330
11E6
100
AcDbXrecord
280
     1
102
RTVSPropertyOp0
 70
     1
102
RTVSPropertyOp1
 70
     1
102
RTVSPropertyOp2
 70
     1
102
RTVSPropertyOp3
 70
     1
102
RTVSPropertyOp4
 70
     1
102
RTVSPropertyOp5
 70
     1
102
RTVSPropertyOp6
 70
     1
102
RTVSPropertyOp7
 70
     1
102
RTVSPropertyOp8
 70
     1
102
RTVSPropertyOp9
 70
     1
102
RTVSPropertyOp10
 70
     1
102
RTVSPropertyOp11
 70
     1
102
RTVSPropertyOp12
 70
     1
102
RTVSPropertyOp13
 70
     1
102
RTVSPropertyOp14
 70
     1
102
RTVSPropertyOp15
 70
     1
102
RTVSPropertyOp16
 70
     1
102
RTVSPropertyOp17
 70
     1
102
RTVSPropertyOp18
 70
     1
102
RTVSPropertyOp19
 70
     1
102
RTVSPropertyOp20
 70
     1
102
RTVSPropertyOp21
 70
     1
102
RTVSPropertyOp22
 70
     1
102
RTVSPropertyOp23
 70
     1
102
RTVSPropertyOp24
 70
     1
102
RTVSPropertyOp25
 70
     1
102
RTVSPropertyOp26
 70
     1
102
RTVSPropertyOp27
 70
     1
102
RTVSPropertyOp28
 70
     1
102
RTVSPropertyOp29
 70
     1
102
RTVSPropertyOp30
 70
     1
102
RTVSPropertyOp31
 70
     1
102
RTVSPropertyOp32
 70
     1
  0
XRECORD
  5
1203
102
{ACAD_REACTORS
330
1202
102
}
330
1202
100
AcDbXrecord
280
     1
102
RTVSPropertyOp0
 70
     0
102
RTVSPropertyOp1
 70
     0
102
RTVSPropertyOp2
 70
     0
102
RTVSPropertyOp3
 70
     0
102
RTVSPropertyOp4
 70
     0
102
RTVSPropertyOp5
 70
     0
102
RTVSPropertyOp6
 70
     0
102
RTVSPropertyOp7
 70
     0
102
RTVSPropertyOp8
 70
     0
102
RTVSPropertyOp9
 70
     0
102
RTVSPropertyOp10
 70
     0
102
RTVSPropertyOp11
 70
     0
102
RTVSPropertyOp12
 70
     0
102
RTVSPropertyOp13
 70
     0
102
RTVSPropertyOp14
 70
     2
102
RTVSPropertyOp15
 70
     0
102
RTVSPropertyOp16
 70
     0
102
RTVSPropertyOp17
 70
     0
102
RTVSPropertyOp18
 70
     0
102
RTVSPropertyOp19
 70
     0
102
RTVSPropertyOp20
 70
     0
102
RTVSPropertyOp21
 70
     0
102
RTVSPropertyOp22
 70
     0
102
RTVSPropertyOp23
 70
     0
102
RTVSPropertyOp24
 70
     0
102
RTVSPropertyOp25
 70
     0
102
RTVSPropertyOp26
 70
     0
102
RTVSPropertyOp27
 70
     0
102
RTVSPropertyOp28
 70
     0
102
RTVSPropertyOp29
 70
     0
102
RTVSPropertyOp30
 70
     0
102
RTVSPropertyOp31
 70
     0
102
RTVSPropertyOp32
 70
     0
  0
XRECORD
  5
11F3
102
{ACAD_REACTORS
330
11F2
102
}
330
11F2
100
AcDbXrecord
280
     1
102
RTVSPropertyOp0
 70
     1
102
RTVSPropertyOp1
 70
     1
102
RTVSPropertyOp2
 70
     1
102
RTVSPropertyOp3
 70
     1
102
RTVSPropertyOp4
 70
     1
102
RTVSPropertyOp5
 70
     1
102
RTVSPropertyOp6
 70
     1
102
RTVSPropertyOp7
 70
     1
102
RTVSPropertyOp8
 70
     1
102
RTVSPropertyOp9
 70
     1
102
RTVSPropertyOp10
 70
     1
102
RTVSPropertyOp11
 70
     1
102
RTVSPropertyOp12
 70
     1
102
RTVSPropertyOp13
 70
     1
102
RTVSPropertyOp14
 70
     1
102
RTVSPropertyOp15
 70
     1
102
RTVSPropertyOp16
 70
     1
102
RTVSPropertyOp17
 70
     1
102
RTVSPropertyOp18
 70
     1
102
RTVSPropertyOp19
 70
     1
102
RTVSPropertyOp20
 70
     1
102
RTVSPropertyOp21
 70
     1
102
RTVSPropertyOp22
 70
     1
102
RTVSPropertyOp23
 70
     1
102
RTVSPropertyOp24
 70
     1
102
RTVSPropertyOp25
 70
     1
102
RTVSPropertyOp26
 70
     1
102
RTVSPropertyOp27
 70
     1
102
RTVSPropertyOp28
 70
     1
102
RTVSPropertyOp29
 70
     1
102
RTVSPropertyOp30
 70
     1
102
RTVSPropertyOp31
 70
     1
102
RTVSPropertyOp32
 70
     1
  0
XRECORD
  5
1205
102
{ACAD_REACTORS
330
1204
102
}
330
1204
100
AcDbXrecord
280
     1
102
RTVSPropertyOp0
 70
     0
102
RTVSPropertyOp1
 70
     0
102
RTVSPropertyOp2
 70
     0
102
RTVSPropertyOp3
 70
     0
102
RTVSPropertyOp4
 70
     0
102
RTVSPropertyOp5
 70
     0
102
RTVSPropertyOp6
 70
     0
102
RTVSPropertyOp7
 70
     0
102
RTVSPropertyOp8
 70
     0
102
RTVSPropertyOp9
 70
     0
102
RTVSPropertyOp10
 70
     0
102
RTVSPropertyOp11
 70
     0
102
RTVSPropertyOp12
 70
     0
102
RTVSPropertyOp13
 70
     0
102
RTVSPropertyOp14
 70
     2
102
RTVSPropertyOp15
 70
     0
102
RTVSPropertyOp16
 70
     0
102
RTVSPropertyOp17
 70
     0
102
RTVSPropertyOp18
 70
     0
102
RTVSPropertyOp19
 70
     0
102
RTVSPropertyOp20
 70
     0
102
RTVSPropertyOp21
 70
     0
102
RTVSPropertyOp22
 70
     0
102
RTVSPropertyOp23
 70
     0
102
RTVSPropertyOp24
 70
     0
102
RTVSPropertyOp25
 70
     0
102
RTVSPropertyOp26
 70
     0
102
RTVSPropertyOp27
 70
     0
102
RTVSPropertyOp28
 70
     0
102
RTVSPropertyOp29
 70
     0
102
RTVSPropertyOp30
 70
     0
102
RTVSPropertyOp31
 70
     0
102
RTVSPropertyOp32
 70
     0
  0
XRECORD
  5
11EB
102
{ACAD_REACTORS
330
11EA
102
}
330
11EA
100
AcDbXrecord
280
     1
102
RTVSPropertyOp0
 70
     1
102
RTVSPropertyOp1
 70
     1
102
RTVSPropertyOp2
 70
     1
102
RTVSPropertyOp3
 70
     1
102
RTVSPropertyOp4
 70
     1
102
RTVSPropertyOp5
 70
     1
102
RTVSPropertyOp6
 70
     1
102
RTVSPropertyOp7
 70
     1
102
RTVSPropertyOp8
 70
     1
102
RTVSPropertyOp9
 70
     1
102
RTVSPropertyOp10
 70
     1
102
RTVSPropertyOp11
 70
     1
102
RTVSPropertyOp12
 70
     1
102
RTVSPropertyOp13
 70
     1
102
RTVSPropertyOp14
 70
     1
102
RTVSPropertyOp15
 70
     1
102
RTVSPropertyOp16
 70
     1
102
RTVSPropertyOp17
 70
     1
102
RTVSPropertyOp18
 70
     1
102
RTVSPropertyOp19
 70
     1
102
RTVSPropertyOp20
 70
     1
102
RTVSPropertyOp21
 70
     1
102
RTVSPropertyOp22
 70
     1
102
RTVSPropertyOp23
 70
     1
102
RTVSPropertyOp24
 70
     1
102
RTVSPropertyOp25
 70
     1
102
RTVSPropertyOp26
 70
     1
102
RTVSPropertyOp27
 70
     1
102
RTVSPropertyOp28
 70
     1
102
RTVSPropertyOp29
 70
     1
102
RTVSPropertyOp30
 70
     1
102
RTVSPropertyOp31
 70
     1
102
RTVSPropertyOp32
 70
     1
  0
XRECORD
  5
1201
102
{ACAD_REACTORS
330
1200
102
}
330
1200
100
AcDbXrecord
280
     1
102
RTVSPropertyOp0
 70
     1
102
RTVSPropertyOp1
 70
     1
102
RTVSPropertyOp2
 70
     1
102
RTVSPropertyOp3
 70
     1
102
RTVSPropertyOp4
 70
     1
102
RTVSPropertyOp5
 70
     1
102
RTVSPropertyOp6
 70
     1
102
RTVSPropertyOp7
 70
     1
102
RTVSPropertyOp8
 70
     1
102
RTVSPropertyOp9
 70
     1
102
RTVSPropertyOp10
 70
     1
102
RTVSPropertyOp11
 70
     1
102
RTVSPropertyOp12
 70
     1
102
RTVSPropertyOp13
 70
     1
102
RTVSPropertyOp14
 70
     1
102
RTVSPropertyOp15
 70
     1
102
RTVSPropertyOp16
 70
     1
102
RTVSPropertyOp17
 70
     1
102
RTVSPropertyOp18
 70
     1
102
RTVSPropertyOp19
 70
     1
102
RTVSPropertyOp20
 70
     1
102
RTVSPropertyOp21
 70
     1
102
RTVSPropertyOp22
 70
     1
102
RTVSPropertyOp23
 70
     1
102
RTVSPropertyOp24
 70
     1
102
RTVSPropertyOp25
 70
     1
102
RTVSPropertyOp26
 70
     1
102
RTVSPropertyOp27
 70
     1
102
RTVSPropertyOp28
 70
     1
102
RTVSPropertyOp29
 70
     1
102
RTVSPropertyOp30
 70
     1
102
RTVSPropertyOp31
 70
     1
102
RTVSPropertyOp32
 70
     1
  0
XRECORD
  5
11FF
102
{ACAD_REACTORS
330
11FE
102
}
330
11FE
100
AcDbXrecord
280
     1
102
RTVSPropertyOp0
 70
     1
102
RTVSPropertyOp1
 70
     1
102
RTVSPropertyOp2
 70
     1
102
RTVSPropertyOp3
 70
     1
102
RTVSPropertyOp4
 70
     1
102
RTVSPropertyOp5
 70
     1
102
RTVSPropertyOp6
 70
     1
102
RTVSPropertyOp7
 70
     1
102
RTVSPropertyOp8
 70
     1
102
RTVSPropertyOp9
 70
     1
102
RTVSPropertyOp10
 70
     1
102
RTVSPropertyOp11
 70
     1
102
RTVSPropertyOp12
 70
     1
102
RTVSPropertyOp13
 70
     1
102
RTVSPropertyOp14
 70
     1
102
RTVSPropertyOp15
 70
     1
102
RTVSPropertyOp16
 70
     1
102
RTVSPropertyOp17
 70
     1
102
RTVSPropertyOp18
 70
     1
102
RTVSPropertyOp19
 70
     1
102
RTVSPropertyOp20
 70
     1
102
RTVSPropertyOp21
 70
     1
102
RTVSPropertyOp22
 70
     1
102
RTVSPropertyOp23
 70
     1
102
RTVSPropertyOp24
 70
     1
102
RTVSPropertyOp25
 70
     1
102
RTVSPropertyOp26
 70
     1
102
RTVSPropertyOp27
 70
     1
102
RTVSPropertyOp28
 70
     1
102
RTVSPropertyOp29
 70
     1
102
RTVSPropertyOp30
 70
     1
102
RTVSPropertyOp31
 70
     1
102
RTVSPropertyOp32
 70
     1
  0
XRECORD
  5
11F9
102
{ACAD_REACTORS
330
11F8
102
}
330
11F8
100
AcDbXrecord
280
     1
102
RTVSPropertyOp0
 70
     1
102
RTVSPropertyOp1
 70
     1
102
RTVSPropertyOp2
 70
     1
102
RTVSPropertyOp3
 70
     1
102
RTVSPropertyOp4
 70
     1
102
RTVSPropertyOp5
 70
     1
102
RTVSPropertyOp6
 70
     1
102
RTVSPropertyOp7
 70
     1
102
RTVSPropertyOp8
 70
     1
102
RTVSPropertyOp9
 70
     1
102
RTVSPropertyOp10
 70
     1
102
RTVSPropertyOp11
 70
     1
102
RTVSPropertyOp12
 70
     1
102
RTVSPropertyOp13
 70
     1
102
RTVSPropertyOp14
 70
     1
102
RTVSPropertyOp15
 70
     1
102
RTVSPropertyOp16
 70
     1
102
RTVSPropertyOp17
 70
     1
102
RTVSPropertyOp18
 70
     1
102
RTVSPropertyOp19
 70
     1
102
RTVSPropertyOp20
 70
     1
102
RTVSPropertyOp21
 70
     1
102
RTVSPropertyOp22
 70
     1
102
RTVSPropertyOp23
 70
     1
102
RTVSPropertyOp24
 70
     1
102
RTVSPropertyOp25
 70
     1
102
RTVSPropertyOp26
 70
     1
102
RTVSPropertyOp27
 70
     1
102
RTVSPropertyOp28
 70
     1
102
RTVSPropertyOp29
 70
     1
102
RTVSPropertyOp30
 70
     1
102
RTVSPropertyOp31
 70
     1
102
RTVSPropertyOp32
 70
     1
  0
XRECORD
  5
11FB
102
{ACAD_REACTORS
330
11FA
102
}
330
11FA
100
AcDbXrecord
280
     1
102
RTVSPropertyOp0
 70
     1
102
RTVSPropertyOp1
 70
     1
102
RTVSPropertyOp2
 70
     1
102
RTVSPropertyOp3
 70
     1
102
RTVSPropertyOp4
 70
     1
102
RTVSPropertyOp5
 70
     1
102
RTVSPropertyOp6
 70
     1
102
RTVSPropertyOp7
 70
     1
102
RTVSPropertyOp8
 70
     1
102
RTVSPropertyOp9
 70
     1
102
RTVSPropertyOp10
 70
     1
102
RTVSPropertyOp11
 70
     1
102
RTVSPropertyOp12
 70
     1
102
RTVSPropertyOp13
 70
     1
102
RTVSPropertyOp14
 70
     1
102
RTVSPropertyOp15
 70
     1
102
RTVSPropertyOp16
 70
     1
102
RTVSPropertyOp17
 70
     1
102
RTVSPropertyOp18
 70
     1
102
RTVSPropertyOp19
 70
     1
102
RTVSPropertyOp20
 70
     1
102
RTVSPropertyOp21
 70
     1
102
RTVSPropertyOp22
 70
     1
102
RTVSPropertyOp23
 70
     1
102
RTVSPropertyOp24
 70
     1
102
RTVSPropertyOp25
 70
     1
102
RTVSPropertyOp26
 70
     1
102
RTVSPropertyOp27
 70
     1
102
RTVSPropertyOp28
 70
     1
102
RTVSPropertyOp29
 70
     1
102
RTVSPropertyOp30
 70
     1
102
RTVSPropertyOp31
 70
     1
102
RTVSPropertyOp32
 70
     1
  0
XRECORD
  5
11F1
102
{ACAD_REACTORS
330
11F0
102
}
330
11F0
100
AcDbXrecord
280
     1
102
RTVSPropertyOp0
 70
     1
102
RTVSPropertyOp1
 70
     1
102
RTVSPropertyOp2
 70
     1
102
RTVSPropertyOp3
 70
     1
102
RTVSPropertyOp4
 70
     1
102
RTVSPropertyOp5
 70
     1
102
RTVSPropertyOp6
 70
     1
102
RTVSPropertyOp7
 70
     1
102
RTVSPropertyOp8
 70
     1
102
RTVSPropertyOp9
 70
     1
102
RTVSPropertyOp10
 70
     1
102
RTVSPropertyOp11
 70
     1
102
RTVSPropertyOp12
 70
     1
102
RTVSPropertyOp13
 70
     1
102
RTVSPropertyOp14
 70
     1
102
RTVSPropertyOp15
 70
     1
102
RTVSPropertyOp16
 70
     1
102
RTVSPropertyOp17
 70
     1
102
RTVSPropertyOp18
 70
     1
102
RTVSPropertyOp19
 70
     1
102
RTVSPropertyOp20
 70
     1
102
RTVSPropertyOp21
 70
     1
102
RTVSPropertyOp22
 70
     1
102
RTVSPropertyOp23
 70
     1
102
RTVSPropertyOp24
 70
     1
102
RTVSPropertyOp25
 70
     1
102
RTVSPropertyOp26
 70
     1
102
RTVSPropertyOp27
 70
     1
102
RTVSPropertyOp28
 70
     1
102
RTVSPropertyOp29
 70
     1
102
RTVSPropertyOp30
 70
     1
102
RTVSPropertyOp31
 70
     1
102
RTVSPropertyOp32
 70
     1
  0
XRECORD
  5
11E5
102
{ACAD_REACTORS
330
11E4
102
}
330
11E4
100
AcDbXrecord
280
     1
102
RTVSPropertyOp0
 70
     1
102
RTVSPropertyOp1
 70
     1
102
RTVSPropertyOp2
 70
     1
102
RTVSPropertyOp3
 70
     1
102
RTVSPropertyOp4
 70
     1
102
RTVSPropertyOp5
 70
     1
102
RTVSPropertyOp6
 70
     1
102
RTVSPropertyOp7
 70
     1
102
RTVSPropertyOp8
 70
     1
102
RTVSPropertyOp9
 70
     1
102
RTVSPropertyOp10
 70
     1
102
RTVSPropertyOp11
 70
     1
102
RTVSPropertyOp12
 70
     1
102
RTVSPropertyOp13
 70
     1
102
RTVSPropertyOp14
 70
     1
102
RTVSPropertyOp15
 70
     1
102
RTVSPropertyOp16
 70
     1
102
RTVSPropertyOp17
 70
     1
102
RTVSPropertyOp18
 70
     1
102
RTVSPropertyOp19
 70
     1
102
RTVSPropertyOp20
 70
     1
102
RTVSPropertyOp21
 70
     1
102
RTVSPropertyOp22
 70
     1
102
RTVSPropertyOp23
 70
     1
102
RTVSPropertyOp24
 70
     1
102
RTVSPropertyOp25
 70
     1
102
RTVSPropertyOp26
 70
     1
102
RTVSPropertyOp27
 70
     1
102
RTVSPropertyOp28
 70
     1
102
RTVSPropertyOp29
 70
     1
102
RTVSPropertyOp30
 70
     1
102
RTVSPropertyOp31
 70
     1
102
RTVSPropertyOp32
 70
     1
  0
XRECORD
  5
11FD
102
{ACAD_REACTORS
330
11FC
102
}
330
11FC
100
AcDbXrecord
280
     1
102
RTVSPropertyOp0
 70
     1
102
RTVSPropertyOp1
 70
     1
102
RTVSPropertyOp2
 70
     1
102
RTVSPropertyOp3
 70
     1
102
RTVSPropertyOp4
 70
     1
102
RTVSPropertyOp5
 70
     1
102
RTVSPropertyOp6
 70
     1
102
RTVSPropertyOp7
 70
     1
102
RTVSPropertyOp8
 70
     1
102
RTVSPropertyOp9
 70
     1
102
RTVSPropertyOp10
 70
     1
102
RTVSPropertyOp11
 70
     1
102
RTVSPropertyOp12
 70
     1
102
RTVSPropertyOp13
 70
     1
102
RTVSPropertyOp14
 70
     1
102
RTVSPropertyOp15
 70
     1
102
RTVSPropertyOp16
 70
     1
102
RTVSPropertyOp17
 70
     1
102
RTVSPropertyOp18
 70
     1
102
RTVSPropertyOp19
 70
     1
102
RTVSPropertyOp20
 70
     1
102
RTVSPropertyOp21
 70
     1
102
RTVSPropertyOp22
 70
     1
102
RTVSPropertyOp23
 70
     1
102
RTVSPropertyOp24
 70
     1
102
RTVSPropertyOp25
 70
     1
102
RTVSPropertyOp26
 70
     1
102
RTVSPropertyOp27
 70
     1
102
RTVSPropertyOp28
 70
     1
102
RTVSPropertyOp29
 70
     1
102
RTVSPropertyOp30
 70
     1
102
RTVSPropertyOp31
 70
     1
102
RTVSPropertyOp32
 70
     1
  0
ENDSEC
  0
EOF
