  0
SECTION
  2
HEADER
  9
$ACADVER
  1
AC1009
  9
$INSBASE
 10
0.0
 20
0.0
 30
0.0
  9
$EXTMIN
 10
-0.0000000000001137
 20
-0.0000000000000533
 30
0.0
  9
$EXTMAX
 10
193.00000000000011
 20
280.00000000000011
 30
0.0
  9
$LIMMIN
 10
0.0
 20
0.0
  9
$LIMMAX
 10
193.0
 20
280.00000000000011
  9
$ORTHOMODE
 70
     0
  9
$REGENMODE
 70
     1
  9
$FILLMODE
 70
     1
  9
$QTEXTMODE
 70
     0
  9
$MIRRTEXT
 70
     1
  9
$DRAGMODE
 70
     2
  9
$LTSCALE
 40
1.0
  9
$OSMODE
 70
   431
  9
$ATTMODE
 70
     1
  9
$TEXTSIZE
 40
73.985717453579113
  9
$TRACEWID
 40
1.0
  9
$TEXTSTYLE
  7
STANDARD
  9
$CLAYER
  8
パネル
  9
$CELTYPE
  6
BYLAYER
  9
$CECOLOR
 62
   256
  9
$DIMSCALE
 40
1.0
  9
$DIMASZ
 40
2.5
  9
$DIMEXO
 40
1.0
  9
$DIMDLI
 40
10.0
  9
$DIMRND
 40
0.0
  9
$DIMDLE
 40
0.0
  9
$DIMEXE
 40
1.0
  9
$DIMTP
 40
0.1
  9
$DIMTM
 40
0.1
  9
$DIMTXT
 40
3.5
  9
$DIMCEN
 40
0.0
  9
$DIMTSZ
 40
0.0
  9
$DIMTOL
 70
     0
  9
$DIMLIM
 70
     0
  9
$DIMTIH
 70
     0
  9
$DIMTOH
 70
     0
  9
$DIMSE1
 70
     0
  9
$DIMSE2
 70
     0
  9
$DIMTAD
 70
     1
  9
$DIMZIN
 70
     8
  9
$DIMBLK
  1
OPEN30
  9
$DIMASO
 70
     1
  9
$DIMSHO
 70
     1
  9
$DIMPOST
  1

  9
$DIMAPOST
  1
"
  9
$DIMALT
 70
     0
  9
$DIMALTD
 70
     2
  9
$DIMALTF
 40
0.0393701
  9
$DIMLFAC
 40
1.0
  9
$DIMTOFL
 70
     1
  9
$DIMTVP
 40
0.0
  9
$DIMTIX
 70
     0
  9
$DIMSOXD
 70
     0
  9
$DIMSAH
 70
     0
  9
$DIMBLK1
  1

  9
$DIMBLK2
  1

  9
$DIMSTYLE
  2
AM_ISO
  9
$DIMCLRD
 70
   256
  9
$DIMCLRE
 70
   256
  9
$DIMCLRT
 70
     2
  9
$DIMTFAC
 40
0.71
  9
$DIMGAP
 40
1.5
  9
$LUNITS
 70
     2
  9
$LUPREC
 70
     2
  9
$SKETCHINC
 40
1.0
  9
$FILLETRAD
 40
12.5
  9
$AUNITS
 70
     0
  9
$AUPREC
 70
     0
  9
$MENU
  1
.
  9
$ELEVATION
 40
0.0
  9
$PELEVATION
 40
0.0
  9
$THICKNESS
 40
0.0
  9
$LIMCHECK
 70
     0
  9
$BLIPMODE
 70
     0
  9
$CHAMFERA
 40
12.5
  9
$CHAMFERB
 40
12.5
  9
$SKPOLY
 70
     0
  9
$TDCREATE
 40
2453938.6370147918
  9
$TDUPDATE
 40
2454942.4817816778
  9
$TDINDWG
 40
0.0518690278
  9
$TDUSRTIMER
 40
0.0518690278
  9
$USRTIMER
 70
     1
  9
$ANGBASE
 50
0.0
  9
$ANGDIR
 70
     0
  9
$PDMODE
 70
     0
  9
$PDSIZE
 40
0.0
  9
$PLINEWID
 40
0.0
  9
$COORDS
 70
     2
  9
$SPLFRAME
 70
     0
  9
$SPLINETYPE
 70
     6
  9
$SPLINESEGS
 70
     8
  9
$ATTDIA
 70
     1
  9
$ATTREQ
 70
     1
  9
$HANDLING
 70
     1
  9
$HANDSEED
  5
130E
  9
$SURFTAB1
 70
     6
  9
$SURFTAB2
 70
     6
  9
$SURFTYPE
 70
     6
  9
$SURFU
 70
     6
  9
$SURFV
 70
     6
  9
$UCSNAME
  2

  9
$UCSORG
 10
0.0
 20
0.0
 30
0.0
  9
$UCSXDIR
 10
1.0
 20
0.0
 30
0.0
  9
$UCSYDIR
 10
0.0
 20
1.0
 30
0.0
  9
$PUCSNAME
  2

  9
$PUCSORG
 10
0.0
 20
0.0
 30
0.0
  9
$PUCSXDIR
 10
1.0
 20
0.0
 30
0.0
  9
$PUCSYDIR
 10
0.0
 20
1.0
 30
0.0
  9
$USERI1
 70
     0
  9
$USERI2
 70
     0
  9
$USERI3
 70
     0
  9
$USERI4
 70
     0
  9
$USERI5
 70
     0
  9
$USERR1
 40
0.0
  9
$USERR2
 40
0.0
  9
$USERR3
 40
0.0
  9
$USERR4
 40
0.0
  9
$USERR5
 40
0.0
  9
$WORLDVIEW
 70
     1
  9
$SHADEDGE
 70
     3
  9
$SHADEDIF
 70
    70
  9
$TILEMODE
 70
     1
  9
$MAXACTVP
 70
    64
  9
$PLIMCHECK
 70
     0
  9
$PEXTMIN
 10
1.0000000000000000E+020
 20
1.0000000000000000E+020
 30
1.0000000000000000E+020
  9
$PEXTMAX
 10
-1.0000000000000000E+020
 20
-1.0000000000000000E+020
 30
-1.0000000000000000E+020
  9
$PLIMMIN
 10
-6.350006103515625
 20
-6.3499999046325684
  9
$PLIMMAX
 10
273.04998779296881
 20
209.54999399185181
  9
$UNITMODE
 70
     0
  9
$VISRETAIN
 70
     1
  9
$PLINEGEN
 70
     0
  9
$PSLTSCALE
 70
     1
  0
ENDSEC
  0
SECTION
  2
TABLES
  0
TABLE
  2
VPORT
 70
     3
  0
VPORT
  2
*ACTIVE
 70
     0
 10
0.0
 20
0.0
 11
1.0
 21
1.0
 12
96.499757998031285
 22
140.0020310635222
 13
0.0
 23
0.0
 14
2.5
 24
2.5
 15
10.0
 25
10.0
 16
0.0
 26
0.0
 36
1.0
 17
0.0
 27
0.0
 37
0.0
 40
282.24013781513997
 41
1.245110821382007
 42
50.0
 43
0.0
 44
0.0
 50
0.0
 51
0.0
 71
    16
 72
   100
 73
     1
 74
     3
 75
     0
 76
     0
 77
     0
 78
     0
  0
ENDTAB
  0
TABLE
  2
LTYPE
 70
    25
  0
LTYPE
  2
CONTINUOUS
 70
     0
  3
Solid line
 72
    65
 73
     0
 40
0.0
  0
LTYPE
  2
AM_ISO02W050
 70
     0
  3
__ __ __ __ __ __ __ __ __ __ __ __ __ __ __
 72
    65
 73
     2
 40
7.5
 49
6.0
 49
-1.5
  0
LTYPE
  2
AM_ISO08W050
 70
     0
  3
____ . ____ . ____ . ____ . ____ . ____ . ____
 72
    65
 73
     4
 40
18.0
 49
12.0
 49
-1.5
 49
3.0
 49
-1.5
  0
LTYPE
  2
AM_ISO09W050
 70
     0
  3
_____ . . _____ . . _____ . . ____ .. ____
 72
    65
 73
     6
 40
22.5
 49
12.0
 49
-1.5
 49
3.0
 49
-1.5
 49
3.0
 49
-1.5
  0
LTYPE
  2
AMCONSTR
 70
     0
  3
_______________________
 72
    65
 73
     2
 40
9999.0
 49
9999.0
 49
0.0
  0
LTYPE
  2
AM_ISO08W050X2
 70
     0
  3
__ . __ . __ . __ . __ . __
 72
    65
 73
     4
 40
9.0
 49
6.0
 49
-0.75
 49
1.5
 49
-0.75
  0
LTYPE
  2
AM_ISO02W050X2
 70
     0
  3
 _ _ _ _ _ _ _ _ _ _ _ _
 72
    65
 73
     2
 40
3.75
 49
3.0
 49
-0.75
  0
LTYPE
  2
AMZIGZAG
 70
     0
  3
/\/-/\/-/\/-/\/-/\/-/\/
 72
    65
 73
     2
 40
11.0001
 49
0.0001
 49
-11.0
  0
LTYPE
  2
ACISOWELD
 70
     0
  3
_ _ _ _ _
 72
    65
 73
     2
 40
2.0
 49
2.0
 49
-1.0
  0
LTYPE
  2
ACISOTGB
 70
     0
  3
__ . . __ . .
 72
    65
 73
     6
 40
9.0
 49
4.0
 49
-1.0
 49
1.0
 49
-1.0
 49
1.0
 49
-1.0
  0
LTYPE
  2
ACISOTGL
 70
     0
  3
_ _ _ _ _
 72
    65
 73
     2
 40
3.0
 49
2.0
 49
-1.0
  0
LTYPE
  2
CENTER
 70
     0
  3
__ . __
 72
    65
 73
     4
 40
7.0
 49
4.0
 49
-1.0
 49
1.0
 49
-1.0
  0
LTYPE
  2
HIDDEN
 70
     0
  3
Hidden __ __ __ __ __ __ __ __ __ __ __ __ __ _
 72
    65
 73
     2
 40
9.5249999999999986
 49
6.3499999999999988
 49
-3.1749999999999989
  0
LTYPE
  2
PHANTOM2
 70
     0
  3
Phantom (.5x) ___ _ _ ___ _ _ ___ _ _ ___ _ _
 72
    65
 73
     6
 40
31.75
 49
15.875
 49
-3.1749999999999989
 49
3.1749999999999989
 49
-3.1749999999999989
 49
3.1749999999999989
 49
-3.1749999999999989
  0
LTYPE
  2
GEN3
 70
     0
  3
-- -- -- -- -- -- -- -- -- -- -- -- -- -- --
 72
    65
 73
     2
 40
6.25
 49
4.75
 49
-1.5
  0
LTYPE
  2
GEN7
 70
     0
  3
____ . ____ . ____ . ____ . ____ . ____ . ____
 72
    65
 73
     4
 40
13.75
 49
9.75
 49
-1.5
 49
1.0
 49
-1.5
  0
LTYPE
  2
GEN3A
 70
     0
  3
 - - - - -
 72
    65
 73
     2
 40
3.125
 49
2.25
 49
-0.875
  0
LTYPE
  2
GEN7A
 70
     0
  3
__ . __ . __
 72
    65
 73
     4
 40
6.875
 49
4.75
 49
-0.875
 49
0.375
 49
-0.875
  0
LTYPE
  2
GEN4A
 70
     0
  3
_____ . . _____ . . _____ . . ____ .. ____
 72
    65
 73
     6
 40
16.25
 49
9.75
 49
-1.5
 49
1.0
 49
-1.5
 49
1.0
 49
-1.5
  0
LTYPE
  2
GENZIGZAG
 70
     0
  3
/\/-/\/-/\/-/\/-/\/-/\/
 72
    65
 73
     2
 40
12.0001
 49
0.0001
 49
-12.0
  0
LTYPE
  2
HIDDEN2
 70
     0
  3
Hidden (.5x) _ _ _ _ _ _ _ _ _ _ _ _ _ _ _ _ _
 72
    65
 73
     2
 40
0.1875
 49
0.125
 49
-0.0625
  0
LTYPE
  2
CENTER2
 70
     0
  3
Center (.5x) ___ _ ___ _ ___ _ ___ _ ___ _ ___
 72
    65
 73
     4
 40
1.125
 49
0.75
 49
-0.125
 49
0.125
 49
-0.125
  0
LTYPE
  2
AMZIGZAG2
 70
     0
  3
/\/-/\/-/\/-/\/-/\/-/\/
 72
    65
 73
     2
 40
0.4401
 49
0.0001
 49
-0.4400000000000001
  0
LTYPE
  2
ACANSTGB
 70
     0
  3
__ . . __ . .
 72
    65
 73
     6
 40
0.35433070866
 49
0.15748031496
 49
-0.03937007874
 49
0.03937007874
 49
-0.03937007874
 49
0.03937007874
 49
-0.03937007874
  0
LTYPE
  2
ACANSTGL
 70
     0
  3
_ _ _ _ _
 72
    65
 73
     2
 40
0.11811023622
 49
0.07874015748
 49
-0.03937007874
  0
ENDTAB
  0
TABLE
  2
LAYER
 70
    20
  0
LAYER
  2
0
 70
     0
 62
     7
  6
CONTINUOUS
  0
LAYER
  2
DEFPOINTS
 70
     0
 62
     7
  6
CONTINUOUS
  0
LAYER
  2
ハンドル
 70
     0
 62
     7
  6
CONTINUOUS
  0
LAYER
  2
ハンドル0
 70
     0
 62
     7
  6
AM_ISO02W050X2
  0
LAYER
  2
パネル
 70
     0
 62
    51
  6
CONTINUOUS
  0
LAYER
  2
パネル0
 70
     0
 62
    51
  6
AM_ISO02W050X2
  0
LAYER
  2
7A
 70
     0
 62
     4
  6
GEN7A
  0
LAYER
  2
RAHM2
 70
     0
 62
     1
  6
CONTINUOUS
  0
LAYER
  2
KLIN
 70
     0
 62
     1
  6
CONTINUOUS
  0
LAYER
  2
AM_5
 70
     0
 62
     3
  6
CONTINUOUS
  0
LAYER
  2
AM_12
 70
     0
 62
     7
  6
CONTINUOUS
  0
LAYER
  2
AM_PAREF
 70
     0
 62
     4
  6
CONTINUOUS
  0
LAYER
  2
AM_7
 70
     0
 62
     4
  6
AM_ISO08W050
  0
LAYER
  2
AM_0N
 70
     0
 62
     7
  6
CONTINUOUS
  0
LAYER
  2
AM_4N
 70
     0
 62
     3
  6
CONTINUOUS
  0
LAYER
  2
AM_7N
 70
     0
 62
     4
  6
AM_ISO08W050
  0
LAYER
  2
AM_9
 70
     0
 62
   253
  6
CONTINUOUS
  0
LAYER
  2
AM_CL
 70
     0
 62
     1
  6
AMCONSTR
  0
LAYER
  2
ﾋ_ｽ
 70
     0
 62
     8
  6
CONTINUOUS
  0
LAYER
  2
ﾋ_ｽ0
 70
     0
 62
     8
  6
AM_ISO02W050X2
  0
ENDTAB
  0
TABLE
  2
STYLE
 70
     8
  0
STYLE
  2
STANDARD
 70
     0
 40
0.0
 41
1.0
 50
0.0
 71
     0
 42
73.985717453579113
  3
ISOCP.SHX
  4
bigfont.shx
  0
STYLE
  2

 70
     1
 40
0.0
 41
1.0
 50
0.0
 71
     0
 42
2.5
  3
ltypeshp.shx
  4

  0
STYLE
  2
ACISOTS
 70
     0
 40
1.0
 41
1.0
 50
0.0
 71
     0
 42
2.5
  3
isocp.shx
  4
extfont.shx
  0
STYLE
  2
ACISOGDT
 70
     0
 40
0.0
 41
1.0
 50
0.0
 71
     0
 42
2.5
  3
amgdt.shx
  4

  0
STYLE
  2

 70
     1
 40
0.0
 41
1.0
 50
0.0
 71
     0
 42
3.0
  3
genltshp.shx
  4

  0
STYLE
  2
STD
 70
     0
 40
0.0
 41
1.0
 50
0.0
 71
     0
 42
3.2000000000000002
  3
TXT
  4
BIGFONT
  0
STYLE
  2
ACANSTS
 70
     0
 40
1.0
 41
1.0
 50
0.0
 71
     0
 42
3.2000000000000002
  3
romans.shx
  4
extfont.shx
  0
STYLE
  2
ACANSGDT
 70
     0
 40
0.0
 41
1.0
 50
0.0
 71
     0
 42
3.2000000000000002
  3
amgdtans.shx
  4

  0
ENDTAB
  0
TABLE
  2
VIEW
 70
     6
  0
VIEW
  2
AM_VIEW1
 70
     0
 40
140.0
 10
87.135416666666686
 20
210.0
 41
174.27083333333329
 11
0.0
 21
0.0
 31
1.0
 12
0.0
 22
0.0
 32
0.0
 42
50.0
 43
0.0
 44
0.0
 50
0.0
 71
    16
  0
VIEW
  2
AM_VIEW2
 70
     0
 40
140.0
 10
105.8645833333333
 20
210.0
 41
174.27083333333329
 11
0.0
 21
0.0
 31
1.0
 12
0.0
 22
0.0
 32
0.0
 42
50.0
 43
0.0
 44
0.0
 50
0.0
 71
    16
  0
VIEW
  2
AM_VIEW3
 70
     0
 40
140.0
 10
87.135416666666686
 20
70.000000000000014
 41
174.27083333333329
 11
0.0
 21
0.0
 31
1.0
 12
0.0
 22
0.0
 32
0.0
 42
50.0
 43
0.0
 44
0.0
 50
0.0
 71
    16
  0
VIEW
  2
AM_VIEW4
 70
     0
 40
140.0
 10
105.8645833333333
 20
70.000000000000014
 41
174.27083333333329
 11
0.0
 21
0.0
 31
1.0
 12
0.0
 22
0.0
 32
0.0
 42
50.0
 43
0.0
 44
0.0
 50
0.0
 71
    16
  0
VIEW
  2
AM_VIEW5
 70
     0
 40
140.0
 10
96.5
 20
140.0
 41
174.27083333333329
 11
0.0
 21
0.0
 31
1.0
 12
0.0
 22
0.0
 32
0.0
 42
50.0
 43
0.0
 44
0.0
 50
0.0
 71
    16
  0
VIEW
  2
AM_VIEW6
 70
     0
 40
279.99720000000008
 10
96.5
 20
140.0
 41
348.53818125000009
 11
0.0
 21
0.0
 31
1.0
 12
0.0
 22
0.0
 32
0.0
 42
50.0
 43
0.0
 44
0.0
 50
0.0
 71
    16
  0
ENDTAB
  0
TABLE
  2
UCS
 70
     0
  0
ENDTAB
  0
TABLE
  2
APPID
 70
    44
  0
APPID
  2
ACAD
 70
     0
  0
APPID
  2
MCAD_NO_VIS
 70
     0
  0
APPID
  2
ACAD_TEMP_GRAPHIC
 70
     0
  0
APPID
  2
ACATTRIBSERVICES
 70
     0
  0
APPID
  2
AD_DRAW
 70
     0
  0
APPID
  2
DESIGNERASSEMBLIES
 70
     0
  0
APPID
  2
ACADM_DIM_EDIT
 70
     0
  0
APPID
  2
AMDT_DM_ADJ
 70
     0
  0
APPID
  2
GENIUS_GENREC_14
 70
     0
  0
APPID
  2
GENIUS_GENODEF_13
 70
     0
  0
APPID
  2
GENIUS_GENOBJ-N-REC_13
 70
     0
  0
APPID
  2
GENIUS_GENDIMSH_14
 70
     0
  0
APPID
  2
GENIUS_GENCFG_13
 70
     0
  0
APPID
  2
GENIUS_GENCFG0_13
 70
     0
  0
APPID
  2
GENIUS_GENCFG1_13
 70
     0
  0
APPID
  2
GENIUS_GENCFG2_13
 70
     0
  0
APPID
  2
GENIUS_GENCFG3_13
 70
     0
  0
APPID
  2
GENIUS_GENCFG4_13
 70
     0
  0
APPID
  2
GENIUS_GEVCFG0_13
 70
     0
  0
APPID
  2
GENIUS_GENOENT_13
 70
     0
  0
APPID
  2
GENIUS_GENOBJ-N-CRS_13
 70
     0
  0
APPID
  2
GENIUS_GENOREF_13
 70
     0
  0
APPID
  2
GENIUS_GENOLIS_13
 70
     0
  0
APPID
  2
GENIUS_GENOBJ-N-TIT_13
 70
     0
  0
APPID
  2
GENIUS_GENTITLE_13
 70
     0
  0
APPID
  2
GENIUS_GENSCREG_15
 70
     0
  0
APPID
  2
GENIUS_GENOBJ-N-SDF_13
 70
     0
  0
APPID
  2
GENIUS_GENOBJ-N-CEN_13
 70
     0
  0
APPID
  2
GENIUS_GENOBJ-N-HTC_13
 70
     0
  0
APPID
  2
GENIUS_GENHATCH_13
 70
     0
  0
APPID
  2
GENIUS_GENOBJ-N-ZOO_13
 70
     0
  0
APPID
  2
GENIUS_GENZOO_17
 70
     0
  0
APPID
  2
GEV_VCCNULL_SWITCH_OFF
 70
     0
  0
APPID
  2
GENIUS_GENDTOL_13
 70
     0
  0
APPID
  2
GEVID1153463435
 70
     0
  0
APPID
  2
GEVMK
 70
     0
  0
APPID
  2
GEVDC
 70
     0
  0
APPID
  2
AMG_2DHIDE
 70
     0
  0
APPID
  2
AMG_2DSTRUCT_BTR
 70
     0
  0
APPID
  2
ACADM_2DVIEW_IGN_NOTIFY
 70
     0
  0
APPID
  2
GEVID1153463437
 70
     0
  0
APPID
  2
ACAD_DSTYLE_DIMTEXT_FILL
 70
     0
  0
APPID
  2
GENIUS_GENOBJ-N-FIL_13
 70
     0
  0
APPID
  2
GENIUS_GENSCREG_13
 70
     0
  0
ENDTAB
  0
TABLE
  2
DIMSTYLE
 70
    23
  0
DIMSTYLE
  2
AM_ISO
 70
     0
  3

  4
"
  5
OPEN30
  6

  7

 40
1.0
 41
2.5
 42
1.0
 43
10.0
 44
1.0
 45
0.0
 46
0.0
 47
0.1
 48
0.1
140
3.5
141
0.0
142
0.0
143
0.0393701
144
1.0
145
0.0
146
0.71
147
1.5
 71
     0
 72
     0
 73
     0
 74
     0
 75
     0
 76
     0
 77
     1
 78
     8
170
     0
171
     2
172
     1
173
     0
174
     0
175
     0
176
   256
177
   256
178
     2
  0
DIMSTYLE
  2
AM_ISO$3
 70
     0
  3

  4
"
  5
OPEN30
  6

  7

 40
1.0
 41
2.5
 42
1.0
 43
10.0
 44
1.0
 45
0.0
 46
0.0
 47
0.1
 48
0.1
140
3.5
141
0.0
142
0.0
143
0.0393701
144
1.0
145
0.0
146
0.71
147
1.5
 71
     0
 72
     0
 73
     0
 74
     1
 75
     0
 76
     0
 77
     1
 78
     8
170
     0
171
     2
172
     0
173
     0
174
     0
175
     0
176
   256
177
   256
178
     2
  0
DIMSTYLE
  2
AM_ISO$4
 70
     0
  3

  4
"
  5
OPEN30
  6

  7

 40
1.0
 41
2.5
 42
1.0
 43
10.0
 44
1.0
 45
0.0
 46
0.0
 47
0.1
 48
0.1
140
3.5
141
0.0
142
0.0
143
0.0393701
144
1.0
145
0.0
146
0.71
147
1.5
 71
     0
 72
     0
 73
     0
 74
     1
 75
     0
 76
     0
 77
     1
 78
     8
170
     0
171
     2
172
     0
173
     0
174
     0
175
     0
176
   256
177
   256
178
     2
  0
DIMSTYLE
  2
AM_ISO$6
 70
     0
  3

  4
"
  5
OPEN30
  6

  7

 40
1.0
 41
2.5
 42
1.0
 43
10.0
 44
1.0
 45
0.0
 46
0.0
 47
0.1
 48
0.1
140
3.5
141
0.0
142
0.0
143
0.0393701
144
1.0
145
0.0
146
0.71
147
1.5
 71
     0
 72
     0
 73
     0
 74
     0
 75
     0
 76
     0
 77
     0
 78
     8
170
     0
171
     2
172
     1
173
     0
174
     0
175
     0
176
   256
177
   256
178
     2
  0
DIMSTYLE
  2
AM_ISO$7
 70
     0
  3

  4
"
  5
OPEN30
  6

  7

 40
1.0
 41
2.5
 42
1.0
 43
10.0
 44
1.0
 45
0.0
 46
0.0
 47
0.1
 48
0.1
140
5.0
141
0.0
142
0.0
143
0.0393701
144
1.0
145
0.0
146
0.71
147
1.5
 71
     0
 72
     0
 73
     0
 74
     0
 75
     0
 76
     0
 77
     1
 78
     8
170
     0
171
     2
172
     1
173
     0
174
     0
175
     0
176
   256
177
   256
178
     2
  0
DIMSTYLE
  2
AM_ISO$SF
 70
     0
  3

  4
"
  5
OPEN30
  6

  7

 40
1.0
 41
2.5
 42
1.0
 43
10.0
 44
1.0
 45
0.0
 46
0.0
 47
0.1
 48
0.1
140
3.5
141
0.0
142
0.0
143
0.0393701
144
1.0
145
0.0
146
0.71
147
1.5
 71
     0
 72
     0
 73
     0
 74
     0
 75
     1
 76
     1
 77
     1
 78
     8
170
     0
171
     2
172
     1
173
     0
174
     0
175
     0
176
   256
177
   256
178
     2
  0
DIMSTYLE
  2
AM_ISO$SH
 70
     0
  3

  4
"
  5

  6
GENAXEH
  7
OPEN30
 40
1.0
 41
2.5
 42
1.0
 43
10.0
 44
1.0
 45
0.0
 46
0.0
 47
0.1
 48
0.1
140
3.5
141
0.0
142
0.0
143
0.0393701
144
2.0
145
0.0
146
0.71
147
1.5
 71
     0
 72
     0
 73
     0
 74
     0
 75
     1
 76
     1
 77
     1
 78
     8
170
     0
171
     2
172
     1
173
     1
174
     0
175
     0
176
   256
177
   256
178
     2
  0
DIMSTYLE
  2
GEN-ISO
 70
     0
  3

  4
"
  5

  6

  7

 40
1.0
 41
2.5
 42
1.0
 43
10.0
 44
1.0
 45
0.0
 46
0.0
 47
0.1
 48
0.1
140
3.5
141
0.0
142
0.0
143
0.0393701
144
1.0
145
0.0
146
0.71
147
1.5
 71
     0
 72
     0
 73
     0
 74
     0
 75
     0
 76
     0
 77
     1
 78
     8
170
     0
171
     2
172
     1
173
     0
174
     0
175
     0
176
   256
177
   256
178
     2
  0
DIMSTYLE
  2
GEN-ISO$4
 70
     0
  3

  4
"
  5

  6

  7

 40
1.0
 41
2.5
 42
1.0
 43
10.0
 44
1.0
 45
0.0
 46
0.0
 47
0.1
 48
0.1
140
3.5
141
0.0
142
0.0
143
0.0393701
144
1.0
145
0.0
146
0.71
147
1.5
 71
     0
 72
     0
 73
     0
 74
     1
 75
     0
 76
     0
 77
     1
 78
     8
170
     0
171
     2
172
     0
173
     0
174
     0
175
     0
176
   256
177
   256
178
     2
  0
DIMSTYLE
  2
GEN-ISO$3
 70
     0
  3

  4
"
  5

  6

  7

 40
1.0
 41
2.5
 42
1.0
 43
10.0
 44
1.0
 45
0.0
 46
0.0
 47
0.1
 48
0.1
140
3.5
141
0.0
142
0.0
143
0.0393701
144
1.0
145
0.0
146
0.71
147
1.5
 71
     0
 72
     0
 73
     0
 74
     1
 75
     0
 76
     0
 77
     1
 78
     8
170
     0
171
     2
172
     0
173
     0
174
     0
175
     0
176
   256
177
   256
178
     2
  0
DIMSTYLE
  2
ISO-25
 70
     0
  3

  4

  5

  6

  7

 40
1.0
 41
2.5
 42
0.625
 43
3.75
 44
1.25
 45
0.0
 46
0.0
 47
0.0
 48
0.0
140
2.5
141
2.5
142
0.0
143
0.0394
144
1.0
145
1.0
146
1.0
147
0.625
 71
     0
 72
     0
 73
     1
 74
     0
 75
     0
 76
     0
 77
     1
 78
     8
170
     0
171
     2
172
     1
173
     0
174
     0
175
     0
176
     0
177
     0
178
     0
  0
DIMSTYLE
  2
GEN-ISO$6
 70
     0
  3

  4
"
  5

  6

  7

 40
1.0
 41
2.5
 42
1.0
 43
10.0
 44
1.0
 45
0.0
 46
0.0
 47
0.1
 48
0.1
140
3.5
141
0.0
142
0.0
143
0.0393701
144
1.0
145
0.0
146
0.71
147
1.5
 71
     0
 72
     0
 73
     0
 74
     0
 75
     0
 76
     0
 77
     0
 78
     8
170
     0
171
     2
172
     0
173
     0
174
     0
175
     0
176
   256
177
   256
178
     2
  0
DIMSTYLE
  2
GEN-ISO-POS
 70
     0
  3

  4
"
  5

  6

  7

 40
1.0
 41
2.5
 42
1.0
 43
10.0
 44
1.0
 45
0.0
 46
0.0
 47
0.1
 48
0.1
140
5.0
141
0.0
142
0.0
143
0.0393701
144
1.0
145
0.0
146
0.71
147
1.5
 71
     0
 72
     0
 73
     0
 74
     0
 75
     0
 76
     0
 77
     0
 78
     8
170
     0
171
     2
172
     0
173
     0
174
     0
175
     0
176
   256
177
   256
178
     2
  0
DIMSTYLE
  2
GEN-ISO-AXE-F
 70
     0
  3

  4
"
  5

  6

  7

 40
1.0
 41
2.5
 42
1.0
 43
10.0
 44
1.0
 45
0.0
 46
0.0
 47
0.1
 48
0.1
140
3.5
141
0.0
142
0.0
143
0.0393701
144
1.0
145
0.0
146
0.71
147
1.5
 71
     0
 72
     0
 73
     0
 74
     0
 75
     1
 76
     1
 77
     1
 78
     8
170
     0
171
     2
172
     1
173
     0
174
     0
175
     0
176
   256
177
   256
178
     2
  0
DIMSTYLE
  2
GEN-ISO-AXE-H
 70
     0
  3

  4
"
  5

  6

  7

 40
1.0
 41
2.5
 42
1.0
 43
10.0
 44
1.0
 45
0.0
 46
0.0
 47
0.1
 48
0.1
140
3.5
141
0.0
142
0.0
143
0.0393701
144
2.0
145
0.0
146
0.71
147
1.5
 71
     0
 72
     0
 73
     0
 74
     0
 75
     1
 76
     1
 77
     1
 78
     8
170
     0
171
     2
172
     1
173
     1
174
     0
175
     0
176
   256
177
   256
178
     2
  0
DIMSTYLE
  2
AM_ISO$0
 70
     0
  3

  4
"
  5
OPEN30
  6

  7

 40
1.0
 41
2.5
 42
1.0
 43
10.0
 44
1.0
 45
0.0
 46
0.0
 47
0.1
 48
0.1
140
3.5
141
0.0
142
0.0
143
0.0393701
144
1.0
145
0.0
146
0.71
147
1.5
 71
     0
 72
     0
 73
     0
 74
     0
 75
     0
 76
     0
 77
     1
 78
     8
170
     0
171
     2
172
     1
173
     0
174
     0
175
     0
176
   256
177
   256
178
     2
  0
DIMSTYLE
  2
STANDARD
 70
     0
  3

  4

  5

  6

  7

 40
1.0
 41
0.18
 42
0.0625
 43
0.38
 44
0.18
 45
0.0
 46
0.0
 47
0.0
 48
0.0
140
0.18
141
0.09
142
0.0
143
25.399999999999999
144
1.0
145
0.0
146
1.0
147
0.09
 71
     0
 72
     0
 73
     1
 74
     1
 75
     0
 76
     0
 77
     0
 78
     0
170
     0
171
     2
172
     0
173
     0
174
     0
175
     0
176
     0
177
     0
178
     0
  0
DIMSTYLE
  2
AM_ANSI
 70
     0
  3

  4
mm
  5

  6

  7

 40
1.0
 41
0.1
 42
0.05
 43
0.5
 44
0.1
 45
0.0
 46
0.0
 47
0.1
 48
0.1
140
0.12
141
0.0
142
0.0
143
25.399999999999999
144
1.0
145
0.0
146
0.71
147
0.06
 71
     0
 72
     0
 73
     1
 74
     1
 75
     0
 76
     0
 77
     0
 78
     7
170
     0
171
     2
172
     0
173
     0
174
     0
175
     0
176
   256
177
   256
178
     2
  0
DIMSTYLE
  2
AM_ANSI$3
 70
     0
  3

  4
mm
  5

  6

  7

 40
1.0
 41
0.1
 42
0.05
 43
0.5
 44
0.1
 45
0.0
 46
0.0
 47
0.1
 48
0.1
140
0.12
141
0.0
142
0.0
143
25.399999999999999
144
1.0
145
0.0
146
0.71
147
0.06
 71
     0
 72
     0
 73
     1
 74
     1
 75
     0
 76
     0
 77
     0
 78
     7
170
     0
171
     2
172
     0
173
     0
174
     0
175
     0
176
   256
177
   256
178
     2
  0
DIMSTYLE
  2
AM_ANSI$4
 70
     0
  3

  4
mm
  5

  6

  7

 40
1.0
 41
0.1
 42
0.05
 43
0.5
 44
0.1
 45
0.0
 46
0.0
 47
0.1
 48
0.1
140
0.12
141
0.0
142
0.0
143
25.399999999999999
144
1.0
145
0.0
146
0.71
147
0.06
 71
     0
 72
     0
 73
     1
 74
     1
 75
     0
 76
     0
 77
     0
 78
     7
170
     0
171
     2
172
     0
173
     0
174
     0
175
     0
176
   256
177
   256
178
     2
  0
DIMSTYLE
  2
AM_ANSI$7
 70
     0
  3

  4
mm
  5

  6

  7

 40
1.0
 41
0.1
 42
0.05
 43
0.5
 44
0.1
 45
0.0
 46
0.0
 47
0.1
 48
0.1
140
0.24
141
0.0
142
0.0
143
25.399999999999999
144
1.0
145
0.0
146
0.71
147
0.06
 71
     0
 72
     0
 73
     1
 74
     1
 75
     0
 76
     0
 77
     0
 78
     7
170
     0
171
     2
172
     0
173
     0
174
     0
175
     0
176
   256
177
   256
178
     2
  0
DIMSTYLE
  2
AM_ANSI$SF
 70
     0
  3

  4
mm
  5

  6

  7

 40
1.0
 41
0.1
 42
0.05
 43
0.5
 44
0.1
 45
0.0
 46
0.0
 47
0.1
 48
0.1
140
0.12
141
0.0
142
0.0
143
25.399999999999999
144
1.0
145
0.0
146
0.71
147
0.06
 71
     0
 72
     0
 73
     1
 74
     1
 75
     1
 76
     1
 77
     0
 78
     7
170
     0
171
     2
172
     0
173
     0
174
     0
175
     0
176
   256
177
   256
178
     2
  0
DIMSTYLE
  2
AM_ANSI$SH
 70
     0
  3

  4
mm
  5

  6
GENAXEH
  7

 40
1.0
 41
0.1
 42
0.05
 43
0.5
 44
0.1
 45
0.0
 46
0.0
 47
0.1
 48
0.1
140
0.12
141
0.0
142
0.0
143
25.399999999999999
144
1.0
145
0.0
146
0.71
147
0.06
 71
     0
 72
     0
 73
     1
 74
     1
 75
     1
 76
     1
 77
     0
 78
     7
170
     0
171
     2
172
     0
173
     1
174
     0
175
     0
176
   256
177
   256
178
     2
  0
ENDTAB
  0
ENDSEC
  0
SECTION
  2
BLOCKS
  0
BLOCK
  8
0
  2
$MODEL_SPACE
 70
     0
 10
0.0
 20
0.0
 30
0.0
  3
$MODEL_SPACE
  1

  0
ENDBLK
  5
21
  8
0
  0
BLOCK
 67
     1
  8
0
  2
$PAPER_SPACE
 70
     0
 10
0.0
 20
0.0
 30
0.0
  3
$PAPER_SPACE
  1

  0
ENDBLK
  5
25
 67
     1
  8
0
  0
BLOCK
  8
0
  2
GENAXEH
 70
     0
 10
0.0
 20
0.0
 30
0.0
  3
GENAXEH
  1

  0
LINE
  5
88
  8
0
 10
-1.0
 20
0.0
 30
0.0
 11
1.0
 21
0.0
 31
0.0
  0
ENDBLK
  5
8A
  8
0
  0
BLOCK
  8
0
  2
_OPEN30
 70
     0
 10
0.0
 20
0.0
 30
0.0
  3
_OPEN30
  1

  0
LINE
  5
408
  8
0
  6
BYBLOCK
 62
     0
 10
-1.0
 20
0.26794919
 30
0.0
 11
0.0
 21
0.0
 31
0.0
  0
LINE
  5
409
  8
0
  6
BYBLOCK
 62
     0
 10
0.0
 20
0.0
 30
0.0
 11
-1.0
 21
-0.26794919
 31
0.0
  0
LINE
  5
40A
  8
0
  6
BYBLOCK
 62
     0
 10
0.0
 20
0.0
 30
0.0
 11
-1.0
 21
0.0
 31
0.0
  0
ENDBLK
  5
40C
  8
0
  0
BLOCK
  8
0
  2
GEVCON
 70
     0
 10
0.0
 20
0.0
 30
0.0
  3
GEVCON
  1
GEVCON
  0
ENDBLK
  5
5A9
  8
0
  0
BLOCK
  8
0
  2
GEVEP
 70
     0
 10
0.0
 20
0.0
 30
0.0
  3
GEVEP
  1

  0
LINE
  5
5AC
  8
0
 10
2.0
 20
-2.0
 30
0.0
 11
-2.0
 21
-2.0
 31
0.0
  0
LINE
  5
5AD
  8
0
 10
-2.0
 20
2.0
 30
0.0
 11
2.0
 21
2.0
 31
0.0
  0
LINE
  5
5AE
  8
0
 10
2.0
 20
-2.0
 30
0.0
 11
-2.0
 21
2.0
 31
0.0
  0
LINE
  5
5AF
  8
0
 10
-2.0
 20
-2.0
 30
0.0
 11
2.0
 21
2.0
 31
0.0
  0
LINE
  5
5B0
  8
0
 10
-2.0
 20
-2.0
 30
0.0
 11
-2.0
 21
2.0
 31
0.0
  0
LINE
  5
5B1
  8
0
 10
2.0
 20
2.0
 30
0.0
 11
2.0
 21
-2.0
 31
0.0
  0
ENDBLK
  5
5B2
  8
0
  0
BLOCK
  8
0
  2
GEVFRAME
 70
     0
 10
0.0
 20
0.0
 30
0.0
  3
GEVFRAME
  1
GEVFRAME
  0
LINE
  5
5B5
  8
0
 10
0.0
 20
0.0
 30
0.0
 11
1.0
 21
0.0
 31
0.0
  0
LINE
  5
5B6
  8
0
 10
1.0
 20
0.0
 30
0.0
 11
1.0
 21
1.0
 31
0.0
  0
LINE
  5
5B7
  8
0
 10
1.0
 20
1.0
 30
0.0
 11
0.0
 21
1.0
 31
0.0
  0
LINE
  5
5B8
  8
0
 10
0.0
 20
1.0
 30
0.0
 11
0.0
 21
0.0
 31
0.0
  0
ENDBLK
  5
5B9
  8
0
  0
BLOCK
  8
0
  2
TAKACHI-A4
 70
     0
 10
0.0
 20
0.0
 30
0.0
  3
TAKACHI-A4
  1

  0
TEXT
  5
5CE
  8
0
 10
10.0
 20
54.999999999999943
 30
0.0
 40
2.5
  1
!GENTITLE-LL
  0
TEXT
  5
5CF
  8
0
 10
215.0
 20
15.0
 30
0.0
 40
2.5
  1
!GENTITLE-INSERT
  0
TEXT
  5
5D0
  8
0
 10
215.0
 20
285.00000000000011
 30
0.0
 40
2.5
  1
!GENTITLE-RU
  0
TEXT
  5
5D1
  8
0
 10
215.00000000000011
 20
290.0
 30
0.0
 40
2.5
  1
!GENTITLE-MAX
  0
LINE
  5
5D2
  8
0
 10
215.0
 20
290.00000000000011
 30
0.0
 11
20.000000000000028
 21
290.0
 31
0.0
1001
GENIUS_GENREC_14
1002
{
1000
PYDIR
1011
15.00000000000003
1021
0.0
1031
7.7380488517390712E+217
1021
295.0
1031
0.0
1002
}
1002
{
1000
PXDIR
1011
215.0
1021
0.0
1031
7.7380488517390712E+217
1021
15.0
1031
0.0
1002
}
1002
{
1000
PORI
1011
15.0
1021
0.0
1031
7.7380488517390712E+217
1021
15.0
1031
0.0
1002
}
1002
{
1000
PINS
1011
115.0
1021
0.0
1031
7.7380488517390712E+217
1021
155.0
1031
0.0
1002
}
1002
{
1000
HVAL
1000
280
1002
}
1002
{
1000
H
1070
     2
1002
}
1002
{
1000
WVAL
1000
200
1002
}
1002
{
1000
W
1070
     2
1002
}
1002
{
1000
C
1070
     4
1002
}
  0
LINE
  5
5D3
  8
0
 10
20.000000000000028
 20
290.0
 30
0.0
 11
19.999999999999972
 21
15.0
 31
0.0
1001
GENIUS_GENREC_14
1002
{
1000
PYDIR
1011
15.00000000000003
1021
0.0
1031
7.7380488517390712E+217
1021
295.0
1031
0.0
1002
}
1002
{
1000
PXDIR
1011
215.0
1021
0.0
1031
7.7380488517390712E+217
1021
15.0
1031
0.0
1002
}
1002
{
1000
PORI
1011
15.0
1021
0.0
1031
7.7380488517390712E+217
1021
15.0
1031
0.0
1002
}
1002
{
1000
PINS
1011
115.0
1021
0.0
1031
7.7380488517390712E+217
1021
155.0
1031
0.0
1002
}
1002
{
1000
HVAL
1000
280
1002
}
1002
{
1000
H
1070
     2
1002
}
1002
{
1000
WVAL
1000
200
1002
}
1002
{
1000
W
1070
     2
1002
}
1002
{
1000
C
1070
     4
1002
}
  0
LINE
  5
5D4
  8
0
 10
19.999999999999972
 20
15.0
 30
0.0
 11
215.0
 21
15.0
 31
0.0
1001
GENIUS_GENREC_14
1002
{
1000
PYDIR
1011
15.00000000000003
1021
0.0
1031
7.7380488517390712E+217
1021
295.0
1031
0.0
1002
}
1002
{
1000
PXDIR
1011
215.0
1021
0.0
1031
7.7380488517390712E+217
1021
15.0
1031
0.0
1002
}
1002
{
1000
PORI
1011
15.0
1021
0.0
1031
7.7380488517390712E+217
1021
15.0
1031
0.0
1002
}
1002
{
1000
PINS
1011
115.0
1021
0.0
1031
7.7380488517390712E+217
1021
155.0
1031
0.0
1002
}
1002
{
1000
HVAL
1000
280
1002
}
1002
{
1000
H
1070
     2
1002
}
1002
{
1000
WVAL
1000
200
1002
}
1002
{
1000
W
1070
     2
1002
}
1002
{
1000
C
1070
     4
1002
}
  0
LINE
  5
5D5
  8
0
 10
215.0
 20
15.0
 30
0.0
 11
215.00000000000011
 21
290.00000000000011
 31
0.0
1001
GENIUS_GENREC_14
1002
{
1000
PYDIR
1011
15.00000000000003
1021
0.0
1031
7.7380488517390712E+217
1021
295.0
1031
0.0
1002
}
1002
{
1000
PXDIR
1011
215.0
1021
0.0
1031
7.7380488517390712E+217
1021
15.0
1031
0.0
1002
}
1002
{
1000
PORI
1011
15.0
1021
0.0
1031
7.7380488517390712E+217
1021
15.0
1031
0.0
1002
}
1002
{
1000
PINS
1011
115.0
1021
0.0
1031
7.7380488517390712E+217
1021
155.0
1031
0.0
1002
}
1002
{
1000
HVAL
1000
280
1002
}
1002
{
1000
H
1070
     2
1002
}
1002
{
1000
WVAL
1000
200
1002
}
1002
{
1000
W
1070
     2
1002
}
1002
{
1000
C
1070
     4
1002
}
  0
LINE
  5
5D6
  8
0
 10
171.00000000000011
 20
285.00000000000011
 30
0.0
 11
215.00000000000011
 21
285.00000000000011
 31
0.0
  0
LINE
  5
5D7
  8
0
 10
171.00000000000011
 20
290.00000000000011
 30
0.0
 11
171.00000000000011
 21
285.00000000000011
 31
0.0
  0
INSERT
  5
5D8
  8
パネル
  2
*U43
 10
0.0
 20
0.0
 30
0.0
  0
ENDBLK
  5
5DB
  8
0
  0
BLOCK
  8
0
  2
TAKACHI-TITLE
 70
     2
 10
0.0
 20
0.0
 30
0.0
  3
TAKACHI-TITLE
  1

  0
LINE
  5
5EA
  8
RAHM2
 10
-195.0
 20
30.000000000000028
 30
0.0
 11
-94.0
 21
30.000000000000028
 31
0.0
  0
LINE
  5
5EB
  8
RAHM2
 10
-195.0
 20
35.000000000000028
 30
0.0
 11
-94.0
 21
35.000000000000028
 31
0.0
  0
LINE
  5
5EC
  8
RAHM2
 10
-195.0
 20
40.000000000000021
 30
0.0
 11
-94.0
 21
40.000000000000021
 31
0.0
  0
LINE
  5
5ED
  8
RAHM2
 10
-195.0
 20
45.000000000000021
 30
0.0
 11
-94.0
 21
45.000000000000021
 31
0.0
  0
LINE
  5
5EE
  8
0
 10
-195.0
 20
7.0
 30
0.0
 11
-94.0
 21
7.0
 31
0.0
  0
LINE
  5
5EF
  8
0
 10
-195.0
 20
19.999999999999972
 30
0.0
 11
-94.0
 21
19.999999999999972
 31
0.0
  0
ATTDEF
  5
5F0
  8
0
 10
-183.24385271456069
 20
8.9508505244280823
 30
0.0
 40
2.5
  1

 11
-183.24385271456069
 21
8.6175171910947483
 31
0.0
  3
サブタイトル
  2
GEN-TITLE-DES2
 70
     0
 74
     1
  0
ATTDEF
  5
5F1
  8
0
 10
-183.24385271456069
 20
2.0175171910947478
 30
0.0
 40
3.0
  1

 11
-183.24385271456069
 21
1.6175171910947479
 31
0.0
  3
図番
  2
GEN-TITLE-NR
 70
     0
 74
     1
  0
INSERT
  5
5F2
  8
パネル
  2
*U44
 10
0.0
 20
0.0
 30
0.0
  0
ATTDEF
  5
5F3
  8
0
 10
-183.24385271456069
 20
14.40728619501834
 30
0.0
 40
4.0
  1

 11
-183.24385271456069
 21
13.873952861685011
 31
0.0
  3
品名
  2
GEN-TITLE-DES1
 70
     0
 74
     1
  0
LINE
  5
5F4
  8
RAHM2
 10
-187.57512886940361
 20
30.400000000000041
 30
0.0
 11
-190.0
 21
34.60000000000003
 31
0.0
  0
LINE
  5
5F5
  8
RAHM2
 10
-190.0
 20
34.60000000000003
 30
0.0
 11
-192.42487113059639
 21
30.400000000000041
 31
0.0
  0
LINE
  5
5F6
  8
RAHM2
 10
-185.0
 20
50.000000000000028
 30
0.0
 11
-185.0
 21
19.99999999999994
 31
0.0
  0
LINE
  5
5F7
  8
RAHM2
 10
-192.42487113059639
 20
30.400000000000041
 30
0.0
 11
-187.57512886940361
 21
30.400000000000041
 31
0.0
  0
INSERT
  5
5F8
  8
パネル
  2
*U45
 10
0.0
 20
0.0
 30
0.0
  0
INSERT
  5
5F9
  8
パネル
  2
*U46
 10
0.0
 20
0.0
 30
0.0
  0
LINE
  5
5FA
  8
RAHM2
 10
-192.42487113059639
 20
45.400000000000027
 30
0.0
 11
-187.57512886940361
 21
45.400000000000027
 31
0.0
  0
LINE
  5
5FB
  8
RAHM2
 10
-187.57512886940361
 20
45.400000000000027
 30
0.0
 11
-190.0
 21
49.600000000000023
 31
0.0
  0
LINE
  5
5FC
  8
RAHM2
 10
-192.42487113059639
 20
40.400000000000027
 30
0.0
 11
-187.57512886940361
 21
40.400000000000027
 31
0.0
  0
LINE
  5
5FD
  8
RAHM2
 10
-187.57512886940361
 20
40.400000000000027
 30
0.0
 11
-190.0
 21
44.600000000000023
 31
0.0
  0
LINE
  5
5FE
  8
RAHM2
 10
-192.42487113059639
 20
35.400000000000041
 30
0.0
 11
-187.57512886940361
 21
35.400000000000041
 31
0.0
  0
LINE
  5
5FF
  8
RAHM2
 10
-187.57512886940361
 20
35.400000000000041
 30
0.0
 11
-190.0
 21
39.600000000000023
 31
0.0
  0
LINE
  5
600
  8
RAHM2
 10
-190.0
 20
39.600000000000023
 30
0.0
 11
-192.42487113059639
 21
35.400000000000041
 31
0.0
  0
LINE
  5
601
  8
RAHM2
 10
-190.0
 20
44.600000000000023
 30
0.0
 11
-192.42487113059639
 21
40.400000000000027
 31
0.0
  0
LINE
  5
602
  8
RAHM2
 10
-190.0
 20
49.600000000000023
 30
0.0
 11
-192.42487113059639
 21
45.400000000000027
 31
0.0
  0
LINE
  5
603
  8
RAHM2
 10
-129.0
 20
50.000000000000028
 30
0.0
 11
-129.0
 21
19.99999999999994
 31
0.0
  0
INSERT
  5
604
  8
パネル
  2
*U47
 10
0.0
 20
0.0
 30
0.0
  0
LINE
  5
605
  8
0
 10
-34.0
 20
50.0
 30
0.0
 11
-34.0
 21
0.0
 31
0.0
  0
LINE
  5
606
  8
0
 10
-94.0
 20
50.0
 30
0.0
 11
-94.0
 21
0.0
 31
0.0
  0
INSERT
  5
607
  8
パネル
  2
*U48
 10
0.0
 20
0.0
 30
0.0
  0
LINE
  5
608
  8
0
 10
-94.0
 20
10.0
 30
0.0
 11
-34.0
 21
10.0
 31
0.0
  0
ATTDEF
  5
609
  8
0
 10
-58.014051197997453
 20
39.255005561783491
 30
0.0
 40
3.0
  1

 72
     2
 11
-58.014051197997453
 21
39.255005561783491
 31
0.0
  3
尺度
  2
GEN-TITLE-SCA
 70
     0
  0
ATTDEF
  5
60A
  8
0
 10
-77.002849666490064
 20
31.02180787943475
 30
0.0
 40
3.0
  1

 11
-77.002849666490064
 21
30.621807879434751
 31
0.0
  3
材質
  2
GEN-TITLE-MAT1
 70
     0
 74
     1
  0
ATTDEF
  5
60B
  8
0
 10
-77.002849666490064
 20
21.02180787943475
 30
0.0
 40
3.0
  1

 11
-77.002849666490064
 21
20.621807879434751
 31
0.0
  3
表面処理
  2
GEN-TITLE-MAT2
 70
     0
 74
     1
  0
ATTDEF
  5
60C
  8
0
 10
-77.002849666490064
 20
12.01751719109475
 30
0.0
 40
3.0
  1

 11
-77.002849666490064
 21
11.61751719109475
 31
0.0
  3
日付
  2
GEN-TITLE-DAT
 70
     0
 74
     1
  0
LINE
  5
60D
  8
0
 10
-94.0
 20
37.5
 30
0.0
 11
-34.0
 21
37.5
 31
0.0
  0
LINE
  5
60E
  8
0
 10
-94.0
 20
27.5
 30
0.0
 11
-34.0
 21
27.5
 31
0.0
  0
LINE
  5
60F
  8
0
 10
-94.0
 20
17.5
 30
0.0
 11
-34.0
 21
17.5
 31
0.0
  0
LINE
  5
610
  8
RAHM2
 10
-109.0
 20
50.000000000000028
 30
0.0
 11
-109.0
 21
19.99999999999994
 31
0.0
  0
INSERT
  5
611
  8
パネル
  2
*U49
 10
0.0
 20
0.0
 30
0.0
  0
INSERT
  5
612
  8
パネル
  2
*U50
 10
0.0
 20
0.0
 30
0.0
  0
INSERT
  5
613
  8
パネル
  2
*U51
 10
0.0
 20
0.0
 30
0.0
  0
INSERT
  5
614
  8
パネル
  2
*U52
 10
0.0
 20
0.0
 30
0.0
  0
INSERT
  5
615
  8
パネル
  2
*U53
 10
0.0
 20
0.0
 30
0.0
  0
INSERT
  5
616
  8
パネル
  2
*U54
 10
0.0
 20
0.0
 30
0.0
  0
INSERT
  5
617
  8
パネル
  2
*U55
 10
0.0
 20
0.0
 30
0.0
  0
INSERT
  5
618
  8
パネル
  2
*U56
 10
0.0
 20
0.0
 30
0.0
  0
LINE
  5
619
  8
7A
 10
-89.0
 20
43.75
 30
0.0
 11
-75.218691599714703
 21
43.75
 31
0.0
1001
GENIUS_GENOREF_13
1005
62C
  0
LINE
  5
61A
  8
0
 10
-84.0
 20
45.75
 30
0.0
 11
-76.0
 21
46.749999999999993
 31
0.0
  0
LINE
  5
61B
  8
0
 10
-76.0
 20
40.75
 30
0.0
 11
-84.0
 21
41.749999999999993
 31
0.0
  0
LINE
  5
61C
  8
7A
 10
-89.0
 20
43.75
 30
0.0
 11
-89.0
 21
47.324786644731482
 31
0.0
1001
GENIUS_GENOREF_13
1005
62C
  0
CIRCLE
  5
61D
  8
0
 10
-89.0
 20
43.75
 30
0.0
 40
2.0
  0
CIRCLE
  5
61E
  8
0
 10
-89.0
 20
43.75
 30
0.0
 40
3.0
  0
LINE
  5
61F
  8
0
 10
-84.0
 20
41.749999999999993
 30
0.0
 11
-84.0
 21
45.75
 31
0.0
  0
INSERT
  5
620
  8
パネル
  2
*U57
 10
0.0
 20
0.0
 30
0.0
  0
LINE
  5
621
  8
7A
 10
-89.0
 20
43.75
 30
0.0
 11
-92.723037371251166
 21
43.75
 31
0.0
1001
GENIUS_GENOREF_13
1005
62C
  0
LINE
  5
622
  8
7A
 10
-89.0
 20
43.75
 30
0.0
 11
-89.0
 21
40.039917242284787
 31
0.0
1001
GENIUS_GENOREF_13
1005
62C
  0
LINE
  5
623
  8
0
 10
-76.0
 20
46.749999999999993
 30
0.0
 11
-76.0
 21
40.75
 31
0.0
  0
LINE
  5
624
  8
0
 10
-74.0
 20
50.0
 30
0.0
 11
-74.0
 21
37.5
 31
0.0
  0
INSERT
  5
625
  8
パネル
  2
*U58
 10
0.0
 20
0.0
 30
0.0
  0
ATTDEF
  5
626
  8
0
 10
-37.76317379391503
 20
39.255005561783491
 30
0.0
 40
3.0
  1

 72
     2
 11
-37.76317379391503
 21
39.255005561783491
 31
0.0
  3
数量
  2
GEN-TITLE-QTY
 70
     0
  0
LINE
  5
627
  8
0
 10
-34.0
 20
25.0
 30
0.0
 11
0.0
 21
25.0
 31
0.0
  0
LINE
  5
628
  8
0
 10
-54.0
 20
50.0
 30
0.0
 11
-54.0
 21
37.5
 31
0.0
  0
INSERT
  5
629
  8
パネル
  2
*U59
 10
0.0
 20
0.0
 30
0.0
  0
INSERT
  5
62A
  8
パネル
  2
*U60
 10
0.0
 20
0.0
 30
0.0
  0
INSERT
  5
62B
  8
パネル
  2
*U61
 10
0.0
 20
0.0
 30
0.0
  0
POINT
  5
62C
  8
0
 10
-320.5355579819676
 20
-138.11048412682541
 30
0.0
1001
GENIUS_GENODEF_13
1002
{
1000
HIER
1070
    10
1002
}
1002
{
1000
MANEDIT
1070
     0
1002
}
1002
{
1000
NOSEL
1070
     0
1002
}
1002
{
1000
BEHIND
1070
     0
1002
}
1002
{
1000
REACTOR
1002
}
1001
GENIUS_GENOBJ-N-CRS_13
1002
{
1000
OWNER
1000
GEN
1002
}
1001
GENIUS_GENOENT_13
1002
{
1000
MYREF
1005
62C
1002
}
1002
{
1000
GRP
1005
0
1002
}
1001
GENIUS_GENOLIS_13
1002
{
1000
ENT
1005
622
1005
621
1005
61C
1005
619
1002
}
  0
LINE
  5
62D
  8
RAHM2
 10
-190.0
 20
29.600000000000019
 30
0.0
 11
-192.42487113059639
 21
25.400000000000041
 31
0.0
  0
LINE
  5
62E
  8
RAHM2
 10
-187.57512886940361
 20
25.400000000000041
 30
0.0
 11
-190.0
 21
29.600000000000019
 31
0.0
  0
LINE
  5
62F
  8
RAHM2
 10
-192.42487113059639
 20
25.400000000000041
 30
0.0
 11
-187.57512886940361
 21
25.400000000000041
 31
0.0
  0
LINE
  5
630
  8
RAHM2
 10
-195.0
 20
25.000000000000028
 30
0.0
 11
-94.0
 21
25.000000000000028
 31
0.0
  0
INSERT
  5
631
  8
パネル
  2
*U62
 10
0.0
 20
0.0
 30
0.0
  0
TEXT
  5
632
  8
RAHM2
 10
-190.8155863565801
 20
25.98333333333337
 30
0.0
 40
2.5
  1
1
 72
     1
 11
-190.19058635658021
 21
25.650000000000031
 31
0.0
 73
     1
  0
TEXT
  5
633
  8
RAHM2
 10
-190.9183316929134
 20
30.98333333333337
 30
0.0
 40
2.5
  1
2
 72
     1
 11
-190.0
 21
30.650000000000031
 31
0.0
 73
     1
  0
TEXT
  5
634
  8
RAHM2
 10
-190.92677669529661
 20
35.983333333333341
 30
0.0
 40
2.5
  1
3
 72
     1
 11
-190.0
 21
35.650000000000013
 31
0.0
 73
     1
  0
TEXT
  5
635
  8
RAHM2
 10
-191.0
 20
40.98333333333337
 30
0.0
 40
2.5
  1
4
 72
     1
 11
-190.0
 21
40.650000000000027
 31
0.0
 73
     1
  0
TEXT
  5
636
  8
RAHM2
 10
-190.92677669529661
 20
45.98333333333337
 30
0.0
 40
2.5
  1
5
 72
     1
 11
-190.0
 21
45.650000000000027
 31
0.0
 73
     1
  0
LINE
  5
637
  8
0
 10
-17.0
 20
50.0
 30
0.0
 11
-17.0
 21
0.0
 31
0.0
  0
LINE
  5
638
  8
0
 10
-195.0
 20
0.0
 30
0.0
 11
0.0
 21
0.0
 31
0.0
1001
GENIUS_GENREC_14
1002
{
1000
PYDIR
1011
-184.0
1021
0.0
1031
7.7380488517390712E+217
1021
50.0
1031
0.0
1002
}
1002
{
1000
PXDIR
1011
0.0
1021
0.0
1031
7.7380488517390712E+217
1021
0.0
1031
0.0
1002
}
1002
{
1000
PORI
1011
-184.0
1021
0.0
1031
7.7380488517390712E+217
1021
0.0
1031
0.0
1002
}
1002
{
1000
PINS
1011
-100.5
1021
0.0
1031
7.7380488517390712E+217
1021
25.0
1031
0.0
1002
}
1002
{
1000
HVAL
1000
50
1002
}
1002
{
1000
H
1070
     2
1002
}
1002
{
1000
WVAL
1000
167
1002
}
1002
{
1000
W
1070
     2
1002
}
1002
{
1000
C
1070
     4
1002
}
1001
GENIUS_GENODEF_13
1002
{
1000
HIER
1070
     0
1002
}
1002
{
1000
MANEDIT
1070
     0
1002
}
1002
{
1000
NOSEL
1070
     0
1002
}
1002
{
1000
BEHIND
1070
     0
1002
}
1002
{
1000
REACTOR
1002
}
1001
GENIUS_GENOBJ-N-REC_13
1002
{
1000
OWNER
1000
GEN
1002
}
  0
LINE
  5
639
  8
0
 10
0.0
 20
0.0
 30
0.0
 11
0.0
 21
50.0
 31
0.0
1001
GENIUS_GENREC_14
1002
{
1000
PYDIR
1011
-184.0
1021
0.0
1031
7.7380488517390712E+217
1021
50.0
1031
0.0
1002
}
1002
{
1000
PXDIR
1011
0.0
1021
0.0
1031
7.7380488517390712E+217
1021
0.0
1031
0.0
1002
}
1002
{
1000
PORI
1011
-184.0
1021
0.0
1031
7.7380488517390712E+217
1021
0.0
1031
0.0
1002
}
1002
{
1000
PINS
1011
-100.5
1021
0.0
1031
7.7380488517390712E+217
1021
25.0
1031
0.0
1002
}
1002
{
1000
HVAL
1000
50
1002
}
1002
{
1000
H
1070
     2
1002
}
1002
{
1000
WVAL
1000
167
1002
}
1002
{
1000
W
1070
     2
1002
}
1002
{
1000
C
1070
     4
1002
}
1001
GENIUS_GENODEF_13
1002
{
1000
HIER
1070
     0
1002
}
1002
{
1000
MANEDIT
1070
     0
1002
}
1002
{
1000
NOSEL
1070
     0
1002
}
1002
{
1000
BEHIND
1070
     0
1002
}
1002
{
1000
REACTOR
1002
}
1001
GENIUS_GENOBJ-N-REC_13
1002
{
1000
OWNER
1000
GEN
1002
}
  0
LINE
  5
63A
  8
0
 10
0.0
 20
50.0
 30
0.0
 11
-195.0
 21
50.000000000000028
 31
0.0
1001
GENIUS_GENREC_14
1002
{
1000
PYDIR
1011
-184.0
1021
0.0
1031
7.7380488517390712E+217
1021
50.0
1031
0.0
1002
}
1002
{
1000
PXDIR
1011
0.0
1021
0.0
1031
7.7380488517390712E+217
1021
0.0
1031
0.0
1002
}
1002
{
1000
PORI
1011
-184.0
1021
0.0
1031
7.7380488517390712E+217
1021
0.0
1031
0.0
1002
}
1002
{
1000
PINS
1011
-100.5
1021
0.0
1031
7.7380488517390712E+217
1021
25.0
1031
0.0
1002
}
1002
{
1000
HVAL
1000
50
1002
}
1002
{
1000
H
1070
     2
1002
}
1002
{
1000
WVAL
1000
167
1002
}
1002
{
1000
W
1070
     2
1002
}
1002
{
1000
C
1070
     4
1002
}
1001
GENIUS_GENODEF_13
1002
{
1000
HIER
1070
     0
1002
}
1002
{
1000
MANEDIT
1070
     0
1002
}
1002
{
1000
NOSEL
1070
     0
1002
}
1002
{
1000
BEHIND
1070
     0
1002
}
1002
{
1000
REACTOR
1002
}
1001
GENIUS_GENOBJ-N-REC_13
1002
{
1000
OWNER
1000
GEN
1002
}
  0
LINE
  5
63B
  8
0
 10
-195.0
 20
50.000000000000028
 30
0.0
 11
-195.0
 21
0.0
 31
0.0
1001
GENIUS_GENREC_14
1002
{
1000
PYDIR
1011
-195.0
1021
0.0
1031
7.7380488517390712E+217
1021
50.0
1031
0.0
1002
}
1002
{
1000
PXDIR
1011
-11.0
1021
0.0
1031
7.7380488517390712E+217
1021
0.0
1031
0.0
1002
}
1002
{
1000
PORI
1011
-195.0
1021
0.0
1031
7.7380488517390712E+217
1021
0.0
1031
0.0
1002
}
1002
{
1000
PINS
1011
-111.5
1021
0.0
1031
7.7380488517390712E+217
1021
25.0
1031
0.0
1002
}
1002
{
1000
HVAL
1000
50
1002
}
1002
{
1000
H
1070
     2
1002
}
1002
{
1000
WVAL
1000
167
1002
}
1002
{
1000
W
1070
     2
1002
}
1002
{
1000
C
1070
     4
1002
}
1001
GENIUS_GENODEF_13
1002
{
1000
HIER
1070
     0
1002
}
1002
{
1000
MANEDIT
1070
     0
1002
}
1002
{
1000
NOSEL
1070
     0
1002
}
1002
{
1000
BEHIND
1070
     0
1002
}
1002
{
1000
REACTOR
1002
}
1001
GENIUS_GENOBJ-N-REC_13
1002
{
1000
OWNER
1000
GEN
1002
}
  0
INSERT
  5
63C
  8
パネル
  2
*U63
 10
0.0
 20
0.0
 30
0.0
  0
INSERT
  5
63D
  8
パネル
  2
*U64
 10
0.0
 20
0.0
 30
0.0
  0
ENDBLK
  5
640
  8
0
  0
BLOCK
  8
0
  2
*D9
 70
     1
 10
0.0
 20
0.0
 30
0.0
  3
*D9
  1

  0
LINE
  5
1040
  8
AM_5
 10
37.963836005097242
 20
114.1790870042926
 30
0.0
 11
37.963836005097242
 21
102.1790870042926
 31
0.0
  0
LINE
  5
1041
  8
AM_5
 10
97.563836005097244
 20
114.1790870042926
 30
0.0
 11
97.563836005097244
 21
102.1790870042926
 31
0.0
  0
LINE
  5
1042
  8
AM_5
 10
40.463836005097242
 20
103.1790870042926
 30
0.0
 11
95.063836005097244
 21
103.1790870042926
 31
0.0
  0
INSERT
  5
1043
  8
AM_5
  2
_OPEN30
 10
37.963836005097242
 20
103.1790870042926
 30
0.0
 41
2.5
 42
2.5
 43
2.5
 50
180.0
  0
INSERT
  5
1044
  8
AM_5
  2
_OPEN30
 10
97.563836005097244
 20
103.1790870042926
 30
0.0
 41
2.5
 42
2.5
 43
2.5
  0
INSERT
  5
1045
  8
パネル
  2
*U100
 10
0.0
 20
0.0
 30
0.0
  0
POINT
  5
1046
  8
DEFPOINTS
 62
     0
 10
37.963836005097242
 20
115.1790870042926
 30
0.0
  0
POINT
  5
1047
  8
DEFPOINTS
 62
     0
 10
97.563836005097244
 20
115.1790870042926
 30
0.0
  0
POINT
  5
1048
  8
DEFPOINTS
 62
     0
 10
97.563836005097244
 20
103.1790870042926
 30
0.0
  0
ENDBLK
  5
87A
  8
0
  0
BLOCK
  8
0
  2
*D10
 70
     1
 10
0.0
 20
0.0
 30
0.0
  3
*D10
  1

  0
LINE
  5
E86
  8
AM_5
 10
124.68342487554359
 20
128.5790870042926
 30
0.0
 11
136.68342587554361
 21
128.5790870042926
 31
0.0
  0
LINE
  5
E87
  8
AM_5
 10
124.68342487554359
 20
115.1790870042926
 30
0.0
 11
136.68342587554361
 21
115.1790870042926
 31
0.0
  0
LINE
  5
E88
  8
AM_5
 10
135.68342587554361
 20
126.0790870042926
 30
0.0
 11
135.68342587554361
 21
117.6790870042926
 31
0.0
  0
INSERT
  5
E89
  8
AM_5
  2
_OPEN30
 10
135.68342587554361
 20
128.5790870042926
 30
0.0
 41
2.5
 42
2.5
 43
2.5
 50
90.0
  0
INSERT
  5
E8A
  8
AM_5
  2
_OPEN30
 10
135.68342587554361
 20
115.1790870042926
 30
0.0
 41
2.5
 42
2.5
 43
2.5
 50
270.0
  0
INSERT
  5
E8B
  8
パネル
  2
*U87
 10
0.0
 20
0.0
 30
0.0
  0
POINT
  5
E8C
  8
DEFPOINTS
 62
     0
 10
123.68342487554359
 20
128.5790870042926
 30
0.0
  0
POINT
  5
E8D
  8
DEFPOINTS
 62
     0
 10
123.68342487554359
 20
115.1790870042926
 30
0.0
  0
POINT
  5
E8E
  8
DEFPOINTS
 62
     0
 10
135.68342587554361
 20
115.1790870042926
 30
0.0
  0
ENDBLK
  5
87C
  8
0
  0
BLOCK
  8
0
  2
*D11
 70
     1
 10
0.0
 20
0.0
 30
0.0
  3
*D11
  1

  0
LINE
  5
1037
  8
AM_5
 10
37.963836005097242
 20
178.3570784034429
 30
0.0
 11
37.963836005097242
 21
159.821225106084
 31
0.0
  0
LINE
  5
1038
  8
AM_5
 10
97.563836005097244
 20
178.35707840344281
 30
0.0
 11
97.563836005097244
 21
159.821225106084
 31
0.0
  0
LINE
  5
1039
  8
AM_5
 10
40.463836005097242
 20
160.821225106084
 30
0.0
 11
95.063836005097244
 21
160.821225106084
 31
0.0
  0
INSERT
  5
103A
  8
AM_5
  2
_OPEN30
 10
37.963836005097242
 20
160.821225106084
 30
0.0
 41
2.5
 42
2.5
 43
2.5
 50
180.0
  0
INSERT
  5
103B
  8
AM_5
  2
_OPEN30
 10
97.563836005097244
 20
160.821225106084
 30
0.0
 41
2.5
 42
2.5
 43
2.5
  0
INSERT
  5
103C
  8
パネル
  2
*U99
 10
0.0
 20
0.0
 30
0.0
  0
POINT
  5
103D
  8
DEFPOINTS
 62
     0
 10
37.963836005097242
 20
179.3570784034429
 30
0.0
  0
POINT
  5
103E
  8
DEFPOINTS
 62
     0
 10
97.563836005097244
 20
179.35707840344281
 30
0.0
  0
POINT
  5
103F
  8
DEFPOINTS
 62
     0
 10
97.563836005097244
 20
160.821225106084
 30
0.0
  0
ENDBLK
  5
87E
  8
0
  0
BLOCK
  8
0
  2
*D12
 70
     1
 10
0.0
 20
0.0
 30
0.0
  3
*D12
  1

  0
LINE
  5
102E
  8
AM_5
 10
36.963836005097249
 20
194.35707840344281
 30
0.0
 11
30.642065839564388
 21
194.35707840344281
 31
0.0
  0
LINE
  5
102F
  8
AM_5
 10
36.963836005097249
 20
179.3570784034429
 30
0.0
 11
30.642065839564388
 21
179.3570784034429
 31
0.0
  0
LINE
  5
1030
  8
AM_5
 10
31.642065839564388
 20
191.85707840344281
 30
0.0
 11
31.642065839564388
 21
181.85707840344281
 31
0.0
  0
INSERT
  5
1031
  8
AM_5
  2
_OPEN30
 10
31.642065839564388
 20
194.35707840344281
 30
0.0
 41
2.5
 42
2.5
 43
2.5
 50
90.0
  0
INSERT
  5
1032
  8
AM_5
  2
_OPEN30
 10
31.642065839564388
 20
179.3570784034429
 30
0.0
 41
2.5
 42
2.5
 43
2.5
 50
270.0
  0
INSERT
  5
1033
  8
パネル
  2
*U98
 10
0.0
 20
0.0
 30
0.0
  0
POINT
  5
1034
  8
DEFPOINTS
 62
     0
 10
37.963836005097242
 20
194.35707840344281
 30
0.0
  0
POINT
  5
1035
  8
DEFPOINTS
 62
     0
 10
37.963836005097242
 20
179.3570784034429
 30
0.0
  0
POINT
  5
1036
  8
DEFPOINTS
 62
     0
 10
31.642065839564388
 20
179.3570784034429
 30
0.0
  0
ENDBLK
  5
884
  8
0
  0
BLOCK
  8
0
  2
*D13
 70
     1
 10
0.0
 20
0.0
 30
0.0
  3
*D13
  1

  0
LINE
  5
FBF
  8
AM_5
 10
95.693836005097225
 20
230.94546831912021
 30
0.0
 11
95.693836005097225
 21
242.94546831912021
 31
0.0
  0
LINE
  5
FC0
  8
AM_5
 10
97.563836005097187
 20
228.64546831912011
 30
0.0
 11
97.563836005097187
 21
242.94546831912021
 31
0.0
  0
LINE
  5
FC1
  8
AM_5
 10
93.193836005097225
 20
241.94546831912021
 30
0.0
 11
90.693836005097225
 21
241.94546831912021
 31
0.0
  0
LINE
  5
FC2
  8
AM_5
 10
100.0638360050972
 20
241.94546831912021
 30
0.0
 11
112.21383600509721
 21
241.94546831912021
 31
0.0
  0
LINE
  5
FC3
  8
AM_5
 10
95.693836005097225
 20
241.94546831912021
 30
0.0
 11
97.563836005097187
 21
241.94546831912021
 31
0.0
  0
INSERT
  5
FC4
  8
AM_5
  2
_OPEN30
 10
95.693836005097225
 20
241.94546831912021
 30
0.0
 41
2.5
 42
2.5
 43
2.5
  0
INSERT
  5
FC5
  8
AM_5
  2
_OPEN30
 10
97.563836005097187
 20
241.94546831912021
 30
0.0
 41
2.5
 42
2.5
 43
2.5
 50
180.0
  0
INSERT
  5
FC6
  8
パネル
  2
*U94
 10
0.0
 20
0.0
 30
0.0
  0
POINT
  5
FC7
  8
DEFPOINTS
 62
     0
 10
95.693836005097225
 20
229.94546831912021
 30
0.0
  0
POINT
  5
FC8
  8
DEFPOINTS
 62
     0
 10
97.563836005097187
 20
227.6454683191202
 30
0.0
  0
POINT
  5
FC9
  8
DEFPOINTS
 62
     0
 10
97.563836005097187
 20
241.94546831912021
 30
0.0
  0
ENDBLK
  5
886
  8
0
  0
BLOCK
  8
0
  2
*D14
 70
     1
 10
0.0
 20
0.0
 30
0.0
  3
*D14
  1

  0
LINE
  5
E8F
  8
AM_5
 10
122.18342487554369
 20
194.35707840344281
 30
0.0
 11
122.18342487554369
 21
204.19256752246699
 31
0.0
  0
LINE
  5
E90
  8
AM_5
 10
123.68342487554359
 20
194.35707840344281
 30
0.0
 11
123.68342487554359
 21
204.19256752246699
 31
0.0
  0
LINE
  5
E91
  8
AM_5
 10
119.68342487554359
 20
203.19256752246699
 30
0.0
 11
117.18342487554359
 21
203.19256752246699
 31
0.0
  0
LINE
  5
E92
  8
AM_5
 10
126.18342487554359
 20
203.19256752246699
 30
0.0
 11
136.0283996223742
 21
203.19256752246699
 31
0.0
  0
LINE
  5
E93
  8
AM_5
 10
122.18342487554369
 20
203.19256752246699
 30
0.0
 11
123.68342487554359
 21
203.19256752246699
 31
0.0
  0
INSERT
  5
E94
  8
AM_5
  2
_OPEN30
 10
122.18342487554369
 20
203.19256752246699
 30
0.0
 41
2.5
 42
2.5
 43
2.5
  0
INSERT
  5
E95
  8
AM_5
  2
_OPEN30
 10
123.68342487554359
 20
203.19256752246699
 30
0.0
 41
2.5
 42
2.5
 43
2.5
 50
180.0
  0
INSERT
  5
E96
  8
パネル
  2
*U88
 10
0.0
 20
0.0
 30
0.0
  0
POINT
  5
E97
  8
DEFPOINTS
 62
     0
 10
122.18342487554369
 20
193.35707840344281
 30
0.0
  0
POINT
  5
E98
  8
DEFPOINTS
 62
     0
 10
123.68342487554359
 20
193.35707840344281
 30
0.0
  0
POINT
  5
E99
  8
DEFPOINTS
 62
     0
 10
123.68342487554359
 20
203.19256752246699
 30
0.0
  0
ENDBLK
  5
888
  8
0
  0
BLOCK
  8
0
  2
*D15
 70
     1
 10
0.0
 20
0.0
 30
0.0
  3
*D15
  1

  0
LINE
  5
FCA
  8
AM_5
 10
90.613836005097255
 20
187.85707840344281
 30
0.0
 11
90.613836005097255
 21
204.04616610412131
 31
0.0
  0
LINE
  5
FCB
  8
AM_5
 10
97.563836005097258
 20
195.35707840344281
 30
0.0
 11
97.563836005097258
 21
204.04616610412131
 31
0.0
  0
LINE
  5
FCC
  8
AM_5
 10
88.113836005097255
 20
203.04616610412131
 30
0.0
 11
85.613836005097255
 21
203.04616610412131
 31
0.0
  0
LINE
  5
FCD
  8
AM_5
 10
100.0638360050972
 20
203.04616610412131
 30
0.0
 11
113.28048972755541
 21
203.04616610412131
 31
0.0
  0
LINE
  5
FCE
  8
AM_5
 10
90.613836005097255
 20
203.04616610412131
 30
0.0
 11
97.563836005097258
 21
203.04616610412131
 31
0.0
  0
INSERT
  5
FCF
  8
AM_5
  2
_OPEN30
 10
90.613836005097255
 20
203.04616610412131
 30
0.0
 41
2.5
 42
2.5
 43
2.5
  0
INSERT
  5
FD0
  8
AM_5
  2
_OPEN30
 10
97.563836005097258
 20
203.04616610412131
 30
0.0
 41
2.5
 42
2.5
 43
2.5
 50
180.0
  0
INSERT
  5
FD1
  8
パネル
  2
*U95
 10
0.0
 20
0.0
 30
0.0
  0
POINT
  5
FD2
  8
DEFPOINTS
 62
     0
 10
90.613836005097255
 20
186.85707840344281
 30
0.0
  0
POINT
  5
FD3
  8
DEFPOINTS
 62
     0
 10
97.563836005097258
 20
194.35707840344281
 30
0.0
  0
POINT
  5
FD4
  8
DEFPOINTS
 62
     0
 10
97.563836005097258
 20
203.04616610412131
 30
0.0
  0
ENDBLK
  5
88A
  8
0
  0
BLOCK
  8
0
  2
*D16
 70
     1
 10
0.0
 20
0.0
 30
0.0
  3
*D16
  1

  0
LINE
  5
E9A
  8
AM_5
 10
138.78342487554369
 20
188.00707840344279
 30
0.0
 11
148.4872884738617
 21
188.00707840344279
 31
0.0
  0
LINE
  5
E9B
  8
AM_5
 10
138.78342487554369
 20
185.70707840344281
 30
0.0
 11
148.4872884738617
 21
185.70707840344281
 31
0.0
  0
LINE
  5
E9C
  8
AM_5
 10
147.4872884738617
 20
183.20707840344281
 30
0.0
 11
147.4872884738617
 21
180.70707840344281
 31
0.0
  0
LINE
  5
E9D
  8
AM_5
 10
147.4872884738617
 20
190.50707840344279
 30
0.0
 11
147.4872884738617
 21
201.14093110302929
 31
0.0
  0
LINE
  5
E9E
  8
AM_5
 10
147.4872884738617
 20
185.70707840344281
 30
0.0
 11
147.4872884738617
 21
188.00707840344279
 31
0.0
  0
INSERT
  5
E9F
  8
AM_5
  2
_OPEN30
 10
147.4872884738617
 20
185.70707840344281
 30
0.0
 41
2.5
 42
2.5
 43
2.5
 50
90.0
  0
INSERT
  5
EA0
  8
AM_5
  2
_OPEN30
 10
147.4872884738617
 20
188.00707840344279
 30
0.0
 41
2.5
 42
2.5
 43
2.5
 50
270.0
  0
INSERT
  5
EA1
  8
パネル
  2
*U89
 10
0.0
 20
0.0
 30
0.0
  0
POINT
  5
EA2
  8
DEFPOINTS
 62
     0
 10
137.78342487554369
 20
188.00707840344279
 30
0.0
  0
POINT
  5
EA3
  8
DEFPOINTS
 62
     0
 10
137.78342487554369
 20
185.70707840344281
 30
0.0
  0
POINT
  5
EA4
  8
DEFPOINTS
 62
     0
 10
147.4872884738617
 20
185.70707840344281
 30
0.0
  0
ENDBLK
  5
88E
  8
0
  0
BLOCK
  8
0
  2
*D17
 70
     1
 10
0.0
 20
0.0
 30
0.0
  3
*D17
  1

  0
LINE
  5
EA5
  8
AM_5
 10
122.18342487554369
 20
178.35707840344281
 30
0.0
 11
122.18342487554369
 21
166.35707840344281
 31
0.0
  0
LINE
  5
EA6
  8
AM_5
 10
136.18342487554361
 20
181.85707840344281
 30
0.0
 11
136.18342487554361
 21
166.35707840344281
 31
0.0
  0
LINE
  5
EA7
  8
AM_5
 10
124.68342487554359
 20
167.35707840344281
 30
0.0
 11
133.68342487554361
 21
167.35707840344281
 31
0.0
  0
INSERT
  5
EA8
  8
AM_5
  2
_OPEN30
 10
122.18342487554369
 20
167.35707840344281
 30
0.0
 41
2.5
 42
2.5
 43
2.5
 50
180.0
  0
INSERT
  5
EA9
  8
AM_5
  2
_OPEN30
 10
136.18342487554361
 20
167.35707840344281
 30
0.0
 41
2.5
 42
2.5
 43
2.5
  0
INSERT
  5
EAA
  8
パネル
  2
*U90
 10
0.0
 20
0.0
 30
0.0
  0
POINT
  5
EAB
  8
DEFPOINTS
 62
     0
 10
122.18342487554369
 20
179.35707840344281
 30
0.0
  0
POINT
  5
EAC
  8
DEFPOINTS
 62
     0
 10
136.18342487554361
 20
182.85707840344281
 30
0.0
  0
POINT
  5
EAD
  8
DEFPOINTS
 62
     0
 10
136.18342487554361
 20
167.35707840344281
 30
0.0
  0
ENDBLK
  5
932
  8
0
  0
BLOCK
  8
0
  2
*D18
 70
     1
 10
0.0
 20
0.0
 30
0.0
  3
*D18
  1

  0
LINE
  5
EAE
  8
AM_5
 10
128.18342487554361
 20
181.85707840344281
 30
0.0
 11
128.18342487554361
 21
173.5912097323874
 31
0.0
  0
LINE
  5
EAF
  8
AM_5
 10
136.18342487554361
 20
181.85707840344281
 30
0.0
 11
136.18342487554361
 21
173.5912097323874
 31
0.0
  0
LINE
  5
EB0
  8
AM_5
 10
125.68342487554359
 20
174.5912097323874
 30
0.0
 11
123.18342487554359
 21
174.5912097323874
 31
0.0
  0
LINE
  5
EB1
  8
AM_5
 10
138.68342487554361
 20
174.5912097323874
 30
0.0
 11
141.18342487554361
 21
174.5912097323874
 31
0.0
  0
LINE
  5
EB2
  8
AM_5
 10
128.18342487554361
 20
174.5912097323874
 30
0.0
 11
136.18342487554361
 21
174.5912097323874
 31
0.0
  0
INSERT
  5
EB3
  8
AM_5
  2
_OPEN30
 10
128.18342487554361
 20
174.5912097323874
 30
0.0
 41
2.5
 42
2.5
 43
2.5
  0
INSERT
  5
EB4
  8
AM_5
  2
_OPEN30
 10
136.18342487554361
 20
174.5912097323874
 30
0.0
 41
2.5
 42
2.5
 43
2.5
 50
180.0
  0
INSERT
  5
EB5
  8
パネル
  2
*U91
 10
0.0
 20
0.0
 30
0.0
  0
POINT
  5
EB6
  8
DEFPOINTS
 62
     0
 10
128.18342487554361
 20
182.85707840344281
 30
0.0
  0
POINT
  5
EB7
  8
DEFPOINTS
 62
     0
 10
136.18342487554361
 20
182.85707840344281
 30
0.0
  0
POINT
  5
EB8
  8
DEFPOINTS
 62
     0
 10
136.18342487554361
 20
174.5912097323874
 30
0.0
  0
ENDBLK
  5
934
  8
0
  0
BLOCK
  8
0
  2
*D19
 70
     1
 10
0.0
 20
0.0
 30
0.0
  3
*D19
  1

  0
LINE
  5
EB9
  8
AM_5
 10
136.18342487554361
 20
181.85707840344281
 30
0.0
 11
136.18342487554361
 21
166.35707840344281
 31
0.0
  0
LINE
  5
EBA
  8
AM_5
 10
138.4834248755437
 20
185.10707840344281
 30
0.0
 11
138.4834248755437
 21
166.35707840344281
 31
0.0
  0
LINE
  5
EBB
  8
AM_5
 10
133.68342487554361
 20
167.35707840344281
 30
0.0
 11
131.18342487554361
 21
167.35707840344281
 31
0.0
  0
LINE
  5
EBC
  8
AM_5
 10
140.98342487554359
 20
167.35707840344281
 30
0.0
 11
151.61727757513009
 21
167.35707840344281
 31
0.0
  0
LINE
  5
EBD
  8
AM_5
 10
136.18342487554361
 20
167.35707840344281
 30
0.0
 11
138.4834248755437
 21
167.35707840344281
 31
0.0
  0
INSERT
  5
EBE
  8
AM_5
  2
_OPEN30
 10
136.18342487554361
 20
167.35707840344281
 30
0.0
 41
2.5
 42
2.5
 43
2.5
  0
INSERT
  5
EBF
  8
AM_5
  2
_OPEN30
 10
138.4834248755437
 20
167.35707840344281
 30
0.0
 41
2.5
 42
2.5
 43
2.5
 50
180.0
  0
INSERT
  5
EC0
  8
パネル
  2
*U92
 10
0.0
 20
0.0
 30
0.0
  0
POINT
  5
EC1
  8
DEFPOINTS
 62
     0
 10
136.18342487554361
 20
182.85707840344281
 30
0.0
  0
POINT
  5
EC2
  8
DEFPOINTS
 62
     0
 10
138.4834248755437
 20
186.10707840344281
 30
0.0
  0
POINT
  5
EC3
  8
DEFPOINTS
 62
     0
 10
138.4834248755437
 20
167.35707840344281
 30
0.0
  0
ENDBLK
  5
936
  8
0
  0
BLOCK
  8
0
  2
*D20
 70
     1
 10
0.0
 20
0.0
 30
0.0
  3
*D20
  1

  0
LINE
  5
10D5
  8
AM_5
 10
88.686128106900995
 20
183.5244454714757
 30
0.0
 11
82.881756160880144
 21
173.4898125715458
 31
0.0
  0
LINE
  5
10D6
  8
AM_5
 10
82.881756160880144
 20
173.4898125715458
 30
0.0
 11
68.081756160880161
 21
173.48981257154591
 31
0.0
  0
INSERT
  5
10D7
  8
AM_5
  2
_OPEN30
 10
89.937886482353136
 20
185.68849282989589
 30
0.0
 41
2.5
 42
2.5
 43
2.5
 50
59.953455806635191
  0
INSERT
  5
10D8
  8
パネル
  2
*U101
 10
0.0
 20
0.0
 30
0.0
  0
POINT
  5
10D9
  8
DEFPOINTS
 62
     0
 10
89.937886482353136
 20
185.68849282989589
 30
0.0
  0
POINT
  5
10DA
  8
DEFPOINTS
 62
     0
 10
91.289785527841474
 20
188.02566397698979
 30
0.0
  0
ENDBLK
  5
98B
  8
0
  0
BLOCK
  8
0
  2
*D21
 70
     1
 10
0.0
 20
0.0
 30
0.0
  3
*D21
  1

  0
LINE
  5
EC4
  8
AM_5
 10
137.18342487554361
 20
190.85707840344281
 30
0.0
 11
156.38863106893569
 21
190.85707840344281
 31
0.0
  0
LINE
  5
EC5
  8
AM_5
 10
137.18342487554361
 20
182.85707840344281
 30
0.0
 11
156.38863106893569
 21
182.85707840344281
 31
0.0
  0
LINE
  5
EC6
  8
AM_5
 10
155.38863106893581
 20
193.35707840344281
 30
0.0
 11
155.38863106893581
 21
195.85707840344281
 31
0.0
  0
LINE
  5
EC7
  8
AM_5
 10
155.38863106893569
 20
180.35707840344281
 30
0.0
 11
155.38863106893569
 21
177.85707840344281
 31
0.0
  0
LINE
  5
EC8
  8
AM_5
 10
155.38863106893569
 20
190.85707840344281
 30
0.0
 11
155.38863106893569
 21
182.85707840344281
 31
0.0
  0
INSERT
  5
EC9
  8
AM_5
  2
_OPEN30
 10
155.38863106893569
 20
190.85707840344281
 30
0.0
 41
2.5
 42
2.5
 43
2.5
 50
270.0
  0
INSERT
  5
ECA
  8
AM_5
  2
_OPEN30
 10
155.38863106893569
 20
182.85707840344281
 30
0.0
 41
2.5
 42
2.5
 43
2.5
 50
90.0
  0
INSERT
  5
ECB
  8
パネル
  2
*U93
 10
0.0
 20
0.0
 30
0.0
  0
POINT
  5
ECC
  8
DEFPOINTS
 62
     0
 10
136.18342487554361
 20
190.85707840344281
 30
0.0
  0
POINT
  5
ECD
  8
DEFPOINTS
 62
     0
 10
136.18342487554361
 20
182.85707840344281
 30
0.0
  0
POINT
  5
ECE
  8
DEFPOINTS
 62
     0
 10
155.38863106893569
 20
182.85707840344281
 30
0.0
  0
ENDBLK
  5
9B9
  8
0
  0
BLOCK
  8
0
  2
*U23
 70
     1
 10
0.0
 20
0.0
 30
0.0
  3
*U23
  1

  0
ENDBLK
  5
BE2
  8
0
  0
BLOCK
  8
0
  2
TK-A4
 70
     0
 10
0.0
 20
0.0
 30
0.0
  3
TK-A4
  1

  0
TEXT
  5
BEB
  8
0
 10
0.0
 20
0.0
 30
0.0
 40
2.5
  1
!GENTITLE-LL
  0
TEXT
  5
BEC
  8
0
 10
193.0
 20
280.0
 30
0.0
 40
2.5
  1
!GENTITLE-MAX
  0
TEXT
  5
BED
  8
0
 10
193.0
 20
0.0
 30
0.0
 40
2.5
  1
!GENTITLE-INSERT
  0
LINE
  5
BEF
  8
0
 10
149.0
 20
280.00000000000011
 30
0.0
 11
149.0
 21
275.0
 31
0.0
  0
TEXT
  8
0
  40
2.5
  5
130B
  72
0
  71
0
 10
192.359
 20
272.859
 30
0.000000
  1
(文書番号：TY-34)2008.02.08
  0
LINE
  5
BF1
  8
0
 10
149.0
 20
275.0
 30
0.0
 11
193.0
 21
275.0
 31
0.0
  0
ENDBLK
  5
BF4
  8
0
  0
BLOCK
  8
0
  2
TK-TITLE
 70
     2
 10
0.0
 20
0.0
 30
0.0
  3
TK-TITLE
  1

  0
ATTDEF
  5
CA0
  8
0
 10
-8.0023091895458265
 20
1.705189434395036
 30
0.0
 40
2.5
  1

  3
Rev.
  2
GEN-TITLE-NR2
 70
     0
  0
ATTDEF
  5
CA1
  8
0
 10
-84.142519015853296
 20
12.82790432564377
 30
0.0
 40
3.5
  1

  3
品名
  2
GEN-TITLE-DES1
 70
     0
  0
LINE
  5
CA2
  8
0
 10
0.0
 20
0.0
 30
0.0
 11
0.0
 21
50.0
 31
0.0
1001
GENIUS_GENREC_14
1002
{
1000
PYDIR
1011
-414.0
1021
0.0
1031
7.7380488517390712E+217
1021
291.0
1031
0.0
1002
}
1002
{
1000
PXDIR
1011
6.0
1021
0.0
1031
7.7380488517390712E+217
1021
-6.0
1031
0.0
1002
}
1002
{
1000
PORI
1011
-414.0
1021
0.0
1031
7.7380488517390712E+217
1021
-6.0
1031
0.0
1002
}
1002
{
1000
PINS
1011
-414.0
1021
0.0
1031
7.7380488517390712E+217
1021
-6.0
1031
0.0
1002
}
1002
{
1000
HVAL
1000
297
1002
}
1002
{
1000
H
1070
     2
1002
}
1002
{
1000
WVAL
1000
420
1002
}
1002
{
1000
W
1070
     2
1002
}
1002
{
1000
C
1070
     1
1002
}
1001
GENIUS_GENODEF_13
1002
{
1000
HIER
1070
     0
1002
}
1002
{
1000
MANEDIT
1070
     0
1002
}
1002
{
1000
NOSEL
1070
     0
1002
}
1002
{
1000
BEHIND
1070
     0
1002
}
1002
{
1000
OTHER
1070
     0
1002
}
1002
{
1000
REACTOR
1002
}
1001
GENIUS_GENOBJ-N-REC_13
1002
{
1000
OWNER
1000
GEN
1002
}
  0
ATTDEF
  5
CA3
  8
0
 10
-84.0
 20
9.1499999999999488
 30
0.0
 40
2.5
  1

  3
サブタイトル
  2
GEN-TITLE-DES2
 70
     0
  0
ATTDEF
  5
CA4
  8
0
 10
-84.0
 20
1.9999999999999569
 30
0.0
 40
3.0
  1

  3
図番
  2
GEN-TITLE-NR1
 70
     0
  0
LINE
  5
CA5
  8
0
 10
-96.0
 20
50.000000000000007
 30
0.0
 11
-96.0
 21
-0.0000000000000142
 31
0.0
1001
GENIUS_GENREC_14
1002
{
1000
PYDIR
1011
-96.0
1021
0.0
1031
7.7380488517390712E+217
1021
49.999999999999993
1031
0.0
1002
}
1002
{
1000
PXDIR
1011
88.0
1021
0.0
1031
7.7380488517390712E+217
1021
-0.0000000000000142
1031
0.0
1002
}
1002
{
1000
PORI
1011
-96.0
1021
0.0
1031
7.7380488517390712E+217
1021
-0.0000000000000142
1031
0.0
1002
}
1002
{
1000
PINS
1011
-12.5
1021
0.0
1031
7.7380488517390712E+217
1021
24.999999999999989
1031
0.0
1002
}
1002
{
1000
HVAL
1000
50
1002
}
1002
{
1000
H
1070
     2
1002
}
1002
{
1000
WVAL
1000
167
1002
}
1002
{
1000
W
1070
     2
1002
}
1002
{
1000
C
1070
     4
1002
}
1001
GENIUS_GENODEF_13
1002
{
1000
HIER
1070
     0
1002
}
1002
{
1000
MANEDIT
1070
     0
1002
}
1002
{
1000
NOSEL
1070
     0
1002
}
1002
{
1000
BEHIND
1070
     0
1002
}
1002
{
1000
REACTOR
1002
}
1001
GENIUS_GENOBJ-N-REC_13
1002
{
1000
OWNER
1000
GEN
1002
}
  0
LINE
  5
CA6
  8
0
 10
0.0
 20
50.0
 30
0.0
 11
-193.00000000000011
 21
50.000000000000021
 31
0.0
1001
GENIUS_GENREC_14
1002
{
1000
PYDIR
1011
-184.0
1021
0.0
1031
7.7380488517390712E+217
1021
50.0
1031
0.0
1002
}
1002
{
1000
PXDIR
1011
0.0
1021
0.0
1031
7.7380488517390712E+217
1021
0.0
1031
0.0
1002
}
1002
{
1000
PORI
1011
-184.0
1021
0.0
1031
7.7380488517390712E+217
1021
0.0
1031
0.0
1002
}
1002
{
1000
PINS
1011
-100.5
1021
0.0
1031
7.7380488517390712E+217
1021
25.0
1031
0.0
1002
}
1002
{
1000
HVAL
1000
50
1002
}
1002
{
1000
H
1070
     2
1002
}
1002
{
1000
WVAL
1000
167
1002
}
1002
{
1000
W
1070
     2
1002
}
1002
{
1000
C
1070
     4
1002
}
1001
GENIUS_GENODEF_13
1002
{
1000
HIER
1070
     0
1002
}
1002
{
1000
MANEDIT
1070
     0
1002
}
1002
{
1000
NOSEL
1070
     0
1002
}
1002
{
1000
BEHIND
1070
     0
1002
}
1002
{
1000
REACTOR
1002
}
1001
GENIUS_GENOBJ-N-REC_13
1002
{
1000
OWNER
1000
GEN
1002
}
  0
LINE
  5
CA7
  8
0
 10
-193.00000000000011
 20
0.0
 30
0.0
 11
0.0
 21
0.0
 31
0.0
1001
GENIUS_GENREC_14
1002
{
1000
PYDIR
1011
-184.0
1021
0.0
1031
7.7380488517390712E+217
1021
50.0
1031
0.0
1002
}
1002
{
1000
PXDIR
1011
0.0
1021
0.0
1031
7.7380488517390712E+217
1021
0.0
1031
0.0
1002
}
1002
{
1000
PORI
1011
-184.0
1021
0.0
1031
7.7380488517390712E+217
1021
0.0
1031
0.0
1002
}
1002
{
1000
PINS
1011
-100.5
1021
0.0
1031
7.7380488517390712E+217
1021
25.0
1031
0.0
1002
}
1002
{
1000
HVAL
1000
50
1002
}
1002
{
1000
H
1070
     2
1002
}
1002
{
1000
WVAL
1000
167
1002
}
1002
{
1000
W
1070
     2
1002
}
1002
{
1000
C
1070
     4
1002
}
1001
GENIUS_GENODEF_13
1002
{
1000
HIER
1070
     0
1002
}
1002
{
1000
MANEDIT
1070
     0
1002
}
1002
{
1000
NOSEL
1070
     0
1002
}
1002
{
1000
BEHIND
1070
     0
1002
}
1002
{
1000
REACTOR
1002
}
1001
GENIUS_GENOBJ-N-REC_13
1002
{
1000
OWNER
1000
GEN
1002
}
  0
TEXT
  5
CA8
  8
RAHM2
 10
-91.926776695296624
 20
45.983333333333348
 30
0.0
 40
2.5
  1
5
 72
     1
 11
-91.0
 21
45.65000000000002
 31
0.0
 73
     1
  0
TEXT
  5
CA9
  8
RAHM2
 10
-92.0
 20
40.983333333333348
 30
0.0
 40
2.5
  1
4
 72
     1
 11
-91.0
 21
40.65000000000002
 31
0.0
 73
     1
  0
TEXT
  5
CAA
  8
RAHM2
 10
-91.926776695296624
 20
35.983333333333327
 30
0.0
 40
2.5
  1
3
 72
     1
 11
-91.0
 21
35.649999999999991
 31
0.0
 73
     1
  0
TEXT
  5
CAB
  8
RAHM2
 10
-91.918331692913384
 20
30.983333333333348
 30
0.0
 40
2.5
  1
2
 72
     1
 11
-91.0
 21
30.65000000000002
 31
0.0
 73
     1
  0
TEXT
  5
CAC
  8
RAHM2
 10
-91.815586356580184
 20
25.983333333333348
 30
0.0
 40
2.5
  1
1
 72
     1
 11
-91.190586356580184
 21
25.65000000000002
 31
0.0
 73
     1
  0
INSERT
  5
CAD
  8
パネル
  2
*U65
 10
0.0
 20
0.0
 30
0.0
  0
LINE
  5
CAE
  8
RAHM2
 10
-96.0
 20
25.0
 30
0.0
 11
0.0000000000001137
 21
25.000000000000028
 31
0.0
  0
LINE
  5
CAF
  8
RAHM2
 10
-93.424871130596443
 20
25.40000000000002
 30
0.0
 11
-88.575128869403557
 21
25.40000000000002
 31
0.0
  0
LINE
  5
CB0
  8
RAHM2
 10
-88.575128869403557
 20
25.40000000000002
 30
0.0
 11
-91.0
 21
29.600000000000009
 31
0.0
  0
LINE
  5
CB1
  8
RAHM2
 10
-91.0
 20
29.600000000000009
 30
0.0
 11
-93.424871130596443
 21
25.40000000000002
 31
0.0
  0
INSERT
  5
CB2
  8
パネル
  2
*U66
 10
0.0
 20
0.0
 30
0.0
  0
INSERT
  5
CB3
  8
パネル
  2
*U67
 10
0.0
 20
0.0
 30
0.0
  0
INSERT
  5
CB4
  8
パネル
  2
*U68
 10
0.0
 20
0.0
 30
0.0
  0
INSERT
  5
CB5
  8
パネル
  2
*U69
 10
0.0
 20
0.0
 30
0.0
  0
INSERT
  5
CB6
  8
パネル
  2
*U70
 10
0.0
 20
0.0
 30
0.0
  0
INSERT
  5
CB7
  8
パネル
  2
*U71
 10
0.0
 20
0.0
 30
0.0
  0
LINE
  5
CB8
  8
RAHM2
 10
-11.82081941068907
 20
50.000000000000028
 30
0.0
 11
-11.82081941068907
 21
19.99999999999994
 31
0.0
  0
INSERT
  5
CB9
  8
パネル
  2
*U72
 10
0.0
 20
0.0
 30
0.0
  0
LINE
  5
CBA
  8
RAHM2
 10
-31.820819410689069
 20
50.000000000000028
 30
0.0
 11
-31.820819410689179
 21
19.99999999999994
 31
0.0
  0
LINE
  5
CBB
  8
RAHM2
 10
-91.0
 20
49.600000000000001
 30
0.0
 11
-93.424871130596443
 21
45.400000000000013
 31
0.0
  0
LINE
  5
CBC
  8
RAHM2
 10
-91.0
 20
44.600000000000001
 30
0.0
 11
-93.424871130596443
 21
40.400000000000013
 31
0.0
  0
LINE
  5
CBD
  8
RAHM2
 10
-91.0
 20
39.600000000000009
 30
0.0
 11
-93.424871130596443
 21
35.40000000000002
 31
0.0
  0
LINE
  5
CBE
  8
RAHM2
 10
-88.575128869403557
 20
35.40000000000002
 30
0.0
 11
-91.0
 21
39.600000000000009
 31
0.0
  0
LINE
  5
CBF
  8
RAHM2
 10
-93.424871130596443
 20
35.40000000000002
 30
0.0
 11
-88.575128869403557
 21
35.40000000000002
 31
0.0
  0
LINE
  5
CC0
  8
RAHM2
 10
-88.575128869403557
 20
40.400000000000013
 30
0.0
 11
-91.0
 21
44.600000000000001
 31
0.0
  0
LINE
  5
CC1
  8
RAHM2
 10
-93.424871130596443
 20
40.400000000000013
 30
0.0
 11
-88.575128869403557
 21
40.400000000000013
 31
0.0
  0
LINE
  5
CC2
  8
RAHM2
 10
-88.575128869403557
 20
45.400000000000013
 30
0.0
 11
-91.0
 21
49.600000000000001
 31
0.0
  0
LINE
  5
CC3
  8
RAHM2
 10
-93.424871130596443
 20
45.400000000000013
 30
0.0
 11
-88.575128869403557
 21
45.400000000000013
 31
0.0
  0
INSERT
  5
CC4
  8
パネル
  2
*U73
 10
0.0
 20
0.0
 30
0.0
  0
INSERT
  5
CC5
  8
パネル
  2
*U74
 10
0.0
 20
0.0
 30
0.0
  0
LINE
  5
CC6
  8
RAHM2
 10
-93.424871130596443
 20
30.40000000000002
 30
0.0
 11
-88.575128869403557
 21
30.40000000000002
 31
0.0
  0
LINE
  5
CC7
  8
RAHM2
 10
-86.0
 20
50.000000000000007
 30
0.0
 11
-86.0
 21
19.999999999999929
 31
0.0
  0
LINE
  5
CC8
  8
RAHM2
 10
-91.0
 20
34.600000000000009
 30
0.0
 11
-93.424871130596443
 21
30.40000000000002
 31
0.0
  0
LINE
  5
CC9
  8
RAHM2
 10
-88.575128869403557
 20
30.40000000000002
 30
0.0
 11
-91.0
 21
34.600000000000009
 31
0.0
  0
INSERT
  5
CCA
  8
パネル
  2
*U75
 10
0.0
 20
0.0
 30
0.0
  0
LINE
  5
CCB
  8
0
 10
-96.0
 20
19.999999999999972
 30
0.0
 11
0.0000000000001137
 21
19.999999999999972
 31
0.0
  0
LINE
  5
CCC
  8
0
 10
-96.0
 20
7.0
 30
0.0
 11
0.0000000000001137
 21
7.0
 31
0.0
  0
LINE
  5
CCD
  8
RAHM2
 10
-96.0
 20
45.000000000000021
 30
0.0
 11
0.0000000000001137
 21
45.000000000000021
 31
0.0
  0
LINE
  5
CCE
  8
RAHM2
 10
-96.0
 20
39.999999999999929
 30
0.0
 11
0.0000000000001137
 21
40.000000000000021
 31
0.0
  0
LINE
  5
CCF
  8
RAHM2
 10
-96.0
 20
35.000000000000028
 30
0.0
 11
0.0000000000001137
 21
35.000000000000028
 31
0.0
  0
LINE
  5
CD0
  8
RAHM2
 10
-96.0
 20
29.999999999999918
 30
0.0
 11
0.0000000000001137
 21
30.000000000000028
 31
0.0
  0
LINE
  5
CD1
  8
0
 10
-21.175419266257109
 20
0.0
 30
0.0
 11
-21.17541926625734
 21
7.0
 31
0.0
  0
INSERT
  5
CD2
  8
パネル
  2
*U76
 10
0.0
 20
0.0
 30
0.0
  0
INSERT
  5
CD3
  8
パネル
  2
*U77
 10
0.0
 20
0.0
 30
0.0
  0
LINE
  5
CD4
  8
0
 10
-167.0
 20
19.999999999999929
 30
0.0
 11
-96.0
 21
19.999999999999929
 31
0.0
  0
LINE
  5
CD5
  8
0
 10
-113.75
 20
19.999999999999929
 30
0.0
 11
-113.75
 21
-0.0000000000000533
 31
0.0
  0
LINE
  5
CD6
  8
0
 10
-131.50000000000011
 20
19.999999999999929
 30
0.0
 11
-131.50000000000011
 21
-0.0000000000000533
 31
0.0
  0
INSERT
  5
CD7
  8
パネル
  2
*U78
 10
0.0
 20
0.0
 30
0.0
  0
LINE
  5
CD8
  8
0
 10
-167.0
 20
49.99999999999995
 30
0.0
 11
-167.0
 21
-0.0000000000000497
 31
0.0
  0
LINE
  5
CD9
  8
0
 10
-149.25000000000011
 20
19.999999999999929
 30
0.0
 11
-149.25000000000011
 21
-0.0000000000000462
 31
0.0
  0
INSERT
  5
CDA
  8
パネル
  2
*U79
 10
0.0
 20
0.0
 30
0.0
  0
INSERT
  5
CDB
  8
パネル
  2
*U80
 10
0.0
 20
0.0
 30
0.0
  0
LINE
  5
CDC
  8
0
 10
-167.0
 20
29.999999999999918
 30
0.0
 11
-96.0
 21
29.999999999999918
 31
0.0
  0
INSERT
  5
CDD
  8
パネル
  2
*U81
 10
0.0
 20
0.0
 30
0.0
  0
ATTDEF
  5
CDE
  8
0
 10
-148.96186758352911
 20
43.299999999999912
 30
0.0
 40
3.0
  1

  3
材質
  2
GEN-TITLE-MAT1
 70
     0
  0
ATTDEF
  5
CDF
  8
0
 10
-148.96186758352911
 20
33.299999999999912
 30
0.0
 40
3.0
  1

  3
表面処理
  2
GEN-TITLE-MAT2
 70
     0
  0
INSERT
  5
CE0
  8
パネル
  2
*U82
 10
0.0
 20
0.0
 30
0.0
  0
INSERT
  5
CE1
  8
パネル
  2
*U83
 10
0.0
 20
0.0
 30
0.0
  0
LINE
  5
CE2
  8
0
 10
-167.0
 20
39.999999999999908
 30
0.0
 11
-96.0
 21
39.999999999999922
 31
0.0
  0
LINE
  5
CE3
  8
0
 10
-167.0
 20
24.999999999999972
 30
0.0
 11
-193.00000000000011
 21
24.999999999999972
 31
0.0
  0
LINE
  5
CE4
  8
0
 10
-171.71674187457961
 20
46.74999999999995
 30
0.0
 11
-171.71674187457961
 21
40.749999999999943
 31
0.0
  0
LINE
  5
CE5
  8
7A
 10
-184.71674187457961
 20
43.74999999999995
 30
0.0
 11
-184.71674187457961
 21
40.03991724228473
 31
0.0
1001
GENIUS_GENOREF_13
1005
CF7
  0
LINE
  5
CE6
  8
7A
 10
-184.71674187457961
 20
43.74999999999995
 30
0.0
 11
-188.43977924583069
 21
43.74999999999995
 31
0.0
1001
GENIUS_GENOREF_13
1005
CF7
  0
LINE
  5
CE7
  8
0
 10
-179.71674187457961
 20
41.74999999999995
 30
0.0
 11
-179.71674187457961
 21
45.749999999999943
 31
0.0
  0
CIRCLE
  5
CE8
  8
0
 10
-184.71674187457961
 20
43.74999999999995
 30
0.0
 40
3.0
  0
CIRCLE
  5
CE9
  8
0
 10
-184.71674187457961
 20
43.74999999999995
 30
0.0
 40
2.0
  0
LINE
  5
CEA
  8
7A
 10
-184.71674187457961
 20
43.74999999999995
 30
0.0
 11
-184.71674187457961
 21
47.324786644731439
 31
0.0
1001
GENIUS_GENOREF_13
1005
CF7
  0
LINE
  5
CEB
  8
0
 10
-171.71674187457961
 20
40.749999999999943
 30
0.0
 11
-179.71674187457961
 21
41.74999999999995
 31
0.0
  0
LINE
  5
CEC
  8
0
 10
-179.71674187457961
 20
45.749999999999943
 30
0.0
 11
-171.71674187457961
 21
46.74999999999995
 31
0.0
  0
LINE
  5
CED
  8
7A
 10
-184.71674187457961
 20
43.74999999999995
 30
0.0
 11
-170.93543347429431
 21
43.74999999999995
 31
0.0
1001
GENIUS_GENOREF_13
1005
CF7
  0
LINE
  5
CEE
  8
0
 10
-193.00000000000011
 20
49.999999999999993
 30
0.0
 11
-193.00000000000011
 21
-0.0000000000000142
 31
0.0
  0
ATTDEF
  5
CEF
  8
0
 10
-175.6127409126095
 20
16.199999999999939
 30
0.0
 40
3.0
  1

 72
     2
 11
-175.6127409126095
 21
15.79999999999994
 31
0.0
  3
数量
  2
GEN-TITLE-QTY
 70
     0
 74
     1
  0
INSERT
  5
CF0
  8
パネル
  2
*U84
 10
0.0
 20
0.0
 30
0.0
  0
INSERT
  5
CF1
  8
パネル
  2
*U85
 10
0.0
 20
0.0
 30
0.0
  0
ATTDEF
  5
CF2
  8
0
 10
-177.824739614424
 20
28.699999999999971
 30
0.0
 40
3.0
  1

 72
     2
 11
-177.824739614424
 21
28.299999999999979
 31
0.0
  3
尺度
  2
GEN-TITLE-SCA
 70
     0
 74
     1
  0
INSERT
  5
CF3
  8
パネル
  2
*U86
 10
0.0
 20
0.0
 30
0.0
  0
ATTDEF
  5
CF4
  8
0
 10
-180.2171951662138
 20
3.9883425376106638
 30
0.0
 40
3.0
  1

 72
     1
 11
-180.2171951662138
 21
3.5883425376106639
 31
0.0
  3
日付
  2
GEN-TITLE-DAT
 70
     0
 74
     1
  0
LINE
  5
CF5
  8
0
 10
-167.0
 20
37.499999999999979
 30
0.0
 11
-193.00000000000011
 21
37.499999999999979
 31
0.0
  0
LINE
  5
CF6
  8
0
 10
-167.0
 20
12.499999999999959
 30
0.0
 11
-193.00000000000011
 21
12.499999999999959
 31
0.0
  0
POINT
  5
CF7
  8
0
 10
-418.53555798196749
 20
-138.11048412682541
 30
0.0
1001
GENIUS_GENODEF_13
1002
{
1000
HIER
1070
    10
1002
}
1002
{
1000
MANEDIT
1070
     0
1002
}
1002
{
1000
NOSEL
1070
     0
1002
}
1002
{
1000
BEHIND
1070
     0
1002
}
1002
{
1000
REACTOR
1002
}
1001
GENIUS_GENOBJ-N-CRS_13
1002
{
1000
OWNER
1000
GEN
1002
}
1001
GENIUS_GENOENT_13
1002
{
1000
MYREF
1005
CF7
1002
}
1002
{
1000
GRP
1005
0
1002
}
1001
GENIUS_GENOLIS_13
1002
{
1000
ENT
1005
CE5
1005
CE6
1005
CEA
1005
CED
1002
}
  0
ENDBLK
  5
CFA
  8
0
  0
BLOCK
  8
0
  2
*D26
 70
     1
 10
0.0
 20
0.0
 30
0.0
  3
*D26
  1

  0
LINE
  5
1245
  8
AM_5
 10
85.533836005097257
 20
187.85707840344281
 30
0.0
 11
85.533836005097257
 21
204.04616610412131
 31
0.0
  0
LINE
  5
1246
  8
AM_5
 10
90.613836005097255
 20
187.85707840344281
 30
0.0
 11
90.613836005097255
 21
204.04616610412131
 31
0.0
  0
LINE
  5
1247
  8
AM_5
 10
83.033836005097257
 20
203.04616610412131
 30
0.0
 11
80.533836005097257
 21
203.04616610412131
 31
0.0
  0
LINE
  5
1248
  8
AM_5
 10
93.113836005097255
 20
203.04616610412131
 30
0.0
 11
95.613836005097255
 21
203.04616610412131
 31
0.0
  0
TEXT
  8
AM_5
  40
3.5
  5
130C
  62
2
  72
0
  71
0
 10
88.1138
 20
201.076
 30
0.000000
  1
5.08
  0
LINE
  5
124A
  8
AM_5
 10
85.533836005097257
 20
203.04616610412131
 30
0.0
 11
90.613836005097255
 21
203.04616610412131
 31
0.0
  0
INSERT
  5
124B
  8
AM_5
  2
_OPEN30
 10
85.533836005097257
 20
203.04616610412131
 30
0.0
 41
2.5
 42
2.5
 43
2.5
  0
INSERT
  5
124C
  8
AM_5
  2
_OPEN30
 10
90.613836005097255
 20
203.04616610412131
 30
0.0
 41
2.5
 42
2.5
 43
2.5
 50
180.0
  0
POINT
  5
124D
  8
DEFPOINTS
 62
     0
 10
85.533836005097257
 20
186.85707840344281
 30
0.0
  0
POINT
  5
124E
  8
DEFPOINTS
 62
     0
 10
90.613836005097255
 20
186.85707840344281
 30
0.0
  0
POINT
  5
124F
  8
DEFPOINTS
 62
     0
 10
90.613836005097255
 20
203.04616610412131
 30
0.0
  0
ENDBLK
  5
DFA
  8
0
  0
BLOCK
  8
0
  2
*D27
 70
     1
 10
0.0
 20
0.0
 30
0.0
  3
*D27
  1

  0
LINE
  5
1250
  8
AM_5
 10
49.993836005097272
 20
187.85707840344281
 30
0.0
 11
49.993836005097272
 21
204.04616610412131
 31
0.0
  0
LINE
  5
1251
  8
AM_5
 10
44.913836005097266
 20
187.85707840344281
 30
0.0
 11
44.913836005097266
 21
204.04616610412131
 31
0.0
  0
LINE
  5
1252
  8
AM_5
 10
52.493836005097272
 20
203.04616610412131
 30
0.0
 11
54.993836005097272
 21
203.04616610412131
 31
0.0
  0
LINE
  5
1253
  8
AM_5
 10
42.413836005097266
 20
203.04616610412131
 30
0.0
 11
39.913836005097281
 21
203.04616610412131
 31
0.0
  0
TEXT
  8
AM_5
  40
3.5
  5
130D
  62
2
  72
0
  71
0
 10
47.4138
 20
201.746
 30
0.000000
  1
5.08
  0
LINE
  5
1255
  8
AM_5
 10
49.993836005097272
 20
203.04616610412131
 30
0.0
 11
44.913836005097266
 21
203.04616610412131
 31
0.0
  0
INSERT
  5
1256
  8
AM_5
  2
_OPEN30
 10
49.993836005097272
 20
203.04616610412131
 30
0.0
 41
2.5
 42
2.5
 43
2.5
 50
180.0
  0
INSERT
  5
1257
  8
AM_5
  2
_OPEN30
 10
44.913836005097266
 20
203.04616610412131
 30
0.0
 41
2.5
 42
2.5
 43
2.5
  0
POINT
  5
1258
  8
DEFPOINTS
 62
     0
 10
49.993836005097272
 20
186.85707840344281
 30
0.0
  0
POINT
  5
1259
  8
DEFPOINTS
 62
     0
 10
44.913836005097266
 20
186.85707840344281
 30
0.0
  0
POINT
  5
125A
  8
DEFPOINTS
 62
     0
 10
44.913836005097266
 20
203.04616610412131
 30
0.0
  0
ENDBLK
  5
E51
  8
0
  0
BLOCK
  8
0
  2
*D28
 70
     1
 10
0.0
 20
0.0
 30
0.0
  3
*D28
  1

  0
LINE
  5
1023
  8
AM_5
 10
44.913836005097266
 20
187.85707840344281
 30
0.0
 11
44.913836005097266
 21
204.04616610412131
 31
0.0
  0
LINE
  5
1024
  8
AM_5
 10
37.963836005097271
 20
195.35707840344281
 30
0.0
 11
37.963836005097271
 21
204.04616610412131
 31
0.0
  0
LINE
  5
1025
  8
AM_5
 10
47.413836005097266
 20
203.04616610412131
 30
0.0
 11
49.913836005097281
 21
203.04616610412131
 31
0.0
  0
LINE
  5
1026
  8
AM_5
 10
35.463836005097271
 20
203.04616610412131
 30
0.0
 11
22.247182282639091
 21
203.04616610412131
 31
0.0
  0
LINE
  5
1027
  8
AM_5
 10
44.913836005097266
 20
203.04616610412131
 30
0.0
 11
37.963836005097271
 21
203.04616610412131
 31
0.0
  0
INSERT
  5
1028
  8
AM_5
  2
_OPEN30
 10
44.913836005097266
 20
203.04616610412131
 30
0.0
 41
2.5
 42
2.5
 43
2.5
 50
180.0
  0
INSERT
  5
1029
  8
AM_5
  2
_OPEN30
 10
37.963836005097271
 20
203.04616610412131
 30
0.0
 41
2.5
 42
2.5
 43
2.5
  0
INSERT
  5
102A
  8
パネル
  2
*U97
 10
0.0
 20
0.0
 30
0.0
  0
POINT
  5
102B
  8
DEFPOINTS
 62
     0
 10
44.913836005097266
 20
186.85707840344281
 30
0.0
  0
POINT
  5
102C
  8
DEFPOINTS
 62
     0
 10
37.963836005097271
 20
194.35707840344281
 30
0.0
  0
POINT
  5
102D
  8
DEFPOINTS
 62
     0
 10
37.963836005097271
 20
203.04616610412131
 30
0.0
  0
ENDBLK
  5
E53
  8
0
  0
BLOCK
  8
0
  2
*D29
 70
     1
 10
0.0
 20
0.0
 30
0.0
  3
*D29
  1

  0
LINE
  5
100D
  8
AM_5
 10
39.833836005097183
 20
230.94546831912021
 30
0.0
 11
39.833836005097183
 21
242.94546831912021
 31
0.0
  0
LINE
  5
100E
  8
AM_5
 10
37.963836005097228
 20
228.64546831912011
 30
0.0
 11
37.963836005097228
 21
242.94546831912021
 31
0.0
  0
LINE
  5
100F
  8
AM_5
 10
42.333836005097169
 20
241.94546831912021
 30
0.0
 11
44.833836005097169
 21
241.94546831912021
 31
0.0
  0
LINE
  5
1010
  8
AM_5
 10
35.463836005097228
 20
241.94546831912021
 30
0.0
 11
23.31383600509723
 21
241.94546831912021
 31
0.0
  0
LINE
  5
1011
  8
AM_5
 10
39.833836005097183
 20
241.94546831912021
 30
0.0
 11
37.963836005097228
 21
241.94546831912021
 31
0.0
  0
INSERT
  5
1012
  8
AM_5
  2
_OPEN30
 10
39.833836005097183
 20
241.94546831912021
 30
0.0
 41
2.5
 42
2.5
 43
2.5
 50
180.0
  0
INSERT
  5
1013
  8
AM_5
  2
_OPEN30
 10
37.963836005097228
 20
241.94546831912021
 30
0.0
 41
2.5
 42
2.5
 43
2.5
  0
INSERT
  5
1014
  8
パネル
  2
*U96
 10
0.0
 20
0.0
 30
0.0
  0
POINT
  5
1015
  8
DEFPOINTS
 62
     0
 10
39.833836005097183
 20
229.94546831912021
 30
0.0
  0
POINT
  5
1016
  8
DEFPOINTS
 62
     0
 10
37.963836005097228
 20
227.6454683191202
 30
0.0
  0
POINT
  5
1017
  8
DEFPOINTS
 62
     0
 10
37.963836005097228
 20
241.94546831912021
 30
0.0
  0
ENDBLK
  5
F10
  8
0
  0
BLOCK
  8
0
  2
A$C35C16C4D
 70
     0
 10
0.0
 20
0.0
 30
0.0
  3
A$C35C16C4D
  1

  0
CIRCLE
  5
1077
  8
ﾋ_ｽ
 10
0.0
 20
0.0
 30
0.0
 40
2.6500000000005159
  0
LINE
  5
1078
  8
ﾋ_ｽ
 10
0.2840909090908781
 20
-1.250000000000056
 30
0.0
 11
-0.2840909090908781
 21
-1.250000000000056
 31
0.0
  0
LINE
  5
1079
  8
ﾋ_ｽ
 10
-0.2840909090909349
 20
1.2499999999999429
 30
0.0
 11
0.2840909090908781
 21
1.2499999999999429
 31
0.0
  0
LINE
  5
107A
  8
ﾋ_ｽ
 10
-1.25
 20
0.2840909090908781
 30
0.0
 11
-1.079545454545495
 21
0.2840909090908781
 31
0.0
  0
LINE
  5
107B
  8
ﾋ_ｽ
 10
-0.2840909090909349
 20
1.079545454545382
 30
0.0
 11
-0.2840909090909349
 21
1.2499999999999429
 31
0.0
  0
ARC
  5
107C
  8
ﾋ_ｽ
 10
-1.079545454545495
 20
1.079545454545382
 30
0.0
 40
0.7954545454545431
 50
270.0
 51
0.0
  0
ARC
  5
107D
  8
ﾋ_ｽ
 10
-1.079545454545439
 20
-1.079545454545439
 30
0.0
 40
0.7954545454545431
 50
0.0
 51
90.0
  0
LINE
  5
107E
  8
ﾋ_ｽ
 10
-1.25
 20
-0.2840909090909349
 30
0.0
 11
-1.25
 21
0.2840909090908781
 31
0.0
  0
LINE
  5
107F
  8
ﾋ_ｽ
 10
-1.079545454545439
 20
-0.2840909090909349
 30
0.0
 11
-1.25
 21
-0.2840909090909349
 31
0.0
  0
LINE
  5
1080
  8
ﾋ_ｽ
 10
-0.2840909090908781
 20
-1.2499999999999429
 30
0.0
 11
-0.2840909090908781
 21
-1.079545454545439
 31
0.0
  0
ARC
  5
1081
  8
ﾋ_ｽ
 10
1.079545454545495
 20
-1.079545454545439
 30
0.0
 40
0.7954545454545431
 50
90.0
 51
180.0
  0
LINE
  5
1082
  8
ﾋ_ｽ
 10
0.2840909090908781
 20
-1.079545454545439
 30
0.0
 11
0.2840909090908781
 21
-1.250000000000056
 31
0.0
  0
LINE
  5
1083
  8
ﾋ_ｽ
 10
1.25
 20
-0.2840909090909349
 30
0.0
 11
1.079545454545495
 21
-0.2840909090909349
 31
0.0
  0
LINE
  5
1084
  8
ﾋ_ｽ
 10
1.25
 20
0.2840909090908781
 30
0.0
 11
1.25
 21
-0.2840909090909349
 31
0.0
  0
ARC
  5
1085
  8
ﾋ_ｽ
 10
1.079545454545439
 20
1.079545454545382
 30
0.0
 40
0.7954545454545431
 50
180.0
 51
270.0
  0
LINE
  5
1086
  8
ﾋ_ｽ
 10
1.079545454545439
 20
0.2840909090908781
 30
0.0
 11
1.25
 21
0.2840909090908781
 31
0.0
  0
LINE
  5
1087
  8
ﾋ_ｽ
 10
0.2840909090908781
 20
1.2499999999999429
 30
0.0
 11
0.2840909090908781
 21
1.079545454545439
 31
0.0
  0
ENDBLK
  5
1088
  8
0
  0
BLOCK
  8
0
  2
A$C47270E8E
 70
     0
 10
0.0
 20
0.0
 30
0.0
  3
A$C47270E8E
  1

  0
LINE
  5
108D
  8
ﾋ_ｽ
 10
-7.9999999999999432
 20
-2.6499999999999768
 30
0.0
 11
-7.9999999999999432
 21
2.6500000000000341
 31
0.0
  0
ARC
  5
108E
  8
ﾋ_ｽ
 10
-7.8999999999999204
 20
1.1252774015698599
 30
0.0
 40
0.1
 50
180.0
 51
282.80426606528391
1001
GENIUS_GENOBJ-N-FIL_13
1002
{
1000
OWNER
1000
GEN
1002
}
1001
GENIUS_GENODEF_13
1002
{
1000
HIER
1070
     0
1002
}
1002
{
1000
MANEDIT
1070
     0
1002
}
1002
{
1000
NOSEL
1070
     0
1002
}
1002
{
1000
BEHIND
1070
     0
1002
}
1002
{
1000
OTHER
1070
     0
1002
}
1002
{
1000
REACTOR
1002
}
  0
ARC
  5
108F
  8
ﾋ_ｽ
 10
-7.8999999999999773
 20
-1.1252774015698599
 30
0.0
 40
0.1
 50
77.195733934712962
 51
180.0
1001
GENIUS_GENOBJ-N-FIL_13
1002
{
1000
OWNER
1000
GEN
1002
}
1001
GENIUS_GENODEF_13
1002
{
1000
HIER
1070
     0
1002
}
1002
{
1000
MANEDIT
1070
     0
1002
}
1002
{
1000
NOSEL
1070
     0
1002
}
1002
{
1000
BEHIND
1070
     0
1002
}
1002
{
1000
OTHER
1070
     0
1002
}
1002
{
1000
REACTOR
1002
}
  0
LINE
  5
1090
  8
ﾋ_ｽ
 10
0.0
 20
-1.25
 30
0.0
 11
0.0
 21
1.25
 31
0.0
  0
LINE
  5
1091
  8
ﾋ_ｽ
 10
-7.8778378896410572
 20
1.0277641159906921
 30
0.0
 11
-6.8999999999999204
 21
1.25
 31
0.0
  0
LINE
  5
1092
  8
ﾋ_ｽ
 10
-7.8778378896411141
 20
-1.0277641159906921
 30
0.0
 11
-6.9000000000000341
 21
-1.25
 31
0.0
  0
LINE
  5
1093
  8
ﾋ_ｽ
 10
-6.9000000000000341
 20
-1.25
 30
0.0
 11
-6.8999999999999204
 21
1.25
 31
0.0
  0
LINE
  5
1094
  8
ﾋ_ｽ
 10
-6.9000000000000341
 20
-1.25
 30
0.0
 11
0.0
 21
-1.25
 31
0.0
  0
LINE
  5
1095
  8
ﾋ_ｽ
 10
0.0
 20
1.25
 30
0.0
 11
-6.8999999999999204
 21
1.250000000000056
 31
0.0
  0
LINE
  5
1096
  8
ﾋ_ｽ0
 10
-8.0
 20
-1.0
 30
0.0
 11
0.0
 21
-1.0
 31
0.0
  0
LINE
  5
1097
  8
ﾋ_ｽ0
 10
-7.9999999999999432
 20
1.000000000000056
 30
0.0
 11
0.0
 21
1.0
 31
0.0
  0
LINE
  5
1098
  8
ﾋ_ｽ
 10
-7.9999999999999432
 20
2.6500000000000341
 30
0.0
 11
-8.9999999999999432
 21
2.5625113364741301
 31
0.0
  0
LINE
  5
1099
  8
ﾋ_ｽ
 10
-7.9999999999999432
 20
-2.6499999999999768
 30
0.0
 11
-8.9999999999999432
 21
-2.5625113364740741
 31
0.0
  0
LINE
  5
109A
  8
ﾋ_ｽ
 10
-8.9999999999999432
 20
2.5625113364741301
 30
0.0
 11
-8.9999999999999432
 21
-2.5625113364740741
 31
0.0
  0
ARC
  5
109B
  8
ﾋ_ｽ
 10
-2.6835356504416832
 20
0.0
 30
0.0
 40
6.816464349558272
 50
157.918214928471
 51
202.081785071529
  0
ENDBLK
  5
109C
  8
0
  0
BLOCK
  8
0
  2
A$C762874DC
 70
     0
 10
0.0
 20
0.0
 30
0.0
  3
A$C762874DC
  1

  0
CIRCLE
  5
10A1
  8
ﾋ_ｽ
 10
0.0
 20
0.0
 30
0.0
 40
2.0499999999999989
  0
CIRCLE
  5
10A2
  8
ﾋ_ｽ
 10
0.0
 20
0.0
 30
0.0
 40
1.0064303551856451
  0
LINE
  5
10A3
  8
ﾋ_ｽ
 10
-2.5
 20
-1.4433756729740701
 30
0.0
 11
0.0000000000001137
 21
-2.8867513459481691
 31
0.0
  0
LINE
  5
10A4
  8
ﾋ_ｽ
 10
0.0000000000001137
 20
-2.8867513459481691
 30
0.0
 11
2.5
 21
-1.4433756729739851
 31
0.0
  0
LINE
  5
10A5
  8
ﾋ_ｽ
 10
2.5
 20
-1.4433756729739851
 30
0.0
 11
2.5
 21
1.4433756729740701
 31
0.0
  0
LINE
  5
10A6
  8
ﾋ_ｽ
 10
2.5
 20
1.4433756729740701
 30
0.0
 11
0.0
 21
2.8867513459481131
 31
0.0
  0
LINE
  5
10A7
  8
ﾋ_ｽ
 10
0.0
 20
2.8867513459481131
 30
0.0
 11
-2.5
 21
1.4433756729739
 31
0.0
  0
LINE
  5
10A8
  8
ﾋ_ｽ
 10
-2.5
 20
1.4433756729739
 30
0.0
 11
-2.5
 21
-1.4433756729740701
 31
0.0
  0
CIRCLE
  5
10A9
  8
ﾋ_ｽ0
 10
0.0
 20
0.0
 30
0.0
 40
1.249999999999996
  0
ENDBLK
  5
10AA
  8
0
  0
BLOCK
  8
0
  2
A$C4B68363E
 70
     0
 10
0.0
 20
0.0
 30
0.0
  3
A$C4B68363E
  1

  0
ARC
  5
10AF
  8
ﾋ_ｽ
 10
-1.536285706842818
 20
2.1656250000000048
 30
0.0
 40
1.276478085707444
 50
325.56153059526821
 51
25.561530595268358
  0
ARC
  5
10B0
  8
ﾋ_ｽ
 10
-0.4637142931572385
 20
2.1656250000000048
 30
0.0
 40
1.276478085707444
 50
154.43846940473159
 51
214.43846940473179
  0
LINE
  5
10B1
  8
ﾋ_ｽ
 10
0.0
 20
2.0500000000000109
 30
0.0
 11
0.0
 21
-2.0500000000000109
 31
0.0
  0
LINE
  5
10B2
  8
ﾋ_ｽ
 10
-2.0
 20
2.0500000000000109
 30
0.0
 11
-2.0
 21
-2.0500000000000109
 31
0.0
  0
ARC
  5
10B3
  8
ﾋ_ｽ
 10
-1.536285706842818
 20
-2.1656250000000048
 30
0.0
 40
1.2764780857074429
 50
334.43846940473162
 51
34.438469404731812
  0
ARC
  5
10B4
  8
ﾋ_ｽ
 10
-5.030135119998647
 20
0.0
 30
0.0
 40
4.7703274988633284
 50
342.38303115961401
 51
17.616968840386011
  0
ARC
  5
10B5
  8
ﾋ_ｽ
 10
3.030135119998647
 20
0.0
 30
0.0
 40
4.7703274988633178
 50
162.38303115961401
 51
197.61696884038599
  0
ARC
  5
10B6
  8
ﾋ_ｽ
 10
-0.4637142931572385
 20
-2.1656250000000048
 30
0.0
 40
1.276478085707444
 50
145.5615305952681
 51
205.5615305952669
  0
LINE
  5
10B7
  8
ﾋ_ｽ
 10
-0.4835308504463001
 20
-2.8874999999999882
 30
0.0
 11
0.0
 21
-2.0500000000000109
 31
0.0
  0
LINE
  5
10B8
  8
ﾋ_ｽ
 10
-1.516469149553699
 20
1.4437499999999941
 30
0.0
 11
-0.4835308504463001
 21
1.4437499999999941
 31
0.0
  0
LINE
  5
10B9
  8
ﾋ_ｽ
 10
-1.516469149553699
 20
-2.8874999999999882
 30
0.0
 11
-2.0
 21
-2.0500000000000109
 31
0.0
  0
LINE
  5
10BA
  8
ﾋ_ｽ
 10
-1.516469149553699
 20
-2.8874999999999882
 30
0.0
 11
-0.4835308504463001
 21
-2.8874999999999882
 31
0.0
  0
LINE
  5
10BB
  8
ﾋ_ｽ
 10
-1.516469149553699
 20
-1.4437500000000221
 30
0.0
 11
-0.4835308504463001
 21
-1.4437500000000221
 31
0.0
  0
LINE
  5
10BC
  8
ﾋ_ｽ
 10
-0.4835308504463001
 20
2.8874999999999882
 30
0.0
 11
0.0
 21
2.0500000000000109
 31
0.0
  0
LINE
  5
10BD
  8
ﾋ_ｽ
 10
-1.516469149553699
 20
2.8874999999999882
 30
0.0
 11
-2.0
 21
2.0500000000000109
 31
0.0
  0
LINE
  5
10BE
  8
ﾋ_ｽ
 10
-1.516469149553699
 20
2.8874999999999882
 30
0.0
 11
-0.4835308504463001
 21
2.8874999999999882
 31
0.0
  0
ENDBLK
  5
10BF
  8
0
  0
BLOCK
  8
0
  2
*S34
 70
     1
 10
0.0
 20
0.0
 30
0.0
  3
*S34
  1

  0
CIRCLE
  5
110A
  8
AM_12
 62
     4
 10
41.68872809667517
 20
222.38519178583181
 30
0.0
 40
1.75
  0
LINE
  5
110B
  8
AM_12
 62
     4
 10
39.93872809667517
 20
220.63519178583181
 30
0.0
 11
43.43872809667517
 21
224.13519178583181
 31
0.0
  0
LINE
  5
110C
  8
AM_12
 62
     4
 10
39.93872809667517
 20
224.13519178583181
 30
0.0
 11
43.43872809667517
 21
220.63519178583181
 31
0.0
  0
ENDBLK
  5
110E
  8
0
  0
BLOCK
  8
0
  2
*S35
 70
     1
 10
0.0
 20
0.0
 30
0.0
  3
*S35
  1

  0
CIRCLE
  5
1111
  8
AM_12
 62
     4
 10
42.071263459162203
 20
123.4278443555491
 30
0.0
 40
1.75
  0
LINE
  5
1112
  8
AM_12
 62
     4
 10
40.321263459162203
 20
121.6778443555491
 30
0.0
 11
43.821263459162203
 21
125.1778443555491
 31
0.0
  0
LINE
  5
1113
  8
AM_12
 62
     4
 10
40.321263459162203
 20
125.1778443555491
 30
0.0
 11
43.821263459162203
 21
121.6778443555491
 31
0.0
  0
ENDBLK
  5
1115
  8
0
  0
BLOCK
  8
0
  2
*S36
 70
     1
 10
0.0
 20
0.0
 30
0.0
  3
*S36
  1

  0
CIRCLE
  5
1118
  8
AM_12
 62
     4
 10
160.45571180515259
 20
251.77187465624991
 30
0.0
 40
1.75
  0
LINE
  5
1119
  8
AM_12
 62
     4
 10
158.70571180515259
 20
250.02187465624991
 30
0.0
 11
162.20571180515259
 21
253.52187465624991
 31
0.0
  0
LINE
  5
111A
  8
AM_12
 62
     4
 10
158.70571180515259
 20
253.52187465624991
 30
0.0
 11
162.20571180515259
 21
250.02187465624991
 31
0.0
  0
ENDBLK
  5
111C
  8
0
  0
BLOCK
  8
0
  2
*S37
 70
     1
 10
0.0
 20
0.0
 30
0.0
  3
*S37
  1

  0
LINE
  5
111F
  8
AM_5
 10
149.72484892951621
 20
257.59909949008482
 30
0.0
 11
157.37995307970351
 21
253.44211663357629
 31
0.0
  0
TRACE
  5
1120
  8
AM_5
 10
157.16006155279419
 20
253.03718531720139
 30
0.0
 11
157.59984460661269
 21
253.84704794995119
 31
0.0
 12
160.45571180515259
 22
251.77187465624991
 32
0.0
 13
160.45571180515259
 23
251.77187465624991
 33
0.0
  0
INSERT
  5
1121
  8
パネル
  2
*U102
 10
0.0
 20
0.0
 30
0.0
  0
CIRCLE
  5
1122
  8
AM_5
 62
     3
 10
144.34227115998021
 20
260.52202295040598
 30
0.0
 40
6.125
  0
ENDBLK
  5
1124
  8
0
  0
BLOCK
  8
0
  2
*S38
 70
     1
 10
0.0
 20
0.0
 30
0.0
  3
*S38
  1

  0
CIRCLE
  5
1127
  8
AM_12
 62
     4
 10
161.43902303621491
 20
232.7866443848269
 30
0.0
 40
1.75
  0
LINE
  5
1128
  8
AM_12
 62
     4
 10
159.68902303621491
 20
231.0366443848269
 30
0.0
 11
163.18902303621491
 21
234.5366443848269
 31
0.0
  0
LINE
  5
1129
  8
AM_12
 62
     4
 10
159.68902303621491
 20
234.5366443848269
 30
0.0
 11
163.18902303621491
 21
231.0366443848269
 31
0.0
  0
ENDBLK
  5
112B
  8
0
  0
BLOCK
  8
0
  2
*S39
 70
     1
 10
0.0
 20
0.0
 30
0.0
  3
*S39
  1

  0
LINE
  5
112E
  8
AM_5
 10
147.82391713386539
 20
236.77831842942859
 30
0.0
 11
158.08039235848929
 21
233.7713270599258
 31
0.0
  0
TRACE
  5
112F
  8
AM_5
 10
157.9507564255598
 20
233.3291549447024
 30
0.0
 11
158.21002829141869
 21
234.2134991751492
 31
0.0
 12
161.43902303621491
 22
232.7866443848269
 32
0.0
 13
161.43902303621491
 23
232.7866443848269
 33
0.0
  0
INSERT
  5
1130
  8
パネル
  2
*U103
 10
0.0
 20
0.0
 30
0.0
  0
CIRCLE
  5
1131
  8
AM_5
 62
     3
 10
141.9463134478454
 20
238.5015131108517
 30
0.0
 40
6.125
  0
ENDBLK
  5
1133
  8
0
  0
BLOCK
  8
0
  2
*S40
 70
     1
 10
0.0
 20
0.0
 30
0.0
  3
*S40
  1

  0
LINE
  5
1136
  8
0
 62
     1
 10
0.0
 20
68.525000000000006
 30
0.0
 11
193.0
 21
68.525000000000006
 31
0.0
  0
LINE
  5
1137
  8
0
 62
     1
 10
0.0
 20
62.350000000000001
 30
0.0
 11
193.0
 21
62.350000000000001
 31
0.0
  0
LINE
  5
1138
  8
0
 62
     1
 10
0.0
 20
56.17499999999999
 30
0.0
 11
193.0
 21
56.17499999999999
 31
0.0
  0
INSERT
  5
1139
  8
パネル
  2
*U104
 10
0.0
 20
0.0
 30
0.0
  0
LINE
  5
113A
  8
0
 62
     1
 10
15.0
 20
74.700000000000003
 30
0.0
 11
15.0
 21
68.525000000000006
 31
0.0
  0
INSERT
  5
113B
  8
パネル
  2
*U105
 10
0.0
 20
0.0
 30
0.0
  0
LINE
  5
113C
  8
0
 62
     1
 10
65.0
 20
74.700000000000003
 30
0.0
 11
65.0
 21
68.525000000000006
 31
0.0
  0
INSERT
  5
113D
  8
パネル
  2
*U106
 10
0.0
 20
0.0
 30
0.0
  0
LINE
  5
113E
  8
0
 62
     1
 10
80.0
 20
74.700000000000003
 30
0.0
 11
80.0
 21
68.525000000000006
 31
0.0
  0
INSERT
  5
113F
  8
パネル
  2
*U107
 10
0.0
 20
0.0
 30
0.0
  0
LINE
  5
1140
  8
0
 62
     1
 10
135.0
 20
74.700000000000003
 30
0.0
 11
135.0
 21
68.525000000000006
 31
0.0
  0
INSERT
  5
1141
  8
パネル
  2
*U108
 10
0.0
 20
0.0
 30
0.0
  0
INSERT
  5
1142
  8
パネル
  2
*U109
 10
0.0
 20
0.0
 30
0.0
  0
LINE
  5
1143
  8
0
 62
     1
 10
15.0
 20
68.525000000000006
 30
0.0
 11
15.0
 21
62.350000000000001
 31
0.0
  0
INSERT
  5
1144
  8
パネル
  2
*U110
 10
0.0
 20
0.0
 30
0.0
  0
LINE
  5
1145
  8
0
 62
     1
 10
65.0
 20
68.525000000000006
 30
0.0
 11
65.0
 21
62.350000000000001
 31
0.0
  0
INSERT
  5
1146
  8
パネル
  2
*U111
 10
0.0
 20
0.0
 30
0.0
  0
LINE
  5
1147
  8
0
 62
     1
 10
80.0
 20
68.525000000000006
 30
0.0
 11
80.0
 21
62.350000000000001
 31
0.0
  0
INSERT
  5
1148
  8
パネル
  2
*U112
 10
0.0
 20
0.0
 30
0.0
  0
LINE
  5
1149
  8
0
 62
     1
 10
135.0
 20
68.525000000000006
 30
0.0
 11
135.0
 21
62.350000000000001
 31
0.0
  0
INSERT
  5
114A
  8
パネル
  2
*U113
 10
0.0
 20
0.0
 30
0.0
  0
INSERT
  5
114B
  8
パネル
  2
*U114
 10
0.0
 20
0.0
 30
0.0
  0
LINE
  5
114C
  8
0
 62
     1
 10
15.0
 20
62.350000000000001
 30
0.0
 11
15.0
 21
56.17499999999999
 31
0.0
  0
INSERT
  5
114D
  8
パネル
  2
*U115
 10
0.0
 20
0.0
 30
0.0
  0
LINE
  5
114E
  8
0
 62
     1
 10
65.0
 20
62.350000000000001
 30
0.0
 11
65.0
 21
56.17499999999999
 31
0.0
  0
INSERT
  5
114F
  8
パネル
  2
*U116
 10
0.0
 20
0.0
 30
0.0
  0
LINE
  5
1150
  8
0
 62
     1
 10
80.0
 20
62.350000000000001
 30
0.0
 11
80.0
 21
56.17499999999999
 31
0.0
  0
INSERT
  5
1151
  8
パネル
  2
*U117
 10
0.0
 20
0.0
 30
0.0
  0
LINE
  5
1152
  8
0
 62
     1
 10
135.0
 20
62.350000000000001
 30
0.0
 11
135.0
 21
56.17499999999999
 31
0.0
  0
INSERT
  5
1153
  8
パネル
  2
*U118
 10
0.0
 20
0.0
 30
0.0
  0
INSERT
  5
1154
  8
パネル
  2
*U119
 10
0.0
 20
0.0
 30
0.0
  0
LINE
  5
1155
  8
0
 62
     1
 10
15.0
 20
56.17499999999999
 30
0.0
 11
15.0
 21
50.0
 31
0.0
  0
INSERT
  5
1156
  8
パネル
  2
*U120
 10
0.0
 20
0.0
 30
0.0
  0
LINE
  5
1157
  8
0
 62
     1
 10
65.0
 20
56.17499999999999
 30
0.0
 11
65.0
 21
50.0
 31
0.0
  0
INSERT
  5
1158
  8
パネル
  2
*U121
 10
0.0
 20
0.0
 30
0.0
  0
LINE
  5
1159
  8
0
 62
     1
 10
80.0
 20
56.17499999999999
 30
0.0
 11
80.0
 21
50.0
 31
0.0
  0
INSERT
  5
115A
  8
パネル
  2
*U122
 10
0.0
 20
0.0
 30
0.0
  0
LINE
  5
115B
  8
0
 62
     1
 10
135.0
 20
56.17499999999999
 30
0.0
 11
135.0
 21
50.0
 31
0.0
  0
INSERT
  5
115C
  8
パネル
  2
*U123
 10
0.0
 20
0.0
 30
0.0
  0
LINE
  5
115D
  8
0
 62
     1
 10
0.0
 20
74.700000000000003
 30
0.0
 11
193.0
 21
74.700000000000003
 31
0.0
  0
INSERT
  5
115E
  8
パネル
  2
*U124
 10
0.0
 20
0.0
 30
0.0
  0
LINE
  5
115F
  8
0
 62
     1
 10
15.0
 20
80.875
 30
0.0
 11
15.0
 21
74.700000000000003
 31
0.0
  0
INSERT
  5
1160
  8
パネル
  2
*U125
 10
0.0
 20
0.0
 30
0.0
  0
LINE
  5
1161
  8
0
 62
     1
 10
65.0
 20
80.875
 30
0.0
 11
65.0
 21
74.700000000000003
 31
0.0
  0
INSERT
  5
1162
  8
パネル
  2
*U126
 10
0.0
 20
0.0
 30
0.0
  0
LINE
  5
1163
  8
0
 62
     1
 10
80.0
 20
80.875
 30
0.0
 11
80.0
 21
74.700000000000003
 31
0.0
  0
INSERT
  5
1164
  8
パネル
  2
*U127
 10
0.0
 20
0.0
 30
0.0
  0
LINE
  5
1165
  8
0
 62
     1
 10
135.0
 20
80.875
 30
0.0
 11
135.0
 21
74.700000000000003
 31
0.0
  0
INSERT
  5
1166
  8
パネル
  2
*U128
 10
0.0
 20
0.0
 30
0.0
  0
LINE
  5
1167
  8
0
 62
     7
 10
0.0
 20
80.875
 30
0.0
 11
193.0
 21
80.875
 31
0.0
  0
LINE
  5
1168
  8
0
 62
     7
 10
193.0
 20
80.875
 30
0.0
 11
193.0
 21
50.0
 31
0.0
  0
LINE
  5
1169
  8
0
 62
     7
 10
193.0
 20
50.0
 30
0.0
 11
0.0
 21
50.0
 31
0.0
  0
LINE
  5
116A
  8
0
 62
     7
 10
0.0
 20
50.0
 30
0.0
 11
0.0
 21
80.875
 31
0.0
  0
ENDBLK
  5
116C
  8
0
  0
BLOCK
  8
0
  2
*S41
 70
     1
 10
0.0
 20
0.0
 30
0.0
  3
*S41
  1

  0
LINE
  5
116F
  8
AM_5
 10
23.104351029535941
 20
227.44300163997721
 30
0.0
 11
38.606755549118731
 21
223.46875770333889
 31
0.0
  0
TRACE
  5
1170
  8
AM_5
 10
38.492327990990162
 20
223.02240807745321
 30
0.0
 11
38.721183107247299
 21
223.91510732922461
 31
0.0
 12
41.997117570780468
 22
222.5995941041968
 32
0.0
 13
41.997117570780468
 23
222.5995941041968
 33
0.0
  0
INSERT
  5
1171
  8
パネル
  2
*U129
 10
0.0
 20
0.0
 30
0.0
  0
CIRCLE
  5
1172
  8
AM_5
 62
     3
 10
17.171217491627889
 20
228.96403793847591
 30
0.0
 40
6.125
  0
ENDBLK
  5
1174
  8
0
  0
BLOCK
  8
0
  2
*S42
 70
     1
 10
0.0
 20
0.0
 30
0.0
  3
*S42
  1

  0
LINE
  5
1177
  8
AM_5
 10
21.886176572910831
 20
137.32801030467871
 30
0.0
 11
39.609103023999261
 21
125.2593513066323
 31
0.0
  0
TRACE
  5
1178
  8
AM_5
 10
39.349748937571157
 20
124.8784876664136
 30
0.0
 11
39.86845711042735
 21
125.640214946851
 31
0.0
 12
42.502049598485549
 22
123.2893614292045
 32
0.0
 13
42.502049598485549
 23
123.2893614292045
 33
0.0
  0
INSERT
  5
1179
  8
パネル
  2
*U130
 10
0.0
 20
0.0
 30
0.0
  0
CIRCLE
  5
117A
  8
AM_5
 62
     3
 10
16.823520067559802
 20
140.77549259017729
 30
0.0
 40
6.125
  0
ENDBLK
  5
117C
  8
0
  0
BLOCK
  8
0
  2
*U43
 70
     1
 10
0.0
 20
0.0
 30
0.0
  3
*U43
  1

  0
TEXT
  5
1192
  8
0
 10
172.55531168523049
 20
286.233542987227
 30
0.0
 40
2.5
  1
(文書番号：TY-34)2004.10.29
  0
ENDBLK
  5
1194
  8
0
  0
BLOCK
  8
0
  2
*U44
 70
     1
 10
0.0
 20
0.0
 30
0.0
  3
*U44
  1

  0
TEXT
  5
1196
  8
RAHM2
 10
-193.80025513713139
 20
3.3010354072796408
 30
0.0
 40
2.5
  1
図番
  0
ENDBLK
  5
1198
  8
0
  0
BLOCK
  8
0
  2
*U45
 70
     1
 10
0.0
 20
0.0
 30
0.0
  3
*U45
  1

  0
TEXT
  5
119A
  8
RAHM2
 10
-193.0
 20
21.249999999999972
 30
0.0
 40
2.5
  1
符号
  0
ENDBLK
  5
119C
  8
0
  0
BLOCK
  8
0
  2
*U46
 70
     1
 10
0.0
 20
0.0
 30
0.0
  3
*U46
  1

  0
TEXT
  5
119E
  8
RAHM2
 10
-193.80025513713139
 20
16.30103540727961
 30
0.0
 40
2.5
  1
品名
  0
ENDBLK
  5
11A0
  8
0
  0
BLOCK
  8
0
  2
*U47
 70
     1
 10
0.0
 20
0.0
 30
0.0
  3
*U47
  1

  0
TEXT
  5
11A2
  8
RAHM2
 10
-163.1448171868856
 20
21.249999999999972
 30
0.0
 40
2.5
  1
変更記事
  0
ENDBLK
  5
11A4
  8
0
  0
BLOCK
  8
0
  2
*U48
 70
     1
 10
0.0
 20
0.0
 30
0.0
  3
*U48
  1

  0
TEXT
  5
11A6
  8
0
 10
-88.85532994923858
 20
3.4187817258883251
 30
0.0
 40
3.5
  1
株式会社タカチ電機工業
  0
ENDBLK
  5
11A8
  8
0
  0
BLOCK
  8
0
  2
*U49
 70
     1
 10
0.0
 20
0.0
 30
0.0
  3
*U49
  1

  0
TEXT
  5
11AA
  8
RAHM2
 10
-123.3541228057275
 20
31.250000000000028
 30
0.0
 40
2.5
  1
・  ・   
  0
ENDBLK
  5
11AC
  8
0
  0
BLOCK
  8
0
  2
*U50
 70
     1
 10
0.0
 20
0.0
 30
0.0
  3
*U50
  1

  0
TEXT
  5
11AE
  8
RAHM2
 10
-126.238119805002
 20
21.249999999999972
 30
0.0
 40
2.5
  1
年・月・日
  0
ENDBLK
  5
11B0
  8
0
  0
BLOCK
  8
0
  2
*U51
 70
     1
 10
0.0
 20
0.0
 30
0.0
  3
*U51
  1

  0
TEXT
  5
11B2
  8
RAHM2
 10
-104.5
 20
21.249999999999972
 30
0.0
 40
2.5
  1
担当
  0
ENDBLK
  5
11B4
  8
0
  0
BLOCK
  8
0
  2
*U52
 70
     1
 10
0.0
 20
0.0
 30
0.0
  3
*U52
  1

  0
TEXT
  5
11B6
  8
RAHM2
 10
-123.3541228057275
 20
41.250000000000021
 30
0.0
 40
2.5
  1
・  ・   
  0
ENDBLK
  5
11B8
  8
0
  0
BLOCK
  8
0
  2
*U53
 70
     1
 10
0.0
 20
0.0
 30
0.0
  3
*U53
  1

  0
TEXT
  5
11BA
  8
RAHM2
 10
-123.3541228057275
 20
36.250000000000028
 30
0.0
 40
2.5
  1
・  ・   
  0
ENDBLK
  5
11BC
  8
0
  0
BLOCK
  8
0
  2
*U54
 70
     1
 10
0.0
 20
0.0
 30
0.0
  3
*U54
  1

  0
TEXT
  5
11BE
  8
RAHM2
 10
-123.3541228057275
 20
46.250000000000021
 30
0.0
 40
2.5
  1
・  ・   
  0
ENDBLK
  5
11C0
  8
0
  0
BLOCK
  8
0
  2
*U55
 70
     1
 10
0.0
 20
0.0
 30
0.0
  3
*U55
  1

  0
TEXT
  5
11C2
  8
RAHM2
 10
-92.800255137131444
 20
13.80103540727964
 30
0.0
 40
2.5
  1
日付
  0
ENDBLK
  5
11C4
  8
0
  0
BLOCK
  8
0
  2
*U56
 70
     1
 10
0.0
 20
0.0
 30
0.0
  3
*U56
  1

  0
TEXT
  5
11C6
  8
RAHM2
 10
-92.800255137131444
 20
23.801035407279642
 30
0.0
 40
2.5
  1
表面処理
  0
ENDBLK
  5
11C8
  8
0
  0
BLOCK
  8
0
  2
*U57
 70
     1
 10
0.0
 20
0.0
 30
0.0
  3
*U57
  1

  0
TEXT
  5
11CA
  8
RAHM2
 10
-92.800255137131444
 20
33.801035407279642
 30
0.0
 40
2.5
  1
材質
  0
ENDBLK
  5
11CC
  8
0
  0
BLOCK
  8
0
  2
*U58
 70
     1
 10
0.0
 20
0.0
 30
0.0
  3
*U58
  1

  0
TEXT
  5
11CE
  8
RAHM2
 10
-72.800255137131444
 20
46.301035407279642
 30
0.0
 40
2.5
  1
尺度
  0
ENDBLK
  5
11D0
  8
0
  0
BLOCK
  8
0
  2
*U59
 70
     1
 10
0.0
 20
0.0
 30
0.0
  3
*U59
  1

  0
TEXT
  5
11D2
  8
RAHM2
 10
-52.800255137131451
 20
46.301035407279642
 30
0.0
 40
2.5
  1
数量
  0
ENDBLK
  5
11D4
  8
0
  0
BLOCK
  8
0
  2
*U60
 70
     1
 10
0.0
 20
0.0
 30
0.0
  3
*U60
  1

  0
TEXT
  5
11D6
  8
RAHM2
 10
-28.3125
 20
21.301035407279642
 30
0.0
 40
2.5
  1
承認
  0
ENDBLK
  5
11D8
  8
0
  0
BLOCK
  8
0
  2
*U61
 70
     1
 10
0.0
 20
0.0
 30
0.0
  3
*U61
  1

  0
TEXT
  5
11DA
  8
RAHM2
 10
-28.3125
 20
46.301035407279642
 30
0.0
 40
2.5
  1
承認
  0
ENDBLK
  5
11DC
  8
0
  0
BLOCK
  8
0
  2
*U62
 70
     1
 10
0.0
 20
0.0
 30
0.0
  3
*U62
  1

  0
TEXT
  5
11DE
  8
RAHM2
 10
-123.3541228057275
 20
26.250000000000028
 30
0.0
 40
2.5
  1
・  ・   
  0
ENDBLK
  5
11E0
  8
0
  0
BLOCK
  8
0
  2
*U63
 70
     1
 10
0.0
 20
0.0
 30
0.0
  3
*U63
  1

  0
TEXT
  5
11E2
  8
RAHM2
 10
-11.3125
 20
46.301035407279642
 30
0.0
 40
2.5
  1
検図
  0
ENDBLK
  5
11E4
  8
0
  0
BLOCK
  8
0
  2
*U64
 70
     1
 10
0.0
 20
0.0
 30
0.0
  3
*U64
  1

  0
TEXT
  5
11E6
  8
RAHM2
 10
-11.3125
 20
21.301035407279642
 30
0.0
 40
2.5
  1
製図
  0
ENDBLK
  5
11E8
  8
0
  0
BLOCK
  8
0
  2
*U65
 70
     1
 10
0.0
 20
0.0
 30
0.0
  3
*U65
  1

  0
TEXT
  5
11EE
  8
RAHM2
 10
-26.1749422164166
 20
26.250000000000028
 30
0.0
 40
2.5
  1
・  ・   
  0
ENDBLK
  5
11F0
  8
0
  0
BLOCK
  8
0
  2
*U66
 70
     1
 10
0.0
 20
0.0
 30
0.0
  3
*U66
  1

  0
TEXT
  5
11F2
  8
RAHM2
 10
-26.1749422164166
 20
46.250000000000021
 30
0.0
 40
2.5
  1
・  ・   
  0
ENDBLK
  5
11F4
  8
0
  0
BLOCK
  8
0
  2
*U67
 70
     1
 10
0.0
 20
0.0
 30
0.0
  3
*U67
  1

  0
TEXT
  5
11F6
  8
RAHM2
 10
-26.1749422164166
 20
36.250000000000028
 30
0.0
 40
2.5
  1
・  ・   
  0
ENDBLK
  5
11F8
  8
0
  0
BLOCK
  8
0
  2
*U68
 70
     1
 10
0.0
 20
0.0
 30
0.0
  3
*U68
  1

  0
TEXT
  5
11FA
  8
RAHM2
 10
-26.1749422164166
 20
41.250000000000021
 30
0.0
 40
2.5
  1
・  ・   
  0
ENDBLK
  5
11FC
  8
0
  0
BLOCK
  8
0
  2
*U69
 70
     1
 10
0.0
 20
0.0
 30
0.0
  3
*U69
  1

  0
TEXT
  5
11FE
  8
RAHM2
 10
-8.9104097053444775
 20
21.249999999999972
 30
0.0
 40
2.5
  1
担当
  0
ENDBLK
  5
1200
  8
0
  0
BLOCK
  8
0
  2
*U70
 70
     1
 10
0.0
 20
0.0
 30
0.0
  3
*U70
  1

  0
TEXT
  5
1202
  8
RAHM2
 10
-29.058939215691112
 20
21.249999999999972
 30
0.0
 40
2.5
  1
年・月・日
  0
ENDBLK
  5
1204
  8
0
  0
BLOCK
  8
0
  2
*U71
 70
     1
 10
0.0
 20
0.0
 30
0.0
  3
*U71
  1

  0
TEXT
  5
1206
  8
RAHM2
 10
-26.1749422164166
 20
31.250000000000028
 30
0.0
 40
2.5
  1
・  ・   
  0
ENDBLK
  5
1208
  8
0
  0
BLOCK
  8
0
  2
*U72
 70
     1
 10
0.0
 20
0.0
 30
0.0
  3
*U72
  1

  0
TEXT
  5
120A
  8
RAHM2
 10
-65.0
 20
21.249999999999961
 30
0.0
 40
2.5
  1
変更記事
  0
ENDBLK
  5
120C
  8
0
  0
BLOCK
  8
0
  2
*U73
 70
     1
 10
0.0
 20
0.0
 30
0.0
  3
*U73
  1

  0
TEXT
  5
120E
  8
RAHM2
 10
-94.800255137131444
 20
16.301035407279599
 30
0.0
 40
2.5
  1
品名
  0
ENDBLK
  5
1210
  8
0
  0
BLOCK
  8
0
  2
*U74
 70
     1
 10
0.0
 20
0.0
 30
0.0
  3
*U74
  1

  0
TEXT
  5
1212
  8
RAHM2
 10
-94.0
 20
21.249999999999961
 30
0.0
 40
2.5
  1
符号
  0
ENDBLK
  5
1214
  8
0
  0
BLOCK
  8
0
  2
*U75
 70
     1
 10
0.0
 20
0.0
 30
0.0
  3
*U75
  1

  0
TEXT
  5
1216
  8
RAHM2
 10
-94.800255137131444
 20
3.3010354072796271
 30
0.0
 40
2.5
  1
図番
  0
ENDBLK
  5
1218
  8
0
  0
BLOCK
  8
0
  2
*U76
 70
     1
 10
0.0
 20
0.0
 30
0.0
  3
*U76
  1

  0
TEXT
  5
121A
  8
RAHM2
 10
-19.982425929334909
 20
2.1847624665659851
 30
0.0
 40
2.5
  1
Rev.
  0
ENDBLK
  5
121C
  8
0
  0
BLOCK
  8
0
  2
*U77
 70
     1
 10
0.0
 20
0.0
 30
0.0
  3
*U77
  1

  0
TEXT
  5
121E
  8
RAHM2
 10
-107.6875
 20
16.301035407279571
 30
0.0
 40
2.5
  1
製図
  0
ENDBLK
  5
1220
  8
0
  0
BLOCK
  8
0
  2
*U78
 70
     1
 10
0.0
 20
0.0
 30
0.0
  3
*U78
  1

  0
TEXT
  5
1222
  8
RAHM2
 10
-125.4375000000001
 20
16.301035407279581
 30
0.0
 40
2.5
  1
検図
  0
ENDBLK
  5
1224
  8
0
  0
BLOCK
  8
0
  2
*U79
 70
     1
 10
0.0
 20
0.0
 30
0.0
  3
*U79
  1

  0
TEXT
  5
1226
  8
RAHM2
 10
-143.18750000000011
 20
16.301035407279581
 30
0.0
 40
2.5
  1
承認
  0
ENDBLK
  5
1228
  8
0
  0
BLOCK
  8
0
  2
*U80
 70
     1
 10
0.0
 20
0.0
 30
0.0
  3
*U80
  1

  0
TEXT
  5
122A
  8
RAHM2
 10
-160.93750000000011
 20
16.30103540727956
 30
0.0
 40
2.5
  1
承認
  0
ENDBLK
  5
122C
  8
0
  0
BLOCK
  8
0
  2
*U81
 70
     1
 10
0.0
 20
0.0
 30
0.0
  3
*U81
  1

  0
TEXT
  5
122E
  8
0
 10
-156.35532994923869
 20
23.418781725888241
 30
0.0
 40
3.5
  1
株式会社タカチ電機工業
  0
ENDBLK
  5
1230
  8
0
  0
BLOCK
  8
0
  2
*U82
 70
     1
 10
0.0
 20
0.0
 30
0.0
  3
*U82
  1

  0
TEXT
  5
1232
  8
RAHM2
 10
-165.80025513713139
 20
46.301035407279549
 30
0.0
 40
2.5
  1
材質
  0
ENDBLK
  5
1234
  8
0
  0
BLOCK
  8
0
  2
*U83
 70
     1
 10
0.0
 20
0.0
 30
0.0
  3
*U83
  1

  0
TEXT
  5
1236
  8
RAHM2
 10
-165.80025513713139
 20
36.301035407279556
 30
0.0
 40
2.5
  1
表面処理
  0
ENDBLK
  5
1238
  8
0
  0
BLOCK
  8
0
  2
*U84
 70
     1
 10
0.0
 20
0.0
 30
0.0
  3
*U84
  1

  0
TEXT
  5
123A
  8
RAHM2
 10
-191.8002551371315
 20
21.301035407279631
 30
0.0
 40
2.5
  1
数量
  0
ENDBLK
  5
123C
  8
0
  0
BLOCK
  8
0
  2
*U85
 70
     1
 10
0.0
 20
0.0
 30
0.0
  3
*U85
  1

  0
TEXT
  5
123E
  8
RAHM2
 10
-191.8002551371315
 20
33.801035407279663
 30
0.0
 40
2.5
  1
尺度
  0
ENDBLK
  5
1240
  8
0
  0
BLOCK
  8
0
  2
*U86
 70
     1
 10
0.0
 20
0.0
 30
0.0
  3
*U86
  1

  0
TEXT
  5
1242
  8
RAHM2
 10
-191.8002551371315
 20
8.8010354072796062
 30
0.0
 40
2.5
  1
日付
  0
ENDBLK
  5
1244
  8
0
  0
BLOCK
  8
0
  2
*U87
 70
     1
 10
0.0
 20
0.0
 30
0.0
  3
*U87
  1

  0
TEXT
  5
125C
  8
AM_5
 62
     2
 10
134.18342587554361
 20
117.85408700429259
 30
0.0
 40
3.5
  1
13.4
 50
90.0
  0
ENDBLK
  5
125E
  8
0
  0
BLOCK
  8
0
  2
*U88
 70
     1
 10
0.0
 20
0.0
 30
0.0
  3
*U88
  1

  0
TEXT
  5
1260
  8
AM_5
 62
     2
 10
129.6584248755436
 20
204.69256752246699
 30
0.0
 40
3.5
  1
1.5
  0
ENDBLK
  5
1262
  8
0
  0
BLOCK
  8
0
  2
*U89
 70
     1
 10
0.0
 20
0.0
 30
0.0
  3
*U89
  1

  0
TEXT
  5
1264
  8
AM_5
 62
     2
 10
145.98728847386161
 20
194.07095635619871
 30
0.0
 40
3.5
  1
2.3
 50
90.0
  0
ENDBLK
  5
1266
  8
0
  0
BLOCK
  8
0
  2
*U90
 70
     1
 10
0.0
 20
0.0
 30
0.0
  3
*U90
  1

  0
TEXT
  5
1268
  8
AM_5
 62
     2
 10
126.9084248755436
 20
168.8570784034429
 30
0.0
 40
3.5
  1
14
  0
ENDBLK
  5
126A
  8
0
  0
BLOCK
  8
0
  2
*U91
 70
     1
 10
0.0
 20
0.0
 30
0.0
  3
*U91
  1

  0
TEXT
  5
126C
  8
AM_5
 62
     2
 10
130.95842487554361
 20
176.0912097323874
 30
0.0
 40
3.5
  1
8
  0
ENDBLK
  5
126E
  8
0
  0
BLOCK
  8
0
  2
*U92
 70
     1
 10
0.0
 20
0.0
 30
0.0
  3
*U92
  1

  0
TEXT
  5
1270
  8
AM_5
 62
     2
 10
144.54730282829959
 20
168.8570784034429
 30
0.0
 40
3.5
  1
2.3
  0
ENDBLK
  5
1272
  8
0
  0
BLOCK
  8
0
  2
*U93
 70
     1
 10
0.0
 20
0.0
 30
0.0
  3
*U93
  1

  0
TEXT
  5
1274
  8
AM_5
 62
     2
 10
153.88863106893569
 20
185.63207840344279
 30
0.0
 40
3.5
  1
8
 50
90.0
  0
ENDBLK
  5
1276
  8
0
  0
BLOCK
  8
0
  2
*U94
 70
     1
 10
0.0
 20
0.0
 30
0.0
  3
*U94
  1

  0
TEXT
  5
1278
  8
AM_5
 62
     2
 10
103.5388360050972
 20
243.44546831912021
 30
0.0
 40
3.5
  1
1.87
  0
ENDBLK
  5
127A
  8
0
  0
BLOCK
  8
0
  2
*U95
 70
     1
 10
0.0
 20
0.0
 30
0.0
  3
*U95
  1

  0
TEXT
  5
127C
  8
AM_5
 62
     2
 10
103.74828482399489
 20
204.54616610412131
 30
0.0
 40
3.5
  1
6.95
  0
ENDBLK
  5
127E
  8
0
  0
BLOCK
  8
0
  2
*U96
 70
     1
 10
0.0
 20
0.0
 30
0.0
  3
*U96
  1

  0
TEXT
  5
1280
  8
AM_5
 62
     2
 10
24.288836005097231
 20
243.44546831912021
 30
0.0
 40
3.5
  1
1.87
  0
ENDBLK
  5
1282
  8
0
  0
BLOCK
  8
0
  2
*U97
 70
     1
 10
0.0
 20
0.0
 30
0.0
  3
*U97
  1

  0
TEXT
  5
1284
  8
AM_5
 62
     2
 10
23.43163110153673
 20
204.54616610412131
 30
0.0
 40
3.5
  1
6.95
  0
ENDBLK
  5
1286
  8
0
  0
BLOCK
  8
0
  2
*U98
 70
     1
 10
0.0
 20
0.0
 30
0.0
  3
*U98
  1

  0
TEXT
  5
1288
  8
AM_5
 62
     2
 10
30.14206583956436
 20
185.5585984378701
 30
0.0
 40
3.5
  1
15
 50
90.0
  0
ENDBLK
  5
128A
  8
0
  0
BLOCK
  8
0
  2
*U99
 70
     1
 10
0.0
 20
0.0
 30
0.0
  3
*U99
  1

  0
TEXT
  5
128C
  8
AM_5
 62
     2
 10
63.470909903110218
 20
162.321225106084
 30
0.0
 40
3.5
  1
59.6
  0
ENDBLK
  5
128E
  8
0
  0
BLOCK
  8
0
  2
*U100
 70
     1
 10
0.0
 20
0.0
 30
0.0
  3
*U100
  1

  0
TEXT
  5
1290
  8
AM_5
 62
     2
 10
63.470909903110218
 20
104.6790870042926
 30
0.0
 40
3.5
  1
59.6
  0
ENDBLK
  5
1292
  8
0
  0
BLOCK
  8
0
  2
*U101
 70
     1
 10
0.0
 20
0.0
 30
0.0
  3
*U101
  1

  0
TEXT
  5
1294
  8
AM_5
 62
     2
 10
67.556756160880241
 20
174.9898125715458
 30
0.0
 40
3.5
  1
4-\U+22052.7
  0
ENDBLK
  5
1296
  8
0
  0
BLOCK
  8
0
  2
*U102
 70
     1
 10
0.0
 20
0.0
 30
0.0
  3
*U102
  1

  0
TEXT
  5
1298
  8
AM_5
 62
     7
 10
143.04478378656489
 20
258.7720229504061
 30
0.0
 40
3.5
  1
3
  7
ACISOTS
  0
ENDBLK
  5
129A
  8
0
  0
BLOCK
  8
0
  2
*U103
 70
     1
 10
0.0
 20
0.0
 30
0.0
  3
*U103
  1

  0
TEXT
  5
129C
  8
AM_5
 62
     7
 10
140.54631344784539
 20
236.75151311085159
 30
0.0
 40
3.5
  1
4
  7
ACISOTS
  0
ENDBLK
  5
129E
  8
0
  0
BLOCK
  8
0
  2
*U104
 70
     1
 10
0.0
 20
0.0
 30
0.0
  3
*U104
  1

  0
TEXT
  5
12A0
  8
0
 62
     2
 10
6.625
 20
69.849999999999994
 30
0.0
 40
3.5
  1
1
  7
ACISOTS
  0
ENDBLK
  5
12A2
  8
0
  0
BLOCK
  8
0
  2
*U105
 70
     1
 10
0.0
 20
0.0
 30
0.0
  3
*U105
  1

  0
TEXT
  5
12A4
  8
0
 62
     2
 10
15.9
 20
69.849999999999994
 30
0.0
 40
3.5
  1
ハンドル
  7
ACISOTS
  0
ENDBLK
  5
12A6
  8
0
  0
BLOCK
  8
0
  2
*U106
 70
     1
 10
0.0
 20
0.0
 30
0.0
  3
*U106
  1

  0
TEXT
  5
12A8
  8
0
 62
     2
 10
65.375
 20
69.849999999999994
 30
0.0
 40
3.5
  1
1
  7
ACISOTS
  0
ENDBLK
  5
12AA
  8
0
  0
BLOCK
  8
0
  2
*U107
 70
     1
 10
0.0
 20
0.0
 30
0.0
  3
*U107
  1

  0
TEXT
  5
12AC
  8
0
 62
     2
 10
80.900000000000006
 20
69.67330824343108
 30
0.0
 40
3.5
  1
ノリル(UL94V-1)
  7
ACISOTS
  0
ENDBLK
  5
12AE
  8
0
  0
BLOCK
  8
0
  2
*U108
 70
     1
 10
0.0
 20
0.0
 30
0.0
  3
*U108
  1

  0
TEXT
  5
12B0
  8
0
 62
     2
 10
135.90000000000001
 20
69.849999999999994
 30
0.0
 40
3.5
  1
グレー/ブラック
  7
ACISOTS
  0
ENDBLK
  5
12B2
  8
0
  0
BLOCK
  8
0
  2
*U109
 70
     1
 10
0.0
 20
0.0
 30
0.0
  3
*U109
  1

  0
TEXT
  5
12B4
  8
0
 62
     2
 10
6.2143356299212593
 20
63.674311023622039
 30
0.0
 40
3.5
  1
2
  7
ACISOTS
  0
ENDBLK
  5
12B6
  8
0
  0
BLOCK
  8
0
  2
*U110
 70
     1
 10
0.0
 20
0.0
 30
0.0
  3
*U110
  1

  0
TEXT
  5
12B8
  8
0
 62
     2
 10
15.9
 20
63.67499999999999
 30
0.0
 40
3.5
  1
プレート
  7
ACISOTS
  0
ENDBLK
  5
12BA
  8
0
  0
BLOCK
  8
0
  2
*U111
 70
     1
 10
0.0
 20
0.0
 30
0.0
  3
*U111
  1

  0
TEXT
  5
12BC
  8
0
 62
     2
 10
65.375
 20
63.67499999999999
 30
0.0
 40
3.5
  1
1
  7
ACISOTS
  0
ENDBLK
  5
12BE
  8
0
  0
BLOCK
  8
0
  2
*U112
 70
     1
 10
0.0
 20
0.0
 30
0.0
  3
*U112
  1

  0
TEXT
  5
12C0
  8
0
 62
     2
 10
80.900000000000006
 20
63.67499999999999
 30
0.0
 40
3.5
  1
アルミ　ｔ1.5
  7
ACISOTS
  0
ENDBLK
  5
12C2
  8
0
  0
BLOCK
  8
0
  2
*U113
 70
     1
 10
0.0
 20
0.0
 30
0.0
  3
*U113
  1

  0
TEXT
  5
12C4
  8
0
 62
     2
 10
135.90000000000001
 20
63.67499999999999
 30
0.0
 40
3.5
  1
シルバーアルマイト
  7
ACISOTS
  0
ENDBLK
  5
12C6
  8
0
  0
BLOCK
  8
0
  2
*U114
 70
     1
 10
0.0
 20
0.0
 30
0.0
  3
*U114
  1

  0
TEXT
  5
12C8
  8
0
 62
     2
 10
6.2025126265847081
 20
57.5
 30
0.0
 40
3.5
  1
3
  7
ACISOTS
  0
ENDBLK
  5
12CA
  8
0
  0
BLOCK
  8
0
  2
*U115
 70
     1
 10
0.0
 20
0.0
 30
0.0
  3
*U115
  1

  0
TEXT
  5
12CC
  8
0
 62
     2
 10
15.9
 20
57.5
 30
0.0
 40
3.5
  1
取付ビス
  7
ACISOTS
  0
ENDBLK
  5
12CE
  8
0
  0
BLOCK
  8
0
  2
*U116
 70
     1
 10
0.0
 20
0.0
 30
0.0
  3
*U116
  1

  0
TEXT
  5
12D0
  8
0
 62
     2
 10
65.463877952755908
 20
57.499311023622049
 30
0.0
 40
3.5
  1
2
  7
ACISOTS
  0
ENDBLK
  5
12D2
  8
0
  0
BLOCK
  8
0
  2
*U117
 70
     1
 10
0.0
 20
0.0
 30
0.0
  3
*U117
  1

  0
TEXT
  5
12D4
  8
0
 62
     2
 10
80.900000000000006
 20
57.499311023622049
 30
0.0
 40
3.5
  1
バインドM2.5X8
  7
ACISOTS
  0
ENDBLK
  5
12D6
  8
0
  0
BLOCK
  8
0
  2
*U118
 70
     1
 10
0.0
 20
0.0
 30
0.0
  3
*U118
  1

  0
TEXT
  5
12D8
  8
0
 62
     2
 10
135.90000000000001
 20
57.5
 30
0.0
 40
3.5
  1
ニッケルメッキ
  7
ACISOTS
  0
ENDBLK
  5
12DA
  8
0
  0
BLOCK
  8
0
  2
*U119
 70
     1
 10
0.0
 20
0.0
 30
0.0
  3
*U119
  1

  0
TEXT
  5
12DC
  8
0
 62
     2
 10
6.0999999999999988
 20
51.325000000000003
 30
0.0
 40
3.5
  1
4
  7
ACISOTS
  0
ENDBLK
  5
12DE
  8
0
  0
BLOCK
  8
0
  2
*U120
 70
     1
 10
0.0
 20
0.0
 30
0.0
  3
*U120
  1

  0
TEXT
  5
12E0
  8
0
 62
     2
 10
15.9
 20
51.325000000000003
 30
0.0
 40
3.5
  1
取付ナット
  7
ACISOTS
  0
ENDBLK
  5
12E2
  8
0
  0
BLOCK
  8
0
  2
*U121
 70
     1
 10
0.0
 20
0.0
 30
0.0
  3
*U121
  1

  0
TEXT
  5
12E4
  8
0
 62
     2
 10
65.463877952755908
 20
51.324311023622052
 30
0.0
 40
3.5
  1
2
  7
ACISOTS
  0
ENDBLK
  5
12E6
  8
0
  0
BLOCK
  8
0
  2
*U122
 70
     1
 10
0.0
 20
0.0
 30
0.0
  3
*U122
  1

  0
TEXT
  5
12E8
  8
0
 62
     2
 10
80.900000000000006
 20
51.324311023622052
 30
0.0
 40
3.5
  1
ナットＭ2.5
  7
ACISOTS
  0
ENDBLK
  5
12EA
  8
0
  0
BLOCK
  8
0
  2
*U123
 70
     1
 10
0.0
 20
0.0
 30
0.0
  3
*U123
  1

  0
TEXT
  5
12EC
  8
0
 62
     2
 10
135.90000000000001
 20
51.325000000000003
 30
0.0
 40
3.5
  1
ニッケルメッキ
  7
ACISOTS
  0
ENDBLK
  5
12EE
  8
0
  0
BLOCK
  8
0
  2
*U124
 70
     1
 10
0.0
 20
0.0
 30
0.0
  3
*U124
  1

  0
TEXT
  5
12F0
  8
0
 62
     2
 10
3.6499999999999999
 20
76.025000000000006
 30
0.0
 40
3.5
  1
照番
  7
ACISOTS
  0
ENDBLK
  5
12F2
  8
0
  0
BLOCK
  8
0
  2
*U125
 70
     1
 10
0.0
 20
0.0
 30
0.0
  3
*U125
  1

  0
TEXT
  5
12F4
  8
0
 62
     2
 10
36.149999999999999
 20
76.025000000000006
 30
0.0
 40
3.5
  1
名称
  7
ACISOTS
  0
ENDBLK
  5
12F6
  8
0
  0
BLOCK
  8
0
  2
*U126
 70
     1
 10
0.0
 20
0.0
 30
0.0
  3
*U126
  1

  0
TEXT
  5
12F8
  8
0
 62
     2
 10
68.299999999999997
 20
76.025000000000006
 30
0.0
 40
3.5
  1
個数
  7
ACISOTS
  0
ENDBLK
  5
12FA
  8
0
  0
BLOCK
  8
0
  2
*U127
 70
     1
 10
0.0
 20
0.0
 30
0.0
  3
*U127
  1

  0
TEXT
  5
12FC
  8
0
 62
     2
 10
103.65000000000001
 20
76.025000000000006
 30
0.0
 40
3.5
  1
材質
  7
ACISOTS
  0
ENDBLK
  5
12FE
  8
0
  0
BLOCK
  8
0
  2
*U128
 70
     1
 10
0.0
 20
0.0
 30
0.0
  3
*U128
  1

  0
TEXT
  5
1300
  8
0
 62
     2
 10
151.40000000000001
 20
76.025000000000006
 30
0.0
 40
3.5
  1
色・表面処理
  7
ACISOTS
  0
ENDBLK
  5
1302
  8
0
  0
BLOCK
  8
0
  2
*U129
 70
     1
 10
0.0
 20
0.0
 30
0.0
  3
*U129
  1

  0
TEXT
  5
1304
  8
AM_5
 62
     7
 10
16.296217491627889
 20
227.21403793847591
 30
0.0
 40
3.5
  1
1
  7
ACISOTS
  0
ENDBLK
  5
1306
  8
0
  0
BLOCK
  8
0
  2
*U130
 70
     1
 10
0.0
 20
0.0
 30
0.0
  3
*U130
  1

  0
TEXT
  5
1308
  8
AM_5
 62
     7
 10
15.53785569748106
 20
139.02514810198841
 30
0.0
 40
3.5
  1
2
  7
ACISOTS
  0
ENDBLK
  5
130A
  8
0
  0
ENDSEC
  0
SECTION
  2
ENTITIES
  0
INSERT
  5
5E3
  8
0
  2
TK-A4
 10
0.0
 20
0.0
 30
0.0
1001
GENIUS_GENOREF_13
1005
64C
1001
GENIUS_GENODEF_13
1002
{
1000
HIER
1070
     0
1002
}
1002
{
1000
MANEDIT
1070
     0
1002
}
1002
{
1000
NOSEL
1070
     0
1002
}
1002
{
1000
BEHIND
1070
     0
1002
}
1002
{
1000
OTHER
1070
     0
1002
}
1002
{
1000
REACTOR
1002
}
1001
GENIUS_GENOBJ-N-SDF_13
1002
{
1000
OWNER
1000
GEN
1002
}
1001
GENIUS_GENSCREG_13
1040
1.0
1040
1.0
1011
0.0
1021
0.0
1031
7.7380488517390712E+217
1021
0.0
1031
0.0
1011
193.0
1021
0.0
1031
7.7380488517390712E+217
1021
280.00000000000011
1031
0.0
1070
     3
  0
POINT
  5
64C
  8
0
 10
0.0
 20
0.0
 30
0.0
1001
GENIUS_GENOBJ-N-TIT_13
1002
{
1000
OWNER
1000
GEN
1002
}
1001
GENIUS_GENOENT_13
1002
{
1000
MYREF
1005
64C
1002
}
1002
{
1000
GRP
1005
0
1002
}
1001
GENIUS_GENODEF_13
1002
{
1000
HIER
1070
     1
1002
}
1002
{
1000
MANEDIT
1070
     1
1002
}
1002
{
1000
NOSEL
1070
     0
1002
}
1002
{
1000
BEHIND
1070
     0
1002
}
1002
{
1000
OTHER
1070
     0
1002
}
1002
{
1000
REACTOR
1002
}
1001
GENIUS_GENOLIS_13
1002
{
1000
ENT
1005
5E3
1005
CFC
1002
}
1001
GENIUS_GENTITLE_13
1002
{
1000
BORDER
1000
TK-A4
1002
}
1002
{
1000
TITLE
1000
TK-TITLE
1002
}
1002
{
1000
SCALE
1000
1:1
1002
}
1002
{
1000
TITLESTD
1000
ISO
1002
}
1002
{
1000
HRA
1005
5E3
1002
}
1002
{
1000
HTIT
1005
CFC
1002
}
1002
{
1000
GENIUSID
1005
64C
1002
}
1002
{
1000
INVTXTID
1005
0
1002
}
1002
{
1000
UNCHG
1002
{
1000
GEN-TITLE-SIZ
1000
GEN-TITLE-SCA
1002
}
1002
}
  0
LINE
  5
771
  8
ハンドル
 62
     0
 10
122.18342487554369
 20
193.45707840344281
 30
0.0
 11
122.18342487554369
 21
193.35707840344281
 31
0.0
  0
LINE
  5
772
  8
ハンドル
 62
     0
 10
122.18342487554369
 20
193.35707840344281
 30
0.0
 11
123.68342487554359
 21
193.35707840344281
 31
0.0
  0
LINE
  5
773
  8
ハンドル
 62
     0
 10
122.18342487554369
 20
194.35707840344281
 30
0.0
 11
122.18342487554369
 21
193.45707840344281
 31
0.0
  0
LINE
  5
774
  8
ハンドル
 62
     0
 10
128.18342487554361
 20
190.85707840344281
 30
0.0
 11
136.18342487554361
 21
190.85707840344281
 31
0.0
  0
LINE
  5
775
  8
ハンドル
 62
     0
 10
123.68342487554359
 20
194.35707840344281
 30
0.0
 11
128.18342487554361
 21
190.85707840344281
 31
0.0
  0
LINE
  5
776
  8
ハンドル
 62
     0
 10
122.18342487554369
 20
194.35707840344281
 30
0.0
 11
123.68342487554359
 21
194.35707840344281
 31
0.0
  0
LINE
  5
777
  8
ハンドル
 10
136.18342487554361
 20
190.85707840344281
 30
0.0
 11
136.18342487554361
 21
186.85707840344281
 31
0.0
  0
LINE
  5
778
  8
ハンドル
 10
123.68342487554359
 20
180.35707840344281
 30
0.0
 11
123.68342487554359
 21
193.35707840344281
 31
0.0
  0
LINE
  5
779
  8
ハンドル
 10
136.18342487554361
 20
182.85707840344281
 30
0.0
 11
136.18342487554361
 21
186.85707840344281
 31
0.0
  0
LINE
  5
77A
  8
ハンドル
 62
     0
 10
122.18342487554369
 20
179.35707840344281
 30
0.0
 11
123.68342487554359
 21
179.35707840344281
 31
0.0
  0
LINE
  5
77B
  8
ハンドル
 62
     0
 10
123.68342487554359
 20
179.35707840344281
 30
0.0
 11
128.18342487554361
 21
182.85707840344281
 31
0.0
  0
LINE
  5
77C
  8
ハンドル
 62
     0
 10
128.18342487554361
 20
182.85707840344281
 30
0.0
 11
136.18342487554361
 21
182.85707840344281
 31
0.0
  0
LINE
  5
77D
  8
ハンドル
 62
     0
 10
122.18342487554369
 20
179.35707840344281
 30
0.0
 11
122.18342487554369
 21
180.25707840344279
 31
0.0
  0
LINE
  5
77E
  8
ハンドル
 62
     0
 10
122.18342487554369
 20
180.35707840344281
 30
0.0
 11
123.68342487554359
 21
180.35707840344281
 31
0.0
  0
LINE
  5
77F
  8
ハンドル
 62
     0
 10
122.18342487554369
 20
180.25707840344279
 30
0.0
 11
122.18342487554369
 21
180.35707840344281
 31
0.0
  0
LINE
  5
780
  8
ハンドル
 10
37.963836005097242
 20
227.6454683191202
 30
0.0
 11
97.563836005097187
 21
227.6454683191202
 31
0.0
  0
LINE
  5
781
  8
ハンドル
 10
97.563836005097187
 20
227.6454683191202
 30
0.0
 11
97.563836005097187
 21
213.64546831912011
 31
0.0
  0
LINE
  5
782
  8
ハンドル
 10
97.563836005097187
 20
213.64546831912011
 30
0.0
 11
37.963836005097242
 21
213.64546831912011
 31
0.0
  0
LINE
  5
783
  8
ハンドル
 10
37.963836005097242
 20
219.64546831912011
 30
0.0
 11
97.563836005097187
 21
219.64546831912011
 31
0.0
  0
LINE
  5
784
  8
ハンドル0
 10
37.963836005097242
 20
215.1454683191202
 30
0.0
 11
97.563836005097187
 21
215.14546831912011
 31
0.0
  0
LINE
  5
785
  8
ハンドル
 62
     0
 10
97.563836005097301
 20
179.3570784034429
 30
0.0
 11
37.963836005097242
 21
179.3570784034429
 31
0.0
  0
LINE
  5
786
  8
ハンドル
 62
     0
 10
37.963836005097242
 20
194.35707840344281
 30
0.0
 11
97.563836005097301
 21
194.35707840344281
 31
0.0
  0
LINE
  5
787
  8
ハンドル
 62
     0
 10
97.563836005097244
 20
194.35707840344281
 30
0.0
 11
97.563836005097244
 21
179.3570784034429
 31
0.0
  0
LINE
  5
788
  8
ハンドル
 62
     0
 10
97.563836005097301
 20
180.3570784034429
 30
0.0
 11
37.963836005097242
 21
180.3570784034429
 31
0.0
  0
LINE
  5
789
  8
ハンドル
 62
     0
 10
97.563836005097301
 20
193.35707840344281
 30
0.0
 11
37.963836005097242
 21
193.35707840344281
 31
0.0
  0
LINE
  5
78A
  8
ハンドル
 10
136.18342487554361
 20
188.00707840344279
 30
0.0
 11
137.78342487554369
 21
188.00707840344279
 31
0.0
  0
LINE
  5
78B
  8
ハンドル
 10
137.78342487554369
 20
185.70707840344281
 30
0.0
 11
136.18342487554361
 21
185.70707840344281
 31
0.0
  0
LINE
  5
78C
  8
ハンドル
 10
37.963836005097242
 20
194.35707840344281
 30
0.0
 11
37.963836005097242
 21
179.3570784034429
 31
0.0
  0
LINE
  5
78D
  8
ハンドル
 10
37.963836005097242
 20
227.6454683191202
 30
0.0
 11
37.963836005097242
 21
213.6454683191202
 31
0.0
  0
LINE
  5
78E
  8
ハンドル
 10
138.4834248755437
 20
187.60707840344281
 30
0.0
 11
138.4834248755437
 21
186.10707840344281
 31
0.0
  0
LINE
  5
78F
  8
ハンドル
 10
137.78342487554369
 20
188.00707840344279
 30
0.0
 11
138.4834248755437
 21
187.60707840344281
 31
0.0
  0
LINE
  5
790
  8
ハンドル
 10
137.78342487554369
 20
185.70707840344281
 30
0.0
 11
138.48342487554351
 21
186.10707840344281
 31
0.0
  0
LINE
  5
791
  8
ハンドル
 10
137.78342487554369
 20
188.00707840344279
 30
0.0
 11
137.78342487554369
 21
185.70707840344281
 31
0.0
  0
LINE
  5
792
  8
ハンドル
 10
39.963836005097242
 20
189.35707840344281
 30
0.0
 11
95.563836005097244
 21
189.35707840344281
 31
0.0
  0
LINE
  5
793
  8
ハンドル
 10
39.963836005097242
 20
184.35707840344281
 30
0.0
 11
95.563836005097244
 21
184.35707840344281
 31
0.0
  0
CIRCLE
  5
794
  8
ハンドル
 10
90.613836005097255
 20
186.85707840344281
 30
0.0
 40
1.3500000000000001
  0
LINE
  5
795
  8
ハンドル
 10
39.963836005097242
 20
193.35707840344281
 30
0.0
 11
39.963836005097242
 21
180.3570784034429
 31
0.0
  0
LINE
  5
796
  8
ハンドル
 10
95.563836005097244
 20
193.35707840344281
 30
0.0
 11
95.563836005097244
 21
180.3570784034429
 31
0.0
  0
LINE
  5
79D
  8
ハンドル
 10
94.543836005097234
 20
227.6454683191202
 30
0.0
 11
94.543836005097276
 21
229.24546831912019
 31
0.0
  0
LINE
  5
79E
  8
ハンドル
 10
96.843836005097245
 20
229.24546831912019
 30
0.0
 11
96.843836005097245
 21
227.6454683191202
 31
0.0
  0
LINE
  5
79F
  8
ハンドル
 10
94.943836005097239
 20
229.94546831912021
 30
0.0
 11
96.443836005097239
 21
229.94546831912021
 31
0.0
  0
LINE
  5
7A0
  8
ハンドル
 10
94.543836005097276
 20
229.24546831912019
 30
0.0
 11
94.943836005097239
 21
229.94546831912021
 31
0.0
  0
LINE
  5
7A1
  8
ハンドル
 10
96.843836005097245
 20
229.24546831912019
 30
0.0
 11
96.443836005097239
 21
229.9454683191201
 31
0.0
  0
LINE
  5
7A2
  8
ハンドル
 10
94.543836005097276
 20
229.24546831912019
 30
0.0
 11
96.843836005097245
 21
229.24546831912019
 31
0.0
  0
LINE
  5
7A3
  8
パネル
 10
37.963836005097242
 20
128.5790870042926
 30
0.0
 11
97.563836005097244
 21
128.5790870042926
 31
0.0
  0
LINE
  5
7A4
  8
パネル
 10
97.563836005097244
 20
128.5790870042926
 30
0.0
 11
97.563836005097244
 21
115.1790870042926
 31
0.0
  0
LINE
  5
7A5
  8
パネル
 10
97.563836005097244
 20
115.1790870042926
 30
0.0
 11
37.963836005097242
 21
115.1790870042926
 31
0.0
  0
LINE
  5
7A6
  8
パネル
 10
37.963836005097242
 20
115.1790870042926
 30
0.0
 11
37.963836005097242
 21
128.5790870042926
 31
0.0
  0
LINE
  5
7A7
  8
パネル
 10
123.68342487554359
 20
128.5790870042926
 30
0.0
 11
122.18342487554369
 21
128.5790870042926
 31
0.0
  0
LINE
  5
7A8
  8
パネル
 10
122.18342487554369
 20
128.5790870042926
 30
0.0
 11
122.18342487554369
 21
115.1790870042926
 31
0.0
  0
LINE
  5
7A9
  8
パネル
 10
122.18342487554369
 20
115.1790870042926
 30
0.0
 11
123.68342487554359
 21
115.1790870042926
 31
0.0
  0
LINE
  5
7AA
  8
パネル
 10
123.68342487554359
 20
115.1790870042926
 30
0.0
 11
123.68342487554359
 21
128.5790870042926
 31
0.0
  0
DIMENSION
  5
7AB
  8
AM_5
  2
*D9
 10
97.563836005097244
 20
103.1790870042926
 30
0.0
 11
67.763836005097247
 21
106.4290870042926
 31
0.0
 70
     0
 13
37.963836005097242
 23
115.1790870042926
 33
0.0
 14
97.563836005097244
 24
115.1790870042926
 34
0.0
1001
ACAD
1000
DSTYLE
1002
{
1070
    40
1040
1.0
1070
   144
1040
1.0
1002
}
  0
DIMENSION
  5
7AE
  8
AM_5
  2
*D10
 10
135.68342587554361
 20
115.1790870042926
 30
0.0
 11
132.43342587554361
 21
121.8790870042926
 31
0.0
 70
     0
 13
123.68342487554359
 23
128.5790870042926
 33
0.0
 14
123.68342487554359
 24
115.1790870042926
 34
0.0
 50
90.0
1001
ACAD
1000
DSTYLE
1002
{
1070
    40
1040
1.0
1070
   144
1040
1.0
1002
}
  0
DIMENSION
  5
7B1
  8
AM_5
  2
*D11
 10
97.563836005097244
 20
160.821225106084
 30
0.0
 11
67.763836005097247
 21
164.071225106084
 31
0.0
 70
     0
 13
37.963836005097242
 23
179.3570784034429
 33
0.0
 14
97.563836005097244
 24
179.35707840344281
 34
0.0
1001
ACAD
1000
DSTYLE
1002
{
1070
    40
1040
1.0
1070
   144
1040
1.0
1002
}
  0
DIMENSION
  5
7BA
  8
AM_5
  2
*D12
 10
31.642065839564388
 20
179.3570784034429
 30
0.0
 11
31.64206583956436
 21
187.7310858112854
 31
0.0
 70
   128
 13
37.963836005097242
 23
194.35707840344281
 33
0.0
 14
37.963836005097242
 24
179.3570784034429
 34
0.0
 50
90.0
1001
ACAD
1000
DSTYLE
1002
{
1070
    40
1040
1.0
1070
   144
1040
1.0
1002
}
  0
DIMENSION
  5
7BD
  8
AM_5
  2
*D13
 10
97.563836005097187
 20
241.94546831912021
 30
0.0
 11
107.3888360050972
 21
245.19546831912021
 31
0.0
 70
     0
 13
95.693836005097225
 23
229.94546831912021
 33
0.0
 14
97.563836005097187
 24
227.6454683191202
 34
0.0
1001
ACAD
1000
DSTYLE
1002
{
1070
    40
1040
1.0
1070
   144
1040
1.0
1002
}
  0
DIMENSION
  5
7C1
  8
AM_5
  2
*D14
 10
123.68342487554359
 20
203.19256752246699
 30
0.0
 11
132.3559122489589
 21
203.19256752246699
 31
0.0
 70
   128
 13
122.18342487554369
 23
193.35707840344281
 33
0.0
 14
123.68342487554359
 24
193.35707840344281
 34
0.0
1001
ACAD
1000
DSTYLE
1002
{
1070
    40
1040
1.0
1070
   144
1040
1.0
1002
}
  0
DIMENSION
  5
7C4
  8
AM_5
  2
*D15
 10
97.563836005097258
 20
203.04616610412131
 30
0.0
 11
107.9221628663263
 21
203.04616610412131
 31
0.0
 70
   128
 13
90.613836005097255
 23
186.85707840344281
 33
0.0
 14
97.563836005097258
 24
194.35707840344281
 34
0.0
1001
ACAD
1000
DSTYLE
1002
{
1070
    40
1040
1.0
1070
   144
1040
1.0
1002
}
  0
DIMENSION
  5
7CA
  8
AM_5
  2
*D16
 10
147.4872884738617
 20
185.70707840344281
 30
0.0
 11
147.48728847386161
 21
197.07400475323601
 31
0.0
 70
   128
 13
137.78342487554369
 23
188.00707840344279
 33
0.0
 14
137.78342487554369
 24
185.70707840344281
 34
0.0
 50
90.0
1001
ACAD
1000
DSTYLE
1002
{
1070
    40
1040
1.0
1070
   144
1040
1.0
1002
}
  0
INSERT
  5
7D0
  8
AM_12
  2
*S34
 10
0.0
 20
0.0
 30
0.0
  0
INSERT
  5
7D2
  8
AM_12
  2
*S35
 10
0.0
 20
0.0
 30
0.0
  0
DIMENSION
  5
8C8
  8
AM_5
  2
*D17
 10
136.18342487554361
 20
167.35707840344281
 30
0.0
 11
129.18342487554361
 21
170.60707840344281
 31
0.0
 70
     0
 13
122.18342487554369
 23
179.35707840344281
 33
0.0
 14
136.18342487554361
 24
182.85707840344281
 34
0.0
 50
0.0000000000001018
1001
ACAD
1000
DSTYLE
1002
{
1070
    40
1040
1.0
1070
   144
1040
1.0
1002
}
  0
DIMENSION
  5
8EC
  8
AM_5
  2
*D18
 10
136.18342487554361
 20
174.5912097323874
 30
0.0
 11
132.18342487554361
 21
177.8412097323874
 31
0.0
 70
     0
 13
128.18342487554361
 23
182.85707840344281
 33
0.0
 14
136.18342487554361
 24
182.85707840344281
 34
0.0
 50
0.0000000000001018
1001
ACAD
1000
DSTYLE
1002
{
1070
    40
1040
1.0
1070
   144
1040
1.0
1002
}
  0
DIMENSION
  5
914
  8
AM_5
  2
*D19
 10
138.4834248755437
 20
167.35707840344281
 30
0.0
 11
147.5503512253369
 21
170.60742289163181
 31
0.0
 70
     0
 13
136.18342487554361
 23
182.85707840344281
 33
0.0
 14
138.4834248755437
 24
186.10707840344281
 34
0.0
 50
0.0000000000001018
1001
ACAD
1000
DSTYLE
1002
{
1070
    40
1040
1.0
1070
   144
1040
1.0
1002
}
  0
DIMENSION
  5
96F
  8
AM_5
  2
*D20
 10
91.289785527841474
 20
188.02566397698979
 30
0.0
 11
74.731756160880238
 21
173.4898125715458
 31
0.0
 70
   131
  1
4-<>
 15
89.937886482353136
 25
185.68849282989589
 35
0.0
 40
0.0
1001
ACAD
1000
DSTYLE
1002
{
1070
    40
1040
1.0
1070
   144
1040
1.0
1002
}
  0
DIMENSION
  5
99B
  8
AM_5
  2
*D21
 10
155.38863106893569
 20
182.85707840344281
 30
0.0
 11
152.13863106893569
 21
186.85707840344281
 31
0.0
 70
     0
 13
136.18342487554361
 23
190.85707840344281
 33
0.0
 14
136.18342487554361
 24
182.85707840344281
 34
0.0
 50
90.0
1001
ACAD
1000
DSTYLE
1002
{
1070
    40
1040
1.0
1070
   144
1040
1.0
1002
}
  0
INSERT
  5
B81
  8
AM_12
  2
*S36
 10
0.0
 20
0.0
 30
0.0
  0
INSERT
  5
B83
  8
AM_5
  2
*S37
 10
0.0
 20
0.0
 30
0.0
  0
INSERT
  5
B85
  8
AM_12
  2
*S38
 10
0.0
 20
0.0
 30
0.0
  0
INSERT
  5
B87
  8
AM_5
  2
*S39
 10
0.0
 20
0.0
 30
0.0
  0
INSERT
  5
CFC
  8
0
 66
     1
  2
TK-TITLE
 10
193.0
 20
0.0
 30
0.0
1001
GENIUS_GENOREF_13
1005
64C
  0
ATTRIB
  5
CFE
  8
0
 10
184.9976908104542
 20
1.705189434395036
 30
0.0
 40
2.5
  1

  2
GEN-TITLE-NR2
 70
     0
  0
ATTRIB
  5
CFF
  8
0
 10
108.8574809841467
 20
12.82790432564377
 30
0.0
 40
3.5
  1
HN-61□
  2
GEN-TITLE-DES1
 70
     0
  0
ATTRIB
  5
D00
  8
0
 10
109.0
 20
9.1499999999999488
 30
0.0
 40
2.5
  1
HN型ハンドル
  2
GEN-TITLE-DES2
 70
     0
  0
ATTRIB
  5
D01
  8
0
 10
109.0
 20
1.9999999999999569
 30
0.0
 40
3.0
  1

  2
GEN-TITLE-NR1
 70
     0
  0
ATTRIB
  5
D02
  8
0
 10
44.03813241647083
 20
43.299999999999912
 30
0.0
 40
3.0
  1

  2
GEN-TITLE-MAT1
 70
     0
  0
ATTRIB
  5
D03
  8
0
 10
44.03813241647083
 20
33.299999999999912
 30
0.0
 40
3.0
  1

  2
GEN-TITLE-MAT2
 70
     0
  0
ATTRIB
  5
D04
  8
0
 10
17.387259087390468
 20
16.199999999999939
 30
0.0
 40
3.0
  1

 72
     2
 11
17.387259087390468
 21
15.79999999999994
 31
0.0
  2
GEN-TITLE-QTY
 70
     0
 74
     1
  0
ATTRIB
  5
D05
  8
0
 10
11.72526038557594
 20
28.699999999999971
 30
0.0
 40
3.0
  1
1:1
 72
     2
 11
15.175260385575941
 21
28.299999999999979
 31
0.0
  2
GEN-TITLE-SCA
 70
     0
 74
     1
  0
ATTRIB
  5
D06
  8
0
 10
2.1644727868636329
 20
3.9883425376106638
 30
0.0
 40
3.0
  1
2009/04/20
 72
     1
 11
12.782804833786139
 21
3.5883425376106639
 31
0.0
  2
GEN-TITLE-DAT
 70
     0
 74
     1
  0
SEQEND
  5
CFD
  8
0
  0
INSERT
  5
D09
  8
0
  2
*S40
 10
0.0
 20
0.0
 30
0.0
  0
INSERT
  5
DB8
  8
AM_5
  2
*S41
 10
0.0
 20
0.0
 30
0.0
  0
CIRCLE
  5
DE3
  8
ハンドル
 10
85.533836005097271
 20
186.85707840344281
 30
0.0
 40
1.3500000000000001
  0
DIMENSION
  5
DEA
  8
AM_5
  2
*D26
 10
90.613836005097255
 20
203.04616610412131
 30
0.0
 11
88.113836005097255
 21
202.37629312912131
 31
0.0
 70
   128
 13
85.533836005097257
 23
186.85707840344281
 33
0.0
 14
90.613836005097255
 24
186.85707840344281
 34
0.0
1001
ACAD
1000
DSTYLE
1002
{
1070
   287
1070
     4
1070
   279
1070
     1
1070
    40
1040
1.0
1070
   144
1040
1.0
1002
}
  0
CIRCLE
  5
E27
  8
ハンドル
 10
44.913836005097266
 20
186.85707840344281
 30
0.0
 40
1.3500000000000001
  0
DIMENSION
  5
E28
  8
AM_5
  2
*D28
 10
37.963836005097271
 20
203.04616610412131
 30
0.0
 11
27.605509143868179
 21
203.04616610412131
 31
0.0
 70
   128
 13
44.913836005097266
 23
186.85707840344281
 33
0.0
 14
37.963836005097271
 24
194.35707840344281
 34
0.0
 50
180.0
1001
ACAD
1000
DSTYLE
1002
{
1070
    40
1040
1.0
1070
   144
1040
1.0
1002
}
  0
CIRCLE
  5
E2B
  8
ハンドル
 10
49.993836005097272
 20
186.85707840344281
 30
0.0
 40
1.3500000000000001
  0
DIMENSION
  5
E2C
  8
AM_5
  2
*D27
 10
44.913836005097266
 20
203.04616610412131
 30
0.0
 11
47.413836005097266
 21
203.04616610412131
 31
0.0
 70
   128
 13
49.993836005097272
 23
186.85707840344281
 33
0.0
 14
44.913836005097266
 24
186.85707840344281
 34
0.0
 50
180.0
1001
ACAD
1000
DSTYLE
1002
{
1070
   287
1070
     4
1070
   279
1070
     1
1070
    40
1040
1.0
1070
   144
1040
1.0
1002
}
  0
LINE
  5
EFA
  8
ハンドル
 10
40.983836005097181
 20
227.6454683191202
 30
0.0
 11
40.983836005097153
 21
229.24546831912019
 31
0.0
  0
LINE
  5
EFB
  8
ハンドル
 10
38.68383600509717
 20
229.24546831912019
 30
0.0
 11
38.68383600509717
 21
227.6454683191202
 31
0.0
  0
LINE
  5
EFC
  8
ハンドル
 10
40.583836005097169
 20
229.94546831912021
 30
0.0
 11
39.083836005097183
 21
229.94546831912021
 31
0.0
  0
LINE
  5
EFD
  8
ハンドル
 10
40.983836005097153
 20
229.24546831912019
 30
0.0
 11
40.583836005097169
 21
229.94546831912021
 31
0.0
  0
LINE
  5
EFE
  8
ハンドル
 10
38.68383600509717
 20
229.24546831912019
 30
0.0
 11
39.083836005097183
 21
229.9454683191201
 31
0.0
  0
LINE
  5
EFF
  8
ハンドル
 10
40.983836005097153
 20
229.24546831912019
 30
0.0
 11
38.68383600509717
 21
229.24546831912019
 31
0.0
  0
DIMENSION
  5
F00
  8
AM_5
  2
*D29
 10
37.963836005097228
 20
241.94546831912021
 30
0.0
 11
28.138836005097229
 21
245.19546831912021
 31
0.0
 70
     0
 13
39.833836005097183
 23
229.94546831912021
 33
0.0
 14
37.963836005097228
 24
227.6454683191202
 34
0.0
 50
180.0
1001
ACAD
1000
DSTYLE
1002
{
1070
    40
1040
1.0
1070
   144
1040
1.0
1002
}
  0
INSERT
  5
F30
  8
AM_5
  2
*S42
 10
0.0
 20
0.0
 30
0.0
  0
INSERT
  5
10CF
  8
0
  2
A$C35C16C4D
 10
160.9791335583113
 20
250.5812220921195
 30
0.0
  0
INSERT
  5
10D0
  8
0
  2
A$C47270E8E
 10
182.89269410910319
 20
250.58122209211939
 30
0.0
  0
INSERT
  5
10D1
  8
0
  2
A$C762874DC
 10
178.71344001736199
 20
231.3176926107005
 30
0.0
  0
INSERT
  5
10D2
  8
0
  2
A$C4B68363E
 10
162.19190021494481
 20
231.3169439566486
 30
0.0
  0
VIEWPORT
  5
17C
 67
     1
  8
0
 10
133.34999084472651
 20
101.5999970436096
 30
0.0
 40
370.22669129365238
 41
228.4221935424805
 68
     1
 69
     1
1001
ACAD
1000
MVIEW
1002
{
1070
    16
1010
0.0
1020
0.0
1030
0.0
1010
0.0
1020
0.0
1030
1.0
1040
0.0
1040
228.4221935424805
1040
133.34999084472651
1040
101.5999970436096
1040
50.0
1040
0.0
1040
0.0
1070
     0
1070
   100
1070
     1
1070
     1
1070
     0
1070
     0
1070
     0
1070
     0
1040
0.0
1040
0.0
1040
0.0
1040
10.0
1040
10.0
1040
10.0
1040
10.0
1070
     0
1002
{
1002
}
1002
}
1001
GENIUS_GENOBJ-N-SDF_13
1002
{
1000
OWNER
1000
GEN
1002
}
1001
GENIUS_GENODEF_13
1002
{
1000
HIER
1070
     0
1002
}
1002
{
1000
MANEDIT
1070
     0
1002
}
1002
{
1000
NOSEL
1070
     0
1002
}
1002
{
1000
BEHIND
1070
     0
1002
}
1002
{
1000
OTHER
1070
     0
1002
}
1002
{
1000
REACTOR
1002
}
1001
GENIUS_GENSCREG_15
1000
PF
1040
1.0
1000
DF
1040
1.0
1000
MIN
1011
-51.763354802099627
1021
0.0
1031
7.7380488517390712E+217
1021
-12.6110997276306
1031
0.0
1000
MAX
1011
318.4633364915527
1021
0.0
1031
7.7380488517390712E+217
1021
215.8110938148499
1031
0.0
1000
FLAGS
1070
     2
  0
ENDSEC
  0
EOF
