  0
SECTION
  2
HEADER
  9
$ACADVER
  1
AC1009
  9
$INSBASE
 10
0.0
 20
0.0
 30
0.0
  9
$EXTMIN
 10
43.303216746165333
 20
36.013393715509672
 30
0.0
  9
$EXTMAX
 10
433.3032167461655
 20
586.01339371550966
 30
0.0
  9
$LIMMIN
 10
-1.8470409926418361
 20
-74.786606284490404
  9
$LIMMAX
 10
388.15295900735839
 20
475.21339371550971
  9
$ORTHOMODE
 70
     0
  9
$REGENMODE
 70
     1
  9
$FILLMODE
 70
     1
  9
$QTEXTMODE
 70
     0
  9
$MIRRTEXT
 70
     1
  9
$DRAGMODE
 70
     2
  9
$LTSCALE
 40
2.0
  9
$OSMODE
 70
  2751
  9
$ATTMODE
 70
     1
  9
$TEXTSIZE
 40
73.985717453579113
  9
$TRACEWID
 40
1.0
  9
$TEXTSTYLE
  7
STANDARD
  9
$CLAYER
  8
0
  9
$CELTYPE
  6
BYLAYER
  9
$CECOLOR
 62
   256
  9
$DIMSCALE
 40
2.0
  9
$DIMASZ
 40
2.5
  9
$DIMEXO
 40
1.0
  9
$DIMDLI
 40
10.0
  9
$DIMRND
 40
0.0
  9
$DIMDLE
 40
0.0
  9
$DIMEXE
 40
1.0
  9
$DIMTP
 40
0.1
  9
$DIMTM
 40
0.1
  9
$DIMTXT
 40
3.5
  9
$DIMCEN
 40
0.0
  9
$DIMTSZ
 40
0.0
  9
$DIMTOL
 70
     0
  9
$DIMLIM
 70
     0
  9
$DIMTIH
 70
     0
  9
$DIMTOH
 70
     0
  9
$DIMSE1
 70
     0
  9
$DIMSE2
 70
     0
  9
$DIMTAD
 70
     1
  9
$DIMZIN
 70
     8
  9
$DIMBLK
  1
OPEN30
  9
$DIMASO
 70
     1
  9
$DIMSHO
 70
     1
  9
$DIMPOST
  1

  9
$DIMAPOST
  1
"
  9
$DIMALT
 70
     0
  9
$DIMALTD
 70
     2
  9
$DIMALTF
 40
0.0393701
  9
$DIMLFAC
 40
1.0
  9
$DIMTOFL
 70
     1
  9
$DIMTVP
 40
0.0
  9
$DIMTIX
 70
     0
  9
$DIMSOXD
 70
     0
  9
$DIMSAH
 70
     0
  9
$DIMBLK1
  1

  9
$DIMBLK2
  1

  9
$DIMSTYLE
  2
AM_ISO
  9
$DIMCLRD
 70
   256
  9
$DIMCLRE
 70
   256
  9
$DIMCLRT
 70
     2
  9
$DIMTFAC
 40
0.71
  9
$DIMGAP
 40
1.5
  9
$LUNITS
 70
     2
  9
$LUPREC
 70
     2
  9
$SKETCHINC
 40
1.0
  9
$FILLETRAD
 40
5.0
  9
$AUNITS
 70
     0
  9
$AUPREC
 70
     0
  9
$MENU
  1
.
  9
$ELEVATION
 40
0.0
  9
$PELEVATION
 40
0.0
  9
$THICKNESS
 40
0.0
  9
$LIMCHECK
 70
     0
  9
$BLIPMODE
 70
     0
  9
$CHAMFERA
 40
5.0
  9
$CHAMFERB
 40
5.0
  9
$SKPOLY
 70
     0
  9
$TDCREATE
 40
2454041.4220428239
  9
$TDUPDATE
 40
2454333.5668042828
  9
$TDINDWG
 40
0.1372303588
  9
$TDUSRTIMER
 40
0.1372303588
  9
$USRTIMER
 70
     1
  9
$ANGBASE
 50
0.0
  9
$ANGDIR
 70
     0
  9
$PDMODE
 70
     0
  9
$PDSIZE
 40
0.0
  9
$PLINEWID
 40
0.0
  9
$COORDS
 70
     0
  9
$SPLFRAME
 70
     0
  9
$SPLINETYPE
 70
     6
  9
$SPLINESEGS
 70
     8
  9
$ATTDIA
 70
     1
  9
$ATTREQ
 70
     1
  9
$HANDLING
 70
     1
  9
$HANDSEED
  5
1420
  9
$SURFTAB1
 70
     6
  9
$SURFTAB2
 70
     6
  9
$SURFTYPE
 70
     6
  9
$SURFU
 70
     6
  9
$SURFV
 70
     6
  9
$UCSNAME
  2

  9
$UCSORG
 10
0.0
 20
0.0
 30
0.0
  9
$UCSXDIR
 10
1.0
 20
0.0
 30
0.0
  9
$UCSYDIR
 10
0.0
 20
1.0
 30
0.0
  9
$PUCSNAME
  2

  9
$PUCSORG
 10
0.0
 20
0.0
 30
0.0
  9
$PUCSXDIR
 10
1.0
 20
0.0
 30
0.0
  9
$PUCSYDIR
 10
0.0
 20
1.0
 30
0.0
  9
$USERI1
 70
     0
  9
$USERI2
 70
     0
  9
$USERI3
 70
     0
  9
$USERI4
 70
     0
  9
$USERI5
 70
     0
  9
$USERR1
 40
0.0
  9
$USERR2
 40
0.0
  9
$USERR3
 40
0.0
  9
$USERR4
 40
0.0
  9
$USERR5
 40
0.0
  9
$WORLDVIEW
 70
     1
  9
$SHADEDGE
 70
     3
  9
$SHADEDIF
 70
    70
  9
$TILEMODE
 70
     1
  9
$MAXACTVP
 70
    64
  9
$PLIMCHECK
 70
     0
  9
$PEXTMIN
 10
1.0000000000000000E+020
 20
1.0000000000000000E+020
 30
1.0000000000000000E+020
  9
$PEXTMAX
 10
-1.0000000000000000E+020
 20
-1.0000000000000000E+020
 30
-1.0000000000000000E+020
  9
$PLIMMIN
 10
-6.350006103515625
 20
-6.3499999046325684
  9
$PLIMMAX
 10
273.04998779296881
 20
209.54999399185181
  9
$UNITMODE
 70
     0
  9
$VISRETAIN
 70
     1
  9
$PLINEGEN
 70
     0
  9
$PSLTSCALE
 70
     1
  0
ENDSEC
  0
SECTION
  2
TABLES
  0
TABLE
  2
VPORT
 70
     3
  0
VPORT
  2
*ACTIVE
 70
     0
 10
0.0
 20
0.0
 11
1.0
 21
1.0
 12
238.471905188036
 22
311.00777537372932
 13
0.0
 23
0.0
 14
5.0
 24
5.0
 15
20.0
 25
20.0
 16
0.0
 26
0.0
 36
1.0
 17
0.0
 27
0.0
 37
0.0
 40
554.15150956220066
 41
1.4925742574257419
 42
50.0
 43
0.0
 44
0.0
 50
0.0
 51
0.0
 71
    16
 72
   100
 73
     1
 74
     3
 75
     0
 76
     0
 77
     0
 78
     0
  0
ENDTAB
  0
TABLE
  2
LTYPE
 70
    20
  0
LTYPE
  2
CONTINUOUS
 70
     0
  3
Solid line
 72
    65
 73
     0
 40
0.0
  0
LTYPE
  2
AM_ISO02W050
 70
     0
  3
__ __ __ __ __ __ __ __ __ __ __ __ __ __ __
 72
    65
 73
     2
 40
7.5
 49
6.0
 49
-1.5
  0
LTYPE
  2
AM_ISO08W050
 70
     0
  3
____ . ____ . ____ . ____ . ____ . ____ . ____
 72
    65
 73
     4
 40
18.0
 49
12.0
 49
-1.5
 49
3.0
 49
-1.5
  0
LTYPE
  2
AM_ISO09W050
 70
     0
  3
_____ . . _____ . . _____ . . ____ .. ____
 72
    65
 73
     6
 40
22.5
 49
12.0
 49
-1.5
 49
3.0
 49
-1.5
 49
3.0
 49
-1.5
  0
LTYPE
  2
AMCONSTR
 70
     0
  3
_______________________
 72
    65
 73
     2
 40
9999.0
 49
9999.0
 49
0.0
  0
LTYPE
  2
AM_ISO08W050X2
 70
     0
  3
__ . __ . __ . __ . __ . __
 72
    65
 73
     4
 40
9.0
 49
6.0
 49
-0.75
 49
1.5
 49
-0.75
  0
LTYPE
  2
AM_ISO02W050X2
 70
     0
  3
 _ _ _ _ _ _ _ _ _ _ _ _
 72
    65
 73
     2
 40
3.75
 49
3.0
 49
-0.75
  0
LTYPE
  2
AMZIGZAG
 70
     0
  3
/\/-/\/-/\/-/\/-/\/-/\/
 72
    65
 73
     2
 40
11.0001
 49
0.0001
 49
-11.0
  0
LTYPE
  2
ACISOWELD
 70
     0
  3
_ _ _ _ _
 72
    65
 73
     2
 40
2.0
 49
2.0
 49
-1.0
  0
LTYPE
  2
ACISOTGB
 70
     0
  3
__ . . __ . .
 72
    65
 73
     6
 40
9.0
 49
4.0
 49
-1.0
 49
1.0
 49
-1.0
 49
1.0
 49
-1.0
  0
LTYPE
  2
ACISOTGL
 70
     0
  3
_ _ _ _ _
 72
    65
 73
     2
 40
3.0
 49
2.0
 49
-1.0
  0
LTYPE
  2
CENTER
 70
     0
  3
__ . __
 72
    65
 73
     4
 40
7.0
 49
4.0
 49
-1.0
 49
1.0
 49
-1.0
  0
LTYPE
  2
HIDDEN
 70
     0
  3
Hidden __ __ __ __ __ __ __ __ __ __ __ __ __ _
 72
    65
 73
     2
 40
9.5249999999999986
 49
6.3499999999999988
 49
-3.1749999999999989
  0
LTYPE
  2
PHANTOM2
 70
     0
  3
Phantom (.5x) ___ _ _ ___ _ _ ___ _ _ ___ _ _
 72
    65
 73
     6
 40
31.75
 49
15.875
 49
-3.1749999999999989
 49
3.1749999999999989
 49
-3.1749999999999989
 49
3.1749999999999989
 49
-3.1749999999999989
  0
LTYPE
  2
GEN3
 70
     0
  3
-- -- -- -- -- -- -- -- -- -- -- -- -- -- --
 72
    65
 73
     2
 40
6.25
 49
4.75
 49
-1.5
  0
LTYPE
  2
GEN7
 70
     0
  3
____ . ____ . ____ . ____ . ____ . ____ . ____
 72
    65
 73
     4
 40
13.75
 49
9.75
 49
-1.5
 49
1.0
 49
-1.5
  0
LTYPE
  2
GEN3A
 70
     0
  3
 - - - - -
 72
    65
 73
     2
 40
3.125
 49
2.25
 49
-0.875
  0
LTYPE
  2
GEN7A
 70
     0
  3
__ . __ . __
 72
    65
 73
     4
 40
6.875
 49
4.75
 49
-0.875
 49
0.375
 49
-0.875
  0
LTYPE
  2
GEN4A
 70
     0
  3
_____ . . _____ . . _____ . . ____ .. ____
 72
    65
 73
     6
 40
16.25
 49
9.75
 49
-1.5
 49
1.0
 49
-1.5
 49
1.0
 49
-1.5
  0
LTYPE
  2
GENZIGZAG
 70
     0
  3
/\/-/\/-/\/-/\/-/\/-/\/
 72
    65
 73
     2
 40
12.0001
 49
0.0001
 49
-12.0
  0
ENDTAB
  0
TABLE
  2
LAYER
 70
    23
  0
LAYER
  2
0
 70
     0
 62
     7
  6
CONTINUOUS
  0
LAYER
  2
DEFPOINTS
 70
     0
 62
     7
  6
CONTINUOUS
  0
LAYER
  2
TK1
 70
     0
 62
     7
  6
CONTINUOUS
  0
LAYER
  2
TK10
 70
     0
 62
     7
  6
AM_ISO02W050X2
  0
LAYER
  2
TK2
 70
     0
 62
     2
  6
CONTINUOUS
  0
LAYER
  2
TK3
 70
     0
 62
     5
  6
CONTINUOUS
  0
LAYER
  2
TK20
 70
     0
 62
     2
  6
AM_ISO02W050X2
  0
LAYER
  2
TK30
 70
     0
 62
     5
  6
AM_ISO02W050X2
  0
LAYER
  2
TK4
 70
     0
 62
     3
  6
CONTINUOUS
  0
LAYER
  2
TK5
 70
     0
 62
     4
  6
CONTINUOUS
  0
LAYER
  2
TK6
 70
     0
 62
     6
  6
CONTINUOUS
  0
LAYER
  2
TK7
 70
     0
 62
     1
  6
CONTINUOUS
  0
LAYER
  2
TK8
 70
     0
 62
     8
  6
CONTINUOUS
  0
LAYER
  2
TK40
 70
     0
 62
     3
  6
AM_ISO02W050X2
  0
LAYER
  2
TK50
 70
     0
 62
     4
  6
AM_ISO02W050X2
  0
LAYER
  2
TK60
 70
     0
 62
     6
  6
AM_ISO02W050X2
  0
LAYER
  2
TK70
 70
     0
 62
     1
  6
AM_ISO02W050X2
  0
LAYER
  2
TK80
 70
     0
 62
     8
  6
AM_ISO02W050X2
  0
LAYER
  2
AM_7
 70
     0
 62
     4
  6
AM_ISO08W050
  0
LAYER
  2
AM_5
 70
     0
 62
     3
  6
CONTINUOUS
  0
LAYER
  2
7A
 70
     0
 62
     4
  6
GEN7A
  0
LAYER
  2
RAHM2
 70
     0
 62
     1
  6
CONTINUOUS
  0
LAYER
  2
AM_CL
 70
     0
 62
     1
  6
AMCONSTR
  0
ENDTAB
  0
TABLE
  2
STYLE
 70
     5
  0
STYLE
  2
STANDARD
 70
     0
 40
0.0
 41
1.0
 50
0.0
 71
     0
 42
73.985717453579113
  3
ISOCP.SHX
  4
bigfont.shx
  0
STYLE
  2

 70
     1
 40
0.0
 41
1.0
 50
0.0
 71
     0
 42
2.5
  3
ltypeshp.shx
  4

  0
STYLE
  2
ACISOTS
 70
     0
 40
1.0
 41
1.0
 50
0.0
 71
     0
 42
2.5
  3
isocp.shx
  4
extfont.shx
  0
STYLE
  2
ACISOGDT
 70
     0
 40
0.0
 41
1.0
 50
0.0
 71
     0
 42
2.5
  3
amgdt.shx
  4

  0
STYLE
  2

 70
     1
 40
0.0
 41
1.0
 50
0.0
 71
     0
 42
3.0
  3
genltshp.shx
  4

  0
ENDTAB
  0
TABLE
  2
VIEW
 70
     6
  0
VIEW
  2
AM_VIEW1
 70
     0
 40
275.0
 10
203.21468740241991
 20
337.71339371550971
 41
410.1234567901235
 11
0.0
 21
0.0
 31
1.0
 12
0.0
 22
0.0
 32
0.0
 42
50.0
 43
0.0
 44
0.0
 50
0.0
 71
    16
  0
VIEW
  2
AM_VIEW2
 70
     0
 40
275.0
 10
183.09123061229661
 20
337.71339371550971
 41
410.1234567901235
 11
0.0
 21
0.0
 31
1.0
 12
0.0
 22
0.0
 32
0.0
 42
50.0
 43
0.0
 44
0.0
 50
0.0
 71
    16
  0
VIEW
  2
AM_VIEW3
 70
     0
 40
275.0
 10
203.21468740241991
 20
62.713393715509618
 41
410.1234567901235
 11
0.0
 21
0.0
 31
1.0
 12
0.0
 22
0.0
 32
0.0
 42
50.0
 43
0.0
 44
0.0
 50
0.0
 71
    16
  0
VIEW
  2
AM_VIEW4
 70
     0
 40
275.0
 10
183.09123061229661
 20
62.713393715509618
 41
410.1234567901235
 11
0.0
 21
0.0
 31
1.0
 12
0.0
 22
0.0
 32
0.0
 42
50.0
 43
0.0
 44
0.0
 50
0.0
 71
    16
  0
VIEW
  2
AM_VIEW5
 70
     0
 40
275.00000000000011
 10
193.15295900735819
 20
200.2133937155096
 41
410.1234567901235
 11
0.0
 21
0.0
 31
1.0
 12
0.0
 22
0.0
 32
0.0
 42
50.0
 43
0.0
 44
0.0
 50
0.0
 71
    16
  0
VIEW
  2
AM_VIEW6
 70
     0
 40
549.99450000000013
 10
193.15295900735819
 20
200.2133937155096
 41
820.23871111111134
 11
0.0
 21
0.0
 31
1.0
 12
0.0
 22
0.0
 32
0.0
 42
50.0
 43
0.0
 44
0.0
 50
0.0
 71
    16
  0
ENDTAB
  0
TABLE
  2
UCS
 70
     0
  0
ENDTAB
  0
TABLE
  2
APPID
 70
    38
  0
APPID
  2
ACAD
 70
     0
  0
APPID
  2
MCAD_NO_VIS
 70
     0
  0
APPID
  2
ACAD_TEMP_GRAPHIC
 70
     0
  0
APPID
  2
ACATTRIBSERVICES
 70
     0
  0
APPID
  2
AD_DRAW
 70
     0
  0
APPID
  2
DESIGNERASSEMBLIES
 70
     0
  0
APPID
  2
ACADM_DIM_EDIT
 70
     0
  0
APPID
  2
AMDT_DM_ADJ
 70
     0
  0
APPID
  2
GENIUS_GENREC_14
 70
     0
  0
APPID
  2
GENIUS_GENODEF_13
 70
     0
  0
APPID
  2
GENIUS_GENOBJ-N-REC_13
 70
     0
  0
APPID
  2
GENIUS_GENDIMSH_14
 70
     0
  0
APPID
  2
GENIUS_GENCFG_13
 70
     0
  0
APPID
  2
GENIUS_GENCFG0_13
 70
     0
  0
APPID
  2
GENIUS_GENCFG1_13
 70
     0
  0
APPID
  2
GENIUS_GENCFG2_13
 70
     0
  0
APPID
  2
GENIUS_GENCFG3_13
 70
     0
  0
APPID
  2
GENIUS_GENCFG4_13
 70
     0
  0
APPID
  2
GENIUS_GEVCFG0_13
 70
     0
  0
APPID
  2
GENIUS_GENOENT_13
 70
     0
  0
APPID
  2
GENIUS_GENOBJ-N-CRS_13
 70
     0
  0
APPID
  2
GENIUS_GENOREF_13
 70
     0
  0
APPID
  2
GENIUS_GENOLIS_13
 70
     0
  0
APPID
  2
GENIUS_GENOBJ-N-TIT_13
 70
     0
  0
APPID
  2
GENIUS_GENTITLE_13
 70
     0
  0
APPID
  2
GENIUS_GENSCREG_15
 70
     0
  0
APPID
  2
GENIUS_GENOBJ-N-SDF_13
 70
     0
  0
APPID
  2
GENIUS_GENOBJ-N-CEN_13
 70
     0
  0
APPID
  2
GENIUS_GENOBJ-N-HTC_13
 70
     0
  0
APPID
  2
GENIUS_GENHATCH_13
 70
     0
  0
APPID
  2
GENIUS_GENOBJ-N-ZOO_13
 70
     0
  0
APPID
  2
GENIUS_GENZOO_17
 70
     0
  0
APPID
  2
GENIUS_GENOBJ-N-FIL_13
 70
     0
  0
APPID
  2
GENIUS_GENFIL_13
 70
     0
  0
APPID
  2
GENIUS_GENOBJ-N-CHA_13
 70
     0
  0
APPID
  2
GEV_VCCNULL_SWITCH_OFF
 70
     0
  0
APPID
  2
GENIUS_GENDTOL_13
 70
     0
  0
APPID
  2
GENIUS_GENSCREG_13
 70
     0
  0
ENDTAB
  0
TABLE
  2
DIMSTYLE
 70
    15
  0
DIMSTYLE
  2
AM_ISO
 70
     0
  3

  4
"
  5
OPEN30
  6

  7

 40
1.0
 41
2.5
 42
1.0
 43
10.0
 44
1.0
 45
0.0
 46
0.0
 47
0.1
 48
0.1
140
3.5
141
0.0
142
0.0
143
0.0393701
144
1.0
145
0.0
146
0.71
147
1.5
 71
     0
 72
     0
 73
     0
 74
     0
 75
     0
 76
     0
 77
     1
 78
     8
170
     0
171
     2
172
     1
173
     0
174
     0
175
     0
176
   256
177
   256
178
     2
  0
DIMSTYLE
  2
AM_ISO$3
 70
     0
  3

  4
"
  5
OPEN30
  6

  7

 40
1.0
 41
2.5
 42
1.0
 43
10.0
 44
1.0
 45
0.0
 46
0.0
 47
0.1
 48
0.1
140
3.5
141
0.0
142
0.0
143
0.0393701
144
1.0
145
0.0
146
0.71
147
1.5
 71
     0
 72
     0
 73
     0
 74
     1
 75
     0
 76
     0
 77
     1
 78
     8
170
     0
171
     2
172
     0
173
     0
174
     0
175
     0
176
   256
177
   256
178
     2
  0
DIMSTYLE
  2
AM_ISO$4
 70
     0
  3

  4
"
  5
OPEN30
  6

  7

 40
1.0
 41
2.5
 42
1.0
 43
10.0
 44
1.0
 45
0.0
 46
0.0
 47
0.1
 48
0.1
140
3.5
141
0.0
142
0.0
143
0.0393701
144
1.0
145
0.0
146
0.71
147
1.5
 71
     0
 72
     0
 73
     0
 74
     1
 75
     0
 76
     0
 77
     1
 78
     8
170
     0
171
     2
172
     0
173
     0
174
     0
175
     0
176
   256
177
   256
178
     2
  0
DIMSTYLE
  2
AM_ISO$6
 70
     0
  3

  4
"
  5
OPEN30
  6

  7

 40
1.0
 41
2.5
 42
1.0
 43
10.0
 44
1.0
 45
0.0
 46
0.0
 47
0.1
 48
0.1
140
3.5
141
0.0
142
0.0
143
0.0393701
144
1.0
145
0.0
146
0.71
147
1.5
 71
     0
 72
     0
 73
     0
 74
     0
 75
     0
 76
     0
 77
     0
 78
     8
170
     0
171
     2
172
     1
173
     0
174
     0
175
     0
176
   256
177
   256
178
     2
  0
DIMSTYLE
  2
AM_ISO$7
 70
     0
  3

  4
"
  5
OPEN30
  6

  7

 40
1.0
 41
2.5
 42
1.0
 43
10.0
 44
1.0
 45
0.0
 46
0.0
 47
0.1
 48
0.1
140
5.0
141
0.0
142
0.0
143
0.0393701
144
1.0
145
0.0
146
0.71
147
1.5
 71
     0
 72
     0
 73
     0
 74
     0
 75
     0
 76
     0
 77
     1
 78
     8
170
     0
171
     2
172
     1
173
     0
174
     0
175
     0
176
   256
177
   256
178
     2
  0
DIMSTYLE
  2
AM_ISO$SF
 70
     0
  3

  4
"
  5
OPEN30
  6

  7

 40
1.0
 41
2.5
 42
1.0
 43
10.0
 44
1.0
 45
0.0
 46
0.0
 47
0.1
 48
0.1
140
3.5
141
0.0
142
0.0
143
0.0393701
144
1.0
145
0.0
146
0.71
147
1.5
 71
     0
 72
     0
 73
     0
 74
     0
 75
     1
 76
     1
 77
     1
 78
     8
170
     0
171
     2
172
     1
173
     0
174
     0
175
     0
176
   256
177
   256
178
     2
  0
DIMSTYLE
  2
AM_ISO$SH
 70
     0
  3

  4
"
  5

  6
GENAXEH
  7
OPEN30
 40
1.0
 41
2.5
 42
1.0
 43
10.0
 44
1.0
 45
0.0
 46
0.0
 47
0.1
 48
0.1
140
3.5
141
0.0
142
0.0
143
0.0393701
144
2.0
145
0.0
146
0.71
147
1.5
 71
     0
 72
     0
 73
     0
 74
     0
 75
     1
 76
     1
 77
     1
 78
     8
170
     0
171
     2
172
     1
173
     1
174
     0
175
     0
176
   256
177
   256
178
     2
  0
DIMSTYLE
  2
GEN-ISO
 70
     0
  3

  4
"
  5

  6

  7

 40
1.0
 41
2.5
 42
1.0
 43
10.0
 44
1.0
 45
0.0
 46
0.0
 47
0.1
 48
0.1
140
3.5
141
0.0
142
0.0
143
0.0393701
144
1.0
145
0.0
146
0.71
147
1.5
 71
     0
 72
     0
 73
     0
 74
     0
 75
     0
 76
     0
 77
     1
 78
     8
170
     0
171
     2
172
     1
173
     0
174
     0
175
     0
176
   256
177
   256
178
     2
  0
DIMSTYLE
  2
GEN-ISO$3
 70
     0
  3

  4
"
  5

  6

  7

 40
1.0
 41
2.5
 42
1.0
 43
10.0
 44
1.0
 45
0.0
 46
0.0
 47
0.1
 48
0.1
140
3.5
141
0.0
142
0.0
143
0.0393701
144
1.0
145
0.0
146
0.71
147
1.5
 71
     0
 72
     0
 73
     0
 74
     1
 75
     0
 76
     0
 77
     1
 78
     8
170
     0
171
     2
172
     0
173
     0
174
     0
175
     0
176
   256
177
   256
178
     2
  0
DIMSTYLE
  2
GEN-ISO$4
 70
     0
  3

  4
"
  5

  6

  7

 40
1.0
 41
2.5
 42
1.0
 43
10.0
 44
1.0
 45
0.0
 46
0.0
 47
0.1
 48
0.1
140
3.5
141
0.0
142
0.0
143
0.0393701
144
1.0
145
0.0
146
0.71
147
1.5
 71
     0
 72
     0
 73
     0
 74
     1
 75
     0
 76
     0
 77
     1
 78
     8
170
     0
171
     2
172
     0
173
     0
174
     0
175
     0
176
   256
177
   256
178
     2
  0
DIMSTYLE
  2
GEN-ISO$6
 70
     0
  3

  4
"
  5

  6

  7

 40
1.0
 41
2.5
 42
1.0
 43
10.0
 44
1.0
 45
0.0
 46
0.0
 47
0.1
 48
0.1
140
3.5
141
0.0
142
0.0
143
0.0393701
144
1.0
145
0.0
146
0.71
147
1.5
 71
     0
 72
     0
 73
     0
 74
     0
 75
     0
 76
     0
 77
     0
 78
     8
170
     0
171
     2
172
     0
173
     0
174
     0
175
     0
176
   256
177
   256
178
     2
  0
DIMSTYLE
  2
GEN-ISO-POS
 70
     0
  3

  4
"
  5

  6

  7

 40
1.0
 41
2.5
 42
1.0
 43
10.0
 44
1.0
 45
0.0
 46
0.0
 47
0.1
 48
0.1
140
5.0
141
0.0
142
0.0
143
0.0393701
144
1.0
145
0.0
146
0.71
147
1.5
 71
     0
 72
     0
 73
     0
 74
     0
 75
     0
 76
     0
 77
     0
 78
     8
170
     0
171
     2
172
     0
173
     0
174
     0
175
     0
176
   256
177
   256
178
     2
  0
DIMSTYLE
  2
GEN-ISO-AXE-F
 70
     0
  3

  4
"
  5

  6

  7

 40
1.0
 41
2.5
 42
1.0
 43
10.0
 44
1.0
 45
0.0
 46
0.0
 47
0.1
 48
0.1
140
3.5
141
0.0
142
0.0
143
0.0393701
144
1.0
145
0.0
146
0.71
147
1.5
 71
     0
 72
     0
 73
     0
 74
     0
 75
     1
 76
     1
 77
     1
 78
     8
170
     0
171
     2
172
     1
173
     0
174
     0
175
     0
176
   256
177
   256
178
     2
  0
DIMSTYLE
  2
GEN-ISO-AXE-H
 70
     0
  3

  4
"
  5

  6

  7

 40
1.0
 41
2.5
 42
1.0
 43
10.0
 44
1.0
 45
0.0
 46
0.0
 47
0.1
 48
0.1
140
3.5
141
0.0
142
0.0
143
0.0393701
144
2.0
145
0.0
146
0.71
147
1.5
 71
     0
 72
     0
 73
     0
 74
     0
 75
     1
 76
     1
 77
     1
 78
     8
170
     0
171
     2
172
     1
173
     1
174
     0
175
     0
176
   256
177
   256
178
     2
  0
DIMSTYLE
  2
ISO-25
 70
     0
  3

  4

  5

  6

  7

 40
1.0
 41
2.5
 42
0.625
 43
3.75
 44
1.25
 45
0.0
 46
0.0
 47
0.0
 48
0.0
140
2.5
141
2.5
142
0.0
143
0.0394
144
1.0
145
1.0
146
1.0
147
0.625
 71
     0
 72
     0
 73
     1
 74
     0
 75
     0
 76
     0
 77
     1
 78
     8
170
     0
171
     2
172
     1
173
     0
174
     0
175
     0
176
     0
177
     0
178
     0
  0
ENDTAB
  0
ENDSEC
  0
SECTION
  2
BLOCKS
  0
BLOCK
  8
0
  2
$MODEL_SPACE
 70
     0
 10
0.0
 20
0.0
 30
0.0
  3
$MODEL_SPACE
  1

  0
ENDBLK
  5
21
  8
0
  0
BLOCK
 67
     1
  8
0
  2
$PAPER_SPACE
 70
     0
 10
0.0
 20
0.0
 30
0.0
  3
$PAPER_SPACE
  1

  0
ENDBLK
  5
25
 67
     1
  8
0
  0
BLOCK
  8
0
  2
GENAXEH
 70
     0
 10
0.0
 20
0.0
 30
0.0
  3
GENAXEH
  1

  0
LINE
  5
88
  8
0
 10
-1.0
 20
0.0
 30
0.0
 11
1.0
 21
0.0
 31
0.0
  0
ENDBLK
  5
8A
  8
0
  0
BLOCK
  8
0
  2
_OPEN30
 70
     0
 10
0.0
 20
0.0
 30
0.0
  3
_OPEN30
  1

  0
LINE
  5
408
  8
0
  6
BYBLOCK
 62
     0
 10
-1.0
 20
0.26794919
 30
0.0
 11
0.0
 21
0.0
 31
0.0
  0
LINE
  5
409
  8
0
  6
BYBLOCK
 62
     0
 10
0.0
 20
0.0
 30
0.0
 11
-1.0
 21
-0.26794919
 31
0.0
  0
LINE
  5
40A
  8
0
  6
BYBLOCK
 62
     0
 10
0.0
 20
0.0
 30
0.0
 11
-1.0
 21
0.0
 31
0.0
  0
ENDBLK
  5
40C
  8
0
  0
BLOCK
  8
0
  2
TAKACHI-A3
 70
     0
 10
0.0
 20
0.0
 30
0.0
  3
TAKACHI-A3
  1

  0
POLYLINE
  5
5FB
  8
0
 66
     1
 10
0.0
 20
0.0
 30
0.0
 70
     1
1001
GENIUS_GENREC_14
1002
{
1000
PYDIR
1011
10.000000000000011
1021
0.0
1031
9.5445205666390278E+234
1021
280.0
1031
0.0
1002
}
1002
{
1000
PXDIR
1011
410.0
1021
0.0
1031
9.5445205666390278E+234
1021
0.0
1031
0.0
1002
}
1002
{
1000
PORI
1011
10.0
1021
0.0
1031
9.5445205666390278E+234
1021
0.0
1031
0.0
1002
}
1002
{
1000
PINS
1011
210.0
1021
0.0
1031
9.5445205666390278E+234
1021
139.99999999999989
1031
0.0
1002
}
1002
{
1000
HVAL
1000
280
1002
}
1002
{
1000
H
1070
     2
1002
}
1002
{
1000
WVAL
1000
400
1002
}
1002
{
1000
W
1070
     2
1002
}
1002
{
1000
C
1070
     4
1002
}
1001
GENIUS_GENODEF_13
1002
{
1000
HIER
1070
     0
1002
}
1002
{
1000
MANEDIT
1070
     0
1002
}
1002
{
1000
NOSEL
1070
     0
1002
}
1002
{
1000
BEHIND
1070
     0
1002
}
1002
{
1000
REACTOR
1002
}
1001
GENIUS_GENOBJ-N-REC_13
1002
{
1000
OWNER
1000
GEN
1002
}
  0
VERTEX
  5
134F
  8
0
 10
10.0
 20
0.0
 30
0.0
  0
VERTEX
  5
1350
  8
0
 10
410.0
 20
0.0
 30
0.0
  0
VERTEX
  5
1351
  8
0
 10
410.0
 20
280.0
 30
0.0
  0
VERTEX
  5
1352
  8
0
 10
10.00000000000003
 20
280.0
 30
0.0
  0
SEQEND
  5
1353
  8
0
  0
TEXT
  5
5FC
  8
0
 10
15.00000000000003
 20
50.0
 30
0.0
 40
2.5
  1
!GENTITLE-LL
  0
TEXT
  5
5FD
  8
0
 10
410.0
 20
0.0
 30
0.0
 40
2.5
  1
!GENTITLE-INSERT
  0
TEXT
  5
5FE
  8
0
 10
405.0
 20
275.0
 30
0.0
 40
2.5
  1
!GENTITLE-RU
  0
TEXT
  5
5FF
  8
0
 10
410.0
 20
280.0
 30
0.0
 40
2.5
  1
!GENTITLE-MAX
  0
LINE
  5
600
  8
0
 10
366.0
 20
275.0
 30
0.0
 11
410.0
 21
275.0
 31
0.0
  0
INSERT
  5
601
  8
0
  2
*U32
 10
0.0
 20
0.0
 30
0.0
  0
LINE
  5
602
  8
0
 10
366.0
 20
280.0
 30
0.0
 11
366.0
 21
275.0
 31
0.0
  0
ENDBLK
  5
605
  8
0
  0
BLOCK
  8
0
  2
TAKACHI-TITLE
 70
     2
 10
0.0
 20
0.0
 30
0.0
  3
TAKACHI-TITLE
  1

  0
LINE
  5
614
  8
RAHM2
 10
-195.0
 20
30.000000000000028
 30
0.0
 11
-94.0
 21
30.000000000000028
 31
0.0
  0
LINE
  5
615
  8
RAHM2
 10
-195.0
 20
35.000000000000028
 30
0.0
 11
-94.0
 21
35.000000000000028
 31
0.0
  0
LINE
  5
616
  8
RAHM2
 10
-195.0
 20
40.000000000000021
 30
0.0
 11
-94.0
 21
40.000000000000021
 31
0.0
  0
LINE
  5
617
  8
RAHM2
 10
-195.0
 20
45.000000000000021
 30
0.0
 11
-94.0
 21
45.000000000000021
 31
0.0
  0
LINE
  5
618
  8
0
 10
-195.0
 20
7.0
 30
0.0
 11
-94.0
 21
7.0
 31
0.0
  0
LINE
  5
619
  8
0
 10
-195.0
 20
19.999999999999972
 30
0.0
 11
-94.0
 21
19.999999999999972
 31
0.0
  0
ATTDEF
  5
61A
  8
0
 10
-183.24385271456069
 20
8.9508505244280823
 30
0.0
 40
2.5
  1

 11
-183.24385271456069
 21
8.6175171910947483
 31
0.0
  3
サブタイトル
  2
GEN-TITLE-DES2
 70
     0
 74
     1
  0
ATTDEF
  5
61B
  8
0
 10
-183.24385271456069
 20
2.0175171910947478
 30
0.0
 40
3.0
  1

 11
-183.24385271456069
 21
1.6175171910947479
 31
0.0
  3
図番
  2
GEN-TITLE-NR
 70
     0
 74
     1
  0
INSERT
  5
61C
  8
0
  2
*U33
 10
0.0
 20
0.0
 30
0.0
  0
ATTDEF
  5
61D
  8
0
 10
-183.24385271456069
 20
14.40728619501834
 30
0.0
 40
4.0
  1

 11
-183.24385271456069
 21
13.873952861685011
 31
0.0
  3
品名
  2
GEN-TITLE-DES1
 70
     0
 74
     1
  0
LINE
  5
61E
  8
RAHM2
 10
-187.57512886940361
 20
30.400000000000041
 30
0.0
 11
-190.0
 21
34.60000000000003
 31
0.0
  0
LINE
  5
61F
  8
RAHM2
 10
-190.0
 20
34.60000000000003
 30
0.0
 11
-192.42487113059639
 21
30.400000000000041
 31
0.0
  0
LINE
  5
620
  8
RAHM2
 10
-185.0
 20
50.000000000000028
 30
0.0
 11
-185.0
 21
19.99999999999994
 31
0.0
  0
LINE
  5
621
  8
RAHM2
 10
-192.42487113059639
 20
30.400000000000041
 30
0.0
 11
-187.57512886940361
 21
30.400000000000041
 31
0.0
  0
INSERT
  5
622
  8
0
  2
*U34
 10
0.0
 20
0.0
 30
0.0
  0
INSERT
  5
623
  8
0
  2
*U35
 10
0.0
 20
0.0
 30
0.0
  0
LINE
  5
624
  8
RAHM2
 10
-192.42487113059639
 20
45.400000000000027
 30
0.0
 11
-187.57512886940361
 21
45.400000000000027
 31
0.0
  0
LINE
  5
625
  8
RAHM2
 10
-187.57512886940361
 20
45.400000000000027
 30
0.0
 11
-190.0
 21
49.600000000000023
 31
0.0
  0
LINE
  5
626
  8
RAHM2
 10
-192.42487113059639
 20
40.400000000000027
 30
0.0
 11
-187.57512886940361
 21
40.400000000000027
 31
0.0
  0
LINE
  5
627
  8
RAHM2
 10
-187.57512886940361
 20
40.400000000000027
 30
0.0
 11
-190.0
 21
44.600000000000023
 31
0.0
  0
LINE
  5
628
  8
RAHM2
 10
-192.42487113059639
 20
35.400000000000041
 30
0.0
 11
-187.57512886940361
 21
35.400000000000041
 31
0.0
  0
LINE
  5
629
  8
RAHM2
 10
-187.57512886940361
 20
35.400000000000041
 30
0.0
 11
-190.0
 21
39.600000000000023
 31
0.0
  0
LINE
  5
62A
  8
RAHM2
 10
-190.0
 20
39.600000000000023
 30
0.0
 11
-192.42487113059639
 21
35.400000000000041
 31
0.0
  0
LINE
  5
62B
  8
RAHM2
 10
-190.0
 20
44.600000000000023
 30
0.0
 11
-192.42487113059639
 21
40.400000000000027
 31
0.0
  0
LINE
  5
62C
  8
RAHM2
 10
-190.0
 20
49.600000000000023
 30
0.0
 11
-192.42487113059639
 21
45.400000000000027
 31
0.0
  0
LINE
  5
62D
  8
RAHM2
 10
-129.0
 20
50.000000000000028
 30
0.0
 11
-129.0
 21
19.99999999999994
 31
0.0
  0
INSERT
  5
62E
  8
0
  2
*U36
 10
0.0
 20
0.0
 30
0.0
  0
LINE
  5
62F
  8
0
 10
-34.0
 20
50.0
 30
0.0
 11
-34.0
 21
0.0
 31
0.0
  0
LINE
  5
630
  8
0
 10
-94.0
 20
50.0
 30
0.0
 11
-94.0
 21
0.0
 31
0.0
  0
INSERT
  5
631
  8
0
  2
*U37
 10
0.0
 20
0.0
 30
0.0
  0
LINE
  5
632
  8
0
 10
-94.0
 20
10.0
 30
0.0
 11
-34.0
 21
10.0
 31
0.0
  0
ATTDEF
  5
633
  8
0
 10
-58.014051197997453
 20
39.255005561783491
 30
0.0
 40
3.0
  1

 72
     2
 11
-58.014051197997453
 21
39.255005561783491
 31
0.0
  3
尺度
  2
GEN-TITLE-SCA
 70
     0
  0
ATTDEF
  5
634
  8
0
 10
-77.002849666490064
 20
31.02180787943475
 30
0.0
 40
3.0
  1

 11
-77.002849666490064
 21
30.621807879434751
 31
0.0
  3
材質
  2
GEN-TITLE-MAT1
 70
     0
 74
     1
  0
ATTDEF
  5
635
  8
0
 10
-77.002849666490064
 20
21.02180787943475
 30
0.0
 40
3.0
  1

 11
-77.002849666490064
 21
20.621807879434751
 31
0.0
  3
表面処理
  2
GEN-TITLE-MAT2
 70
     0
 74
     1
  0
ATTDEF
  5
636
  8
0
 10
-77.002849666490064
 20
12.01751719109475
 30
0.0
 40
3.0
  1

 11
-77.002849666490064
 21
11.61751719109475
 31
0.0
  3
日付
  2
GEN-TITLE-DAT
 70
     0
 74
     1
  0
LINE
  5
637
  8
0
 10
-94.0
 20
37.5
 30
0.0
 11
-34.0
 21
37.5
 31
0.0
  0
LINE
  5
638
  8
0
 10
-94.0
 20
27.5
 30
0.0
 11
-34.0
 21
27.5
 31
0.0
  0
LINE
  5
639
  8
0
 10
-94.0
 20
17.5
 30
0.0
 11
-34.0
 21
17.5
 31
0.0
  0
LINE
  5
63A
  8
RAHM2
 10
-109.0
 20
50.000000000000028
 30
0.0
 11
-109.0
 21
19.99999999999994
 31
0.0
  0
INSERT
  5
63B
  8
0
  2
*U38
 10
0.0
 20
0.0
 30
0.0
  0
INSERT
  5
63C
  8
0
  2
*U39
 10
0.0
 20
0.0
 30
0.0
  0
INSERT
  5
63D
  8
0
  2
*U40
 10
0.0
 20
0.0
 30
0.0
  0
INSERT
  5
63E
  8
0
  2
*U41
 10
0.0
 20
0.0
 30
0.0
  0
INSERT
  5
63F
  8
0
  2
*U42
 10
0.0
 20
0.0
 30
0.0
  0
INSERT
  5
640
  8
0
  2
*U43
 10
0.0
 20
0.0
 30
0.0
  0
INSERT
  5
641
  8
0
  2
*U44
 10
0.0
 20
0.0
 30
0.0
  0
INSERT
  5
642
  8
0
  2
*U45
 10
0.0
 20
0.0
 30
0.0
  0
LINE
  5
643
  8
7A
 10
-89.0
 20
43.75
 30
0.0
 11
-75.218691599714703
 21
43.75
 31
0.0
1001
GENIUS_GENOREF_13
1005
656
  0
LINE
  5
644
  8
0
 10
-84.0
 20
45.75
 30
0.0
 11
-76.0
 21
46.749999999999993
 31
0.0
  0
LINE
  5
645
  8
0
 10
-76.0
 20
40.75
 30
0.0
 11
-84.0
 21
41.749999999999993
 31
0.0
  0
LINE
  5
646
  8
7A
 10
-89.0
 20
43.75
 30
0.0
 11
-89.0
 21
47.324786644731482
 31
0.0
1001
GENIUS_GENOREF_13
1005
656
  0
CIRCLE
  5
647
  8
0
 10
-89.0
 20
43.75
 30
0.0
 40
2.0
  0
CIRCLE
  5
648
  8
0
 10
-89.0
 20
43.75
 30
0.0
 40
3.0
  0
LINE
  5
649
  8
0
 10
-84.0
 20
41.749999999999993
 30
0.0
 11
-84.0
 21
45.75
 31
0.0
  0
INSERT
  5
64A
  8
0
  2
*U46
 10
0.0
 20
0.0
 30
0.0
  0
LINE
  5
64B
  8
7A
 10
-89.0
 20
43.75
 30
0.0
 11
-92.723037371251166
 21
43.75
 31
0.0
1001
GENIUS_GENOREF_13
1005
656
  0
LINE
  5
64C
  8
7A
 10
-89.0
 20
43.75
 30
0.0
 11
-89.0
 21
40.039917242284787
 31
0.0
1001
GENIUS_GENOREF_13
1005
656
  0
LINE
  5
64D
  8
0
 10
-76.0
 20
46.749999999999993
 30
0.0
 11
-76.0
 21
40.75
 31
0.0
  0
LINE
  5
64E
  8
0
 10
-74.0
 20
50.0
 30
0.0
 11
-74.0
 21
37.5
 31
0.0
  0
INSERT
  5
64F
  8
0
  2
*U47
 10
0.0
 20
0.0
 30
0.0
  0
ATTDEF
  5
650
  8
0
 10
-37.76317379391503
 20
39.255005561783491
 30
0.0
 40
3.0
  1

 72
     2
 11
-37.76317379391503
 21
39.255005561783491
 31
0.0
  3
数量
  2
GEN-TITLE-QTY
 70
     0
  0
LINE
  5
651
  8
0
 10
-34.0
 20
25.0
 30
0.0
 11
0.0
 21
25.0
 31
0.0
  0
LINE
  5
652
  8
0
 10
-54.0
 20
50.0
 30
0.0
 11
-54.0
 21
37.5
 31
0.0
  0
INSERT
  5
653
  8
0
  2
*U48
 10
0.0
 20
0.0
 30
0.0
  0
INSERT
  5
654
  8
0
  2
*U49
 10
0.0
 20
0.0
 30
0.0
  0
INSERT
  5
655
  8
0
  2
*U50
 10
0.0
 20
0.0
 30
0.0
  0
POINT
  5
656
  8
0
 10
-320.5355579819676
 20
-138.11048412682541
 30
0.0
1001
GENIUS_GENODEF_13
1002
{
1000
HIER
1070
    10
1002
}
1002
{
1000
MANEDIT
1070
     0
1002
}
1002
{
1000
NOSEL
1070
     0
1002
}
1002
{
1000
BEHIND
1070
     0
1002
}
1002
{
1000
REACTOR
1002
}
1001
GENIUS_GENOBJ-N-CRS_13
1002
{
1000
OWNER
1000
GEN
1002
}
1001
GENIUS_GENOENT_13
1002
{
1000
MYREF
1005
656
1002
}
1002
{
1000
GRP
1005
0
1002
}
1001
GENIUS_GENOLIS_13
1002
{
1000
ENT
1005
64C
1005
64B
1005
646
1005
643
1002
}
  0
LINE
  5
657
  8
RAHM2
 10
-190.0
 20
29.600000000000019
 30
0.0
 11
-192.42487113059639
 21
25.400000000000041
 31
0.0
  0
LINE
  5
658
  8
RAHM2
 10
-187.57512886940361
 20
25.400000000000041
 30
0.0
 11
-190.0
 21
29.600000000000019
 31
0.0
  0
LINE
  5
659
  8
RAHM2
 10
-192.42487113059639
 20
25.400000000000041
 30
0.0
 11
-187.57512886940361
 21
25.400000000000041
 31
0.0
  0
LINE
  5
65A
  8
RAHM2
 10
-195.0
 20
25.000000000000028
 30
0.0
 11
-94.0
 21
25.000000000000028
 31
0.0
  0
INSERT
  5
65B
  8
0
  2
*U51
 10
0.0
 20
0.0
 30
0.0
  0
TEXT
  5
65C
  8
RAHM2
 10
-190.8155863565801
 20
25.98333333333337
 30
0.0
 40
2.5
  1
1
 72
     1
 11
-190.19058635658021
 21
25.650000000000031
 31
0.0
 73
     1
  0
TEXT
  5
65D
  8
RAHM2
 10
-190.9183316929134
 20
30.98333333333337
 30
0.0
 40
2.5
  1
2
 72
     1
 11
-190.0
 21
30.650000000000031
 31
0.0
 73
     1
  0
TEXT
  5
65E
  8
RAHM2
 10
-190.92677669529661
 20
35.983333333333341
 30
0.0
 40
2.5
  1
3
 72
     1
 11
-190.0
 21
35.650000000000013
 31
0.0
 73
     1
  0
TEXT
  5
65F
  8
RAHM2
 10
-191.0
 20
40.98333333333337
 30
0.0
 40
2.5
  1
4
 72
     1
 11
-190.0
 21
40.650000000000027
 31
0.0
 73
     1
  0
TEXT
  5
660
  8
RAHM2
 10
-190.92677669529661
 20
45.98333333333337
 30
0.0
 40
2.5
  1
5
 72
     1
 11
-190.0
 21
45.650000000000027
 31
0.0
 73
     1
  0
LINE
  5
661
  8
0
 10
-17.0
 20
50.0
 30
0.0
 11
-17.0
 21
0.0
 31
0.0
  0
LINE
  5
662
  8
0
 10
-195.0
 20
0.0
 30
0.0
 11
0.0
 21
0.0
 31
0.0
1001
GENIUS_GENREC_14
1002
{
1000
PYDIR
1011
-184.0
1021
0.0
1031
9.5445205666390278E+234
1021
50.0
1031
0.0
1002
}
1002
{
1000
PXDIR
1011
0.0
1021
0.0
1031
9.5445205666390278E+234
1021
0.0
1031
0.0
1002
}
1002
{
1000
PORI
1011
-184.0
1021
0.0
1031
9.5445205666390278E+234
1021
0.0
1031
0.0
1002
}
1002
{
1000
PINS
1011
-100.5
1021
0.0
1031
9.5445205666390278E+234
1021
25.0
1031
0.0
1002
}
1002
{
1000
HVAL
1000
50
1002
}
1002
{
1000
H
1070
     2
1002
}
1002
{
1000
WVAL
1000
167
1002
}
1002
{
1000
W
1070
     2
1002
}
1002
{
1000
C
1070
     4
1002
}
1001
GENIUS_GENODEF_13
1002
{
1000
HIER
1070
     0
1002
}
1002
{
1000
MANEDIT
1070
     0
1002
}
1002
{
1000
NOSEL
1070
     0
1002
}
1002
{
1000
BEHIND
1070
     0
1002
}
1002
{
1000
REACTOR
1002
}
1001
GENIUS_GENOBJ-N-REC_13
1002
{
1000
OWNER
1000
GEN
1002
}
  0
LINE
  5
663
  8
0
 10
0.0
 20
0.0
 30
0.0
 11
0.0
 21
50.0
 31
0.0
1001
GENIUS_GENREC_14
1002
{
1000
PYDIR
1011
-184.0
1021
0.0
1031
9.5445205666390278E+234
1021
50.0
1031
0.0
1002
}
1002
{
1000
PXDIR
1011
0.0
1021
0.0
1031
9.5445205666390278E+234
1021
0.0
1031
0.0
1002
}
1002
{
1000
PORI
1011
-184.0
1021
0.0
1031
9.5445205666390278E+234
1021
0.0
1031
0.0
1002
}
1002
{
1000
PINS
1011
-100.5
1021
0.0
1031
9.5445205666390278E+234
1021
25.0
1031
0.0
1002
}
1002
{
1000
HVAL
1000
50
1002
}
1002
{
1000
H
1070
     2
1002
}
1002
{
1000
WVAL
1000
167
1002
}
1002
{
1000
W
1070
     2
1002
}
1002
{
1000
C
1070
     4
1002
}
1001
GENIUS_GENODEF_13
1002
{
1000
HIER
1070
     0
1002
}
1002
{
1000
MANEDIT
1070
     0
1002
}
1002
{
1000
NOSEL
1070
     0
1002
}
1002
{
1000
BEHIND
1070
     0
1002
}
1002
{
1000
REACTOR
1002
}
1001
GENIUS_GENOBJ-N-REC_13
1002
{
1000
OWNER
1000
GEN
1002
}
  0
LINE
  5
664
  8
0
 10
0.0
 20
50.0
 30
0.0
 11
-195.0
 21
50.000000000000028
 31
0.0
1001
GENIUS_GENREC_14
1002
{
1000
PYDIR
1011
-184.0
1021
0.0
1031
9.5445205666390278E+234
1021
50.0
1031
0.0
1002
}
1002
{
1000
PXDIR
1011
0.0
1021
0.0
1031
9.5445205666390278E+234
1021
0.0
1031
0.0
1002
}
1002
{
1000
PORI
1011
-184.0
1021
0.0
1031
9.5445205666390278E+234
1021
0.0
1031
0.0
1002
}
1002
{
1000
PINS
1011
-100.5
1021
0.0
1031
9.5445205666390278E+234
1021
25.0
1031
0.0
1002
}
1002
{
1000
HVAL
1000
50
1002
}
1002
{
1000
H
1070
     2
1002
}
1002
{
1000
WVAL
1000
167
1002
}
1002
{
1000
W
1070
     2
1002
}
1002
{
1000
C
1070
     4
1002
}
1001
GENIUS_GENODEF_13
1002
{
1000
HIER
1070
     0
1002
}
1002
{
1000
MANEDIT
1070
     0
1002
}
1002
{
1000
NOSEL
1070
     0
1002
}
1002
{
1000
BEHIND
1070
     0
1002
}
1002
{
1000
REACTOR
1002
}
1001
GENIUS_GENOBJ-N-REC_13
1002
{
1000
OWNER
1000
GEN
1002
}
  0
LINE
  5
665
  8
0
 10
-195.0
 20
50.000000000000028
 30
0.0
 11
-195.0
 21
0.0
 31
0.0
1001
GENIUS_GENREC_14
1002
{
1000
PYDIR
1011
-195.0
1021
0.0
1031
9.5445205666390278E+234
1021
50.0
1031
0.0
1002
}
1002
{
1000
PXDIR
1011
-11.0
1021
0.0
1031
9.5445205666390278E+234
1021
0.0
1031
0.0
1002
}
1002
{
1000
PORI
1011
-195.0
1021
0.0
1031
9.5445205666390278E+234
1021
0.0
1031
0.0
1002
}
1002
{
1000
PINS
1011
-111.5
1021
0.0
1031
9.5445205666390278E+234
1021
25.0
1031
0.0
1002
}
1002
{
1000
HVAL
1000
50
1002
}
1002
{
1000
H
1070
     2
1002
}
1002
{
1000
WVAL
1000
167
1002
}
1002
{
1000
W
1070
     2
1002
}
1002
{
1000
C
1070
     4
1002
}
1001
GENIUS_GENODEF_13
1002
{
1000
HIER
1070
     0
1002
}
1002
{
1000
MANEDIT
1070
     0
1002
}
1002
{
1000
NOSEL
1070
     0
1002
}
1002
{
1000
BEHIND
1070
     0
1002
}
1002
{
1000
REACTOR
1002
}
1001
GENIUS_GENOBJ-N-REC_13
1002
{
1000
OWNER
1000
GEN
1002
}
  0
INSERT
  5
666
  8
0
  2
*U52
 10
0.0
 20
0.0
 30
0.0
  0
INSERT
  5
667
  8
0
  2
*U53
 10
0.0
 20
0.0
 30
0.0
  0
ENDBLK
  5
66A
  8
0
  0
BLOCK
  8
0
  2
GEVCON
 70
     0
 10
0.0
 20
0.0
 30
0.0
  3
GEVCON
  1
GEVCON
  0
ENDBLK
  5
D14
  8
0
  0
BLOCK
  8
0
  2
GEVEP
 70
     0
 10
0.0
 20
0.0
 30
0.0
  3
GEVEP
  1

  0
LINE
  5
D17
  8
0
 10
2.0
 20
-2.0
 30
0.0
 11
-2.0
 21
-2.0
 31
0.0
  0
LINE
  5
D18
  8
0
 10
-2.0
 20
2.0
 30
0.0
 11
2.0
 21
2.0
 31
0.0
  0
LINE
  5
D19
  8
0
 10
2.0
 20
-2.0
 30
0.0
 11
-2.0
 21
2.0
 31
0.0
  0
LINE
  5
D1A
  8
0
 10
-2.0
 20
-2.0
 30
0.0
 11
2.0
 21
2.0
 31
0.0
  0
LINE
  5
D1B
  8
0
 10
-2.0
 20
-2.0
 30
0.0
 11
-2.0
 21
2.0
 31
0.0
  0
LINE
  5
D1C
  8
0
 10
2.0
 20
2.0
 30
0.0
 11
2.0
 21
-2.0
 31
0.0
  0
ENDBLK
  5
D1D
  8
0
  0
BLOCK
  8
0
  2
GEVFRAME
 70
     0
 10
0.0
 20
0.0
 30
0.0
  3
GEVFRAME
  1
GEVFRAME
  0
LINE
  5
D20
  8
0
 10
0.0
 20
0.0
 30
0.0
 11
1.0
 21
0.0
 31
0.0
  0
LINE
  5
D21
  8
0
 10
1.0
 20
0.0
 30
0.0
 11
1.0
 21
1.0
 31
0.0
  0
LINE
  5
D22
  8
0
 10
1.0
 20
1.0
 30
0.0
 11
0.0
 21
1.0
 31
0.0
  0
LINE
  5
D23
  8
0
 10
0.0
 20
1.0
 30
0.0
 11
0.0
 21
0.0
 31
0.0
  0
ENDBLK
  5
D24
  8
0
  0
BLOCK
  8
0
  2
TAKACHI-A4
 70
     0
 10
0.0
 20
0.0
 30
0.0
  3
TAKACHI-A4
  1

  0
TEXT
  5
D2C
  8
0
 10
10.0
 20
54.999999999999943
 30
0.0
 40
2.5
  1
!GENTITLE-LL
  0
TEXT
  5
D2D
  8
0
 10
215.0
 20
15.0
 30
0.0
 40
2.5
  1
!GENTITLE-INSERT
  0
TEXT
  5
D2E
  8
0
 10
215.0
 20
285.00000000000011
 30
0.0
 40
2.5
  1
!GENTITLE-RU
  0
TEXT
  5
D2F
  8
0
 10
215.00000000000011
 20
290.0
 30
0.0
 40
2.5
  1
!GENTITLE-MAX
  0
LINE
  5
D30
  8
0
 10
215.0
 20
290.00000000000011
 30
0.0
 11
20.000000000000028
 21
290.0
 31
0.0
1001
GENIUS_GENREC_14
1002
{
1000
PYDIR
1011
15.00000000000003
1021
0.0
1031
9.5445205666390278E+234
1021
295.0
1031
0.0
1002
}
1002
{
1000
PXDIR
1011
215.0
1021
0.0
1031
9.5445205666390278E+234
1021
15.0
1031
0.0
1002
}
1002
{
1000
PORI
1011
15.0
1021
0.0
1031
9.5445205666390278E+234
1021
15.0
1031
0.0
1002
}
1002
{
1000
PINS
1011
115.0
1021
0.0
1031
9.5445205666390278E+234
1021
155.0
1031
0.0
1002
}
1002
{
1000
HVAL
1000
280
1002
}
1002
{
1000
H
1070
     2
1002
}
1002
{
1000
WVAL
1000
200
1002
}
1002
{
1000
W
1070
     2
1002
}
1002
{
1000
C
1070
     4
1002
}
  0
LINE
  5
D31
  8
0
 10
20.000000000000028
 20
290.0
 30
0.0
 11
19.999999999999972
 21
15.0
 31
0.0
1001
GENIUS_GENREC_14
1002
{
1000
PYDIR
1011
15.00000000000003
1021
0.0
1031
9.5445205666390278E+234
1021
295.0
1031
0.0
1002
}
1002
{
1000
PXDIR
1011
215.0
1021
0.0
1031
9.5445205666390278E+234
1021
15.0
1031
0.0
1002
}
1002
{
1000
PORI
1011
15.0
1021
0.0
1031
9.5445205666390278E+234
1021
15.0
1031
0.0
1002
}
1002
{
1000
PINS
1011
115.0
1021
0.0
1031
9.5445205666390278E+234
1021
155.0
1031
0.0
1002
}
1002
{
1000
HVAL
1000
280
1002
}
1002
{
1000
H
1070
     2
1002
}
1002
{
1000
WVAL
1000
200
1002
}
1002
{
1000
W
1070
     2
1002
}
1002
{
1000
C
1070
     4
1002
}
  0
LINE
  5
D32
  8
0
 10
19.999999999999972
 20
15.0
 30
0.0
 11
215.0
 21
15.0
 31
0.0
1001
GENIUS_GENREC_14
1002
{
1000
PYDIR
1011
15.00000000000003
1021
0.0
1031
9.5445205666390278E+234
1021
295.0
1031
0.0
1002
}
1002
{
1000
PXDIR
1011
215.0
1021
0.0
1031
9.5445205666390278E+234
1021
15.0
1031
0.0
1002
}
1002
{
1000
PORI
1011
15.0
1021
0.0
1031
9.5445205666390278E+234
1021
15.0
1031
0.0
1002
}
1002
{
1000
PINS
1011
115.0
1021
0.0
1031
9.5445205666390278E+234
1021
155.0
1031
0.0
1002
}
1002
{
1000
HVAL
1000
280
1002
}
1002
{
1000
H
1070
     2
1002
}
1002
{
1000
WVAL
1000
200
1002
}
1002
{
1000
W
1070
     2
1002
}
1002
{
1000
C
1070
     4
1002
}
  0
LINE
  5
D33
  8
0
 10
215.0
 20
15.0
 30
0.0
 11
215.00000000000011
 21
290.00000000000011
 31
0.0
1001
GENIUS_GENREC_14
1002
{
1000
PYDIR
1011
15.00000000000003
1021
0.0
1031
9.5445205666390278E+234
1021
295.0
1031
0.0
1002
}
1002
{
1000
PXDIR
1011
215.0
1021
0.0
1031
9.5445205666390278E+234
1021
15.0
1031
0.0
1002
}
1002
{
1000
PORI
1011
15.0
1021
0.0
1031
9.5445205666390278E+234
1021
15.0
1031
0.0
1002
}
1002
{
1000
PINS
1011
115.0
1021
0.0
1031
9.5445205666390278E+234
1021
155.0
1031
0.0
1002
}
1002
{
1000
HVAL
1000
280
1002
}
1002
{
1000
H
1070
     2
1002
}
1002
{
1000
WVAL
1000
200
1002
}
1002
{
1000
W
1070
     2
1002
}
1002
{
1000
C
1070
     4
1002
}
  0
LINE
  5
D34
  8
0
 10
171.00000000000011
 20
285.00000000000011
 30
0.0
 11
215.00000000000011
 21
285.00000000000011
 31
0.0
  0
LINE
  5
D35
  8
0
 10
171.00000000000011
 20
290.00000000000011
 30
0.0
 11
171.00000000000011
 21
285.00000000000011
 31
0.0
  0
TEXT
  8
0
  40
2.5
  5
141B
  72
0
  71
0
 10
214.359
 20
282.859
 30
0.000000
  1
(文書番号：TY-34)2004.10.29
  0
ENDBLK
  5
D39
  8
0
  0
BLOCK
  8
0
  2
*D12
 70
     1
 10
0.0
 20
0.0
 30
0.0
  3
*D12
  1

  0
LINE
  5
13B4
  8
AM_5
 10
264.73897765938949
 20
524.00599772763906
 30
0.0
 11
264.73897765938949
 21
548.00599872763905
 31
0.0
  0
LINE
  5
13B5
  8
AM_5
 10
286.7389776593896
 20
524.00599772763906
 30
0.0
 11
286.7389776593896
 21
548.00599872763905
 31
0.0
  0
LINE
  5
13B6
  8
AM_5
 10
269.7389776593896
 20
546.00599872763905
 30
0.0
 11
281.73897765938949
 21
546.00599872763905
 31
0.0
  0
INSERT
  5
13B7
  8
AM_5
  2
GENDOT
 10
264.73897765938949
 20
546.00599872763905
 30
0.0
 41
5.0
 42
5.0
 43
5.0
 50
180.0
  0
INSERT
  5
13B8
  8
AM_5
  2
_OPEN30
 10
286.7389776593896
 20
546.00599872763905
 30
0.0
 41
5.0
 42
5.0
 43
5.0
  0
TEXT
  8
AM_5
  40
7
  5
141C
  62
2
  72
0
  71
0
 10
275.739
 20
543.407
 30
0.000000
  1
22
  0
POINT
  5
13BA
  8
DEFPOINTS
 62
     0
 10
264.73897765938949
 20
522.00599772763906
 30
0.0
  0
POINT
  5
13BB
  8
DEFPOINTS
 62
     0
 10
286.7389776593896
 20
522.00599772763906
 30
0.0
  0
POINT
  5
13BC
  8
DEFPOINTS
 62
     0
 10
286.7389776593896
 20
546.00599872763905
 30
0.0
  0
ENDBLK
  5
D69
  8
0
  0
BLOCK
  8
0
  2
*D13
 70
     1
 10
0.0
 20
0.0
 30
0.0
  3
*D13
  1

  0
LINE
  5
13BD
  8
AM_5
 10
141.1788926049062
 20
524.00599772763906
 30
0.0
 11
141.1788926049062
 21
548.00599872763905
 31
0.0
  0
LINE
  5
13BE
  8
AM_5
 10
188.1788926049062
 20
524.00599772763906
 30
0.0
 11
188.1788926049062
 21
548.00599872763905
 31
0.0
  0
LINE
  5
13BF
  8
AM_5
 10
146.1788926049062
 20
546.00599872763905
 30
0.0
 11
183.1788926049062
 21
546.00599872763905
 31
0.0
  0
INSERT
  5
13C0
  8
AM_5
  2
_OPEN30
 10
141.1788926049062
 20
546.00599872763905
 30
0.0
 41
5.0
 42
5.0
 43
5.0
 50
180.0
  0
INSERT
  5
13C1
  8
AM_5
  2
GENDOT
 10
188.1788926049062
 20
546.00599872763905
 30
0.0
 41
5.0
 42
5.0
 43
5.0
  0
TEXT
  8
AM_5
  40
7
  5
141D
  62
2
  72
0
  71
0
 10
164.679
 20
543.406
 30
0.000000
  1
47
  0
POINT
  5
13C3
  8
DEFPOINTS
 62
     0
 10
141.1788926049062
 20
522.00599772763906
 30
0.0
  0
POINT
  5
13C4
  8
DEFPOINTS
 62
     0
 10
188.1788926049062
 20
522.00599772763906
 30
0.0
  0
POINT
  5
13C5
  8
DEFPOINTS
 62
     0
 10
188.1788926049062
 20
546.00599872763905
 30
0.0
  0
ENDBLK
  5
DA1
  8
0
  0
BLOCK
  8
0
  2
*D14
 70
     1
 10
0.0
 20
0.0
 30
0.0
  3
*D14
  1

  0
LINE
  5
13C6
  8
AM_5
 10
191.1788926049062
 20
524.00599772763906
 30
0.0
 11
191.1788926049062
 21
548.00599872763905
 31
0.0
  0
LINE
  5
13C7
  8
AM_5
 10
188.1788926049062
 20
524.00599772763906
 30
0.0
 11
188.1788926049062
 21
548.00599872763905
 31
0.0
  0
LINE
  5
13C8
  8
AM_5
 10
196.1788926049062
 20
546.00599872763905
 30
0.0
 11
201.1788926049062
 21
546.00599872763905
 31
0.0
  0
LINE
  5
13C9
  8
AM_5
 10
183.1788926049062
 20
546.00599872763905
 30
0.0
 11
178.1788926049062
 21
546.00599872763905
 31
0.0
  0
LINE
  5
13CA
  8
AM_5
 10
191.1788926049062
 20
546.00599872763905
 30
0.0
 11
188.1788926049062
 21
546.00599872763905
 31
0.0
  0
INSERT
  5
13CB
  8
AM_5
  2
_OPEN30
 10
191.1788926049062
 20
546.00599872763905
 30
0.0
 41
5.0
 42
5.0
 43
5.0
 50
180.0
  0
INSERT
  5
13CC
  8
AM_5
  2
GENDOT
 10
188.1788926049062
 20
546.00599872763905
 30
0.0
 41
5.0
 42
5.0
 43
5.0
  0
TEXT
  8
AM_5
  40
7
  5
141E
  62
2
  72
0
  71
0
 10
189.679
 20
543.406
 30
0.000000
  1
3
  0
POINT
  5
13CE
  8
DEFPOINTS
 62
     0
 10
191.1788926049062
 20
522.00599772763906
 30
0.0
  0
POINT
  5
13CF
  8
DEFPOINTS
 62
     0
 10
188.1788926049062
 20
522.00599772763906
 30
0.0
  0
POINT
  5
13D0
  8
DEFPOINTS
 62
     0
 10
188.1788926049062
 20
546.00599872763905
 30
0.0
  0
ENDBLK
  5
DDF
  8
0
  0
BLOCK
  8
0
  2
GENDOT
 70
     0
 10
0.0
 20
0.0
 30
0.0
  3
GENDOT
  1

  0
LINE
  5
E04
  8
0
 10
0.0
 20
0.0
 30
0.0
 11
-1.0
 21
0.0
 31
0.0
  0
POLYLINE
  5
E05
  8
0
 66
     1
 10
0.0
 20
0.0
 30
0.0
 70
     1
 40
0.25
 41
0.25
  0
VERTEX
  5
13D1
  8
0
 10
-0.125
 20
0.0
 30
0.0
 42
1.0
  0
VERTEX
  5
13D2
  8
0
 10
0.125
 20
0.0
 30
0.0
 42
1.0
  0
SEQEND
  5
13D3
  8
0
  0
ENDBLK
  5
E07
  8
0
  0
BLOCK
  8
0
  2
*D16
 70
     1
 10
0.0
 20
0.0
 30
0.0
  3
*D16
  1

  0
LINE
  5
13D4
  8
AM_5
 10
264.73897765938949
 20
524.00599772763906
 30
0.0
 11
264.73897765938949
 21
548.00599872763905
 31
0.0
  0
LINE
  5
13D5
  8
AM_5
 10
261.7389776593896
 20
524.00599772763906
 30
0.0
 11
261.7389776593896
 21
548.00599872763905
 31
0.0
  0
LINE
  5
13D6
  8
AM_5
 10
269.7389776593896
 20
546.00599872763905
 30
0.0
 11
274.73897765938949
 21
546.00599872763905
 31
0.0
  0
LINE
  5
13D7
  8
AM_5
 10
256.73897765938949
 20
546.00599872763905
 30
0.0
 11
251.73897765938949
 21
546.00599872763905
 31
0.0
  0
LINE
  5
13D8
  8
AM_5
 10
264.73897765938949
 20
546.00599872763905
 30
0.0
 11
261.7389776593896
 21
546.00599872763905
 31
0.0
  0
INSERT
  5
13D9
  8
AM_5
  2
GENDOT
 10
264.73897765938949
 20
546.00599872763905
 30
0.0
 41
5.0
 42
5.0
 43
5.0
 50
180.0
  0
INSERT
  5
13DA
  8
AM_5
  2
_OPEN30
 10
261.7389776593896
 20
546.00599872763905
 30
0.0
 41
5.0
 42
5.0
 43
5.0
  0
TEXT
  8
AM_5
  40
7
  5
141F
  62
2
  72
0
  71
0
 10
263.239
 20
543.406
 30
0.000000
  1
3
  0
POINT
  5
13DC
  8
DEFPOINTS
 62
     0
 10
264.73897765938949
 20
522.00599772763906
 30
0.0
  0
POINT
  5
13DD
  8
DEFPOINTS
 62
     0
 10
261.7389776593896
 20
522.00599772763906
 30
0.0
  0
POINT
  5
13DE
  8
DEFPOINTS
 62
     0
 10
261.7389776593896
 20
546.00599872763905
 30
0.0
  0
ENDBLK
  5
EEE
  8
0
  0
BLOCK
  8
0
  2
*D17
 70
     1
 10
0.0
 20
0.0
 30
0.0
  3
*D17
  1

  0
LINE
  5
FE1
  8
AM_5
 10
261.7389776593896
 20
204.92724664241479
 30
0.0
 11
261.7389776593896
 21
228.92724764241481
 31
0.0
  0
LINE
  5
FE2
  8
AM_5
 10
286.7389776593896
 20
204.92724664241479
 30
0.0
 11
286.7389776593896
 21
228.92724764241481
 31
0.0
  0
LINE
  5
FE3
  8
AM_5
 10
266.73897765938949
 20
226.92724764241481
 30
0.0
 11
281.73897765938949
 21
226.92724764241481
 31
0.0
  0
INSERT
  5
FE4
  8
AM_5
  2
_OPEN30
 10
261.7389776593896
 20
226.92724764241481
 30
0.0
 41
5.0
 42
5.0
 43
5.0
 50
180.0
  0
INSERT
  5
FE5
  8
AM_5
  2
_OPEN30
 10
286.7389776593896
 20
226.92724764241481
 30
0.0
 41
5.0
 42
5.0
 43
5.0
  0
INSERT
  5
FE6
  8
0
  2
*U56
 10
0.0
 20
0.0
 30
0.0
  0
POINT
  5
FE7
  8
DEFPOINTS
 62
     0
 10
261.7389776593896
 20
202.92724664241479
 30
0.0
  0
POINT
  5
FE8
  8
DEFPOINTS
 62
     0
 10
286.7389776593896
 20
202.92724664241479
 30
0.0
  0
POINT
  5
FE9
  8
DEFPOINTS
 62
     0
 10
286.7389776593896
 20
226.92724764241481
 30
0.0
  0
ENDBLK
  5
F44
  8
0
  0
BLOCK
  8
0
  2
*D18
 70
     1
 10
0.0
 20
0.0
 30
0.0
  3
*D18
  1

  0
LINE
  5
FD8
  8
AM_5
 10
259.7389776593896
 20
202.92724664241479
 30
0.0
 11
235.73897665938949
 21
202.92724664241479
 31
0.0
  0
LINE
  5
FD9
  8
AM_5
 10
259.7389776593896
 20
152.92724664241479
 30
0.0
 11
235.73897665938949
 21
152.92724664241479
 31
0.0
  0
LINE
  5
FDA
  8
AM_5
 10
237.73897665938949
 20
197.92724664241479
 30
0.0
 11
237.73897665938949
 21
157.92724664241479
 31
0.0
  0
INSERT
  5
FDB
  8
AM_5
  2
_OPEN30
 10
237.73897665938949
 20
202.92724664241479
 30
0.0
 41
5.0
 42
5.0
 43
5.0
 50
90.0
  0
INSERT
  5
FDC
  8
AM_5
  2
_OPEN30
 10
237.73897665938949
 20
152.92724664241479
 30
0.0
 41
5.0
 42
5.0
 43
5.0
 50
270.0
  0
INSERT
  5
FDD
  8
0
  2
*U55
 10
0.0
 20
0.0
 30
0.0
  0
POINT
  5
FDE
  8
DEFPOINTS
 62
     0
 10
261.7389776593896
 20
202.92724664241479
 30
0.0
  0
POINT
  5
FDF
  8
DEFPOINTS
 62
     0
 10
261.7389776593896
 20
152.92724664241479
 30
0.0
  0
POINT
  5
FE0
  8
DEFPOINTS
 62
     0
 10
237.73897665938949
 20
152.92724664241479
 30
0.0
  0
ENDBLK
  5
F7C
  8
0
  0
BLOCK
  8
0
  2
*D19
 70
     1
 10
0.0
 20
0.0
 30
0.0
  3
*D19
  1

  0
LINE
  5
102C
  8
AM_5
 10
153.62889260490621
 20
497.50599772763923
 30
0.0
 11
129.6288926049061
 21
497.50599772763923
 31
0.0
  0
LINE
  5
102D
  8
AM_5
 10
153.62889260490621
 20
297.50599772763923
 30
0.0
 11
129.6288926049061
 21
297.50599772763923
 31
0.0
  0
LINE
  5
102E
  8
AM_5
 10
131.62889260490621
 20
492.50599772763911
 30
0.0
 11
131.6288926049061
 21
302.50599772763923
 31
0.0
  0
INSERT
  5
102F
  8
AM_5
  2
_OPEN30
 10
131.62889260490621
 20
497.50599772763923
 30
0.0
 41
5.0
 42
5.0
 43
5.0
 50
90.0
  0
INSERT
  5
1030
  8
AM_5
  2
_OPEN30
 10
131.6288926049061
 20
297.50599772763923
 30
0.0
 41
5.0
 42
5.0
 43
5.0
 50
270.0
  0
INSERT
  5
1031
  8
0
  2
*U57
 10
0.0
 20
0.0
 30
0.0
  0
POINT
  5
1032
  8
DEFPOINTS
 62
     0
 10
155.6288926049061
 20
497.50599772763923
 30
0.0
  0
POINT
  5
1033
  8
DEFPOINTS
 62
     0
 10
155.6288926049061
 20
297.50599772763923
 30
0.0
  0
POINT
  5
1034
  8
DEFPOINTS
 62
     0
 10
131.6288926049061
 20
297.50599772763923
 30
0.0
  0
ENDBLK
  5
1005
  8
0
  0
BLOCK
  8
0
  2
*D20
 70
     1
 10
0.0
 20
0.0
 30
0.0
  3
*D20
  1

  0
LINE
  5
1056
  8
AM_5
 10
153.62889260490621
 20
297.50599772763923
 30
0.0
 11
129.6288926049061
 21
297.50599772763923
 31
0.0
  0
LINE
  5
1057
  8
AM_5
 10
139.1788926049062
 20
273.00599772763923
 30
0.0
 11
129.6288926049061
 21
273.00599772763923
 31
0.0
  0
LINE
  5
1058
  8
AM_5
 10
131.62889260490621
 20
292.50599772763923
 30
0.0
 11
131.62889260490621
 21
278.00599772763923
 31
0.0
  0
INSERT
  5
1059
  8
AM_5
  2
_OPEN30
 10
131.62889260490621
 20
297.50599772763923
 30
0.0
 41
5.0
 42
5.0
 43
5.0
 50
90.0
  0
INSERT
  5
105A
  8
AM_5
  2
_OPEN30
 10
131.62889260490621
 20
273.00599772763923
 30
0.0
 41
5.0
 42
5.0
 43
5.0
 50
270.0
  0
INSERT
  5
105B
  8
0
  2
*U58
 10
0.0
 20
0.0
 30
0.0
  0
POINT
  5
105C
  8
DEFPOINTS
 62
     0
 10
155.6288926049061
 20
297.50599772763923
 30
0.0
  0
POINT
  5
105D
  8
DEFPOINTS
 62
     0
 10
141.1788926049062
 20
273.00599772763923
 30
0.0
  0
POINT
  5
105E
  8
DEFPOINTS
 62
     0
 10
131.62889260490621
 20
273.00599772763923
 30
0.0
  0
ENDBLK
  5
1041
  8
0
  0
BLOCK
  8
0
  2
*D21
 70
     1
 10
0.0
 20
0.0
 30
0.0
  3
*D21
  1

  0
LINE
  5
1086
  8
AM_5
 10
139.1788926049062
 20
522.00599772763906
 30
0.0
 11
129.62889260490601
 21
522.00599772763906
 31
0.0
  0
LINE
  5
1087
  8
AM_5
 10
153.62889260490621
 20
497.50599772763923
 30
0.0
 11
129.62889260490601
 21
497.50599772763923
 31
0.0
  0
LINE
  5
1088
  8
AM_5
 10
131.62889260490601
 20
517.00599772763906
 30
0.0
 11
131.62889260490601
 21
502.50599772763911
 31
0.0
  0
INSERT
  5
1089
  8
AM_5
  2
_OPEN30
 10
131.62889260490601
 20
522.00599772763906
 30
0.0
 41
5.0
 42
5.0
 43
5.0
 50
90.0
  0
INSERT
  5
108A
  8
AM_5
  2
_OPEN30
 10
131.62889260490601
 20
497.50599772763923
 30
0.0
 41
5.0
 42
5.0
 43
5.0
 50
270.0
  0
INSERT
  5
108B
  8
0
  2
*U59
 10
0.0
 20
0.0
 30
0.0
  0
POINT
  5
108C
  8
DEFPOINTS
 62
     0
 10
141.1788926049062
 20
522.00599772763906
 30
0.0
  0
POINT
  5
108D
  8
DEFPOINTS
 62
     0
 10
155.6288926049061
 20
497.50599772763923
 30
0.0
  0
POINT
  5
108E
  8
DEFPOINTS
 62
     0
 10
131.62889260490601
 20
497.50599772763923
 30
0.0
  0
ENDBLK
  5
1071
  8
0
  0
BLOCK
  8
0
  2
*D22
 70
     1
 10
0.0
 20
0.0
 30
0.0
  3
*D22
  1

  0
LINE
  5
10D4
  8
AM_5
 10
161.1788926049062
 20
289.95599772763921
 30
0.0
 11
161.1788926049062
 21
247.00599672763909
 31
0.0
  0
LINE
  5
10D5
  8
AM_5
 10
141.1788926049062
 20
271.00599772763923
 30
0.0
 11
141.1788926049062
 21
247.00599672763909
 31
0.0
  0
LINE
  5
10D6
  8
AM_5
 10
156.1788926049062
 20
249.00599672763909
 30
0.0
 11
146.1788926049062
 21
249.00599672763909
 31
0.0
  0
INSERT
  5
10D7
  8
AM_5
  2
_OPEN30
 10
161.1788926049062
 20
249.00599672763909
 30
0.0
 41
5.0
 42
5.0
 43
5.0
  0
INSERT
  5
10D8
  8
AM_5
  2
_OPEN30
 10
141.1788926049062
 20
249.00599672763909
 30
0.0
 41
5.0
 42
5.0
 43
5.0
 50
180.0
  0
INSERT
  5
10D9
  8
0
  2
*U60
 10
0.0
 20
0.0
 30
0.0
  0
POINT
  5
10DA
  8
DEFPOINTS
 62
     0
 10
161.1788926049062
 20
291.95599772763921
 30
0.0
  0
POINT
  5
10DB
  8
DEFPOINTS
 62
     0
 10
141.1788926049062
 20
273.00599772763923
 30
0.0
  0
POINT
  5
10DC
  8
DEFPOINTS
 62
     0
 10
141.1788926049062
 20
249.00599672763909
 30
0.0
  0
ENDBLK
  5
10AD
  8
0
  0
BLOCK
  8
0
  2
*D23
 70
     1
 10
0.0
 20
0.0
 30
0.0
  3
*D23
  1

  0
LINE
  5
10FE
  8
AM_5
 10
161.1788926049062
 20
289.95599772763921
 30
0.0
 11
161.1788926049062
 21
247.00599672763931
 31
0.0
  0
LINE
  5
10FF
  8
AM_5
 10
191.1788926049062
 20
271.00599772763923
 30
0.0
 11
191.1788926049062
 21
247.00599672763931
 31
0.0
  0
LINE
  5
1100
  8
AM_5
 10
166.1788926049062
 20
249.00599672763931
 30
0.0
 11
186.1788926049062
 21
249.00599672763931
 31
0.0
  0
INSERT
  5
1101
  8
AM_5
  2
_OPEN30
 10
161.1788926049062
 20
249.00599672763931
 30
0.0
 41
5.0
 42
5.0
 43
5.0
 50
180.0
  0
INSERT
  5
1102
  8
AM_5
  2
_OPEN30
 10
191.1788926049062
 20
249.00599672763931
 30
0.0
 41
5.0
 42
5.0
 43
5.0
  0
INSERT
  5
1103
  8
0
  2
*U61
 10
0.0
 20
0.0
 30
0.0
  0
POINT
  5
1104
  8
DEFPOINTS
 62
     0
 10
161.1788926049062
 20
291.95599772763921
 30
0.0
  0
POINT
  5
1105
  8
DEFPOINTS
 62
     0
 10
191.1788926049062
 20
273.00599772763923
 30
0.0
  0
POINT
  5
1106
  8
DEFPOINTS
 62
     0
 10
191.1788926049062
 20
249.00599672763931
 30
0.0
  0
ENDBLK
  5
10E9
  8
0
  0
BLOCK
  8
0
  2
*D24
 70
     1
 10
0.0
 20
0.0
 30
0.0
  3
*D24
  1

  0
LINE
  5
113A
  8
AM_5
 10
141.1788926049062
 20
524.00599772763906
 30
0.0
 11
141.1788926049062
 21
568.00599872763917
 31
0.0
  0
LINE
  5
113B
  8
AM_5
 10
191.1788926049062
 20
524.00599772763906
 30
0.0
 11
191.1788926049062
 21
568.00599872763917
 31
0.0
  0
LINE
  5
113C
  8
AM_5
 10
146.1788926049062
 20
566.00599872763905
 30
0.0
 11
186.1788926049062
 21
566.00599872763905
 31
0.0
  0
INSERT
  5
113D
  8
AM_5
  2
_OPEN30
 10
141.1788926049062
 20
566.00599872763905
 30
0.0
 41
5.0
 42
5.0
 43
5.0
 50
180.0
  0
INSERT
  5
113E
  8
AM_5
  2
_OPEN30
 10
191.1788926049062
 20
566.00599872763905
 30
0.0
 41
5.0
 42
5.0
 43
5.0
  0
INSERT
  5
113F
  8
0
  2
*U62
 10
0.0
 20
0.0
 30
0.0
  0
POINT
  5
1140
  8
DEFPOINTS
 62
     0
 10
141.1788926049062
 20
522.00599772763906
 30
0.0
  0
POINT
  5
1141
  8
DEFPOINTS
 62
     0
 10
191.1788926049062
 20
522.00599772763906
 30
0.0
  0
POINT
  5
1142
  8
DEFPOINTS
 62
     0
 10
191.1788926049062
 20
566.00599872763905
 30
0.0
  0
ENDBLK
  5
1125
  8
0
  0
BLOCK
  8
0
  2
*D25
 70
     1
 10
0.0
 20
0.0
 30
0.0
  3
*D25
  1

  0
LINE
  5
1172
  8
AM_5
 10
139.1788926049062
 20
522.00599772763906
 30
0.0
 11
109.6288926049061
 21
522.00599772763906
 31
0.0
  0
LINE
  5
1173
  8
AM_5
 10
139.1788926049062
 20
273.00599772763923
 30
0.0
 11
109.628892604906
 21
273.00599772763923
 31
0.0
  0
LINE
  5
1174
  8
AM_5
 10
111.6288926049061
 20
517.00599772763906
 30
0.0
 11
111.628892604906
 21
278.00599772763923
 31
0.0
  0
INSERT
  5
1175
  8
AM_5
  2
_OPEN30
 10
111.6288926049061
 20
522.00599772763906
 30
0.0
 41
5.0
 42
5.0
 43
5.0
 50
90.0
  0
INSERT
  5
1176
  8
AM_5
  2
_OPEN30
 10
111.628892604906
 20
273.00599772763923
 30
0.0
 41
5.0
 42
5.0
 43
5.0
 50
270.0
  0
INSERT
  5
1177
  8
0
  2
*U63
 10
0.0
 20
0.0
 30
0.0
  0
POINT
  5
1178
  8
DEFPOINTS
 62
     0
 10
141.1788926049062
 20
522.00599772763906
 30
0.0
  0
POINT
  5
1179
  8
DEFPOINTS
 62
     0
 10
141.1788926049062
 20
273.00599772763923
 30
0.0
  0
POINT
  5
117A
  8
DEFPOINTS
 62
     0
 10
111.628892604906
 20
273.00599772763923
 30
0.0
  0
ENDBLK
  5
115D
  8
0
  0
BLOCK
  8
0
  2
*D26
 70
     1
 10
0.0
 20
0.0
 30
0.0
  3
*D26
  1

  0
LINE
  5
11B1
  8
AM_5
 10
168.12466027240441
 20
500.46552666129332
 30
0.0
 11
205.07896857530659
 21
516.21142400211318
 31
0.0
  0
LINE
  5
11B2
  8
AM_5
 10
205.07896857530659
 20
516.21142400211318
 30
0.0
 11
222.77896857530649
 21
516.21142400211318
 31
0.0
  0
INSERT
  5
11B3
  8
AM_5
  2
_OPEN30
 10
163.5248141349883
 20
498.50557372509849
 30
0.0
 41
5.0
 42
5.0
 43
5.0
 50
203.0784163822911
  0
INSERT
  5
11B4
  8
0
  2
*U64
 10
0.0
 20
0.0
 30
0.0
  0
POINT
  5
11B5
  8
DEFPOINTS
 62
     0
 10
163.5248141349883
 20
498.50557372509849
 30
0.0
  0
POINT
  5
11B6
  8
DEFPOINTS
 62
     0
 10
158.8329710748238
 20
496.50642173017962
 30
0.0
  0
ENDBLK
  5
118D
  8
0
  0
BLOCK
  8
0
  2
*D27
 70
     1
 10
0.0
 20
0.0
 30
0.0
  3
*D27
  1

  0
LINE
  5
1242
  8
AM_5
 10
288.73897765938949
 20
522.00599772763906
 30
0.0
 11
312.73897765938949
 21
522.00599772763906
 31
0.0
  0
LINE
  5
1243
  8
AM_5
 10
288.73897765938949
 20
497.50599772763923
 30
0.0
 11
312.73897765938949
 21
497.50599772763923
 31
0.0
  0
LINE
  5
1244
  8
AM_5
 10
310.73897765938949
 20
517.00599772763906
 30
0.0
 11
310.73897765938949
 21
502.50599772763911
 31
0.0
  0
INSERT
  5
1245
  8
AM_5
  2
_OPEN30
 10
310.73897765938949
 20
522.00599772763906
 30
0.0
 41
5.0
 42
5.0
 43
5.0
 50
90.0
  0
INSERT
  5
1246
  8
AM_5
  2
_OPEN30
 10
310.73897765938949
 20
497.50599772763923
 30
0.0
 41
5.0
 42
5.0
 43
5.0
 50
270.0
  0
INSERT
  5
1247
  8
0
  2
*U65
 10
0.0
 20
0.0
 30
0.0
  0
POINT
  5
1248
  8
DEFPOINTS
 62
     0
 10
286.7389776593896
 20
522.00599772763906
 30
0.0
  0
POINT
  5
1249
  8
DEFPOINTS
 62
     0
 10
286.7389776593896
 20
497.50599772763923
 30
0.0
  0
POINT
  5
124A
  8
DEFPOINTS
 62
     0
 10
310.73897765938949
 20
497.50599772763923
 30
0.0
  0
ENDBLK
  5
121B
  8
0
  0
BLOCK
  8
0
  2
*D28
 70
     1
 10
0.0
 20
0.0
 30
0.0
  3
*D28
  1

  0
LINE
  5
126C
  8
AM_5
 10
288.03576635529259
 20
447.50599772763923
 30
0.0
 11
312.73897765938949
 21
447.50599772763923
 31
0.0
  0
LINE
  5
126D
  8
AM_5
 10
288.73897765938949
 20
497.50599772763923
 30
0.0
 11
312.73897765938949
 21
497.50599772763923
 31
0.0
  0
LINE
  5
126E
  8
AM_5
 10
310.73897765938949
 20
452.50599772763911
 30
0.0
 11
310.73897765938949
 21
492.50599772763923
 31
0.0
  0
INSERT
  5
126F
  8
AM_5
  2
_OPEN30
 10
310.73897765938949
 20
447.50599772763923
 30
0.0
 41
5.0
 42
5.0
 43
5.0
 50
270.0
  0
INSERT
  5
1270
  8
AM_5
  2
_OPEN30
 10
310.73897765938949
 20
497.50599772763923
 30
0.0
 41
5.0
 42
5.0
 43
5.0
 50
90.0
  0
INSERT
  5
1271
  8
0
  2
*U66
 10
0.0
 20
0.0
 30
0.0
  0
POINT
  5
1272
  8
DEFPOINTS
 62
     0
 10
286.03576635529248
 20
447.50599772763923
 30
0.0
  0
POINT
  5
1273
  8
DEFPOINTS
 62
     0
 10
286.7389776593896
 20
497.50599772763923
 30
0.0
  0
POINT
  5
1274
  8
DEFPOINTS
 62
     0
 10
310.73897765938949
 20
497.50599772763923
 30
0.0
  0
ENDBLK
  5
1257
  8
0
  0
BLOCK
  8
0
  2
*D29
 70
     1
 10
0.0
 20
0.0
 30
0.0
  3
*D29
  1

  0
LINE
  5
129C
  8
AM_5
 10
287.99606445305432
 20
347.50599772763923
 30
0.0
 11
312.73897765938938
 21
347.50599772763923
 31
0.0
  0
LINE
  5
129D
  8
AM_5
 10
288.03576635529259
 20
447.50599772763923
 30
0.0
 11
312.73897765938949
 21
447.50599772763923
 31
0.0
  0
LINE
  5
129E
  8
AM_5
 10
310.73897765938938
 20
352.50599772763923
 30
0.0
 11
310.73897765938949
 21
442.50599772763923
 31
0.0
  0
INSERT
  5
129F
  8
AM_5
  2
_OPEN30
 10
310.73897765938938
 20
347.50599772763923
 30
0.0
 41
5.0
 42
5.0
 43
5.0
 50
270.0
  0
INSERT
  5
12A0
  8
AM_5
  2
_OPEN30
 10
310.73897765938949
 20
447.50599772763923
 30
0.0
 41
5.0
 42
5.0
 43
5.0
 50
90.0
  0
INSERT
  5
12A1
  8
0
  2
*U67
 10
0.0
 20
0.0
 30
0.0
  0
POINT
  5
12A2
  8
DEFPOINTS
 62
     0
 10
285.99606445305432
 20
347.50599772763923
 30
0.0
  0
POINT
  5
12A3
  8
DEFPOINTS
 62
     0
 10
286.03576635529248
 20
447.50599772763923
 30
0.0
  0
POINT
  5
12A4
  8
DEFPOINTS
 62
     0
 10
310.73897765938949
 20
447.50599772763923
 30
0.0
  0
ENDBLK
  5
1287
  8
0
  0
BLOCK
  8
0
  2
*D30
 70
     1
 10
0.0
 20
0.0
 30
0.0
  3
*D30
  1

  0
LINE
  5
12CC
  8
AM_5
 10
288.12712184495598
 20
297.50599772763923
 30
0.0
 11
312.7389776593896
 21
297.50599772763923
 31
0.0
  0
LINE
  5
12CD
  8
AM_5
 10
287.99606445305432
 20
347.50599772763923
 30
0.0
 11
312.7389776593896
 21
347.50599772763923
 31
0.0
  0
LINE
  5
12CE
  8
AM_5
 10
310.7389776593896
 20
302.50599772763923
 30
0.0
 11
310.7389776593896
 21
342.50599772763923
 31
0.0
  0
INSERT
  5
12CF
  8
AM_5
  2
_OPEN30
 10
310.7389776593896
 20
297.50599772763923
 30
0.0
 41
5.0
 42
5.0
 43
5.0
 50
270.0
  0
INSERT
  5
12D0
  8
AM_5
  2
_OPEN30
 10
310.7389776593896
 20
347.50599772763923
 30
0.0
 41
5.0
 42
5.0
 43
5.0
 50
90.0
  0
INSERT
  5
12D1
  8
0
  2
*U68
 10
0.0
 20
0.0
 30
0.0
  0
POINT
  5
12D2
  8
DEFPOINTS
 62
     0
 10
286.12712184495598
 20
297.50599772763923
 30
0.0
  0
POINT
  5
12D3
  8
DEFPOINTS
 62
     0
 10
285.99606445305432
 20
347.50599772763923
 30
0.0
  0
POINT
  5
12D4
  8
DEFPOINTS
 62
     0
 10
310.7389776593896
 20
347.50599772763923
 30
0.0
  0
ENDBLK
  5
12B7
  8
0
  0
BLOCK
  8
0
  2
*D31
 70
     1
 10
0.0
 20
0.0
 30
0.0
  3
*D31
  1

  0
LINE
  5
12FC
  8
AM_5
 10
288.73897765938949
 20
273.00599772763923
 30
0.0
 11
312.7389776593896
 21
273.00599772763923
 31
0.0
  0
LINE
  5
12FD
  8
AM_5
 10
288.12712184495598
 20
297.50599772763923
 30
0.0
 11
312.7389776593896
 21
297.50599772763923
 31
0.0
  0
LINE
  5
12FE
  8
AM_5
 10
310.7389776593896
 20
278.00599772763923
 30
0.0
 11
310.7389776593896
 21
292.50599772763923
 31
0.0
  0
INSERT
  5
12FF
  8
AM_5
  2
_OPEN30
 10
310.7389776593896
 20
273.00599772763923
 30
0.0
 41
5.0
 42
5.0
 43
5.0
 50
270.0
  0
INSERT
  5
1300
  8
AM_5
  2
_OPEN30
 10
310.7389776593896
 20
297.50599772763923
 30
0.0
 41
5.0
 42
5.0
 43
5.0
 50
90.0
  0
INSERT
  5
1301
  8
0
  2
*U69
 10
0.0
 20
0.0
 30
0.0
  0
POINT
  5
1302
  8
DEFPOINTS
 62
     0
 10
286.7389776593896
 20
273.00599772763923
 30
0.0
  0
POINT
  5
1303
  8
DEFPOINTS
 62
     0
 10
286.12712184495598
 20
297.50599772763923
 30
0.0
  0
POINT
  5
1304
  8
DEFPOINTS
 62
     0
 10
310.7389776593896
 20
297.50599772763923
 30
0.0
  0
ENDBLK
  5
12E7
  8
0
  0
BLOCK
  8
0
  2
*U32
 70
     1
 10
0.0
 20
0.0
 30
0.0
  3
*U32
  1

  0
TEXT
  5
1355
  8
0
 10
367.55531168523049
 20
276.233542987227
 30
0.0
 40
2.5
  1
(文書番号：TY-34)2004.10.29
  0
ENDBLK
  5
1357
  8
0
  0
BLOCK
  8
0
  2
*U33
 70
     1
 10
0.0
 20
0.0
 30
0.0
  3
*U33
  1

  0
TEXT
  5
1359
  8
RAHM2
 10
-193.80025513713139
 20
3.3010354072796408
 30
0.0
 40
2.5
  1
図番
  0
ENDBLK
  5
135B
  8
0
  0
BLOCK
  8
0
  2
*U34
 70
     1
 10
0.0
 20
0.0
 30
0.0
  3
*U34
  1

  0
TEXT
  5
135D
  8
RAHM2
 10
-193.0
 20
21.249999999999972
 30
0.0
 40
2.5
  1
符号
  0
ENDBLK
  5
135F
  8
0
  0
BLOCK
  8
0
  2
*U35
 70
     1
 10
0.0
 20
0.0
 30
0.0
  3
*U35
  1

  0
TEXT
  5
1361
  8
RAHM2
 10
-193.80025513713139
 20
16.30103540727961
 30
0.0
 40
2.5
  1
品名
  0
ENDBLK
  5
1363
  8
0
  0
BLOCK
  8
0
  2
*U36
 70
     1
 10
0.0
 20
0.0
 30
0.0
  3
*U36
  1

  0
TEXT
  5
1365
  8
RAHM2
 10
-163.1448171868856
 20
21.249999999999972
 30
0.0
 40
2.5
  1
変更記事
  0
ENDBLK
  5
1367
  8
0
  0
BLOCK
  8
0
  2
*U37
 70
     1
 10
0.0
 20
0.0
 30
0.0
  3
*U37
  1

  0
TEXT
  5
1369
  8
0
 10
-88.85532994923858
 20
3.4187817258883251
 30
0.0
 40
3.5
  1
株式会社タカチ電機工業
  0
ENDBLK
  5
136B
  8
0
  0
BLOCK
  8
0
  2
*U38
 70
     1
 10
0.0
 20
0.0
 30
0.0
  3
*U38
  1

  0
TEXT
  5
136D
  8
RAHM2
 10
-123.3541228057275
 20
31.250000000000028
 30
0.0
 40
2.5
  1
・  ・   
  0
ENDBLK
  5
136F
  8
0
  0
BLOCK
  8
0
  2
*U39
 70
     1
 10
0.0
 20
0.0
 30
0.0
  3
*U39
  1

  0
TEXT
  5
1371
  8
RAHM2
 10
-126.238119805002
 20
21.249999999999972
 30
0.0
 40
2.5
  1
年・月・日
  0
ENDBLK
  5
1373
  8
0
  0
BLOCK
  8
0
  2
*U40
 70
     1
 10
0.0
 20
0.0
 30
0.0
  3
*U40
  1

  0
TEXT
  5
1375
  8
RAHM2
 10
-104.5
 20
21.249999999999972
 30
0.0
 40
2.5
  1
担当
  0
ENDBLK
  5
1377
  8
0
  0
BLOCK
  8
0
  2
*U41
 70
     1
 10
0.0
 20
0.0
 30
0.0
  3
*U41
  1

  0
TEXT
  5
1379
  8
RAHM2
 10
-123.3541228057275
 20
41.250000000000021
 30
0.0
 40
2.5
  1
・  ・   
  0
ENDBLK
  5
137B
  8
0
  0
BLOCK
  8
0
  2
*U42
 70
     1
 10
0.0
 20
0.0
 30
0.0
  3
*U42
  1

  0
TEXT
  5
137D
  8
RAHM2
 10
-123.3541228057275
 20
36.250000000000028
 30
0.0
 40
2.5
  1
・  ・   
  0
ENDBLK
  5
137F
  8
0
  0
BLOCK
  8
0
  2
*U43
 70
     1
 10
0.0
 20
0.0
 30
0.0
  3
*U43
  1

  0
TEXT
  5
1381
  8
RAHM2
 10
-123.3541228057275
 20
46.250000000000021
 30
0.0
 40
2.5
  1
・  ・   
  0
ENDBLK
  5
1383
  8
0
  0
BLOCK
  8
0
  2
*U44
 70
     1
 10
0.0
 20
0.0
 30
0.0
  3
*U44
  1

  0
TEXT
  5
1385
  8
RAHM2
 10
-92.800255137131444
 20
13.80103540727964
 30
0.0
 40
2.5
  1
日付
  0
ENDBLK
  5
1387
  8
0
  0
BLOCK
  8
0
  2
*U45
 70
     1
 10
0.0
 20
0.0
 30
0.0
  3
*U45
  1

  0
TEXT
  5
1389
  8
RAHM2
 10
-92.800255137131444
 20
23.801035407279642
 30
0.0
 40
2.5
  1
表面処理
  0
ENDBLK
  5
138B
  8
0
  0
BLOCK
  8
0
  2
*U46
 70
     1
 10
0.0
 20
0.0
 30
0.0
  3
*U46
  1

  0
TEXT
  5
138D
  8
RAHM2
 10
-92.800255137131444
 20
33.801035407279642
 30
0.0
 40
2.5
  1
材質
  0
ENDBLK
  5
138F
  8
0
  0
BLOCK
  8
0
  2
*U47
 70
     1
 10
0.0
 20
0.0
 30
0.0
  3
*U47
  1

  0
TEXT
  5
1391
  8
RAHM2
 10
-72.800255137131444
 20
46.301035407279642
 30
0.0
 40
2.5
  1
尺度
  0
ENDBLK
  5
1393
  8
0
  0
BLOCK
  8
0
  2
*U48
 70
     1
 10
0.0
 20
0.0
 30
0.0
  3
*U48
  1

  0
TEXT
  5
1395
  8
RAHM2
 10
-52.800255137131451
 20
46.301035407279642
 30
0.0
 40
2.5
  1
数量
  0
ENDBLK
  5
1397
  8
0
  0
BLOCK
  8
0
  2
*U49
 70
     1
 10
0.0
 20
0.0
 30
0.0
  3
*U49
  1

  0
TEXT
  5
1399
  8
RAHM2
 10
-28.3125
 20
21.301035407279642
 30
0.0
 40
2.5
  1
承認
  0
ENDBLK
  5
139B
  8
0
  0
BLOCK
  8
0
  2
*U50
 70
     1
 10
0.0
 20
0.0
 30
0.0
  3
*U50
  1

  0
TEXT
  5
139D
  8
RAHM2
 10
-28.3125
 20
46.301035407279642
 30
0.0
 40
2.5
  1
承認
  0
ENDBLK
  5
139F
  8
0
  0
BLOCK
  8
0
  2
*U51
 70
     1
 10
0.0
 20
0.0
 30
0.0
  3
*U51
  1

  0
TEXT
  5
13A1
  8
RAHM2
 10
-123.3541228057275
 20
26.250000000000028
 30
0.0
 40
2.5
  1
・  ・   
  0
ENDBLK
  5
13A3
  8
0
  0
BLOCK
  8
0
  2
*U52
 70
     1
 10
0.0
 20
0.0
 30
0.0
  3
*U52
  1

  0
TEXT
  5
13A5
  8
RAHM2
 10
-11.3125
 20
46.301035407279642
 30
0.0
 40
2.5
  1
検図
  0
ENDBLK
  5
13A7
  8
0
  0
BLOCK
  8
0
  2
*U53
 70
     1
 10
0.0
 20
0.0
 30
0.0
  3
*U53
  1

  0
TEXT
  5
13A9
  8
RAHM2
 10
-11.3125
 20
21.301035407279642
 30
0.0
 40
2.5
  1
製図
  0
ENDBLK
  5
13AB
  8
0
  0
BLOCK
  8
0
  2
*U54
 70
     1
 10
0.0
 20
0.0
 30
0.0
  3
*U54
  1

  0
TEXT
  5
13AD
  8
AM_5
 62
     2
 10
236.52603491306289
 20
235.19587983534649
 30
0.0
 40
3.5
  1
124.16
 50
90.0
  0
ENDBLK
  5
13AF
  8
0
  0
BLOCK
  8
0
  2
*U55
 70
     1
 10
0.0
 20
0.0
 30
0.0
  3
*U55
  1

  0
TEXT
  5
13E0
  8
AM_5
 62
     2
 10
234.73897665938949
 20
173.02449073690309
 30
0.0
 40
7.0
  1
50
 50
90.0
  0
ENDBLK
  5
13E2
  8
0
  0
BLOCK
  8
0
  2
*U56
 70
     1
 10
0.0
 20
0.0
 30
0.0
  3
*U56
  1

  0
TEXT
  5
13E4
  8
AM_5
 62
     2
 10
269.28288086531489
 20
229.92724764241481
 30
0.0
 40
7.0
  1
25
  0
ENDBLK
  5
13E6
  8
0
  0
BLOCK
  8
0
  2
*U57
 70
     1
 10
0.0
 20
0.0
 30
0.0
  3
*U57
  1

  0
TEXT
  5
13E8
  8
AM_5
 62
     2
 10
128.6288926049061
 20
390.24211977488341
 30
0.0
 40
7.0
  1
200
 50
90.0
  0
ENDBLK
  5
13EA
  8
0
  0
BLOCK
  8
0
  2
*U58
 70
     1
 10
0.0
 20
0.0
 30
0.0
  3
*U58
  1

  0
TEXT
  5
13EC
  8
AM_5
 62
     2
 10
128.6288926049061
 20
276.44990093356449
 30
0.0
 40
7.0
  1
24.5
 50
90.0
  0
ENDBLK
  5
13EE
  8
0
  0
BLOCK
  8
0
  2
*U59
 70
     1
 10
0.0
 20
0.0
 30
0.0
  3
*U59
  1

  0
TEXT
  5
13F0
  8
AM_5
 62
     2
 10
128.6288926049059
 20
500.94990093356449
 30
0.0
 40
7.0
  1
24.5
 50
90.0
  0
ENDBLK
  5
13F2
  8
0
  0
BLOCK
  8
0
  2
*U60
 70
     1
 10
0.0
 20
0.0
 30
0.0
  3
*U60
  1

  0
TEXT
  5
13F4
  8
AM_5
 62
     2
 10
146.36501465215031
 20
252.0059967276392
 30
0.0
 40
7.0
  1
20
  0
ENDBLK
  5
13F6
  8
0
  0
BLOCK
  8
0
  2
*U61
 70
     1
 10
0.0
 20
0.0
 30
0.0
  3
*U61
  1

  0
TEXT
  5
13F8
  8
AM_5
 62
     2
 10
171.27613669939441
 20
252.00599672763931
 30
0.0
 40
7.0
  1
30
  0
ENDBLK
  5
13FA
  8
0
  0
BLOCK
  8
0
  2
*U62
 70
     1
 10
0.0
 20
0.0
 30
0.0
  3
*U62
  1

  0
TEXT
  5
13FC
  8
AM_5
 62
     2
 10
161.27613669939441
 20
569.00599872763905
 30
0.0
 40
7.0
  1
50
  0
ENDBLK
  5
13FE
  8
0
  0
BLOCK
  8
0
  2
*U63
 70
     1
 10
0.0
 20
0.0
 30
0.0
  3
*U63
  1

  0
TEXT
  5
1400
  8
AM_5
 62
     2
 10
108.628892604906
 20
389.64429850388888
 30
0.0
 40
7.0
  1
249
 50
90.0
  0
ENDBLK
  5
1402
  8
0
  0
BLOCK
  8
0
  2
*U64
 70
     1
 10
0.0
 20
0.0
 30
0.0
  3
*U64
  1

  0
TEXT
  5
1404
  8
AM_5
 62
     2
 10
207.02896857530641
 20
519.21142400211352
 30
0.0
 40
7.0
  1
\U+22055.1
  0
ENDBLK
  5
1406
  8
0
  0
BLOCK
  8
0
  2
*U65
 70
     1
 10
0.0
 20
0.0
 30
0.0
  3
*U65
  1

  0
TEXT
  5
1408
  8
AM_5
 62
     2
 10
307.73897765938949
 20
500.94990093356449
 30
0.0
 40
7.0
  1
24.5
 50
90.0
  0
ENDBLK
  5
140A
  8
0
  0
BLOCK
  8
0
  2
*U66
 70
     1
 10
0.0
 20
0.0
 30
0.0
  3
*U66
  1

  0
TEXT
  5
140C
  8
AM_5
 62
     2
 10
307.73897765938949
 20
467.60324182212742
 30
0.0
 40
7.0
  1
50
 50
90.0
  0
ENDBLK
  5
140E
  8
0
  0
BLOCK
  8
0
  2
*U67
 70
     1
 10
0.0
 20
0.0
 30
0.0
  3
*U67
  1

  0
TEXT
  5
1410
  8
AM_5
 62
     2
 10
307.73897765938938
 20
390.85324182212747
 30
0.0
 40
7.0
  1
100
 50
90.0
  0
ENDBLK
  5
1412
  8
0
  0
BLOCK
  8
0
  2
*U68
 70
     1
 10
0.0
 20
0.0
 30
0.0
  3
*U68
  1

  0
TEXT
  5
1414
  8
AM_5
 62
     2
 10
307.7389776593896
 20
317.60324182212747
 30
0.0
 40
7.0
  1
50
 50
90.0
  0
ENDBLK
  5
1416
  8
0
  0
BLOCK
  8
0
  2
*U69
 70
     1
 10
0.0
 20
0.0
 30
0.0
  3
*U69
  1

  0
TEXT
  5
1418
  8
AM_5
 62
     2
 10
307.7389776593896
 20
276.44990093356461
 30
0.0
 40
7.0
  1
24.5
 50
90.0
  0
ENDBLK
  5
141A
  8
0
  0
ENDSEC
  0
SECTION
  2
ENTITIES
  0
LINE
  5
6A3
  8
TK1
 10
261.7389776593896
 20
522.00599772763906
 30
0.0
 11
261.7389776593896
 21
397.50599772763923
 31
0.0
  0
LINE
  5
6AD
  8
TK1
 10
261.7389776593896
 20
522.00599772763906
 30
0.0
 11
286.7389776593896
 21
522.00599772763906
 31
0.0
  0
LINE
  5
6BB
  8
TK1
 10
286.7389776593896
 20
522.00599772763906
 30
0.0
 11
286.7389776593896
 21
502.50599772763911
 31
0.0
  0
LINE
  5
710
  8
TK1
 10
276.73897765938949
 20
497.50599772763923
 30
0.0
 11
276.73897765938949
 21
497.50599772763923
 31
0.0
  0
LINE
  5
724
  8
TK1
 10
284.7389776593896
 20
500.50599772763911
 30
0.0
 11
279.73897765938949
 21
500.50599772763911
 31
0.0
  0
LINE
  5
72D
  8
TK1
 10
284.7389776593896
 20
494.50599772763911
 30
0.0
 11
279.73897765938949
 21
494.50599772763911
 31
0.0
  0
LINE
  5
72E
  8
TK1
 10
286.7389776593896
 20
492.50599772763911
 30
0.0
 11
286.7389776593896
 21
452.50599772763911
 31
0.0
  0
ARC
  5
7C1
  8
TK1
 10
279.73897765938949
 20
497.50599772763923
 30
0.0
 40
3.0
 50
180.0
 51
270.0
1001
GENIUS_GENOBJ-N-FIL_13
1002
{
1000
OWNER
1000
GEN
1002
}
1001
GENIUS_GENODEF_13
1002
{
1000
HIER
1070
     0
1002
}
1002
{
1000
MANEDIT
1070
     0
1002
}
1002
{
1000
NOSEL
1070
     0
1002
}
1002
{
1000
BEHIND
1070
     0
1002
}
1002
{
1000
OTHER
1070
     0
1002
}
1002
{
1000
REACTOR
1002
}
  0
ARC
  5
7C4
  8
TK1
 10
279.73897765938949
 20
497.50599772763923
 30
0.0
 40
3.0
 50
90.0
 51
180.0
1001
GENIUS_GENOBJ-N-FIL_13
1002
{
1000
OWNER
1000
GEN
1002
}
1001
GENIUS_GENODEF_13
1002
{
1000
HIER
1070
     0
1002
}
1002
{
1000
MANEDIT
1070
     0
1002
}
1002
{
1000
NOSEL
1070
     0
1002
}
1002
{
1000
BEHIND
1070
     0
1002
}
1002
{
1000
OTHER
1070
     0
1002
}
1002
{
1000
REACTOR
1002
}
  0
LINE
  5
7C8
  8
TK1
 10
284.7389776593896
 20
494.50599772763911
 30
0.0
 11
286.7389776593896
 21
492.50599772763911
 31
0.0
1001
GENIUS_GENFIL_13
1070
     0
1040
2.0
1040
2.0
1040
20.0
1040
0.0
1002
{
1002
}
1001
GENIUS_GENODEF_13
1002
{
1000
HIER
1070
     0
1002
}
1002
{
1000
MANEDIT
1070
     0
1002
}
1002
{
1000
NOSEL
1070
     0
1002
}
1002
{
1000
BEHIND
1070
     0
1002
}
1002
{
1000
OTHER
1070
     0
1002
}
1002
{
1000
REACTOR
1002
}
1001
GENIUS_GENOBJ-N-CHA_13
1002
{
1000
OWNER
1000
GEN
1002
}
  0
LINE
  5
7CC
  8
TK1
 10
284.7389776593896
 20
500.50599772763911
 30
0.0
 11
286.7389776593896
 21
502.50599772763911
 31
0.0
1001
GENIUS_GENFIL_13
1070
     0
1040
2.0
1040
2.0
1040
20.0
1040
0.0
1002
{
1002
}
1001
GENIUS_GENODEF_13
1002
{
1000
HIER
1070
     0
1002
}
1002
{
1000
MANEDIT
1070
     0
1002
}
1002
{
1000
NOSEL
1070
     0
1002
}
1002
{
1000
BEHIND
1070
     0
1002
}
1002
{
1000
OTHER
1070
     0
1002
}
1002
{
1000
REACTOR
1002
}
1001
GENIUS_GENOBJ-N-CHA_13
1002
{
1000
OWNER
1000
GEN
1002
}
  0
LINE
  5
7E1
  8
TK1
 10
284.7389776593896
 20
450.50599772763911
 30
0.0
 11
286.7389776593896
 21
452.50599772763911
 31
0.0
1001
GENIUS_GENFIL_13
1070
     0
1040
2.0
1040
2.0
1040
20.0
1040
0.0
1002
{
1002
}
1001
GENIUS_GENODEF_13
1002
{
1000
HIER
1070
     0
1002
}
1002
{
1000
MANEDIT
1070
     0
1002
}
1002
{
1000
NOSEL
1070
     0
1002
}
1002
{
1000
BEHIND
1070
     0
1002
}
1002
{
1000
OTHER
1070
     0
1002
}
1002
{
1000
REACTOR
1002
}
1001
GENIUS_GENOBJ-N-CHA_13
1002
{
1000
OWNER
1000
GEN
1002
}
  0
ARC
  5
7E2
  8
TK1
 10
279.73897765938949
 20
447.50599772763923
 30
0.0
 40
3.0
 50
90.0
 51
180.0
1001
GENIUS_GENOBJ-N-FIL_13
1002
{
1000
OWNER
1000
GEN
1002
}
1001
GENIUS_GENODEF_13
1002
{
1000
HIER
1070
     0
1002
}
1002
{
1000
MANEDIT
1070
     0
1002
}
1002
{
1000
NOSEL
1070
     0
1002
}
1002
{
1000
BEHIND
1070
     0
1002
}
1002
{
1000
OTHER
1070
     0
1002
}
1002
{
1000
REACTOR
1002
}
  0
LINE
  5
7E3
  8
TK1
 10
284.7389776593896
 20
450.50599772763911
 30
0.0
 11
279.73897765938949
 21
450.50599772763911
 31
0.0
  0
LINE
  5
7E4
  8
TK1
 10
284.7389776593896
 20
444.50599772763911
 30
0.0
 11
286.7389776593896
 21
442.50599772763911
 31
0.0
1001
GENIUS_GENFIL_13
1070
     0
1040
2.0
1040
2.0
1040
20.0
1040
0.0
1002
{
1002
}
1001
GENIUS_GENODEF_13
1002
{
1000
HIER
1070
     0
1002
}
1002
{
1000
MANEDIT
1070
     0
1002
}
1002
{
1000
NOSEL
1070
     0
1002
}
1002
{
1000
BEHIND
1070
     0
1002
}
1002
{
1000
OTHER
1070
     0
1002
}
1002
{
1000
REACTOR
1002
}
1001
GENIUS_GENOBJ-N-CHA_13
1002
{
1000
OWNER
1000
GEN
1002
}
  0
ARC
  5
7E5
  8
TK1
 10
279.73897765938949
 20
447.50599772763923
 30
0.0
 40
3.0
 50
180.0
 51
270.0
1001
GENIUS_GENOBJ-N-FIL_13
1002
{
1000
OWNER
1000
GEN
1002
}
1001
GENIUS_GENODEF_13
1002
{
1000
HIER
1070
     0
1002
}
1002
{
1000
MANEDIT
1070
     0
1002
}
1002
{
1000
NOSEL
1070
     0
1002
}
1002
{
1000
BEHIND
1070
     0
1002
}
1002
{
1000
OTHER
1070
     0
1002
}
1002
{
1000
REACTOR
1002
}
  0
LINE
  5
7E6
  8
TK1
 10
284.7389776593896
 20
444.50599772763911
 30
0.0
 11
279.73897765938949
 21
444.50599772763911
 31
0.0
  0
LINE
  5
7E8
  8
TK1
 10
286.7389776593896
 20
442.505997727639
 30
0.0
 11
286.7389776593896
 21
397.50599772763923
 31
0.0
  0
LINE
  5
801
  8
TK10
 10
264.73897765938949
 20
522.00599772763906
 30
0.0
 11
264.73897765938949
 21
397.84556001360318
 31
0.0
  0
LINE
  5
869
  8
TK1
 10
191.1788926049062
 20
522.00599772763906
 30
0.0
 11
191.1788926049062
 21
397.50599772763923
 31
0.0
  0
LINE
  5
877
  8
TK10
 10
188.1788926049062
 20
522.00599772763906
 30
0.0
 11
188.1788926049062
 21
397.50599772763923
 31
0.0
  0
LINE
  5
88B
  8
TK1
 10
141.1788926049062
 20
522.00599772763906
 30
0.0
 11
141.1788926049062
 21
397.50599772763923
 31
0.0
  0
LINE
  5
A88
  8
AM_7
 10
258.73897765938949
 20
397.50599772763923
 30
0.0
 11
289.73897765938949
 21
397.50599772763923
 31
0.0
1001
GENIUS_GENOBJ-N-CEN_13
1002
{
1000
OWNER
1000
GEN
1002
}
1001
GENIUS_GENODEF_13
1002
{
1000
HIER
1070
     0
1002
}
1002
{
1000
MANEDIT
1070
     0
1002
}
1002
{
1000
NOSEL
1070
     0
1002
}
1002
{
1000
BEHIND
1070
     0
1002
}
1002
{
1000
OTHER
1070
     0
1002
}
1002
{
1000
REACTOR
1002
}
  0
LINE
  5
ACD
  8
TK10
 10
264.73897765938949
 20
273.00599772763923
 30
0.0
 11
264.73897765938949
 21
397.16643544167522
 31
0.0
  0
LINE
  5
ACE
  8
TK1
 10
284.7389776593896
 20
294.50599772763923
 30
0.0
 11
286.7389776593896
 21
292.50599772763923
 31
0.0
1001
GENIUS_GENFIL_13
1070
     0
1040
2.0
1040
2.0
1040
20.0
1040
0.0
1002
{
1002
}
1001
GENIUS_GENODEF_13
1002
{
1000
HIER
1070
     0
1002
}
1002
{
1000
MANEDIT
1070
     0
1002
}
1002
{
1000
NOSEL
1070
     0
1002
}
1002
{
1000
BEHIND
1070
     0
1002
}
1002
{
1000
OTHER
1070
     0
1002
}
1002
{
1000
REACTOR
1002
}
1001
GENIUS_GENOBJ-N-CHA_13
1002
{
1000
OWNER
1000
GEN
1002
}
  0
ARC
  5
ACF
  8
TK1
 10
279.73897765938949
 20
297.50599772763923
 30
0.0
 40
3.0
 50
180.0
 51
270.0
1001
GENIUS_GENOBJ-N-FIL_13
1002
{
1000
OWNER
1000
GEN
1002
}
1001
GENIUS_GENODEF_13
1002
{
1000
HIER
1070
     0
1002
}
1002
{
1000
MANEDIT
1070
     0
1002
}
1002
{
1000
NOSEL
1070
     0
1002
}
1002
{
1000
BEHIND
1070
     0
1002
}
1002
{
1000
OTHER
1070
     0
1002
}
1002
{
1000
REACTOR
1002
}
  0
LINE
  5
AD0
  8
TK1
 10
284.7389776593896
 20
294.50599772763923
 30
0.0
 11
279.73897765938949
 21
294.50599772763923
 31
0.0
  0
LINE
  5
AD1
  8
TK1
 10
286.7389776593896
 20
273.00599772763923
 30
0.0
 11
286.7389776593896
 21
292.50599772763923
 31
0.0
  0
LINE
  5
AD2
  8
TK1
 10
261.7389776593896
 20
273.00599772763923
 30
0.0
 11
286.7389776593896
 21
273.00599772763923
 31
0.0
  0
LINE
  5
AD3
  8
TK1
 10
261.7389776593896
 20
273.00599772763923
 30
0.0
 11
261.7389776593896
 21
397.50599772763923
 31
0.0
  0
LINE
  5
AD4
  8
TK1
 10
284.7389776593896
 20
300.50599772763923
 30
0.0
 11
286.7389776593896
 21
302.50599772763923
 31
0.0
1001
GENIUS_GENFIL_13
1070
     0
1040
2.0
1040
2.0
1040
20.0
1040
0.0
1002
{
1002
}
1001
GENIUS_GENODEF_13
1002
{
1000
HIER
1070
     0
1002
}
1002
{
1000
MANEDIT
1070
     0
1002
}
1002
{
1000
NOSEL
1070
     0
1002
}
1002
{
1000
BEHIND
1070
     0
1002
}
1002
{
1000
OTHER
1070
     0
1002
}
1002
{
1000
REACTOR
1002
}
1001
GENIUS_GENOBJ-N-CHA_13
1002
{
1000
OWNER
1000
GEN
1002
}
  0
ARC
  5
AD5
  8
TK1
 10
279.73897765938949
 20
297.50599772763923
 30
0.0
 40
3.0
 50
90.000000000000028
 51
180.0
1001
GENIUS_GENOBJ-N-FIL_13
1002
{
1000
OWNER
1000
GEN
1002
}
1001
GENIUS_GENODEF_13
1002
{
1000
HIER
1070
     0
1002
}
1002
{
1000
MANEDIT
1070
     0
1002
}
1002
{
1000
NOSEL
1070
     0
1002
}
1002
{
1000
BEHIND
1070
     0
1002
}
1002
{
1000
OTHER
1070
     0
1002
}
1002
{
1000
REACTOR
1002
}
  0
LINE
  5
AD6
  8
TK1
 10
286.7389776593896
 20
302.50599772763923
 30
0.0
 11
286.7389776593896
 21
342.50599772763928
 31
0.0
  0
LINE
  5
AD7
  8
TK1
 10
284.7389776593896
 20
300.50599772763923
 30
0.0
 11
279.73897765938949
 21
300.50599772763923
 31
0.0
  0
LINE
  5
AD8
  8
TK1
 10
286.7389776593896
 20
352.50599772763928
 30
0.0
 11
286.7389776593896
 21
397.50599772763923
 31
0.0
  0
LINE
  5
AD9
  8
TK1
 10
284.7389776593896
 20
350.50599772763923
 30
0.0
 11
279.73897765938949
 21
350.50599772763923
 31
0.0
  0
ARC
  5
ADA
  8
TK1
 10
279.73897765938949
 20
347.50599772763923
 30
0.0
 40
3.0
 50
90.000000000000028
 51
180.0
1001
GENIUS_GENOBJ-N-FIL_13
1002
{
1000
OWNER
1000
GEN
1002
}
1001
GENIUS_GENODEF_13
1002
{
1000
HIER
1070
     0
1002
}
1002
{
1000
MANEDIT
1070
     0
1002
}
1002
{
1000
NOSEL
1070
     0
1002
}
1002
{
1000
BEHIND
1070
     0
1002
}
1002
{
1000
OTHER
1070
     0
1002
}
1002
{
1000
REACTOR
1002
}
  0
LINE
  5
ADB
  8
TK1
 10
284.7389776593896
 20
350.50599772763923
 30
0.0
 11
286.7389776593896
 21
352.50599772763923
 31
0.0
1001
GENIUS_GENFIL_13
1070
     0
1040
2.0
1040
2.0
1040
20.0
1040
0.0
1002
{
1002
}
1001
GENIUS_GENODEF_13
1002
{
1000
HIER
1070
     0
1002
}
1002
{
1000
MANEDIT
1070
     0
1002
}
1002
{
1000
NOSEL
1070
     0
1002
}
1002
{
1000
BEHIND
1070
     0
1002
}
1002
{
1000
OTHER
1070
     0
1002
}
1002
{
1000
REACTOR
1002
}
1001
GENIUS_GENOBJ-N-CHA_13
1002
{
1000
OWNER
1000
GEN
1002
}
  0
LINE
  5
ADC
  8
TK1
 10
284.7389776593896
 20
344.50599772763923
 30
0.0
 11
279.73897765938949
 21
344.50599772763923
 31
0.0
  0
ARC
  5
ADD
  8
TK1
 10
279.73897765938949
 20
347.50599772763923
 30
0.0
 40
3.0
 50
180.0
 51
270.0
1001
GENIUS_GENOBJ-N-FIL_13
1002
{
1000
OWNER
1000
GEN
1002
}
1001
GENIUS_GENODEF_13
1002
{
1000
HIER
1070
     0
1002
}
1002
{
1000
MANEDIT
1070
     0
1002
}
1002
{
1000
NOSEL
1070
     0
1002
}
1002
{
1000
BEHIND
1070
     0
1002
}
1002
{
1000
OTHER
1070
     0
1002
}
1002
{
1000
REACTOR
1002
}
  0
LINE
  5
ADE
  8
TK1
 10
284.7389776593896
 20
344.50599772763923
 30
0.0
 11
286.7389776593896
 21
342.50599772763923
 31
0.0
1001
GENIUS_GENFIL_13
1070
     0
1040
2.0
1040
2.0
1040
20.0
1040
0.0
1002
{
1002
}
1001
GENIUS_GENODEF_13
1002
{
1000
HIER
1070
     0
1002
}
1002
{
1000
MANEDIT
1070
     0
1002
}
1002
{
1000
NOSEL
1070
     0
1002
}
1002
{
1000
BEHIND
1070
     0
1002
}
1002
{
1000
OTHER
1070
     0
1002
}
1002
{
1000
REACTOR
1002
}
1001
GENIUS_GENOBJ-N-CHA_13
1002
{
1000
OWNER
1000
GEN
1002
}
  0
LINE
  5
B5F
  8
TK1
 10
141.1788926049062
 20
522.00599772763906
 30
0.0
 11
191.1788926049062
 21
522.00599772763906
 31
0.0
  0
LINE
  5
BB9
  8
AM_7
 10
138.1788926049062
 20
397.50599772763923
 30
0.0
 11
194.1788926049062
 21
397.50599772763923
 31
0.0
1001
GENIUS_GENOBJ-N-CEN_13
1002
{
1000
OWNER
1000
GEN
1002
}
1001
GENIUS_GENODEF_13
1002
{
1000
HIER
1070
     0
1002
}
1002
{
1000
MANEDIT
1070
     0
1002
}
1002
{
1000
NOSEL
1070
     0
1002
}
1002
{
1000
BEHIND
1070
     0
1002
}
1002
{
1000
OTHER
1070
     0
1002
}
1002
{
1000
REACTOR
1002
}
  0
CIRCLE
  5
C2D
  8
TK1
 10
161.1788926049062
 20
497.50599772763923
 30
0.0
 40
2.5499999999999989
  0
LINE
  5
C3C
  8
AM_7
  6
AM_ISO08W050X2
 10
161.1788926049062
 20
497.50599772763923
 30
0.0
 11
166.72889260490621
 21
497.50599772763923
 31
0.0
1001
GENIUS_GENOREF_13
1005
C40
  0
LINE
  5
C3D
  8
AM_7
  6
AM_ISO08W050X2
 10
161.1788926049062
 20
497.50599772763923
 30
0.0
 11
161.1788926049062
 21
503.05599772763912
 31
0.0
1001
GENIUS_GENOREF_13
1005
C40
  0
LINE
  5
C3E
  8
AM_7
  6
AM_ISO08W050X2
 10
161.1788926049062
 20
497.50599772763923
 30
0.0
 11
155.6288926049061
 21
497.50599772763923
 31
0.0
1001
GENIUS_GENOREF_13
1005
C40
  0
LINE
  5
C3F
  8
AM_7
  6
AM_ISO08W050X2
 10
161.1788926049062
 20
497.50599772763923
 30
0.0
 11
161.1788926049062
 21
491.9559977276391
 31
0.0
1001
GENIUS_GENOREF_13
1005
C40
  0
POINT
  5
C40
  8
0
 10
0.0
 20
0.0
 30
0.0
1001
GENIUS_GENODEF_13
1002
{
1000
HIER
1070
    10
1002
}
1002
{
1000
MANEDIT
1070
     0
1002
}
1002
{
1000
NOSEL
1070
     0
1002
}
1002
{
1000
BEHIND
1070
     0
1002
}
1002
{
1000
OTHER
1070
     0
1002
}
1002
{
1000
REACTOR
1002
}
1001
GENIUS_GENOLIS_13
1002
{
1000
ENT
1005
C3F
1005
C3E
1005
C3D
1005
C3C
1002
}
1001
GENIUS_GENOENT_13
1002
{
1000
MYREF
1005
C40
1002
}
1002
{
1000
GRP
1005
0
1002
}
1001
GENIUS_GENOBJ-N-CRS_13
1002
{
1000
OWNER
1000
GEN
1002
}
  0
LINE
  5
C41
  8
AM_7
  6
AM_ISO08W050X2
 10
161.1788926049062
 20
297.50599772763923
 30
0.0
 11
161.1788926049062
 21
303.05599772763918
 31
0.0
1001
GENIUS_GENOREF_13
1005
C4A
  0
LINE
  5
C42
  8
AM_7
  6
AM_ISO08W050X2
 10
161.1788926049062
 20
297.50599772763923
 30
0.0
 11
155.6288926049061
 21
297.50599772763923
 31
0.0
1001
GENIUS_GENOREF_13
1005
C4A
  0
LINE
  5
C43
  8
AM_7
  6
AM_ISO08W050X2
 10
161.1788926049062
 20
297.50599772763923
 30
0.0
 11
161.1788926049062
 21
291.95599772763921
 31
0.0
1001
GENIUS_GENOREF_13
1005
C4A
  0
LINE
  5
C44
  8
AM_7
  6
AM_ISO08W050X2
 10
161.1788926049062
 20
297.50599772763923
 30
0.0
 11
166.72889260490621
 21
297.50599772763923
 31
0.0
1001
GENIUS_GENOREF_13
1005
C4A
  0
CIRCLE
  5
C45
  8
TK1
 10
161.1788926049062
 20
297.50599772763923
 30
0.0
 40
2.5499999999999989
  0
LINE
  5
C46
  8
TK1
 10
141.1788926049062
 20
273.00599772763923
 30
0.0
 11
191.1788926049062
 21
273.00599772763923
 31
0.0
  0
LINE
  5
C47
  8
TK1
 10
141.1788926049062
 20
273.00599772763923
 30
0.0
 11
141.1788926049062
 21
397.50599772763923
 31
0.0
  0
LINE
  5
C48
  8
TK10
 10
188.1788926049062
 20
273.00599772763923
 30
0.0
 11
188.1788926049062
 21
397.50599772763923
 31
0.0
  0
LINE
  5
C49
  8
TK1
 10
191.1788926049062
 20
273.00599772763923
 30
0.0
 11
191.1788926049062
 21
397.50599772763923
 31
0.0
  0
POINT
  5
C4A
  8
0
 10
0.0
 20
357.97581943197309
 30
0.0
1001
GENIUS_GENODEF_13
1002
{
1000
HIER
1070
    10
1002
}
1002
{
1000
MANEDIT
1070
     0
1002
}
1002
{
1000
NOSEL
1070
     0
1002
}
1002
{
1000
BEHIND
1070
     0
1002
}
1002
{
1000
OTHER
1070
     0
1002
}
1002
{
1000
REACTOR
1002
}
1001
GENIUS_GENOLIS_13
1002
{
1000
ENT
1005
C41
1005
C42
1005
C43
1005
C44
1002
}
1001
GENIUS_GENOENT_13
1002
{
1000
MYREF
1005
C4A
1002
}
1002
{
1000
GRP
1005
0
1002
}
1001
GENIUS_GENOBJ-N-CRS_13
1002
{
1000
OWNER
1000
GEN
1002
}
  0
LINE
  5
C52
  8
TK1
 10
286.7389776593896
 20
202.92724664241479
 30
0.0
 11
286.7389776593896
 21
199.92724664241479
 31
0.0
  0
LINE
  5
C58
  8
TK1
 10
261.7389776593896
 20
202.92724664241479
 30
0.0
 11
261.7389776593896
 21
152.92724664241479
 31
0.0
  0
LINE
  5
C62
  8
TK1
 10
261.7389776593896
 20
202.92724664241479
 30
0.0
 11
286.7389776593896
 21
202.92724664241479
 31
0.0
  0
LINE
  5
C70
  8
TK1
 10
264.73897765938949
 20
199.92724664241479
 30
0.0
 11
286.7389776593896
 21
199.92724664241479
 31
0.0
  0
LINE
  5
C7B
  8
TK1
 10
261.7389776593896
 20
152.92724664241479
 30
0.0
 11
264.73897765938949
 21
152.92724664241479
 31
0.0
  0
LINE
  5
C87
  8
TK1
 10
264.73897765938949
 20
199.92724664241479
 30
0.0
 11
264.73897765938949
 21
152.92724664241479
 31
0.0
  0
LINE
  5
CAA
  8
AM_7
  6
AM_ISO08W050X2
 10
258.73897765938949
 20
172.92724664241479
 30
0.0
 11
267.7389776593896
 21
172.92724664241479
 31
0.0
1001
GENIUS_GENODEF_13
1002
{
1000
HIER
1070
     0
1002
}
1002
{
1000
MANEDIT
1070
     0
1002
}
1002
{
1000
NOSEL
1070
     0
1002
}
1002
{
1000
BEHIND
1070
     0
1002
}
1002
{
1000
OTHER
1070
     0
1002
}
1002
{
1000
REACTOR
1002
}
1001
GENIUS_GENOBJ-N-CEN_13
1002
{
1000
OWNER
1000
GEN
1002
}
  0
INSERT
  5
D41
  8
0
  2
TAKACHI-A4
 10
3.303216746165389
 20
6.0133937155096637
 30
0.0
 41
2.0
 42
2.0
 43
2.0
1001
GENIUS_GENOREF_13
1005
D4D
1001
GENIUS_GENODEF_13
1002
{
1000
HIER
1070
     0
1002
}
1002
{
1000
MANEDIT
1070
     0
1002
}
1002
{
1000
NOSEL
1070
     0
1002
}
1002
{
1000
BEHIND
1070
     0
1002
}
1002
{
1000
OTHER
1070
     0
1002
}
1002
{
1000
REACTOR
1002
}
1001
GENIUS_GENOBJ-N-SDF_13
1002
{
1000
OWNER
1000
GEN
1002
}
1001
GENIUS_GENSCREG_13
1040
2.0
1040
1.0
1011
3.303216746165389
1021
0.0
1031
9.5445205666390278E+234
1021
6.0133937155096637
1031
0.0
1011
393.30321674616562
1021
0.0
1031
9.5445205666390278E+234
1021
556.01339371550966
1031
0.0
1070
     3
  0
INSERT
  5
D43
  8
0
 66
     1
  2
TAKACHI-TITLE
 10
433.30321674616539
 20
36.013393715509672
 30
0.0
 41
2.0
 42
2.0
 43
2.0
1001
GENIUS_GENOREF_13
1005
D4D
  0
ATTRIB
  5
D45
  8
0
 10
66.815511317044013
 20
53.915094764365818
 30
0.0
 40
5.0
  1
JISラックマウントブラケット
 11
66.815511317044013
 21
53.248428097699161
 31
0.0
  2
GEN-TITLE-DES2
 70
     0
 74
     1
  0
ATTRIB
  5
D46
  8
0
 10
66.815511317044013
 20
40.048428097699158
 30
0.0
 40
6.0
  1

 11
66.815511317044013
 21
39.248428097699161
 31
0.0
  2
GEN-TITLE-NR
 70
     0
 74
     1
  0
ATTRIB
  5
D47
  8
0
 10
66.815511317044013
 20
64.827966105546352
 30
0.0
 40
8.0
  1
M-249
 11
66.815511317044013
 21
63.761299438879689
 31
0.0
  2
GEN-TITLE-DES1
 70
     0
 74
     1
  0
ATTRIB
  5
D48
  8
0
 10
308.81476001946191
 20
114.5234048390766
 30
0.0
 40
6.0
  1
1:2
 72
     2
 11
317.2751143501705
 21
114.5234048390766
 31
0.0
  2
GEN-TITLE-SCA
 70
     0
  0
ATTRIB
  5
D49
  8
0
 10
279.29751741318529
 20
98.057009474379186
 30
0.0
 40
6.0
  1
A6063S-T5
 11
279.29751741318529
 21
97.257009474379174
 31
0.0
  2
GEN-TITLE-MAT1
 70
     0
 74
     1
  0
ATTRIB
  5
D4A
  8
0
 10
279.29751741318529
 20
78.057009474379171
 30
0.0
 40
6.0
  1
HLシルバー・黒アルマイト
 11
279.29751741318529
 21
77.257009474379174
 31
0.0
  2
GEN-TITLE-MAT2
 70
     0
 74
     1
  0
ATTRIB
  5
D4B
  8
0
 10
279.29751741318529
 20
60.048428097699158
 30
0.0
 40
6.0
  1
2006/11/01
 11
279.29751741318529
 21
59.248428097699161
 31
0.0
  2
GEN-TITLE-DAT
 70
     0
 74
     1
  0
ATTRIB
  5
D4C
  8
0
 10
354.1165148276267
 20
114.5234048390766
 30
0.0
 40
6.0
  1
2
 72
     2
 11
357.77686915833539
 21
114.5234048390766
 31
0.0
  2
GEN-TITLE-QTY
 70
     0
  0
SEQEND
  5
D44
  8
0
  0
POINT
  5
D4D
  8
0
 10
0.0
 20
0.0
 30
0.0
1001
GENIUS_GENOENT_13
1002
{
1000
MYREF
1005
D4D
1002
}
1002
{
1000
GRP
1005
0
1002
}
1001
GENIUS_GENOBJ-N-TIT_13
1002
{
1000
OWNER
1000
GEN
1002
}
1001
GENIUS_GENOLIS_13
1002
{
1000
ENT
1005
D43
1005
D41
1002
}
1001
GENIUS_GENODEF_13
1002
{
1000
HIER
1070
     1
1002
}
1002
{
1000
MANEDIT
1070
     0
1002
}
1002
{
1000
NOSEL
1070
     0
1002
}
1002
{
1000
BEHIND
1070
     0
1002
}
1002
{
1000
OTHER
1070
     0
1002
}
1002
{
1000
REACTOR
1002
}
1001
GENIUS_GENTITLE_13
1002
{
1000
BORDER
1000
TAKACHI-A4
1002
}
1002
{
1000
TITLE
1000
TAKACHI-TITLE
1002
}
1002
{
1000
SCALE
1000
1:2
1002
}
1002
{
1000
TITLESTD
1000
ISO
1002
}
1002
{
1000
HRA
1005
D41
1002
}
1002
{
1000
HTIT
1005
D43
1002
}
1002
{
1000
UNCHG
1002
{
1000
GEN-TITLE-SIZ
1000
GEN-TITLE-SCA
1002
}
1002
}
1002
{
1000
GENIUSID
1005
D4D
1002
}
  0
DIMENSION
  5
D5D
  8
AM_5
  2
*D12
 10
286.7389776593896
 20
546.00599872763905
 30
0.0
 11
275.7389776593896
 21
552.50668770401705
 31
0.0
 70
     0
 13
264.73897765938949
 23
522.00599772763906
 33
0.0
 14
286.7389776593896
 24
522.00599772763906
 34
0.0
1001
ACAD
1000
DSTYLE
1002
{
1070
    40
1040
2.0
1070
   173
1070
     1
1070
   174
1070
     1
1070
     6
1000
GENDOT
1070
     7
1000
OPEN30
1002
}
  0
DIMENSION
  5
D95
  8
AM_5
  2
*D13
 10
188.1788926049062
 20
546.00599872763905
 30
0.0
 11
164.6788926049062
 21
552.50599872763905
 31
0.0
 70
     0
 13
141.1788926049062
 23
522.00599772763906
 33
0.0
 14
188.1788926049062
 24
522.00599772763906
 34
0.0
1001
ACAD
1000
DSTYLE
1002
{
1070
    40
1040
2.0
1070
   173
1070
     1
1070
   174
1070
     1
1070
     6
1000
OPEN30
1070
     7
1000
GENDOT
1002
}
  0
DIMENSION
  5
DD1
  8
AM_5
  2
*D14
 10
188.1788926049062
 20
546.00599872763905
 30
0.0
 11
189.6788926049062
 21
552.50599872763905
 31
0.0
 70
     0
 13
191.1788926049062
 23
522.00599772763906
 33
0.0
 14
188.1788926049062
 24
522.00599772763906
 34
0.0
1001
ACAD
1000
DSTYLE
1002
{
1070
    40
1040
2.0
1070
   173
1070
     1
1070
   174
1070
     1
1070
     6
1000
OPEN30
1070
     7
1000
GENDOT
1002
}
  0
DIMENSION
  5
EE0
  8
AM_5
  2
*D16
 10
261.7389776593896
 20
546.00599872763905
 30
0.0
 11
263.2389776593896
 21
552.50599872763905
 31
0.0
 70
     0
 13
264.73897765938949
 23
522.00599772763906
 33
0.0
 14
261.7389776593896
 24
522.00599772763906
 34
0.0
1001
ACAD
1000
DSTYLE
1002
{
1070
    40
1040
2.0
1070
   173
1070
     1
1070
   174
1070
     1
1070
     6
1000
GENDOT
1070
     7
1000
OPEN30
1002
}
  0
DIMENSION
  5
F38
  8
AM_5
  2
*D17
 10
286.7389776593896
 20
226.92724764241481
 30
0.0
 11
274.2389776593896
 21
233.42793661879281
 31
0.0
 70
     0
 13
261.7389776593896
 23
202.92724664241479
 33
0.0
 14
286.7389776593896
 24
202.92724664241479
 34
0.0
1001
ACAD
1000
DSTYLE
1002
{
1070
    40
1040
2.0
1002
}
  0
DIMENSION
  5
F70
  8
AM_5
  2
*D18
 10
237.73897665938949
 20
152.92724664241479
 30
0.0
 11
231.23897665938949
 21
177.9272466424149
 31
0.0
 70
     0
 13
261.7389776593896
 23
202.92724664241479
 33
0.0
 14
261.7389776593896
 24
152.92724664241479
 34
0.0
 50
90.000000000000028
1001
ACAD
1000
DSTYLE
1002
{
1070
    40
1040
2.0
1002
}
  0
DIMENSION
  5
FF9
  8
AM_5
  2
*D19
 10
131.6288926049061
 20
297.50599772763923
 30
0.0
 11
125.1282036285281
 21
397.50599772763923
 31
0.0
 70
     0
 13
155.6288926049061
 23
497.50599772763923
 33
0.0
 14
155.6288926049061
 24
297.50599772763923
 34
0.0
 50
90.000000000000028
1001
ACAD
1000
DSTYLE
1002
{
1070
    40
1040
2.0
1070
   174
1070
     1
1002
}
  0
DIMENSION
  5
1035
  8
AM_5
  2
*D20
 10
131.62889260490621
 20
273.00599772763923
 30
0.0
 11
125.1282036285282
 21
285.25599772763923
 31
0.0
 70
     0
 13
155.6288926049061
 23
297.50599772763923
 33
0.0
 14
141.1788926049062
 24
273.00599772763923
 34
0.0
 50
90.0
1001
ACAD
1000
DSTYLE
1002
{
1070
   174
1070
     1
1070
    40
1040
2.0
1002
}
  0
DIMENSION
  5
1065
  8
AM_5
  2
*D21
 10
131.62889260490601
 20
497.50599772763923
 30
0.0
 11
125.1282036285279
 21
509.75599772763911
 31
0.0
 70
     0
 13
141.1788926049062
 23
522.00599772763906
 33
0.0
 14
155.6288926049061
 24
497.50599772763923
 34
0.0
 50
90.0
1001
ACAD
1000
DSTYLE
1002
{
1070
   174
1070
     1
1070
    40
1040
2.0
1002
}
  0
DIMENSION
  5
10A1
  8
AM_5
  2
*D22
 10
141.1788926049062
 20
249.00599672763909
 30
0.0
 11
151.1788926049062
 21
255.50668570401709
 31
0.0
 70
     0
 13
161.1788926049062
 23
291.95599772763921
 33
0.0
 14
141.1788926049062
 24
273.00599772763923
 34
0.0
 50
0.0000000000001132
1001
ACAD
1000
DSTYLE
1002
{
1070
    40
1040
2.0
1070
   174
1070
     1
1002
}
  0
DIMENSION
  5
10DD
  8
AM_5
  2
*D23
 10
191.1788926049062
 20
249.00599672763931
 30
0.0
 11
176.1788926049062
 21
255.50599672763931
 31
0.0
 70
     0
 13
161.1788926049062
 23
291.95599772763921
 33
0.0
 14
191.1788926049062
 24
273.00599772763923
 34
0.0
1001
ACAD
1000
DSTYLE
1002
{
1070
   174
1070
     1
1070
    40
1040
2.0
1002
}
  0
DIMENSION
  5
1119
  8
AM_5
  2
*D24
 10
191.1788926049062
 20
566.00599872763905
 30
0.0
 11
166.1788926049062
 21
572.50599872763917
 31
0.0
 70
     0
 13
141.1788926049062
 23
522.00599772763906
 33
0.0
 14
191.1788926049062
 24
522.00599772763906
 34
0.0
 50
0.0000000000000114
1001
ACAD
1000
DSTYLE
1002
{
1070
    40
1040
2.0
1002
}
  0
DIMENSION
  5
1151
  8
AM_5
  2
*D25
 10
111.628892604906
 20
273.00599772763923
 30
0.0
 11
105.1282036285281
 21
397.50599772763923
 31
0.0
 70
     0
 13
141.1788926049062
 23
522.00599772763906
 33
0.0
 14
141.1788926049062
 24
273.00599772763923
 34
0.0
 50
90.000000000000028
1001
ACAD
1000
DSTYLE
1002
{
1070
    40
1040
2.0
1002
}
  0
DIMENSION
  5
1182
  8
AM_5
  2
*D26
 10
158.8329710748238
 20
496.50642173017962
 30
0.0
 11
215.42896857530641
 21
516.21142400211352
 31
0.0
 70
   131
 15
163.5248141349883
 25
498.50557372509849
 35
0.0
 40
0.0
1001
ACAD
1000
DSTYLE
1002
{
1070
    40
1040
2.0
1002
}
  0
LINE
  5
11C5
  8
AM_7
  6
AM_ISO08W050X2
 10
279.73897765938949
 20
497.50599772763923
 30
0.0
 11
285.91648985380471
 21
497.50599772763923
 31
0.0
1001
GENIUS_GENOREF_13
1005
11C9
  0
LINE
  5
11C6
  8
AM_7
  6
AM_ISO08W050X2
 10
279.73897765938949
 20
497.50599772763923
 30
0.0
 11
279.73897765938949
 21
503.68350992205433
 31
0.0
1001
GENIUS_GENOREF_13
1005
11C9
  0
LINE
  5
11C7
  8
AM_7
  6
AM_ISO08W050X2
 10
279.73897765938949
 20
497.50599772763923
 30
0.0
 11
273.56146546497439
 21
497.50599772763923
 31
0.0
1001
GENIUS_GENOREF_13
1005
11C9
  0
LINE
  5
11C8
  8
AM_7
  6
AM_ISO08W050X2
 10
279.73897765938949
 20
497.50599772763923
 30
0.0
 11
279.73897765938949
 21
491.32848553322401
 31
0.0
1001
GENIUS_GENOREF_13
1005
11C9
  0
POINT
  5
11C9
  8
0
 10
0.0
 20
0.0
 30
0.0
1001
GENIUS_GENODEF_13
1002
{
1000
HIER
1070
    10
1002
}
1002
{
1000
MANEDIT
1070
     0
1002
}
1002
{
1000
NOSEL
1070
     0
1002
}
1002
{
1000
BEHIND
1070
     0
1002
}
1002
{
1000
OTHER
1070
     0
1002
}
1002
{
1000
REACTOR
1002
}
1001
GENIUS_GENOLIS_13
1002
{
1000
ENT
1005
11C8
1005
11C7
1005
11C6
1005
11C5
1002
}
1001
GENIUS_GENOENT_13
1002
{
1000
MYREF
1005
11C9
1002
}
1002
{
1000
GRP
1005
0
1002
}
1001
GENIUS_GENOBJ-N-CRS_13
1002
{
1000
OWNER
1000
GEN
1002
}
  0
LINE
  5
11D7
  8
AM_7
  6
AM_ISO08W050X2
 10
279.73897765938949
 20
447.50599772763923
 30
0.0
 11
286.03576635529248
 21
447.50599772763923
 31
0.0
1001
GENIUS_GENOREF_13
1005
11DB
  0
LINE
  5
11D8
  8
AM_7
  6
AM_ISO08W050X2
 10
279.73897765938949
 20
447.50599772763923
 30
0.0
 11
279.73897765938949
 21
453.8027864235421
 31
0.0
1001
GENIUS_GENOREF_13
1005
11DB
  0
LINE
  5
11D9
  8
AM_7
  6
AM_ISO08W050X2
 10
279.73897765938949
 20
447.50599772763923
 30
0.0
 11
273.4421889634865
 21
447.50599772763923
 31
0.0
1001
GENIUS_GENOREF_13
1005
11DB
  0
LINE
  5
11DA
  8
AM_7
  6
AM_ISO08W050X2
 10
279.73897765938949
 20
447.50599772763923
 30
0.0
 11
279.73897765938949
 21
441.20920903173612
 31
0.0
1001
GENIUS_GENOREF_13
1005
11DB
  0
POINT
  5
11DB
  8
0
 10
0.0
 20
0.0
 30
0.0
1001
GENIUS_GENODEF_13
1002
{
1000
HIER
1070
    10
1002
}
1002
{
1000
MANEDIT
1070
     0
1002
}
1002
{
1000
NOSEL
1070
     0
1002
}
1002
{
1000
BEHIND
1070
     0
1002
}
1002
{
1000
OTHER
1070
     0
1002
}
1002
{
1000
REACTOR
1002
}
1001
GENIUS_GENOBJ-N-CRS_13
1002
{
1000
OWNER
1000
GEN
1002
}
1001
GENIUS_GENOLIS_13
1002
{
1000
ENT
1005
11DA
1005
11D9
1005
11D8
1005
11D7
1002
}
1001
GENIUS_GENOENT_13
1002
{
1000
MYREF
1005
11DB
1002
}
1002
{
1000
GRP
1005
0
1002
}
  0
LINE
  5
11E9
  8
AM_7
  6
AM_ISO08W050X2
 10
279.73897765938949
 20
347.50599772763923
 30
0.0
 11
285.99606445305432
 21
347.50599772763923
 31
0.0
1001
GENIUS_GENOREF_13
1005
11ED
  0
LINE
  5
11EA
  8
AM_7
  6
AM_ISO08W050X2
 10
279.73897765938949
 20
347.50599772763923
 30
0.0
 11
279.73897765938949
 21
353.76308452130399
 31
0.0
1001
GENIUS_GENOREF_13
1005
11ED
  0
LINE
  5
11EB
  8
AM_7
  6
AM_ISO08W050X2
 10
279.73897765938949
 20
347.50599772763923
 30
0.0
 11
273.48189086572478
 21
347.50599772763923
 31
0.0
1001
GENIUS_GENOREF_13
1005
11ED
  0
LINE
  5
11EC
  8
AM_7
  6
AM_ISO08W050X2
 10
279.73897765938949
 20
347.50599772763923
 30
0.0
 11
279.73897765938949
 21
341.2489109339744
 31
0.0
1001
GENIUS_GENOREF_13
1005
11ED
  0
POINT
  5
11ED
  8
0
 10
0.0
 20
0.0
 30
0.0
1001
GENIUS_GENOLIS_13
1002
{
1000
ENT
1005
11EC
1005
11EB
1005
11EA
1005
11E9
1002
}
1001
GENIUS_GENOENT_13
1002
{
1000
MYREF
1005
11ED
1002
}
1002
{
1000
GRP
1005
0
1002
}
1001
GENIUS_GENOBJ-N-CRS_13
1002
{
1000
OWNER
1000
GEN
1002
}
1001
GENIUS_GENODEF_13
1002
{
1000
HIER
1070
    10
1002
}
1002
{
1000
MANEDIT
1070
     0
1002
}
1002
{
1000
NOSEL
1070
     0
1002
}
1002
{
1000
BEHIND
1070
     0
1002
}
1002
{
1000
OTHER
1070
     0
1002
}
1002
{
1000
REACTOR
1002
}
  0
LINE
  5
11FB
  8
AM_7
  6
AM_ISO08W050X2
 10
279.73897765938949
 20
297.50599772763923
 30
0.0
 11
286.12712184495598
 21
297.50599772763923
 31
0.0
1001
GENIUS_GENOREF_13
1005
11FF
  0
LINE
  5
11FC
  8
AM_7
  6
AM_ISO08W050X2
 10
279.73897765938949
 20
297.50599772763923
 30
0.0
 11
279.73897765938949
 21
303.8941419132056
 31
0.0
1001
GENIUS_GENOREF_13
1005
11FF
  0
LINE
  5
11FD
  8
AM_7
  6
AM_ISO08W050X2
 10
279.73897765938949
 20
297.50599772763923
 30
0.0
 11
273.35083347382312
 21
297.50599772763923
 31
0.0
1001
GENIUS_GENOREF_13
1005
11FF
  0
LINE
  5
11FE
  8
AM_7
  6
AM_ISO08W050X2
 10
279.73897765938949
 20
297.50599772763923
 30
0.0
 11
279.73897765938949
 21
291.11785354207268
 31
0.0
1001
GENIUS_GENOREF_13
1005
11FF
  0
POINT
  5
11FF
  8
0
 10
0.0
 20
0.0
 30
0.0
1001
GENIUS_GENODEF_13
1002
{
1000
HIER
1070
    10
1002
}
1002
{
1000
MANEDIT
1070
     0
1002
}
1002
{
1000
NOSEL
1070
     0
1002
}
1002
{
1000
BEHIND
1070
     0
1002
}
1002
{
1000
OTHER
1070
     0
1002
}
1002
{
1000
REACTOR
1002
}
1001
GENIUS_GENOLIS_13
1002
{
1000
ENT
1005
11FE
1005
11FD
1005
11FC
1005
11FB
1002
}
1001
GENIUS_GENOENT_13
1002
{
1000
MYREF
1005
11FF
1002
}
1002
{
1000
GRP
1005
0
1002
}
1001
GENIUS_GENOBJ-N-CRS_13
1002
{
1000
OWNER
1000
GEN
1002
}
  0
DIMENSION
  5
120F
  8
AM_5
  2
*D27
 10
310.73897765938949
 20
497.50599772763923
 30
0.0
 11
304.23828868301149
 21
509.75599772763923
 31
0.0
 70
     0
 13
286.7389776593896
 23
522.00599772763906
 33
0.0
 14
286.7389776593896
 24
497.50599772763923
 34
0.0
 50
90.0
1001
ACAD
1000
DSTYLE
1002
{
1070
    40
1040
2.0
1070
   174
1070
     1
1002
}
  0
DIMENSION
  5
124B
  8
AM_5
  2
*D28
 10
310.73897765938949
 20
497.50599772763923
 30
0.0
 11
304.23897765938949
 21
472.50599772763928
 31
0.0
 70
     0
 13
286.03576635529248
 23
447.50599772763923
 33
0.0
 14
286.7389776593896
 24
497.50599772763923
 34
0.0
 50
90.0
1001
ACAD
1000
DSTYLE
1002
{
1070
   174
1070
     1
1070
    40
1040
2.0
1002
}
  0
DIMENSION
  5
127B
  8
AM_5
  2
*D29
 10
310.73897765938949
 20
447.50599772763923
 30
0.0
 11
304.23897765938938
 21
397.50599772763928
 31
0.0
 70
     0
 13
285.99606445305432
 23
347.50599772763923
 33
0.0
 14
286.03576635529248
 24
447.50599772763923
 34
0.0
 50
90.0
1001
ACAD
1000
DSTYLE
1002
{
1070
   174
1070
     1
1070
    40
1040
2.0
1002
}
  0
DIMENSION
  5
12AB
  8
AM_5
  2
*D30
 10
310.7389776593896
 20
347.50599772763923
 30
0.0
 11
304.23897765938949
 21
322.50599772763928
 31
0.0
 70
     0
 13
286.12712184495598
 23
297.50599772763923
 33
0.0
 14
285.99606445305432
 24
347.50599772763923
 34
0.0
 50
90.0
1001
ACAD
1000
DSTYLE
1002
{
1070
   174
1070
     1
1070
    40
1040
2.0
1002
}
  0
DIMENSION
  5
12DB
  8
AM_5
  2
*D31
 10
310.7389776593896
 20
297.50599772763923
 30
0.0
 11
304.2382886830116
 21
285.25599772763928
 31
0.0
 70
     0
 13
286.7389776593896
 23
273.00599772763923
 33
0.0
 14
286.12712184495598
 24
297.50599772763923
 34
0.0
 50
90.0
1001
ACAD
1000
DSTYLE
1002
{
1070
   174
1070
     1
1070
    40
1040
2.0
1002
}
  0
VIEWPORT
  5
17C
 67
     1
  8
0
 10
133.34999084472651
 20
101.5999970436096
 30
0.0
 40
370.22669129365238
 41
228.4221935424805
 68
     1
 69
     1
1001
ACAD
1000
MVIEW
1002
{
1070
    16
1010
0.0
1020
0.0
1030
0.0
1010
0.0
1020
0.0
1030
1.0
1040
0.0
1040
228.4221935424805
1040
133.34999084472651
1040
101.5999970436096
1040
50.0
1040
0.0
1040
0.0
1070
     0
1070
   100
1070
     1
1070
     1
1070
     0
1070
     0
1070
     0
1070
     0
1040
0.0
1040
0.0
1040
0.0
1040
10.0
1040
10.0
1040
10.0
1040
10.0
1070
     0
1002
{
1002
}
1002
}
1001
GENIUS_GENOBJ-N-SDF_13
1002
{
1000
OWNER
1000
GEN
1002
}
1001
GENIUS_GENODEF_13
1002
{
1000
HIER
1070
     0
1002
}
1002
{
1000
MANEDIT
1070
     0
1002
}
1002
{
1000
NOSEL
1070
     0
1002
}
1002
{
1000
BEHIND
1070
     0
1002
}
1002
{
1000
OTHER
1070
     0
1002
}
1002
{
1000
REACTOR
1002
}
1001
GENIUS_GENSCREG_15
1000
PF
1040
1.0
1000
DF
1040
1.0
1000
MIN
1011
-51.763354802099627
1021
0.0
1031
9.5445205666390278E+234
1021
-12.6110997276306
1031
0.0
1000
MAX
1011
318.4633364915527
1021
0.0
1031
9.5445205666390278E+234
1021
215.8110938148499
1031
0.0
1000
FLAGS
1070
     4
  0
ENDSEC
  0
EOF
