  0
SECTION
  2
HEADER
  9
$ACADVER
  1
AC1009
  9
$INSBASE
 10
0.0
 20
0.0
 30
0.0
  9
$EXTMIN
 10
39.99999999999995
 20
30.0
 30
0.0
  9
$EXTMAX
 10
430.00000000000011
 20
580.00000000000011
 30
0.0
  9
$LIMMIN
 10
0.0
 20
0.0
  9
$LIMMAX
 10
390.00000000000028
 20
550.0
  9
$ORTHOMODE
 70
     0
  9
$REGENMODE
 70
     1
  9
$FILLMODE
 70
     1
  9
$QTEXTMODE
 70
     0
  9
$MIRRTEXT
 70
     1
  9
$DRAGMODE
 70
     2
  9
$LTSCALE
 40
2.0
  9
$OSMODE
 70
  2999
  9
$ATTMODE
 70
     1
  9
$TEXTSIZE
 40
73.985717453579113
  9
$TRACEWID
 40
1.0
  9
$TEXTSTYLE
  7
STANDARD
  9
$CLAYER
  8
TK1
  9
$CELTYPE
  6
BYLAYER
  9
$CECOLOR
 62
   256
  9
$DIMSCALE
 40
2.0
  9
$DIMASZ
 40
2.5
  9
$DIMEXO
 40
1.0
  9
$DIMDLI
 40
10.0
  9
$DIMRND
 40
0.0
  9
$DIMDLE
 40
0.0
  9
$DIMEXE
 40
1.0
  9
$DIMTP
 40
0.1
  9
$DIMTM
 40
0.1
  9
$DIMTXT
 40
3.5
  9
$DIMCEN
 40
0.0
  9
$DIMTSZ
 40
0.0
  9
$DIMTOL
 70
     0
  9
$DIMLIM
 70
     0
  9
$DIMTIH
 70
     0
  9
$DIMTOH
 70
     0
  9
$DIMSE1
 70
     0
  9
$DIMSE2
 70
     0
  9
$DIMTAD
 70
     1
  9
$DIMZIN
 70
     8
  9
$DIMBLK
  1
OPEN30
  9
$DIMASO
 70
     1
  9
$DIMSHO
 70
     1
  9
$DIMPOST
  1

  9
$DIMAPOST
  1
"
  9
$DIMALT
 70
     0
  9
$DIMALTD
 70
     2
  9
$DIMALTF
 40
0.0393701
  9
$DIMLFAC
 40
1.0
  9
$DIMTOFL
 70
     1
  9
$DIMTVP
 40
0.0
  9
$DIMTIX
 70
     0
  9
$DIMSOXD
 70
     0
  9
$DIMSAH
 70
     0
  9
$DIMBLK1
  1

  9
$DIMBLK2
  1

  9
$DIMSTYLE
  2
AM_ISO
  9
$DIMCLRD
 70
   256
  9
$DIMCLRE
 70
   256
  9
$DIMCLRT
 70
     2
  9
$DIMTFAC
 40
0.71
  9
$DIMGAP
 40
1.5
  9
$LUNITS
 70
     2
  9
$LUPREC
 70
     2
  9
$SKETCHINC
 40
1.0
  9
$FILLETRAD
 40
4.0
  9
$AUNITS
 70
     0
  9
$AUPREC
 70
     0
  9
$MENU
  1
.
  9
$ELEVATION
 40
0.0
  9
$PELEVATION
 40
0.0
  9
$THICKNESS
 40
0.0
  9
$LIMCHECK
 70
     0
  9
$BLIPMODE
 70
     0
  9
$CHAMFERA
 40
5.0
  9
$CHAMFERB
 40
5.0
  9
$SKPOLY
 70
     0
  9
$TDCREATE
 40
2453328.6079479512
  9
$TDUPDATE
 40
2454350.4518191088
  9
$TDINDWG
 40
0.0109018634
  9
$TDUSRTIMER
 40
0.0109018634
  9
$USRTIMER
 70
     1
  9
$ANGBASE
 50
0.0
  9
$ANGDIR
 70
     0
  9
$PDMODE
 70
     0
  9
$PDSIZE
 40
0.0
  9
$PLINEWID
 40
0.0
  9
$COORDS
 70
     0
  9
$SPLFRAME
 70
     0
  9
$SPLINETYPE
 70
     6
  9
$SPLINESEGS
 70
     8
  9
$ATTDIA
 70
     1
  9
$ATTREQ
 70
     1
  9
$HANDLING
 70
     1
  9
$HANDSEED
  5
13CA
  9
$SURFTAB1
 70
     6
  9
$SURFTAB2
 70
     6
  9
$SURFTYPE
 70
     6
  9
$SURFU
 70
     6
  9
$SURFV
 70
     6
  9
$UCSNAME
  2

  9
$UCSORG
 10
0.0
 20
0.0
 30
0.0
  9
$UCSXDIR
 10
1.0
 20
0.0
 30
0.0
  9
$UCSYDIR
 10
0.0
 20
1.0
 30
0.0
  9
$PUCSNAME
  2

  9
$PUCSORG
 10
0.0
 20
0.0
 30
0.0
  9
$PUCSXDIR
 10
1.0
 20
0.0
 30
0.0
  9
$PUCSYDIR
 10
0.0
 20
1.0
 30
0.0
  9
$USERI1
 70
     0
  9
$USERI2
 70
     0
  9
$USERI3
 70
     0
  9
$USERI4
 70
     0
  9
$USERI5
 70
     0
  9
$USERR1
 40
0.0
  9
$USERR2
 40
0.0
  9
$USERR3
 40
0.0
  9
$USERR4
 40
0.0
  9
$USERR5
 40
0.0
  9
$WORLDVIEW
 70
     1
  9
$SHADEDGE
 70
     3
  9
$SHADEDIF
 70
    70
  9
$TILEMODE
 70
     1
  9
$MAXACTVP
 70
    64
  9
$PLIMCHECK
 70
     0
  9
$PEXTMIN
 10
1.0000000000000000E+020
 20
1.0000000000000000E+020
 30
1.0000000000000000E+020
  9
$PEXTMAX
 10
-1.0000000000000000E+020
 20
-1.0000000000000000E+020
 30
-1.0000000000000000E+020
  9
$PLIMMIN
 10
-6.350006103515625
 20
-6.3499999046325684
  9
$PLIMMAX
 10
273.04998779296881
 20
209.54999399185181
  9
$UNITMODE
 70
     0
  9
$VISRETAIN
 70
     1
  9
$PLINEGEN
 70
     0
  9
$PSLTSCALE
 70
     1
  0
ENDSEC
  0
SECTION
  2
TABLES
  0
TABLE
  2
VPORT
 70
     3
  0
VPORT
  2
*ACTIVE
 70
     0
 10
0.0
 20
0.0
 11
1.0
 21
1.0
 12
234.9959171633916
 22
312.34820850887928
 13
0.0
 23
0.0
 14
5.0
 24
5.0
 15
20.0
 25
20.0
 16
0.0
 26
0.0
 36
1.0
 17
0.0
 27
0.0
 37
0.0
 40
568.82069601270655
 41
1.459492140266021
 42
50.0
 43
0.0
 44
0.0
 50
0.0
 51
0.0
 71
     0
 72
   100
 73
     1
 74
     3
 75
     0
 76
     0
 77
     0
 78
     0
  0
ENDTAB
  0
TABLE
  2
LTYPE
 70
    20
  0
LTYPE
  2
CONTINUOUS
 70
     0
  3
Solid line
 72
    65
 73
     0
 40
0.0
  0
LTYPE
  2
AM_ISO02W050
 70
     0
  3
__ __ __ __ __ __ __ __ __ __ __ __ __ __ __
 72
    65
 73
     2
 40
7.5
 49
6.0
 49
-1.5
  0
LTYPE
  2
AM_ISO08W050
 70
     0
  3
____ . ____ . ____ . ____ . ____ . ____ . ____
 72
    65
 73
     4
 40
18.0
 49
12.0
 49
-1.5
 49
3.0
 49
-1.5
  0
LTYPE
  2
AM_ISO09W050
 70
     0
  3
_____ . . _____ . . _____ . . ____ .. ____
 72
    65
 73
     6
 40
22.5
 49
12.0
 49
-1.5
 49
3.0
 49
-1.5
 49
3.0
 49
-1.5
  0
LTYPE
  2
AMCONSTR
 70
     0
  3
_______________________
 72
    65
 73
     2
 40
9999.0
 49
9999.0
 49
0.0
  0
LTYPE
  2
AM_ISO08W050X2
 70
     0
  3
__ . __ . __ . __ . __ . __
 72
    65
 73
     4
 40
9.0
 49
6.0
 49
-0.75
 49
1.5
 49
-0.75
  0
LTYPE
  2
AM_ISO02W050X2
 70
     0
  3
 _ _ _ _ _ _ _ _ _ _ _ _
 72
    65
 73
     2
 40
3.75
 49
3.0
 49
-0.75
  0
LTYPE
  2
AMZIGZAG
 70
     0
  3
/\/-/\/-/\/-/\/-/\/-/\/
 72
    65
 73
     2
 40
11.0001
 49
0.0001
 49
-11.0
  0
LTYPE
  2
ACISOWELD
 70
     0
  3
_ _ _ _ _
 72
    65
 73
     2
 40
2.0
 49
2.0
 49
-1.0
  0
LTYPE
  2
ACISOTGB
 70
     0
  3
__ . . __ . .
 72
    65
 73
     6
 40
9.0
 49
4.0
 49
-1.0
 49
1.0
 49
-1.0
 49
1.0
 49
-1.0
  0
LTYPE
  2
ACISOTGL
 70
     0
  3
_ _ _ _ _
 72
    65
 73
     2
 40
3.0
 49
2.0
 49
-1.0
  0
LTYPE
  2
CENTER
 70
     0
  3
__ . __
 72
    65
 73
     4
 40
7.0
 49
4.0
 49
-1.0
 49
1.0
 49
-1.0
  0
LTYPE
  2
HIDDEN
 70
     0
  3
Hidden __ __ __ __ __ __ __ __ __ __ __ __ __ _
 72
    65
 73
     2
 40
9.5249999999999986
 49
6.3499999999999988
 49
-3.1749999999999989
  0
LTYPE
  2
PHANTOM2
 70
     0
  3
Phantom (.5x) ___ _ _ ___ _ _ ___ _ _ ___ _ _
 72
    65
 73
     6
 40
31.75
 49
15.875
 49
-3.1749999999999989
 49
3.1749999999999989
 49
-3.1749999999999989
 49
3.1749999999999989
 49
-3.1749999999999989
  0
LTYPE
  2
GEN3
 70
     0
  3
-- -- -- -- -- -- -- -- -- -- -- -- -- -- --
 72
    65
 73
     2
 40
6.25
 49
4.75
 49
-1.5
  0
LTYPE
  2
GEN7
 70
     0
  3
____ . ____ . ____ . ____ . ____ . ____ . ____
 72
    65
 73
     4
 40
13.75
 49
9.75
 49
-1.5
 49
1.0
 49
-1.5
  0
LTYPE
  2
GEN3A
 70
     0
  3
 - - - - -
 72
    65
 73
     2
 40
3.125
 49
2.25
 49
-0.875
  0
LTYPE
  2
GEN7A
 70
     0
  3
__ . __ . __
 72
    65
 73
     4
 40
6.875
 49
4.75
 49
-0.875
 49
0.375
 49
-0.875
  0
LTYPE
  2
GEN4A
 70
     0
  3
_____ . . _____ . . _____ . . ____ .. ____
 72
    65
 73
     6
 40
16.25
 49
9.75
 49
-1.5
 49
1.0
 49
-1.5
 49
1.0
 49
-1.5
  0
LTYPE
  2
GENZIGZAG
 70
     0
  3
/\/-/\/-/\/-/\/-/\/-/\/
 72
    65
 73
     2
 40
12.0001
 49
0.0001
 49
-12.0
  0
ENDTAB
  0
TABLE
  2
LAYER
 70
    19
  0
LAYER
  2
0
 70
     0
 62
     7
  6
CONTINUOUS
  0
LAYER
  2
DEFPOINTS
 70
     0
 62
     7
  6
CONTINUOUS
  0
LAYER
  2
TK1
 70
     0
 62
     7
  6
CONTINUOUS
  0
LAYER
  2
RAHM2
 70
     0
 62
     1
  6
CONTINUOUS
  0
LAYER
  2
KLIN
 70
     0
 62
     1
  6
CONTINUOUS
  0
LAYER
  2
7A
 70
     0
 62
     4
  6
GEN7A
  0
LAYER
  2
TK2
 70
     0
 62
    51
  6
CONTINUOUS
  0
LAYER
  2
TK3
 70
     0
 62
    91
  6
CONTINUOUS
  0
LAYER
  2
TK30
 70
     0
 62
    91
  6
AM_ISO02W050
  0
LAYER
  2
TK20
 70
     0
 62
    51
  6
AM_ISO02W050
  0
LAYER
  2
TK10
 70
     0
 62
     7
  6
AM_ISO02W050
  0
LAYER
  2
AM_5
 70
     0
 62
     3
  6
CONTINUOUS
  0
LAYER
  2
AM_7
 70
     0
 62
     4
  6
AM_ISO08W050
  0
LAYER
  2
AM_CL
 70
     0
 62
     1
  6
AMCONSTR
  0
LAYER
  2
AM_10
 70
     0
 62
     7
  6
AM_ISO08W050
  0
LAYER
  2
AM_4
 70
     0
 62
     3
  6
CONTINUOUS
  0
LAYER
  2
AM_0
 70
     0
 62
     7
  6
CONTINUOUS
  0
LAYER
  2
AM_12
 70
     0
 62
     7
  6
CONTINUOUS
  0
LAYER
  2
AM_PAREF
 70
     0
 62
     4
  6
CONTINUOUS
  0
ENDTAB
  0
TABLE
  2
STYLE
 70
    10
  0
STYLE
  2
STANDARD
 70
     0
 40
0.0
 41
1.0
 50
0.0
 71
     0
 42
73.985717453579113
  3
ISOCP.SHX
  4
bigfont.shx
  0
STYLE
  2

 70
     1
 40
0.0
 41
1.0
 50
0.0
 71
     0
 42
2.5
  3
ltypeshp.shx
  4

  0
STYLE
  2
ACISOTS
 70
     0
 40
1.0
 41
1.0
 50
0.0
 71
     0
 42
2.5
  3
isocp.shx
  4
extfont.shx
  0
STYLE
  2
ACISOGDT
 70
     0
 40
0.0
 41
1.0
 50
0.0
 71
     0
 42
2.5
  3
amgdt.shx
  4

  0
STYLE
  2
USER1
 70
     0
 40
0.0
 41
1.0
 50
0.0
 71
     0
 42
2.5
  3
TXT.SHX
  4

  0
STYLE
  2
USER2
 70
     0
 40
0.0
 41
1.0
 50
0.0
 71
     0
 42
2.5
  3
SIMPLEX.SHX
  4

  0
STYLE
  2
USER3
 70
     0
 40
0.0
 41
1.0
 50
0.0
 71
     0
 42
2.5
  3
ITALIC.SHX
  4

  0
STYLE
  2
ACJISTS
 70
     0
 40
1.0
 41
1.0
 50
0.0
 71
     0
 42
2.5
  3
isocp.shx
  4
bigfont.shx
  0
STYLE
  2
ACJISGDT
 70
     0
 40
0.0
 41
1.0
 50
0.0
 71
     0
 42
2.5
  3
amgdt.shx
  4

  0
STYLE
  2

 70
     1
 40
0.0
 41
1.0
 50
0.0
 71
     0
 42
2.5
  3
genltshp.shx
  4

  0
ENDTAB
  0
TABLE
  2
VIEW
 70
     6
  0
VIEW
  2
AM_VIEW1
 70
     0
 40
275.0
 10
210.34429280397029
 20
412.5
 41
420.68858560794052
 11
0.0
 21
0.0
 31
1.0
 12
0.0
 22
0.0
 32
0.0
 42
50.0
 43
0.0
 44
0.0
 50
0.0
 71
     0
  0
VIEW
  2
AM_VIEW2
 70
     0
 40
275.0
 10
179.65570719602991
 20
412.5
 41
420.68858560794052
 11
0.0
 21
0.0
 31
1.0
 12
0.0
 22
0.0
 32
0.0
 42
50.0
 43
0.0
 44
0.0
 50
0.0
 71
     0
  0
VIEW
  2
AM_VIEW3
 70
     0
 40
275.0
 10
210.34429280397029
 20
137.5
 41
420.68858560794052
 11
0.0
 21
0.0
 31
1.0
 12
0.0
 22
0.0
 32
0.0
 42
50.0
 43
0.0
 44
0.0
 50
0.0
 71
     0
  0
VIEW
  2
AM_VIEW4
 70
     0
 40
275.0
 10
179.65570719602991
 20
137.5
 41
420.68858560794052
 11
0.0
 21
0.0
 31
1.0
 12
0.0
 22
0.0
 32
0.0
 42
50.0
 43
0.0
 44
0.0
 50
0.0
 71
     0
  0
VIEW
  2
AM_VIEW5
 70
     0
 40
275.00000000000011
 10
195.00000000000011
 20
275.0
 41
420.68858560794041
 11
0.0
 21
0.0
 31
1.0
 12
0.0
 22
0.0
 32
0.0
 42
50.0
 43
0.0
 44
0.0
 50
0.0
 71
     0
  0
VIEW
  2
AM_VIEW6
 70
     0
 40
549.99450000000013
 10
195.00000000000011
 20
275.0
 41
841.36875744416898
 11
0.0
 21
0.0
 31
1.0
 12
0.0
 22
0.0
 32
0.0
 42
50.0
 43
0.0
 44
0.0
 50
0.0
 71
     0
  0
ENDTAB
  0
TABLE
  2
UCS
 70
     0
  0
ENDTAB
  0
TABLE
  2
APPID
 70
    36
  0
APPID
  2
ACAD
 70
     0
  0
APPID
  2
MCAD_NO_VIS
 70
     0
  0
APPID
  2
ACAD_TEMP_GRAPHIC
 70
     0
  0
APPID
  2
ACATTRIBSERVICES
 70
     0
  0
APPID
  2
AD_DRAW
 70
     0
  0
APPID
  2
DESIGNERASSEMBLIES
 70
     0
  0
APPID
  2
ACADM_DIM_EDIT
 70
     0
  0
APPID
  2
AMDT_DM_ADJ
 70
     0
  0
APPID
  2
GENIUS_GENREC_14
 70
     0
  0
APPID
  2
GENIUS_GENODEF_13
 70
     0
  0
APPID
  2
GENIUS_GENOBJ-N-REC_13
 70
     0
  0
APPID
  2
GENIUS_GENDIMSH_14
 70
     0
  0
APPID
  2
GENIUS_GENCFG_13
 70
     0
  0
APPID
  2
GENIUS_GENCFG0_13
 70
     0
  0
APPID
  2
GENIUS_GENCFG1_13
 70
     0
  0
APPID
  2
GENIUS_GENCFG2_13
 70
     0
  0
APPID
  2
GENIUS_GENCFG3_13
 70
     0
  0
APPID
  2
GENIUS_GENCFG4_13
 70
     0
  0
APPID
  2
GENIUS_GEVCFG0_13
 70
     0
  0
APPID
  2
GENIUS_GENOENT_13
 70
     0
  0
APPID
  2
GENIUS_GENOBJ-N-CRS_13
 70
     0
  0
APPID
  2
GENIUS_GENOREF_13
 70
     0
  0
APPID
  2
GENIUS_GENOLIS_13
 70
     0
  0
APPID
  2
GENIUS_GENOBJ-N-TIT_13
 70
     0
  0
APPID
  2
GENIUS_GENTITLE_13
 70
     0
  0
APPID
  2
GENIUS_GENSCREG_15
 70
     0
  0
APPID
  2
GENIUS_GENOBJ-N-SDF_13
 70
     0
  0
APPID
  2
GENIUS_GENOBJ-N-CEN_13
 70
     0
  0
APPID
  2
GENIUS_GENOBJ-N-HTC_13
 70
     0
  0
APPID
  2
GENIUS_GENHATCH_13
 70
     0
  0
APPID
  2
GENIUS_GENOBJ-N-ZOO_13
 70
     0
  0
APPID
  2
GENIUS_GENZOO_17
 70
     0
  0
APPID
  2
GEV_VCCNULL_SWITCH_OFF
 70
     0
  0
APPID
  2
GENIUS_GENDTOL_13
 70
     0
  0
APPID
  2
GENIUS_GENOBJ-N-FIL_13
 70
     0
  0
APPID
  2
GENIUS_GENSCREG_13
 70
     0
  0
ENDTAB
  0
TABLE
  2
DIMSTYLE
 70
    15
  0
DIMSTYLE
  2
ISO-25
 70
     0
  3

  4

  5
OPEN30
  6

  7

 40
1.0
 41
2.5
 42
0.625
 43
3.75
 44
1.25
 45
0.0
 46
0.0
 47
0.0
 48
0.0
140
2.5
141
2.5
142
0.0
143
0.03937007874016
144
1.0
145
0.0
146
1.0
147
0.625
 71
     0
 72
     0
 73
     0
 74
     0
 75
     0
 76
     0
 77
     1
 78
     8
170
     0
171
     3
172
     1
173
     0
174
     0
175
     0
176
     0
177
     0
178
     0
  0
DIMSTYLE
  2
AM_ISO
 70
     0
  3

  4
"
  5
OPEN30
  6

  7

 40
1.0
 41
2.5
 42
1.0
 43
10.0
 44
1.0
 45
0.0
 46
0.0
 47
0.1
 48
0.1
140
3.5
141
0.0
142
0.0
143
0.0393701
144
1.0
145
0.0
146
0.71
147
1.5
 71
     0
 72
     0
 73
     0
 74
     0
 75
     0
 76
     0
 77
     1
 78
     8
170
     0
171
     2
172
     1
173
     0
174
     0
175
     0
176
   256
177
   256
178
     2
  0
DIMSTYLE
  2
AM_ISO$3
 70
     0
  3

  4
"
  5
OPEN30
  6

  7

 40
1.0
 41
2.5
 42
1.0
 43
10.0
 44
1.0
 45
0.0
 46
0.0
 47
0.1
 48
0.1
140
3.5
141
0.0
142
0.0
143
0.0393701
144
1.0
145
0.0
146
0.71
147
1.5
 71
     0
 72
     0
 73
     0
 74
     1
 75
     0
 76
     0
 77
     1
 78
     8
170
     0
171
     2
172
     0
173
     0
174
     0
175
     0
176
   256
177
   256
178
     2
  0
DIMSTYLE
  2
AM_ISO$4
 70
     0
  3

  4
"
  5
OPEN30
  6

  7

 40
1.0
 41
2.5
 42
1.0
 43
10.0
 44
1.0
 45
0.0
 46
0.0
 47
0.1
 48
0.1
140
3.5
141
0.0
142
0.0
143
0.0393701
144
1.0
145
0.0
146
0.71
147
1.5
 71
     0
 72
     0
 73
     0
 74
     1
 75
     0
 76
     0
 77
     1
 78
     8
170
     0
171
     2
172
     0
173
     0
174
     0
175
     0
176
   256
177
   256
178
     2
  0
DIMSTYLE
  2
AM_ISO$6
 70
     0
  3

  4
"
  5
OPEN30
  6

  7

 40
1.0
 41
2.5
 42
1.0
 43
10.0
 44
1.0
 45
0.0
 46
0.0
 47
0.1
 48
0.1
140
3.5
141
0.0
142
0.0
143
0.0393701
144
1.0
145
0.0
146
0.71
147
1.5
 71
     0
 72
     0
 73
     0
 74
     0
 75
     0
 76
     0
 77
     0
 78
     8
170
     0
171
     2
172
     1
173
     0
174
     0
175
     0
176
   256
177
   256
178
     2
  0
DIMSTYLE
  2
AM_ISO$7
 70
     0
  3

  4
"
  5
OPEN30
  6

  7

 40
1.0
 41
2.5
 42
1.0
 43
10.0
 44
1.0
 45
0.0
 46
0.0
 47
0.1
 48
0.1
140
5.0
141
0.0
142
0.0
143
0.0393701
144
1.0
145
0.0
146
0.71
147
1.5
 71
     0
 72
     0
 73
     0
 74
     0
 75
     0
 76
     0
 77
     1
 78
     8
170
     0
171
     2
172
     1
173
     0
174
     0
175
     0
176
   256
177
   256
178
     2
  0
DIMSTYLE
  2
AM_ISO$SF
 70
     0
  3

  4
"
  5
OPEN30
  6

  7

 40
1.0
 41
2.5
 42
1.0
 43
10.0
 44
1.0
 45
0.0
 46
0.0
 47
0.1
 48
0.1
140
3.5
141
0.0
142
0.0
143
0.0393701
144
1.0
145
0.0
146
0.71
147
1.5
 71
     0
 72
     0
 73
     0
 74
     0
 75
     1
 76
     1
 77
     1
 78
     8
170
     0
171
     2
172
     1
173
     0
174
     0
175
     0
176
   256
177
   256
178
     2
  0
DIMSTYLE
  2
AM_ISO$SH
 70
     0
  3

  4
"
  5

  6
GENAXEH
  7
OPEN30
 40
1.0
 41
2.5
 42
1.0
 43
10.0
 44
1.0
 45
0.0
 46
0.0
 47
0.1
 48
0.1
140
3.5
141
0.0
142
0.0
143
0.0393701
144
2.0
145
0.0
146
0.71
147
1.5
 71
     0
 72
     0
 73
     0
 74
     0
 75
     1
 76
     1
 77
     1
 78
     8
170
     0
171
     2
172
     1
173
     1
174
     0
175
     0
176
   256
177
   256
178
     2
  0
DIMSTYLE
  2
GEN-ISO
 70
     0
  3

  4
"
  5
OPEN30
  6

  7

 40
1.0
 41
2.5
 42
1.0
 43
10.0
 44
1.0
 45
0.0
 46
0.0
 47
0.1
 48
0.1
140
3.5
141
0.0
142
0.0
143
0.0393701
144
1.0
145
0.0
146
0.71
147
1.5
 71
     0
 72
     0
 73
     0
 74
     0
 75
     0
 76
     0
 77
     1
 78
     8
170
     0
171
     2
172
     1
173
     0
174
     0
175
     0
176
   256
177
   256
178
     2
  0
DIMSTYLE
  2
GEN-ISO$3
 70
     0
  3

  4
"
  5
OPEN30
  6

  7

 40
1.0
 41
2.5
 42
1.0
 43
10.0
 44
1.0
 45
0.0
 46
0.0
 47
0.1
 48
0.1
140
3.5
141
0.0
142
0.0
143
0.0393701
144
1.0
145
0.0
146
0.71
147
1.5
 71
     0
 72
     0
 73
     0
 74
     1
 75
     0
 76
     0
 77
     1
 78
     8
170
     0
171
     2
172
     0
173
     0
174
     0
175
     0
176
   256
177
   256
178
     2
  0
DIMSTYLE
  2
GEN-ISO$4
 70
     0
  3

  4
"
  5
OPEN30
  6

  7

 40
1.0
 41
2.5
 42
1.0
 43
10.0
 44
1.0
 45
0.0
 46
0.0
 47
0.1
 48
0.1
140
3.5
141
0.0
142
0.0
143
0.0393701
144
1.0
145
0.0
146
0.71
147
1.5
 71
     0
 72
     0
 73
     0
 74
     1
 75
     0
 76
     0
 77
     1
 78
     8
170
     0
171
     2
172
     0
173
     0
174
     0
175
     0
176
   256
177
   256
178
     2
  0
DIMSTYLE
  2
GEN-ISO$6
 70
     0
  3

  4
"
  5
OPEN30
  6

  7

 40
1.0
 41
2.5
 42
1.0
 43
10.0
 44
1.0
 45
0.0
 46
0.0
 47
0.1
 48
0.1
140
3.5
141
0.0
142
0.0
143
0.0393701
144
1.0
145
0.0
146
0.71
147
1.5
 71
     0
 72
     0
 73
     0
 74
     0
 75
     0
 76
     0
 77
     0
 78
     8
170
     0
171
     2
172
     0
173
     0
174
     0
175
     0
176
   256
177
   256
178
     2
  0
DIMSTYLE
  2
GEN-ISO-POS
 70
     0
  3

  4
"
  5
OPEN30
  6

  7

 40
1.0
 41
2.5
 42
1.0
 43
10.0
 44
1.0
 45
0.0
 46
0.0
 47
0.1
 48
0.1
140
5.0
141
0.0
142
0.0
143
0.0393701
144
1.0
145
0.0
146
0.71
147
1.5
 71
     0
 72
     0
 73
     0
 74
     0
 75
     0
 76
     0
 77
     0
 78
     8
170
     0
171
     2
172
     0
173
     0
174
     0
175
     0
176
   256
177
   256
178
     2
  0
DIMSTYLE
  2
GEN-ISO-AXE-F
 70
     0
  3

  4
"
  5
OPEN30
  6

  7

 40
1.0
 41
2.5
 42
1.0
 43
10.0
 44
1.0
 45
0.0
 46
0.0
 47
0.1
 48
0.1
140
3.5
141
0.0
142
0.0
143
0.0393701
144
1.0
145
0.0
146
0.71
147
1.5
 71
     0
 72
     0
 73
     0
 74
     0
 75
     1
 76
     1
 77
     1
 78
     8
170
     0
171
     2
172
     1
173
     0
174
     0
175
     0
176
   256
177
   256
178
     2
  0
DIMSTYLE
  2
GEN-ISO-AXE-H
 70
     0
  3

  4
"
  5
OPEN30
  6

  7

 40
1.0
 41
2.5
 42
1.0
 43
10.0
 44
1.0
 45
0.0
 46
0.0
 47
0.1
 48
0.1
140
3.5
141
0.0
142
0.0
143
0.0393701
144
2.0
145
0.0
146
0.71
147
1.5
 71
     0
 72
     0
 73
     0
 74
     0
 75
     1
 76
     1
 77
     1
 78
     8
170
     0
171
     2
172
     1
173
     0
174
     0
175
     0
176
   256
177
   256
178
     2
  0
ENDTAB
  0
ENDSEC
  0
SECTION
  2
BLOCKS
  0
BLOCK
  8
0
  2
$MODEL_SPACE
 70
     0
 10
0.0
 20
0.0
 30
0.0
  3
$MODEL_SPACE
  1

  0
ENDBLK
  5
21
  8
0
  0
BLOCK
 67
     1
  8
0
  2
$PAPER_SPACE
 70
     0
 10
0.0
 20
0.0
 30
0.0
  3
$PAPER_SPACE
  1

  0
ENDBLK
  5
25
 67
     1
  8
0
  0
BLOCK
  8
0
  2
GENAXEH
 70
     0
 10
0.0
 20
0.0
 30
0.0
  3
GENAXEH
  1

  0
LINE
  5
88
  8
0
 10
-1.0
 20
0.0
 30
0.0
 11
1.0
 21
0.0
 31
0.0
  0
ENDBLK
  5
8A
  8
0
  0
BLOCK
  8
0
  2
_OPEN30
 70
     0
 10
0.0
 20
0.0
 30
0.0
  3
_OPEN30
  1

  0
LINE
  5
408
  8
0
  6
BYBLOCK
 62
     0
 10
-1.0
 20
0.26794919
 30
0.0
 11
0.0
 21
0.0
 31
0.0
  0
LINE
  5
409
  8
0
  6
BYBLOCK
 62
     0
 10
0.0
 20
0.0
 30
0.0
 11
-1.0
 21
-0.26794919
 31
0.0
  0
LINE
  5
40A
  8
0
  6
BYBLOCK
 62
     0
 10
0.0
 20
0.0
 30
0.0
 11
-1.0
 21
0.0
 31
0.0
  0
ENDBLK
  5
40C
  8
0
  0
BLOCK
  8
0
  2
TAKACHI-A3
 70
     0
 10
0.0
 20
0.0
 30
0.0
  3
TAKACHI-A3
  1

  0
POLYLINE
  5
8BA
  8
0
 66
     1
 10
0.0
 20
0.0
 30
0.0
 70
     1
1001
GENIUS_GENREC_14
1002
{
1000
PYDIR
1011
10.000000000000011
1021
8.7707845056444340E+289
1031
0.0
1021
280.0
1031
0.0
1002
}
1002
{
1000
PXDIR
1011
410.0
1021
8.7707845056444340E+289
1031
0.0
1021
0.0
1031
0.0
1002
}
1002
{
1000
PORI
1011
10.0
1021
8.7707845056444340E+289
1031
0.0
1021
0.0
1031
0.0
1002
}
1002
{
1000
PINS
1011
210.0
1021
8.7707845056444340E+289
1031
0.0
1021
139.99999999999989
1031
0.0
1002
}
1002
{
1000
HVAL
1000
280
1002
}
1002
{
1000
H
1070
     2
1002
}
1002
{
1000
WVAL
1000
400
1002
}
1002
{
1000
W
1070
     2
1002
}
1002
{
1000
C
1070
     4
1002
}
1001
GENIUS_GENODEF_13
1002
{
1000
HIER
1070
     0
1002
}
1002
{
1000
MANEDIT
1070
     0
1002
}
1002
{
1000
NOSEL
1070
     0
1002
}
1002
{
1000
BEHIND
1070
     0
1002
}
1002
{
1000
REACTOR
1002
}
1001
GENIUS_GENOBJ-N-REC_13
1002
{
1000
OWNER
1000
GEN
1002
}
  0
VERTEX
  5
1315
  8
0
 10
10.0
 20
0.0
 30
0.0
  0
VERTEX
  5
1316
  8
0
 10
410.0
 20
0.0
 30
0.0
  0
VERTEX
  5
1317
  8
0
 10
410.0
 20
280.0
 30
0.0
  0
VERTEX
  5
1318
  8
0
 10
10.00000000000003
 20
280.0
 30
0.0
  0
SEQEND
  5
1319
  8
0
  0
TEXT
  5
8BB
  8
0
 10
15.00000000000003
 20
50.0
 30
0.0
 40
2.5
  1
!GENTITLE-LL
  0
TEXT
  5
8BC
  8
0
 10
410.0
 20
0.0
 30
0.0
 40
2.5
  1
!GENTITLE-INSERT
  0
TEXT
  5
8BD
  8
0
 10
405.0
 20
275.0
 30
0.0
 40
2.5
  1
!GENTITLE-RU
  0
TEXT
  5
8BE
  8
0
 10
410.0
 20
280.0
 30
0.0
 40
2.5
  1
!GENTITLE-MAX
  0
LINE
  5
8BF
  8
0
 10
366.0
 20
275.0
 30
0.0
 11
410.0
 21
275.0
 31
0.0
  0
INSERT
  5
8C0
  8
TK1
  2
*U28
 10
0.0
 20
0.0
 30
0.0
  0
LINE
  5
8C1
  8
0
 10
366.0
 20
280.0
 30
0.0
 11
366.0
 21
275.0
 31
0.0
  0
ENDBLK
  5
8C4
  8
0
  0
BLOCK
  8
0
  2
TAKACHI-TITLE
 70
     2
 10
0.0
 20
0.0
 30
0.0
  3
TAKACHI-TITLE
  1

  0
LINE
  5
8CF
  8
RAHM2
 10
-195.0
 20
30.000000000000028
 30
0.0
 11
-94.0
 21
30.000000000000028
 31
0.0
  0
LINE
  5
8D0
  8
RAHM2
 10
-195.0
 20
35.000000000000028
 30
0.0
 11
-94.0
 21
35.000000000000028
 31
0.0
  0
LINE
  5
8D1
  8
RAHM2
 10
-195.0
 20
40.000000000000021
 30
0.0
 11
-94.0
 21
40.000000000000021
 31
0.0
  0
LINE
  5
8D2
  8
RAHM2
 10
-195.0
 20
45.000000000000021
 30
0.0
 11
-94.0
 21
45.000000000000021
 31
0.0
  0
LINE
  5
8D3
  8
0
 10
-195.0
 20
7.0
 30
0.0
 11
-94.0
 21
7.0
 31
0.0
  0
LINE
  5
8D4
  8
0
 10
-195.0
 20
19.999999999999972
 30
0.0
 11
-94.0
 21
19.999999999999972
 31
0.0
  0
ATTDEF
  5
8D5
  8
0
 10
-183.24385271456069
 20
8.9508505244280823
 30
0.0
 40
2.5
  1

 11
-183.24385271456069
 21
8.6175171910947483
 31
0.0
  3
サブタイトル
  2
GEN-TITLE-DES2
 70
     0
 74
     1
  0
ATTDEF
  5
8D6
  8
0
 10
-183.24385271456069
 20
2.0175171910947478
 30
0.0
 40
3.0
  1

 11
-183.24385271456069
 21
1.6175171910947479
 31
0.0
  3
図番
  2
GEN-TITLE-NR
 70
     0
 74
     1
  0
INSERT
  5
8D7
  8
TK1
  2
*U29
 10
0.0
 20
0.0
 30
0.0
  0
ATTDEF
  5
8D8
  8
0
 10
-183.24385271456069
 20
14.40728619501834
 30
0.0
 40
4.0
  1

 11
-183.24385271456069
 21
13.873952861685011
 31
0.0
  3
品名
  2
GEN-TITLE-DES1
 70
     0
 74
     1
  0
LINE
  5
8D9
  8
RAHM2
 10
-187.57512886940361
 20
30.400000000000041
 30
0.0
 11
-190.0
 21
34.60000000000003
 31
0.0
  0
LINE
  5
8DA
  8
RAHM2
 10
-190.0
 20
34.60000000000003
 30
0.0
 11
-192.42487113059639
 21
30.400000000000041
 31
0.0
  0
LINE
  5
8DB
  8
RAHM2
 10
-185.0
 20
50.000000000000028
 30
0.0
 11
-185.0
 21
19.99999999999994
 31
0.0
  0
LINE
  5
8DC
  8
RAHM2
 10
-192.42487113059639
 20
30.400000000000041
 30
0.0
 11
-187.57512886940361
 21
30.400000000000041
 31
0.0
  0
INSERT
  5
8DD
  8
TK1
  2
*U30
 10
0.0
 20
0.0
 30
0.0
  0
INSERT
  5
8DE
  8
TK1
  2
*U31
 10
0.0
 20
0.0
 30
0.0
  0
LINE
  5
8DF
  8
RAHM2
 10
-192.42487113059639
 20
45.400000000000027
 30
0.0
 11
-187.57512886940361
 21
45.400000000000027
 31
0.0
  0
LINE
  5
8E0
  8
RAHM2
 10
-187.57512886940361
 20
45.400000000000027
 30
0.0
 11
-190.0
 21
49.600000000000023
 31
0.0
  0
LINE
  5
8E1
  8
RAHM2
 10
-192.42487113059639
 20
40.400000000000027
 30
0.0
 11
-187.57512886940361
 21
40.400000000000027
 31
0.0
  0
LINE
  5
8E2
  8
RAHM2
 10
-187.57512886940361
 20
40.400000000000027
 30
0.0
 11
-190.0
 21
44.600000000000023
 31
0.0
  0
LINE
  5
8E3
  8
RAHM2
 10
-192.42487113059639
 20
35.400000000000041
 30
0.0
 11
-187.57512886940361
 21
35.400000000000041
 31
0.0
  0
LINE
  5
8E4
  8
RAHM2
 10
-187.57512886940361
 20
35.400000000000041
 30
0.0
 11
-190.0
 21
39.600000000000023
 31
0.0
  0
LINE
  5
8E5
  8
RAHM2
 10
-190.0
 20
39.600000000000023
 30
0.0
 11
-192.42487113059639
 21
35.400000000000041
 31
0.0
  0
LINE
  5
8E6
  8
RAHM2
 10
-190.0
 20
44.600000000000023
 30
0.0
 11
-192.42487113059639
 21
40.400000000000027
 31
0.0
  0
LINE
  5
8E7
  8
RAHM2
 10
-190.0
 20
49.600000000000023
 30
0.0
 11
-192.42487113059639
 21
45.400000000000027
 31
0.0
  0
LINE
  5
8E8
  8
RAHM2
 10
-129.0
 20
50.000000000000028
 30
0.0
 11
-129.0
 21
19.99999999999994
 31
0.0
  0
INSERT
  5
8E9
  8
TK1
  2
*U32
 10
0.0
 20
0.0
 30
0.0
  0
LINE
  5
8EA
  8
0
 10
-34.0
 20
50.0
 30
0.0
 11
-34.0
 21
0.0
 31
0.0
  0
LINE
  5
8EB
  8
0
 10
-94.0
 20
50.0
 30
0.0
 11
-94.0
 21
0.0
 31
0.0
  0
INSERT
  5
8EC
  8
TK1
  2
*U33
 10
0.0
 20
0.0
 30
0.0
  0
LINE
  5
8ED
  8
0
 10
-94.0
 20
10.0
 30
0.0
 11
-34.0
 21
10.0
 31
0.0
  0
ATTDEF
  5
8EE
  8
0
 10
-58.014051197997453
 20
39.255005561783491
 30
0.0
 40
3.0
  1

 72
     2
 11
-58.014051197997453
 21
39.255005561783491
 31
0.0
  3
尺度
  2
GEN-TITLE-SCA
 70
     0
  0
ATTDEF
  5
8EF
  8
0
 10
-77.002849666490064
 20
31.02180787943475
 30
0.0
 40
3.0
  1

 11
-77.002849666490064
 21
30.621807879434751
 31
0.0
  3
材質
  2
GEN-TITLE-MAT1
 70
     0
 74
     1
  0
ATTDEF
  5
8F0
  8
0
 10
-77.002849666490064
 20
21.02180787943475
 30
0.0
 40
3.0
  1

 11
-77.002849666490064
 21
20.621807879434751
 31
0.0
  3
表面処理
  2
GEN-TITLE-MAT2
 70
     0
 74
     1
  0
ATTDEF
  5
8F1
  8
0
 10
-77.002849666490064
 20
12.01751719109475
 30
0.0
 40
3.0
  1

 11
-77.002849666490064
 21
11.61751719109475
 31
0.0
  3
日付
  2
GEN-TITLE-DAT
 70
     0
 74
     1
  0
LINE
  5
8F2
  8
0
 10
-94.0
 20
37.5
 30
0.0
 11
-34.0
 21
37.5
 31
0.0
  0
LINE
  5
8F3
  8
0
 10
-94.0
 20
27.5
 30
0.0
 11
-34.0
 21
27.5
 31
0.0
  0
LINE
  5
8F4
  8
0
 10
-94.0
 20
17.5
 30
0.0
 11
-34.0
 21
17.5
 31
0.0
  0
LINE
  5
8F5
  8
RAHM2
 10
-109.0
 20
50.000000000000028
 30
0.0
 11
-109.0
 21
19.99999999999994
 31
0.0
  0
INSERT
  5
8F6
  8
TK1
  2
*U34
 10
0.0
 20
0.0
 30
0.0
  0
INSERT
  5
8F7
  8
TK1
  2
*U35
 10
0.0
 20
0.0
 30
0.0
  0
INSERT
  5
8F8
  8
TK1
  2
*U36
 10
0.0
 20
0.0
 30
0.0
  0
INSERT
  5
8F9
  8
TK1
  2
*U37
 10
0.0
 20
0.0
 30
0.0
  0
INSERT
  5
8FA
  8
TK1
  2
*U38
 10
0.0
 20
0.0
 30
0.0
  0
INSERT
  5
8FB
  8
TK1
  2
*U39
 10
0.0
 20
0.0
 30
0.0
  0
INSERT
  5
8FC
  8
TK1
  2
*U40
 10
0.0
 20
0.0
 30
0.0
  0
INSERT
  5
8FD
  8
TK1
  2
*U41
 10
0.0
 20
0.0
 30
0.0
  0
LINE
  5
8FE
  8
7A
 10
-89.0
 20
43.75
 30
0.0
 11
-75.218691599714703
 21
43.75
 31
0.0
1001
GENIUS_GENOREF_13
1005
911
  0
LINE
  5
8FF
  8
0
 10
-84.0
 20
45.75
 30
0.0
 11
-76.0
 21
46.749999999999993
 31
0.0
  0
LINE
  5
900
  8
0
 10
-76.0
 20
40.75
 30
0.0
 11
-84.0
 21
41.749999999999993
 31
0.0
  0
LINE
  5
901
  8
7A
 10
-89.0
 20
43.75
 30
0.0
 11
-89.0
 21
47.324786644731482
 31
0.0
1001
GENIUS_GENOREF_13
1005
911
  0
CIRCLE
  5
902
  8
0
 10
-89.0
 20
43.75
 30
0.0
 40
2.0
  0
CIRCLE
  5
903
  8
0
 10
-89.0
 20
43.75
 30
0.0
 40
3.0
  0
LINE
  5
904
  8
0
 10
-84.0
 20
41.749999999999993
 30
0.0
 11
-84.0
 21
45.75
 31
0.0
  0
INSERT
  5
905
  8
TK1
  2
*U42
 10
0.0
 20
0.0
 30
0.0
  0
LINE
  5
906
  8
7A
 10
-89.0
 20
43.75
 30
0.0
 11
-92.723037371251166
 21
43.75
 31
0.0
1001
GENIUS_GENOREF_13
1005
911
  0
LINE
  5
907
  8
7A
 10
-89.0
 20
43.75
 30
0.0
 11
-89.0
 21
40.039917242284787
 31
0.0
1001
GENIUS_GENOREF_13
1005
911
  0
LINE
  5
908
  8
0
 10
-76.0
 20
46.749999999999993
 30
0.0
 11
-76.0
 21
40.75
 31
0.0
  0
LINE
  5
909
  8
0
 10
-74.0
 20
50.0
 30
0.0
 11
-74.0
 21
37.5
 31
0.0
  0
INSERT
  5
90A
  8
TK1
  2
*U43
 10
0.0
 20
0.0
 30
0.0
  0
ATTDEF
  5
90B
  8
0
 10
-37.76317379391503
 20
39.255005561783491
 30
0.0
 40
3.0
  1

 72
     2
 11
-37.76317379391503
 21
39.255005561783491
 31
0.0
  3
数量
  2
GEN-TITLE-QTY
 70
     0
  0
LINE
  5
90C
  8
0
 10
-34.0
 20
25.0
 30
0.0
 11
0.0
 21
25.0
 31
0.0
  0
LINE
  5
90D
  8
0
 10
-54.0
 20
50.0
 30
0.0
 11
-54.0
 21
37.5
 31
0.0
  0
INSERT
  5
90E
  8
TK1
  2
*U44
 10
0.0
 20
0.0
 30
0.0
  0
INSERT
  5
90F
  8
TK1
  2
*U45
 10
0.0
 20
0.0
 30
0.0
  0
INSERT
  5
910
  8
TK1
  2
*U46
 10
0.0
 20
0.0
 30
0.0
  0
POINT
  5
911
  8
0
 10
-320.5355579819676
 20
-138.11048412682541
 30
0.0
1001
GENIUS_GENODEF_13
1002
{
1000
HIER
1070
    10
1002
}
1002
{
1000
MANEDIT
1070
     0
1002
}
1002
{
1000
NOSEL
1070
     0
1002
}
1002
{
1000
BEHIND
1070
     0
1002
}
1002
{
1000
REACTOR
1002
}
1001
GENIUS_GENOBJ-N-CRS_13
1002
{
1000
OWNER
1000
GEN
1002
}
1001
GENIUS_GENOENT_13
1002
{
1000
MYREF
1005
911
1002
}
1002
{
1000
GRP
1005
0
1002
}
1001
GENIUS_GENOLIS_13
1002
{
1000
ENT
1005
907
1005
906
1005
901
1005
8FE
1002
}
  0
LINE
  5
912
  8
RAHM2
 10
-190.0
 20
29.600000000000019
 30
0.0
 11
-192.42487113059639
 21
25.400000000000041
 31
0.0
  0
LINE
  5
913
  8
RAHM2
 10
-187.57512886940361
 20
25.400000000000041
 30
0.0
 11
-190.0
 21
29.600000000000019
 31
0.0
  0
LINE
  5
914
  8
RAHM2
 10
-192.42487113059639
 20
25.400000000000041
 30
0.0
 11
-187.57512886940361
 21
25.400000000000041
 31
0.0
  0
LINE
  5
915
  8
RAHM2
 10
-195.0
 20
25.000000000000028
 30
0.0
 11
-94.0
 21
25.000000000000028
 31
0.0
  0
INSERT
  5
916
  8
TK1
  2
*U47
 10
0.0
 20
0.0
 30
0.0
  0
TEXT
  5
917
  8
RAHM2
 10
-190.8155863565801
 20
25.98333333333337
 30
0.0
 40
2.5
  1
1
 72
     1
 11
-190.19058635658021
 21
25.650000000000031
 31
0.0
 73
     1
  0
TEXT
  5
918
  8
RAHM2
 10
-190.9183316929134
 20
30.98333333333337
 30
0.0
 40
2.5
  1
2
 72
     1
 11
-190.0
 21
30.650000000000031
 31
0.0
 73
     1
  0
TEXT
  5
919
  8
RAHM2
 10
-190.92677669529661
 20
35.983333333333341
 30
0.0
 40
2.5
  1
3
 72
     1
 11
-190.0
 21
35.650000000000013
 31
0.0
 73
     1
  0
TEXT
  5
91A
  8
RAHM2
 10
-191.0
 20
40.98333333333337
 30
0.0
 40
2.5
  1
4
 72
     1
 11
-190.0
 21
40.650000000000027
 31
0.0
 73
     1
  0
TEXT
  5
91B
  8
RAHM2
 10
-190.92677669529661
 20
45.98333333333337
 30
0.0
 40
2.5
  1
5
 72
     1
 11
-190.0
 21
45.650000000000027
 31
0.0
 73
     1
  0
LINE
  5
91C
  8
0
 10
-17.0
 20
50.0
 30
0.0
 11
-17.0
 21
0.0
 31
0.0
  0
LINE
  5
91D
  8
0
 10
-195.0
 20
0.0
 30
0.0
 11
0.0
 21
0.0
 31
0.0
1001
GENIUS_GENREC_14
1002
{
1000
PYDIR
1011
-184.0
1021
8.7707845056444340E+289
1031
0.0
1021
50.0
1031
0.0
1002
}
1002
{
1000
PXDIR
1011
0.0
1021
8.7707845056444340E+289
1031
0.0
1021
0.0
1031
0.0
1002
}
1002
{
1000
PORI
1011
-184.0
1021
8.7707845056444340E+289
1031
0.0
1021
0.0
1031
0.0
1002
}
1002
{
1000
PINS
1011
-100.5
1021
8.7707845056444340E+289
1031
0.0
1021
25.0
1031
0.0
1002
}
1002
{
1000
HVAL
1000
50
1002
}
1002
{
1000
H
1070
     2
1002
}
1002
{
1000
WVAL
1000
167
1002
}
1002
{
1000
W
1070
     2
1002
}
1002
{
1000
C
1070
     4
1002
}
1001
GENIUS_GENODEF_13
1002
{
1000
HIER
1070
     0
1002
}
1002
{
1000
MANEDIT
1070
     0
1002
}
1002
{
1000
NOSEL
1070
     0
1002
}
1002
{
1000
BEHIND
1070
     0
1002
}
1002
{
1000
REACTOR
1002
}
1001
GENIUS_GENOBJ-N-REC_13
1002
{
1000
OWNER
1000
GEN
1002
}
  0
LINE
  5
91E
  8
0
 10
0.0
 20
0.0
 30
0.0
 11
0.0
 21
50.0
 31
0.0
1001
GENIUS_GENREC_14
1002
{
1000
PYDIR
1011
-184.0
1021
8.7707845056444340E+289
1031
0.0
1021
50.0
1031
0.0
1002
}
1002
{
1000
PXDIR
1011
0.0
1021
8.7707845056444340E+289
1031
0.0
1021
0.0
1031
0.0
1002
}
1002
{
1000
PORI
1011
-184.0
1021
8.7707845056444340E+289
1031
0.0
1021
0.0
1031
0.0
1002
}
1002
{
1000
PINS
1011
-100.5
1021
8.7707845056444340E+289
1031
0.0
1021
25.0
1031
0.0
1002
}
1002
{
1000
HVAL
1000
50
1002
}
1002
{
1000
H
1070
     2
1002
}
1002
{
1000
WVAL
1000
167
1002
}
1002
{
1000
W
1070
     2
1002
}
1002
{
1000
C
1070
     4
1002
}
1001
GENIUS_GENODEF_13
1002
{
1000
HIER
1070
     0
1002
}
1002
{
1000
MANEDIT
1070
     0
1002
}
1002
{
1000
NOSEL
1070
     0
1002
}
1002
{
1000
BEHIND
1070
     0
1002
}
1002
{
1000
REACTOR
1002
}
1001
GENIUS_GENOBJ-N-REC_13
1002
{
1000
OWNER
1000
GEN
1002
}
  0
LINE
  5
91F
  8
0
 10
0.0
 20
50.0
 30
0.0
 11
-195.0
 21
50.000000000000028
 31
0.0
1001
GENIUS_GENREC_14
1002
{
1000
PYDIR
1011
-184.0
1021
8.7707845056444340E+289
1031
0.0
1021
50.0
1031
0.0
1002
}
1002
{
1000
PXDIR
1011
0.0
1021
8.7707845056444340E+289
1031
0.0
1021
0.0
1031
0.0
1002
}
1002
{
1000
PORI
1011
-184.0
1021
8.7707845056444340E+289
1031
0.0
1021
0.0
1031
0.0
1002
}
1002
{
1000
PINS
1011
-100.5
1021
8.7707845056444340E+289
1031
0.0
1021
25.0
1031
0.0
1002
}
1002
{
1000
HVAL
1000
50
1002
}
1002
{
1000
H
1070
     2
1002
}
1002
{
1000
WVAL
1000
167
1002
}
1002
{
1000
W
1070
     2
1002
}
1002
{
1000
C
1070
     4
1002
}
1001
GENIUS_GENODEF_13
1002
{
1000
HIER
1070
     0
1002
}
1002
{
1000
MANEDIT
1070
     0
1002
}
1002
{
1000
NOSEL
1070
     0
1002
}
1002
{
1000
BEHIND
1070
     0
1002
}
1002
{
1000
REACTOR
1002
}
1001
GENIUS_GENOBJ-N-REC_13
1002
{
1000
OWNER
1000
GEN
1002
}
  0
LINE
  5
920
  8
0
 10
-195.0
 20
50.000000000000028
 30
0.0
 11
-195.0
 21
0.0
 31
0.0
1001
GENIUS_GENREC_14
1002
{
1000
PYDIR
1011
-195.0
1021
8.7707845056444340E+289
1031
0.0
1021
50.0
1031
0.0
1002
}
1002
{
1000
PXDIR
1011
-11.0
1021
8.7707845056444340E+289
1031
0.0
1021
0.0
1031
0.0
1002
}
1002
{
1000
PORI
1011
-195.0
1021
8.7707845056444340E+289
1031
0.0
1021
0.0
1031
0.0
1002
}
1002
{
1000
PINS
1011
-111.5
1021
8.7707845056444340E+289
1031
0.0
1021
25.0
1031
0.0
1002
}
1002
{
1000
HVAL
1000
50
1002
}
1002
{
1000
H
1070
     2
1002
}
1002
{
1000
WVAL
1000
167
1002
}
1002
{
1000
W
1070
     2
1002
}
1002
{
1000
C
1070
     4
1002
}
1001
GENIUS_GENODEF_13
1002
{
1000
HIER
1070
     0
1002
}
1002
{
1000
MANEDIT
1070
     0
1002
}
1002
{
1000
NOSEL
1070
     0
1002
}
1002
{
1000
BEHIND
1070
     0
1002
}
1002
{
1000
REACTOR
1002
}
1001
GENIUS_GENOBJ-N-REC_13
1002
{
1000
OWNER
1000
GEN
1002
}
  0
INSERT
  5
921
  8
TK1
  2
*U48
 10
0.0
 20
0.0
 30
0.0
  0
INSERT
  5
922
  8
TK1
  2
*U49
 10
0.0
 20
0.0
 30
0.0
  0
ENDBLK
  5
925
  8
0
  0
BLOCK
  8
0
  2
GEVCON
 70
     0
 10
0.0
 20
0.0
 30
0.0
  3
GEVCON
  1
GEVCON
  0
ENDBLK
  5
9CE
  8
0
  0
BLOCK
  8
0
  2
GEVEP
 70
     0
 10
0.0
 20
0.0
 30
0.0
  3
GEVEP
  1

  0
LINE
  5
9D1
  8
0
 10
2.0
 20
-2.0
 30
0.0
 11
-2.0
 21
-2.0
 31
0.0
  0
LINE
  5
9D2
  8
0
 10
-2.0
 20
2.0
 30
0.0
 11
2.0
 21
2.0
 31
0.0
  0
LINE
  5
9D3
  8
0
 10
2.0
 20
-2.0
 30
0.0
 11
-2.0
 21
2.0
 31
0.0
  0
LINE
  5
9D4
  8
0
 10
-2.0
 20
-2.0
 30
0.0
 11
2.0
 21
2.0
 31
0.0
  0
LINE
  5
9D5
  8
0
 10
-2.0
 20
-2.0
 30
0.0
 11
-2.0
 21
2.0
 31
0.0
  0
LINE
  5
9D6
  8
0
 10
2.0
 20
2.0
 30
0.0
 11
2.0
 21
-2.0
 31
0.0
  0
ENDBLK
  5
9D7
  8
0
  0
BLOCK
  8
0
  2
GEVFRAME
 70
     0
 10
0.0
 20
0.0
 30
0.0
  3
GEVFRAME
  1
GEVFRAME
  0
LINE
  5
9DA
  8
0
 10
0.0
 20
0.0
 30
0.0
 11
1.0
 21
0.0
 31
0.0
  0
LINE
  5
9DB
  8
0
 10
1.0
 20
0.0
 30
0.0
 11
1.0
 21
1.0
 31
0.0
  0
LINE
  5
9DC
  8
0
 10
1.0
 20
1.0
 30
0.0
 11
0.0
 21
1.0
 31
0.0
  0
LINE
  5
9DD
  8
0
 10
0.0
 20
1.0
 30
0.0
 11
0.0
 21
0.0
 31
0.0
  0
ENDBLK
  5
9DE
  8
0
  0
BLOCK
  8
0
  2
TAKACHI-A4
 70
     0
 10
0.0
 20
0.0
 30
0.0
  3
TAKACHI-A4
  1

  0
TEXT
  5
9E5
  8
0
 10
10.0
 20
54.999999999999943
 30
0.0
 40
2.5
  1
!GENTITLE-LL
  0
TEXT
  5
9E6
  8
0
 10
215.0
 20
15.0
 30
0.0
 40
2.5
  1
!GENTITLE-INSERT
  0
TEXT
  5
9E7
  8
0
 10
215.0
 20
285.00000000000011
 30
0.0
 40
2.5
  1
!GENTITLE-RU
  0
TEXT
  5
9E8
  8
0
 10
215.00000000000011
 20
290.0
 30
0.0
 40
2.5
  1
!GENTITLE-MAX
  0
LINE
  5
9E9
  8
0
 10
215.0
 20
290.00000000000011
 30
0.0
 11
20.000000000000028
 21
290.0
 31
0.0
1001
GENIUS_GENREC_14
1002
{
1000
PYDIR
1011
15.00000000000003
1021
8.7707845056444340E+289
1031
0.0
1021
295.0
1031
0.0
1002
}
1002
{
1000
PXDIR
1011
215.0
1021
8.7707845056444340E+289
1031
0.0
1021
15.0
1031
0.0
1002
}
1002
{
1000
PORI
1011
15.0
1021
8.7707845056444340E+289
1031
0.0
1021
15.0
1031
0.0
1002
}
1002
{
1000
PINS
1011
115.0
1021
8.7707845056444340E+289
1031
0.0
1021
155.0
1031
0.0
1002
}
1002
{
1000
HVAL
1000
280
1002
}
1002
{
1000
H
1070
     2
1002
}
1002
{
1000
WVAL
1000
200
1002
}
1002
{
1000
W
1070
     2
1002
}
1002
{
1000
C
1070
     4
1002
}
  0
LINE
  5
9EA
  8
0
 10
20.000000000000028
 20
290.0
 30
0.0
 11
19.999999999999972
 21
15.0
 31
0.0
1001
GENIUS_GENREC_14
1002
{
1000
PYDIR
1011
15.00000000000003
1021
8.7707845056444340E+289
1031
0.0
1021
295.0
1031
0.0
1002
}
1002
{
1000
PXDIR
1011
215.0
1021
8.7707845056444340E+289
1031
0.0
1021
15.0
1031
0.0
1002
}
1002
{
1000
PORI
1011
15.0
1021
8.7707845056444340E+289
1031
0.0
1021
15.0
1031
0.0
1002
}
1002
{
1000
PINS
1011
115.0
1021
8.7707845056444340E+289
1031
0.0
1021
155.0
1031
0.0
1002
}
1002
{
1000
HVAL
1000
280
1002
}
1002
{
1000
H
1070
     2
1002
}
1002
{
1000
WVAL
1000
200
1002
}
1002
{
1000
W
1070
     2
1002
}
1002
{
1000
C
1070
     4
1002
}
  0
LINE
  5
9EB
  8
0
 10
19.999999999999972
 20
15.0
 30
0.0
 11
215.0
 21
15.0
 31
0.0
1001
GENIUS_GENREC_14
1002
{
1000
PYDIR
1011
15.00000000000003
1021
8.7707845056444340E+289
1031
0.0
1021
295.0
1031
0.0
1002
}
1002
{
1000
PXDIR
1011
215.0
1021
8.7707845056444340E+289
1031
0.0
1021
15.0
1031
0.0
1002
}
1002
{
1000
PORI
1011
15.0
1021
8.7707845056444340E+289
1031
0.0
1021
15.0
1031
0.0
1002
}
1002
{
1000
PINS
1011
115.0
1021
8.7707845056444340E+289
1031
0.0
1021
155.0
1031
0.0
1002
}
1002
{
1000
HVAL
1000
280
1002
}
1002
{
1000
H
1070
     2
1002
}
1002
{
1000
WVAL
1000
200
1002
}
1002
{
1000
W
1070
     2
1002
}
1002
{
1000
C
1070
     4
1002
}
  0
LINE
  5
9EC
  8
0
 10
215.0
 20
15.0
 30
0.0
 11
215.00000000000011
 21
290.00000000000011
 31
0.0
1001
GENIUS_GENREC_14
1002
{
1000
PYDIR
1011
15.00000000000003
1021
8.7707845056444340E+289
1031
0.0
1021
295.0
1031
0.0
1002
}
1002
{
1000
PXDIR
1011
215.0
1021
8.7707845056444340E+289
1031
0.0
1021
15.0
1031
0.0
1002
}
1002
{
1000
PORI
1011
15.0
1021
8.7707845056444340E+289
1031
0.0
1021
15.0
1031
0.0
1002
}
1002
{
1000
PINS
1011
115.0
1021
8.7707845056444340E+289
1031
0.0
1021
155.0
1031
0.0
1002
}
1002
{
1000
HVAL
1000
280
1002
}
1002
{
1000
H
1070
     2
1002
}
1002
{
1000
WVAL
1000
200
1002
}
1002
{
1000
W
1070
     2
1002
}
1002
{
1000
C
1070
     4
1002
}
  0
LINE
  5
9ED
  8
0
 10
171.00000000000011
 20
285.00000000000011
 30
0.0
 11
215.00000000000011
 21
285.00000000000011
 31
0.0
  0
LINE
  5
9EE
  8
0
 10
171.00000000000011
 20
290.00000000000011
 30
0.0
 11
171.00000000000011
 21
285.00000000000011
 31
0.0
  0
TEXT
  8
0
  40
2.5
  5
13C7
  72
0
  71
0
 10
214.359
 20
282.859
 30
0.000000
  1
(文書番号：TY-34)2004.10.29
  0
ENDBLK
  5
9F2
  8
0
  0
BLOCK
  8
0
  2
GENKPROJ
 70
     2
 10
0.0
 20
0.0
 30
0.0
  3
GENKPROJ
  1

  0
ARC
  5
B13
  8
0
 10
0.0
 20
0.0
 30
0.0
 40
53.277403832822813
 50
270.0
 51
0.0
  0
ARC
  5
B14
  8
0
 10
0.0
 20
0.0
 30
0.0
 40
27.562791198514219
 50
270.0
 51
0.0
  0
ATTDEF
  5
B15
  8
0
  6
GEN3
 62
     0
 10
0.0
 20
0.0
 30
0.0
 40
2.5
  1
0
  3
0=off/1=on
  2
GENKPROJ
 70
     1
  0
LINE
  5
B16
  8
0
  6
CONTINUOUS
 62
     0
 10
0.0
 20
0.0
 30
0.0
 11
0.0
 21
-0.0
 31
0.0
  0
LINE
  5
B17
  8
0
  6
GEN3
 62
     0
 10
0.0
 20
-0.0
 30
0.0
 11
0.0
 21
579.99998295310286
 31
0.0
  0
LINE
  5
B18
  8
0
  6
GEN3
 62
     0
 10
-0.0
 20
0.0
 30
0.0
 11
430.00033299746758
 21
0.0
 31
0.0
  0
ENDBLK
  5
B1A
  8
0
  0
BLOCK
  8
0
  2
*D11
 70
     1
 10
0.0
 20
0.0
 30
0.0
  3
*D11
  1

  0
LINE
  5
11D5
  8
AM_5
 10
165.06848741758549
 20
438.24414267267173
 30
0.0
 11
214.06848842758561
 21
438.24414267267173
 31
0.0
  0
LINE
  5
11D6
  8
AM_5
 10
165.0684874175856
 20
350.24414267267161
 30
0.0
 11
214.06848842758561
 21
350.24414267267161
 31
0.0
  0
LINE
  5
11D7
  8
AM_5
 10
212.06848842758561
 20
433.24414267267173
 30
0.0
 11
212.06848842758561
 21
355.24414267267161
 31
0.0
  0
INSERT
  5
11D8
  8
AM_5
  2
_OPEN30
 10
212.06848842758561
 20
438.24414267267173
 30
0.0
 41
5.0
 42
5.0
 43
5.0
 50
90.0
  0
INSERT
  5
11D9
  8
AM_5
  2
_OPEN30
 10
212.06848842758561
 20
350.24414267267161
 30
0.0
 41
5.0
 42
5.0
 43
5.0
 50
270.0
  0
INSERT
  5
11DA
  8
TK1
  2
*U58
 10
0.0
 20
0.0
 30
0.0
  0
POINT
  5
11DB
  8
DEFPOINTS
 62
     0
 10
163.06848741758549
 20
438.24414267267173
 30
0.0
  0
POINT
  5
11DC
  8
DEFPOINTS
 62
     0
 10
163.0684874175856
 20
350.24414267267161
 30
0.0
  0
POINT
  5
11DD
  8
DEFPOINTS
 62
     0
 10
212.06848842758561
 20
350.24414267267161
 30
0.0
  0
ENDBLK
  5
B98
  8
0
  0
BLOCK
  8
0
  2
*D12
 70
     1
 10
0.0
 20
0.0
 30
0.0
  3
*D12
  1

  0
LINE
  5
11F7
  8
AM_5
 10
165.06848741758549
 20
438.24414267267173
 30
0.0
 11
194.06848842758569
 21
438.24414267267173
 31
0.0
  0
LINE
  5
11F8
  8
AM_5
 10
173.5684874175856
 20
432.34414267267158
 30
0.0
 11
194.06848842758569
 21
432.34414267267158
 31
0.0
  0
LINE
  5
11F9
  8
AM_5
 10
192.06848842758569
 20
443.24414267267173
 30
0.0
 11
192.06848842758569
 21
448.24414267267173
 31
0.0
  0
LINE
  5
11FA
  8
AM_5
 10
192.06848842758569
 20
427.34414267267169
 30
0.0
 11
192.06848842758569
 21
422.34414267267169
 31
0.0
  0
LINE
  5
11FB
  8
AM_5
 10
192.06848842758569
 20
438.24414267267173
 30
0.0
 11
192.06848842758569
 21
432.34414267267158
 31
0.0
  0
INSERT
  5
11FC
  8
AM_5
  2
_OPEN30
 10
192.06848842758569
 20
438.24414267267173
 30
0.0
 41
5.0
 42
5.0
 43
5.0
 50
270.0
  0
INSERT
  5
11FD
  8
AM_5
  2
_OPEN30
 10
192.06848842758569
 20
432.34414267267158
 30
0.0
 41
5.0
 42
5.0
 43
5.0
 50
90.0
  0
INSERT
  5
11FE
  8
TK1
  2
*U59
 10
0.0
 20
0.0
 30
0.0
  0
POINT
  5
11FF
  8
DEFPOINTS
 62
     0
 10
163.06848741758549
 20
438.24414267267173
 30
0.0
  0
POINT
  5
1200
  8
DEFPOINTS
 62
     0
 10
171.5684874175856
 20
432.34414267267158
 30
0.0
  0
POINT
  5
1201
  8
DEFPOINTS
 62
     0
 10
192.06848842758569
 20
432.34414267267158
 30
0.0
  0
ENDBLK
  5
C1D
  8
0
  0
BLOCK
  8
0
  2
*D13
 70
     1
 10
0.0
 20
0.0
 30
0.0
  3
*D13
  1

  0
LINE
  5
120B
  8
AM_5
 10
173.5684874175856
 20
356.14414267267182
 30
0.0
 11
194.06848842758569
 21
356.14414267267182
 31
0.0
  0
LINE
  5
120C
  8
AM_5
 10
173.5684874175856
 20
432.34414267267158
 30
0.0
 11
194.06848842758569
 21
432.34414267267158
 31
0.0
  0
LINE
  5
120D
  8
AM_5
 10
192.06848842758569
 20
361.14414267267182
 30
0.0
 11
192.06848842758569
 21
427.34414267267169
 31
0.0
  0
INSERT
  5
120E
  8
AM_5
  2
_OPEN30
 10
192.06848842758569
 20
356.14414267267182
 30
0.0
 41
5.0
 42
5.0
 43
5.0
 50
270.0
  0
INSERT
  5
120F
  8
AM_5
  2
_OPEN30
 10
192.06848842758569
 20
432.34414267267158
 30
0.0
 41
5.0
 42
5.0
 43
5.0
 50
90.0
  0
INSERT
  5
1210
  8
TK1
  2
*U60
 10
0.0
 20
0.0
 30
0.0
  0
POINT
  5
1211
  8
DEFPOINTS
 62
     0
 10
171.5684874175856
 20
356.14414267267182
 30
0.0
  0
POINT
  5
1212
  8
DEFPOINTS
 62
     0
 10
171.5684874175856
 20
432.34414267267158
 30
0.0
  0
POINT
  5
1213
  8
DEFPOINTS
 62
     0
 10
192.06848842758569
 20
432.34414267267158
 30
0.0
  0
ENDBLK
  5
C8F
  8
0
  0
BLOCK
  8
0
  2
*D14
 70
     1
 10
0.0
 20
0.0
 30
0.0
  3
*D14
  1

  0
LINE
  5
1214
  8
AM_5
 10
165.0684874175856
 20
350.24414267267161
 30
0.0
 11
194.06848842758581
 21
350.24414267267161
 31
0.0
  0
LINE
  5
1215
  8
AM_5
 10
173.5684874175856
 20
356.14414267267182
 30
0.0
 11
194.06848842758581
 21
356.14414267267182
 31
0.0
  0
LINE
  5
1216
  8
AM_5
 10
192.06848842758581
 20
345.24414267267161
 30
0.0
 11
192.06848842758581
 21
340.24414267267161
 31
0.0
  0
LINE
  5
1217
  8
AM_5
 10
192.06848842758581
 20
361.14414267267182
 30
0.0
 11
192.06848842758581
 21
366.14414267267182
 31
0.0
  0
LINE
  5
1218
  8
AM_5
 10
192.06848842758581
 20
350.24414267267161
 30
0.0
 11
192.06848842758581
 21
356.14414267267182
 31
0.0
  0
INSERT
  5
1219
  8
AM_5
  2
_OPEN30
 10
192.06848842758581
 20
350.24414267267161
 30
0.0
 41
5.0
 42
5.0
 43
5.0
 50
90.0
  0
INSERT
  5
121A
  8
AM_5
  2
_OPEN30
 10
192.06848842758581
 20
356.14414267267182
 30
0.0
 41
5.0
 42
5.0
 43
5.0
 50
270.0
  0
INSERT
  5
121B
  8
TK1
  2
*U61
 10
0.0
 20
0.0
 30
0.0
  0
POINT
  5
121C
  8
DEFPOINTS
 62
     0
 10
163.0684874175856
 20
350.24414267267161
 30
0.0
  0
POINT
  5
121D
  8
DEFPOINTS
 62
     0
 10
171.5684874175856
 20
356.14414267267182
 30
0.0
  0
POINT
  5
121E
  8
DEFPOINTS
 62
     0
 10
192.06848842758581
 20
356.14414267267182
 30
0.0
  0
ENDBLK
  5
CBF
  8
0
  0
BLOCK
  8
0
  2
*D15
 70
     1
 10
0.0
 20
0.0
 30
0.0
  3
*D15
  1

  0
LINE
  5
11B8
  8
AM_5
 10
168.0684874175856
 20
435.2441426726715
 30
0.0
 11
168.0684874175856
 21
528.74414267267161
 31
0.0
  0
LINE
  5
11B9
  8
AM_5
 10
141.8684874175855
 20
440.24414267267161
 30
0.0
 11
141.8684874175855
 21
528.74414267267161
 31
0.0
  0
LINE
  5
11BA
  8
AM_5
 10
163.0684874175856
 20
526.74414267267161
 30
0.0
 11
146.8684874175855
 21
526.74414267267161
 31
0.0
  0
INSERT
  5
11BB
  8
AM_5
  2
_OPEN30
 10
168.0684874175856
 20
526.74414267267161
 30
0.0
 41
5.0
 42
5.0
 43
5.0
  0
INSERT
  5
11BC
  8
AM_5
  2
_OPEN30
 10
141.8684874175855
 20
526.74414267267161
 30
0.0
 41
5.0
 42
5.0
 43
5.0
 50
180.0
  0
INSERT
  5
11BD
  8
TK1
  2
*U57
 10
0.0
 20
0.0
 30
0.0
  0
POINT
  5
11BE
  8
DEFPOINTS
 62
     0
 10
168.0684874175856
 20
433.24414267267161
 30
0.0
  0
POINT
  5
11BF
  8
DEFPOINTS
 62
     0
 10
141.8684874175855
 20
438.24414267267161
 30
0.0
  0
POINT
  5
11C0
  8
DEFPOINTS
 62
     0
 10
141.8684874175855
 20
526.74414267267161
 30
0.0
  0
ENDBLK
  5
CFB
  8
0
  0
BLOCK
  8
0
  2
*D16
 70
     1
 10
0.0
 20
0.0
 30
0.0
  3
*D16
  1

  0
LINE
  5
1376
  8
AM_5
 10
168.0684874175856
 20
435.2441426726715
 30
0.0
 11
168.0684874175856
 21
467.59414267267158
 31
0.0
  0
LINE
  5
1377
  8
AM_5
 10
160.0684874175856
 20
443.59414267267158
 30
0.0
 11
160.0684874175856
 21
467.59414267267158
 31
0.0
  0
LINE
  5
1378
  8
AM_5
 10
173.0684874175856
 20
465.59414267267152
 30
0.0
 11
178.0684874175856
 21
465.59414267267152
 31
0.0
  0
LINE
  5
1379
  8
AM_5
 10
155.0684874175856
 20
465.59414267267152
 30
0.0
 11
150.0684874175856
 21
465.59414267267152
 31
0.0
  0
LINE
  5
137A
  8
AM_5
 10
168.0684874175856
 20
465.59414267267152
 30
0.0
 11
160.0684874175856
 21
465.59414267267152
 31
0.0
  0
INSERT
  5
137B
  8
AM_5
  2
_OPEN30
 10
168.0684874175856
 20
465.59414267267152
 30
0.0
 41
5.0
 42
5.0
 43
5.0
 50
180.0
  0
INSERT
  5
137C
  8
AM_5
  2
GENDOT
 10
160.0684874175856
 20
465.59414267267152
 30
0.0
 41
5.0
 42
5.0
 43
5.0
  0
TEXT
  8
AM_5
  40
7
  5
13C8
  62
2
  72
0
  71
0
 10
164.068
 20
462.994
 30
0.000000
  1
8
  0
POINT
  5
137E
  8
DEFPOINTS
 62
     0
 10
168.0684874175856
 20
433.24414267267161
 30
0.0
  0
POINT
  5
137F
  8
DEFPOINTS
 62
     0
 10
160.0684874175856
 20
441.59414267267169
 30
0.0
  0
POINT
  5
1380
  8
DEFPOINTS
 62
     0
 10
160.0684874175856
 20
465.59414267267152
 30
0.0
  0
ENDBLK
  5
D3E
  8
0
  0
BLOCK
  8
0
  2
*D17
 70
     1
 10
0.0
 20
0.0
 30
0.0
  3
*D17
  1

  0
LINE
  5
1381
  8
AM_5
 10
160.0684874175856
 20
443.59414267267158
 30
0.0
 11
160.0684874175856
 21
467.59414267267158
 31
0.0
  0
LINE
  5
1382
  8
AM_5
 10
141.8684874175855
 20
440.24414267267161
 30
0.0
 11
141.8684874175855
 21
467.59414267267158
 31
0.0
  0
LINE
  5
1383
  8
AM_5
 10
165.0684874175856
 20
465.59414267267152
 30
0.0
 11
170.0684874175856
 21
465.59414267267152
 31
0.0
  0
LINE
  5
1384
  8
AM_5
 10
136.86848741758561
 20
465.59414267267152
 30
0.0
 11
131.86848741758561
 21
465.59414267267152
 31
0.0
  0
LINE
  5
1385
  8
AM_5
 10
160.0684874175856
 20
465.59414267267152
 30
0.0
 11
141.8684874175855
 21
465.59414267267152
 31
0.0
  0
INSERT
  5
1386
  8
AM_5
  2
GENDOT
 10
160.0684874175856
 20
465.59414267267152
 30
0.0
 41
5.0
 42
5.0
 43
5.0
 50
180.0
  0
INSERT
  5
1387
  8
AM_5
  2
_OPEN30
 10
141.8684874175855
 20
465.59414267267152
 30
0.0
 41
5.0
 42
5.0
 43
5.0
  0
TEXT
  8
AM_5
  40
7
  5
13C9
  62
2
  72
0
  71
0
 10
150.968
 20
462.995
 30
0.000000
  1
18.2
  0
POINT
  5
1389
  8
DEFPOINTS
 62
     0
 10
160.0684874175856
 20
441.59414267267169
 30
0.0
  0
POINT
  5
138A
  8
DEFPOINTS
 62
     0
 10
141.8684874175855
 20
438.24414267267161
 30
0.0
  0
POINT
  5
138B
  8
DEFPOINTS
 62
     0
 10
141.8684874175855
 20
465.59414267267152
 30
0.0
  0
ENDBLK
  5
DB8
  8
0
  0
BLOCK
  8
0
  2
GENDOT
 70
     0
 10
0.0
 20
0.0
 30
0.0
  3
GENDOT
  1

  0
LINE
  5
DDB
  8
0
 10
0.0
 20
0.0
 30
0.0
 11
-1.0
 21
0.0
 31
0.0
  0
POLYLINE
  5
DDC
  8
0
 66
     1
 10
0.0
 20
0.0
 30
0.0
 70
     1
 40
0.25
 41
0.25
  0
VERTEX
  5
138C
  8
0
 10
-0.125
 20
0.0
 30
0.0
 42
1.0
  0
VERTEX
  5
138D
  8
0
 10
0.125
 20
0.0
 30
0.0
 42
1.0
  0
SEQEND
  5
138E
  8
0
  0
ENDBLK
  5
DDE
  8
0
  0
BLOCK
  8
0
  2
*D19
 70
     1
 10
0.0
 20
0.0
 30
0.0
  3
*D19
  1

  0
LINE
  5
10DA
  8
AM_5
 10
144.86848741758561
 20
180.42108752288669
 30
0.0
 11
144.86848741758561
 21
156.42108752288669
 31
0.0
  0
LINE
  5
10DB
  8
AM_5
 10
141.36848741758561
 20
180.42108752288669
 30
0.0
 11
141.36848741758561
 21
156.42108752288669
 31
0.0
  0
LINE
  5
10DC
  8
AM_5
 10
149.86848741758561
 20
158.42108752288669
 30
0.0
 11
154.86848741758561
 21
158.42108752288669
 31
0.0
  0
LINE
  5
10DD
  8
AM_5
 10
136.36848741758561
 20
158.42108752288669
 30
0.0
 11
115.2785379239244
 21
158.42108752288669
 31
0.0
  0
LINE
  5
10DE
  8
AM_5
 10
144.86848741758561
 20
158.42108752288669
 30
0.0
 11
141.36848741758561
 21
158.42108752288669
 31
0.0
  0
INSERT
  5
10DF
  8
AM_5
  2
_OPEN30
 10
144.86848741758561
 20
158.42108752288669
 30
0.0
 41
5.0
 42
5.0
 43
5.0
 50
180.0
  0
INSERT
  5
10E0
  8
AM_5
  2
_OPEN30
 10
141.36848741758561
 20
158.42108752288669
 30
0.0
 41
5.0
 42
5.0
 43
5.0
  0
INSERT
  5
10E1
  8
TK1
  2
*U52
 10
0.0
 20
0.0
 30
0.0
  0
POINT
  5
10E2
  8
DEFPOINTS
 62
     0
 10
144.86848741758561
 20
182.42108752288669
 30
0.0
  0
POINT
  5
10E3
  8
DEFPOINTS
 62
     0
 10
141.36848741758561
 20
182.42108752288669
 30
0.0
  0
POINT
  5
10E4
  8
DEFPOINTS
 62
     0
 10
141.36848741758561
 20
158.42108752288669
 30
0.0
  0
ENDBLK
  5
E15
  8
0
  0
BLOCK
  8
0
  2
*D20
 70
     1
 10
0.0
 20
0.0
 30
0.0
  3
*D20
  1

  0
LINE
  5
10CF
  8
AM_5
 10
170.0684874175856
 20
254.42108752288669
 30
0.0
 11
194.0684874175856
 21
254.42108752288669
 31
0.0
  0
LINE
  5
10D0
  8
AM_5
 10
170.0684874175856
 20
257.42108752288669
 30
0.0
 11
194.0684874175856
 21
257.42108752288669
 31
0.0
  0
LINE
  5
10D1
  8
AM_5
 10
192.0684874175856
 20
249.42108752288661
 30
0.0
 11
192.0684874175856
 21
244.42108752288669
 31
0.0
  0
LINE
  5
10D2
  8
AM_5
 10
192.0684874175856
 20
262.42108752288658
 30
0.0
 11
192.0684874175856
 21
276.51103701654779
 31
0.0
  0
LINE
  5
10D3
  8
AM_5
 10
192.0684874175856
 20
254.42108752288669
 30
0.0
 11
192.0684874175856
 21
257.42108752288669
 31
0.0
  0
INSERT
  5
10D4
  8
AM_5
  2
_OPEN30
 10
192.0684874175856
 20
254.42108752288669
 30
0.0
 41
5.0
 42
5.0
 43
5.0
 50
90.0
  0
INSERT
  5
10D5
  8
AM_5
  2
_OPEN30
 10
192.0684874175856
 20
257.42108752288669
 30
0.0
 41
5.0
 42
5.0
 43
5.0
 50
270.0
  0
INSERT
  5
10D6
  8
TK1
  2
*U51
 10
0.0
 20
0.0
 30
0.0
  0
POINT
  5
10D7
  8
DEFPOINTS
 62
     0
 10
168.0684874175856
 20
254.42108752288669
 30
0.0
  0
POINT
  5
10D8
  8
DEFPOINTS
 62
     0
 10
168.0684874175856
 20
257.42108752288669
 30
0.0
  0
POINT
  5
10D9
  8
DEFPOINTS
 62
     0
 10
192.0684874175856
 20
257.42108752288669
 30
0.0
  0
ENDBLK
  5
E60
  8
0
  0
BLOCK
  8
0
  2
*D21
 70
     1
 10
0.0
 20
0.0
 30
0.0
  3
*D21
  1

  0
LINE
  5
1199
  8
AM_5
 10
261.07110395827277
 20
440.24414267267161
 30
0.0
 11
261.07110395827277
 21
528.74414267267161
 31
0.0
  0
LINE
  5
119A
  8
AM_5
 10
336.07110395827289
 20
420.24414267267173
 30
0.0
 11
336.07110395827289
 21
528.74414267267161
 31
0.0
  0
LINE
  5
119B
  8
AM_5
 10
266.07110395827277
 20
526.74414267267161
 30
0.0
 11
331.07110395827289
 21
526.74414267267161
 31
0.0
  0
INSERT
  5
119C
  8
AM_5
  2
_OPEN30
 10
261.07110395827277
 20
526.74414267267161
 30
0.0
 41
5.0
 42
5.0
 43
5.0
 50
180.0
  0
INSERT
  5
119D
  8
AM_5
  2
_OPEN30
 10
336.07110395827289
 20
526.74414267267161
 30
0.0
 41
5.0
 42
5.0
 43
5.0
  0
INSERT
  5
119E
  8
TK1
  2
*U56
 10
0.0
 20
0.0
 30
0.0
  0
POINT
  5
119F
  8
DEFPOINTS
 62
     0
 10
261.07110395827277
 20
438.24414267267161
 30
0.0
  0
POINT
  5
11A0
  8
DEFPOINTS
 62
     0
 10
336.07110395827289
 20
418.24414267267161
 30
0.0
  0
POINT
  5
11A1
  8
DEFPOINTS
 62
     0
 10
336.07110395827289
 20
526.74414267267161
 30
0.0
  0
ENDBLK
  5
EA9
  8
0
  0
BLOCK
  8
0
  2
*D22
 70
     1
 10
0.0
 20
0.0
 30
0.0
  3
*D22
  1

  0
LINE
  5
1190
  8
AM_5
 10
261.07110395827277
 20
440.24414267267161
 30
0.0
 11
261.07110395827277
 21
464.24414267267139
 31
0.0
  0
LINE
  5
1191
  8
AM_5
 10
281.07110395827277
 20
435.2441426726715
 30
0.0
 11
281.07110395827277
 21
464.24414267267139
 31
0.0
  0
LINE
  5
1192
  8
AM_5
 10
266.07110395827277
 20
462.24414267267139
 30
0.0
 11
276.07110395827277
 21
462.24414267267139
 31
0.0
  0
INSERT
  5
1193
  8
AM_5
  2
_OPEN30
 10
261.07110395827277
 20
462.24414267267139
 30
0.0
 41
5.0
 42
5.0
 43
5.0
 50
180.0
  0
INSERT
  5
1194
  8
AM_5
  2
_OPEN30
 10
281.07110395827277
 20
462.24414267267139
 30
0.0
 41
5.0
 42
5.0
 43
5.0
  0
INSERT
  5
1195
  8
TK1
  2
*U55
 10
0.0
 20
0.0
 30
0.0
  0
POINT
  5
1196
  8
DEFPOINTS
 62
     0
 10
261.07110395827277
 20
438.24414267267161
 30
0.0
  0
POINT
  5
1197
  8
DEFPOINTS
 62
     0
 10
281.07110395827277
 20
433.24414267267161
 30
0.0
  0
POINT
  5
1198
  8
DEFPOINTS
 62
     0
 10
281.07110395827277
 20
462.24414267267139
 30
0.0
  0
ENDBLK
  5
EEA
  8
0
  0
BLOCK
  8
0
  2
*D23
 70
     1
 10
0.0
 20
0.0
 30
0.0
  3
*D23
  1

  0
LINE
  5
1161
  8
AM_5
 10
261.07110395827289
 20
348.24414267267161
 30
0.0
 11
261.07110395827289
 21
324.24414267267161
 31
0.0
  0
LINE
  5
1162
  8
AM_5
 10
291.071103958273
 20
383.64414267267159
 30
0.0
 11
291.071103958273
 21
324.24414267267161
 31
0.0
  0
LINE
  5
1163
  8
AM_5
 10
266.071103958273
 20
326.24414267267161
 30
0.0
 11
286.07110395827289
 21
326.24414267267161
 31
0.0
  0
INSERT
  5
1164
  8
AM_5
  2
_OPEN30
 10
261.07110395827289
 20
326.24414267267161
 30
0.0
 41
5.0
 42
5.0
 43
5.0
 50
180.0
  0
INSERT
  5
1165
  8
AM_5
  2
_OPEN30
 10
291.071103958273
 20
326.24414267267161
 30
0.0
 41
5.0
 42
5.0
 43
5.0
  0
INSERT
  5
1166
  8
TK1
  2
*U53
 10
0.0
 20
0.0
 30
0.0
  0
POINT
  5
1167
  8
DEFPOINTS
 62
     0
 10
261.07110395827289
 20
350.24414267267161
 30
0.0
  0
POINT
  5
1168
  8
DEFPOINTS
 62
     0
 10
291.071103958273
 20
385.64414267267159
 30
0.0
  0
POINT
  5
1169
  8
DEFPOINTS
 62
     0
 10
291.071103958273
 20
326.24414267267161
 30
0.0
  0
ENDBLK
  5
F34
  8
0
  0
BLOCK
  8
0
  2
*D25
 70
     1
 10
0.0
 20
0.0
 30
0.0
  3
*D25
  1

  0
LINE
  5
1185
  8
AM_5
 10
278.07110395827277
 20
438.24414267267173
 30
0.0
 11
365.72696960792757
 21
438.24414267267173
 31
0.0
  0
LINE
  5
1186
  8
AM_5
 10
333.07110395827277
 20
423.24414267267173
 30
0.0
 11
365.72696960792757
 21
423.24414267267173
 31
0.0
  0
LINE
  5
1187
  8
AM_5
 10
363.72696960792757
 20
443.24414267267173
 30
0.0
 11
363.72696960792757
 21
448.24414267267173
 31
0.0
  0
LINE
  5
1188
  8
AM_5
 10
363.72696960792757
 20
418.24414267267161
 30
0.0
 11
363.72696960792757
 21
413.24414267267173
 31
0.0
  0
LINE
  5
1189
  8
AM_5
 10
363.72696960792757
 20
438.24414267267173
 30
0.0
 11
363.72696960792757
 21
423.24414267267173
 31
0.0
  0
INSERT
  5
118A
  8
AM_5
  2
_OPEN30
 10
363.72696960792757
 20
438.24414267267173
 30
0.0
 41
5.0
 42
5.0
 43
5.0
 50
270.0
  0
INSERT
  5
118B
  8
AM_5
  2
_OPEN30
 10
363.72696960792757
 20
423.24414267267173
 30
0.0
 41
5.0
 42
5.0
 43
5.0
 50
90.0
  0
INSERT
  5
118C
  8
TK1
  2
*U54
 10
0.0
 20
0.0
 30
0.0
  0
POINT
  5
118D
  8
DEFPOINTS
 62
     0
 10
276.07110395827277
 20
438.24414267267173
 30
0.0
  0
POINT
  5
118E
  8
DEFPOINTS
 62
     0
 10
331.07110395827277
 20
423.24414267267173
 30
0.0
  0
POINT
  5
118F
  8
DEFPOINTS
 62
     0
 10
363.72696960792757
 20
423.24414267267173
 30
0.0
  0
ENDBLK
  5
FB8
  8
0
  0
BLOCK
  8
0
  2
*D26
 70
     1
 10
0.0
 20
0.0
 30
0.0
  3
*D26
  1

  0
LINE
  5
1285
  8
AM_5
 10
259.07110395827277
 20
438.24414267267161
 30
0.0
 11
235.0711029582728
 21
438.24414267267161
 31
0.0
  0
LINE
  5
1286
  8
AM_5
 10
280.47110395827281
 20
394.24414267267161
 30
0.0
 11
235.0711029582728
 21
394.24414267267161
 31
0.0
  0
LINE
  5
1287
  8
AM_5
 10
237.0711029582728
 20
433.24414267267161
 30
0.0
 11
237.0711029582728
 21
399.24414267267161
 31
0.0
  0
INSERT
  5
1288
  8
AM_5
  2
_OPEN30
 10
237.0711029582728
 20
438.24414267267161
 30
0.0
 41
5.0
 42
5.0
 43
5.0
 50
90.0
  0
INSERT
  5
1289
  8
AM_5
  2
_OPEN30
 10
237.0711029582728
 20
394.24414267267161
 30
0.0
 41
5.0
 42
5.0
 43
5.0
 50
270.0
  0
INSERT
  5
128A
  8
TK1
  2
*U62
 10
0.0
 20
0.0
 30
0.0
  0
POINT
  5
128B
  8
DEFPOINTS
 62
     0
 10
261.07110395827277
 20
438.24414267267161
 30
0.0
  0
POINT
  5
128C
  8
DEFPOINTS
 62
     0
 10
282.47110395827281
 20
394.24414267267161
 30
0.0
  0
POINT
  5
128D
  8
DEFPOINTS
 62
     0
 10
237.0711029582728
 20
394.24414267267161
 30
0.0
  0
ENDBLK
  5
123A
  8
0
  0
BLOCK
  8
0
  2
*D27
 70
     1
 10
0.0
 20
0.0
 30
0.0
  3
*D27
  1

  0
LINE
  5
12AF
  8
AM_5
 10
280.47110395827281
 20
394.24414267267161
 30
0.0
 11
235.07110295827289
 21
394.24414267267161
 31
0.0
  0
LINE
  5
12B0
  8
AM_5
 10
259.07110395827289
 20
350.24414267267161
 30
0.0
 11
235.07110295827289
 21
350.24414267267161
 31
0.0
  0
LINE
  5
12B1
  8
AM_5
 10
237.07110295827289
 20
389.24414267267161
 30
0.0
 11
237.07110295827289
 21
355.24414267267161
 31
0.0
  0
INSERT
  5
12B2
  8
AM_5
  2
_OPEN30
 10
237.07110295827289
 20
394.24414267267161
 30
0.0
 41
5.0
 42
5.0
 43
5.0
 50
90.0
  0
INSERT
  5
12B3
  8
AM_5
  2
_OPEN30
 10
237.07110295827289
 20
350.24414267267161
 30
0.0
 41
5.0
 42
5.0
 43
5.0
 50
270.0
  0
INSERT
  5
12B4
  8
TK1
  2
*U63
 10
0.0
 20
0.0
 30
0.0
  0
POINT
  5
12B5
  8
DEFPOINTS
 62
     0
 10
282.47110395827281
 20
394.24414267267161
 30
0.0
  0
POINT
  5
12B6
  8
DEFPOINTS
 62
     0
 10
261.07110395827289
 20
350.24414267267161
 30
0.0
  0
POINT
  5
12B7
  8
DEFPOINTS
 62
     0
 10
237.07110295827289
 20
350.24414267267161
 30
0.0
  0
ENDBLK
  5
129A
  8
0
  0
BLOCK
  8
0
  2
*U28
 70
     1
 10
0.0
 20
0.0
 30
0.0
  3
*U28
  1

  0
TEXT
  5
131B
  8
0
 10
367.55531168523049
 20
276.233542987227
 30
0.0
 40
2.5
  1
(文書番号：TY-34)2004.10.29
  0
ENDBLK
  5
131D
  8
0
  0
BLOCK
  8
0
  2
*U29
 70
     1
 10
0.0
 20
0.0
 30
0.0
  3
*U29
  1

  0
TEXT
  5
131F
  8
RAHM2
 10
-193.80025513713139
 20
3.3010354072796408
 30
0.0
 40
2.5
  1
図番
  0
ENDBLK
  5
1321
  8
0
  0
BLOCK
  8
0
  2
*U30
 70
     1
 10
0.0
 20
0.0
 30
0.0
  3
*U30
  1

  0
TEXT
  5
1323
  8
RAHM2
 10
-193.0
 20
21.249999999999972
 30
0.0
 40
2.5
  1
符号
  0
ENDBLK
  5
1325
  8
0
  0
BLOCK
  8
0
  2
*U31
 70
     1
 10
0.0
 20
0.0
 30
0.0
  3
*U31
  1

  0
TEXT
  5
1327
  8
RAHM2
 10
-193.80025513713139
 20
16.30103540727961
 30
0.0
 40
2.5
  1
品名
  0
ENDBLK
  5
1329
  8
0
  0
BLOCK
  8
0
  2
*U32
 70
     1
 10
0.0
 20
0.0
 30
0.0
  3
*U32
  1

  0
TEXT
  5
132B
  8
RAHM2
 10
-163.1448171868856
 20
21.249999999999972
 30
0.0
 40
2.5
  1
変更記事
  0
ENDBLK
  5
132D
  8
0
  0
BLOCK
  8
0
  2
*U33
 70
     1
 10
0.0
 20
0.0
 30
0.0
  3
*U33
  1

  0
TEXT
  5
132F
  8
0
 10
-88.85532994923858
 20
3.4187817258883251
 30
0.0
 40
3.5
  1
株式会社タカチ電機工業
  0
ENDBLK
  5
1331
  8
0
  0
BLOCK
  8
0
  2
*U34
 70
     1
 10
0.0
 20
0.0
 30
0.0
  3
*U34
  1

  0
TEXT
  5
1333
  8
RAHM2
 10
-123.3541228057275
 20
31.250000000000028
 30
0.0
 40
2.5
  1
・  ・   
  0
ENDBLK
  5
1335
  8
0
  0
BLOCK
  8
0
  2
*U35
 70
     1
 10
0.0
 20
0.0
 30
0.0
  3
*U35
  1

  0
TEXT
  5
1337
  8
RAHM2
 10
-126.238119805002
 20
21.249999999999972
 30
0.0
 40
2.5
  1
年・月・日
  0
ENDBLK
  5
1339
  8
0
  0
BLOCK
  8
0
  2
*U36
 70
     1
 10
0.0
 20
0.0
 30
0.0
  3
*U36
  1

  0
TEXT
  5
133B
  8
RAHM2
 10
-104.5
 20
21.249999999999972
 30
0.0
 40
2.5
  1
担当
  0
ENDBLK
  5
133D
  8
0
  0
BLOCK
  8
0
  2
*U37
 70
     1
 10
0.0
 20
0.0
 30
0.0
  3
*U37
  1

  0
TEXT
  5
133F
  8
RAHM2
 10
-123.3541228057275
 20
41.250000000000021
 30
0.0
 40
2.5
  1
・  ・   
  0
ENDBLK
  5
1341
  8
0
  0
BLOCK
  8
0
  2
*U38
 70
     1
 10
0.0
 20
0.0
 30
0.0
  3
*U38
  1

  0
TEXT
  5
1343
  8
RAHM2
 10
-123.3541228057275
 20
36.250000000000028
 30
0.0
 40
2.5
  1
・  ・   
  0
ENDBLK
  5
1345
  8
0
  0
BLOCK
  8
0
  2
*U39
 70
     1
 10
0.0
 20
0.0
 30
0.0
  3
*U39
  1

  0
TEXT
  5
1347
  8
RAHM2
 10
-123.3541228057275
 20
46.250000000000021
 30
0.0
 40
2.5
  1
・  ・   
  0
ENDBLK
  5
1349
  8
0
  0
BLOCK
  8
0
  2
*U40
 70
     1
 10
0.0
 20
0.0
 30
0.0
  3
*U40
  1

  0
TEXT
  5
134B
  8
RAHM2
 10
-92.800255137131444
 20
13.80103540727964
 30
0.0
 40
2.5
  1
日付
  0
ENDBLK
  5
134D
  8
0
  0
BLOCK
  8
0
  2
*U41
 70
     1
 10
0.0
 20
0.0
 30
0.0
  3
*U41
  1

  0
TEXT
  5
134F
  8
RAHM2
 10
-92.800255137131444
 20
23.801035407279642
 30
0.0
 40
2.5
  1
表面処理
  0
ENDBLK
  5
1351
  8
0
  0
BLOCK
  8
0
  2
*U42
 70
     1
 10
0.0
 20
0.0
 30
0.0
  3
*U42
  1

  0
TEXT
  5
1353
  8
RAHM2
 10
-92.800255137131444
 20
33.801035407279642
 30
0.0
 40
2.5
  1
材質
  0
ENDBLK
  5
1355
  8
0
  0
BLOCK
  8
0
  2
*U43
 70
     1
 10
0.0
 20
0.0
 30
0.0
  3
*U43
  1

  0
TEXT
  5
1357
  8
RAHM2
 10
-72.800255137131444
 20
46.301035407279642
 30
0.0
 40
2.5
  1
尺度
  0
ENDBLK
  5
1359
  8
0
  0
BLOCK
  8
0
  2
*U44
 70
     1
 10
0.0
 20
0.0
 30
0.0
  3
*U44
  1

  0
TEXT
  5
135B
  8
RAHM2
 10
-52.800255137131451
 20
46.301035407279642
 30
0.0
 40
2.5
  1
数量
  0
ENDBLK
  5
135D
  8
0
  0
BLOCK
  8
0
  2
*U45
 70
     1
 10
0.0
 20
0.0
 30
0.0
  3
*U45
  1

  0
TEXT
  5
135F
  8
RAHM2
 10
-28.3125
 20
21.301035407279642
 30
0.0
 40
2.5
  1
承認
  0
ENDBLK
  5
1361
  8
0
  0
BLOCK
  8
0
  2
*U46
 70
     1
 10
0.0
 20
0.0
 30
0.0
  3
*U46
  1

  0
TEXT
  5
1363
  8
RAHM2
 10
-28.3125
 20
46.301035407279642
 30
0.0
 40
2.5
  1
承認
  0
ENDBLK
  5
1365
  8
0
  0
BLOCK
  8
0
  2
*U47
 70
     1
 10
0.0
 20
0.0
 30
0.0
  3
*U47
  1

  0
TEXT
  5
1367
  8
RAHM2
 10
-123.3541228057275
 20
26.250000000000028
 30
0.0
 40
2.5
  1
・  ・   
  0
ENDBLK
  5
1369
  8
0
  0
BLOCK
  8
0
  2
*U48
 70
     1
 10
0.0
 20
0.0
 30
0.0
  3
*U48
  1

  0
TEXT
  5
136B
  8
RAHM2
 10
-11.3125
 20
46.301035407279642
 30
0.0
 40
2.5
  1
検図
  0
ENDBLK
  5
136D
  8
0
  0
BLOCK
  8
0
  2
*U49
 70
     1
 10
0.0
 20
0.0
 30
0.0
  3
*U49
  1

  0
TEXT
  5
136F
  8
RAHM2
 10
-11.3125
 20
21.301035407279642
 30
0.0
 40
2.5
  1
製図
  0
ENDBLK
  5
1371
  8
0
  0
BLOCK
  8
0
  2
*U50
 70
     1
 10
0.0
 20
0.0
 30
0.0
  3
*U50
  1

  0
TEXT
  5
1390
  8
AM_5
 62
     2
 10
360.72696960792717
 20
389.09356549616552
 30
0.0
 40
7.0
  1
89
 50
90.0
  0
ENDBLK
  5
1392
  8
0
  0
BLOCK
  8
0
  2
*U51
 70
     1
 10
0.0
 20
0.0
 30
0.0
  3
*U51
  1

  0
TEXT
  5
1394
  8
AM_5
 62
     2
 10
189.0684874175856
 20
269.37108752288668
 30
0.0
 40
7.0
  1
3
 50
90.0
  0
ENDBLK
  5
1396
  8
0
  0
BLOCK
  8
0
  2
*U52
 70
     1
 10
0.0
 20
0.0
 30
0.0
  3
*U52
  1

  0
TEXT
  5
1398
  8
AM_5
 62
     2
 10
117.22853792392441
 20
161.42108752288669
 30
0.0
 40
7.0
  1
3.5
  0
ENDBLK
  5
139A
  8
0
  0
BLOCK
  8
0
  2
*U53
 70
     1
 10
0.0
 20
0.0
 30
0.0
  3
*U53
  1

  0
TEXT
  5
139C
  8
AM_5
 62
     2
 10
271.16834805276108
 20
329.24414267267161
 30
0.0
 40
7.0
  1
30
  0
ENDBLK
  5
139E
  8
0
  0
BLOCK
  8
0
  2
*U54
 70
     1
 10
0.0
 20
0.0
 30
0.0
  3
*U54
  1

  0
TEXT
  5
13A0
  8
AM_5
 62
     2
 10
360.72696960792751
 20
426.3991679258412
 30
0.0
 40
7.0
  1
15
 50
90.0
  0
ENDBLK
  5
13A2
  8
0
  0
BLOCK
  8
0
  2
*U55
 70
     1
 10
0.0
 20
0.0
 30
0.0
  3
*U55
  1

  0
TEXT
  5
13A4
  8
AM_5
 62
     2
 10
266.25722600551688
 20
465.24414267267139
 30
0.0
 40
7.0
  1
20
  0
ENDBLK
  5
13A6
  8
0
  0
BLOCK
  8
0
  2
*U56
 70
     1
 10
0.0
 20
0.0
 30
0.0
  3
*U56
  1

  0
TEXT
  5
13A8
  8
AM_5
 62
     2
 10
293.52612921144231
 20
529.74414267267161
 30
0.0
 40
7.0
  1
75
  0
ENDBLK
  5
13AA
  8
0
  0
BLOCK
  8
0
  2
*U57
 70
     1
 10
0.0
 20
0.0
 30
0.0
  3
*U57
  1

  0
TEXT
  5
13AC
  8
AM_5
 62
     2
 10
146.44715867742809
 20
529.74414267267161
 30
0.0
 40
7.0
  1
26.2
  0
ENDBLK
  5
13AE
  8
0
  0
BLOCK
  8
0
  2
*U58
 70
     1
 10
0.0
 20
0.0
 30
0.0
  3
*U58
  1

  0
TEXT
  5
13B0
  8
AM_5
 62
     2
 10
209.06848842758561
 20
389.34414267267169
 30
0.0
 40
7.0
  1
88
 50
90.0
  0
ENDBLK
  5
13B2
  8
0
  0
BLOCK
  8
0
  2
*U59
 70
     1
 10
0.0
 20
0.0
 30
0.0
  3
*U59
  1

  0
TEXT
  5
13B4
  8
AM_5
 62
     2
 10
189.06848842758561
 20
429.09356549616558
 30
0.0
 40
7.0
  1
5.9
 50
90.0
  0
ENDBLK
  5
13B6
  8
0
  0
BLOCK
  8
0
  2
*U60
 70
     1
 10
0.0
 20
0.0
 30
0.0
  3
*U60
  1

  0
TEXT
  5
13B8
  8
AM_5
 62
     2
 10
189.06848842758569
 20
385.63393597975841
 30
0.0
 40
7.0
  1
76.2
 50
90.0
  0
ENDBLK
  5
13BA
  8
0
  0
BLOCK
  8
0
  2
*U61
 70
     1
 10
0.0
 20
0.0
 30
0.0
  3
*U61
  1

  0
TEXT
  5
13BC
  8
AM_5
 62
     2
 10
189.06848842758581
 20
346.99356549616562
 30
0.0
 40
7.0
  1
5.9
 50
90.0
  0
ENDBLK
  5
13BE
  8
0
  0
BLOCK
  8
0
  2
*U62
 70
     1
 10
0.0
 20
0.0
 30
0.0
  3
*U62
  1

  0
TEXT
  5
13C0
  8
AM_5
 62
     2
 10
234.0711029582728
 20
410.64414267267159
 30
0.0
 40
7.0
  1
44
 50
90.0
  0
ENDBLK
  5
13C2
  8
0
  0
BLOCK
  8
0
  2
*U63
 70
     1
 10
0.0
 20
0.0
 30
0.0
  3
*U63
  1

  0
TEXT
  5
13C4
  8
AM_5
 62
     2
 10
234.0711029582728
 20
366.64414267267159
 30
0.0
 40
7.0
  1
44
 50
90.0
  0
ENDBLK
  5
13C6
  8
0
  0
ENDSEC
  0
SECTION
  2
ENTITIES
  0
LINE
  5
9C3
  8
TK1
 10
163.0684874175856
 20
350.24414267267161
 30
0.0
 11
141.86848741758561
 21
350.24414267267161
 31
0.0
  0
LINE
  5
9C4
  8
TK1
 10
141.8684874175855
 20
438.24414267267161
 30
0.0
 11
141.86848741758561
 21
350.24414267267161
 31
0.0
  0
INSERT
  5
9FA
  8
TK1
  2
TAKACHI-A4
 10
0.0
 20
0.0
 30
0.0
 41
2.0
 42
2.0
 43
2.0
1001
GENIUS_GENOREF_13
1005
A06
1001
GENIUS_GENODEF_13
1002
{
1000
HIER
1070
     0
1002
}
1002
{
1000
MANEDIT
1070
     0
1002
}
1002
{
1000
NOSEL
1070
     0
1002
}
1002
{
1000
BEHIND
1070
     0
1002
}
1002
{
1000
OTHER
1070
     0
1002
}
1002
{
1000
REACTOR
1002
}
1001
GENIUS_GENOBJ-N-SDF_13
1002
{
1000
OWNER
1000
GEN
1002
}
1001
GENIUS_GENSCREG_13
1040
2.0
1040
1.0
1011
0.0
1021
8.7707845056444340E+289
1031
0.0
1021
0.0
1031
0.0
1011
390.00000000000028
1021
8.7707845056444340E+289
1031
0.0
1021
550.0
1031
0.0
1070
     3
  0
INSERT
  5
9FC
  8
TK1
 66
     1
  2
TAKACHI-TITLE
 10
430.0
 20
30.0
 30
0.0
 41
2.0
 42
2.0
 43
2.0
1001
GENIUS_GENOREF_13
1005
A06
  0
ATTRIB
  5
A2B
  8
0
 10
63.512294570878623
 20
47.901701048856161
 30
0.0
 40
5.0
  1

 11
63.512294570878623
 21
47.235034382189497
 31
0.0
  2
GEN-TITLE-DES2
 70
     0
 74
     1
  0
ATTRIB
  5
A2C
  8
0
 10
63.512294570878623
 20
34.035034382189501
 30
0.0
 40
6.0
  1

 11
63.512294570878623
 21
33.235034382189497
 31
0.0
  2
GEN-TITLE-NR
 70
     0
 74
     1
  0
ATTRIB
  5
A2D
  8
0
 10
63.512294570878623
 20
58.814572390036687
 30
0.0
 40
8.0
  1
MSM-88
 11
63.512294570878623
 21
57.747905723370017
 31
0.0
  2
GEN-TITLE-DES1
 70
     0
 74
     1
  0
ATTRIB
  5
A2E
  8
0
 10
305.51154327329652
 20
108.510011123567
 30
0.0
 40
6.0
  1
1:2
 72
     2
 11
313.97189760400522
 21
108.510011123567
 31
0.0
  2
GEN-TITLE-SCA
 70
     0
  0
ATTRIB
  5
A2F
  8
0
 10
275.9943006670199
 20
92.043615758869507
 30
0.0
 40
6.0
  1
A6063S-T5
 11
275.9943006670199
 21
91.243615758869495
 31
0.0
  2
GEN-TITLE-MAT1
 70
     0
 74
     1
  0
ATTRIB
  5
A30
  8
0
 10
275.9943006670199
 20
72.043615758869507
 30
0.0
 40
6.0
  1
ｸﾞﾚｰ塗装・黒塗装
 11
275.9943006670199
 21
71.243615758869495
 31
0.0
  2
GEN-TITLE-MAT2
 70
     0
 74
     1
  0
ATTRIB
  5
A31
  8
0
 10
275.9943006670199
 20
54.035034382189487
 30
0.0
 40
6.0
  1
2005/06/01
 11
275.9943006670199
 21
53.23503438218949
 31
0.0
  2
GEN-TITLE-DAT
 70
     0
 74
     1
  0
ATTRIB
  5
A32
  8
0
 10
354.47365241217
 20
108.510011123567
 30
0.0
 40
6.0
  1

 72
     2
 11
354.47365241217
 21
108.510011123567
 31
0.0
  2
GEN-TITLE-QTY
 70
     0
  0
SEQEND
  5
A2A
  8
TK1
  0
POINT
  5
A06
  8
0
 10
0.0
 20
0.0
 30
0.0
1001
GENIUS_GENODEF_13
1002
{
1000
HIER
1070
     1
1002
}
1002
{
1000
MANEDIT
1070
     0
1002
}
1002
{
1000
NOSEL
1070
     0
1002
}
1002
{
1000
BEHIND
1070
     0
1002
}
1002
{
1000
OTHER
1070
     0
1002
}
1002
{
1000
REACTOR
1002
}
1001
GENIUS_GENOENT_13
1002
{
1000
MYREF
1005
A06
1002
}
1002
{
1000
GRP
1005
0
1002
}
1001
GENIUS_GENOBJ-N-TIT_13
1002
{
1000
OWNER
1000
GEN
1002
}
1001
GENIUS_GENOLIS_13
1002
{
1000
ENT
1005
9FC
1005
9FA
1005
A29
1002
}
1001
GENIUS_GENTITLE_13
1002
{
1000
BORDER
1000
TAKACHI-A4
1002
}
1002
{
1000
TITLE
1000
TAKACHI-TITLE
1002
}
1002
{
1000
SCALE
1000
1:2
1002
}
1002
{
1000
TITLESTD
1000
ISO
1002
}
1002
{
1000
HRA
1005
9FA
1002
}
1002
{
1000
HTIT
1005
9FC
1002
}
1002
{
1000
GENIUSID
1005
A06
1002
}
1002
{
1000
UNCHG
1002
{
1000
GEN-TITLE-SIZ
1000
GEN-TITLE-SCA
1002
}
1002
}
  0
LINE
  5
A11
  8
TK1
 10
168.0684874175856
 20
355.24414267267161
 30
0.0
 11
168.0684874175856
 21
433.24414267267161
 31
0.0
  0
LINE
  5
A1B
  8
TK1
 10
141.3684874175855
 20
423.2441426726715
 30
0.0
 11
141.36848741758561
 21
365.24414267267161
 31
0.0
  0
LINE
  5
A25
  8
TK1
 10
163.0684874175856
 20
438.24414267267161
 30
0.0
 11
141.8684874175855
 21
438.24414267267161
 31
0.0
  0
ARC
  5
A35
  8
TK1
 10
163.0684874175856
 20
355.24414267267161
 30
0.0
 40
5.0
 50
269.99999999999937
 51
0.0
1001
GENIUS_GENOBJ-N-FIL_13
1002
{
1000
OWNER
1000
GEN
1002
}
1001
GENIUS_GENODEF_13
1002
{
1000
HIER
1070
     0
1002
}
1002
{
1000
MANEDIT
1070
     0
1002
}
1002
{
1000
NOSEL
1070
     0
1002
}
1002
{
1000
BEHIND
1070
     0
1002
}
1002
{
1000
OTHER
1070
     0
1002
}
1002
{
1000
REACTOR
1002
}
  0
ARC
  5
A38
  8
TK1
 10
163.0684874175856
 20
433.24414267267173
 30
0.0
 40
5.0
 50
359.99999999999869
 51
90.000000000000625
1001
GENIUS_GENODEF_13
1002
{
1000
HIER
1070
     0
1002
}
1002
{
1000
MANEDIT
1070
     0
1002
}
1002
{
1000
NOSEL
1070
     0
1002
}
1002
{
1000
BEHIND
1070
     0
1002
}
1002
{
1000
OTHER
1070
     0
1002
}
1002
{
1000
REACTOR
1002
}
1001
GENIUS_GENOBJ-N-FIL_13
1002
{
1000
OWNER
1000
GEN
1002
}
  0
LINE
  5
A43
  8
TK1
 10
141.8684874175855
 20
423.2441426726715
 30
0.0
 11
141.3684874175855
 21
423.2441426726715
 31
0.0
  0
LINE
  5
A4D
  8
TK1
 10
141.86848741758561
 20
365.24414267267161
 30
0.0
 11
141.36848741758561
 21
365.24414267267161
 31
0.0
  0
LINE
  5
A57
  8
TK1
 10
276.07110395827277
 20
438.24414267267161
 30
0.0
 11
261.07110395827277
 21
438.24414267267161
 31
0.0
  0
LINE
  5
A5D
  8
TK1
 10
276.07110395827277
 20
350.24414267267161
 30
0.0
 11
261.07110395827289
 21
350.24414267267161
 31
0.0
  0
LINE
  5
A67
  8
TK1
 10
261.07110395827289
 20
350.24414267267161
 30
0.0
 11
261.07110395827277
 21
438.24414267267161
 31
0.0
  0
LINE
  5
A75
  8
TK1
 10
264.071103958273
 20
350.24414267267161
 30
0.0
 11
264.07110395827277
 21
438.24414267267161
 31
0.0
  0
LINE
  5
A7F
  8
TK1
 10
281.07110395827277
 20
433.24414267267161
 30
0.0
 11
281.07110395827277
 21
423.2441426726715
 31
0.0
  0
LINE
  5
A89
  8
TK1
 10
336.07110395827277
 20
418.24414267267161
 30
0.0
 11
336.07110395827277
 21
370.24414267267161
 31
0.0
  0
ARC
  5
A8C
  8
TK1
 10
276.07110395827277
 20
433.24414267267173
 30
0.0
 40
5.0
 50
359.99999999999869
 51
90.000000000000313
1001
GENIUS_GENODEF_13
1002
{
1000
HIER
1070
     0
1002
}
1002
{
1000
MANEDIT
1070
     0
1002
}
1002
{
1000
NOSEL
1070
     0
1002
}
1002
{
1000
BEHIND
1070
     0
1002
}
1002
{
1000
OTHER
1070
     0
1002
}
1002
{
1000
REACTOR
1002
}
1001
GENIUS_GENOBJ-N-FIL_13
1002
{
1000
OWNER
1000
GEN
1002
}
  0
ARC
  5
A8E
  8
TK1
 10
331.07110395827289
 20
418.24414267267161
 30
0.0
 40
5.0
 50
359.99999999999869
 51
90.000000000001293
1001
GENIUS_GENODEF_13
1002
{
1000
HIER
1070
     0
1002
}
1002
{
1000
MANEDIT
1070
     0
1002
}
1002
{
1000
NOSEL
1070
     0
1002
}
1002
{
1000
BEHIND
1070
     0
1002
}
1002
{
1000
OTHER
1070
     0
1002
}
1002
{
1000
REACTOR
1002
}
1001
GENIUS_GENOBJ-N-FIL_13
1002
{
1000
OWNER
1000
GEN
1002
}
  0
ARC
  5
A90
  8
TK1
 10
331.07110395827289
 20
370.24414267267161
 30
0.0
 40
5.0
 50
269.99999999999869
 51
0.0000000000006514
1001
GENIUS_GENOBJ-N-FIL_13
1002
{
1000
OWNER
1000
GEN
1002
}
1001
GENIUS_GENODEF_13
1002
{
1000
HIER
1070
     0
1002
}
1002
{
1000
MANEDIT
1070
     0
1002
}
1002
{
1000
NOSEL
1070
     0
1002
}
1002
{
1000
BEHIND
1070
     0
1002
}
1002
{
1000
OTHER
1070
     0
1002
}
1002
{
1000
REACTOR
1002
}
  0
ARC
  5
A92
  8
TK1
 10
276.071103958273
 20
355.24414267267161
 30
0.0
 40
5.0
 50
269.99999999999898
 51
0.0
1001
GENIUS_GENODEF_13
1002
{
1000
HIER
1070
     0
1002
}
1002
{
1000
MANEDIT
1070
     0
1002
}
1002
{
1000
NOSEL
1070
     0
1002
}
1002
{
1000
BEHIND
1070
     0
1002
}
1002
{
1000
OTHER
1070
     0
1002
}
1002
{
1000
REACTOR
1002
}
1001
GENIUS_GENOBJ-N-FIL_13
1002
{
1000
OWNER
1000
GEN
1002
}
  0
LINE
  5
A93
  8
TK1
 10
281.07110395827277
 20
423.2441426726715
 30
0.0
 11
331.07110395827277
 21
423.2441426726715
 31
0.0
  0
LINE
  5
A94
  8
TK1
 10
281.07110395827277
 20
365.24414267267161
 30
0.0
 11
281.07110395827277
 21
355.24414267267161
 31
0.0
  0
LINE
  5
A95
  8
TK1
 10
281.07110395827277
 20
365.24414267267161
 30
0.0
 11
331.07110395827277
 21
365.24414267267161
 31
0.0
  0
CIRCLE
  5
AC1
  8
TK1
 10
291.07110395827277
 20
394.24414267267161
 30
0.0
 40
2.6000000000000001
  0
LINE
  5
AEA
  8
TK1
 10
162.3184874175856
 20
435.59414267267158
 30
0.0
 11
157.8184874175856
 21
435.59414267267158
 31
0.0
  0
LINE
  5
AF3
  8
TK1
 10
162.3184874175856
 20
429.09414267267169
 30
0.0
 11
157.8184874175856
 21
429.09414267267169
 31
0.0
  0
ARC
  5
B06
  8
TK1
 10
157.8184874175856
 20
432.34414267267158
 30
0.0
 40
3.25
 50
90.0
 51
270.0
  0
ARC
  5
B07
  8
TK1
 10
162.3184874175856
 20
432.34414267267158
 30
0.0
 40
3.25
 50
270.0
 51
90.0
  0
ARC
  5
B0C
  8
TK1
 10
162.3184874175856
 20
356.14414267267182
 30
0.0
 40
3.25
 50
270.0
 51
90.000000000000028
  0
ARC
  5
B0D
  8
TK1
 10
157.8184874175856
 20
356.14414267267182
 30
0.0
 40
3.25
 50
90.000000000000028
 51
270.0
  0
LINE
  5
B0E
  8
TK1
 10
162.3184874175856
 20
359.39414267267182
 30
0.0
 11
157.8184874175856
 21
359.39414267267182
 31
0.0
  0
LINE
  5
B0F
  8
TK1
 10
162.3184874175856
 20
352.89414267267182
 30
0.0
 11
157.8184874175856
 21
352.89414267267182
 31
0.0
  0
LINE
  5
B2F
  8
TK1
 10
141.8684874175855
 20
253.42108752288669
 30
0.0
 11
141.8684874175855
 21
237.42108752288669
 31
0.0
  0
LINE
  5
B35
  8
TK1
 10
168.0684874175856
 20
257.42108752288669
 30
0.0
 11
168.0684874175856
 21
254.42108752288669
 31
0.0
  0
LINE
  5
B57
  8
TK1
 10
141.36848741758561
 20
182.42108752288669
 30
0.0
 11
141.36848741758561
 21
237.42108752288669
 31
0.0
  0
ARC
  5
B6B
  8
TK1
 10
145.86848741758561
 20
253.42108752288669
 30
0.0
 40
4.0
 50
89.999999999999588
 51
180.0
1001
GENIUS_GENOBJ-N-FIL_13
1002
{
1000
OWNER
1000
GEN
1002
}
1001
GENIUS_GENODEF_13
1002
{
1000
HIER
1070
     0
1002
}
1002
{
1000
MANEDIT
1070
     0
1002
}
1002
{
1000
NOSEL
1070
     0
1002
}
1002
{
1000
BEHIND
1070
     0
1002
}
1002
{
1000
OTHER
1070
     0
1002
}
1002
{
1000
REACTOR
1002
}
  0
LINE
  5
B6D
  8
TK1
 10
168.0684874175856
 20
257.42108752288669
 30
0.0
 11
145.86848741758561
 21
257.42108752288669
 31
0.0
  0
LINE
  5
B6E
  8
TK1
 10
168.0684874175856
 20
254.42108752288669
 30
0.0
 11
144.86848741758561
 21
254.42108752288669
 31
0.0
  0
LINE
  5
B70
  8
TK1
 10
144.86848741758561
 20
254.42108752288669
 30
0.0
 11
144.86848741758561
 21
182.42108752288669
 31
0.0
  0
LINE
  5
B73
  8
TK1
 10
144.86848741758561
 20
182.42108752288669
 30
0.0
 11
141.36848741758561
 21
182.42108752288669
 31
0.0
  0
LINE
  5
B74
  8
TK1
 10
144.86848741758561
 20
237.42108752288669
 30
0.0
 11
141.36848741758561
 21
237.42108752288669
 31
0.0
  0
DIMENSION
  5
B8C
  8
AM_5
  2
*D11
 10
212.06848842758561
 20
350.24414267267161
 30
0.0
 11
205.56848842758549
 21
394.24414267267173
 31
0.0
 70
     0
 13
163.06848741758549
 23
438.24414267267173
 33
0.0
 14
163.0684874175856
 24
350.24414267267161
 34
0.0
 50
90.0
1001
ACAD
1000
DSTYLE
1002
{
1070
    40
1040
2.0
1002
}
  0
LINE
  5
BCE
  8
AM_7
  6
AM_ISO08W050X2
 10
148.5684874175856
 20
432.34414267267158
 30
0.0
 11
171.5684874175856
 21
432.34414267267158
 31
0.0
1001
GENIUS_GENODEF_13
1002
{
1000
HIER
1070
     0
1002
}
1002
{
1000
MANEDIT
1070
     0
1002
}
1002
{
1000
NOSEL
1070
     0
1002
}
1002
{
1000
BEHIND
1070
     0
1002
}
1002
{
1000
OTHER
1070
     0
1002
}
1002
{
1000
REACTOR
1002
}
1001
GENIUS_GENOBJ-N-CEN_13
1002
{
1000
OWNER
1000
GEN
1002
}
  0
LINE
  5
BDB
  8
AM_7
  6
AM_ISO08W050X2
 10
148.5684874175856
 20
356.14414267267182
 30
0.0
 11
171.5684874175856
 21
356.14414267267182
 31
0.0
1001
GENIUS_GENODEF_13
1002
{
1000
HIER
1070
     0
1002
}
1002
{
1000
MANEDIT
1070
     0
1002
}
1002
{
1000
NOSEL
1070
     0
1002
}
1002
{
1000
BEHIND
1070
     0
1002
}
1002
{
1000
OTHER
1070
     0
1002
}
1002
{
1000
REACTOR
1002
}
1001
GENIUS_GENOBJ-N-CEN_13
1002
{
1000
OWNER
1000
GEN
1002
}
  0
LINE
  5
BE8
  8
AM_7
  6
AM_ISO08W050X2
 10
160.0684874175856
 20
441.59414267267169
 30
0.0
 11
160.0684874175856
 21
423.09414267267158
 31
0.0
1001
GENIUS_GENODEF_13
1002
{
1000
HIER
1070
     0
1002
}
1002
{
1000
MANEDIT
1070
     0
1002
}
1002
{
1000
NOSEL
1070
     0
1002
}
1002
{
1000
BEHIND
1070
     0
1002
}
1002
{
1000
OTHER
1070
     0
1002
}
1002
{
1000
REACTOR
1002
}
1001
GENIUS_GENOBJ-N-CEN_13
1002
{
1000
OWNER
1000
GEN
1002
}
  0
LINE
  5
BF7
  8
AM_7
  6
AM_ISO08W050X2
 10
291.07110395827277
 20
394.24414267267161
 30
0.0
 11
299.67110395827291
 21
394.24414267267161
 31
0.0
1001
GENIUS_GENOREF_13
1005
BFB
  0
LINE
  5
BF8
  8
AM_7
  6
AM_ISO08W050X2
 10
291.07110395827277
 20
394.24414267267161
 30
0.0
 11
291.07110395827277
 21
402.84414267267158
 31
0.0
1001
GENIUS_GENOREF_13
1005
BFB
  0
LINE
  5
BF9
  8
AM_7
  6
AM_ISO08W050X2
 10
291.07110395827277
 20
394.24414267267161
 30
0.0
 11
282.47110395827281
 21
394.24414267267161
 31
0.0
1001
GENIUS_GENOREF_13
1005
BFB
  0
LINE
  5
BFA
  8
AM_7
  6
AM_ISO08W050X2
 10
291.07110395827277
 20
394.24414267267161
 30
0.0
 11
291.07110395827277
 21
385.64414267267159
 31
0.0
1001
GENIUS_GENOREF_13
1005
BFB
  0
POINT
  5
BFB
  8
0
 10
0.0
 20
0.0
 30
0.0
1001
GENIUS_GENODEF_13
1002
{
1000
HIER
1070
    10
1002
}
1002
{
1000
MANEDIT
1070
     0
1002
}
1002
{
1000
NOSEL
1070
     0
1002
}
1002
{
1000
BEHIND
1070
     0
1002
}
1002
{
1000
OTHER
1070
     0
1002
}
1002
{
1000
REACTOR
1002
}
1001
GENIUS_GENOLIS_13
1002
{
1000
ENT
1005
BFA
1005
BF9
1005
BF8
1005
BF7
1002
}
1001
GENIUS_GENOENT_13
1002
{
1000
MYREF
1005
BFB
1002
}
1002
{
1000
GRP
1005
0
1002
}
1001
GENIUS_GENOBJ-N-CRS_13
1002
{
1000
OWNER
1000
GEN
1002
}
  0
DIMENSION
  5
C11
  8
AM_5
  2
*D12
 10
192.06848842758569
 20
432.34414267267158
 30
0.0
 11
185.56848842758561
 21
435.2941426726718
 31
0.0
 70
     0
 13
163.06848741758549
 23
438.24414267267173
 33
0.0
 14
171.5684874175856
 24
432.34414267267158
 34
0.0
 50
90.0
1001
ACAD
1000
DSTYLE
1002
{
1070
    40
1040
2.0
1070
   174
1070
     1
1002
}
  0
DIMENSION
  5
C83
  8
AM_5
  2
*D13
 10
192.06848842758569
 20
432.34414267267158
 30
0.0
 11
185.56779945120769
 21
394.24414267267179
 31
0.0
 70
     0
 13
171.5684874175856
 23
356.14414267267182
 33
0.0
 14
171.5684874175856
 24
432.34414267267158
 34
0.0
 50
90.0
1001
ACAD
1000
DSTYLE
1002
{
1070
   174
1070
     1
1070
    40
1040
2.0
1002
}
  0
DIMENSION
  5
CB3
  8
AM_5
  2
*D14
 10
192.06848842758581
 20
356.14414267267182
 30
0.0
 11
185.56848842758581
 21
353.19414267267177
 31
0.0
 70
     0
 13
163.0684874175856
 23
350.24414267267161
 33
0.0
 14
171.5684874175856
 24
356.14414267267182
 34
0.0
 50
90.0
1001
ACAD
1000
DSTYLE
1002
{
1070
   174
1070
     1
1070
    40
1040
2.0
1002
}
  0
DIMENSION
  5
CEF
  8
AM_5
  2
*D15
 10
141.8684874175855
 20
526.74414267267161
 30
0.0
 11
154.96848741758561
 21
533.24483164904962
 31
0.0
 70
     0
 13
168.0684874175856
 23
433.24414267267161
 33
0.0
 14
141.8684874175855
 24
438.24414267267161
 34
0.0
1001
ACAD
1000
DSTYLE
1002
{
1070
    40
1040
2.0
1002
}
  0
DIMENSION
  5
D30
  8
AM_5
  2
*D16
 10
160.0684874175856
 20
465.59414267267152
 30
0.0
 11
164.0684874175856
 21
472.09414267267158
 31
0.0
 70
     0
 13
168.0684874175856
 23
433.24414267267161
 33
0.0
 14
160.0684874175856
 24
441.59414267267169
 34
0.0
1001
ACAD
1000
DSTYLE
1002
{
1070
    40
1040
2.0
1070
   173
1070
     1
1070
   174
1070
     1
1070
     6
1000
OPEN30
1070
     7
1000
GENDOT
1002
}
  0
DIMENSION
  5
DAB
  8
AM_5
  2
*D17
 10
141.8684874175855
 20
465.59414267267152
 30
0.0
 11
150.96848741758561
 21
472.09483164904952
 31
0.0
 70
     0
 13
160.0684874175856
 23
441.59414267267169
 33
0.0
 14
141.8684874175855
 24
438.24414267267161
 34
0.0
1001
ACAD
1000
DSTYLE
1002
{
1070
    40
1040
2.0
1070
   173
1070
     1
1070
   174
1070
     1
1070
     6
1000
GENDOT
1070
     7
1000
OPEN30
1002
}
  0
DIMENSION
  5
E07
  8
AM_5
  2
*D19
 10
141.36848741758561
 20
158.42108752288669
 30
0.0
 11
123.32351267075499
 21
164.92108752288669
 31
0.0
 70
     0
 13
144.86848741758561
 23
182.42108752288669
 33
0.0
 14
141.36848741758561
 24
182.42108752288669
 34
0.0
 50
0.0000000000002036
1001
ACAD
1000
DSTYLE
1002
{
1070
    40
1040
2.0
1002
}
  0
DIMENSION
  5
E52
  8
AM_5
  2
*D20
 10
192.0684874175856
 20
257.42108752288669
 30
0.0
 11
185.5684874175856
 21
271.96606226971733
 31
0.0
 70
     0
 13
168.0684874175856
 23
254.42108752288669
 33
0.0
 14
168.0684874175856
 24
257.42108752288669
 34
0.0
 50
90.0
1001
ACAD
1000
DSTYLE
1002
{
1070
    40
1040
2.0
1002
}
  0
DIMENSION
  5
E9D
  8
AM_5
  2
*D21
 10
336.07110395827289
 20
526.74414267267161
 30
0.0
 11
298.57110395827289
 21
533.24414267267161
 31
0.0
 70
     0
 13
261.07110395827277
 23
438.24414267267161
 33
0.0
 14
336.07110395827289
 24
418.24414267267161
 34
0.0
1001
ACAD
1000
DSTYLE
1002
{
1070
    40
1040
2.0
1002
}
  0
DIMENSION
  5
EDE
  8
AM_5
  2
*D22
 10
281.07110395827277
 20
462.24414267267139
 30
0.0
 11
271.07110395827277
 21
468.74483164904939
 31
0.0
 70
     0
 13
261.07110395827277
 23
438.24414267267161
 33
0.0
 14
281.07110395827277
 24
433.24414267267161
 34
0.0
1001
ACAD
1000
DSTYLE
1002
{
1070
    40
1040
2.0
1002
}
  0
DIMENSION
  5
F28
  8
AM_5
  2
*D23
 10
291.071103958273
 20
326.24414267267161
 30
0.0
 11
276.071103958273
 21
332.74414267267161
 31
0.0
 70
     0
 13
261.07110395827289
 23
350.24414267267161
 33
0.0
 14
291.071103958273
 24
385.64414267267159
 34
0.0
 50
0.0000000000002036
1001
ACAD
1000
DSTYLE
1002
{
1070
    40
1040
2.0
1002
}
  0
DIMENSION
  5
FAA
  8
AM_5
  2
*D25
 10
363.72696960792757
 20
423.24414267267173
 30
0.0
 11
357.22696960792751
 21
430.74414267267173
 31
0.0
 70
     0
 13
276.07110395827277
 23
438.24414267267173
 33
0.0
 14
331.07110395827277
 24
423.24414267267173
 34
0.0
 50
90.0
1001
ACAD
1000
DSTYLE
1002
{
1070
    40
1040
2.0
1002
}
  0
DIMENSION
  5
122E
  8
AM_5
  2
*D26
 10
237.0711029582728
 20
394.24414267267161
 30
0.0
 11
230.57110295827269
 21
416.24414267267161
 31
0.0
 70
     0
 13
261.07110395827277
 23
438.24414267267161
 33
0.0
 14
282.47110395827281
 24
394.24414267267161
 34
0.0
 50
90.0
1001
ACAD
1000
DSTYLE
1002
{
1070
    40
1040
2.0
1070
   174
1070
     1
1002
}
  0
DIMENSION
  5
128E
  8
AM_5
  2
*D27
 10
237.07110295827289
 20
350.24414267267161
 30
0.0
 11
230.5711029582728
 21
372.24414267267161
 31
0.0
 70
     0
 13
282.47110395827281
 23
394.24414267267161
 33
0.0
 14
261.07110395827289
 24
350.24414267267161
 34
0.0
 50
90.0
1001
ACAD
1000
DSTYLE
1002
{
1070
   174
1070
     1
1070
    40
1040
2.0
1002
}
  0
LINE
  5
12BB
  8
AM_7
  6
AM_ISO08W050X2
 10
326.07110395827277
 20
394.24414267267161
 30
0.0
 11
326.07110395827277
 21
385.64414267267159
 31
0.0
1001
GENIUS_GENOREF_13
1005
12C0
  0
LINE
  5
12BC
  8
AM_7
  6
AM_ISO08W050X2
 10
326.07110395827277
 20
394.24414267267161
 30
0.0
 11
317.47110395827281
 21
394.24414267267161
 31
0.0
1001
GENIUS_GENOREF_13
1005
12C0
  0
LINE
  5
12BD
  8
AM_7
  6
AM_ISO08W050X2
 10
326.07110395827277
 20
394.24414267267161
 30
0.0
 11
326.07110395827277
 21
402.84414267267158
 31
0.0
1001
GENIUS_GENOREF_13
1005
12C0
  0
LINE
  5
12BE
  8
AM_7
  6
AM_ISO08W050X2
 10
326.07110395827277
 20
394.24414267267161
 30
0.0
 11
334.67110395827291
 21
394.24414267267161
 31
0.0
1001
GENIUS_GENOREF_13
1005
12C0
  0
CIRCLE
  5
12BF
  8
TK1
 10
326.07110395827277
 20
394.24414267267161
 30
0.0
 40
2.6000000000000001
  0
POINT
  5
12C0
  8
0
 10
35.0
 20
0.0
 30
0.0
1001
GENIUS_GENODEF_13
1002
{
1000
HIER
1070
    10
1002
}
1002
{
1000
MANEDIT
1070
     0
1002
}
1002
{
1000
NOSEL
1070
     0
1002
}
1002
{
1000
BEHIND
1070
     0
1002
}
1002
{
1000
OTHER
1070
     0
1002
}
1002
{
1000
REACTOR
1002
}
1001
GENIUS_GENOLIS_13
1002
{
1000
ENT
1005
12BB
1005
12BC
1005
12BD
1005
12BE
1002
}
1001
GENIUS_GENOENT_13
1002
{
1000
MYREF
1005
12C0
1002
}
1002
{
1000
GRP
1005
0
1002
}
1001
GENIUS_GENOBJ-N-CRS_13
1002
{
1000
OWNER
1000
GEN
1002
}
  0
VIEWPORT
  5
17C
 67
     1
  8
0
 10
133.34999084472651
 20
101.5999970436096
 30
0.0
 40
370.22669129365238
 41
228.4221935424805
 68
     1
 69
     1
1001
ACAD
1000
MVIEW
1002
{
1070
    16
1010
0.0
1020
0.0
1030
0.0
1010
0.0
1020
0.0
1030
1.0
1040
0.0
1040
228.4221935424805
1040
133.34999084472651
1040
101.5999970436096
1040
50.0
1040
0.0
1040
0.0
1070
     0
1070
   100
1070
     1
1070
     1
1070
     0
1070
     0
1070
     0
1070
     0
1040
0.0
1040
0.0
1040
0.0
1040
10.0
1040
10.0
1040
10.0
1040
10.0
1070
     0
1002
{
1002
}
1002
}
1001
GENIUS_GENOBJ-N-SDF_13
1002
{
1000
OWNER
1000
GEN
1002
}
1001
GENIUS_GENODEF_13
1002
{
1000
HIER
1070
     0
1002
}
1002
{
1000
MANEDIT
1070
     0
1002
}
1002
{
1000
NOSEL
1070
     0
1002
}
1002
{
1000
BEHIND
1070
     0
1002
}
1002
{
1000
OTHER
1070
     0
1002
}
1002
{
1000
REACTOR
1002
}
1001
GENIUS_GENSCREG_15
1000
PF
1040
1.0
1000
DF
1040
1.0
1000
MIN
1011
-51.763354802099627
1021
8.7707845056444340E+289
1031
0.0
1021
-12.6110997276306
1031
0.0
1000
MAX
1011
318.4633364915527
1021
8.7707845056444340E+289
1031
0.0
1021
215.8110938148499
1031
0.0
1000
FLAGS
1070
     4
  0
ENDSEC
  0
EOF
