  0
SECTION
  2
HEADER
  9
$ACADVER
  1
AC1009
  9
$INSBASE
 10
0.0
 20
0.0
 30
0.0
  9
$EXTMIN
 10
-0.1537088397203661
 20
-0.1067952236271594
 30
-374.40917010531859
  9
$EXTMAX
 10
2015.0000093842209
 20
1400.0000065200529
 30
0.0000017435584141
  9
$LIMMIN
 10
0.0
 20
0.0
  9
$LIMMAX
 10
2015.0
 20
1400.0
  9
$ORTHOMODE
 70
     0
  9
$REGENMODE
 70
     1
  9
$FILLMODE
 70
     1
  9
$QTEXTMODE
 70
     0
  9
$MIRRTEXT
 70
     1
  9
$DRAGMODE
 70
     2
  9
$LTSCALE
 40
5.0
  9
$OSMODE
 70
   431
  9
$ATTMODE
 70
     1
  9
$TEXTSIZE
 40
73.985717453579113
  9
$TRACEWID
 40
1.0
  9
$TEXTSTYLE
  7
STANDARD
  9
$CLAYER
  8
ﾃ_ﾌ_ﾙ
  9
$CELTYPE
  6
BYLAYER
  9
$CECOLOR
 62
   256
  9
$DIMSCALE
 40
5.0
  9
$DIMASZ
 40
2.5
  9
$DIMEXO
 40
1.0
  9
$DIMDLI
 40
10.0
  9
$DIMRND
 40
0.0
  9
$DIMDLE
 40
0.0
  9
$DIMEXE
 40
1.0
  9
$DIMTP
 40
0.1
  9
$DIMTM
 40
0.1
  9
$DIMTXT
 40
3.5
  9
$DIMCEN
 40
0.0
  9
$DIMTSZ
 40
0.0
  9
$DIMTOL
 70
     0
  9
$DIMLIM
 70
     0
  9
$DIMTIH
 70
     0
  9
$DIMTOH
 70
     0
  9
$DIMSE1
 70
     0
  9
$DIMSE2
 70
     0
  9
$DIMTAD
 70
     1
  9
$DIMZIN
 70
     8
  9
$DIMBLK
  1
OPEN30
  9
$DIMASO
 70
     1
  9
$DIMSHO
 70
     1
  9
$DIMPOST
  1

  9
$DIMAPOST
  1
"
  9
$DIMALT
 70
     0
  9
$DIMALTD
 70
     2
  9
$DIMALTF
 40
0.0393701
  9
$DIMLFAC
 40
1.0
  9
$DIMTOFL
 70
     1
  9
$DIMTVP
 40
0.0
  9
$DIMTIX
 70
     0
  9
$DIMSOXD
 70
     0
  9
$DIMSAH
 70
     0
  9
$DIMBLK1
  1

  9
$DIMBLK2
  1

  9
$DIMSTYLE
  2
AM_ISO
  9
$DIMCLRD
 70
   256
  9
$DIMCLRE
 70
   256
  9
$DIMCLRT
 70
     2
  9
$DIMTFAC
 40
0.71
  9
$DIMGAP
 40
1.5
  9
$LUNITS
 70
     2
  9
$LUPREC
 70
     2
  9
$SKETCHINC
 40
1.0
  9
$FILLETRAD
 40
2.0
  9
$AUNITS
 70
     0
  9
$AUPREC
 70
     0
  9
$MENU
  1
.
  9
$ELEVATION
 40
0.0
  9
$PELEVATION
 40
0.0
  9
$THICKNESS
 40
0.0
  9
$LIMCHECK
 70
     0
  9
$BLIPMODE
 70
     0
  9
$CHAMFERA
 40
12.5
  9
$CHAMFERB
 40
12.5
  9
$SKPOLY
 70
     0
  9
$TDCREATE
 40
2453509.7781942599
  9
$TDUPDATE
 40
2455077.5519144209
  9
$TDINDWG
 40
0.5806920139
  9
$TDUSRTIMER
 40
0.5806920139
  9
$USRTIMER
 70
     1
  9
$ANGBASE
 50
0.0
  9
$ANGDIR
 70
     0
  9
$PDMODE
 70
     0
  9
$PDSIZE
 40
0.0
  9
$PLINEWID
 40
0.0
  9
$COORDS
 70
     0
  9
$SPLFRAME
 70
     0
  9
$SPLINETYPE
 70
     6
  9
$SPLINESEGS
 70
     8
  9
$ATTDIA
 70
     1
  9
$ATTREQ
 70
     1
  9
$HANDLING
 70
     1
  9
$HANDSEED
  5
6893
  9
$SURFTAB1
 70
     6
  9
$SURFTAB2
 70
     6
  9
$SURFTYPE
 70
     6
  9
$SURFU
 70
     6
  9
$SURFV
 70
     6
  9
$UCSNAME
  2

  9
$UCSORG
 10
0.0
 20
0.0
 30
0.0
  9
$UCSXDIR
 10
1.0
 20
0.0
 30
0.0
  9
$UCSYDIR
 10
0.0
 20
1.0
 30
0.0
  9
$PUCSNAME
  2

  9
$PUCSORG
 10
0.0
 20
0.0
 30
0.0
  9
$PUCSXDIR
 10
1.0
 20
0.0
 30
0.0
  9
$PUCSYDIR
 10
0.0
 20
1.0
 30
0.0
  9
$USERI1
 70
     0
  9
$USERI2
 70
     0
  9
$USERI3
 70
     0
  9
$USERI4
 70
     0
  9
$USERI5
 70
     0
  9
$USERR1
 40
0.0
  9
$USERR2
 40
0.0
  9
$USERR3
 40
0.0
  9
$USERR4
 40
0.0
  9
$USERR5
 40
0.0
  9
$WORLDVIEW
 70
     1
  9
$SHADEDGE
 70
     3
  9
$SHADEDIF
 70
    70
  9
$TILEMODE
 70
     1
  9
$MAXACTVP
 70
    64
  9
$PLIMCHECK
 70
     0
  9
$PEXTMIN
 10
1.0000000000000000E+020
 20
1.0000000000000000E+020
 30
1.0000000000000000E+020
  9
$PEXTMAX
 10
-1.0000000000000000E+020
 20
-1.0000000000000000E+020
 30
-1.0000000000000000E+020
  9
$PLIMMIN
 10
-6.350006103515625
 20
-6.3499999046325684
  9
$PLIMMAX
 10
273.04998779296881
 20
209.54999399185181
  9
$UNITMODE
 70
     0
  9
$VISRETAIN
 70
     1
  9
$PLINEGEN
 70
     0
  9
$PSLTSCALE
 70
     1
  0
ENDSEC
  0
SECTION
  2
TABLES
  0
TABLE
  2
VPORT
 70
     3
  0
VPORT
  2
*ACTIVE
 70
     0
 10
0.0
 20
0.0
 11
1.0
 21
1.0
 12
1007.42315027225
 22
699.94660564821299
 13
0.0
 23
0.0
 14
12.5
 24
12.5
 15
50.0
 25
50.0
 16
0.0
 26
0.0
 36
1.0
 17
0.0
 27
0.0
 37
0.0
 40
1723.0115716505029
 41
1.1773142112125159
 42
50.0
 43
0.0
 44
0.0
 50
0.0
 51
0.0
 71
    16
 72
   100
 73
     1
 74
     3
 75
     0
 76
     0
 77
     0
 78
     0
  0
ENDTAB
  0
TABLE
  2
LTYPE
 70
    20
  0
LTYPE
  2
CONTINUOUS
 70
     0
  3
Solid line
 72
    65
 73
     0
 40
0.0
  0
LTYPE
  2
AM_ISO02W050
 70
     0
  3
__ __ __ __ __ __ __ __ __ __ __ __ __ __ __
 72
    65
 73
     2
 40
7.5
 49
6.0
 49
-1.5
  0
LTYPE
  2
AM_ISO08W050
 70
     0
  3
____ . ____ . ____ . ____ . ____ . ____ . ____
 72
    65
 73
     4
 40
18.0
 49
12.0
 49
-1.5
 49
3.0
 49
-1.5
  0
LTYPE
  2
AM_ISO09W050
 70
     0
  3
_____ . . _____ . . _____ . . ____ .. ____
 72
    65
 73
     6
 40
22.5
 49
12.0
 49
-1.5
 49
3.0
 49
-1.5
 49
3.0
 49
-1.5
  0
LTYPE
  2
AMCONSTR
 70
     0
  3
_______________________
 72
    65
 73
     2
 40
9999.0
 49
9999.0
 49
0.0
  0
LTYPE
  2
AM_ISO08W050X2
 70
     0
  3
__ . __ . __ . __ . __ . __
 72
    65
 73
     4
 40
9.0
 49
6.0
 49
-0.75
 49
1.5
 49
-0.75
  0
LTYPE
  2
AM_ISO02W050X2
 70
     0
  3
 _ _ _ _ _ _ _ _ _ _ _ _
 72
    65
 73
     2
 40
3.75
 49
3.0
 49
-0.75
  0
LTYPE
  2
AMZIGZAG
 70
     0
  3
/\/-/\/-/\/-/\/-/\/-/\/
 72
    65
 73
     2
 40
11.0001
 49
0.0001
 49
-11.0
  0
LTYPE
  2
ACISOWELD
 70
     0
  3
_ _ _ _ _
 72
    65
 73
     2
 40
2.0
 49
2.0
 49
-1.0
  0
LTYPE
  2
ACISOTGB
 70
     0
  3
__ . . __ . .
 72
    65
 73
     6
 40
9.0
 49
4.0
 49
-1.0
 49
1.0
 49
-1.0
 49
1.0
 49
-1.0
  0
LTYPE
  2
ACISOTGL
 70
     0
  3
_ _ _ _ _
 72
    65
 73
     2
 40
3.0
 49
2.0
 49
-1.0
  0
LTYPE
  2
CENTER
 70
     0
  3
__ . __
 72
    65
 73
     4
 40
7.0
 49
4.0
 49
-1.0
 49
1.0
 49
-1.0
  0
LTYPE
  2
HIDDEN
 70
     0
  3
Hidden __ __ __ __ __ __ __ __ __ __ __ __ __ _
 72
    65
 73
     2
 40
9.5249999999999986
 49
6.3499999999999988
 49
-3.1749999999999989
  0
LTYPE
  2
PHANTOM2
 70
     0
  3
Phantom (.5x) ___ _ _ ___ _ _ ___ _ _ ___ _ _
 72
    65
 73
     6
 40
31.75
 49
15.875
 49
-3.1749999999999989
 49
3.1749999999999989
 49
-3.1749999999999989
 49
3.1749999999999989
 49
-3.1749999999999989
  0
LTYPE
  2
GEN3
 70
     0
  3
-- -- -- -- -- -- -- -- -- -- -- -- -- -- --
 72
    65
 73
     2
 40
6.25
 49
4.75
 49
-1.5
  0
LTYPE
  2
GEN7
 70
     0
  3
____ . ____ . ____ . ____ . ____ . ____ . ____
 72
    65
 73
     4
 40
13.75
 49
9.75
 49
-1.5
 49
1.0
 49
-1.5
  0
LTYPE
  2
GEN3A
 70
     0
  3
 - - - - -
 72
    65
 73
     2
 40
3.125
 49
2.25
 49
-0.875
  0
LTYPE
  2
GEN7A
 70
     0
  3
__ . __ . __
 72
    65
 73
     4
 40
6.875
 49
4.75
 49
-0.875
 49
0.375
 49
-0.875
  0
LTYPE
  2
GEN4A
 70
     0
  3
_____ . . _____ . . _____ . . ____ .. ____
 72
    65
 73
     6
 40
16.25
 49
9.75
 49
-1.5
 49
1.0
 49
-1.5
 49
1.0
 49
-1.5
  0
LTYPE
  2
GENZIGZAG
 70
     0
  3
/\/-/\/-/\/-/\/-/\/-/\/
 72
    65
 73
     2
 40
12.0001
 49
0.0001
 49
-12.0
  0
ENDTAB
  0
TABLE
  2
LAYER
 70
    32
  0
LAYER
  2
0
 70
     0
 62
     7
  6
CONTINUOUS
  0
LAYER
  2
DEFPOINTS
 70
     0
 62
     7
  6
CONTINUOUS
  0
LAYER
  2
ﾛｯｸ金具0
 70
     0
 62
     4
  6
AM_ISO02W050X2
  0
LAYER
  2
7A
 70
     0
 62
     4
  6
GEN7A
  0
LAYER
  2
RAHM2
 70
     0
 62
     1
  6
CONTINUOUS
  0
LAYER
  2
左側板
 70
     0
 62
     2
  6
CONTINUOUS
  0
LAYER
  2
補強金具
 70
     0
 62
     3
  6
CONTINUOUS
  0
LAYER
  2
ﾃ_ﾌ_ﾙ
 70
     0
 62
     7
  6
CONTINUOUS
  0
LAYER
  2
右側板
 70
     0
 62
     5
  6
CONTINUOUS
  0
LAYER
  2
AM_5
 70
     0
 62
     3
  6
CONTINUOUS
  0
LAYER
  2
AM_12
 70
     0
 62
     7
  6
CONTINUOUS
  0
LAYER
  2
AM_PAREF
 70
     0
 62
     4
  6
CONTINUOUS
  0
LAYER
  2
AM_7
 70
     0
 62
     4
  6
AM_ISO08W050
  0
LAYER
  2
ﾃ_ﾌ_ﾙ0
 70
     0
 62
     7
  6
AM_ISO02W050
  0
LAYER
  2
保護スポンジ
 70
     0
 62
     6
  6
CONTINUOUS
  0
LAYER
  2
AM_8
 70
     0
 62
     1
  6
CONTINUOUS
  0
LAYER
  2
補強金具0
 70
     0
 62
     3
  6
AM_ISO02W050
  0
LAYER
  2
左側板0
 70
     0
 62
     2
  6
AM_ISO02W050
  0
LAYER
  2
右側板0
 70
     0
 62
     5
  6
AM_ISO02W050
  0
LAYER
  2
AM_CL
 70
     0
 62
     1
  6
AMCONSTR
  0
LAYER
  2
ボ_ルスライド
 70
     0
 62
     8
  6
CONTINUOUS
  0
LAYER
  2
ボ_ルスライド0
 70
     0
 62
     8
  6
AM_ISO02W050
  0
LAYER
  2
ﾋ_ｽ
 70
     0
 62
     8
  6
CONTINUOUS
  0
LAYER
  2
ﾋ_ｽ0
 70
     0
 62
     8
  6
AM_ISO02W050X2
  0
LAYER
  2
AM_0
 70
     0
 62
     7
  6
CONTINUOUS
  0
LAYER
  2
AM_0N
 70
     0
 62
     7
  6
CONTINUOUS
  0
LAYER
  2
AM_4
 70
     0
 62
     3
  6
CONTINUOUS
  0
LAYER
  2
AM_3
 70
     0
 62
     6
  6
AM_ISO02W050
  0
LAYER
  2
AM_6
 70
     0
 62
     2
  6
CONTINUOUS
  0
LAYER
  2
AM_9
 70
     0
 62
   253
  6
CONTINUOUS
  0
LAYER
  2
AM_7N
 70
     0
 62
     4
  6
AM_ISO08W050
  0
LAYER
  2
ロック金具
 70
     0
 62
     7
  6
CONTINUOUS
  0
ENDTAB
  0
TABLE
  2
STYLE
 70
     5
  0
STYLE
  2
STANDARD
 70
     0
 40
0.0
 41
1.0
 50
0.0
 71
     0
 42
73.985717453579113
  3
ISOCP.SHX
  4
bigfont.shx
  0
STYLE
  2

 70
     1
 40
0.0
 41
1.0
 50
0.0
 71
     0
 42
2.5
  3
ltypeshp.shx
  4

  0
STYLE
  2
ACISOTS
 70
     0
 40
1.0
 41
1.0
 50
0.0
 71
     0
 42
2.5
  3
isocp.shx
  4
extfont.shx
  0
STYLE
  2
ACISOGDT
 70
     0
 40
0.0
 41
1.0
 50
0.0
 71
     0
 42
2.5
  3
amgdt.shx
  4

  0
STYLE
  2

 70
     1
 40
0.0
 41
1.0
 50
0.0
 71
     0
 42
3.0
  3
genltshp.shx
  4

  0
ENDTAB
  0
TABLE
  2
VIEW
 70
     6
  0
VIEW
  2
AM_VIEW1
 70
     0
 40
855.92920353982311
 10
503.75
 20
972.03539823008873
 41
1007.5
 11
0.0
 21
0.0
 31
1.0
 12
0.0
 22
0.0
 32
0.0
 42
50.0
 43
0.0
 44
0.0
 50
0.0
 71
    16
  0
VIEW
  2
AM_VIEW2
 70
     0
 40
855.92920353982311
 10
1511.25
 20
972.03539823008873
 41
1007.5
 11
0.0
 21
0.0
 31
1.0
 12
0.0
 22
0.0
 32
0.0
 42
50.0
 43
0.0
 44
0.0
 50
0.0
 71
    16
  0
VIEW
  2
AM_VIEW3
 70
     0
 40
855.92920353982311
 10
503.75
 20
427.9646017699115
 41
1007.5
 11
0.0
 21
0.0
 31
1.0
 12
0.0
 22
0.0
 32
0.0
 42
50.0
 43
0.0
 44
0.0
 50
0.0
 71
    16
  0
VIEW
  2
AM_VIEW4
 70
     0
 40
855.92920353982311
 10
1511.25
 20
427.9646017699115
 41
1007.5
 11
0.0
 21
0.0
 31
1.0
 12
0.0
 22
0.0
 32
0.0
 42
50.0
 43
0.0
 44
0.0
 50
0.0
 71
    16
  0
VIEW
  2
AM_VIEW5
 70
     0
 40
855.92920353982322
 10
1007.5
 20
700.0
 41
1007.5
 11
0.0
 21
0.0
 31
1.0
 12
0.0
 22
0.0
 32
0.0
 42
50.0
 43
0.0
 44
0.0
 50
0.0
 71
    16
  0
VIEW
  2
AM_VIEW6
 70
     0
 40
1711.8412884955751
 10
1007.5
 20
700.00000000000023
 41
2014.9798499999999
 11
0.0
 21
0.0
 31
1.0
 12
0.0
 22
0.0
 32
0.0
 42
50.0
 43
0.0
 44
0.0
 50
0.0
 71
    16
  0
ENDTAB
  0
TABLE
  2
UCS
 70
     0
  0
ENDTAB
  0
TABLE
  2
APPID
 70
    50
  0
APPID
  2
ACAD
 70
     0
  0
APPID
  2
MCAD_NO_VIS
 70
     0
  0
APPID
  2
ACAD_TEMP_GRAPHIC
 70
     0
  0
APPID
  2
ACATTRIBSERVICES
 70
     0
  0
APPID
  2
AD_DRAW
 70
     0
  0
APPID
  2
DESIGNERASSEMBLIES
 70
     0
  0
APPID
  2
ACADM_DIM_EDIT
 70
     0
  0
APPID
  2
AMDT_DM_ADJ
 70
     0
  0
APPID
  2
GENIUS_GENREC_14
 70
     0
  0
APPID
  2
GENIUS_GENODEF_13
 70
     0
  0
APPID
  2
GENIUS_GENOBJ-N-REC_13
 70
     0
  0
APPID
  2
GENIUS_GENDIMSH_14
 70
     0
  0
APPID
  2
GENIUS_GENCFG_13
 70
     0
  0
APPID
  2
GENIUS_GENCFG0_13
 70
     0
  0
APPID
  2
GENIUS_GENCFG1_13
 70
     0
  0
APPID
  2
GENIUS_GENCFG2_13
 70
     0
  0
APPID
  2
GENIUS_GENCFG3_13
 70
     0
  0
APPID
  2
GENIUS_GENCFG4_13
 70
     0
  0
APPID
  2
GENIUS_GEVCFG0_13
 70
     0
  0
APPID
  2
GENIUS_GENOENT_13
 70
     0
  0
APPID
  2
GENIUS_GENOBJ-N-CRS_13
 70
     0
  0
APPID
  2
GENIUS_GENOREF_13
 70
     0
  0
APPID
  2
GENIUS_GENOLIS_13
 70
     0
  0
APPID
  2
GENIUS_GENOBJ-N-TIT_13
 70
     0
  0
APPID
  2
GENIUS_GENTITLE_13
 70
     0
  0
APPID
  2
GENIUS_GENSCREG_15
 70
     0
  0
APPID
  2
GENIUS_GENOBJ-N-SDF_13
 70
     0
  0
APPID
  2
GENIUS_GENOBJ-N-CEN_13
 70
     0
  0
APPID
  2
GENIUS_GENOBJ-N-HTC_13
 70
     0
  0
APPID
  2
GENIUS_GENHATCH_13
 70
     0
  0
APPID
  2
GENIUS_GENOBJ-N-ZOO_13
 70
     0
  0
APPID
  2
GENIUS_GENZOO_17
 70
     0
  0
APPID
  2
RAK
 70
     0
  0
APPID
  2
GENIUS_GENOBJ-N-FIL_13
 70
     0
  0
APPID
  2
GENIUS_GENCEN_19
 70
     0
  0
APPID
  2
ACAD_PSEXT
 70
     0
  0
APPID
  2
GENIUS_GENDTOL_13
 70
     0
  0
APPID
  2
ACAECLAYERSTANDARD
 70
     0
  0
APPID
  2
GEVID1250837798
 70
     0
  0
APPID
  2
GEVDC
 70
     0
  0
APPID
  2
GEVCON
 70
     0
  0
APPID
  2
GENIUS_GENOBJ-F-SCPASSM_13
 70
     0
  0
APPID
  2
AMG_2DHIDE
 70
     0
  0
APPID
  2
AMG_2DSTRUCT_BTR
 70
     0
  0
APPID
  2
ACADM_2DVIEW_IGN_NOTIFY
 70
     0
  0
APPID
  2
GEVID1250837800
 70
     0
  0
APPID
  2
GEVID1250837801
 70
     0
  0
APPID
  2
GEVID1250837802
 70
     0
  0
APPID
  2
GENIUS_GENSCREG_13
 70
     0
  0
APPID
  2
CONTENTBLOCKICON
 70
     0
  0
ENDTAB
  0
TABLE
  2
DIMSTYLE
 70
    24
  0
DIMSTYLE
  2
AM_ISO
 70
     0
  3

  4
"
  5
OPEN30
  6

  7

 40
1.0
 41
2.5
 42
1.0
 43
10.0
 44
1.0
 45
0.0
 46
0.0
 47
0.1
 48
0.1
140
3.5
141
0.0
142
0.0
143
0.0393701
144
1.0
145
0.0
146
0.71
147
1.5
 71
     0
 72
     0
 73
     0
 74
     0
 75
     0
 76
     0
 77
     1
 78
     8
170
     0
171
     2
172
     1
173
     0
174
     0
175
     0
176
   256
177
   256
178
     2
  0
DIMSTYLE
  2
AM_ISO$3
 70
     0
  3

  4
"
  5
OPEN30
  6

  7

 40
1.0
 41
2.5
 42
1.0
 43
10.0
 44
1.0
 45
0.0
 46
0.0
 47
0.1
 48
0.1
140
3.5
141
0.0
142
0.0
143
0.0393701
144
1.0
145
0.0
146
0.71
147
1.5
 71
     0
 72
     0
 73
     0
 74
     1
 75
     0
 76
     0
 77
     1
 78
     8
170
     0
171
     2
172
     0
173
     0
174
     0
175
     0
176
   256
177
   256
178
     2
  0
DIMSTYLE
  2
AM_ISO$4
 70
     0
  3

  4
"
  5
OPEN30
  6

  7

 40
1.0
 41
2.5
 42
1.0
 43
10.0
 44
1.0
 45
0.0
 46
0.0
 47
0.1
 48
0.1
140
3.5
141
0.0
142
0.0
143
0.0393701
144
1.0
145
0.0
146
0.71
147
1.5
 71
     0
 72
     0
 73
     0
 74
     1
 75
     0
 76
     0
 77
     1
 78
     8
170
     0
171
     2
172
     0
173
     0
174
     0
175
     0
176
   256
177
   256
178
     2
  0
DIMSTYLE
  2
AM_ISO$6
 70
     0
  3

  4
"
  5
OPEN30
  6

  7

 40
1.0
 41
2.5
 42
1.0
 43
10.0
 44
1.0
 45
0.0
 46
0.0
 47
0.1
 48
0.1
140
3.5
141
0.0
142
0.0
143
0.0393701
144
1.0
145
0.0
146
0.71
147
1.5
 71
     0
 72
     0
 73
     0
 74
     0
 75
     0
 76
     0
 77
     0
 78
     8
170
     0
171
     2
172
     1
173
     0
174
     0
175
     0
176
   256
177
   256
178
     2
  0
DIMSTYLE
  2
AM_ISO$7
 70
     0
  3

  4
"
  5
OPEN30
  6

  7

 40
1.0
 41
2.5
 42
1.0
 43
10.0
 44
1.0
 45
0.0
 46
0.0
 47
0.1
 48
0.1
140
5.0
141
0.0
142
0.0
143
0.0393701
144
1.0
145
0.0
146
0.71
147
1.5
 71
     0
 72
     0
 73
     0
 74
     0
 75
     0
 76
     0
 77
     1
 78
     8
170
     0
171
     2
172
     1
173
     0
174
     0
175
     0
176
   256
177
   256
178
     2
  0
DIMSTYLE
  2
AM_ISO$SF
 70
     0
  3

  4
"
  5
OPEN30
  6

  7

 40
1.0
 41
2.5
 42
1.0
 43
10.0
 44
1.0
 45
0.0
 46
0.0
 47
0.1
 48
0.1
140
3.5
141
0.0
142
0.0
143
0.0393701
144
1.0
145
0.0
146
0.71
147
1.5
 71
     0
 72
     0
 73
     0
 74
     0
 75
     1
 76
     1
 77
     1
 78
     8
170
     0
171
     2
172
     1
173
     0
174
     0
175
     0
176
   256
177
   256
178
     2
  0
DIMSTYLE
  2
AM_ISO$SH
 70
     0
  3

  4
"
  5

  6
GENAXEH
  7
OPEN30
 40
1.0
 41
2.5
 42
1.0
 43
10.0
 44
1.0
 45
0.0
 46
0.0
 47
0.1
 48
0.1
140
3.5
141
0.0
142
0.0
143
0.0393701
144
2.0
145
0.0
146
0.71
147
1.5
 71
     0
 72
     0
 73
     0
 74
     0
 75
     1
 76
     1
 77
     1
 78
     8
170
     0
171
     2
172
     1
173
     1
174
     0
175
     0
176
   256
177
   256
178
     2
  0
DIMSTYLE
  2
GEN-ISO
 70
     0
  3

  4
"
  5

  6

  7

 40
1.0
 41
2.5
 42
1.0
 43
10.0
 44
1.0
 45
0.0
 46
0.0
 47
0.1
 48
0.1
140
3.5
141
0.0
142
0.0
143
0.0393701
144
1.0
145
0.0
146
0.71
147
1.5
 71
     0
 72
     0
 73
     0
 74
     0
 75
     0
 76
     0
 77
     1
 78
     8
170
     0
171
     2
172
     1
173
     0
174
     0
175
     0
176
   256
177
   256
178
     2
  0
DIMSTYLE
  2
GEN-ISO$3
 70
     0
  3

  4
"
  5

  6

  7

 40
1.0
 41
2.5
 42
1.0
 43
10.0
 44
1.0
 45
0.0
 46
0.0
 47
0.1
 48
0.1
140
3.5
141
0.0
142
0.0
143
0.0393701
144
1.0
145
0.0
146
0.71
147
1.5
 71
     0
 72
     0
 73
     0
 74
     1
 75
     0
 76
     0
 77
     1
 78
     8
170
     0
171
     2
172
     0
173
     0
174
     0
175
     0
176
   256
177
   256
178
     2
  0
DIMSTYLE
  2
GEN-ISO$4
 70
     0
  3

  4
"
  5

  6

  7

 40
1.0
 41
2.5
 42
1.0
 43
10.0
 44
1.0
 45
0.0
 46
0.0
 47
0.1
 48
0.1
140
3.5
141
0.0
142
0.0
143
0.0393701
144
1.0
145
0.0
146
0.71
147
1.5
 71
     0
 72
     0
 73
     0
 74
     1
 75
     0
 76
     0
 77
     1
 78
     8
170
     0
171
     2
172
     0
173
     0
174
     0
175
     0
176
   256
177
   256
178
     2
  0
DIMSTYLE
  2
GEN-ISO$6
 70
     0
  3

  4
"
  5

  6

  7

 40
1.0
 41
2.5
 42
1.0
 43
10.0
 44
1.0
 45
0.0
 46
0.0
 47
0.1
 48
0.1
140
3.5
141
0.0
142
0.0
143
0.0393701
144
1.0
145
0.0
146
0.71
147
1.5
 71
     0
 72
     0
 73
     0
 74
     0
 75
     0
 76
     0
 77
     0
 78
     8
170
     0
171
     2
172
     0
173
     0
174
     0
175
     0
176
   256
177
   256
178
     2
  0
DIMSTYLE
  2
GEN-ISO-POS
 70
     0
  3

  4
"
  5

  6

  7

 40
1.0
 41
2.5
 42
1.0
 43
10.0
 44
1.0
 45
0.0
 46
0.0
 47
0.1
 48
0.1
140
5.0
141
0.0
142
0.0
143
0.0393701
144
1.0
145
0.0
146
0.71
147
1.5
 71
     0
 72
     0
 73
     0
 74
     0
 75
     0
 76
     0
 77
     0
 78
     8
170
     0
171
     2
172
     0
173
     0
174
     0
175
     0
176
   256
177
   256
178
     2
  0
DIMSTYLE
  2
GEN-ISO-AXE-F
 70
     0
  3

  4
"
  5

  6

  7

 40
1.0
 41
2.5
 42
1.0
 43
10.0
 44
1.0
 45
0.0
 46
0.0
 47
0.1
 48
0.1
140
3.5
141
0.0
142
0.0
143
0.0393701
144
1.0
145
0.0
146
0.71
147
1.5
 71
     0
 72
     0
 73
     0
 74
     0
 75
     1
 76
     1
 77
     1
 78
     8
170
     0
171
     2
172
     1
173
     0
174
     0
175
     0
176
   256
177
   256
178
     2
  0
DIMSTYLE
  2
GEN-ISO-AXE-H
 70
     0
  3

  4
"
  5

  6

  7

 40
1.0
 41
2.5
 42
1.0
 43
10.0
 44
1.0
 45
0.0
 46
0.0
 47
0.1
 48
0.1
140
3.5
141
0.0
142
0.0
143
0.0393701
144
2.0
145
0.0
146
0.71
147
1.5
 71
     0
 72
     0
 73
     0
 74
     0
 75
     1
 76
     1
 77
     1
 78
     8
170
     0
171
     2
172
     1
173
     1
174
     0
175
     0
176
   256
177
   256
178
     2
  0
DIMSTYLE
  2
ISO-25
 70
     0
  3

  4

  5

  6

  7

 40
1.0
 41
2.5
 42
0.625
 43
3.75
 44
1.25
 45
0.0
 46
0.0
 47
0.0
 48
0.0
140
2.5
141
2.5
142
0.0
143
0.03937007874016
144
1.0
145
0.0
146
1.0
147
0.625
 71
     0
 72
     0
 73
     0
 74
     0
 75
     0
 76
     0
 77
     1
 78
     8
170
     0
171
     3
172
     1
173
     0
174
     0
175
     0
176
     0
177
     0
178
     0
  0
DIMSTYLE
  2
AM_JIS
 70
     0
  3

  4
"
  5
OPEN30
  6

  7

 40
1.0
 41
2.5
 42
1.0
 43
10.0
 44
1.0
 45
0.0
 46
0.0
 47
0.1
 48
0.1
140
3.5
141
0.0
142
0.0
143
0.0393701
144
1.0
145
0.0
146
0.71
147
1.5
 71
     0
 72
     0
 73
     0
 74
     0
 75
     0
 76
     0
 77
     3
 78
     8
170
     0
171
     2
172
     1
173
     0
174
     0
175
     0
176
   256
177
   256
178
     2
  0
DIMSTYLE
  2
AM_ANSI
 70
     0
  3

  4
mm
  5

  6

  7

 40
1.0
 41
0.1
 42
0.05
 43
0.5
 44
0.1
 45
0.0
 46
0.0
 47
0.1
 48
0.1
140
0.12
141
0.0
142
0.0
143
25.399999999999999
144
1.0
145
0.0
146
0.71
147
0.06
 71
     0
 72
     0
 73
     1
 74
     1
 75
     0
 76
     0
 77
     0
 78
     7
170
     0
171
     2
172
     0
173
     0
174
     0
175
     0
176
   256
177
   256
178
     2
  0
DIMSTYLE
  2
AM_ISO$0
 70
     0
  3

  4
"
  5
OPEN30
  6

  7

 40
1.0
 41
2.5
 42
1.0
 43
10.0
 44
1.0
 45
0.0
 46
0.0
 47
0.1
 48
0.1
140
3.5
141
0.0
142
0.0
143
0.0393701
144
1.0
145
0.0
146
0.71
147
1.5
 71
     0
 72
     0
 73
     0
 74
     0
 75
     0
 76
     0
 77
     1
 78
     8
170
     0
171
     2
172
     1
173
     0
174
     0
175
     0
176
   256
177
   256
178
     2
  0
DIMSTYLE
  2
AM_JIS$3
 70
     0
  3

  4
"
  5
OPEN30
  6
OPEN30
  7
OPEN30
 40
1.0
 41
2.5
 42
1.0
 43
10.0
 44
1.0
 45
0.0
 46
0.0
 47
0.1
 48
0.1
140
3.5
141
0.0
142
0.0
143
0.0393701
144
1.0
145
0.0
146
0.71
147
1.5
 71
     0
 72
     0
 73
     0
 74
     1
 75
     0
 76
     0
 77
     3
 78
     8
170
     0
171
     2
172
     0
173
     0
174
     0
175
     0
176
   256
177
   256
178
     2
  0
DIMSTYLE
  2
AM_JIS$4
 70
     0
  3

  4
"
  5
OPEN30
  6
OPEN30
  7
OPEN30
 40
1.0
 41
2.5
 42
1.0
 43
10.0
 44
1.0
 45
0.0
 46
0.0
 47
0.1
 48
0.1
140
3.5
141
0.0
142
0.0
143
0.0393701
144
1.0
145
0.0
146
0.71
147
1.5
 71
     0
 72
     0
 73
     0
 74
     1
 75
     0
 76
     0
 77
     3
 78
     8
170
     0
171
     2
172
     0
173
     0
174
     0
175
     0
176
   256
177
   256
178
     2
  0
DIMSTYLE
  2
AM_JIS$6
 70
     0
  3

  4
"
  5
OPEN30
  6
OPEN30
  7
OPEN30
 40
1.0
 41
2.5
 42
1.0
 43
10.0
 44
1.0
 45
0.0
 46
0.0
 47
0.1
 48
0.1
140
3.5
141
0.0
142
0.0
143
0.0393701
144
1.0
145
0.0
146
0.71
147
1.5
 71
     0
 72
     0
 73
     0
 74
     0
 75
     0
 76
     0
 77
     0
 78
     8
170
     0
171
     2
172
     1
173
     0
174
     0
175
     0
176
   256
177
   256
178
     2
  0
DIMSTYLE
  2
AM_JIS$7
 70
     0
  3

  4
"
  5
OPEN30
  6
OPEN30
  7
OPEN30
 40
1.0
 41
2.5
 42
1.0
 43
10.0
 44
1.0
 45
0.0
 46
0.0
 47
0.1
 48
0.1
140
5.0
141
0.0
142
0.0
143
0.0393701
144
1.0
145
0.0
146
0.71
147
1.5
 71
     0
 72
     0
 73
     0
 74
     0
 75
     0
 76
     0
 77
     3
 78
     8
170
     0
171
     2
172
     1
173
     0
174
     0
175
     0
176
   256
177
   256
178
     2
  0
DIMSTYLE
  2
AM_JIS$SF
 70
     0
  3

  4
"
  5
OPEN30
  6
OPEN30
  7
OPEN30
 40
1.0
 41
2.5
 42
1.0
 43
10.0
 44
1.0
 45
0.0
 46
0.0
 47
0.1
 48
0.1
140
3.5
141
0.0
142
0.0
143
0.0393701
144
1.0
145
0.0
146
0.71
147
1.5
 71
     0
 72
     0
 73
     0
 74
     0
 75
     1
 76
     1
 77
     3
 78
     8
170
     0
171
     2
172
     1
173
     0
174
     0
175
     0
176
   256
177
   256
178
     2
  0
DIMSTYLE
  2
AM_JIS$SH
 70
     0
  3

  4
"
  5
OPEN30
  6
GENAXEH
  7
OPEN30
 40
1.0
 41
2.5
 42
1.0
 43
10.0
 44
1.0
 45
0.0
 46
0.0
 47
0.1
 48
0.1
140
3.5
141
0.0
142
0.0
143
0.0393701
144
2.0
145
0.0
146
0.71
147
1.5
 71
     0
 72
     0
 73
     0
 74
     0
 75
     1
 76
     1
 77
     3
 78
     8
170
     0
171
     2
172
     1
173
     1
174
     0
175
     0
176
   256
177
   256
178
     2
  0
ENDTAB
  0
ENDSEC
  0
SECTION
  2
BLOCKS
  0
BLOCK
  8
0
  2
$MODEL_SPACE
 70
     0
 10
0.0
 20
0.0
 30
0.0
  3
$MODEL_SPACE
  1

  0
ENDBLK
  5
21
  8
0
  0
BLOCK
 67
     1
  8
0
  2
$PAPER_SPACE
 70
     0
 10
0.0
 20
0.0
 30
0.0
  3
$PAPER_SPACE
  1

  0
ENDBLK
  5
25
 67
     1
  8
0
  0
BLOCK
  8
0
  2
GENAXEH
 70
     0
 10
0.0
 20
0.0
 30
0.0
  3
GENAXEH
  1

  0
LINE
  5
88
  8
0
 10
-1.0
 20
0.0
 30
0.0
 11
1.0
 21
0.0
 31
0.0
  0
ENDBLK
  5
8A
  8
0
  0
BLOCK
  8
0
  2
_OPEN30
 70
     0
 10
0.0
 20
0.0
 30
0.0
  3
_OPEN30
  1

  0
LINE
  5
408
  8
0
  6
BYBLOCK
 62
     0
 10
-1.0
 20
0.26794919
 30
0.0
 11
0.0
 21
0.0
 31
0.0
  0
LINE
  5
409
  8
0
  6
BYBLOCK
 62
     0
 10
0.0
 20
0.0
 30
0.0
 11
-1.0
 21
-0.26794919
 31
0.0
  0
LINE
  5
40A
  8
0
  6
BYBLOCK
 62
     0
 10
0.0
 20
0.0
 30
0.0
 11
-1.0
 21
0.0
 31
0.0
  0
ENDBLK
  5
40C
  8
0
  0
BLOCK
  8
0
  2
TAKACHI-A3
 70
     0
 10
0.0
 20
0.0
 30
0.0
  3
TAKACHI-A3
  1

  0
POLYLINE
  5
5B4
  8
0
 66
     1
 10
0.0
 20
0.0
 30
0.0
 70
     1
1001
GENIUS_GENREC_14
1002
{
1000
PYDIR
1011
10.000000000000011
1021
0.0
1031
0.0
1021
280.0
1031
0.0
1002
}
1002
{
1000
PXDIR
1011
410.0
1021
0.0
1031
0.0
1021
0.0
1031
0.0
1002
}
1002
{
1000
PORI
1011
10.0
1021
0.0
1031
0.0
1021
0.0
1031
0.0
1002
}
1002
{
1000
PINS
1011
210.0
1021
0.0
1031
0.0
1021
139.99999999999989
1031
0.0
1002
}
1002
{
1000
HVAL
1000
280
1002
}
1002
{
1000
H
1070
     2
1002
}
1002
{
1000
WVAL
1000
400
1002
}
1002
{
1000
W
1070
     2
1002
}
1002
{
1000
C
1070
     4
1002
}
1001
GENIUS_GENODEF_13
1002
{
1000
HIER
1070
     0
1002
}
1002
{
1000
MANEDIT
1070
     0
1002
}
1002
{
1000
NOSEL
1070
     0
1002
}
1002
{
1000
BEHIND
1070
     0
1002
}
1002
{
1000
REACTOR
1002
}
1001
GENIUS_GENOBJ-N-REC_13
1002
{
1000
OWNER
1000
GEN
1002
}
  0
VERTEX
  5
64CA
  8
0
 10
10.0
 20
0.0
 30
0.0
  0
VERTEX
  5
64CB
  8
0
 10
410.0
 20
0.0
 30
0.0
  0
VERTEX
  5
64CC
  8
0
 10
410.0
 20
280.0
 30
0.0
  0
VERTEX
  5
64CD
  8
0
 10
10.00000000000003
 20
280.0
 30
0.0
  0
SEQEND
  5
64CE
  8
0
  0
TEXT
  5
5B5
  8
0
 10
15.00000000000003
 20
50.0
 30
0.0
 40
2.5
  1
!GENTITLE-LL
  0
TEXT
  5
5B6
  8
0
 10
410.0
 20
0.0
 30
0.0
 40
2.5
  1
!GENTITLE-INSERT
  0
TEXT
  5
5B7
  8
0
 10
405.0
 20
275.0
 30
0.0
 40
2.5
  1
!GENTITLE-RU
  0
TEXT
  5
5B8
  8
0
 10
410.0
 20
280.0
 30
0.0
 40
2.5
  1
!GENTITLE-MAX
  0
LINE
  5
5B9
  8
0
 10
366.0
 20
275.0
 30
0.0
 11
410.0
 21
275.0
 31
0.0
  0
INSERT
  5
5BA
  8
ﾃ_ﾌ_ﾙ
  2
*U79
 10
0.0
 20
0.0
 30
0.0
  0
LINE
  5
5BB
  8
0
 10
366.0
 20
280.0
 30
0.0
 11
366.0
 21
275.0
 31
0.0
  0
ENDBLK
  5
5BE
  8
0
  0
BLOCK
  8
0
  2
TAKACHI-TITLE
 70
     2
 10
0.0
 20
0.0
 30
0.0
  3
TAKACHI-TITLE
  1

  0
LINE
  5
5D6
  8
RAHM2
 10
-195.0
 20
30.000000000000028
 30
0.0
 11
-94.0
 21
30.000000000000028
 31
0.0
  0
LINE
  5
5D7
  8
RAHM2
 10
-195.0
 20
35.000000000000028
 30
0.0
 11
-94.0
 21
35.000000000000028
 31
0.0
  0
LINE
  5
5D8
  8
RAHM2
 10
-195.0
 20
40.000000000000021
 30
0.0
 11
-94.0
 21
40.000000000000021
 31
0.0
  0
LINE
  5
5D9
  8
RAHM2
 10
-195.0
 20
45.000000000000021
 30
0.0
 11
-94.0
 21
45.000000000000021
 31
0.0
  0
LINE
  5
5DA
  8
0
 10
-195.0
 20
7.0
 30
0.0
 11
-94.0
 21
7.0
 31
0.0
  0
LINE
  5
5DB
  8
0
 10
-195.0
 20
19.999999999999972
 30
0.0
 11
-94.0
 21
19.999999999999972
 31
0.0
  0
ATTDEF
  5
5DC
  8
0
 10
-183.24385271456069
 20
8.9508505244280823
 30
0.0
 40
2.5
  1

 11
-183.24385271456069
 21
8.6175171910947483
 31
0.0
  3
サブタイトル
  2
GEN-TITLE-DES2
 70
     0
 74
     1
  0
ATTDEF
  5
5DD
  8
0
 10
-183.24385271456069
 20
2.0175171910947478
 30
0.0
 40
3.0
  1

 11
-183.24385271456069
 21
1.6175171910947479
 31
0.0
  3
図番
  2
GEN-TITLE-NR
 70
     0
 74
     1
  0
INSERT
  5
5DE
  8
ﾃ_ﾌ_ﾙ
  2
*U80
 10
0.0
 20
0.0
 30
0.0
  0
ATTDEF
  5
5DF
  8
0
 10
-183.24385271456069
 20
14.40728619501834
 30
0.0
 40
4.0
  1

 11
-183.24385271456069
 21
13.873952861685011
 31
0.0
  3
品名
  2
GEN-TITLE-DES1
 70
     0
 74
     1
  0
LINE
  5
5E0
  8
RAHM2
 10
-187.57512886940361
 20
30.400000000000041
 30
0.0
 11
-190.0
 21
34.60000000000003
 31
0.0
  0
LINE
  5
5E1
  8
RAHM2
 10
-190.0
 20
34.60000000000003
 30
0.0
 11
-192.42487113059639
 21
30.400000000000041
 31
0.0
  0
LINE
  5
5E2
  8
RAHM2
 10
-185.0
 20
50.000000000000028
 30
0.0
 11
-185.0
 21
19.99999999999994
 31
0.0
  0
LINE
  5
5E3
  8
RAHM2
 10
-192.42487113059639
 20
30.400000000000041
 30
0.0
 11
-187.57512886940361
 21
30.400000000000041
 31
0.0
  0
INSERT
  5
5E4
  8
ﾃ_ﾌ_ﾙ
  2
*U81
 10
0.0
 20
0.0
 30
0.0
  0
INSERT
  5
5E5
  8
ﾃ_ﾌ_ﾙ
  2
*U82
 10
0.0
 20
0.0
 30
0.0
  0
LINE
  5
5E6
  8
RAHM2
 10
-192.42487113059639
 20
45.400000000000027
 30
0.0
 11
-187.57512886940361
 21
45.400000000000027
 31
0.0
  0
LINE
  5
5E7
  8
RAHM2
 10
-187.57512886940361
 20
45.400000000000027
 30
0.0
 11
-190.0
 21
49.600000000000023
 31
0.0
  0
LINE
  5
5E8
  8
RAHM2
 10
-192.42487113059639
 20
40.400000000000027
 30
0.0
 11
-187.57512886940361
 21
40.400000000000027
 31
0.0
  0
LINE
  5
5E9
  8
RAHM2
 10
-187.57512886940361
 20
40.400000000000027
 30
0.0
 11
-190.0
 21
44.600000000000023
 31
0.0
  0
LINE
  5
5EA
  8
RAHM2
 10
-192.42487113059639
 20
35.400000000000041
 30
0.0
 11
-187.57512886940361
 21
35.400000000000041
 31
0.0
  0
LINE
  5
5EB
  8
RAHM2
 10
-187.57512886940361
 20
35.400000000000041
 30
0.0
 11
-190.0
 21
39.600000000000023
 31
0.0
  0
LINE
  5
5EC
  8
RAHM2
 10
-190.0
 20
39.600000000000023
 30
0.0
 11
-192.42487113059639
 21
35.400000000000041
 31
0.0
  0
LINE
  5
5ED
  8
RAHM2
 10
-190.0
 20
44.600000000000023
 30
0.0
 11
-192.42487113059639
 21
40.400000000000027
 31
0.0
  0
LINE
  5
5EE
  8
RAHM2
 10
-190.0
 20
49.600000000000023
 30
0.0
 11
-192.42487113059639
 21
45.400000000000027
 31
0.0
  0
LINE
  5
5EF
  8
RAHM2
 10
-129.0
 20
50.000000000000028
 30
0.0
 11
-129.0
 21
19.99999999999994
 31
0.0
  0
INSERT
  5
5F0
  8
ﾃ_ﾌ_ﾙ
  2
*U83
 10
0.0
 20
0.0
 30
0.0
  0
LINE
  5
5F1
  8
0
 10
-34.0
 20
50.0
 30
0.0
 11
-34.0
 21
0.0
 31
0.0
  0
LINE
  5
5F2
  8
0
 10
-94.0
 20
50.0
 30
0.0
 11
-94.0
 21
0.0
 31
0.0
  0
INSERT
  5
5F3
  8
ﾃ_ﾌ_ﾙ
  2
*U84
 10
0.0
 20
0.0
 30
0.0
  0
LINE
  5
5F4
  8
0
 10
-94.0
 20
10.0
 30
0.0
 11
-34.0
 21
10.0
 31
0.0
  0
ATTDEF
  5
5F5
  8
0
 10
-58.014051197997453
 20
39.255005561783491
 30
0.0
 40
3.0
  1

 72
     2
 11
-58.014051197997453
 21
39.255005561783491
 31
0.0
  3
尺度
  2
GEN-TITLE-SCA
 70
     0
  0
ATTDEF
  5
5F6
  8
0
 10
-77.002849666490064
 20
31.02180787943475
 30
0.0
 40
3.0
  1

 11
-77.002849666490064
 21
30.621807879434751
 31
0.0
  3
材質
  2
GEN-TITLE-MAT1
 70
     0
 74
     1
  0
ATTDEF
  5
5F7
  8
0
 10
-77.002849666490064
 20
21.02180787943475
 30
0.0
 40
3.0
  1

 11
-77.002849666490064
 21
20.621807879434751
 31
0.0
  3
表面処理
  2
GEN-TITLE-MAT2
 70
     0
 74
     1
  0
ATTDEF
  5
5F8
  8
0
 10
-77.002849666490064
 20
12.01751719109475
 30
0.0
 40
3.0
  1

 11
-77.002849666490064
 21
11.61751719109475
 31
0.0
  3
日付
  2
GEN-TITLE-DAT
 70
     0
 74
     1
  0
LINE
  5
5F9
  8
0
 10
-94.0
 20
37.5
 30
0.0
 11
-34.0
 21
37.5
 31
0.0
  0
LINE
  5
5FA
  8
0
 10
-94.0
 20
27.5
 30
0.0
 11
-34.0
 21
27.5
 31
0.0
  0
LINE
  5
5FB
  8
0
 10
-94.0
 20
17.5
 30
0.0
 11
-34.0
 21
17.5
 31
0.0
  0
LINE
  5
5FC
  8
RAHM2
 10
-109.0
 20
50.000000000000028
 30
0.0
 11
-109.0
 21
19.99999999999994
 31
0.0
  0
INSERT
  5
5FD
  8
ﾃ_ﾌ_ﾙ
  2
*U85
 10
0.0
 20
0.0
 30
0.0
  0
INSERT
  5
5FE
  8
ﾃ_ﾌ_ﾙ
  2
*U86
 10
0.0
 20
0.0
 30
0.0
  0
INSERT
  5
5FF
  8
ﾃ_ﾌ_ﾙ
  2
*U87
 10
0.0
 20
0.0
 30
0.0
  0
INSERT
  5
600
  8
ﾃ_ﾌ_ﾙ
  2
*U88
 10
0.0
 20
0.0
 30
0.0
  0
INSERT
  5
601
  8
ﾃ_ﾌ_ﾙ
  2
*U89
 10
0.0
 20
0.0
 30
0.0
  0
INSERT
  5
602
  8
ﾃ_ﾌ_ﾙ
  2
*U90
 10
0.0
 20
0.0
 30
0.0
  0
INSERT
  5
603
  8
ﾃ_ﾌ_ﾙ
  2
*U91
 10
0.0
 20
0.0
 30
0.0
  0
INSERT
  5
604
  8
ﾃ_ﾌ_ﾙ
  2
*U92
 10
0.0
 20
0.0
 30
0.0
  0
LINE
  5
605
  8
7A
 10
-89.0
 20
43.75
 30
0.0
 11
-75.218691599714703
 21
43.75
 31
0.0
1001
GENIUS_GENOREF_13
1005
618
  0
LINE
  5
606
  8
0
 10
-84.0
 20
45.75
 30
0.0
 11
-76.0
 21
46.749999999999993
 31
0.0
  0
LINE
  5
607
  8
0
 10
-76.0
 20
40.75
 30
0.0
 11
-84.0
 21
41.749999999999993
 31
0.0
  0
LINE
  5
608
  8
7A
 10
-89.0
 20
43.75
 30
0.0
 11
-89.0
 21
47.324786644731482
 31
0.0
1001
GENIUS_GENOREF_13
1005
618
  0
CIRCLE
  5
609
  8
0
 10
-89.0
 20
43.75
 30
0.0
 40
2.0
  0
CIRCLE
  5
60A
  8
0
 10
-89.0
 20
43.75
 30
0.0
 40
3.0
  0
LINE
  5
60B
  8
0
 10
-84.0
 20
41.749999999999993
 30
0.0
 11
-84.0
 21
45.75
 31
0.0
  0
INSERT
  5
60C
  8
ﾃ_ﾌ_ﾙ
  2
*U93
 10
0.0
 20
0.0
 30
0.0
  0
LINE
  5
60D
  8
7A
 10
-89.0
 20
43.75
 30
0.0
 11
-92.723037371251166
 21
43.75
 31
0.0
1001
GENIUS_GENOREF_13
1005
618
  0
LINE
  5
60E
  8
7A
 10
-89.0
 20
43.75
 30
0.0
 11
-89.0
 21
40.039917242284787
 31
0.0
1001
GENIUS_GENOREF_13
1005
618
  0
LINE
  5
60F
  8
0
 10
-76.0
 20
46.749999999999993
 30
0.0
 11
-76.0
 21
40.75
 31
0.0
  0
LINE
  5
610
  8
0
 10
-74.0
 20
50.0
 30
0.0
 11
-74.0
 21
37.5
 31
0.0
  0
INSERT
  5
611
  8
ﾃ_ﾌ_ﾙ
  2
*U94
 10
0.0
 20
0.0
 30
0.0
  0
ATTDEF
  5
612
  8
0
 10
-37.76317379391503
 20
39.255005561783491
 30
0.0
 40
3.0
  1

 72
     2
 11
-37.76317379391503
 21
39.255005561783491
 31
0.0
  3
数量
  2
GEN-TITLE-QTY
 70
     0
  0
LINE
  5
613
  8
0
 10
-34.0
 20
25.0
 30
0.0
 11
0.0
 21
25.0
 31
0.0
  0
LINE
  5
614
  8
0
 10
-54.0
 20
50.0
 30
0.0
 11
-54.0
 21
37.5
 31
0.0
  0
INSERT
  5
615
  8
ﾃ_ﾌ_ﾙ
  2
*U95
 10
0.0
 20
0.0
 30
0.0
  0
INSERT
  5
616
  8
ﾃ_ﾌ_ﾙ
  2
*U96
 10
0.0
 20
0.0
 30
0.0
  0
INSERT
  5
617
  8
ﾃ_ﾌ_ﾙ
  2
*U97
 10
0.0
 20
0.0
 30
0.0
  0
POINT
  5
618
  8
0
 10
-320.5355579819676
 20
-138.11048412682541
 30
0.0
1001
GENIUS_GENODEF_13
1002
{
1000
HIER
1070
    10
1002
}
1002
{
1000
MANEDIT
1070
     0
1002
}
1002
{
1000
NOSEL
1070
     0
1002
}
1002
{
1000
BEHIND
1070
     0
1002
}
1002
{
1000
REACTOR
1002
}
1001
GENIUS_GENOBJ-N-CRS_13
1002
{
1000
OWNER
1000
GEN
1002
}
1001
GENIUS_GENOENT_13
1002
{
1000
MYREF
1005
618
1002
}
1002
{
1000
GRP
1005
0
1002
}
1001
GENIUS_GENOLIS_13
1002
{
1000
ENT
1005
60E
1005
60D
1005
608
1005
605
1002
}
  0
LINE
  5
619
  8
RAHM2
 10
-190.0
 20
29.600000000000019
 30
0.0
 11
-192.42487113059639
 21
25.400000000000041
 31
0.0
  0
LINE
  5
61A
  8
RAHM2
 10
-187.57512886940361
 20
25.400000000000041
 30
0.0
 11
-190.0
 21
29.600000000000019
 31
0.0
  0
LINE
  5
61B
  8
RAHM2
 10
-192.42487113059639
 20
25.400000000000041
 30
0.0
 11
-187.57512886940361
 21
25.400000000000041
 31
0.0
  0
LINE
  5
61C
  8
RAHM2
 10
-195.0
 20
25.000000000000028
 30
0.0
 11
-94.0
 21
25.000000000000028
 31
0.0
  0
INSERT
  5
61D
  8
ﾃ_ﾌ_ﾙ
  2
*U98
 10
0.0
 20
0.0
 30
0.0
  0
TEXT
  5
61E
  8
RAHM2
 10
-190.8155863565801
 20
25.98333333333337
 30
0.0
 40
2.5
  1
1
 72
     1
 11
-190.19058635658021
 21
25.650000000000031
 31
0.0
 73
     1
  0
TEXT
  5
61F
  8
RAHM2
 10
-190.9183316929134
 20
30.98333333333337
 30
0.0
 40
2.5
  1
2
 72
     1
 11
-190.0
 21
30.650000000000031
 31
0.0
 73
     1
  0
TEXT
  5
620
  8
RAHM2
 10
-190.92677669529661
 20
35.983333333333341
 30
0.0
 40
2.5
  1
3
 72
     1
 11
-190.0
 21
35.650000000000013
 31
0.0
 73
     1
  0
TEXT
  5
621
  8
RAHM2
 10
-191.0
 20
40.98333333333337
 30
0.0
 40
2.5
  1
4
 72
     1
 11
-190.0
 21
40.650000000000027
 31
0.0
 73
     1
  0
TEXT
  5
622
  8
RAHM2
 10
-190.92677669529661
 20
45.98333333333337
 30
0.0
 40
2.5
  1
5
 72
     1
 11
-190.0
 21
45.650000000000027
 31
0.0
 73
     1
  0
LINE
  5
623
  8
0
 10
-17.0
 20
50.0
 30
0.0
 11
-17.0
 21
0.0
 31
0.0
  0
LINE
  5
624
  8
0
 10
-195.0
 20
0.0
 30
0.0
 11
0.0
 21
0.0
 31
0.0
1001
GENIUS_GENREC_14
1002
{
1000
PYDIR
1011
-184.0
1021
0.0
1031
0.0
1021
50.0
1031
0.0
1002
}
1002
{
1000
PXDIR
1011
0.0
1021
0.0
1031
0.0
1021
0.0
1031
0.0
1002
}
1002
{
1000
PORI
1011
-184.0
1021
0.0
1031
0.0
1021
0.0
1031
0.0
1002
}
1002
{
1000
PINS
1011
-100.5
1021
0.0
1031
0.0
1021
25.0
1031
0.0
1002
}
1002
{
1000
HVAL
1000
50
1002
}
1002
{
1000
H
1070
     2
1002
}
1002
{
1000
WVAL
1000
167
1002
}
1002
{
1000
W
1070
     2
1002
}
1002
{
1000
C
1070
     4
1002
}
1001
GENIUS_GENODEF_13
1002
{
1000
HIER
1070
     0
1002
}
1002
{
1000
MANEDIT
1070
     0
1002
}
1002
{
1000
NOSEL
1070
     0
1002
}
1002
{
1000
BEHIND
1070
     0
1002
}
1002
{
1000
REACTOR
1002
}
1001
GENIUS_GENOBJ-N-REC_13
1002
{
1000
OWNER
1000
GEN
1002
}
  0
LINE
  5
625
  8
0
 10
0.0
 20
0.0
 30
0.0
 11
0.0
 21
50.0
 31
0.0
1001
GENIUS_GENREC_14
1002
{
1000
PYDIR
1011
-184.0
1021
0.0
1031
0.0
1021
50.0
1031
0.0
1002
}
1002
{
1000
PXDIR
1011
0.0
1021
0.0
1031
0.0
1021
0.0
1031
0.0
1002
}
1002
{
1000
PORI
1011
-184.0
1021
0.0
1031
0.0
1021
0.0
1031
0.0
1002
}
1002
{
1000
PINS
1011
-100.5
1021
0.0
1031
0.0
1021
25.0
1031
0.0
1002
}
1002
{
1000
HVAL
1000
50
1002
}
1002
{
1000
H
1070
     2
1002
}
1002
{
1000
WVAL
1000
167
1002
}
1002
{
1000
W
1070
     2
1002
}
1002
{
1000
C
1070
     4
1002
}
1001
GENIUS_GENODEF_13
1002
{
1000
HIER
1070
     0
1002
}
1002
{
1000
MANEDIT
1070
     0
1002
}
1002
{
1000
NOSEL
1070
     0
1002
}
1002
{
1000
BEHIND
1070
     0
1002
}
1002
{
1000
REACTOR
1002
}
1001
GENIUS_GENOBJ-N-REC_13
1002
{
1000
OWNER
1000
GEN
1002
}
  0
LINE
  5
626
  8
0
 10
0.0
 20
50.0
 30
0.0
 11
-195.0
 21
50.000000000000028
 31
0.0
1001
GENIUS_GENREC_14
1002
{
1000
PYDIR
1011
-184.0
1021
0.0
1031
0.0
1021
50.0
1031
0.0
1002
}
1002
{
1000
PXDIR
1011
0.0
1021
0.0
1031
0.0
1021
0.0
1031
0.0
1002
}
1002
{
1000
PORI
1011
-184.0
1021
0.0
1031
0.0
1021
0.0
1031
0.0
1002
}
1002
{
1000
PINS
1011
-100.5
1021
0.0
1031
0.0
1021
25.0
1031
0.0
1002
}
1002
{
1000
HVAL
1000
50
1002
}
1002
{
1000
H
1070
     2
1002
}
1002
{
1000
WVAL
1000
167
1002
}
1002
{
1000
W
1070
     2
1002
}
1002
{
1000
C
1070
     4
1002
}
1001
GENIUS_GENODEF_13
1002
{
1000
HIER
1070
     0
1002
}
1002
{
1000
MANEDIT
1070
     0
1002
}
1002
{
1000
NOSEL
1070
     0
1002
}
1002
{
1000
BEHIND
1070
     0
1002
}
1002
{
1000
REACTOR
1002
}
1001
GENIUS_GENOBJ-N-REC_13
1002
{
1000
OWNER
1000
GEN
1002
}
  0
LINE
  5
627
  8
0
 10
-195.0
 20
50.000000000000028
 30
0.0
 11
-195.0
 21
0.0
 31
0.0
1001
GENIUS_GENREC_14
1002
{
1000
PYDIR
1011
-195.0
1021
0.0
1031
0.0
1021
50.0
1031
0.0
1002
}
1002
{
1000
PXDIR
1011
-11.0
1021
0.0
1031
0.0
1021
0.0
1031
0.0
1002
}
1002
{
1000
PORI
1011
-195.0
1021
0.0
1031
0.0
1021
0.0
1031
0.0
1002
}
1002
{
1000
PINS
1011
-111.5
1021
0.0
1031
0.0
1021
25.0
1031
0.0
1002
}
1002
{
1000
HVAL
1000
50
1002
}
1002
{
1000
H
1070
     2
1002
}
1002
{
1000
WVAL
1000
167
1002
}
1002
{
1000
W
1070
     2
1002
}
1002
{
1000
C
1070
     4
1002
}
1001
GENIUS_GENODEF_13
1002
{
1000
HIER
1070
     0
1002
}
1002
{
1000
MANEDIT
1070
     0
1002
}
1002
{
1000
NOSEL
1070
     0
1002
}
1002
{
1000
BEHIND
1070
     0
1002
}
1002
{
1000
REACTOR
1002
}
1001
GENIUS_GENOBJ-N-REC_13
1002
{
1000
OWNER
1000
GEN
1002
}
  0
INSERT
  5
628
  8
ﾃ_ﾌ_ﾙ
  2
*U99
 10
0.0
 20
0.0
 30
0.0
  0
INSERT
  5
629
  8
ﾃ_ﾌ_ﾙ
  2
*U100
 10
0.0
 20
0.0
 30
0.0
  0
ENDBLK
  5
62C
  8
0
  0
BLOCK
  8
0
  2
TK-A3
 70
     0
 10
0.0
 20
0.0
 30
0.0
  3
TK-A3
  1

  0
TEXT
  5
CB2
  8
0
 10
403.0
 20
280.0
 30
0.0
 40
2.5
  1
!GENTITLE-MAX
  0
TEXT
  5
CB3
  8
0
 10
0.0
 20
0.0
 30
0.0
 40
2.5
  1
!GENTITLE-LL
  0
TEXT
  5
CB4
  8
0
 10
403.0
 20
0.0
 30
0.0
 40
2.5
  1
!GENTITLE-INSERT
  0
LINE
  5
CB5
  8
0
 10
359.0
 20
275.0
 30
0.0
 11
403.0
 21
275.0
 31
0.0
  0
TEXT
  8
0
  40
2.5
  5
6877
  72
0
  71
0
 10
402.359
 20
272.859
 30
0.000000
  1
(文書番号：TY-34)2008.02.08
  0
LINE
  5
CB7
  8
0
 10
359.0
 20
280.0
 30
0.0
 11
359.0
 21
275.0
 31
0.0
  0
ENDBLK
  5
CBA
  8
0
  0
BLOCK
  8
0
  2
TK-TITLE
 70
     2
 10
0.0
 20
0.0
 30
0.0
  3
TK-TITLE
  1

  0
ATTDEF
  5
CBF
  8
0
 10
-8.0023091895458265
 20
1.705189434395036
 30
0.0
 40
2.5
  1

  3
Rev.
  2
GEN-TITLE-NR2
 70
     0
  0
ATTDEF
  5
CC0
  8
0
 10
-84.142519015853296
 20
12.82790432564377
 30
0.0
 40
3.5
  1

  3
品名
  2
GEN-TITLE-DES1
 70
     0
  0
LINE
  5
CC1
  8
0
 10
0.0
 20
0.0
 30
0.0
 11
0.0
 21
50.0
 31
0.0
1001
GENIUS_GENREC_14
1002
{
1000
PYDIR
1011
-414.0
1021
0.0
1031
0.0
1021
291.0
1031
0.0
1002
}
1002
{
1000
PXDIR
1011
6.0
1021
0.0
1031
0.0
1021
-6.0
1031
0.0
1002
}
1002
{
1000
PORI
1011
-414.0
1021
0.0
1031
0.0
1021
-6.0
1031
0.0
1002
}
1002
{
1000
PINS
1011
-414.0
1021
0.0
1031
0.0
1021
-6.0
1031
0.0
1002
}
1002
{
1000
HVAL
1000
297
1002
}
1002
{
1000
H
1070
     2
1002
}
1002
{
1000
WVAL
1000
420
1002
}
1002
{
1000
W
1070
     2
1002
}
1002
{
1000
C
1070
     1
1002
}
1001
GENIUS_GENODEF_13
1002
{
1000
HIER
1070
     0
1002
}
1002
{
1000
MANEDIT
1070
     0
1002
}
1002
{
1000
NOSEL
1070
     0
1002
}
1002
{
1000
BEHIND
1070
     0
1002
}
1002
{
1000
OTHER
1070
     0
1002
}
1002
{
1000
REACTOR
1002
}
1001
GENIUS_GENOBJ-N-REC_13
1002
{
1000
OWNER
1000
GEN
1002
}
  0
ATTDEF
  5
CC2
  8
0
 10
-84.0
 20
9.1499999999999488
 30
0.0
 40
2.5
  1

  3
サブタイトル
  2
GEN-TITLE-DES2
 70
     0
  0
ATTDEF
  5
CC3
  8
0
 10
-84.0
 20
1.9999999999999569
 30
0.0
 40
3.0
  1

  3
図番
  2
GEN-TITLE-NR1
 70
     0
  0
LINE
  5
CC4
  8
0
 10
-96.0
 20
50.000000000000007
 30
0.0
 11
-96.0
 21
-0.0000000000000142
 31
0.0
1001
GENIUS_GENREC_14
1002
{
1000
PYDIR
1011
-96.0
1021
0.0
1031
0.0
1021
49.999999999999993
1031
0.0
1002
}
1002
{
1000
PXDIR
1011
88.0
1021
0.0
1031
0.0
1021
-0.0000000000000142
1031
0.0
1002
}
1002
{
1000
PORI
1011
-96.0
1021
0.0
1031
0.0
1021
-0.0000000000000142
1031
0.0
1002
}
1002
{
1000
PINS
1011
-12.5
1021
0.0
1031
0.0
1021
24.999999999999989
1031
0.0
1002
}
1002
{
1000
HVAL
1000
50
1002
}
1002
{
1000
H
1070
     2
1002
}
1002
{
1000
WVAL
1000
167
1002
}
1002
{
1000
W
1070
     2
1002
}
1002
{
1000
C
1070
     4
1002
}
1001
GENIUS_GENODEF_13
1002
{
1000
HIER
1070
     0
1002
}
1002
{
1000
MANEDIT
1070
     0
1002
}
1002
{
1000
NOSEL
1070
     0
1002
}
1002
{
1000
BEHIND
1070
     0
1002
}
1002
{
1000
REACTOR
1002
}
1001
GENIUS_GENOBJ-N-REC_13
1002
{
1000
OWNER
1000
GEN
1002
}
  0
LINE
  5
CC5
  8
0
 10
0.0
 20
50.0
 30
0.0
 11
-193.00000000000011
 21
50.000000000000021
 31
0.0
1001
GENIUS_GENREC_14
1002
{
1000
PYDIR
1011
-184.0
1021
0.0
1031
0.0
1021
50.0
1031
0.0
1002
}
1002
{
1000
PXDIR
1011
0.0
1021
0.0
1031
0.0
1021
0.0
1031
0.0
1002
}
1002
{
1000
PORI
1011
-184.0
1021
0.0
1031
0.0
1021
0.0
1031
0.0
1002
}
1002
{
1000
PINS
1011
-100.5
1021
0.0
1031
0.0
1021
25.0
1031
0.0
1002
}
1002
{
1000
HVAL
1000
50
1002
}
1002
{
1000
H
1070
     2
1002
}
1002
{
1000
WVAL
1000
167
1002
}
1002
{
1000
W
1070
     2
1002
}
1002
{
1000
C
1070
     4
1002
}
1001
GENIUS_GENODEF_13
1002
{
1000
HIER
1070
     0
1002
}
1002
{
1000
MANEDIT
1070
     0
1002
}
1002
{
1000
NOSEL
1070
     0
1002
}
1002
{
1000
BEHIND
1070
     0
1002
}
1002
{
1000
REACTOR
1002
}
1001
GENIUS_GENOBJ-N-REC_13
1002
{
1000
OWNER
1000
GEN
1002
}
  0
LINE
  5
CC6
  8
0
 10
-193.00000000000011
 20
0.0
 30
0.0
 11
0.0
 21
0.0
 31
0.0
1001
GENIUS_GENREC_14
1002
{
1000
PYDIR
1011
-184.0
1021
0.0
1031
0.0
1021
50.0
1031
0.0
1002
}
1002
{
1000
PXDIR
1011
0.0
1021
0.0
1031
0.0
1021
0.0
1031
0.0
1002
}
1002
{
1000
PORI
1011
-184.0
1021
0.0
1031
0.0
1021
0.0
1031
0.0
1002
}
1002
{
1000
PINS
1011
-100.5
1021
0.0
1031
0.0
1021
25.0
1031
0.0
1002
}
1002
{
1000
HVAL
1000
50
1002
}
1002
{
1000
H
1070
     2
1002
}
1002
{
1000
WVAL
1000
167
1002
}
1002
{
1000
W
1070
     2
1002
}
1002
{
1000
C
1070
     4
1002
}
1001
GENIUS_GENODEF_13
1002
{
1000
HIER
1070
     0
1002
}
1002
{
1000
MANEDIT
1070
     0
1002
}
1002
{
1000
NOSEL
1070
     0
1002
}
1002
{
1000
BEHIND
1070
     0
1002
}
1002
{
1000
REACTOR
1002
}
1001
GENIUS_GENOBJ-N-REC_13
1002
{
1000
OWNER
1000
GEN
1002
}
  0
TEXT
  5
CC7
  8
RAHM2
 10
-91.926776695296624
 20
45.983333333333348
 30
0.0
 40
2.5
  1
5
 72
     1
 11
-91.0
 21
45.65000000000002
 31
0.0
 73
     1
  0
TEXT
  5
CC8
  8
RAHM2
 10
-92.0
 20
40.983333333333348
 30
0.0
 40
2.5
  1
4
 72
     1
 11
-91.0
 21
40.65000000000002
 31
0.0
 73
     1
  0
TEXT
  5
CC9
  8
RAHM2
 10
-91.926776695296624
 20
35.983333333333327
 30
0.0
 40
2.5
  1
3
 72
     1
 11
-91.0
 21
35.649999999999991
 31
0.0
 73
     1
  0
TEXT
  5
CCA
  8
RAHM2
 10
-91.918331692913384
 20
30.983333333333348
 30
0.0
 40
2.5
  1
2
 72
     1
 11
-91.0
 21
30.65000000000002
 31
0.0
 73
     1
  0
TEXT
  5
CCB
  8
RAHM2
 10
-91.815586356580184
 20
25.983333333333348
 30
0.0
 40
2.5
  1
1
 72
     1
 11
-91.190586356580184
 21
25.65000000000002
 31
0.0
 73
     1
  0
INSERT
  5
CCC
  8
ﾃ_ﾌ_ﾙ
  2
*U101
 10
0.0
 20
0.0
 30
0.0
  0
LINE
  5
CCD
  8
RAHM2
 10
-96.0
 20
25.0
 30
0.0
 11
0.0000000000001137
 21
25.000000000000028
 31
0.0
  0
LINE
  5
CCE
  8
RAHM2
 10
-93.424871130596443
 20
25.40000000000002
 30
0.0
 11
-88.575128869403557
 21
25.40000000000002
 31
0.0
  0
LINE
  5
CCF
  8
RAHM2
 10
-88.575128869403557
 20
25.40000000000002
 30
0.0
 11
-91.0
 21
29.600000000000009
 31
0.0
  0
LINE
  5
CD0
  8
RAHM2
 10
-91.0
 20
29.600000000000009
 30
0.0
 11
-93.424871130596443
 21
25.40000000000002
 31
0.0
  0
INSERT
  5
CD1
  8
ﾃ_ﾌ_ﾙ
  2
*U102
 10
0.0
 20
0.0
 30
0.0
  0
INSERT
  5
CD2
  8
ﾃ_ﾌ_ﾙ
  2
*U103
 10
0.0
 20
0.0
 30
0.0
  0
INSERT
  5
CD3
  8
ﾃ_ﾌ_ﾙ
  2
*U104
 10
0.0
 20
0.0
 30
0.0
  0
INSERT
  5
CD4
  8
ﾃ_ﾌ_ﾙ
  2
*U105
 10
0.0
 20
0.0
 30
0.0
  0
INSERT
  5
CD5
  8
ﾃ_ﾌ_ﾙ
  2
*U106
 10
0.0
 20
0.0
 30
0.0
  0
INSERT
  5
CD6
  8
ﾃ_ﾌ_ﾙ
  2
*U107
 10
0.0
 20
0.0
 30
0.0
  0
LINE
  5
CD7
  8
RAHM2
 10
-11.82081941068907
 20
50.000000000000028
 30
0.0
 11
-11.82081941068907
 21
19.99999999999994
 31
0.0
  0
INSERT
  5
CD8
  8
ﾃ_ﾌ_ﾙ
  2
*U108
 10
0.0
 20
0.0
 30
0.0
  0
LINE
  5
CD9
  8
RAHM2
 10
-31.820819410689069
 20
50.000000000000028
 30
0.0
 11
-31.820819410689179
 21
19.99999999999994
 31
0.0
  0
LINE
  5
CDA
  8
RAHM2
 10
-91.0
 20
49.600000000000001
 30
0.0
 11
-93.424871130596443
 21
45.400000000000013
 31
0.0
  0
LINE
  5
CDB
  8
RAHM2
 10
-91.0
 20
44.600000000000001
 30
0.0
 11
-93.424871130596443
 21
40.400000000000013
 31
0.0
  0
LINE
  5
CDC
  8
RAHM2
 10
-91.0
 20
39.600000000000009
 30
0.0
 11
-93.424871130596443
 21
35.40000000000002
 31
0.0
  0
LINE
  5
CDD
  8
RAHM2
 10
-88.575128869403557
 20
35.40000000000002
 30
0.0
 11
-91.0
 21
39.600000000000009
 31
0.0
  0
LINE
  5
CDE
  8
RAHM2
 10
-93.424871130596443
 20
35.40000000000002
 30
0.0
 11
-88.575128869403557
 21
35.40000000000002
 31
0.0
  0
LINE
  5
CDF
  8
RAHM2
 10
-88.575128869403557
 20
40.400000000000013
 30
0.0
 11
-91.0
 21
44.600000000000001
 31
0.0
  0
LINE
  5
CE0
  8
RAHM2
 10
-93.424871130596443
 20
40.400000000000013
 30
0.0
 11
-88.575128869403557
 21
40.400000000000013
 31
0.0
  0
LINE
  5
CE1
  8
RAHM2
 10
-88.575128869403557
 20
45.400000000000013
 30
0.0
 11
-91.0
 21
49.600000000000001
 31
0.0
  0
LINE
  5
CE2
  8
RAHM2
 10
-93.424871130596443
 20
45.400000000000013
 30
0.0
 11
-88.575128869403557
 21
45.400000000000013
 31
0.0
  0
INSERT
  5
CE3
  8
ﾃ_ﾌ_ﾙ
  2
*U109
 10
0.0
 20
0.0
 30
0.0
  0
INSERT
  5
CE4
  8
ﾃ_ﾌ_ﾙ
  2
*U110
 10
0.0
 20
0.0
 30
0.0
  0
LINE
  5
CE5
  8
RAHM2
 10
-93.424871130596443
 20
30.40000000000002
 30
0.0
 11
-88.575128869403557
 21
30.40000000000002
 31
0.0
  0
LINE
  5
CE6
  8
RAHM2
 10
-86.0
 20
50.000000000000007
 30
0.0
 11
-86.0
 21
19.999999999999929
 31
0.0
  0
LINE
  5
CE7
  8
RAHM2
 10
-91.0
 20
34.600000000000009
 30
0.0
 11
-93.424871130596443
 21
30.40000000000002
 31
0.0
  0
LINE
  5
CE8
  8
RAHM2
 10
-88.575128869403557
 20
30.40000000000002
 30
0.0
 11
-91.0
 21
34.600000000000009
 31
0.0
  0
INSERT
  5
CE9
  8
ﾃ_ﾌ_ﾙ
  2
*U111
 10
0.0
 20
0.0
 30
0.0
  0
LINE
  5
CEA
  8
0
 10
-96.0
 20
19.999999999999972
 30
0.0
 11
0.0000000000001137
 21
19.999999999999972
 31
0.0
  0
LINE
  5
CEB
  8
0
 10
-96.0
 20
7.0
 30
0.0
 11
0.0000000000001137
 21
7.0
 31
0.0
  0
LINE
  5
CEC
  8
RAHM2
 10
-96.0
 20
45.000000000000021
 30
0.0
 11
0.0000000000001137
 21
45.000000000000021
 31
0.0
  0
LINE
  5
CED
  8
RAHM2
 10
-96.0
 20
39.999999999999929
 30
0.0
 11
0.0000000000001137
 21
40.000000000000021
 31
0.0
  0
LINE
  5
CEE
  8
RAHM2
 10
-96.0
 20
35.000000000000028
 30
0.0
 11
0.0000000000001137
 21
35.000000000000028
 31
0.0
  0
LINE
  5
CEF
  8
RAHM2
 10
-96.0
 20
29.999999999999918
 30
0.0
 11
0.0000000000001137
 21
30.000000000000028
 31
0.0
  0
LINE
  5
CF0
  8
0
 10
-21.175419266257109
 20
0.0
 30
0.0
 11
-21.17541926625734
 21
7.0
 31
0.0
  0
INSERT
  5
CF1
  8
ﾃ_ﾌ_ﾙ
  2
*U112
 10
0.0
 20
0.0
 30
0.0
  0
INSERT
  5
CF2
  8
ﾃ_ﾌ_ﾙ
  2
*U113
 10
0.0
 20
0.0
 30
0.0
  0
LINE
  5
CF3
  8
0
 10
-167.0
 20
19.999999999999929
 30
0.0
 11
-96.0
 21
19.999999999999929
 31
0.0
  0
LINE
  5
CF4
  8
0
 10
-113.75
 20
19.999999999999929
 30
0.0
 11
-113.75
 21
-0.0000000000000533
 31
0.0
  0
LINE
  5
CF5
  8
0
 10
-131.50000000000011
 20
19.999999999999929
 30
0.0
 11
-131.50000000000011
 21
-0.0000000000000533
 31
0.0
  0
INSERT
  5
CF6
  8
ﾃ_ﾌ_ﾙ
  2
*U114
 10
0.0
 20
0.0
 30
0.0
  0
LINE
  5
CF7
  8
0
 10
-167.0
 20
49.99999999999995
 30
0.0
 11
-167.0
 21
-0.0000000000000497
 31
0.0
  0
LINE
  5
CF8
  8
0
 10
-149.25000000000011
 20
19.999999999999929
 30
0.0
 11
-149.25000000000011
 21
-0.0000000000000462
 31
0.0
  0
INSERT
  5
CF9
  8
ﾃ_ﾌ_ﾙ
  2
*U115
 10
0.0
 20
0.0
 30
0.0
  0
INSERT
  5
CFA
  8
ﾃ_ﾌ_ﾙ
  2
*U116
 10
0.0
 20
0.0
 30
0.0
  0
LINE
  5
CFB
  8
0
 10
-167.0
 20
29.999999999999918
 30
0.0
 11
-96.0
 21
29.999999999999918
 31
0.0
  0
INSERT
  5
CFC
  8
ﾃ_ﾌ_ﾙ
  2
*U117
 10
0.0
 20
0.0
 30
0.0
  0
ATTDEF
  5
CFD
  8
0
 10
-148.96186758352911
 20
43.299999999999912
 30
0.0
 40
3.0
  1

  3
材質
  2
GEN-TITLE-MAT1
 70
     0
  0
ATTDEF
  5
CFE
  8
0
 10
-148.96186758352911
 20
33.299999999999912
 30
0.0
 40
3.0
  1

  3
表面処理
  2
GEN-TITLE-MAT2
 70
     0
  0
INSERT
  5
CFF
  8
ﾃ_ﾌ_ﾙ
  2
*U118
 10
0.0
 20
0.0
 30
0.0
  0
INSERT
  5
D00
  8
ﾃ_ﾌ_ﾙ
  2
*U119
 10
0.0
 20
0.0
 30
0.0
  0
LINE
  5
D01
  8
0
 10
-167.0
 20
39.999999999999908
 30
0.0
 11
-96.0
 21
39.999999999999922
 31
0.0
  0
LINE
  5
D02
  8
0
 10
-167.0
 20
24.999999999999972
 30
0.0
 11
-193.00000000000011
 21
24.999999999999972
 31
0.0
  0
LINE
  5
D03
  8
0
 10
-171.71674187457961
 20
46.74999999999995
 30
0.0
 11
-171.71674187457961
 21
40.749999999999943
 31
0.0
  0
LINE
  5
D04
  8
7A
 10
-184.71674187457961
 20
43.74999999999995
 30
0.0
 11
-184.71674187457961
 21
40.03991724228473
 31
0.0
1001
GENIUS_GENOREF_13
1005
D16
  0
LINE
  5
D05
  8
7A
 10
-184.71674187457961
 20
43.74999999999995
 30
0.0
 11
-188.43977924583069
 21
43.74999999999995
 31
0.0
1001
GENIUS_GENOREF_13
1005
D16
  0
LINE
  5
D06
  8
0
 10
-179.71674187457961
 20
41.74999999999995
 30
0.0
 11
-179.71674187457961
 21
45.749999999999943
 31
0.0
  0
CIRCLE
  5
D07
  8
0
 10
-184.71674187457961
 20
43.74999999999995
 30
0.0
 40
3.0
  0
CIRCLE
  5
D08
  8
0
 10
-184.71674187457961
 20
43.74999999999995
 30
0.0
 40
2.0
  0
LINE
  5
D09
  8
7A
 10
-184.71674187457961
 20
43.74999999999995
 30
0.0
 11
-184.71674187457961
 21
47.324786644731439
 31
0.0
1001
GENIUS_GENOREF_13
1005
D16
  0
LINE
  5
D0A
  8
0
 10
-171.71674187457961
 20
40.749999999999943
 30
0.0
 11
-179.71674187457961
 21
41.74999999999995
 31
0.0
  0
LINE
  5
D0B
  8
0
 10
-179.71674187457961
 20
45.749999999999943
 30
0.0
 11
-171.71674187457961
 21
46.74999999999995
 31
0.0
  0
LINE
  5
D0C
  8
7A
 10
-184.71674187457961
 20
43.74999999999995
 30
0.0
 11
-170.93543347429431
 21
43.74999999999995
 31
0.0
1001
GENIUS_GENOREF_13
1005
D16
  0
LINE
  5
D0D
  8
0
 10
-193.00000000000011
 20
49.999999999999993
 30
0.0
 11
-193.00000000000011
 21
-0.0000000000000142
 31
0.0
  0
ATTDEF
  5
D0E
  8
0
 10
-175.6127409126095
 20
16.199999999999939
 30
0.0
 40
3.0
  1

 72
     2
 11
-175.6127409126095
 21
15.79999999999994
 31
0.0
  3
数量
  2
GEN-TITLE-QTY
 70
     0
 74
     1
  0
INSERT
  5
D0F
  8
ﾃ_ﾌ_ﾙ
  2
*U120
 10
0.0
 20
0.0
 30
0.0
  0
INSERT
  5
D10
  8
ﾃ_ﾌ_ﾙ
  2
*U121
 10
0.0
 20
0.0
 30
0.0
  0
ATTDEF
  5
D11
  8
0
 10
-177.824739614424
 20
28.699999999999971
 30
0.0
 40
3.0
  1

 72
     2
 11
-177.824739614424
 21
28.299999999999979
 31
0.0
  3
尺度
  2
GEN-TITLE-SCA
 70
     0
 74
     1
  0
INSERT
  5
D12
  8
ﾃ_ﾌ_ﾙ
  2
*U122
 10
0.0
 20
0.0
 30
0.0
  0
ATTDEF
  5
D13
  8
0
 10
-180.2171951662138
 20
3.9883425376106638
 30
0.0
 40
3.0
  1

 72
     1
 11
-180.2171951662138
 21
3.5883425376106639
 31
0.0
  3
日付
  2
GEN-TITLE-DAT
 70
     0
 74
     1
  0
LINE
  5
D14
  8
0
 10
-167.0
 20
37.499999999999979
 30
0.0
 11
-193.00000000000011
 21
37.499999999999979
 31
0.0
  0
LINE
  5
D15
  8
0
 10
-167.0
 20
12.499999999999959
 30
0.0
 11
-193.00000000000011
 21
12.499999999999959
 31
0.0
  0
POINT
  5
D16
  8
0
 10
-418.53555798196749
 20
-138.11048412682541
 30
0.0
1001
GENIUS_GENODEF_13
1002
{
1000
HIER
1070
    10
1002
}
1002
{
1000
MANEDIT
1070
     0
1002
}
1002
{
1000
NOSEL
1070
     0
1002
}
1002
{
1000
BEHIND
1070
     0
1002
}
1002
{
1000
REACTOR
1002
}
1001
GENIUS_GENOBJ-N-CRS_13
1002
{
1000
OWNER
1000
GEN
1002
}
1001
GENIUS_GENOENT_13
1002
{
1000
MYREF
1005
D16
1002
}
1002
{
1000
GRP
1005
0
1002
}
1001
GENIUS_GENOLIS_13
1002
{
1000
ENT
1005
D04
1005
D05
1005
D09
1005
D0C
1002
}
  0
ENDBLK
  5
D19
  8
0
  0
BLOCK
  8
0
  2
取手正面
 70
     0
 10
0.0
 20
0.0
 30
0.0
  3
取手正面
  1

  0
ARC
  5
2E56
  8
0
  6
CONTINUOUS
 10
47.0
 20
-21.0
 30
0.0
 40
5.0
 50
270.0
 51
0.0
  0
LINE
  5
2E57
  8
0
  6
CONTINUOUS
 10
38.0
 20
3.0
 30
0.0
 11
-38.0
 21
3.0
 31
0.0
  0
LINE
  5
2E58
  8
0
  6
CONTINUOUS
 10
47.0
 20
0.0
 30
0.0
 11
-47.0
 21
0.0
 31
0.0
  0
LINE
  5
2E59
  8
0
  6
CONTINUOUS
 10
47.0
 20
-26.0
 30
0.0
 11
-47.0
 21
-26.0
 31
0.0
  0
LINE
  5
2E5A
  8
0
  6
CONTINUOUS
 10
-52.0
 20
-5.0
 30
0.0
 11
-52.0
 21
-21.0
 31
0.0
  0
LINE
  5
2E5B
  8
0
  6
CONTINUOUS
 10
-47.0
 20
-9.0
 30
0.0
 11
-47.0
 21
-18.658203999999841
 31
0.0
  0
LINE
  5
2E5C
  8
0
  6
CONTINUOUS
 10
41.0
 20
0.0
 30
0.0
 11
41.0
 21
0.0
 31
0.0
  0
LINE
  5
2E5D
  8
0
  6
CONTINUOUS
 10
-41.0
 20
0.0
 30
0.0
 11
-41.0
 21
0.0
 31
0.0
  0
ARC
  5
2E5E
  8
0
  6
CONTINUOUS
 10
-44.0
 20
-9.0
 30
0.0
 40
3.0
 50
90.0
 51
180.0
  0
LINE
  5
2E5F
  8
0
  6
CONTINUOUS
 10
44.0
 20
-21.658203999999841
 30
0.0
 11
-44.0
 21
-21.658203999999841
 31
0.0
  0
ARC
  5
2E60
  8
0
  6
CONTINUOUS
 10
-44.0
 20
-18.658203999999841
 30
0.0
 40
3.0
 50
180.0
 51
270.0
  0
ARC
  5
2E61
  8
0
  6
CONTINUOUS
 10
44.0
 20
-9.0
 30
0.0
 40
3.0
 50
0.0
 51
90.0
  0
LINE
  5
2E62
  8
0
  6
CONTINUOUS
 10
44.0
 20
-6.0
 30
0.0
 11
-44.0
 21
-6.0
 31
0.0
  0
ARC
  5
2E63
  8
0
  6
CONTINUOUS
 10
44.0
 20
-18.658203999999841
 30
0.0
 40
3.0
 50
270.0
 51
0.0
  0
ARC
  5
2E64
  8
0
  6
CONTINUOUS
 10
-47.0
 20
-5.0
 30
0.0
 40
5.0
 50
90.0
 51
180.0
  0
LINE
  5
2E65
  8
0
  6
CONTINUOUS
 10
47.0
 20
-9.0
 30
0.0
 11
47.0
 21
-18.658203999999841
 31
0.0
  0
ARC
  5
2E66
  8
0
  6
CONTINUOUS
 10
-47.0
 20
-21.0
 30
0.0
 40
5.0
 50
180.0
 51
270.0
  0
LINE
  5
2E67
  8
0
  6
CONTINUOUS
 10
52.0
 20
-5.0
 30
0.0
 11
52.0
 21
-21.0
 31
0.0
  0
ARC
  5
2E68
  8
0
  6
CONTINUOUS
 10
38.0
 20
0.0
 30
0.0
 40
3.0
 50
0.0
 51
90.0
  0
ARC
  5
2E69
  8
0
  6
CONTINUOUS
 10
-38.0
 20
0.0
 30
0.0
 40
3.0
 50
90.0
 51
180.0
  0
ARC
  5
2E6A
  8
0
  6
CONTINUOUS
 10
56.99999200000002
 20
-9.0698780000000152
 30
0.0
 40
16.0
 50
180.05762799999781
 51
223.67830199999821
  0
LINE
  5
2E6B
  8
0
  6
CONTINUOUS
 10
41.0
 20
-9.0859709999999723
 30
0.0
 11
41.0
 21
-6.0
 31
0.0
  0
ARC
  5
2E6C
  8
0
  6
CONTINUOUS
 10
-56.999991999999793
 20
-9.0698780000000152
 30
0.0
 40
16.0
 50
316.32169800000167
 51
359.94237200000219
  0
LINE
  5
2E6D
  8
0
  6
CONTINUOUS
 10
-41.0
 20
-9.0859709999999723
 30
0.0
 11
-41.0
 21
-6.0
 31
0.0
  0
ARC
  5
2E6E
  8
0
  6
CONTINUOUS
 10
47.0
 20
-5.0
 30
0.0
 40
5.0
 50
0.0
 51
90.0
  0
ENDBLK
  5
2E72
  8
0
  0
BLOCK
  8
0
  2
取手横
 70
     0
 10
0.0
 20
0.0
 30
0.0
  3
取手横
  1

  0
LINE
  5
2ED7
  8
0
  6
CONTINUOUS
 10
3.0000005198960471
 20
16.972393024514759
 30
0.0
 11
29.000000519896052
 21
16.972393024514759
 31
0.0
  0
LINE
  5
2ED8
  8
0
  6
CONTINUOUS
 10
3.0000005198960471
 20
17.265286024514801
 30
0.0
 11
3.0000005198960471
 21
16.972393024514759
 31
0.0
  0
LINE
  5
2ED9
  8
0
  6
CONTINUOUS
 10
29.000000519896052
 20
17.067405024514748
 30
0.0
 11
29.000000519896052
 21
16.972393024514759
 31
0.0
  0
LINE
  5
2EDA
  8
0
  6
HIDDEN
 10
0.000000519896048
 20
14.87239302451462
 30
0.0
 11
0.000000519896048
 21
3.3858070245146328
 31
0.0
  0
LINE
  5
2EDB
  8
0
  6
HIDDEN
 10
1.0000005198960471
 20
15.87239302451462
 30
0.0
 11
5.0000005198960471
 21
15.87239302451462
 31
0.0
  0
LINE
  5
2EDC
  8
0
  6
HIDDEN
 10
5.0000005198960471
 20
16.972393024514759
 30
0.0
 11
5.0000005198960471
 21
15.87239302451462
 31
0.0
  0
ARC
  5
2EDD
  8
0
  6
HIDDEN
 10
1.0000005198960471
 20
14.87239302451462
 30
0.0
 40
1.0
 50
90.0
 51
180.0
  0
ARC
  5
2EDE
  8
0
  6
HIDDEN
 10
6.7262805198959077
 20
19.972393024514759
 30
0.0
 40
20.0
 50
257.33836500000331
 51
351.37307300000481
  0
ARC
  5
2EDF
  8
0
  6
CONTINUOUS
 10
4.0000005198960471
 20
17.265286024514801
 30
0.0
 40
1.0
 50
109.47122099999559
 51
180.0
  0
ARC
  5
2EE0
  8
0
  6
CONTINUOUS
 10
28.000000519896052
 20
17.067405024514748
 30
0.0
 40
1.0
 50
0.0
 51
84.259468000003736
  0
ARC
  5
2EE1
  8
0
  6
CONTINUOUS
 10
9.0000005198960462
 20
17.972393024514759
 30
0.0
 40
2.0
 50
84.259468000003736
 51
109.47122099999559
  0
LINE
  5
2EE2
  8
0
  6
CONTINUOUS
 10
8.3333335198958594
 20
19.858011024514781
 30
0.0
 11
3.6666665198958981
 21
18.208095024514702
 31
0.0
  0
LINE
  5
2EE3
  8
0
  6
CONTINUOUS
 10
28.100023519896009
 20
18.062390024514801
 30
0.0
 11
9.2000475198960885
 21
19.962363024514609
 31
0.0
  0
LINE
  5
2EE4
  8
0
  6
HIDDEN
 10
7.0000005198960471
 20
16.972393024514759
 30
0.0
 11
7.0000005198960471
 21
1.97447402451462
 31
0.0
  0
ARC
  5
2EE5
  8
0
  6
HIDDEN
 10
3.0000005198960471
 20
3.3858070245146328
 30
0.0
 40
3.0
 50
180.0
 51
257.33836500000331
  0
ARC
  5
2EE6
  8
0
  6
HIDDEN
 10
17.991060519895878
 20
8.4913060245146426
 30
0.0
 40
10.991076
 50
129.4991610000107
 51
180.0
  0
ARC
  5
2EE7
  8
0
  6
HIDDEN
 10
23.100000519895961
 20
15.87239302451462
 30
0.0
 40
4.0
 50
303.15016600000399
 51
0.0
  0
LINE
  5
2EE8
  8
0
  6
HIDDEN
 10
26.301519519895919
 20
15.87239302451462
 30
0.0
 11
27.100000519895961
 21
15.87239302451462
 31
0.0
  0
ENDBLK
  5
2EEC
  8
0
  0
BLOCK
  8
0
  2
取手上
 70
     0
 10
0.0
 20
0.0
 30
0.0
  3
取手上
  1

  0
LINE
  5
2F33
  8
0
  6
HIDDEN
 10
7.4489594934836978
 20
79.999999831822151
 30
0.0
 11
4.0999984934835529
 21
79.999999831822151
 31
0.0
  0
LINE
  5
2F34
  8
0
  6
HIDDEN
 10
7.4489594934836978
 20
73.999999831822151
 30
0.0
 11
7.4489594934836978
 21
79.999999831822151
 31
0.0
  0
LINE
  5
2F35
  8
0
  6
HIDDEN
 10
4.0999984934835529
 20
73.999999831822151
 30
0.0
 11
7.4489594934836978
 21
73.999999831822151
 31
0.0
  0
LINE
  5
2F36
  8
0
  6
HIDDEN
 10
7.4489594934836978
 20
54.999999831822151
 30
0.0
 11
4.0999984934835529
 21
54.999999831822151
 31
0.0
  0
LINE
  5
2F37
  8
0
  6
HIDDEN
 10
7.4489594934836978
 20
48.999999831822151
 30
0.0
 11
7.4489594934836978
 21
54.999999831822151
 31
0.0
  0
LINE
  5
2F38
  8
0
  6
HIDDEN
 10
4.0999984934835529
 20
48.999999831822151
 30
0.0
 11
7.4489594934836978
 21
48.999999831822151
 31
0.0
  0
LINE
  5
2F39
  8
0
  6
CONTINUOUS
 62
     7
 10
7.4489594934836978
 20
29.999999831822151
 30
0.0
 11
4.0999984934835529
 21
29.999999831822151
 31
0.0
  0
LINE
  5
2F3A
  8
0
  6
CONTINUOUS
 62
     7
 10
7.4489594934836978
 20
23.999999831822151
 30
0.0
 11
7.4489594934836978
 21
29.999999831822151
 31
0.0
  0
LINE
  5
2F3B
  8
0
  6
CONTINUOUS
 62
     7
 10
4.0999984934835529
 20
23.999999831822151
 30
0.0
 11
7.4489594934836978
 21
23.999999831822151
 31
0.0
  0
LINE
  5
2F3C
  8
0
  6
HIDDEN
 10
4.0999984934835529
 20
21.999999831822151
 30
0.0
 11
2.9999984934836439
 21
21.999999831822151
 31
0.0
  0
LINE
  5
2F3D
  8
0
  6
HIDDEN
 10
4.0999984934835529
 20
81.999999831822137
 30
0.0
 11
4.0999984934835529
 21
21.999999831822151
 31
0.0
  0
LINE
  5
2F3E
  8
0
  6
HIDDEN
 10
2.9999984934836439
 20
81.999999831822137
 30
0.0
 11
4.0999984934835529
 21
81.999999831822137
 31
0.0
  0
LINE
  5
2F3F
  8
0
  6
CONTINUOUS
 62
     7
 10
1.5480984934836211
 20
6.310933831822239
 30
0.0
 11
1.5480984934836211
 21
97.68906583182229
 31
0.0
  0
ARC
  5
2F40
  8
0
  6
CONTINUOUS
 62
     7
 10
-1.4519015065163781
 20
97.68906583182229
 30
0.0
 40
3.0
 50
0.0
 51
25.911220000003901
  0
LINE
  5
2F41
  8
0
  6
CONTINUOUS
 62
     7
 10
-0.0000015065163552
 20
98.999999831822151
 30
0.0
 11
1.246515493483684
 21
98.999999831822151
 31
0.0
  0
LINE
  5
2F42
  8
0
  6
CONTINUOUS
 62
     7
 10
-0.0000015065163552
 20
4.9999998318221506
 30
0.0
 11
1.246515493483684
 21
4.9999998318221506
 31
0.0
  0
ARC
  5
2F43
  8
0
  6
CONTINUOUS
 62
     7
 10
-1.4519015065163781
 20
6.310933831822239
 30
0.0
 40
3.0
 50
334.08877999999612
 51
0.0
  0
ARC
  5
2F44
  8
0
  6
HIDDEN
 10
16.999998493483641
 20
91.935245831822144
 30
0.0
 40
3.0
 50
0.0
 51
69.075497999995164
  0
ARC
  5
2F45
  8
0
  6
HIDDEN
 10
16.999998493483641
 20
12.064753831822371
 30
0.0
 40
3.0
 50
290.92450200000491
 51
0.0
  0
LINE
  5
2F46
  8
0
  6
HIDDEN
 10
18.071411493483531
 20
9.262598831822288
 30
0.0
 11
2.9999984934836439
 21
3.499999831822151
 31
0.0
  0
LINE
  5
2F47
  8
0
  6
HIDDEN
 10
19.999998493483641
 20
91.935245831822144
 30
0.0
 11
19.999998493483641
 21
12.064753831822371
 31
0.0
  0
LINE
  5
2F48
  8
0
  6
HIDDEN
 10
2.9999984934836439
 20
100.49999983182209
 30
0.0
 11
18.071411493483531
 21
94.737400831822242
 31
0.0
  0
LINE
  5
2F49
  8
0
  6
CONTINUOUS
 62
     7
 10
0.9999984934836447
 20
93.999999831822151
 30
0.0
 11
0.9999984934836447
 21
9.9999998318221515
 31
0.0
  0
LINE
  5
2F4A
  8
0
  6
CONTINUOUS
 62
     7
 10
1.9999984934836439
 20
102.0365718318223
 30
0.0
 11
1.9999984934836439
 21
1.963427831822173
 31
0.0
  0
ARC
  5
2F4B
  8
0
  6
CONTINUOUS
 62
     7
 10
-3.0000015065163552
 20
102.0365718318223
 30
0.0
 40
5.0
 50
0.0
 51
23.1217050000044
  0
LINE
  5
2F4C
  8
0
  6
CONTINUOUS
 62
     7
 10
-0.0000015065163552
 20
-0.0000001681778485
 30
0.0
 11
-0.0000015065163552
 21
103.99999983182209
 31
0.0
  0
LINE
  5
2F4D
  8
0
  6
CONTINUOUS
 62
     7
 10
2.9999984934836439
 20
-0.0000001681778485
 30
0.0
 11
-0.0000015065163552
 21
-0.0000001681778485
 31
0.0
  0
LINE
  5
2F4E
  8
0
  6
CONTINUOUS
 62
     7
 10
2.9999984934836439
 20
103.99999983182209
 30
0.0
 11
2.9999984934836439
 21
-0.0000001681778485
 31
0.0
  0
LINE
  5
2F4F
  8
0
  6
CONTINUOUS
 62
     7
 10
-0.0000015065163552
 20
103.99999983182209
 30
0.0
 11
2.9999984934836439
 21
103.99999983182209
 31
0.0
  0
ARC
  5
2F50
  8
0
  6
CONTINUOUS
 62
     7
 10
-3.0000015065163552
 20
1.963427831822173
 30
0.0
 40
5.0
 50
336.8782949999956
 51
0.0
  0
ENDBLK
  5
2F54
  8
0
  0
BLOCK
  8
0
  2
ロック金具凸
 70
     0
 10
0.0
 20
0.0
 30
0.0
  3
ロック金具凸
  1

  0
LINE
  5
2F95
  8
ロック金具
  6
CONTINUOUS
 10
35.999999288882471
 20
-0.0000016026742742
 30
0.0
 11
35.999999288882471
 21
71.999998397325726
 31
0.0
  0
LINE
  5
2F96
  8
ロック金具
  6
CONTINUOUS
 10
-0.0000007111175364
 20
32.549998397325908
 30
0.0
 11
-0.0000007111175364
 21
39.449998397325551
 31
0.0
  0
LINE
  5
2F97
  8
ロック金具
  6
CONTINUOUS
 10
26.99999928888246
 20
71.999998397325726
 30
0.0
 11
35.999999288882471
 21
71.999998397325726
 31
0.0
  0
LINE
  5
2F98
  8
ロック金具
  6
CONTINUOUS
 10
26.99999928888246
 20
-0.0000016026742742
 30
0.0
 11
35.999999288882471
 21
-0.0000016026742742
 31
0.0
  0
LINE
  5
2F99
  8
ロック金具
  6
CONTINUOUS
 10
26.99999928888246
 20
-0.0000016026742742
 30
0.0
 11
26.99999928888246
 21
20.249998397325729
 31
0.0
  0
LINE
  5
2F9A
  8
ロック金具
  6
CONTINUOUS
 10
5.672999288882238
 20
43.794898397325589
 30
0.0
 11
13.766999288882291
 21
41.612098397326008
 31
0.0
  0
LINE
  5
2F9B
  8
ロック金具
  6
CONTINUOUS
 10
5.672999288882238
 20
28.205098397325859
 30
0.0
 11
13.766999288882291
 21
30.38789839732544
 31
0.0
  0
LINE
  5
2F9C
  8
ロック金具
  6
CONTINUOUS
 10
26.99999928888246
 20
51.749998397325719
 30
0.0
 11
26.99999928888246
 21
71.999998397325726
 31
0.0
  0
ARC
  5
2F9D
  8
ロック金具
  6
CONTINUOUS
 10
16.49999928888246
 20
51.749998397325719
 30
0.0
 40
10.5
 50
254.90900000000349
 51
0.0
  0
ARC
  5
2F9E
  8
ロック金具
  6
CONTINUOUS
 10
4.4999992888824627
 20
39.449998397325551
 30
0.0
 40
4.5
 50
74.909299999996321
 51
180.0
  0
ARC
  5
2F9F
  8
ロック金具
  6
CONTINUOUS
 10
4.4999992888824627
 20
32.549998397325908
 30
0.0
 40
4.5
 50
180.0
 51
285.0909999999966
  0
ARC
  5
2FA0
  8
ロック金具
  6
CONTINUOUS
 10
16.49999928888246
 20
20.249998397325729
 30
0.0
 40
10.5
 50
0.0
 51
105.0909999999965
  0
ENDBLK
  5
2FA4
  8
0
  0
BLOCK
  8
0
  2
ロック金具凹
 70
     0
 10
0.0
 20
0.0
 30
0.0
  3
ロック金具凹
  1

  0
LINE
  5
3034
  8
ロック金具
  6
CONTINUOUS
 10
0.0
 20
14.0
 30
0.0
 11
0.0
 21
-14.0
 31
0.0
  0
LINE
  5
3035
  8
ロック金具
  6
CONTINUOUS
 10
11.99989999999991
 20
14.0
 30
0.0
 11
11.99989999999991
 21
3.2999999999999541
 31
0.0
  0
LINE
  5
3036
  8
ロック金具
  6
CONTINUOUS
 10
11.99989999999991
 20
14.0
 30
0.0
 11
0.0
 21
14.0
 31
0.0
  0
LINE
  5
3037
  8
ロック金具
  6
CONTINUOUS
 10
11.99989999999991
 20
-14.0
 30
0.0
 11
0.0
 21
-14.0
 31
0.0
  0
LINE
  5
3038
  8
ロック金具
  6
CONTINUOUS
 10
1.9999000000000251
 20
3.2999999999999541
 30
0.0
 11
1.9999000000000251
 21
-3.2999999999999541
 31
0.0
  0
LINE
  5
3039
  8
ロック金具
  6
CONTINUOUS
 10
11.99989999999991
 20
-3.2999999999999541
 30
0.0
 11
1.9999000000000251
 21
-3.2999999999999541
 31
0.0
  0
LINE
  5
303A
  8
ロック金具
  6
CONTINUOUS
 10
11.99989999999991
 20
3.2999999999999541
 30
0.0
 11
1.9999000000000251
 21
3.2999999999999541
 31
0.0
  0
LINE
  5
303B
  8
ロック金具
  6
CONTINUOUS
 10
11.99989999999991
 20
-3.2999999999999541
 30
0.0
 11
11.99989999999991
 21
-14.0
 31
0.0
  0
ARC
  5
303C
  8
ロック金具
  6
CONTINUOUS
 10
7.9999000000000251
 20
-4.27800000000002
 30
0.0
 40
2.7779999999999991
 50
20.61289999999271
 51
159.3869999999952
  0
ARC
  5
303D
  8
ロック金具
  6
CONTINUOUS
 10
7.9999000000000251
 20
4.27800000000002
 30
0.0
 40
2.7779999999999991
 50
200.6130000000048
 51
339.38699999999523
  0
LINE
  5
303E
  8
ロック金具
  6
CONTINUOUS
 10
2.4999000000000251
 20
3.2999999999999541
 30
0.0
 11
1.9999000000000251
 21
2.7999999999999541
 31
0.0
  0
LINE
  5
303F
  8
ロック金具
  6
CONTINUOUS
 10
1.9999000000000251
 20
-2.7999999999999541
 30
0.0
 11
2.4999000000000251
 21
-3.2999999999999541
 31
0.0
  0
ENDBLK
  5
3043
  8
0
  0
BLOCK
  8
0
  2
保護スポンジ
 70
     0
 10
0.0
 20
0.0
 30
0.0
  3
保護スポンジ
  1

  0
LINE
  5
30D9
  8
保護スポンジ
 10
-0.0000034397589843
 20
9.9999977237393978
 30
0.0
 11
447.9999965602409
 21
9.9999977237391704
 31
0.0
  0
LINE
  5
30DA
  8
保護スポンジ
 10
-0.0000034397589843
 20
-0.0000022762606022
 30
0.0
 11
447.9999965602409
 21
-0.0000022762608296
 31
0.0
  0
LINE
  5
30DB
  8
保護スポンジ
 10
-0.0000034397589843
 20
-0.0000022762606022
 30
0.0
 11
-0.0000034397589843
 21
9.9999977237393978
 31
0.0
  0
LINE
  5
30DC
  8
保護スポンジ
 10
447.9999965602409
 20
-0.0000022762608296
 30
0.0
 11
447.9999965602409
 21
9.9999977237391704
 31
0.0
  0
INSERT
  5
509B
  8
AM_8
  6
CONTINUOUS
 62
     8
  2
*X126
 10
0.0
 20
0.0
 30
0.0
1001
GENIUS_GENODEF_13
1002
{
1000
HIER
1070
     0
1002
}
1002
{
1000
MANEDIT
1070
     0
1002
}
1002
{
1000
NOSEL
1070
     0
1002
}
1002
{
1000
BEHIND
1070
     0
1002
}
1002
{
1000
OTHER
1070
     0
1002
}
1002
{
1000
REACTOR
1002
}
1001
GENIUS_GENOBJ-N-HTC_13
1002
{
1000
OWNER
1000
GEN
1002
}
1001
GENIUS_GENHATCH_13
1002
{
1000
DATA
1040
45.0
1042
-2.5
1000
_U
1070
     0
1011
275.82838451424283
1021
0.0
1031
0.0
1021
2.758646399448252
1031
0.0
1002
}
1002
{
1000
UCS
1010
0.0
1020
0.0
1030
0.0
1010
1.0
1020
0.0
1030
0.0
1010
0.0
1020
1.0
1030
0.0
1002
}
1001
ACAD
1000
HATCH
1002
{
1070
    19
1000
DOTS
1040
3.0
1040
0.0
1000
R14_HATCH_DATA
1000
509B
1011
1.0
1021
0.0
1031
0.0
1021
0.0
1031
0.0
1011
0.0
1021
0.0
1031
0.0
1021
1.0
1031
0.0
1011
0.0
1021
0.0
1031
0.0
1021
0.0
1031
1.0
1040
0.0
1010
0.0
1020
0.0
1030
1.0
1000
DOTS
1070
     0
1070
     0
1071
        1
1071
        1
1071
        4
1070
     1
1040
-0.0000034397589843
1040
9.9999977237393978
1040
447.9999965602409
1040
9.9999977237392983
1070
     1
1040
447.9999965602409
1040
9.9999977237391704
1040
447.9999965602409
1040
-0.0000022762608296
1070
     1
1040
447.9999965602409
1040
-0.0000022762608296
1040
-0.0000034397589843
1040
-0.0000022762607301
1070
     1
1040
-0.0000034397589843
1040
-0.0000022762606022
1040
-0.0000034397589821
1040
9.9999977237393978
1071
        0
1070
     0
1070
     1
1040
0.0
1040
3.0
1070
     0
1070
     1
1040
1.5707963267948959
1040
-505.58388234180239
1040
-1598.7238192637269
1040
4.7625000000000002
1040
2.3812499999999979
1070
     2
1040
0.0
1040
-4.7624999999999993
1071
        1
1040
-505.58388234180239
1040
-1598.7238192637269
1040
0.0
1002
}
  0
ENDBLK
  5
30E1
  8
0
  0
BLOCK
  8
0
  2
*D14
 70
     1
 10
0.0
 20
0.0
 30
0.0
  3
*D14
  1

  0
LINE
  5
659E
  8
AM_5
 10
695.13250211273089
 20
955.08387890204312
 30
0.0
 11
744.51298992964723
 21
955.08387890204312
 31
0.0
  0
LINE
  5
659F
  8
AM_5
 10
727.43250211273084
 20
504.08387890204312
 30
0.0
 11
744.51298992964712
 21
504.08387890204312
 31
0.0
  0
LINE
  5
65A0
  8
AM_5
 10
739.51298992964723
 20
947.58387890204301
 30
0.0
 11
739.51298992964701
 21
511.58387890204312
 31
0.0
  0
INSERT
  5
65A1
  8
AM_5
  2
_OPEN30
 10
739.51298992964723
 20
955.08387890204312
 30
0.0
 41
7.5
 42
7.5
 43
7.5
 50
90.0
  0
INSERT
  5
65A2
  8
AM_5
  2
_OPEN30
 10
739.51298992964701
 20
504.08387890204312
 30
0.0
 41
7.5
 42
7.5
 43
7.5
 50
270.0
  0
TEXT
  8
AM_5
  40
17.5
  5
6878
  62
2
  72
0
  71
0
 10
728.263
 20
706.834
 30
0.000000
  1
451
  0
POINT
  5
65A4
  8
DEFPOINTS
 62
     0
 10
690.13250211273078
 20
955.08387890204312
 30
0.0
  0
POINT
  5
65A5
  8
DEFPOINTS
 62
     0
 10
722.43250211273084
 20
504.08387890204312
 30
0.0
  0
POINT
  5
65A6
  8
DEFPOINTS
 62
     0
 10
739.51298992964701
 20
504.08387890204312
 30
0.0
  0
ENDBLK
  5
3746
  8
0
  0
BLOCK
  8
0
  2
*D15
 70
     1
 10
0.0
 20
0.0
 30
0.0
  3
*D15
  1

  0
LINE
  5
658C
  8
AM_5
 10
239.83250211273091
 20
499.08387890204312
 30
0.0
 11
239.83250211273091
 21
441.07094040244908
 31
0.0
  0
LINE
  5
658D
  8
AM_5
 10
722.43250211273084
 20
499.08387890204312
 30
0.0
 11
722.43250211273084
 21
441.07094040244908
 31
0.0
  0
LINE
  5
658E
  8
AM_5
 10
247.33250211273091
 20
446.07094040244908
 30
0.0
 11
714.93250211273084
 21
446.07094040244908
 31
0.0
  0
INSERT
  5
658F
  8
AM_5
  2
_OPEN30
 10
239.83250211273091
 20
446.07094040244908
 30
0.0
 41
7.5
 42
7.5
 43
7.5
 50
180.0
  0
INSERT
  5
6590
  8
AM_5
  2
_OPEN30
 10
722.43250211273084
 20
446.07094040244908
 30
0.0
 41
7.5
 42
7.5
 43
7.5
  0
TEXT
  8
AM_5
  40
17.5
  5
6879
  62
2
  72
0
  71
0
 10
481.133
 20
434.573
 30
0.000000
  1
482.6
  0
POINT
  5
6592
  8
DEFPOINTS
 62
     0
 10
239.83250211273091
 20
504.08387890204312
 30
0.0
  0
POINT
  5
6593
  8
DEFPOINTS
 62
     0
 10
722.43250211273084
 20
504.08387890204312
 30
0.0
  0
POINT
  5
6594
  8
DEFPOINTS
 62
     0
 10
722.43250211273084
 20
446.07094040244908
 30
0.0
  0
ENDBLK
  5
3748
  8
0
  0
BLOCK
  8
0
  2
*D16
 70
     1
 10
0.0
 20
0.0
 30
0.0
  3
*D16
  1

  0
LINE
  5
6595
  8
AM_5
 10
919.11583015771748
 20
169.88410841484139
 30
0.0
 11
919.11583015771748
 21
130.07510153709771
 31
0.0
  0
LINE
  5
6596
  8
AM_5
 10
962.1158301577176
 20
169.88410841484139
 30
0.0
 11
962.1158301577176
 21
130.07510153709771
 31
0.0
  0
LINE
  5
6597
  8
AM_5
 10
926.61583015771737
 20
135.07510153709759
 30
0.0
 11
954.61583015771748
 21
135.07510153709759
 31
0.0
  0
INSERT
  5
6598
  8
AM_5
  2
_OPEN30
 10
919.11583015771748
 20
135.07510153709759
 30
0.0
 41
7.5
 42
7.5
 43
7.5
 50
180.0
  0
INSERT
  5
6599
  8
AM_5
  2
_OPEN30
 10
962.1158301577176
 20
135.07510153709759
 30
0.0
 41
7.5
 42
7.5
 43
7.5
  0
TEXT
  8
AM_5
  40
17.5
  5
687A
  62
2
  72
0
  71
0
 10
940.616
 20
123.575
 30
0.000000
  1
43
  0
POINT
  5
659B
  8
DEFPOINTS
 62
     0
 10
919.11583015771748
 20
174.88410841484139
 30
0.0
  0
POINT
  5
659C
  8
DEFPOINTS
 62
     0
 10
962.1158301577176
 20
174.88410841484139
 30
0.0
  0
POINT
  5
659D
  8
DEFPOINTS
 62
     0
 10
962.1158301577176
 20
135.07510153709759
 30
0.0
  0
ENDBLK
  5
374A
  8
0
  0
BLOCK
  8
0
  2
*D17
 70
     1
 10
0.0
 20
0.0
 30
0.0
  3
*D17
  1

  0
LINE
  5
65A7
  8
AM_5
 10
695.13250211273089
 20
955.08387890204312
 30
0.0
 11
744.51298992964757
 21
955.08387890204312
 31
0.0
  0
LINE
  5
65A8
  8
AM_5
 10
704.33250211273094
 20
981.08387890204312
 30
0.0
 11
744.51298992964757
 21
981.08387890204312
 31
0.0
  0
LINE
  5
65A9
  8
AM_5
 10
739.51298992964757
 20
962.58387890204312
 30
0.0
 11
739.51298992964757
 21
973.58387890204324
 31
0.0
  0
INSERT
  5
65AA
  8
AM_5
  2
_OPEN30
 10
739.51298992964757
 20
955.08387890204312
 30
0.0
 41
7.5
 42
7.5
 43
7.5
 50
270.0
  0
INSERT
  5
65AB
  8
AM_5
  2
_OPEN30
 10
739.51298992964757
 20
981.08387890204312
 30
0.0
 41
7.5
 42
7.5
 43
7.5
 50
90.0
  0
TEXT
  8
AM_5
  40
17.5
  5
687B
  62
2
  72
0
  71
0
 10
728.261
 20
945.334
 30
0.000000
  1
26
  0
POINT
  5
65AD
  8
DEFPOINTS
 62
     0
 10
690.13250211273078
 20
955.08387890204312
 30
0.0
  0
POINT
  5
65AE
  8
DEFPOINTS
 62
     0
 10
699.33250211273094
 20
981.08387890204312
 30
0.0
  0
POINT
  5
65AF
  8
DEFPOINTS
 62
     0
 10
739.51298992964757
 20
981.08387890204312
 30
0.0
  0
ENDBLK
  5
37E4
  8
0
  0
BLOCK
  8
0
  2
*D18
 70
     1
 10
0.0
 20
0.0
 30
0.0
  3
*D18
  1

  0
LINE
  5
65B0
  8
AM_5
 10
236.83250211273091
 20
274.45462079507888
 30
0.0
 11
221.3800744204805
 21
274.45462079507888
 31
0.0
  0
LINE
  5
65B1
  8
AM_5
 10
240.58250211273091
 20
312.1546207950787
 30
0.0
 11
221.3800744204805
 21
312.1546207950787
 31
0.0
  0
LINE
  5
65B2
  8
AM_5
 10
226.3800744204805
 20
281.95462079507888
 30
0.0
 11
226.3800744204805
 21
304.6546207950787
 31
0.0
  0
TEXT
  8
AM_5
  40
15
  5
687C
  62
2
  72
0
  71
0
 10
216.819
 20
275.469
 30
0.000000
  1
37.7
  0
INSERT
  5
65B4
  8
AM_5
  2
_OPEN30
 10
226.3800744204805
 20
274.45462079507888
 30
0.0
 41
7.5
 42
7.5
 43
7.5
 50
270.0
  0
INSERT
  5
65B5
  8
AM_5
  2
_OPEN30
 10
226.3800744204805
 20
312.1546207950787
 30
0.0
 41
7.5
 42
7.5
 43
7.5
 50
90.0
  0
POINT
  5
65B6
  8
DEFPOINTS
 62
     0
 10
241.83250211273091
 20
274.45462079507888
 30
0.0
  0
POINT
  5
65B7
  8
DEFPOINTS
 62
     0
 10
245.58250211273099
 20
312.1546207950787
 30
0.0
  0
POINT
  5
65B8
  8
DEFPOINTS
 62
     0
 10
226.3800744204805
 20
312.1546207950787
 30
0.0
  0
ENDBLK
  5
3AB5
  8
0
  0
BLOCK
  8
0
  2
*D19
 70
     1
 10
0.0
 20
0.0
 30
0.0
  3
*D19
  1

  0
LINE
  5
65B9
  8
AM_5
 10
240.58250211273091
 20
369.25462079507861
 30
0.0
 11
221.38007442048041
 21
369.25462079507861
 31
0.0
  0
LINE
  5
65BA
  8
AM_5
 10
240.58250211273091
 20
312.1546207950787
 30
0.0
 11
221.38007442048041
 21
312.1546207950787
 31
0.0
  0
LINE
  5
65BB
  8
AM_5
 10
226.38007442048041
 20
361.75462079507861
 30
0.0
 11
226.38007442048041
 21
319.6546207950787
 31
0.0
  0
INSERT
  5
65BC
  8
AM_5
  2
_OPEN30
 10
226.38007442048041
 20
369.25462079507861
 30
0.0
 41
7.5
 42
7.5
 43
7.5
 50
90.0
  0
INSERT
  5
65BD
  8
AM_5
  2
_OPEN30
 10
226.38007442048041
 20
312.1546207950787
 30
0.0
 41
7.5
 42
7.5
 43
7.5
 50
270.0
  0
TEXT
  8
AM_5
  40
15
  5
687D
  62
2
  72
0
  71
0
 10
216.380
 20
321.205
 30
0.000000
  1
57.1
  0
POINT
  5
65BF
  8
DEFPOINTS
 62
     0
 10
245.58250211273099
 20
369.25462079507861
 30
0.0
  0
POINT
  5
65C0
  8
DEFPOINTS
 62
     0
 10
245.58250211273099
 20
312.1546207950787
 30
0.0
  0
POINT
  5
65C1
  8
DEFPOINTS
 62
     0
 10
226.38007442048041
 20
312.1546207950787
 30
0.0
  0
ENDBLK
  5
3AB7
  8
0
  0
BLOCK
  8
0
  2
*D20
 70
     1
 10
0.0
 20
0.0
 30
0.0
  3
*D20
  1

  0
LINE
  5
65C2
  8
AM_5
 10
236.83250211273091
 20
406.95462079507882
 30
0.0
 11
221.3800744204805
 21
406.95462079507882
 31
0.0
  0
LINE
  5
65C3
  8
AM_5
 10
240.58250211273091
 20
369.25462079507861
 30
0.0
 11
221.3800744204805
 21
369.25462079507861
 31
0.0
  0
LINE
  5
65C4
  8
AM_5
 10
226.3800744204805
 20
399.45462079507882
 30
0.0
 11
226.3800744204805
 21
376.75462079507861
 31
0.0
  0
TEXT
  8
AM_5
  40
15
  5
687E
  62
2
  72
0
  71
0
 10
217.317
 20
369.478
 30
0.000000
  1
37.7
  0
INSERT
  5
65C6
  8
AM_5
  2
_OPEN30
 10
226.3800744204805
 20
406.95462079507882
 30
0.0
 41
7.5
 42
7.5
 43
7.5
 50
90.0
  0
INSERT
  5
65C7
  8
AM_5
  2
_OPEN30
 10
226.3800744204805
 20
369.25462079507861
 30
0.0
 41
7.5
 42
7.5
 43
7.5
 50
270.0
  0
POINT
  5
65C8
  8
DEFPOINTS
 62
     0
 10
241.83250211273091
 20
406.95462079507882
 30
0.0
  0
POINT
  5
65C9
  8
DEFPOINTS
 62
     0
 10
245.58250211273099
 20
369.25462079507861
 30
0.0
  0
POINT
  5
65CA
  8
DEFPOINTS
 62
     0
 10
226.3800744204805
 20
369.25462079507861
 30
0.0
  0
ENDBLK
  5
3AB9
  8
0
  0
BLOCK
  8
0
  2
*D21
 70
     1
 10
0.0
 20
0.0
 30
0.0
  3
*D21
  1

  0
LINE
  5
65CB
  8
AM_5
 10
236.83250211273091
 20
274.45462079507888
 30
0.0
 11
200.308399340422
 21
274.45462079507888
 31
0.0
  0
LINE
  5
65CC
  8
AM_5
 10
236.83250211273091
 20
406.95462079507882
 30
0.0
 11
200.30839934042211
 21
406.95462079507882
 31
0.0
  0
LINE
  5
65CD
  8
AM_5
 10
205.30839934042211
 20
281.95462079507888
 30
0.0
 11
205.30839934042211
 21
399.45462079507888
 31
0.0
  0
INSERT
  5
65CE
  8
AM_5
  2
_OPEN30
 10
205.30839934042211
 20
274.45462079507888
 30
0.0
 41
7.5
 42
7.5
 43
7.5
 50
270.0
  0
INSERT
  5
65CF
  8
AM_5
  2
_OPEN30
 10
205.30839934042211
 20
406.95462079507882
 30
0.0
 41
7.5
 42
7.5
 43
7.5
 50
90.0
  0
TEXT
  8
AM_5
  40
17.5
  5
687F
  62
2
  72
0
  71
0
 10
194.057
 20
317.955
 30
0.000000
  1
132.5
  0
POINT
  5
65D1
  8
DEFPOINTS
 62
     0
 10
241.83250211273091
 20
274.45462079507888
 30
0.0
  0
POINT
  5
65D2
  8
DEFPOINTS
 62
     0
 10
241.83250211273091
 20
406.95462079507882
 30
0.0
  0
POINT
  5
65D3
  8
DEFPOINTS
 62
     0
 10
205.30839934042211
 20
406.95462079507882
 30
0.0
  0
ENDBLK
  5
3AE3
  8
0
  0
BLOCK
  8
0
  2
*D22
 70
     1
 10
0.0
 20
0.0
 30
0.0
  3
*D22
  1

  0
LINE
  5
65D4
  8
AM_5
 10
239.83250211273091
 20
271.45462079507888
 30
0.0
 11
239.83250211273091
 21
221.4546207950788
 31
0.0
  0
LINE
  5
65D5
  8
AM_5
 10
262.63250211273089
 20
269.45462079507888
 30
0.0
 11
262.63250211273089
 21
221.4546207950788
 31
0.0
  0
LINE
  5
65D6
  8
AM_5
 10
247.33250211273091
 20
226.4546207950788
 30
0.0
 11
255.13250211273089
 21
226.4546207950788
 31
0.0
  0
LINE
  5
65D7
  8
AM_5
 10
195.337632359537
 20
226.4546207950788
 30
0.0
 11
239.83250211273091
 21
226.4546207950788
 31
0.0
  0
TEXT
  8
AM_5
  40
15
  5
6880
  62
2
  72
0
  71
0
 10
213.778
 20
216.956
 30
0.000000
  1
22.8
  0
INSERT
  5
65D9
  8
AM_5
  2
_OPEN30
 10
239.83250211273091
 20
226.4546207950788
 30
0.0
 41
7.5
 42
7.5
 43
7.5
 50
180.0
  0
INSERT
  5
65DA
  8
AM_5
  2
_OPEN30
 10
262.63250211273089
 20
226.4546207950788
 30
0.0
 41
7.5
 42
7.5
 43
7.5
  0
POINT
  5
65DB
  8
DEFPOINTS
 62
     0
 10
239.83250211273091
 20
276.45462079507888
 30
0.0
  0
POINT
  5
65DC
  8
DEFPOINTS
 62
     0
 10
262.63250211273089
 20
274.45462079507888
 30
0.0
  0
POINT
  5
65DD
  8
DEFPOINTS
 62
     0
 10
262.63250211273089
 20
226.4546207950788
 30
0.0
  0
ENDBLK
  5
3DA6
  8
0
  0
BLOCK
  8
0
  2
*D23
 70
     1
 10
0.0
 20
0.0
 30
0.0
  3
*D23
  1

  0
LINE
  5
65DE
  8
AM_5
 10
262.63250211273089
 20
269.45462079507888
 30
0.0
 11
262.63250211273089
 21
221.4546207950788
 31
0.0
  0
LINE
  5
65DF
  8
AM_5
 10
263.63250211273089
 20
269.95462079507888
 30
0.0
 11
263.63250211273089
 21
221.4546207950788
 31
0.0
  0
LINE
  5
65E0
  8
AM_5
 10
255.13250211273089
 20
226.4546207950788
 30
0.0
 11
247.63250211273089
 21
226.4546207950788
 31
0.0
  0
LINE
  5
65E1
  8
AM_5
 10
271.13250211273089
 20
226.4546207950788
 30
0.0
 11
278.63250211273089
 21
226.4546207950788
 31
0.0
  0
TEXT
  8
AM_5
  40
15
  5
6881
  62
2
  72
0
  71
0
 10
272.696
 20
216.712
 30
0.000000
  1
1
  0
LINE
  5
65E3
  8
AM_5
 10
262.63250211273089
 20
226.4546207950788
 30
0.0
 11
263.63250211273089
 21
226.4546207950788
 31
0.0
  0
INSERT
  5
65E4
  8
AM_5
  2
_OPEN30
 10
262.63250211273089
 20
226.4546207950788
 30
0.0
 41
7.5
 42
7.5
 43
7.5
  0
INSERT
  5
65E5
  8
AM_5
  2
_OPEN30
 10
263.63250211273089
 20
226.4546207950788
 30
0.0
 41
7.5
 42
7.5
 43
7.5
 50
180.0
  0
POINT
  5
65E6
  8
DEFPOINTS
 62
     0
 10
262.63250211273089
 20
274.45462079507888
 30
0.0
  0
POINT
  5
65E7
  8
DEFPOINTS
 62
     0
 10
263.63250211273089
 20
274.95462079507888
 30
0.0
  0
POINT
  5
65E8
  8
DEFPOINTS
 62
     0
 10
263.63250211273089
 20
226.4546207950788
 30
0.0
  0
ENDBLK
  5
3DA8
  8
0
  0
BLOCK
  8
0
  2
*D24
 70
     1
 10
0.0
 20
0.0
 30
0.0
  3
*D24
  1

  0
LINE
  5
65E9
  8
AM_5
 10
263.63250211273089
 20
269.95462079507888
 30
0.0
 11
263.63250211273089
 21
221.45462079507931
 31
0.0
  0
LINE
  5
65EA
  8
AM_5
 10
698.632502112731
 20
269.95462079507888
 30
0.0
 11
698.632502112731
 21
221.45462079507931
 31
0.0
  0
LINE
  5
65EB
  8
AM_5
 10
271.13250211273089
 20
226.45462079507931
 30
0.0
 11
691.132502112731
 21
226.45462079507931
 31
0.0
  0
INSERT
  5
65EC
  8
AM_5
  2
_OPEN30
 10
263.63250211273089
 20
226.45462079507931
 30
0.0
 41
7.5
 42
7.5
 43
7.5
 50
180.0
  0
INSERT
  5
65ED
  8
AM_5
  2
_OPEN30
 10
698.632502112731
 20
226.45462079507931
 30
0.0
 41
7.5
 42
7.5
 43
7.5
  0
TEXT
  8
AM_5
  40
17.5
  5
6882
  62
2
  72
0
  71
0
 10
481.133
 20
214.955
 30
0.000000
  1
435
  0
POINT
  5
65EF
  8
DEFPOINTS
 62
     0
 10
263.63250211273089
 20
274.95462079507888
 30
0.0
  0
POINT
  5
65F0
  8
DEFPOINTS
 62
     0
 10
698.632502112731
 20
274.95462079507888
 30
0.0
  0
POINT
  5
65F1
  8
DEFPOINTS
 62
     0
 10
698.632502112731
 20
226.45462079507931
 30
0.0
  0
ENDBLK
  5
3DAA
  8
0
  0
BLOCK
  8
0
  2
*D25
 70
     1
 10
0.0
 20
0.0
 30
0.0
  3
*D25
  1

  0
LINE
  5
65F2
  8
AM_5
 10
698.63250211273078
 20
269.95462079507888
 30
0.0
 11
698.63250211273078
 21
221.4546207950799
 31
0.0
  0
LINE
  5
65F3
  8
AM_5
 10
699.63250211273066
 20
269.45462079507888
 30
0.0
 11
699.63250211273066
 21
221.4546207950799
 31
0.0
  0
LINE
  5
65F4
  8
AM_5
 10
691.13250211273089
 20
226.45462079507979
 30
0.0
 11
683.63250211273089
 21
226.45462079507979
 31
0.0
  0
LINE
  5
65F5
  8
AM_5
 10
707.13250211273066
 20
226.45462079507979
 30
0.0
 11
714.63250211273066
 21
226.45462079507979
 31
0.0
  0
TEXT
  8
AM_5
  40
15
  5
6883
  62
2
  72
0
  71
0
 10
688.294
 20
216.673
 30
0.000000
  1
1
  0
LINE
  5
65F7
  8
AM_5
 10
698.63250211273078
 20
226.45462079507979
 30
0.0
 11
699.63250211273066
 21
226.45462079507979
 31
0.0
  0
INSERT
  5
65F8
  8
AM_5
  2
_OPEN30
 10
698.63250211273078
 20
226.45462079507979
 30
0.0
 41
7.5
 42
7.5
 43
7.5
  0
INSERT
  5
65F9
  8
AM_5
  2
_OPEN30
 10
699.63250211273066
 20
226.45462079507979
 30
0.0
 41
7.5
 42
7.5
 43
7.5
 50
180.0
  0
POINT
  5
65FA
  8
DEFPOINTS
 62
     0
 10
698.63250211273078
 20
274.95462079507888
 30
0.0
  0
POINT
  5
65FB
  8
DEFPOINTS
 62
     0
 10
699.63250211273066
 20
274.45462079507888
 30
0.0
  0
POINT
  5
65FC
  8
DEFPOINTS
 62
     0
 10
699.63250211273066
 20
226.45462079507979
 30
0.0
  0
ENDBLK
  5
3DAC
  8
0
  0
BLOCK
  8
0
  2
*D26
 70
     1
 10
0.0
 20
0.0
 30
0.0
  3
*D26
  1

  0
LINE
  5
65FD
  8
AM_5
 10
699.63250211273089
 20
269.45462079507888
 30
0.0
 11
699.63250211273089
 21
221.4546207950799
 31
0.0
  0
LINE
  5
65FE
  8
AM_5
 10
722.43250211273084
 20
271.45462079507888
 30
0.0
 11
722.43250211273084
 21
221.4546207950799
 31
0.0
  0
LINE
  5
65FF
  8
AM_5
 10
707.13250211273078
 20
226.45462079507979
 30
0.0
 11
714.93250211273084
 21
226.45462079507979
 31
0.0
  0
LINE
  5
6600
  8
AM_5
 10
767.27407866215674
 20
226.45462079507979
 30
0.0
 11
722.43250211273084
 21
226.45462079507979
 31
0.0
  0
TEXT
  8
AM_5
  40
15
  5
6884
  62
2
  72
0
  71
0
 10
748.834
 20
216.956
 30
0.000000
  1
22.8
  0
INSERT
  5
6602
  8
AM_5
  2
_OPEN30
 10
699.63250211273089
 20
226.45462079507979
 30
0.0
 41
7.5
 42
7.5
 43
7.5
 50
180.0
  0
INSERT
  5
6603
  8
AM_5
  2
_OPEN30
 10
722.43250211273084
 20
226.45462079507979
 30
0.0
 41
7.5
 42
7.5
 43
7.5
  0
POINT
  5
6604
  8
DEFPOINTS
 62
     0
 10
699.63250211273089
 20
274.45462079507888
 30
0.0
  0
POINT
  5
6605
  8
DEFPOINTS
 62
     0
 10
722.43250211273084
 20
276.45462079507888
 30
0.0
  0
POINT
  5
6606
  8
DEFPOINTS
 62
     0
 10
722.43250211273084
 20
226.45462079507979
 30
0.0
  0
ENDBLK
  5
3DAE
  8
0
  0
BLOCK
  8
0
  2
*D27
 70
     1
 10
0.0
 20
0.0
 30
0.0
  3
*D27
  1

  0
LINE
  5
6607
  8
AM_5
 10
239.83250211273091
 20
271.45462079507888
 30
0.0
 11
239.83250211273091
 21
240.2202819610165
 31
0.0
  0
LINE
  5
6608
  8
AM_5
 10
247.83250211273099
 20
303.9046207950787
 30
0.0
 11
247.83250211273099
 21
240.2202819610165
 31
0.0
  0
LINE
  5
6609
  8
AM_5
 10
232.33250211273091
 20
245.22028196101661
 30
0.0
 11
224.83250211273099
 21
245.22028196101661
 31
0.0
  0
LINE
  5
660A
  8
AM_5
 10
255.33250211273091
 20
245.22028196101661
 30
0.0
 11
262.83250211273088
 21
245.22028196101661
 31
0.0
  0
TEXT
  8
AM_5
  40
15
  5
6885
  62
2
  72
0
  71
0
 10
252.129
 20
235.514
 30
0.000000
  1
8
  0
LINE
  5
660C
  8
AM_5
 10
239.83250211273091
 20
245.22028196101661
 30
0.0
 11
247.83250211273099
 21
245.22028196101661
 31
0.0
  0
INSERT
  5
660D
  8
AM_5
  2
_OPEN30
 10
239.83250211273091
 20
245.22028196101661
 30
0.0
 41
7.5
 42
7.5
 43
7.5
  0
INSERT
  5
660E
  8
AM_5
  2
_OPEN30
 10
247.83250211273099
 20
245.22028196101661
 30
0.0
 41
7.5
 42
7.5
 43
7.5
 50
180.0
  0
POINT
  5
660F
  8
DEFPOINTS
 62
     0
 10
239.83250211273091
 20
276.45462079507888
 30
0.0
  0
POINT
  5
6610
  8
DEFPOINTS
 62
     0
 10
247.83250211273099
 20
308.9046207950787
 30
0.0
  0
POINT
  5
6611
  8
DEFPOINTS
 62
     0
 10
247.83250211273099
 20
245.22028196101661
 30
0.0
  0
ENDBLK
  5
3E4A
  8
0
  0
BLOCK
  8
0
  2
*D28
 70
     1
 10
0.0
 20
0.0
 30
0.0
  3
*D28
  1

  0
LINE
  5
57B1
  8
AM_5
 10
255.16461468964741
 20
321.30588401735002
 30
0.0
 11
286.17566062610621
 21
350.92255172861587
 31
0.0
  0
LINE
  5
57B2
  8
AM_5
 10
286.17566062610621
 20
350.92255172861587
 30
0.0
 11
379.97566062610622
 21
350.92255172861587
 31
0.0
  0
INSERT
  5
57B3
  8
AM_5
  2
_OPEN30
 10
247.93283161272919
 20
314.3992702646924
 30
0.0
 41
10.0
 42
10.0
 43
10.0
 50
223.68248527633659
  0
INSERT
  5
57B4
  8
ﾃ_ﾌ_ﾙ
  2
*U127
 10
0.0
 20
0.0
 30
0.0
  0
POINT
  5
57B5
  8
DEFPOINTS
 62
     0
 10
247.93283161272919
 20
314.3992702646924
 30
0.0
  0
POINT
  5
57B6
  8
DEFPOINTS
 62
     0
 10
245.58250211273099
 20
312.15462079507881
 30
0.0
  0
ENDBLK
  5
3E8F
  8
0
  0
BLOCK
  8
0
  2
*D29
 70
     1
 10
0.0
 20
0.0
 30
0.0
  3
*D29
  1

  0
LINE
  5
6612
  8
AM_5
 10
909.17234334533214
 20
854.08410841484158
 30
0.0
 11
772.06302865667669
 21
854.08410841484158
 31
0.0
  0
LINE
  5
6613
  8
AM_5
 10
825.11583015771737
 20
504.08410841484169
 30
0.0
 11
772.06302865667647
 21
504.08410841484169
 31
0.0
  0
LINE
  5
6614
  8
AM_5
 10
777.06302865667669
 20
846.58410841484169
 30
0.0
 11
777.06302865667647
 21
511.58410841484158
 31
0.0
  0
INSERT
  5
6615
  8
AM_5
  2
_OPEN30
 10
777.06302865667669
 20
854.08410841484158
 30
0.0
 41
7.5
 42
7.5
 43
7.5
 50
90.0
  0
INSERT
  5
6616
  8
AM_5
  2
_OPEN30
 10
777.06302865667647
 20
504.08410841484169
 30
0.0
 41
7.5
 42
7.5
 43
7.5
 50
270.0
  0
TEXT
  8
AM_5
  40
17.5
  5
6886
  62
2
  72
0
  71
0
 10
765.813
 20
656.334
 30
0.000000
  1
350
  0
POINT
  5
6618
  8
DEFPOINTS
 62
     0
 10
914.17234334533214
 20
854.08410841484158
 30
0.0
  0
POINT
  5
6619
  8
DEFPOINTS
 62
     0
 10
830.11583015771737
 20
504.08410841484169
 30
0.0
  0
POINT
  5
661A
  8
DEFPOINTS
 62
     0
 10
777.06302865667647
 20
504.08410841484169
 30
0.0
  0
ENDBLK
  5
3FFB
  8
0
  0
BLOCK
  8
0
  2
*D30
 70
     1
 10
0.0
 20
0.0
 30
0.0
  3
*D30
  1

  0
LINE
  5
661B
  8
AM_5
 10
967.61583015771737
 20
504.08410841484141
 30
0.0
 11
1033.6158311577169
 21
504.08410841484141
 31
0.0
  0
LINE
  5
661C
  8
AM_5
 10
967.61583015776307
 20
955.08410841484135
 30
0.0
 11
1033.6158311577169
 21
955.08410841484135
 31
0.0
  0
LINE
  5
661D
  8
AM_5
 10
1028.615831157718
 20
511.58410841484141
 30
0.0
 11
1028.615831157718
 21
947.58410841484135
 31
0.0
  0
INSERT
  5
661E
  8
AM_5
  2
_OPEN30
 10
1028.615831157718
 20
504.08410841484141
 30
0.0
 41
7.5
 42
7.5
 43
7.5
 50
270.0
  0
INSERT
  5
661F
  8
AM_5
  2
_OPEN30
 10
1028.615831157718
 20
955.08410841484135
 30
0.0
 41
7.5
 42
7.5
 43
7.5
 50
90.0
  0
TEXT
  8
AM_5
  40
17.5
  5
6887
  62
2
  72
0
  71
0
 10
1017.37
 20
706.834
 30
0.000000
  1
451
  0
POINT
  5
6621
  8
DEFPOINTS
 62
     0
 10
962.61583015771748
 20
504.08410841484141
 30
0.0
  0
POINT
  5
6622
  8
DEFPOINTS
 62
     0
 10
962.61583015776318
 20
955.08410841484135
 30
0.0
  0
POINT
  5
6623
  8
DEFPOINTS
 62
     0
 10
1028.615831157718
 20
955.08410841484135
 30
0.0
  0
ENDBLK
  5
40B9
  8
0
  0
BLOCK
  8
0
  2
*D31
 70
     1
 10
0.0
 20
0.0
 30
0.0
  3
*D31
  1

  0
LINE
  5
6624
  8
AM_5
 10
967.61583015776307
 20
955.08410841484135
 30
0.0
 11
1003.615831157717
 21
955.08410841484135
 31
0.0
  0
LINE
  5
6625
  8
AM_5
 10
965.1158301577176
 20
981.08410841484135
 30
0.0
 11
1003.615831157717
 21
981.08410841484135
 31
0.0
  0
LINE
  5
6626
  8
AM_5
 10
998.61583115771759
 20
962.58410841484135
 30
0.0
 11
998.61583115771759
 21
973.58410841484135
 31
0.0
  0
INSERT
  5
6627
  8
AM_5
  2
_OPEN30
 10
998.61583115771759
 20
955.08410841484135
 30
0.0
 41
7.5
 42
7.5
 43
7.5
 50
270.0
  0
INSERT
  5
6628
  8
AM_5
  2
_OPEN30
 10
998.61583115771759
 20
981.08410841484135
 30
0.0
 41
7.5
 42
7.5
 43
7.5
 50
90.0
  0
TEXT
  8
AM_5
  40
17.5
  5
6888
  62
2
  72
0
  71
0
 10
987.364
 20
945.334
 30
0.000000
  1
26
  0
POINT
  5
662A
  8
DEFPOINTS
 62
     0
 10
962.61583015776318
 20
955.08410841484135
 30
0.0
  0
POINT
  5
662B
  8
DEFPOINTS
 62
     0
 10
960.11583015771748
 20
981.08410841484135
 30
0.0
  0
POINT
  5
662C
  8
DEFPOINTS
 62
     0
 10
998.61583115771759
 20
981.08410841484135
 30
0.0
  0
ENDBLK
  5
40BB
  8
0
  0
BLOCK
  8
0
  2
*D32
 70
     1
 10
0.0
 20
0.0
 30
0.0
  3
*D32
  1

  0
LINE
  5
662D
  8
AM_5
 10
967.61583015771737
 20
504.08410841484141
 30
0.0
 11
1063.615831157718
 21
504.08410841484141
 31
0.0
  0
LINE
  5
662E
  8
AM_5
 10
965.1158301577176
 20
981.08387890204335
 30
0.0
 11
1063.615831157719
 21
981.08387890204335
 31
0.0
  0
LINE
  5
662F
  8
AM_5
 10
1058.615831157718
 20
511.58410841484141
 30
0.0
 11
1058.615831157719
 21
973.58387890204324
 31
0.0
  0
INSERT
  5
6630
  8
AM_5
  2
_OPEN30
 10
1058.615831157718
 20
504.08410841484141
 30
0.0
 41
7.5
 42
7.5
 43
7.5
 50
270.0
  0
INSERT
  5
6631
  8
AM_5
  2
_OPEN30
 10
1058.615831157719
 20
981.08387890204335
 30
0.0
 41
7.5
 42
7.5
 43
7.5
 50
90.0
  0
TEXT
  8
AM_5
  40
17.5
  5
6889
  62
2
  72
0
  71
0
 10
1047.37
 20
719.834
 30
0.000000
  1
477
  0
POINT
  5
6633
  8
DEFPOINTS
 62
     0
 10
962.61583015771748
 20
504.08410841484141
 30
0.0
  0
POINT
  5
6634
  8
DEFPOINTS
 62
     0
 10
960.11583015771748
 20
981.08387890204335
 30
0.0
  0
POINT
  5
6635
  8
DEFPOINTS
 62
     0
 10
1058.615831157719
 20
981.08387890204335
 30
0.0
  0
ENDBLK
  5
40BD
  8
0
  0
BLOCK
  8
0
  2
*D33
 70
     1
 10
0.0
 20
0.0
 30
0.0
  3
*D33
  1

  0
LINE
  5
6636
  8
AM_5
 10
967.61583015771737
 20
504.08410841484141
 30
0.0
 11
1003.615831157719
 21
504.08410841484141
 31
0.0
  0
LINE
  5
6637
  8
AM_5
 10
945.61583015771737
 20
542.68410841484138
 30
0.0
 11
1003.615831157719
 21
542.68410841484138
 31
0.0
  0
LINE
  5
6638
  8
AM_5
 10
998.61583115771896
 20
511.58410841484141
 30
0.0
 11
998.61583115771896
 21
535.18410841484138
 31
0.0
  0
TEXT
  8
AM_5
  40
15
  5
688A
  62
2
  72
0
  71
0
 10
988.958
 20
504.663
 30
0.000000
  1
38.6
  0
INSERT
  5
663A
  8
AM_5
  2
_OPEN30
 10
998.61583115771896
 20
504.08410841484141
 30
0.0
 41
7.5
 42
7.5
 43
7.5
 50
270.0
  0
INSERT
  5
663B
  8
AM_5
  2
_OPEN30
 10
998.61583115771896
 20
542.68410841484138
 30
0.0
 41
7.5
 42
7.5
 43
7.5
 50
90.0
  0
POINT
  5
663C
  8
DEFPOINTS
 62
     0
 10
962.61583015771748
 20
504.08410841484141
 30
0.0
  0
POINT
  5
663D
  8
DEFPOINTS
 62
     0
 10
940.61583015771748
 20
542.68410841484138
 30
0.0
  0
POINT
  5
663E
  8
DEFPOINTS
 62
     0
 10
998.61583115771896
 20
542.68410841484138
 30
0.0
  0
ENDBLK
  5
40BF
  8
0
  0
BLOCK
  8
0
  2
*D34
 70
     1
 10
0.0
 20
0.0
 30
0.0
  3
*D34
  1

  0
LINE
  5
663F
  8
AM_5
 10
945.61583015771737
 20
542.68410841484149
 30
0.0
 11
1003.615831157719
 21
542.68410841484149
 31
0.0
  0
LINE
  5
6640
  8
AM_5
 10
945.61583015771737
 20
641.08410841484135
 30
0.0
 11
1003.615831157719
 21
641.08410841484135
 31
0.0
  0
LINE
  5
6641
  8
AM_5
 10
998.61583115771896
 20
550.18410841484149
 30
0.0
 11
998.61583115771896
 21
633.58410841484135
 31
0.0
  0
INSERT
  5
6642
  8
AM_5
  2
_OPEN30
 10
998.61583115771896
 20
542.68410841484149
 30
0.0
 41
7.5
 42
7.5
 43
7.5
 50
270.0
  0
INSERT
  5
6643
  8
AM_5
  2
_OPEN30
 10
998.61583115771896
 20
641.08410841484135
 30
0.0
 41
7.5
 42
7.5
 43
7.5
 50
90.0
  0
TEXT
  8
AM_5
  40
17.5
  5
688B
  62
2
  72
0
  71
0
 10
987.366
 20
569.134
 30
0.000000
  1
98.4
  0
POINT
  5
6645
  8
DEFPOINTS
 62
     0
 10
940.61583015771748
 20
542.68410841484149
 30
0.0
  0
POINT
  5
6646
  8
DEFPOINTS
 62
     0
 10
940.61583015771748
 20
641.08410841484135
 30
0.0
  0
POINT
  5
6647
  8
DEFPOINTS
 62
     0
 10
998.61583115771896
 20
641.08410841484135
 30
0.0
  0
ENDBLK
  5
40C1
  8
0
  0
BLOCK
  8
0
  2
*D35
 70
     1
 10
0.0
 20
0.0
 30
0.0
  3
*D35
  1

  0
LINE
  5
6648
  8
AM_5
 10
945.61583015771737
 20
641.08410841484135
 30
0.0
 11
1003.615831157719
 21
641.08410841484135
 31
0.0
  0
LINE
  5
6649
  8
AM_5
 10
945.61583015771737
 20
742.68387890204326
 30
0.0
 11
1003.615831157719
 21
742.68387890204326
 31
0.0
  0
LINE
  5
664A
  8
AM_5
 10
998.61583115771862
 20
648.58410841484147
 30
0.0
 11
998.61583115771862
 21
735.18387890204315
 31
0.0
  0
INSERT
  5
664B
  8
AM_5
  2
_OPEN30
 10
998.61583115771862
 20
641.08410841484135
 30
0.0
 41
7.5
 42
7.5
 43
7.5
 50
270.0
  0
INSERT
  5
664C
  8
AM_5
  2
_OPEN30
 10
998.61583115771862
 20
742.68387890204326
 30
0.0
 41
7.5
 42
7.5
 43
7.5
 50
90.0
  0
TEXT
  8
AM_5
  40
17.5
  5
688C
  62
2
  72
0
  71
0
 10
987.366
 20
669.134
 30
0.000000
  1
101.6
  0
POINT
  5
664E
  8
DEFPOINTS
 62
     0
 10
940.61583015771748
 20
641.08410841484135
 30
0.0
  0
POINT
  5
664F
  8
DEFPOINTS
 62
     0
 10
940.61583015771748
 20
742.68387890204326
 30
0.0
  0
POINT
  5
6650
  8
DEFPOINTS
 62
     0
 10
998.61583115771862
 20
742.68387890204326
 30
0.0
  0
ENDBLK
  5
40C3
  8
0
  0
BLOCK
  8
0
  2
*D36
 70
     1
 10
0.0
 20
0.0
 30
0.0
  3
*D36
  1

  0
LINE
  5
6651
  8
AM_5
 10
945.61583015771737
 20
831.58410841484147
 30
0.0
 11
1003.615831157718
 21
831.58410841484147
 31
0.0
  0
LINE
  5
6652
  8
AM_5
 10
967.61583015771737
 20
854.08410841484135
 30
0.0
 11
1003.615831157718
 21
854.08410841484135
 31
0.0
  0
LINE
  5
6653
  8
AM_5
 10
998.61583115771862
 20
839.08410841484135
 30
0.0
 11
998.61583115771862
 21
846.58410841484135
 31
0.0
  0
LINE
  5
6654
  8
AM_5
 10
998.61583115771862
 20
910.60613015872616
 30
0.0
 11
998.61583115771862
 21
854.08410841484135
 31
0.0
  0
TEXT
  8
AM_5
  40
17.5
  5
688D
  62
2
  72
0
  71
0
 10
987.364
 20
866.396
 30
0.000000
  1
22.5
  0
INSERT
  5
6656
  8
AM_5
  2
_OPEN30
 10
998.61583115771862
 20
831.58410841484147
 30
0.0
 41
7.5
 42
7.5
 43
7.5
 50
270.0
  0
INSERT
  5
6657
  8
AM_5
  2
_OPEN30
 10
998.61583115771862
 20
854.08410841484135
 30
0.0
 41
7.5
 42
7.5
 43
7.5
 50
90.0
  0
POINT
  5
6658
  8
DEFPOINTS
 62
     0
 10
940.61583015771748
 20
831.58410841484147
 30
0.0
  0
POINT
  5
6659
  8
DEFPOINTS
 62
     0
 10
962.61583015771748
 20
854.08410841484135
 30
0.0
  0
POINT
  5
665A
  8
DEFPOINTS
 62
     0
 10
998.61583115771862
 20
854.08410841484135
 30
0.0
  0
ENDBLK
  5
40C5
  8
0
  0
BLOCK
  8
0
  2
*D37
 70
     1
 10
0.0
 20
0.0
 30
0.0
  3
*D37
  1

  0
LINE
  5
665B
  8
AM_5
 10
940.61583015771748
 20
834.98410841484144
 30
0.0
 11
940.61583015771748
 21
895.08410841484135
 31
0.0
  0
LINE
  5
665C
  8
AM_5
 10
962.61583015771748
 20
859.08410841484135
 30
0.0
 11
962.61583015771748
 21
895.08410841484135
 31
0.0
  0
LINE
  5
665D
  8
AM_5
 10
948.11583015771737
 20
890.08410841484135
 30
0.0
 11
955.11583015771737
 21
890.08410841484135
 31
0.0
  0
TEXT
  8
AM_5
  40
17.5
  5
688E
  62
2
  72
0
  71
0
 10
951.059
 20
878.586
 30
0.000000
  1
22
  0
INSERT
  5
665F
  8
AM_5
  2
_OPEN30
 10
940.61583015771748
 20
890.08410841484135
 30
0.0
 41
7.5
 42
7.5
 43
7.5
 50
180.0
  0
INSERT
  5
6660
  8
AM_5
  2
_OPEN30
 10
962.61583015771748
 20
890.08410841484135
 30
0.0
 41
7.5
 42
7.5
 43
7.5
  0
POINT
  5
6661
  8
DEFPOINTS
 62
     0
 10
940.61583015771748
 20
829.98410841484144
 30
0.0
  0
POINT
  5
6662
  8
DEFPOINTS
 62
     0
 10
962.61583015771748
 20
854.08410841484135
 30
0.0
  0
POINT
  5
6663
  8
DEFPOINTS
 62
     0
 10
962.61583015771748
 20
890.08410841484135
 30
0.0
  0
ENDBLK
  5
40C7
  8
0
  0
BLOCK
  8
0
  2
*D38
 70
     1
 10
0.0
 20
0.0
 30
0.0
  3
*D38
  1

  0
LINE
  5
6664
  8
AM_5
 10
967.61583015771737
 20
504.08410841484141
 30
0.0
 11
1003.6158301577181
 21
504.08410841484141
 31
0.0
  0
LINE
  5
6665
  8
AM_5
 10
966.11583015771737
 20
173.88410841484131
 30
0.0
 11
1003.6158301577181
 21
173.88410841484131
 31
0.0
  0
LINE
  5
6666
  8
AM_5
 10
998.61583015771782
 20
496.58410841484141
 30
0.0
 11
998.61583015771771
 21
181.38410841484131
 31
0.0
  0
INSERT
  5
6667
  8
AM_5
  2
_OPEN30
 10
998.61583015771782
 20
504.08410841484141
 30
0.0
 41
7.5
 42
7.5
 43
7.5
 50
90.0
  0
INSERT
  5
6668
  8
AM_5
  2
_OPEN30
 10
998.61583015771771
 20
173.88410841484131
 30
0.0
 41
7.5
 42
7.5
 43
7.5
 50
270.0
  0
TEXT
  8
AM_5
  40
17.5
  5
688F
  62
2
  72
0
  71
0
 10
987.364
 20
316.234
 30
0.000000
  1
トラベル330.2
  0
POINT
  5
666A
  8
DEFPOINTS
 62
     0
 10
962.61583015771748
 20
504.08410841484141
 30
0.0
  0
POINT
  5
666B
  8
DEFPOINTS
 62
     0
 10
961.11583015771748
 20
173.88410841484131
 30
0.0
  0
POINT
  5
666C
  8
DEFPOINTS
 62
     0
 10
998.61583015771771
 20
173.88410841484131
 30
0.0
  0
ENDBLK
  5
40C9
  8
0
  0
BLOCK
  8
0
  2
*U42
 70
     1
 10
0.0
 20
0.0
 30
0.0
  3
*U42
  1

  0
ENDBLK
  5
4605
  8
0
  0
BLOCK
  8
0
  2
*D45
 70
     1
 10
0.0
 20
0.0
 30
0.0
  3
*D45
  1

  0
LINE
  5
673C
  8
AM_5
 10
945.61583015771737
 20
742.68387890204326
 30
0.0
 11
1003.615831157718
 21
742.68387890204326
 31
0.0
  0
LINE
  5
673D
  8
AM_5
 10
945.61583015771737
 20
831.58410841484147
 30
0.0
 11
1003.615831157719
 21
831.58410841484147
 31
0.0
  0
LINE
  5
673E
  8
AM_5
 10
998.61583115771862
 20
750.18387890204315
 30
0.0
 11
998.61583115771862
 21
824.08410841484135
 31
0.0
  0
INSERT
  5
673F
  8
AM_5
  2
_OPEN30
 10
998.61583115771862
 20
742.68387890204326
 30
0.0
 41
7.5
 42
7.5
 43
7.5
 50
270.0
  0
INSERT
  5
6740
  8
AM_5
  2
_OPEN30
 10
998.61583115771862
 20
831.58410841484147
 30
0.0
 41
7.5
 42
7.5
 43
7.5
 50
90.0
  0
TEXT
  8
AM_5
  40
17.5
  5
6890
  62
2
  72
0
  71
0
 10
987.366
 20
764.384
 30
0.000000
  1
88.9
  0
POINT
  5
6742
  8
DEFPOINTS
 62
     0
 10
940.61583015771748
 20
742.68387890204326
 30
0.0
  0
POINT
  5
6743
  8
DEFPOINTS
 62
     0
 10
940.61583015771748
 20
831.58410841484147
 30
0.0
  0
POINT
  5
6744
  8
DEFPOINTS
 62
     0
 10
998.61583115771862
 20
831.58410841484147
 30
0.0
  0
ENDBLK
  5
5857
  8
0
  0
BLOCK
  8
0
  2
*D46
 70
     1
 10
0.0
 20
0.0
 30
0.0
  3
*D46
  1

  0
LINE
  5
6745
  8
AM_5
 10
825.11583015771737
 20
504.08410841484169
 30
0.0
 11
805.43230029928225
 21
504.08410841484169
 31
0.0
  0
LINE
  5
6746
  8
AM_5
 10
825.11583015771737
 20
604.08410841484147
 30
0.0
 11
805.43230029928225
 21
604.08410841484147
 31
0.0
  0
LINE
  5
6747
  8
AM_5
 10
810.43230029928236
 20
511.58410841484158
 30
0.0
 11
810.43230029928236
 21
596.58410841484147
 31
0.0
  0
INSERT
  5
6748
  8
AM_5
  2
_OPEN30
 10
810.43230029928236
 20
504.08410841484169
 30
0.0
 41
7.5
 42
7.5
 43
7.5
 50
270.0
  0
INSERT
  5
6749
  8
AM_5
  2
_OPEN30
 10
810.43230029928236
 20
604.08410841484147
 30
0.0
 41
7.5
 42
7.5
 43
7.5
 50
90.0
  0
TEXT
  8
AM_5
  40
17.5
  5
6891
  62
2
  72
0
  71
0
 10
799.182
 20
531.334
 30
0.000000
  1
100
  0
POINT
  5
674B
  8
DEFPOINTS
 62
     0
 10
830.11583015771737
 20
504.08410841484169
 30
0.0
  0
POINT
  5
674C
  8
DEFPOINTS
 62
     0
 10
830.11583015771737
 20
604.08410841484147
 30
0.0
  0
POINT
  5
674D
  8
DEFPOINTS
 62
     0
 10
810.43230029928236
 20
604.08410841484147
 30
0.0
  0
ENDBLK
  5
5F2A
  8
0
  0
BLOCK
  8
0
  2
*D47
 70
     1
 10
0.0
 20
0.0
 30
0.0
  3
*D47
  1

  0
LINE
  5
674E
  8
AM_5
 10
909.17234334533225
 20
854.08410841484158
 30
0.0
 11
805.43230029928247
 21
854.08410841484158
 31
0.0
  0
LINE
  5
674F
  8
AM_5
 10
825.11583015771737
 20
604.08410841484135
 30
0.0
 11
805.43230029928225
 21
604.08410841484135
 31
0.0
  0
LINE
  5
6750
  8
AM_5
 10
810.43230029928236
 20
846.58410841484169
 30
0.0
 11
810.43230029928236
 21
611.58410841484135
 31
0.0
  0
INSERT
  5
6751
  8
AM_5
  2
_OPEN30
 10
810.43230029928236
 20
854.08410841484158
 30
0.0
 41
7.5
 42
7.5
 43
7.5
 50
90.0
  0
INSERT
  5
6752
  8
AM_5
  2
_OPEN30
 10
810.43230029928236
 20
604.08410841484135
 30
0.0
 41
7.5
 42
7.5
 43
7.5
 50
270.0
  0
TEXT
  8
AM_5
  40
17.5
  5
6892
  62
2
  72
0
  71
0
 10
799.181
 20
706.334
 30
0.000000
  1
250
  0
POINT
  5
6754
  8
DEFPOINTS
 62
     0
 10
914.17234334533214
 20
854.08410841484158
 30
0.0
  0
POINT
  5
6755
  8
DEFPOINTS
 62
     0
 10
830.11583015771737
 20
604.08410841484135
 30
0.0
  0
POINT
  5
6756
  8
DEFPOINTS
 62
     0
 10
810.43230029928236
 20
604.08410841484135
 30
0.0
  0
ENDBLK
  5
5F2C
  8
0
  0
BLOCK
  8
0
  2
バインドM4_6
 70
     0
 10
0.0
 20
0.0
 30
0.0
  3
バインドM4_6
  1

  0
CIRCLE
  5
6249
  8
ﾋ_ｽ
 10
0.0
 20
0.0
 30
0.0
 40
4.1500000000006247
  0
ARC
  5
624A
  8
ﾋ_ｽ
 10
-1.8568181818181979
 20
-1.856818181818084
 30
0.0
 40
1.368181818181796
 50
0.0
 51
90.0
  0
LINE
  5
624B
  8
ﾋ_ｽ
 10
-0.4886363636364877
 20
-2.1499999999998631
 30
0.0
 11
-0.4886363636364877
 21
-1.856818181818084
 31
0.0
  0
LINE
  5
624C
  8
ﾋ_ｽ
 10
0.4886363636364877
 20
-2.1499999999998631
 30
0.0
 11
-0.4886363636364877
 21
-2.1499999999998631
 31
0.0
  0
LINE
  5
624D
  8
ﾋ_ｽ
 10
-2.1500000000000901
 20
0.488636363636374
 30
0.0
 11
-1.8568181818181979
 21
0.488636363636374
 31
0.0
  0
LINE
  5
624E
  8
ﾋ_ｽ
 10
-0.4886363636364877
 20
1.8568181818181979
 30
0.0
 11
-0.4886363636364877
 21
2.1500000000000901
 31
0.0
  0
LINE
  5
624F
  8
ﾋ_ｽ
 10
-0.4886363636364877
 20
2.1500000000000901
 30
0.0
 11
0.4886363636362603
 21
2.1500000000000341
 31
0.0
  0
ARC
  5
6250
  8
ﾋ_ｽ
 10
-1.8568181818181979
 20
1.8568181818181979
 30
0.0
 40
1.368181818181796
 50
270.0
 51
0.0
  0
LINE
  5
6251
  8
ﾋ_ｽ
 10
-2.1500000000000901
 20
-0.4886363636362603
 30
0.0
 11
-2.1500000000000901
 21
0.488636363636374
 31
0.0
  0
LINE
  5
6252
  8
ﾋ_ｽ
 10
-1.8568181818181979
 20
-0.4886363636362603
 30
0.0
 11
-2.1500000000000901
 21
-0.4886363636362603
 31
0.0
  0
ARC
  5
6253
  8
ﾋ_ｽ
 10
1.8568181818181979
 20
-1.856818181818084
 30
0.0
 40
1.368181818181796
 50
90.0
 51
180.0
  0
LINE
  5
6254
  8
ﾋ_ｽ
 10
0.4886363636364877
 20
-1.856818181818084
 30
0.0
 11
0.4886363636364877
 21
-2.1499999999999768
 31
0.0
  0
LINE
  5
6255
  8
ﾋ_ｽ
 10
2.1500000000000901
 20
-0.4886363636362603
 30
0.0
 11
1.8568181818181979
 21
-0.4886363636362603
 31
0.0
  0
LINE
  5
6256
  8
ﾋ_ｽ
 10
2.1500000000000901
 20
0.488636363636374
 30
0.0
 11
2.1500000000000901
 21
-0.4886363636362603
 31
0.0
  0
ARC
  5
6257
  8
ﾋ_ｽ
 10
1.8568181818181979
 20
1.8568181818181979
 30
0.0
 40
1.368181818181796
 50
180.0
 51
270.0
  0
LINE
  5
6258
  8
ﾋ_ｽ
 10
1.8568181818181979
 20
0.488636363636374
 30
0.0
 11
2.1500000000000901
 21
0.488636363636374
 31
0.0
  0
LINE
  5
6259
  8
ﾋ_ｽ
 10
0.4886363636364877
 20
2.1500000000000901
 30
0.0
 11
0.4886363636364877
 21
1.856818181818312
 31
0.0
  0
ENDBLK
  5
625A
  8
0
  0
BLOCK
  8
0
  2
バインドM4_6ヨコ
 70
     0
 10
0.0
 20
0.0
 30
0.0
  3
バインドM4_6ヨコ
  1

  0
LINE
  5
625F
  8
ﾋ_ｽ
 10
-6.0
 20
-4.1499999999999773
 30
0.0
 11
-6.0
 21
4.1499999999999773
 31
0.0
  0
ARC
  5
6260
  8
ﾋ_ｽ
 10
-5.7999999999999536
 20
-1.8508722636684061
 30
0.0
 40
0.2
 50
77.124998440386804
 51
179.9999999999967
1001
GENIUS_GENODEF_13
1002
{
1000
HIER
1070
     0
1002
}
1002
{
1000
MANEDIT
1070
     0
1002
}
1002
{
1000
NOSEL
1070
     0
1002
}
1002
{
1000
BEHIND
1070
     0
1002
}
1002
{
1000
OTHER
1070
     0
1002
}
1002
{
1000
REACTOR
1002
}
1001
GENIUS_GENOBJ-N-FIL_13
1002
{
1000
OWNER
1000
GEN
1002
}
  0
ARC
  5
6261
  8
ﾋ_ｽ
 10
-5.7999999999999536
 20
1.8508722636683499
 30
0.0
 40
0.2
 50
179.9999999999967
 51
282.87500155961322
1001
GENIUS_GENODEF_13
1002
{
1000
HIER
1070
     0
1002
}
1002
{
1000
MANEDIT
1070
     0
1002
}
1002
{
1000
NOSEL
1070
     0
1002
}
1002
{
1000
BEHIND
1070
     0
1002
}
1002
{
1000
OTHER
1070
     0
1002
}
1002
{
1000
REACTOR
1002
}
1001
GENIUS_GENOBJ-N-FIL_13
1002
{
1000
OWNER
1000
GEN
1002
}
  0
LINE
  5
6262
  8
ﾋ_ｽ
 10
0.0
 20
-1.999999999999545
 30
0.0
 11
0.0
 21
1.999999999999545
 31
0.0
  0
LINE
  5
6263
  8
ﾋ_ｽ
 10
-5.7554350396994769
 20
1.6559005623539631
 30
0.0
 11
-4.2500000000006821
 21
1.999999999999545
 31
0.0
  0
LINE
  5
6264
  8
ﾋ_ｽ
 10
-5.7554350396994769
 20
-1.655900562354077
 30
0.0
 11
-4.2500000000009086
 21
-1.999999999999545
 31
0.0
  0
LINE
  5
6265
  8
ﾋ_ｽ
 10
-4.2500000000009086
 20
-1.999999999999545
 30
0.0
 11
-4.2500000000006821
 21
1.999999999999545
 31
0.0
  0
LINE
  5
6266
  8
ﾋ_ｽ
 10
-4.2500000000009086
 20
-1.999999999999545
 30
0.0
 11
0.0
 21
-1.999999999999545
 31
0.0
  0
LINE
  5
6267
  8
ﾋ_ｽ
 10
0.0
 20
1.999999999999545
 30
0.0
 11
-4.2500000000006821
 21
1.999999999999545
 31
0.0
  0
LINE
  5
6268
  8
ﾋ_ｽ0
 10
-6.0
 20
-1.5999999999995671
 30
0.0
 11
0.0
 21
-1.5999999999995671
 31
0.0
  0
LINE
  5
6269
  8
ﾋ_ｽ0
 10
-5.9999999999997717
 20
1.5999999999995671
 30
0.0
 11
0.0
 21
1.5999999999995671
 31
0.0
  0
LINE
  5
626A
  8
ﾋ_ｽ
 10
-6.0
 20
4.1499999999999773
 30
0.0
 11
-7.6999999999998181
 21
4.0012692720059704
 31
0.0
  0
LINE
  5
626B
  8
ﾋ_ｽ
 10
-7.6999999999998181
 20
4.0012692720059704
 30
0.0
 11
-7.6999999999998181
 21
-4.0012692720058558
 31
0.0
  0
LINE
  5
626C
  8
ﾋ_ｽ
 10
-7.6999999999998181
 20
-4.0012692720058558
 30
0.0
 11
-6.0
 21
-4.1499999999999773
 31
0.0
  0
ARC
  5
626D
  8
ﾋ_ｽ
 10
1.9063473669366431
 20
0.0
 30
0.0
 40
10.40634736693659
 50
157.3871256045245
 51
202.6128743954755
  0
ENDBLK
  5
626E
  8
0
  0
BLOCK
  8
0
  2
サラM3_5
 70
     0
 10
0.0
 20
0.0
 30
0.0
  3
サラM3_5
  1

  0
CIRCLE
  5
6273
  8
ﾋ_ｽ
 10
0.0
 20
0.0
 30
0.0
 40
2.9999999999975859
  0
ARC
  5
6274
  8
ﾋ_ｽ
 10
-1.554545454545404
 20
1.5545454545454609
 30
0.0
 40
1.1454545454545391
 50
270.0
 51
0.0
  0
ARC
  5
6275
  8
ﾋ_ｽ
 10
-1.554545454545404
 20
-1.554545454545404
 30
0.0
 40
1.1454545454545391
 50
0.0
 51
90.0
  0
LINE
  5
6276
  8
ﾋ_ｽ
 10
-1.7999999999999541
 20
0.4090909090908781
 30
0.0
 11
-1.554545454545404
 21
0.4090909090908781
 31
0.0
  0
LINE
  5
6277
  8
ﾋ_ｽ
 10
-1.7999999999999541
 20
-0.4090909090908781
 30
0.0
 11
-1.7999999999999541
 21
0.4090909090908781
 31
0.0
  0
LINE
  5
6278
  8
ﾋ_ｽ
 10
-1.554545454545404
 20
-0.4090909090908781
 30
0.0
 11
-1.7999999999999541
 21
-0.4090909090908781
 31
0.0
  0
LINE
  5
6279
  8
ﾋ_ｽ
 10
-0.4090909090907644
 20
1.5545454545454609
 30
0.0
 11
-0.4090909090907644
 21
1.800000000000068
 31
0.0
  0
LINE
  5
627A
  8
ﾋ_ｽ
 10
-0.4090909090907644
 20
-1.7999999999999541
 30
0.0
 11
-0.4090909090907644
 21
-1.554545454545404
 31
0.0
  0
ARC
  5
627B
  8
ﾋ_ｽ
 10
1.5545454545456321
 20
-1.554545454545404
 30
0.0
 40
1.1454545454545391
 50
90.0
 51
180.0
  0
LINE
  5
627C
  8
ﾋ_ｽ
 10
0.4090909090909918
 20
-1.800000000000068
 30
0.0
 11
-0.4090909090907644
 21
-1.800000000000068
 31
0.0
  0
LINE
  5
627D
  8
ﾋ_ｽ
 10
0.4090909090909918
 20
-1.554545454545404
 30
0.0
 11
0.4090909090909918
 21
-1.800000000000068
 31
0.0
  0
LINE
  5
627E
  8
ﾋ_ｽ
 10
1.7999999999999541
 20
-0.4090909090908781
 30
0.0
 11
1.5545454545456321
 21
-0.4090909090908781
 31
0.0
  0
LINE
  5
627F
  8
ﾋ_ｽ
 10
1.7999999999999541
 20
0.409090909090935
 30
0.0
 11
1.7999999999999541
 21
-0.4090909090908781
 31
0.0
  0
ARC
  5
6280
  8
ﾋ_ｽ
 10
1.554545454545404
 20
1.5545454545454609
 30
0.0
 40
1.1454545454545391
 50
180.0
 51
270.0
  0
LINE
  5
6281
  8
ﾋ_ｽ
 10
1.554545454545404
 20
0.4090909090908781
 30
0.0
 11
1.7999999999999541
 21
0.4090909090908781
 31
0.0
  0
LINE
  5
6282
  8
ﾋ_ｽ
 10
0.4090909090909918
 20
1.800000000000068
 30
0.0
 11
0.4090909090909918
 21
1.554545454545518
 31
0.0
  0
LINE
  5
6283
  8
ﾋ_ｽ
 10
-0.4090909090907644
 20
1.800000000000068
 30
0.0
 11
0.4090909090909918
 21
1.800000000000068
 31
0.0
  0
ENDBLK
  5
6284
  8
0
  0
BLOCK
  8
0
  2
サラM3_5ヨコ
 70
     0
 10
0.0
 20
0.0
 30
0.0
  3
サラM3_5ヨコ
  1

  0
LINE
  5
6289
  8
ﾋ_ｽ
 10
2.7500000000002269
 20
-1.4999999999998861
 30
0.0
 11
4.9999999999997717
 21
-1.5
 31
0.0
  0
LINE
  5
628A
  8
ﾋ_ｽ
 10
4.9999999999997717
 20
1.5
 30
0.0
 11
2.75
 21
1.500000000000056
 31
0.0
  0
LINE
  5
628B
  8
ﾋ_ｽ0
 10
2.1242640687119092
 20
1.25
 30
0.0
 11
4.9999999999997717
 21
1.25
 31
0.0
  0
LINE
  5
628C
  8
ﾋ_ｽ0
 10
4.9999999999997717
 20
-1.2499999999999429
 30
0.0
 11
2.1242640687121361
 21
-1.2499999999998861
 31
0.0
  0
LINE
  5
628D
  8
ﾋ_ｽ
 10
1.912132034356091
 20
1.337867965644022
 30
0.0
 11
0.25
 21
3.0
 31
0.0
  0
LINE
  5
628E
  8
ﾋ_ｽ
 10
0.25
 20
-3.0
 30
0.0
 11
0.25
 21
3.0
 31
0.0
  0
LINE
  5
628F
  8
ﾋ_ｽ
 10
0.0
 20
3.0
 30
0.0
 11
0.0
 21
-3.0
 31
0.0
  0
LINE
  5
6290
  8
ﾋ_ｽ
 10
0.25
 20
-3.0
 30
0.0
 11
1.912132034356091
 21
-1.3378679656439649
 31
0.0
  0
LINE
  5
6291
  8
ﾋ_ｽ
 10
0.0
 20
-3.0
 30
0.0
 11
0.25
 21
-3.0
 31
0.0
  0
LINE
  5
6292
  8
ﾋ_ｽ0
 10
1.75
 20
-1.5
 30
0.0
 11
1.75
 21
1.5
 31
0.0
  0
LINE
  5
6293
  8
ﾋ_ｽ
 10
2.0380053120384209
 20
-1.2626684373460639
 30
0.0
 11
2.75
 21
-1.5
 31
0.0
  0
LINE
  5
6294
  8
ﾋ_ｽ
 10
2.75
 20
-1.5
 30
0.0
 11
2.75
 21
1.5
 31
0.0
  0
LINE
  5
6295
  8
ﾋ_ｽ
 10
2.75
 20
1.5
 30
0.0
 11
2.0380053120384209
 21
1.2626684373461781
 31
0.0
  0
LINE
  5
6296
  8
ﾋ_ｽ
 10
0.0
 20
3.0
 30
0.0
 11
0.2500000000002274
 21
3.0
 31
0.0
  0
LINE
  5
6297
  8
ﾋ_ｽ
 10
4.9999999999997717
 20
-1.5
 30
0.0
 11
4.9999999999997717
 21
1.5
 31
0.0
  0
ARC
  5
6298
  8
ﾋ_ｽ
 10
2.1242640687121361
 20
-1.5499999999999541
 30
0.0
 40
0.3
 50
90.0
 51
134.99999999999301
1001
GENIUS_GENOBJ-N-FIL_13
1002
{
1000
OWNER
1000
GEN
1002
}
1001
GENIUS_GENODEF_13
1002
{
1000
HIER
1070
     0
1002
}
1002
{
1000
MANEDIT
1070
     0
1002
}
1002
{
1000
NOSEL
1070
     0
1002
}
1002
{
1000
BEHIND
1070
     0
1002
}
1002
{
1000
OTHER
1070
     0
1002
}
1002
{
1000
REACTOR
1002
}
  0
ARC
  5
6299
  8
ﾋ_ｽ
 10
2.1242640687119092
 20
1.5500000000000109
 30
0.0
 40
0.3
 50
225.00000000000691
 51
270.0
1001
GENIUS_GENODEF_13
1002
{
1000
HIER
1070
     0
1002
}
1002
{
1000
MANEDIT
1070
     0
1002
}
1002
{
1000
NOSEL
1070
     0
1002
}
1002
{
1000
BEHIND
1070
     0
1002
}
1002
{
1000
OTHER
1070
     0
1002
}
1002
{
1000
REACTOR
1002
}
1001
GENIUS_GENOBJ-N-FIL_13
1002
{
1000
OWNER
1000
GEN
1002
}
  0
ENDBLK
  5
629A
  8
0
  0
BLOCK
  8
0
  2
バインドM3_5
 70
     0
 10
0.0
 20
0.0
 30
0.0
  3
バインドM3_5
  1

  0
CIRCLE
  5
629F
  8
ﾋ_ｽ
 10
0.0
 20
0.0
 30
0.0
 40
3.1499999999994519
  0
LINE
  5
62A0
  8
ﾋ_ｽ
 10
0.4204545454545042
 20
-1.8500000000000221
 30
0.0
 11
-0.4204545454545042
 21
-1.8500000000000221
 31
0.0
  0
LINE
  5
62A1
  8
ﾋ_ｽ
 10
-0.4204545454545042
 20
1.8500000000000221
 30
0.0
 11
0.4204545454545042
 21
1.8500000000000221
 31
0.0
  0
LINE
  5
62A2
  8
ﾋ_ｽ
 10
-1.8499999999999091
 20
0.420454545454561
 30
0.0
 11
-1.5977272727272971
 21
0.420454545454561
 31
0.0
  0
LINE
  5
62A3
  8
ﾋ_ｽ
 10
-0.4204545454545042
 20
1.5977272727272971
 30
0.0
 11
-0.4204545454545042
 21
1.8500000000000221
 31
0.0
  0
ARC
  5
62A4
  8
ﾋ_ｽ
 10
-1.5977272727272971
 20
1.5977272727272971
 30
0.0
 40
1.177272727272711
 50
270.0
 51
0.0
  0
ARC
  5
62A5
  8
ﾋ_ｽ
 10
-1.5977272727272971
 20
-1.597727272727183
 30
0.0
 40
1.177272727272711
 50
0.0
 51
90.0
  0
LINE
  5
62A6
  8
ﾋ_ｽ
 10
-1.8499999999999091
 20
-0.4204545454545042
 30
0.0
 11
-1.8499999999999091
 21
0.4204545454546178
 31
0.0
  0
LINE
  5
62A7
  8
ﾋ_ｽ
 10
-1.5977272727272971
 20
-0.4204545454545042
 30
0.0
 11
-1.8499999999999091
 21
-0.4204545454545042
 31
0.0
  0
LINE
  5
62A8
  8
ﾋ_ｽ
 10
-0.4204545454545042
 20
-1.8499999999999091
 30
0.0
 11
-0.4204545454545042
 21
-1.597727272727183
 31
0.0
  0
ARC
  5
62A9
  8
ﾋ_ｽ
 10
1.5977272727272971
 20
-1.597727272727183
 30
0.0
 40
1.177272727272711
 50
90.0
 51
180.0
  0
LINE
  5
62AA
  8
ﾋ_ｽ
 10
0.4204545454545042
 20
-1.597727272727183
 30
0.0
 11
0.4204545454545042
 21
-1.8500000000000221
 31
0.0
  0
LINE
  5
62AB
  8
ﾋ_ｽ
 10
1.8499999999999091
 20
-0.4204545454545042
 30
0.0
 11
1.5977272727272971
 21
-0.4204545454545042
 31
0.0
  0
LINE
  5
62AC
  8
ﾋ_ｽ
 10
1.8499999999999091
 20
0.4204545454545042
 30
0.0
 11
1.8499999999999091
 21
-0.4204545454545042
 31
0.0
  0
ARC
  5
62AD
  8
ﾋ_ｽ
 10
1.5977272727272971
 20
1.5977272727272971
 30
0.0
 40
1.177272727272711
 50
180.0
 51
270.0
  0
LINE
  5
62AE
  8
ﾋ_ｽ
 10
1.5977272727272971
 20
0.420454545454561
 30
0.0
 11
1.8499999999999091
 21
0.420454545454561
 31
0.0
  0
LINE
  5
62AF
  8
ﾋ_ｽ
 10
0.4204545454545042
 20
1.8500000000000221
 30
0.0
 11
0.4204545454545042
 21
1.597727272727411
 31
0.0
  0
ENDBLK
  5
62B0
  8
0
  0
BLOCK
  8
0
  2
バインドM3_5ヨコ
 70
     0
 10
0.0
 20
0.0
 30
0.0
  3
バインドM3_5ヨコ
  1

  0
LINE
  5
62B5
  8
ﾋ_ｽ
 10
-5.0
 20
-3.1499999999999768
 30
0.0
 11
-5.0
 21
3.1500000000000341
 31
0.0
  0
ARC
  5
62B6
  8
ﾋ_ｽ
 10
-4.9000000000000901
 20
1.326839681057435
 30
0.0
 40
0.1
 50
179.9999999999967
 51
283.49573328080749
1001
GENIUS_GENODEF_13
1002
{
1000
HIER
1070
     0
1002
}
1002
{
1000
MANEDIT
1070
     0
1002
}
1002
{
1000
NOSEL
1070
     0
1002
}
1002
{
1000
BEHIND
1070
     0
1002
}
1002
{
1000
OTHER
1070
     0
1002
}
1002
{
1000
REACTOR
1002
}
1001
GENIUS_GENOBJ-N-FIL_13
1002
{
1000
OWNER
1000
GEN
1002
}
  0
ARC
  5
62B7
  8
ﾋ_ｽ
 10
-4.9000000000003183
 20
-1.3268396810574921
 30
0.0
 40
0.1
 50
76.504266719192529
 51
179.9999999999967
1001
GENIUS_GENODEF_13
1002
{
1000
HIER
1070
     0
1002
}
1002
{
1000
MANEDIT
1070
     0
1002
}
1002
{
1000
NOSEL
1070
     0
1002
}
1002
{
1000
BEHIND
1070
     0
1002
}
1002
{
1000
OTHER
1070
     0
1002
}
1002
{
1000
REACTOR
1002
}
1001
GENIUS_GENOBJ-N-FIL_13
1002
{
1000
OWNER
1000
GEN
1002
}
  0
LINE
  5
62B8
  8
ﾋ_ｽ
 10
0.0
 20
-1.5
 30
0.0
 11
0.0
 21
1.5
 31
0.0
  0
LINE
  5
62B9
  8
ﾋ_ｽ
 10
-4.8766627047525608
 20
1.2296009508593211
 30
0.0
 11
-3.7500000000004539
 21
1.5
 31
0.0
  0
LINE
  5
62BA
  8
ﾋ_ｽ
 10
-4.8766627047527891
 20
-1.229600950859435
 30
0.0
 11
-3.7500000000006821
 21
-1.5
 31
0.0
  0
LINE
  5
62BB
  8
ﾋ_ｽ
 10
-3.7500000000006821
 20
-1.5
 30
0.0
 11
-3.7500000000004539
 21
1.5
 31
0.0
  0
LINE
  5
62BC
  8
ﾋ_ｽ
 10
-3.7500000000006821
 20
-1.5
 30
0.0
 11
0.0
 21
-1.5
 31
0.0
  0
LINE
  5
62BD
  8
ﾋ_ｽ
 10
0.0
 20
1.5
 30
0.0
 11
-3.7500000000004539
 21
1.5
 31
0.0
  0
LINE
  5
62BE
  8
ﾋ_ｽ0
 10
-5.0000000000002274
 20
-1.199999999999988
 30
0.0
 11
0.0
 21
-1.199999999999988
 31
0.0
  0
LINE
  5
62BF
  8
ﾋ_ｽ0
 10
-5.0000000000002274
 20
1.199999999999988
 30
0.0
 11
0.0
 21
1.199999999999988
 31
0.0
  0
LINE
  5
62C0
  8
ﾋ_ｽ
 10
-5.0
 20
3.1500000000000341
 30
0.0
 11
-6.300000000000181
 21
3.0362647374163312
 31
0.0
  0
LINE
  5
62C1
  8
ﾋ_ｽ
 10
-5.0
 20
-3.1499999999999768
 30
0.0
 11
-6.300000000000181
 21
-3.0362647374162739
 31
0.0
  0
LINE
  5
62C2
  8
ﾋ_ｽ
 10
-6.300000000000181
 20
3.0362647374163312
 30
0.0
 11
-6.300000000000181
 21
-3.0362647374162739
 31
0.0
  0
ARC
  5
62C3
  8
ﾋ_ｽ
 10
1.0824196297307931
 20
0.0000000000000568
 30
0.0
 40
7.9824196297310488
 50
157.64346058573031
 51
202.35653941427259
  0
ENDBLK
  5
62C4
  8
0
  0
BLOCK
  8
0
  2
ナットM4
 70
     0
 10
0.0
 20
0.0
 30
0.0
  3
ナットM4
  1

  0
CIRCLE
  5
62C9
  8
ﾋ_ｽ
 10
0.0
 20
0.0
 30
0.0
 40
3.25
  0
CIRCLE
  5
62CA
  8
ﾋ_ｽ
 10
0.0
 20
0.0
 30
0.0
 40
1.6950000000000001
  0
LINE
  5
62CB
  8
ﾋ_ｽ
 10
-3.475000000000136
 20
-2.0351596988933802
 30
0.0
 11
0.0000000000004547
 21
-4.0414518843274996
 31
0.0
  0
LINE
  5
62CC
  8
ﾋ_ｽ
 10
0.0000000000004547
 20
-4.0414518843274996
 30
0.0
 11
3.5
 21
-2.0207259421637209
 31
0.0
  0
LINE
  5
62CD
  8
ﾋ_ｽ
 10
3.5
 20
-2.0207259421637209
 30
0.0
 11
3.5
 21
2.021774057836466
 31
0.0
  0
LINE
  5
62CE
  8
ﾋ_ｽ
 10
-3.4999999999997722
 20
2.0217740578363528
 30
0.0
 11
-3.5
 21
-1.9918584287041761
 31
0.0
  0
CIRCLE
  5
62CF
  8
ﾋ_ｽ0
 10
0.0
 20
0.0
 30
0.0
 40
2.0
  0
LINE
  5
62D0
  8
ﾋ_ｽ
 10
3.5
 20
2.021774057836466
 30
0.0
 11
-0.0000000000002274
 21
4.0425000000000182
 31
0.0
  0
LINE
  5
62D1
  8
ﾋ_ｽ
 10
-0.0000000000002274
 20
4.0425000000000182
 30
0.0
 11
-3.4999999999997722
 21
2.0217740578363528
 31
0.0
  0
ENDBLK
  5
62D2
  8
0
  0
BLOCK
  8
0
  2
ナットM4ヨコ
 70
     0
 10
0.0
 20
0.0
 30
0.0
  3
ナットM4ヨコ
  1

  0
ARC
  5
62D7
  8
ﾋ_ｽ
 10
1.412930680013005
 20
3.0318749999999559
 30
0.0
 40
1.7870693199869589
 50
325.5615305952013
 51
25.561530595456212
  0
ARC
  5
62D8
  8
ﾋ_ｽ
 10
1.7870693199872669
 20
3.0318750000000132
 30
0.0
 40
1.7870693199869589
 50
154.4384694045408
 51
214.4384694047987
  0
LINE
  5
62D9
  8
ﾋ_ｽ
 10
3.200000000000045
 20
3.5
 30
0.0
 11
3.200000000000272
 21
-3.5
 31
0.0
  0
LINE
  5
62DA
  8
ﾋ_ｽ
 10
0.0
 20
3.5
 30
0.0
 11
0.0
 21
-3.4999999999999432
 31
0.0
  0
ARC
  5
62DB
  8
ﾋ_ｽ
 10
1.412930680009594
 20
-3.0318749999999559
 30
0.0
 40
1.7870693199904151
 50
334.43846940472741
 51
34.438469404733659
  0
ARC
  5
62DC
  8
ﾋ_ｽ
 10
-3.4784584983865439
 20
0.0
 30
0.0
 40
6.6784584983865471
 50
342.3830311595533
 51
17.61696884044364
  0
ARC
  5
62DD
  8
ﾋ_ｽ
 10
6.6784584983865889
 20
-0.0000000000000568
 30
0.0
 40
6.6784584983865649
 50
162.3830311595533
 51
197.6169688404436
  0
ARC
  5
62DE
  8
ﾋ_ｽ
 10
1.78706931998704
 20
-3.0318749999989332
 30
0.0
 40
1.7870693199869589
 50
145.56153059523481
 51
205.56153059567771
  0
LINE
  5
62DF
  8
ﾋ_ｽ
 10
2.886787478964834
 20
-4.0424999999999613
 30
0.0
 11
3.200000000000272
 21
-3.5
 31
0.0
  0
LINE
  5
62E0
  8
ﾋ_ｽ
 10
0.3132125210354388
 20
2.0212500000000091
 30
0.0
 11
2.8867874789646062
 21
2.0212500000000091
 31
0.0
  0
LINE
  5
62E1
  8
ﾋ_ｽ
 10
0.3132125210352115
 20
-4.0424999999999613
 30
0.0
 11
0.0
 21
-3.4999999999999432
 31
0.0
  0
LINE
  5
62E2
  8
ﾋ_ｽ
 10
0.3132125210352115
 20
-4.0424999999999613
 30
0.0
 11
2.886787478964834
 21
-4.0424999999999613
 31
0.0
  0
LINE
  5
62E3
  8
ﾋ_ｽ
 10
0.3132125210354388
 20
-2.0212499999999518
 30
0.0
 11
2.8867874789646062
 21
-2.0212500000000091
 31
0.0
  0
LINE
  5
62E4
  8
ﾋ_ｽ
 10
2.886787478964834
 20
4.0424999999999613
 30
0.0
 11
3.200000000000045
 21
3.5
 31
0.0
  0
LINE
  5
62E5
  8
ﾋ_ｽ
 10
0.3132125210354388
 20
4.0425000000000182
 30
0.0
 11
0.0
 21
3.5
 31
0.0
  0
LINE
  5
62E6
  8
ﾋ_ｽ
 10
0.3132125210354388
 20
4.0425000000000182
 30
0.0
 11
2.886787478964834
 21
4.0424999999999613
 31
0.0
  0
ENDBLK
  5
62E7
  8
0
  0
BLOCK
  8
0
  2
*S56
 70
     1
 10
0.0
 20
0.0
 30
0.0
  3
*S56
  1

  0
CIRCLE
  5
638F
  8
AM_12
 62
     4
 10
127.2900520176981
 20
813.76806681991945
 30
0.0
 40
5.25
  0
LINE
  5
6390
  8
AM_12
 62
     4
 10
122.0400520176981
 20
808.51806681991957
 30
0.0
 11
132.54005201769809
 21
819.01806681991945
 31
0.0
  0
LINE
  5
6391
  8
AM_12
 62
     4
 10
122.0400520176981
 20
819.01806681991945
 30
0.0
 11
132.54005201769809
 21
808.51806681991957
 31
0.0
  0
ENDBLK
  5
6393
  8
0
  0
BLOCK
  8
0
  2
*S57
 70
     1
 10
0.0
 20
0.0
 30
0.0
  3
*S57
  1

  0
CIRCLE
  5
6396
  8
AM_12
 62
     4
 10
617.87097609678244
 20
935.22994898162119
 30
0.0
 40
5.25
  0
LINE
  5
6397
  8
AM_12
 62
     4
 10
612.62097609678244
 20
929.97994898162119
 30
0.0
 11
623.12097609678244
 21
940.47994898162108
 31
0.0
  0
LINE
  5
6398
  8
AM_12
 62
     4
 10
612.62097609678244
 20
940.47994898162108
 30
0.0
 11
623.12097609678244
 21
929.97994898162119
 31
0.0
  0
ENDBLK
  5
639A
  8
0
  0
BLOCK
  8
0
  2
*S58
 70
     1
 10
0.0
 20
0.0
 30
0.0
  3
*S58
  1

  0
CIRCLE
  5
639D
  8
AM_12
 62
     4
 10
1628.4008033803329
 20
758.04309249430185
 30
0.0
 40
5.25
  0
LINE
  5
639E
  8
AM_12
 62
     4
 10
1623.1508033803329
 20
752.79309249430185
 30
0.0
 11
1633.6508033803329
 21
763.29309249430185
 31
0.0
  0
LINE
  5
639F
  8
AM_12
 62
     4
 10
1623.1508033803329
 20
763.29309249430185
 30
0.0
 11
1633.6508033803329
 21
752.79309249430185
 31
0.0
  0
ENDBLK
  5
63A1
  8
0
  0
BLOCK
  8
0
  2
*S59
 70
     1
 10
0.0
 20
0.0
 30
0.0
  3
*S59
  1

  0
CIRCLE
  5
63A4
  8
AM_12
 62
     4
 10
496.36499720923717
 20
294.49202614662568
 30
0.0
 40
5.25
  0
LINE
  5
63A5
  8
AM_12
 62
     4
 10
491.11499720923717
 20
289.24202614662568
 30
0.0
 11
501.61499720923717
 21
299.74202614662562
 31
0.0
  0
LINE
  5
63A6
  8
AM_12
 62
     4
 10
491.11499720923717
 20
299.74202614662562
 30
0.0
 11
501.61499720923717
 21
289.24202614662568
 31
0.0
  0
ENDBLK
  5
63A8
  8
0
  0
BLOCK
  8
0
  2
*S60
 70
     1
 10
0.0
 20
0.0
 30
0.0
  3
*S60
  1

  0
CIRCLE
  5
63AB
  8
AM_12
 62
     4
 10
472.96473939878177
 20
962.62746687519643
 30
0.0
 40
5.25
  0
LINE
  5
63AC
  8
AM_12
 62
     4
 10
467.71473939878177
 20
957.37746687519643
 30
0.0
 11
478.21473939878177
 21
967.87746687519643
 31
0.0
  0
LINE
  5
63AD
  8
AM_12
 62
     4
 10
467.71473939878177
 20
967.87746687519643
 30
0.0
 11
478.21473939878177
 21
957.37746687519643
 31
0.0
  0
ENDBLK
  5
63AF
  8
0
  0
BLOCK
  8
0
  2
*S61
 70
     1
 10
0.0
 20
0.0
 30
0.0
  3
*S61
  1

  0
CIRCLE
  5
63B2
  8
AM_12
 62
     4
 10
532.37872840064051
 20
977.57145098897092
 30
0.0
 40
5.25
  0
LINE
  5
63B3
  8
AM_12
 62
     4
 10
527.12872840064051
 20
972.32145098897115
 30
0.0
 11
537.62872840064051
 21
982.82145098897104
 31
0.0
  0
LINE
  5
63B4
  8
AM_12
 62
     4
 10
527.12872840064051
 20
982.82145098897104
 30
0.0
 11
537.62872840064051
 21
972.32145098897115
 31
0.0
  0
ENDBLK
  5
63B6
  8
0
  0
BLOCK
  8
0
  2
*S62
 70
     1
 10
0.0
 20
0.0
 30
0.0
  3
*S62
  1

  0
CIRCLE
  5
63B9
  8
AM_12
 62
     4
 10
693.65257078850209
 20
960.42726482670128
 30
0.0
 40
5.25
  0
LINE
  5
63BA
  8
AM_12
 62
     4
 10
688.40257078850209
 20
955.17726482670128
 30
0.0
 11
698.90257078850198
 21
965.67726482670128
 31
0.0
  0
LINE
  5
63BB
  8
AM_12
 62
     4
 10
688.40257078850209
 20
965.67726482670128
 30
0.0
 11
698.90257078850198
 21
955.17726482670128
 31
0.0
  0
ENDBLK
  5
63BD
  8
0
  0
BLOCK
  8
0
  2
*S63
 70
     1
 10
0.0
 20
0.0
 30
0.0
  3
*S63
  1

  0
LINE
  5
63C0
  8
AM_5
 10
672.91608001925931
 20
1039.0007744849131
 30
0.0
 11
626.05245843531577
 21
949.5410400403839
 31
0.0
  0
TRACE
  5
63C1
  8
AM_5
 10
624.01160986298476
 20
950.61014175187131
 30
0.0
 11
628.09330700764656
 21
948.47193832889661
 31
0.0
 12
617.93182467713268
 22
934.03925603448795
 32
0.0
 13
617.93182467713268
 23
934.03925603448795
 33
0.0
  0
INSERT
  5
63C2
  8
ﾃ_ﾌ_ﾙ
  2
*U128
 10
0.0
 20
0.0
 30
0.0
  0
CIRCLE
  5
63C3
  8
AM_5
 62
     3
 10
687.12718909607975
 20
1066.1288964952321
 30
0.0
 40
30.625
  0
ENDBLK
  5
63C5
  8
0
  0
BLOCK
  8
0
  2
*S64
 70
     1
 10
0.0
 20
0.0
 30
0.0
  3
*S64
  1

  0
LINE
  5
63C8
  8
AM_5
 10
162.54685765048751
 20
842.07520636138179
 30
0.0
 11
140.88750561040811
 21
824.79244434080556
 31
0.0
  0
TRACE
  5
63C9
  8
AM_5
 10
139.4505273602179
 20
826.59331492837441
 30
0.0
 11
142.32448386059829
 21
822.99157375323671
 31
0.0
 12
127.208535377365
 22
813.87751083832745
 32
0.0
 13
127.208535377365
 23
813.87751083832745
 33
0.0
  0
INSERT
  5
63CA
  8
ﾃ_ﾌ_ﾙ
  2
*U129
 10
0.0
 20
0.0
 30
0.0
  0
CIRCLE
  5
63CB
  8
AM_5
 62
     3
 10
186.48505555831301
 20
861.17633999071859
 30
0.0
 40
30.625
  0
ENDBLK
  5
63CD
  8
0
  0
BLOCK
  8
0
  2
*S65
 70
     1
 10
0.0
 20
0.0
 30
0.0
  3
*S65
  1

  0
LINE
  5
63D0
  8
AM_5
 10
730.78373222129733
 20
999.90679794089567
 30
0.0
 11
707.12264384154787
 21
972.7352712959879
 31
0.0
  0
TRACE
  5
63D1
  8
AM_5
 10
705.38516071074446
 20
974.24827947007816
 30
0.0
 11
708.86012697235105
 21
971.22226312189764
 31
0.0
 12
695.63020572933829
 22
959.53777660051514
 32
0.0
 13
695.63020572933829
 23
959.53777660051514
 33
0.0
  0
INSERT
  5
63D2
  8
ﾃ_ﾌ_ﾙ
  2
*U130
 10
0.0
 20
0.0
 30
0.0
  0
CIRCLE
  5
63D3
  8
AM_5
 62
     3
 10
750.8954989176641
 20
1023.002413657973
 30
0.0
 40
30.625
  0
ENDBLK
  5
63D5
  8
0
  0
BLOCK
  8
0
  2
*S66
 70
     1
 10
0.0
 20
0.0
 30
0.0
  3
*S66
  1

  0
LINE
  5
63D8
  8
AM_5
 10
436.88865845302399
 20
1019.040389038225
 30
0.0
 11
464.94882756984111
 21
977.07520099816611
 31
0.0
  0
TRACE
  5
63D9
  8
AM_5
 10
463.03360938895293
 20
975.79458369222141
 30
0.0
 11
466.86404575072942
 21
978.35581830411104
 31
0.0
 12
474.67608178169837
 22
962.52767455901153
 32
0.0
 13
474.67608178169837
 23
962.52767455901153
 33
0.0
  0
INSERT
  5
63DA
  8
ﾃ_ﾌ_ﾙ
  2
*U131
 10
0.0
 20
0.0
 30
0.0
  0
CIRCLE
  5
63DB
  8
AM_5
 62
     3
 10
419.86596358227359
 20
1044.498560306746
 30
0.0
 40
30.625
  0
ENDBLK
  5
63DD
  8
0
  0
BLOCK
  8
0
  2
*S67
 70
     1
 10
0.0
 20
0.0
 30
0.0
  3
*S67
  1

  0
LINE
  5
63E0
  8
AM_5
 10
561.32798576930827
 20
1026.172572476625
 30
0.0
 11
540.71735863799552
 21
991.74651933891744
 31
0.0
  0
TRACE
  5
63E1
  8
AM_5
 10
538.74062549723624
 20
992.92997506471124
 30
0.0
 11
542.6940917787548
 21
990.56306361312375
 31
0.0
 12
531.72811990146226
 22
976.73174038824311
 32
0.0
 13
531.72811990146226
 23
976.73174038824311
 33
0.0
  0
INSERT
  5
63E2
  8
ﾃ_ﾌ_ﾙ
  2
*U132
 10
0.0
 20
0.0
 30
0.0
  0
CIRCLE
  5
63E3
  8
AM_5
 62
     3
 10
577.05915355824106
 20
1052.448435640305
 30
0.0
 40
30.625
  0
ENDBLK
  5
63E5
  8
0
  0
BLOCK
  8
0
  2
*S68
 70
     1
 10
0.0
 20
0.0
 30
0.0
  3
*S68
  1

  0
LINE
  5
63E8
  8
AM_5
 10
537.28925896774535
 20
354.20515707118892
 30
0.0
 11
504.54432683617978
 21
306.28706275780502
 31
0.0
  0
TRACE
  5
63E9
  8
AM_5
 10
503.02256566371591
 20
307.32696150642579
 30
0.0
 11
506.06608800864359
 21
305.24716400918419
 31
0.0
 12
496.6455116042834
 22
294.72813902190461
 32
0.0
 13
496.6455116042834
 23
294.72813902190461
 33
0.0
  0
INSERT
  5
63EA
  8
ﾃ_ﾌ_ﾙ
  2
*U133
 10
0.0
 20
0.0
 30
0.0
  0
CIRCLE
  5
63EB
  8
AM_5
 62
     3
 10
551.11218562356396
 20
374.43327360901458
 30
0.0
 40
24.5
  0
ENDBLK
  5
63ED
  8
0
  0
BLOCK
  8
0
  2
*S69
 70
     1
 10
0.0
 20
0.0
 30
0.0
  3
*S69
  1

  0
LINE
  5
63F0
  8
AM_5
 10
1685.5579989451981
 20
799.79043923965708
 30
0.0
 11
1646.3861847636481
 21
766.39313065661588
 31
0.0
  0
TRACE
  5
63F1
  8
AM_5
 10
1644.891425859611
 20
768.146338340689
 30
0.0
 11
1647.880943667685
 21
764.63992297254276
 31
0.0
 12
1633.0692502274719
 22
755.03930951308848
 32
0.0
 13
1633.0692502274719
 23
755.03930951308848
 33
0.0
  0
INSERT
  5
63F2
  8
ﾃ_ﾌ_ﾙ
  2
*U134
 10
0.0
 20
0.0
 30
0.0
  0
CIRCLE
  5
63F3
  8
AM_5
 62
     3
 10
1708.862634383506
 20
819.65962624083022
 30
0.0
 40
30.625
  0
ENDBLK
  5
63F5
  8
0
  0
BLOCK
  8
0
  2
*S70
 70
     1
 10
0.0
 20
0.0
 30
0.0
  3
*S70
  1

  0
CIRCLE
  5
63F8
  8
AM_12
 62
     4
 10
1511.688288786273
 20
268.9012187324351
 30
-374.380611490229
 40
7.0
  0
LINE
  5
63F9
  8
AM_12
 62
     4
 10
1504.688288786273
 20
261.90121873243498
 30
-374.380611490229
 11
1518.688288786273
 21
275.90121873243498
 31
-374.380611490229
  0
LINE
  5
63FA
  8
AM_12
 62
     4
 10
1504.688288786273
 20
275.90121873243498
 30
-374.380611490229
 11
1518.688288786273
 21
261.90121873243498
 31
-374.380611490229
  0
ENDBLK
  5
63FC
  8
0
  0
BLOCK
  8
0
  2
*S71
 70
     1
 10
0.0
 20
0.0
 30
0.0
  3
*S71
  1

  0
CIRCLE
  5
63FF
  8
AM_12
 62
     4
 10
1653.148420323007
 20
268.41116838828651
 30
-374.380611490229
 40
7.0
  0
LINE
  5
6400
  8
AM_12
 62
     4
 10
1646.148420323007
 20
261.4111683882864
 30
-374.380611490229
 11
1660.148420323007
 21
275.4111683882864
 31
-374.380611490229
  0
LINE
  5
6401
  8
AM_12
 62
     4
 10
1646.148420323007
 20
275.4111683882864
 30
-374.380611490229
 11
1660.148420323007
 21
261.4111683882864
 31
-374.380611490229
  0
ENDBLK
  5
6403
  8
0
  0
BLOCK
  8
0
  2
*S72
 70
     1
 10
0.0
 20
0.0
 30
0.0
  3
*S72
  1

  0
CIRCLE
  5
6406
  8
AM_12
 62
     4
 10
1892.532215409135
 20
269.14307337774881
 30
-374.380611490229
 40
7.0
  0
LINE
  5
6407
  8
AM_12
 62
     4
 10
1885.532215409135
 20
262.14307337774881
 30
-374.380611490229
 11
1899.532215409135
 21
276.14307337774881
 31
-374.380611490229
  0
LINE
  5
6408
  8
AM_12
 62
     4
 10
1885.532215409135
 20
276.14307337774881
 30
-374.380611490229
 11
1899.532215409135
 21
262.14307337774881
 31
-374.380611490229
  0
ENDBLK
  5
640A
  8
0
  0
BLOCK
  8
0
  2
*S73
 70
     1
 10
0.0
 20
0.0
 30
0.0
  3
*S73
  1

  0
LINE
  5
640D
  8
0
 62
     1
 10
1050.0
 20
1307.375
 30
0.0
 11
2015.0
 21
1307.375
 31
0.0
  0
LINE
  5
640E
  8
0
 62
     1
 10
1050.0
 20
1276.5
 30
0.0
 11
2015.0
 21
1276.5
 31
0.0
  0
LINE
  5
640F
  8
0
 62
     1
 10
1050.0
 20
1245.625
 30
0.0
 11
2015.0
 21
1245.625
 31
0.0
  0
LINE
  5
6410
  8
0
 62
     1
 10
1050.0
 20
1214.75
 30
0.0
 11
2015.0
 21
1214.75
 31
0.0
  0
LINE
  5
6411
  8
0
 62
     1
 10
1050.0
 20
1183.875
 30
0.0
 11
2015.0
 21
1183.875
 31
0.0
  0
LINE
  5
6412
  8
0
 62
     1
 10
1050.0
 20
1153.0
 30
0.0
 11
2015.0
 21
1153.0
 31
0.0
  0
LINE
  5
6413
  8
0
 62
     1
 10
1050.0
 20
1122.125
 30
0.0
 11
2015.0
 21
1122.125
 31
0.0
  0
LINE
  5
6414
  8
0
 62
     1
 10
1050.0
 20
1091.25
 30
0.0
 11
2015.0
 21
1091.25
 31
0.0
  0
LINE
  5
6415
  8
0
 62
     1
 10
1050.0
 20
1060.375
 30
0.0
 11
2015.0
 21
1060.375
 31
0.0
  0
LINE
  5
6416
  8
0
 62
     1
 10
1050.0
 20
1029.5
 30
0.0
 11
2015.0
 21
1029.5
 31
0.0
  0
INSERT
  5
6417
  8
ﾃ_ﾌ_ﾙ
  2
*U135
 10
0.0
 20
0.0
 30
0.0
  0
LINE
  5
6418
  8
0
 62
     1
 10
1125.0
 20
1338.25
 30
0.0
 11
1125.0
 21
1307.375
 31
0.0
  0
INSERT
  5
6419
  8
ﾃ_ﾌ_ﾙ
  2
*U136
 10
0.0
 20
0.0
 30
0.0
  0
LINE
  5
641A
  8
0
 62
     1
 10
1350.0
 20
1338.25
 30
0.0
 11
1350.0
 21
1307.375
 31
0.0
  0
INSERT
  5
641B
  8
ﾃ_ﾌ_ﾙ
  2
*U137
 10
0.0
 20
0.0
 30
0.0
  0
LINE
  5
641C
  8
0
 62
     1
 10
1450.0
 20
1338.25
 30
0.0
 11
1450.0
 21
1307.375
 31
0.0
  0
INSERT
  5
641D
  8
ﾃ_ﾌ_ﾙ
  2
*U138
 10
0.0
 20
0.0
 30
0.0
  0
LINE
  5
641E
  8
0
 62
     1
 10
1700.0
 20
1338.25
 30
0.0
 11
1700.0
 21
1307.375
 31
0.0
  0
INSERT
  5
641F
  8
ﾃ_ﾌ_ﾙ
  2
*U139
 10
0.0
 20
0.0
 30
0.0
  0
INSERT
  5
6420
  8
ﾃ_ﾌ_ﾙ
  2
*U140
 10
0.0
 20
0.0
 30
0.0
  0
LINE
  5
6421
  8
0
 62
     1
 10
1125.0
 20
1307.375
 30
0.0
 11
1125.0
 21
1276.5
 31
0.0
  0
INSERT
  5
6422
  8
ﾃ_ﾌ_ﾙ
  2
*U141
 10
0.0
 20
0.0
 30
0.0
  0
LINE
  5
6423
  8
0
 62
     1
 10
1350.0
 20
1307.375
 30
0.0
 11
1350.0
 21
1276.5
 31
0.0
  0
INSERT
  5
6424
  8
ﾃ_ﾌ_ﾙ
  2
*U142
 10
0.0
 20
0.0
 30
0.0
  0
LINE
  5
6425
  8
0
 62
     1
 10
1450.0
 20
1307.375
 30
0.0
 11
1450.0
 21
1276.5
 31
0.0
  0
INSERT
  5
6426
  8
ﾃ_ﾌ_ﾙ
  2
*U143
 10
0.0
 20
0.0
 30
0.0
  0
LINE
  5
6427
  8
0
 62
     1
 10
1700.0
 20
1307.375
 30
0.0
 11
1700.0
 21
1276.5
 31
0.0
  0
INSERT
  5
6428
  8
ﾃ_ﾌ_ﾙ
  2
*U144
 10
0.0
 20
0.0
 30
0.0
  0
INSERT
  5
6429
  8
ﾃ_ﾌ_ﾙ
  2
*U145
 10
0.0
 20
0.0
 30
0.0
  0
LINE
  5
642A
  8
0
 62
     1
 10
1125.0
 20
1276.5
 30
0.0
 11
1125.0
 21
1245.625
 31
0.0
  0
INSERT
  5
642B
  8
ﾃ_ﾌ_ﾙ
  2
*U146
 10
0.0
 20
0.0
 30
0.0
  0
LINE
  5
642C
  8
0
 62
     1
 10
1350.0
 20
1276.5
 30
0.0
 11
1350.0
 21
1245.625
 31
0.0
  0
INSERT
  5
642D
  8
ﾃ_ﾌ_ﾙ
  2
*U147
 10
0.0
 20
0.0
 30
0.0
  0
LINE
  5
642E
  8
0
 62
     1
 10
1450.0
 20
1276.5
 30
0.0
 11
1450.0
 21
1245.625
 31
0.0
  0
INSERT
  5
642F
  8
ﾃ_ﾌ_ﾙ
  2
*U148
 10
0.0
 20
0.0
 30
0.0
  0
LINE
  5
6430
  8
0
 62
     1
 10
1700.0
 20
1276.5
 30
0.0
 11
1700.0
 21
1245.625
 31
0.0
  0
INSERT
  5
6431
  8
ﾃ_ﾌ_ﾙ
  2
*U149
 10
0.0
 20
0.0
 30
0.0
  0
INSERT
  5
6432
  8
ﾃ_ﾌ_ﾙ
  2
*U150
 10
0.0
 20
0.0
 30
0.0
  0
LINE
  5
6433
  8
0
 62
     1
 10
1125.0
 20
1245.625
 30
0.0
 11
1125.0
 21
1214.75
 31
0.0
  0
INSERT
  5
6434
  8
ﾃ_ﾌ_ﾙ
  2
*U151
 10
0.0
 20
0.0
 30
0.0
  0
LINE
  5
6435
  8
0
 62
     1
 10
1350.0
 20
1245.625
 30
0.0
 11
1350.0
 21
1214.75
 31
0.0
  0
INSERT
  5
6436
  8
ﾃ_ﾌ_ﾙ
  2
*U152
 10
0.0
 20
0.0
 30
0.0
  0
LINE
  5
6437
  8
0
 62
     1
 10
1450.0
 20
1245.625
 30
0.0
 11
1450.0
 21
1214.75
 31
0.0
  0
INSERT
  5
6438
  8
ﾃ_ﾌ_ﾙ
  2
*U153
 10
0.0
 20
0.0
 30
0.0
  0
LINE
  5
6439
  8
0
 62
     1
 10
1700.0
 20
1245.625
 30
0.0
 11
1700.0
 21
1214.75
 31
0.0
  0
INSERT
  5
643A
  8
ﾃ_ﾌ_ﾙ
  2
*U154
 10
0.0
 20
0.0
 30
0.0
  0
INSERT
  5
643B
  8
ﾃ_ﾌ_ﾙ
  2
*U155
 10
0.0
 20
0.0
 30
0.0
  0
LINE
  5
643C
  8
0
 62
     1
 10
1125.0
 20
1214.75
 30
0.0
 11
1125.0
 21
1183.875
 31
0.0
  0
INSERT
  5
643D
  8
ﾃ_ﾌ_ﾙ
  2
*U156
 10
0.0
 20
0.0
 30
0.0
  0
LINE
  5
643E
  8
0
 62
     1
 10
1350.0
 20
1214.75
 30
0.0
 11
1350.0
 21
1183.875
 31
0.0
  0
INSERT
  5
643F
  8
ﾃ_ﾌ_ﾙ
  2
*U157
 10
0.0
 20
0.0
 30
0.0
  0
LINE
  5
6440
  8
0
 62
     1
 10
1450.0
 20
1214.75
 30
0.0
 11
1450.0
 21
1183.875
 31
0.0
  0
INSERT
  5
6441
  8
ﾃ_ﾌ_ﾙ
  2
*U158
 10
0.0
 20
0.0
 30
0.0
  0
LINE
  5
6442
  8
0
 62
     1
 10
1700.0
 20
1214.75
 30
0.0
 11
1700.0
 21
1183.875
 31
0.0
  0
INSERT
  5
6443
  8
ﾃ_ﾌ_ﾙ
  2
*U159
 10
0.0
 20
0.0
 30
0.0
  0
INSERT
  5
6444
  8
ﾃ_ﾌ_ﾙ
  2
*U160
 10
0.0
 20
0.0
 30
0.0
  0
LINE
  5
6445
  8
0
 62
     1
 10
1125.0
 20
1183.875
 30
0.0
 11
1125.0
 21
1153.0
 31
0.0
  0
INSERT
  5
6446
  8
ﾃ_ﾌ_ﾙ
  2
*U161
 10
0.0
 20
0.0
 30
0.0
  0
LINE
  5
6447
  8
0
 62
     1
 10
1350.0
 20
1183.875
 30
0.0
 11
1350.0
 21
1153.0
 31
0.0
  0
INSERT
  5
6448
  8
ﾃ_ﾌ_ﾙ
  2
*U162
 10
0.0
 20
0.0
 30
0.0
  0
LINE
  5
6449
  8
0
 62
     1
 10
1450.0
 20
1183.875
 30
0.0
 11
1450.0
 21
1153.0
 31
0.0
  0
INSERT
  5
644A
  8
ﾃ_ﾌ_ﾙ
  2
*U163
 10
0.0
 20
0.0
 30
0.0
  0
LINE
  5
644B
  8
0
 62
     1
 10
1700.0
 20
1183.875
 30
0.0
 11
1700.0
 21
1153.0
 31
0.0
  0
INSERT
  5
644C
  8
ﾃ_ﾌ_ﾙ
  2
*U164
 10
0.0
 20
0.0
 30
0.0
  0
INSERT
  5
644D
  8
ﾃ_ﾌ_ﾙ
  2
*U165
 10
0.0
 20
0.0
 30
0.0
  0
LINE
  5
644E
  8
0
 62
     1
 10
1125.0
 20
1153.0
 30
0.0
 11
1125.0
 21
1122.125
 31
0.0
  0
INSERT
  5
644F
  8
ﾃ_ﾌ_ﾙ
  2
*U166
 10
0.0
 20
0.0
 30
0.0
  0
LINE
  5
6450
  8
0
 62
     1
 10
1350.0
 20
1153.0
 30
0.0
 11
1350.0
 21
1122.125
 31
0.0
  0
INSERT
  5
6451
  8
ﾃ_ﾌ_ﾙ
  2
*U167
 10
0.0
 20
0.0
 30
0.0
  0
LINE
  5
6452
  8
0
 62
     1
 10
1450.0
 20
1153.0
 30
0.0
 11
1450.0
 21
1122.125
 31
0.0
  0
INSERT
  5
6453
  8
ﾃ_ﾌ_ﾙ
  2
*U168
 10
0.0
 20
0.0
 30
0.0
  0
LINE
  5
6454
  8
0
 62
     1
 10
1700.0
 20
1153.0
 30
0.0
 11
1700.0
 21
1122.125
 31
0.0
  0
INSERT
  5
6455
  8
ﾃ_ﾌ_ﾙ
  2
*U169
 10
0.0
 20
0.0
 30
0.0
  0
INSERT
  5
6456
  8
ﾃ_ﾌ_ﾙ
  2
*U170
 10
0.0
 20
0.0
 30
0.0
  0
LINE
  5
6457
  8
0
 62
     1
 10
1125.0
 20
1122.125
 30
0.0
 11
1125.0
 21
1091.25
 31
0.0
  0
INSERT
  5
6458
  8
ﾃ_ﾌ_ﾙ
  2
*U171
 10
0.0
 20
0.0
 30
0.0
  0
LINE
  5
6459
  8
0
 62
     1
 10
1350.0
 20
1122.125
 30
0.0
 11
1350.0
 21
1091.25
 31
0.0
  0
INSERT
  5
645A
  8
ﾃ_ﾌ_ﾙ
  2
*U172
 10
0.0
 20
0.0
 30
0.0
  0
LINE
  5
645B
  8
0
 62
     1
 10
1450.0
 20
1122.125
 30
0.0
 11
1450.0
 21
1091.25
 31
0.0
  0
INSERT
  5
645C
  8
ﾃ_ﾌ_ﾙ
  2
*U173
 10
0.0
 20
0.0
 30
0.0
  0
LINE
  5
645D
  8
0
 62
     1
 10
1700.0
 20
1122.125
 30
0.0
 11
1700.0
 21
1091.25
 31
0.0
  0
INSERT
  5
645E
  8
ﾃ_ﾌ_ﾙ
  2
*U174
 10
0.0
 20
0.0
 30
0.0
  0
INSERT
  5
645F
  8
ﾃ_ﾌ_ﾙ
  2
*U175
 10
0.0
 20
0.0
 30
0.0
  0
LINE
  5
6460
  8
0
 62
     1
 10
1125.0
 20
1091.25
 30
0.0
 11
1125.0
 21
1060.375
 31
0.0
  0
INSERT
  5
6461
  8
ﾃ_ﾌ_ﾙ
  2
*U176
 10
0.0
 20
0.0
 30
0.0
  0
LINE
  5
6462
  8
0
 62
     1
 10
1350.0
 20
1091.25
 30
0.0
 11
1350.0
 21
1060.375
 31
0.0
  0
INSERT
  5
6463
  8
ﾃ_ﾌ_ﾙ
  2
*U177
 10
0.0
 20
0.0
 30
0.0
  0
LINE
  5
6464
  8
0
 62
     1
 10
1450.0
 20
1091.25
 30
0.0
 11
1450.0
 21
1060.375
 31
0.0
  0
INSERT
  5
6465
  8
ﾃ_ﾌ_ﾙ
  2
*U178
 10
0.0
 20
0.0
 30
0.0
  0
LINE
  5
6466
  8
0
 62
     1
 10
1700.0
 20
1091.25
 30
0.0
 11
1700.0
 21
1060.375
 31
0.0
  0
INSERT
  5
6467
  8
ﾃ_ﾌ_ﾙ
  2
*U179
 10
0.0
 20
0.0
 30
0.0
  0
INSERT
  5
6468
  8
ﾃ_ﾌ_ﾙ
  2
*U180
 10
0.0
 20
0.0
 30
0.0
  0
LINE
  5
6469
  8
0
 62
     1
 10
1125.0
 20
1060.375
 30
0.0
 11
1125.0
 21
1029.5
 31
0.0
  0
INSERT
  5
646A
  8
ﾃ_ﾌ_ﾙ
  2
*U181
 10
0.0
 20
0.0
 30
0.0
  0
LINE
  5
646B
  8
0
 62
     1
 10
1350.0
 20
1060.375
 30
0.0
 11
1350.0
 21
1029.5
 31
0.0
  0
INSERT
  5
646C
  8
ﾃ_ﾌ_ﾙ
  2
*U182
 10
0.0
 20
0.0
 30
0.0
  0
LINE
  5
646D
  8
0
 62
     1
 10
1450.0
 20
1060.375
 30
0.0
 11
1450.0
 21
1029.5
 31
0.0
  0
INSERT
  5
646E
  8
ﾃ_ﾌ_ﾙ
  2
*U183
 10
0.0
 20
0.0
 30
0.0
  0
LINE
  5
646F
  8
0
 62
     1
 10
1700.0
 20
1060.375
 30
0.0
 11
1700.0
 21
1029.5
 31
0.0
  0
INSERT
  5
6470
  8
ﾃ_ﾌ_ﾙ
  2
*U184
 10
0.0
 20
0.0
 30
0.0
  0
INSERT
  5
6471
  8
ﾃ_ﾌ_ﾙ
  2
*U185
 10
0.0
 20
0.0
 30
0.0
  0
LINE
  5
6472
  8
0
 62
     1
 10
1125.0
 20
1029.5
 30
0.0
 11
1125.0
 21
998.62500000000011
 31
0.0
  0
INSERT
  5
6473
  8
ﾃ_ﾌ_ﾙ
  2
*U186
 10
0.0
 20
0.0
 30
0.0
  0
LINE
  5
6474
  8
0
 62
     1
 10
1350.0
 20
1029.5
 30
0.0
 11
1350.0
 21
998.62500000000011
 31
0.0
  0
INSERT
  5
6475
  8
ﾃ_ﾌ_ﾙ
  2
*U187
 10
0.0
 20
0.0
 30
0.0
  0
LINE
  5
6476
  8
0
 62
     1
 10
1450.0
 20
1029.5
 30
0.0
 11
1450.0
 21
998.62500000000011
 31
0.0
  0
INSERT
  5
6477
  8
ﾃ_ﾌ_ﾙ
  2
*U188
 10
0.0
 20
0.0
 30
0.0
  0
LINE
  5
6478
  8
0
 62
     1
 10
1700.0
 20
1029.5
 30
0.0
 11
1700.0
 21
998.62500000000011
 31
0.0
  0
INSERT
  5
6479
  8
ﾃ_ﾌ_ﾙ
  2
*U189
 10
0.0
 20
0.0
 30
0.0
  0
LINE
  5
647A
  8
0
 62
     1
 10
1050.0
 20
1338.25
 30
0.0
 11
2015.0
 21
1338.25
 31
0.0
  0
INSERT
  5
647B
  8
ﾃ_ﾌ_ﾙ
  2
*U190
 10
0.0
 20
0.0
 30
0.0
  0
LINE
  5
647C
  8
0
 62
     1
 10
1125.0
 20
1369.125
 30
0.0
 11
1125.0
 21
1338.25
 31
0.0
  0
INSERT
  5
647D
  8
ﾃ_ﾌ_ﾙ
  2
*U191
 10
0.0
 20
0.0
 30
0.0
  0
LINE
  5
647E
  8
0
 62
     1
 10
1350.0
 20
1369.125
 30
0.0
 11
1350.0
 21
1338.25
 31
0.0
  0
INSERT
  5
647F
  8
ﾃ_ﾌ_ﾙ
  2
*U192
 10
0.0
 20
0.0
 30
0.0
  0
LINE
  5
6480
  8
0
 62
     1
 10
1450.0
 20
1369.125
 30
0.0
 11
1450.0
 21
1338.25
 31
0.0
  0
INSERT
  5
6481
  8
ﾃ_ﾌ_ﾙ
  2
*U193
 10
0.0
 20
0.0
 30
0.0
  0
LINE
  5
6482
  8
0
 62
     1
 10
1700.0
 20
1369.125
 30
0.0
 11
1700.0
 21
1338.25
 31
0.0
  0
INSERT
  5
6483
  8
ﾃ_ﾌ_ﾙ
  2
*U194
 10
0.0
 20
0.0
 30
0.0
  0
INSERT
  5
6484
  8
ﾃ_ﾌ_ﾙ
  2
*U195
 10
0.0
 20
0.0
 30
0.0
  0
LINE
  5
6485
  8
0
 62
     1
 10
1050.0
 20
1369.125
 30
0.0
 11
2015.0
 21
1369.125
 31
0.0
  0
LINE
  5
6486
  8
0
 62
     7
 10
1050.0
 20
1400.0
 30
0.0
 11
2015.0
 21
1400.0
 31
0.0
  0
LINE
  5
6487
  8
0
 62
     7
 10
2015.0
 20
1400.0
 30
0.0
 11
2015.0
 21
998.62500000000011
 31
0.0
  0
LINE
  5
6488
  8
0
 62
     7
 10
2015.0
 20
998.62500000000011
 30
0.0
 11
1050.0
 21
998.62500000000011
 31
0.0
  0
LINE
  5
6489
  8
0
 62
     7
 10
1050.0
 20
998.62500000000011
 30
0.0
 11
1050.0
 21
1400.0
 31
0.0
  0
ENDBLK
  5
648B
  8
0
  0
BLOCK
  8
0
  2
*S74
 70
     1
 10
0.0
 20
0.0
 30
0.0
  3
*S74
  1

  0
CIRCLE
  5
648E
  8
AM_12
 62
     4
 10
1777.2124130189659
 20
268.80512492633352
 30
0.0
 40
7.0
  0
LINE
  5
648F
  8
AM_12
 62
     4
 10
1770.2124130189659
 20
261.80512492633352
 30
0.0
 11
1784.2124130189659
 21
275.80512492633352
 31
0.0
  0
LINE
  5
6490
  8
AM_12
 62
     4
 10
1770.2124130189659
 20
275.80512492633352
 30
0.0
 11
1784.2124130189659
 21
261.80512492633352
 31
0.0
  0
ENDBLK
  5
6492
  8
0
  0
BLOCK
  8
0
  2
*S75
 70
     1
 10
0.0
 20
0.0
 30
0.0
  3
*S75
  1

  0
LINE
  5
6495
  8
AM_5
 10
1534.0411227585089
 20
299.47547148723072
 30
0.0
 11
1523.5880761521159
 21
285.74613877908388
 31
0.0
  0
TRACE
  5
6496
  8
AM_5
 10
1521.7549901259131
 20
287.14178808504471
 30
0.0
 11
1525.4211621783199
 21
284.35048947312322
 31
0.0
 12
1512.987067149144
 22
271.8224679944488
 32
0.0
 13
1512.987067149144
 23
271.8224679944488
 33
0.0
  0
INSERT
  5
6497
  8
ﾃ_ﾌ_ﾙ
  2
*U196
 10
0.0
 20
0.0
 30
0.0
  0
CIRCLE
  5
6498
  8
AM_5
 62
     3
 10
1552.5928885137109
 20
323.84189536034228
 30
0.0
 40
30.625
  0
ENDBLK
  5
649A
  8
0
  0
BLOCK
  8
0
  2
*S76
 70
     1
 10
0.0
 20
0.0
 30
0.0
  3
*S76
  1

  0
LINE
  5
649D
  8
AM_5
 10
1662.0811885997159
 20
300.95602982388567
 30
0.0
 11
1653.5162993705369
 21
288.64641508319312
 31
0.0
  0
TRACE
  5
649E
  8
AM_5
 10
1651.6251214586321
 20
289.96227505682742
 30
0.0
 11
1655.407477282442
 21
287.33055510955882
 31
0.0
 12
1643.521350519439
 22
274.28149261685388
 32
0.0
 13
1643.521350519439
 23
274.28149261685388
 33
0.0
  0
INSERT
  5
649F
  8
ﾃ_ﾌ_ﾙ
  2
*U197
 10
0.0
 20
0.0
 30
0.0
  0
CIRCLE
  5
64A0
  8
AM_5
 62
     3
 10
1679.572349089138
 20
326.09464413997921
 30
0.0
 40
30.625
  0
ENDBLK
  5
64A2
  8
0
  0
BLOCK
  8
0
  2
*S77
 70
     1
 10
0.0
 20
0.0
 30
0.0
  3
*S77
  1

  0
LINE
  5
64A5
  8
AM_5
 10
1785.585682366798
 20
298.9319029137456
 30
0.0
 11
1773.0949250200199
 21
282.56209690495922
 31
0.0
  0
TRACE
  5
64A6
  8
AM_5
 10
1771.2633146378309
 20
283.95968224136942
 30
0.0
 11
1774.9265354022091
 21
281.16451156854907
 31
0.0
 12
1762.479210405734
 22
268.6496347494658
 32
0.0
 13
1762.479210405734
 23
268.6496347494658
 33
0.0
  0
INSERT
  5
64A7
  8
ﾃ_ﾌ_ﾙ
  2
*U198
 10
0.0
 20
0.0
 30
0.0
  0
CIRCLE
  5
64A8
  8
AM_5
 62
     3
 10
1804.1631829417979
 20
323.27871168585898
 30
0.0
 40
30.625
  0
ENDBLK
  5
64AA
  8
0
  0
BLOCK
  8
0
  2
*S78
 70
     1
 10
0.0
 20
0.0
 30
0.0
  3
*S78
  1

  0
LINE
  5
64AD
  8
AM_5
 10
1905.815633407821
 20
297.1820351581253
 30
0.0
 11
1892.4336736625451
 21
282.56387293294858
 31
0.0
  0
TRACE
  5
64AE
  8
AM_5
 10
1890.734287229325
 20
284.11954870742079
 30
0.0
 11
1894.133060095764
 21
281.00819715847638
 31
0.0
 12
1880.617142947809
 22
269.65575138611979
 32
0.0
 13
1880.617142947809
 23
269.65575138611979
 33
0.0
  0
INSERT
  5
64AF
  8
ﾃ_ﾌ_ﾙ
  2
*U199
 10
0.0
 20
0.0
 30
0.0
  0
CIRCLE
  5
64B0
  8
AM_5
 62
     3
 10
1926.4945621586089
 20
319.77124786507562
 30
0.0
 40
30.625
  0
ENDBLK
  5
64B2
  8
0
  0
BLOCK
  8
0
  2
*U79
 70
     1
 10
0.0
 20
0.0
 30
0.0
  3
*U79
  1

  0
TEXT
  5
64D0
  8
0
 10
367.55531168523049
 20
276.233542987227
 30
0.0
 40
2.5
  1
(文書番号：TY-34)2004.10.29
  0
ENDBLK
  5
64D2
  8
0
  0
BLOCK
  8
0
  2
*U80
 70
     1
 10
0.0
 20
0.0
 30
0.0
  3
*U80
  1

  0
TEXT
  5
64D5
  8
RAHM2
 10
-193.80025513713139
 20
3.3010354072796408
 30
0.0
 40
2.5
  1
図番
  0
ENDBLK
  5
64D7
  8
0
  0
BLOCK
  8
0
  2
*U81
 70
     1
 10
0.0
 20
0.0
 30
0.0
  3
*U81
  1

  0
TEXT
  5
64D9
  8
RAHM2
 10
-193.0
 20
21.249999999999972
 30
0.0
 40
2.5
  1
符号
  0
ENDBLK
  5
64DB
  8
0
  0
BLOCK
  8
0
  2
*U82
 70
     1
 10
0.0
 20
0.0
 30
0.0
  3
*U82
  1

  0
TEXT
  5
64DD
  8
RAHM2
 10
-193.80025513713139
 20
16.30103540727961
 30
0.0
 40
2.5
  1
品名
  0
ENDBLK
  5
64DF
  8
0
  0
BLOCK
  8
0
  2
*U83
 70
     1
 10
0.0
 20
0.0
 30
0.0
  3
*U83
  1

  0
TEXT
  5
64E1
  8
RAHM2
 10
-163.1448171868856
 20
21.249999999999972
 30
0.0
 40
2.5
  1
変更記事
  0
ENDBLK
  5
64E3
  8
0
  0
BLOCK
  8
0
  2
*U84
 70
     1
 10
0.0
 20
0.0
 30
0.0
  3
*U84
  1

  0
TEXT
  5
64E5
  8
0
 10
-88.85532994923858
 20
3.4187817258883251
 30
0.0
 40
3.5
  1
株式会社タカチ電機工業
  0
ENDBLK
  5
64E7
  8
0
  0
BLOCK
  8
0
  2
*U85
 70
     1
 10
0.0
 20
0.0
 30
0.0
  3
*U85
  1

  0
TEXT
  5
64E9
  8
RAHM2
 10
-123.3541228057275
 20
31.250000000000028
 30
0.0
 40
2.5
  1
・  ・   
  0
ENDBLK
  5
64EB
  8
0
  0
BLOCK
  8
0
  2
*U86
 70
     1
 10
0.0
 20
0.0
 30
0.0
  3
*U86
  1

  0
TEXT
  5
64ED
  8
RAHM2
 10
-126.238119805002
 20
21.249999999999972
 30
0.0
 40
2.5
  1
年・月・日
  0
ENDBLK
  5
64EF
  8
0
  0
BLOCK
  8
0
  2
*U87
 70
     1
 10
0.0
 20
0.0
 30
0.0
  3
*U87
  1

  0
TEXT
  5
64F1
  8
RAHM2
 10
-104.5
 20
21.249999999999972
 30
0.0
 40
2.5
  1
担当
  0
ENDBLK
  5
64F3
  8
0
  0
BLOCK
  8
0
  2
*U88
 70
     1
 10
0.0
 20
0.0
 30
0.0
  3
*U88
  1

  0
TEXT
  5
64F5
  8
RAHM2
 10
-123.3541228057275
 20
41.250000000000021
 30
0.0
 40
2.5
  1
・  ・   
  0
ENDBLK
  5
64F7
  8
0
  0
BLOCK
  8
0
  2
*U89
 70
     1
 10
0.0
 20
0.0
 30
0.0
  3
*U89
  1

  0
TEXT
  5
64F9
  8
RAHM2
 10
-123.3541228057275
 20
36.250000000000028
 30
0.0
 40
2.5
  1
・  ・   
  0
ENDBLK
  5
64FB
  8
0
  0
BLOCK
  8
0
  2
*U90
 70
     1
 10
0.0
 20
0.0
 30
0.0
  3
*U90
  1

  0
TEXT
  5
64FD
  8
RAHM2
 10
-123.3541228057275
 20
46.250000000000021
 30
0.0
 40
2.5
  1
・  ・   
  0
ENDBLK
  5
64FF
  8
0
  0
BLOCK
  8
0
  2
*U91
 70
     1
 10
0.0
 20
0.0
 30
0.0
  3
*U91
  1

  0
TEXT
  5
6501
  8
RAHM2
 10
-92.800255137131444
 20
13.80103540727964
 30
0.0
 40
2.5
  1
日付
  0
ENDBLK
  5
6503
  8
0
  0
BLOCK
  8
0
  2
*U92
 70
     1
 10
0.0
 20
0.0
 30
0.0
  3
*U92
  1

  0
TEXT
  5
6505
  8
RAHM2
 10
-92.800255137131444
 20
23.801035407279642
 30
0.0
 40
2.5
  1
表面処理
  0
ENDBLK
  5
6507
  8
0
  0
BLOCK
  8
0
  2
*U93
 70
     1
 10
0.0
 20
0.0
 30
0.0
  3
*U93
  1

  0
TEXT
  5
6509
  8
RAHM2
 10
-92.800255137131444
 20
33.801035407279642
 30
0.0
 40
2.5
  1
材質
  0
ENDBLK
  5
650B
  8
0
  0
BLOCK
  8
0
  2
*U94
 70
     1
 10
0.0
 20
0.0
 30
0.0
  3
*U94
  1

  0
TEXT
  5
650D
  8
RAHM2
 10
-72.800255137131444
 20
46.301035407279642
 30
0.0
 40
2.5
  1
尺度
  0
ENDBLK
  5
650F
  8
0
  0
BLOCK
  8
0
  2
*U95
 70
     1
 10
0.0
 20
0.0
 30
0.0
  3
*U95
  1

  0
TEXT
  5
6511
  8
RAHM2
 10
-52.800255137131451
 20
46.301035407279642
 30
0.0
 40
2.5
  1
数量
  0
ENDBLK
  5
6513
  8
0
  0
BLOCK
  8
0
  2
*U96
 70
     1
 10
0.0
 20
0.0
 30
0.0
  3
*U96
  1

  0
TEXT
  5
6515
  8
RAHM2
 10
-28.3125
 20
21.301035407279642
 30
0.0
 40
2.5
  1
承認
  0
ENDBLK
  5
6517
  8
0
  0
BLOCK
  8
0
  2
*U97
 70
     1
 10
0.0
 20
0.0
 30
0.0
  3
*U97
  1

  0
TEXT
  5
6519
  8
RAHM2
 10
-28.3125
 20
46.301035407279642
 30
0.0
 40
2.5
  1
承認
  0
ENDBLK
  5
651B
  8
0
  0
BLOCK
  8
0
  2
*U98
 70
     1
 10
0.0
 20
0.0
 30
0.0
  3
*U98
  1

  0
TEXT
  5
651D
  8
RAHM2
 10
-123.3541228057275
 20
26.250000000000028
 30
0.0
 40
2.5
  1
・  ・   
  0
ENDBLK
  5
651F
  8
0
  0
BLOCK
  8
0
  2
*U99
 70
     1
 10
0.0
 20
0.0
 30
0.0
  3
*U99
  1

  0
TEXT
  5
6521
  8
RAHM2
 10
-11.3125
 20
46.301035407279642
 30
0.0
 40
2.5
  1
検図
  0
ENDBLK
  5
6523
  8
0
  0
BLOCK
  8
0
  2
*U100
 70
     1
 10
0.0
 20
0.0
 30
0.0
  3
*U100
  1

  0
TEXT
  5
6525
  8
RAHM2
 10
-11.3125
 20
21.301035407279642
 30
0.0
 40
2.5
  1
製図
  0
ENDBLK
  5
6527
  8
0
  0
BLOCK
  8
0
  2
*U101
 70
     1
 10
0.0
 20
0.0
 30
0.0
  3
*U101
  1

  0
TEXT
  5
652F
  8
RAHM2
 10
-26.1749422164166
 20
26.250000000000028
 30
0.0
 40
2.5
  1
・  ・   
  0
ENDBLK
  5
6531
  8
0
  0
BLOCK
  8
0
  2
*U102
 70
     1
 10
0.0
 20
0.0
 30
0.0
  3
*U102
  1

  0
TEXT
  5
6533
  8
RAHM2
 10
-26.1749422164166
 20
46.250000000000021
 30
0.0
 40
2.5
  1
・  ・   
  0
ENDBLK
  5
6535
  8
0
  0
BLOCK
  8
0
  2
*U103
 70
     1
 10
0.0
 20
0.0
 30
0.0
  3
*U103
  1

  0
TEXT
  5
6537
  8
RAHM2
 10
-26.1749422164166
 20
36.250000000000028
 30
0.0
 40
2.5
  1
・  ・   
  0
ENDBLK
  5
6539
  8
0
  0
BLOCK
  8
0
  2
*U104
 70
     1
 10
0.0
 20
0.0
 30
0.0
  3
*U104
  1

  0
TEXT
  5
653B
  8
RAHM2
 10
-26.1749422164166
 20
41.250000000000021
 30
0.0
 40
2.5
  1
・  ・   
  0
ENDBLK
  5
653D
  8
0
  0
BLOCK
  8
0
  2
*U105
 70
     1
 10
0.0
 20
0.0
 30
0.0
  3
*U105
  1

  0
TEXT
  5
653F
  8
RAHM2
 10
-8.9104097053444775
 20
21.249999999999972
 30
0.0
 40
2.5
  1
担当
  0
ENDBLK
  5
6541
  8
0
  0
BLOCK
  8
0
  2
*U106
 70
     1
 10
0.0
 20
0.0
 30
0.0
  3
*U106
  1

  0
TEXT
  5
6543
  8
RAHM2
 10
-29.058939215691112
 20
21.249999999999972
 30
0.0
 40
2.5
  1
年・月・日
  0
ENDBLK
  5
6545
  8
0
  0
BLOCK
  8
0
  2
*U107
 70
     1
 10
0.0
 20
0.0
 30
0.0
  3
*U107
  1

  0
TEXT
  5
6547
  8
RAHM2
 10
-26.1749422164166
 20
31.250000000000028
 30
0.0
 40
2.5
  1
・  ・   
  0
ENDBLK
  5
6549
  8
0
  0
BLOCK
  8
0
  2
*U108
 70
     1
 10
0.0
 20
0.0
 30
0.0
  3
*U108
  1

  0
TEXT
  5
654B
  8
RAHM2
 10
-65.0
 20
21.249999999999961
 30
0.0
 40
2.5
  1
変更記事
  0
ENDBLK
  5
654D
  8
0
  0
BLOCK
  8
0
  2
*U109
 70
     1
 10
0.0
 20
0.0
 30
0.0
  3
*U109
  1

  0
TEXT
  5
654F
  8
RAHM2
 10
-94.800255137131444
 20
16.301035407279599
 30
0.0
 40
2.5
  1
品名
  0
ENDBLK
  5
6551
  8
0
  0
BLOCK
  8
0
  2
*U110
 70
     1
 10
0.0
 20
0.0
 30
0.0
  3
*U110
  1

  0
TEXT
  5
6553
  8
RAHM2
 10
-94.0
 20
21.249999999999961
 30
0.0
 40
2.5
  1
符号
  0
ENDBLK
  5
6555
  8
0
  0
BLOCK
  8
0
  2
*U111
 70
     1
 10
0.0
 20
0.0
 30
0.0
  3
*U111
  1

  0
TEXT
  5
6557
  8
RAHM2
 10
-94.800255137131444
 20
3.3010354072796271
 30
0.0
 40
2.5
  1
図番
  0
ENDBLK
  5
6559
  8
0
  0
BLOCK
  8
0
  2
*U112
 70
     1
 10
0.0
 20
0.0
 30
0.0
  3
*U112
  1

  0
TEXT
  5
655B
  8
RAHM2
 10
-19.982425929334909
 20
2.1847624665659851
 30
0.0
 40
2.5
  1
Rev.
  0
ENDBLK
  5
655D
  8
0
  0
BLOCK
  8
0
  2
*U113
 70
     1
 10
0.0
 20
0.0
 30
0.0
  3
*U113
  1

  0
TEXT
  5
655F
  8
RAHM2
 10
-107.6875
 20
16.301035407279571
 30
0.0
 40
2.5
  1
製図
  0
ENDBLK
  5
6561
  8
0
  0
BLOCK
  8
0
  2
*U114
 70
     1
 10
0.0
 20
0.0
 30
0.0
  3
*U114
  1

  0
TEXT
  5
6563
  8
RAHM2
 10
-125.4375000000001
 20
16.301035407279581
 30
0.0
 40
2.5
  1
検図
  0
ENDBLK
  5
6565
  8
0
  0
BLOCK
  8
0
  2
*U115
 70
     1
 10
0.0
 20
0.0
 30
0.0
  3
*U115
  1

  0
TEXT
  5
6567
  8
RAHM2
 10
-143.18750000000011
 20
16.301035407279581
 30
0.0
 40
2.5
  1
承認
  0
ENDBLK
  5
6569
  8
0
  0
BLOCK
  8
0
  2
*U116
 70
     1
 10
0.0
 20
0.0
 30
0.0
  3
*U116
  1

  0
TEXT
  5
656B
  8
RAHM2
 10
-160.93750000000011
 20
16.30103540727956
 30
0.0
 40
2.5
  1
承認
  0
ENDBLK
  5
656D
  8
0
  0
BLOCK
  8
0
  2
*U117
 70
     1
 10
0.0
 20
0.0
 30
0.0
  3
*U117
  1

  0
TEXT
  5
656F
  8
0
 10
-156.35532994923869
 20
23.418781725888241
 30
0.0
 40
3.5
  1
株式会社タカチ電機工業
  0
ENDBLK
  5
6571
  8
0
  0
BLOCK
  8
0
  2
*U118
 70
     1
 10
0.0
 20
0.0
 30
0.0
  3
*U118
  1

  0
TEXT
  5
6573
  8
RAHM2
 10
-165.80025513713139
 20
46.301035407279549
 30
0.0
 40
2.5
  1
材質
  0
ENDBLK
  5
6575
  8
0
  0
BLOCK
  8
0
  2
*U119
 70
     1
 10
0.0
 20
0.0
 30
0.0
  3
*U119
  1

  0
TEXT
  5
6577
  8
RAHM2
 10
-165.80025513713139
 20
36.301035407279556
 30
0.0
 40
2.5
  1
表面処理
  0
ENDBLK
  5
6579
  8
0
  0
BLOCK
  8
0
  2
*U120
 70
     1
 10
0.0
 20
0.0
 30
0.0
  3
*U120
  1

  0
TEXT
  5
657B
  8
RAHM2
 10
-191.8002551371315
 20
21.301035407279631
 30
0.0
 40
2.5
  1
数量
  0
ENDBLK
  5
657D
  8
0
  0
BLOCK
  8
0
  2
*U121
 70
     1
 10
0.0
 20
0.0
 30
0.0
  3
*U121
  1

  0
TEXT
  5
657F
  8
RAHM2
 10
-191.8002551371315
 20
33.801035407279663
 30
0.0
 40
2.5
  1
尺度
  0
ENDBLK
  5
6581
  8
0
  0
BLOCK
  8
0
  2
*U122
 70
     1
 10
0.0
 20
0.0
 30
0.0
  3
*U122
  1

  0
TEXT
  5
6583
  8
RAHM2
 10
-191.8002551371315
 20
8.8010354072796062
 30
0.0
 40
2.5
  1
日付
  0
ENDBLK
  5
6585
  8
0
  0
BLOCK
  8
0
  2
*U123
 70
     1
 10
0.0
 20
0.0
 30
0.0
  3
*U123
  1

  0
TEXT
  5
666E
  8
0
 10
1398.6316536018201
 20
473.41149222906819
 30
0.0
 40
12.0
  1
引出し面
  0
ENDBLK
  5
6670
  8
0
  0
BLOCK
  8
0
  2
*U124
 70
     1
 10
0.0
 20
0.0
 30
0.0
  3
*U124
  1

  0
TEXT
  5
6672
  8
0
 10
444.9995806165615
 20
473.20130282765422
 30
0.0
 40
12.0
  1
テーブル面
  0
ENDBLK
  5
6674
  8
0
  0
BLOCK
  8
0
  2
*U125
 70
     1
 10
0.0
 20
0.0
 30
0.0
  3
*U125
  1

  0
TEXT
  5
6676
  8
0
 10
301.39958061656159
 20
132.4797158872698
 30
0.0
 40
15.0
  1
※取手の向きは使う面によって変えられます
  0
ENDBLK
  5
6678
  8
0
  0
BLOCK
  8
0
  2
*X126
 70
     1
 10
0.0
 20
0.0
 30
0.0
  3
*X126
  1

  0
LINE
  5
667A
  8
0
 62
     0
 10
446.91611765819761
 20
6.2386807362726344
 30
0.0
 11
446.91611765819761
 21
6.2386807362726344
 31
0.0
  0
LINE
  5
667B
  8
0
 62
     0
 10
446.91611765819761
 20
1.4761807362726349
 30
0.0
 11
446.91611765819761
 21
1.4761807362726349
 31
0.0
  0
LINE
  5
667C
  8
0
 62
     0
 10
442.15361765819767
 20
8.6199307362725435
 30
0.0
 11
442.15361765819767
 21
8.6199307362725435
 31
0.0
  0
LINE
  5
667D
  8
0
 62
     0
 10
442.15361765819767
 20
3.8574307362725442
 30
0.0
 11
442.15361765819767
 21
3.8574307362725442
 31
0.0
  0
LINE
  5
667E
  8
0
 62
     0
 10
437.39111765819769
 20
6.2386807362726344
 30
0.0
 11
437.39111765819769
 21
6.2386807362726344
 31
0.0
  0
LINE
  5
667F
  8
0
 62
     0
 10
437.39111765819769
 20
1.4761807362726349
 30
0.0
 11
437.39111765819769
 21
1.4761807362726349
 31
0.0
  0
LINE
  5
6680
  8
0
 62
     0
 10
432.62861765819781
 20
8.6199307362727708
 30
0.0
 11
432.62861765819781
 21
8.6199307362727708
 31
0.0
  0
LINE
  5
6681
  8
0
 62
     0
 10
432.62861765819781
 20
3.8574307362727711
 30
0.0
 11
432.62861765819781
 21
3.8574307362727711
 31
0.0
  0
LINE
  5
6682
  8
0
 62
     0
 10
427.86611765819771
 20
6.2386807362726344
 30
0.0
 11
427.86611765819771
 21
6.2386807362726344
 31
0.0
  0
LINE
  5
6683
  8
0
 62
     0
 10
427.86611765819771
 20
1.4761807362726349
 30
0.0
 11
427.86611765819771
 21
1.4761807362726349
 31
0.0
  0
LINE
  5
6684
  8
0
 62
     0
 10
423.10361765819772
 20
8.6199307362727708
 30
0.0
 11
423.10361765819772
 21
8.6199307362727708
 31
0.0
  0
LINE
  5
6685
  8
0
 62
     0
 10
423.10361765819772
 20
3.8574307362727711
 30
0.0
 11
423.10361765819772
 21
3.8574307362727711
 31
0.0
  0
LINE
  5
6686
  8
0
 62
     0
 10
418.34111765819767
 20
6.2386807362726344
 30
0.0
 11
418.34111765819767
 21
6.2386807362726344
 31
0.0
  0
LINE
  5
6687
  8
0
 62
     0
 10
418.34111765819767
 20
1.4761807362726349
 30
0.0
 11
418.34111765819767
 21
1.4761807362726349
 31
0.0
  0
LINE
  5
6688
  8
0
 62
     0
 10
413.57861765819769
 20
8.6199307362725435
 30
0.0
 11
413.57861765819769
 21
8.6199307362725435
 31
0.0
  0
LINE
  5
6689
  8
0
 62
     0
 10
413.57861765819769
 20
3.8574307362725442
 30
0.0
 11
413.57861765819769
 21
3.8574307362725442
 31
0.0
  0
LINE
  5
668A
  8
0
 62
     0
 10
408.8161176581977
 20
6.2386807362726344
 30
0.0
 11
408.8161176581977
 21
6.2386807362726344
 31
0.0
  0
LINE
  5
668B
  8
0
 62
     0
 10
408.8161176581977
 20
1.4761807362726349
 30
0.0
 11
408.8161176581977
 21
1.4761807362726349
 31
0.0
  0
LINE
  5
668C
  8
0
 62
     0
 10
404.0536176581976
 20
8.6199307362725435
 30
0.0
 11
404.0536176581976
 21
8.6199307362725435
 31
0.0
  0
LINE
  5
668D
  8
0
 62
     0
 10
404.0536176581976
 20
3.8574307362725442
 30
0.0
 11
404.0536176581976
 21
3.8574307362725442
 31
0.0
  0
LINE
  5
668E
  8
0
 62
     0
 10
399.29111765819772
 20
6.2386807362726344
 30
0.0
 11
399.29111765819772
 21
6.2386807362726344
 31
0.0
  0
LINE
  5
668F
  8
0
 62
     0
 10
399.29111765819772
 20
1.4761807362726349
 30
0.0
 11
399.29111765819772
 21
1.4761807362726349
 31
0.0
  0
LINE
  5
6690
  8
0
 62
     0
 10
394.52861765819767
 20
8.6199307362725435
 30
0.0
 11
394.52861765819767
 21
8.6199307362725435
 31
0.0
  0
LINE
  5
6691
  8
0
 62
     0
 10
394.52861765819767
 20
3.8574307362725442
 30
0.0
 11
394.52861765819767
 21
3.8574307362725442
 31
0.0
  0
LINE
  5
6692
  8
0
 62
     0
 10
389.76611765819769
 20
6.2386807362726344
 30
0.0
 11
389.76611765819769
 21
6.2386807362726344
 31
0.0
  0
LINE
  5
6693
  8
0
 62
     0
 10
389.76611765819769
 20
1.4761807362726349
 30
0.0
 11
389.76611765819769
 21
1.4761807362726349
 31
0.0
  0
LINE
  5
6694
  8
0
 62
     0
 10
385.00361765819758
 20
8.6199307362727708
 30
0.0
 11
385.00361765819758
 21
8.6199307362727708
 31
0.0
  0
LINE
  5
6695
  8
0
 62
     0
 10
385.00361765819758
 20
3.8574307362727711
 30
0.0
 11
385.00361765819758
 21
3.8574307362727711
 31
0.0
  0
LINE
  5
6696
  8
0
 62
     0
 10
380.24111765819771
 20
6.2386807362728609
 30
0.0
 11
380.24111765819771
 21
6.2386807362728609
 31
0.0
  0
LINE
  5
6697
  8
0
 62
     0
 10
380.24111765819771
 20
1.4761807362728621
 30
0.0
 11
380.24111765819771
 21
1.4761807362728621
 31
0.0
  0
LINE
  5
6698
  8
0
 62
     0
 10
375.47861765819772
 20
8.6199307362727708
 30
0.0
 11
375.47861765819772
 21
8.6199307362727708
 31
0.0
  0
LINE
  5
6699
  8
0
 62
     0
 10
375.47861765819772
 20
3.8574307362727711
 30
0.0
 11
375.47861765819772
 21
3.8574307362727711
 31
0.0
  0
LINE
  5
669A
  8
0
 62
     0
 10
370.71611765819767
 20
6.2386807362726344
 30
0.0
 11
370.71611765819767
 21
6.2386807362726344
 31
0.0
  0
LINE
  5
669B
  8
0
 62
     0
 10
370.71611765819767
 20
1.4761807362726349
 30
0.0
 11
370.71611765819767
 21
1.4761807362726349
 31
0.0
  0
LINE
  5
669C
  8
0
 62
     0
 10
365.95361765819769
 20
8.6199307362725435
 30
0.0
 11
365.95361765819769
 21
8.6199307362725435
 31
0.0
  0
LINE
  5
669D
  8
0
 62
     0
 10
365.95361765819769
 20
3.8574307362725442
 30
0.0
 11
365.95361765819769
 21
3.8574307362725442
 31
0.0
  0
LINE
  5
669E
  8
0
 62
     0
 10
361.1911176581977
 20
6.2386807362726344
 30
0.0
 11
361.1911176581977
 21
6.2386807362726344
 31
0.0
  0
LINE
  5
669F
  8
0
 62
     0
 10
361.1911176581977
 20
1.4761807362726349
 30
0.0
 11
361.1911176581977
 21
1.4761807362726349
 31
0.0
  0
LINE
  5
66A0
  8
0
 62
     0
 10
356.42861765819771
 20
8.6199307362727708
 30
0.0
 11
356.42861765819771
 21
8.6199307362727708
 31
0.0
  0
LINE
  5
66A1
  8
0
 62
     0
 10
356.42861765819771
 20
3.8574307362727711
 30
0.0
 11
356.42861765819771
 21
3.8574307362727711
 31
0.0
  0
LINE
  5
66A2
  8
0
 62
     0
 10
351.66611765819772
 20
6.2386807362726344
 30
0.0
 11
351.66611765819772
 21
6.2386807362726344
 31
0.0
  0
LINE
  5
66A3
  8
0
 62
     0
 10
351.66611765819772
 20
1.4761807362726349
 30
0.0
 11
351.66611765819772
 21
1.4761807362726349
 31
0.0
  0
LINE
  5
66A4
  8
0
 62
     0
 10
346.90361765819767
 20
8.6199307362725435
 30
0.0
 11
346.90361765819767
 21
8.6199307362725435
 31
0.0
  0
LINE
  5
66A5
  8
0
 62
     0
 10
346.90361765819767
 20
3.8574307362725442
 30
0.0
 11
346.90361765819767
 21
3.8574307362725442
 31
0.0
  0
LINE
  5
66A6
  8
0
 62
     0
 10
342.14111765819769
 20
6.2386807362726344
 30
0.0
 11
342.14111765819769
 21
6.2386807362726344
 31
0.0
  0
LINE
  5
66A7
  8
0
 62
     0
 10
342.14111765819769
 20
1.4761807362726349
 30
0.0
 11
342.14111765819769
 21
1.4761807362726349
 31
0.0
  0
LINE
  5
66A8
  8
0
 62
     0
 10
337.37861765819758
 20
8.6199307362727708
 30
0.0
 11
337.37861765819758
 21
8.6199307362727708
 31
0.0
  0
LINE
  5
66A9
  8
0
 62
     0
 10
337.37861765819758
 20
3.8574307362727711
 30
0.0
 11
337.37861765819758
 21
3.8574307362727711
 31
0.0
  0
LINE
  5
66AA
  8
0
 62
     0
 10
332.61611765819771
 20
6.2386807362728609
 30
0.0
 11
332.61611765819771
 21
6.2386807362728609
 31
0.0
  0
LINE
  5
66AB
  8
0
 62
     0
 10
332.61611765819771
 20
1.4761807362728621
 30
0.0
 11
332.61611765819771
 21
1.4761807362728621
 31
0.0
  0
LINE
  5
66AC
  8
0
 62
     0
 10
327.85361765819761
 20
8.6199307362727708
 30
0.0
 11
327.85361765819761
 21
8.6199307362727708
 31
0.0
  0
LINE
  5
66AD
  8
0
 62
     0
 10
327.85361765819761
 20
3.8574307362727711
 30
0.0
 11
327.85361765819761
 21
3.8574307362727711
 31
0.0
  0
LINE
  5
66AE
  8
0
 62
     0
 10
323.09111765819767
 20
6.2386807362728609
 30
0.0
 11
323.09111765819767
 21
6.2386807362728609
 31
0.0
  0
LINE
  5
66AF
  8
0
 62
     0
 10
323.09111765819767
 20
1.4761807362728621
 30
0.0
 11
323.09111765819767
 21
1.4761807362728621
 31
0.0
  0
LINE
  5
66B0
  8
0
 62
     0
 10
318.32861765819769
 20
8.6199307362725435
 30
0.0
 11
318.32861765819769
 21
8.6199307362725435
 31
0.0
  0
LINE
  5
66B1
  8
0
 62
     0
 10
318.32861765819769
 20
3.8574307362725442
 30
0.0
 11
318.32861765819769
 21
3.8574307362725442
 31
0.0
  0
LINE
  5
66B2
  8
0
 62
     0
 10
313.56611765819758
 20
6.2386807362726344
 30
0.0
 11
313.56611765819758
 21
6.2386807362726344
 31
0.0
  0
LINE
  5
66B3
  8
0
 62
     0
 10
313.56611765819758
 20
1.4761807362726349
 30
0.0
 11
313.56611765819758
 21
1.4761807362726349
 31
0.0
  0
LINE
  5
66B4
  8
0
 62
     0
 10
308.80361765819771
 20
8.6199307362727708
 30
0.0
 11
308.80361765819771
 21
8.6199307362727708
 31
0.0
  0
LINE
  5
66B5
  8
0
 62
     0
 10
308.80361765819771
 20
3.8574307362727711
 30
0.0
 11
308.80361765819771
 21
3.8574307362727711
 31
0.0
  0
LINE
  5
66B6
  8
0
 62
     0
 10
304.04111765819772
 20
6.2386807362726344
 30
0.0
 11
304.04111765819772
 21
6.2386807362726344
 31
0.0
  0
LINE
  5
66B7
  8
0
 62
     0
 10
304.04111765819772
 20
1.4761807362726349
 30
0.0
 11
304.04111765819772
 21
1.4761807362726349
 31
0.0
  0
LINE
  5
66B8
  8
0
 62
     0
 10
299.27861765819767
 20
8.6199307362727708
 30
0.0
 11
299.27861765819767
 21
8.6199307362727708
 31
0.0
  0
LINE
  5
66B9
  8
0
 62
     0
 10
299.27861765819767
 20
3.8574307362727711
 30
0.0
 11
299.27861765819767
 21
3.8574307362727711
 31
0.0
  0
LINE
  5
66BA
  8
0
 62
     0
 10
294.51611765819769
 20
6.2386807362726344
 30
0.0
 11
294.51611765819769
 21
6.2386807362726344
 31
0.0
  0
LINE
  5
66BB
  8
0
 62
     0
 10
294.51611765819769
 20
1.4761807362726349
 30
0.0
 11
294.51611765819769
 21
1.4761807362726349
 31
0.0
  0
LINE
  5
66BC
  8
0
 62
     0
 10
289.75361765819758
 20
8.6199307362727708
 30
0.0
 11
289.75361765819758
 21
8.6199307362727708
 31
0.0
  0
LINE
  5
66BD
  8
0
 62
     0
 10
289.75361765819758
 20
3.8574307362727711
 30
0.0
 11
289.75361765819758
 21
3.8574307362727711
 31
0.0
  0
LINE
  5
66BE
  8
0
 62
     0
 10
284.99111765819771
 20
6.2386807362728609
 30
0.0
 11
284.99111765819771
 21
6.2386807362728609
 31
0.0
  0
LINE
  5
66BF
  8
0
 62
     0
 10
284.99111765819771
 20
1.4761807362728621
 30
0.0
 11
284.99111765819771
 21
1.4761807362728621
 31
0.0
  0
LINE
  5
66C0
  8
0
 62
     0
 10
280.22861765819772
 20
8.6199307362727708
 30
0.0
 11
280.22861765819772
 21
8.6199307362727708
 31
0.0
  0
LINE
  5
66C1
  8
0
 62
     0
 10
280.22861765819772
 20
3.8574307362727711
 30
0.0
 11
280.22861765819772
 21
3.8574307362727711
 31
0.0
  0
LINE
  5
66C2
  8
0
 62
     0
 10
275.46611765819767
 20
6.2386807362728609
 30
0.0
 11
275.46611765819767
 21
6.2386807362728609
 31
0.0
  0
LINE
  5
66C3
  8
0
 62
     0
 10
275.46611765819767
 20
1.4761807362728621
 30
0.0
 11
275.46611765819767
 21
1.4761807362728621
 31
0.0
  0
LINE
  5
66C4
  8
0
 62
     0
 10
270.70361765819769
 20
8.6199307362725435
 30
0.0
 11
270.70361765819769
 21
8.6199307362725435
 31
0.0
  0
LINE
  5
66C5
  8
0
 62
     0
 10
270.70361765819769
 20
3.8574307362725442
 30
0.0
 11
270.70361765819769
 21
3.8574307362725442
 31
0.0
  0
LINE
  5
66C6
  8
0
 62
     0
 10
265.9411176581977
 20
6.2386807362726344
 30
0.0
 11
265.9411176581977
 21
6.2386807362726344
 31
0.0
  0
LINE
  5
66C7
  8
0
 62
     0
 10
265.9411176581977
 20
1.4761807362726349
 30
0.0
 11
265.9411176581977
 21
1.4761807362726349
 31
0.0
  0
LINE
  5
66C8
  8
0
 62
     0
 10
261.17861765819771
 20
8.6199307362727708
 30
0.0
 11
261.17861765819771
 21
8.6199307362727708
 31
0.0
  0
LINE
  5
66C9
  8
0
 62
     0
 10
261.17861765819771
 20
3.8574307362727711
 30
0.0
 11
261.17861765819771
 21
3.8574307362727711
 31
0.0
  0
LINE
  5
66CA
  8
0
 62
     0
 10
256.41611765819761
 20
6.2386807362726344
 30
0.0
 11
256.41611765819761
 21
6.2386807362726344
 31
0.0
  0
LINE
  5
66CB
  8
0
 62
     0
 10
256.41611765819761
 20
1.4761807362726349
 30
0.0
 11
256.41611765819761
 21
1.4761807362726349
 31
0.0
  0
LINE
  5
66CC
  8
0
 62
     0
 10
251.6536176581977
 20
8.6199307362727708
 30
0.0
 11
251.6536176581977
 21
8.6199307362727708
 31
0.0
  0
LINE
  5
66CD
  8
0
 62
     0
 10
251.6536176581977
 20
3.8574307362727711
 30
0.0
 11
251.6536176581977
 21
3.8574307362727711
 31
0.0
  0
LINE
  5
66CE
  8
0
 62
     0
 10
246.8911176581976
 20
6.2386807362726344
 30
0.0
 11
246.8911176581976
 21
6.2386807362726344
 31
0.0
  0
LINE
  5
66CF
  8
0
 62
     0
 10
246.8911176581976
 20
1.4761807362726349
 30
0.0
 11
246.8911176581976
 21
1.4761807362726349
 31
0.0
  0
LINE
  5
66D0
  8
0
 62
     0
 10
242.12861765819761
 20
8.6199307362727708
 30
0.0
 11
242.12861765819761
 21
8.6199307362727708
 31
0.0
  0
LINE
  5
66D1
  8
0
 62
     0
 10
242.12861765819761
 20
3.8574307362727711
 30
0.0
 11
242.12861765819761
 21
3.8574307362727711
 31
0.0
  0
LINE
  5
66D2
  8
0
 62
     0
 10
237.36611765819771
 20
6.2386807362728609
 30
0.0
 11
237.36611765819771
 21
6.2386807362728609
 31
0.0
  0
LINE
  5
66D3
  8
0
 62
     0
 10
237.36611765819771
 20
1.4761807362728621
 30
0.0
 11
237.36611765819771
 21
1.4761807362728621
 31
0.0
  0
LINE
  5
66D4
  8
0
 62
     0
 10
232.60361765819761
 20
8.6199307362727708
 30
0.0
 11
232.60361765819761
 21
8.6199307362727708
 31
0.0
  0
LINE
  5
66D5
  8
0
 62
     0
 10
232.60361765819761
 20
3.8574307362727711
 30
0.0
 11
232.60361765819761
 21
3.8574307362727711
 31
0.0
  0
LINE
  5
66D6
  8
0
 62
     0
 10
227.8411176581977
 20
6.2386807362728609
 30
0.0
 11
227.8411176581977
 21
6.2386807362728609
 31
0.0
  0
LINE
  5
66D7
  8
0
 62
     0
 10
227.8411176581977
 20
1.4761807362728621
 30
0.0
 11
227.8411176581977
 21
1.4761807362728621
 31
0.0
  0
LINE
  5
66D8
  8
0
 62
     0
 10
223.07861765819769
 20
8.6199307362725435
 30
0.0
 11
223.07861765819769
 21
8.6199307362725435
 31
0.0
  0
LINE
  5
66D9
  8
0
 62
     0
 10
223.07861765819769
 20
3.8574307362725442
 30
0.0
 11
223.07861765819769
 21
3.8574307362725442
 31
0.0
  0
LINE
  5
66DA
  8
0
 62
     0
 10
218.31611765819761
 20
6.2386807362726344
 30
0.0
 11
218.31611765819761
 21
6.2386807362726344
 31
0.0
  0
LINE
  5
66DB
  8
0
 62
     0
 10
218.31611765819761
 20
1.4761807362726349
 30
0.0
 11
218.31611765819761
 21
1.4761807362726349
 31
0.0
  0
LINE
  5
66DC
  8
0
 62
     0
 10
213.55361765819771
 20
8.6199307362727708
 30
0.0
 11
213.55361765819771
 21
8.6199307362727708
 31
0.0
  0
LINE
  5
66DD
  8
0
 62
     0
 10
213.55361765819771
 20
3.8574307362727711
 30
0.0
 11
213.55361765819771
 21
3.8574307362727711
 31
0.0
  0
LINE
  5
66DE
  8
0
 62
     0
 10
208.79111765819761
 20
6.2386807362726344
 30
0.0
 11
208.79111765819761
 21
6.2386807362726344
 31
0.0
  0
LINE
  5
66DF
  8
0
 62
     0
 10
208.79111765819761
 20
1.4761807362726349
 30
0.0
 11
208.79111765819761
 21
1.4761807362726349
 31
0.0
  0
LINE
  5
66E0
  8
0
 62
     0
 10
204.0286176581977
 20
8.6199307362727708
 30
0.0
 11
204.0286176581977
 21
8.6199307362727708
 31
0.0
  0
LINE
  5
66E1
  8
0
 62
     0
 10
204.0286176581977
 20
3.8574307362727711
 30
0.0
 11
204.0286176581977
 21
3.8574307362727711
 31
0.0
  0
LINE
  5
66E2
  8
0
 62
     0
 10
199.2661176581976
 20
6.2386807362726344
 30
0.0
 11
199.2661176581976
 21
6.2386807362726344
 31
0.0
  0
LINE
  5
66E3
  8
0
 62
     0
 10
199.2661176581976
 20
1.4761807362726349
 30
0.0
 11
199.2661176581976
 21
1.4761807362726349
 31
0.0
  0
LINE
  5
66E4
  8
0
 62
     0
 10
194.50361765819761
 20
8.6199307362727708
 30
0.0
 11
194.50361765819761
 21
8.6199307362727708
 31
0.0
  0
LINE
  5
66E5
  8
0
 62
     0
 10
194.50361765819761
 20
3.8574307362727711
 30
0.0
 11
194.50361765819761
 21
3.8574307362727711
 31
0.0
  0
LINE
  5
66E6
  8
0
 62
     0
 10
189.74111765819771
 20
6.2386807362728609
 30
0.0
 11
189.74111765819771
 21
6.2386807362728609
 31
0.0
  0
LINE
  5
66E7
  8
0
 62
     0
 10
189.74111765819771
 20
1.4761807362728621
 30
0.0
 11
189.74111765819771
 21
1.4761807362728621
 31
0.0
  0
LINE
  5
66E8
  8
0
 62
     0
 10
184.97861765819761
 20
8.6199307362727708
 30
0.0
 11
184.97861765819761
 21
8.6199307362727708
 31
0.0
  0
LINE
  5
66E9
  8
0
 62
     0
 10
184.97861765819761
 20
3.8574307362727711
 30
0.0
 11
184.97861765819761
 21
3.8574307362727711
 31
0.0
  0
LINE
  5
66EA
  8
0
 62
     0
 10
180.2161176581977
 20
6.2386807362728609
 30
0.0
 11
180.2161176581977
 21
6.2386807362728609
 31
0.0
  0
LINE
  5
66EB
  8
0
 62
     0
 10
180.2161176581977
 20
1.4761807362728621
 30
0.0
 11
180.2161176581977
 21
1.4761807362728621
 31
0.0
  0
LINE
  5
66EC
  8
0
 62
     0
 10
175.4536176581976
 20
8.6199307362725435
 30
0.0
 11
175.4536176581976
 21
8.6199307362725435
 31
0.0
  0
LINE
  5
66ED
  8
0
 62
     0
 10
175.4536176581976
 20
3.8574307362725442
 30
0.0
 11
175.4536176581976
 21
3.8574307362725442
 31
0.0
  0
LINE
  5
66EE
  8
0
 62
     0
 10
170.69111765819761
 20
6.2386807362726344
 30
0.0
 11
170.69111765819761
 21
6.2386807362726344
 31
0.0
  0
LINE
  5
66EF
  8
0
 62
     0
 10
170.69111765819761
 20
1.4761807362726349
 30
0.0
 11
170.69111765819761
 21
1.4761807362726349
 31
0.0
  0
LINE
  5
66F0
  8
0
 62
     0
 10
165.92861765819771
 20
8.6199307362727708
 30
0.0
 11
165.92861765819771
 21
8.6199307362727708
 31
0.0
  0
LINE
  5
66F1
  8
0
 62
     0
 10
165.92861765819771
 20
3.8574307362727711
 30
0.0
 11
165.92861765819771
 21
3.8574307362727711
 31
0.0
  0
LINE
  5
66F2
  8
0
 62
     0
 10
161.16611765819761
 20
6.2386807362726344
 30
0.0
 11
161.16611765819761
 21
6.2386807362726344
 31
0.0
  0
LINE
  5
66F3
  8
0
 62
     0
 10
161.16611765819761
 20
1.4761807362726349
 30
0.0
 11
161.16611765819761
 21
1.4761807362726349
 31
0.0
  0
LINE
  5
66F4
  8
0
 62
     0
 10
156.4036176581977
 20
8.6199307362727708
 30
0.0
 11
156.4036176581977
 21
8.6199307362727708
 31
0.0
  0
LINE
  5
66F5
  8
0
 62
     0
 10
156.4036176581977
 20
3.8574307362727711
 30
0.0
 11
156.4036176581977
 21
3.8574307362727711
 31
0.0
  0
LINE
  5
66F6
  8
0
 62
     0
 10
151.6411176581976
 20
6.2386807362726344
 30
0.0
 11
151.6411176581976
 21
6.2386807362726344
 31
0.0
  0
LINE
  5
66F7
  8
0
 62
     0
 10
151.6411176581976
 20
1.4761807362726349
 30
0.0
 11
151.6411176581976
 21
1.4761807362726349
 31
0.0
  0
LINE
  5
66F8
  8
0
 62
     0
 10
146.87861765819761
 20
8.6199307362727708
 30
0.0
 11
146.87861765819761
 21
8.6199307362727708
 31
0.0
  0
LINE
  5
66F9
  8
0
 62
     0
 10
146.87861765819761
 20
3.8574307362727711
 30
0.0
 11
146.87861765819761
 21
3.8574307362727711
 31
0.0
  0
LINE
  5
66FA
  8
0
 62
     0
 10
142.11611765819771
 20
6.2386807362728609
 30
0.0
 11
142.11611765819771
 21
6.2386807362728609
 31
0.0
  0
LINE
  5
66FB
  8
0
 62
     0
 10
142.11611765819771
 20
1.4761807362728621
 30
0.0
 11
142.11611765819771
 21
1.4761807362728621
 31
0.0
  0
LINE
  5
66FC
  8
0
 62
     0
 10
137.35361765819761
 20
8.6199307362727708
 30
0.0
 11
137.35361765819761
 21
8.6199307362727708
 31
0.0
  0
LINE
  5
66FD
  8
0
 62
     0
 10
137.35361765819761
 20
3.8574307362727711
 30
0.0
 11
137.35361765819761
 21
3.8574307362727711
 31
0.0
  0
LINE
  5
66FE
  8
0
 62
     0
 10
132.5911176581977
 20
6.2386807362728609
 30
0.0
 11
132.5911176581977
 21
6.2386807362728609
 31
0.0
  0
LINE
  5
66FF
  8
0
 62
     0
 10
132.5911176581977
 20
1.4761807362728621
 30
0.0
 11
132.5911176581977
 21
1.4761807362728621
 31
0.0
  0
LINE
  5
6700
  8
0
 62
     0
 10
127.8286176581977
 20
8.6199307362725435
 30
0.0
 11
127.8286176581977
 21
8.6199307362725435
 31
0.0
  0
LINE
  5
6701
  8
0
 62
     0
 10
127.8286176581977
 20
3.8574307362725442
 30
0.0
 11
127.8286176581977
 21
3.8574307362725442
 31
0.0
  0
LINE
  5
6702
  8
0
 62
     0
 10
123.0661176581976
 20
6.2386807362726344
 30
0.0
 11
123.0661176581976
 21
6.2386807362726344
 31
0.0
  0
LINE
  5
6703
  8
0
 62
     0
 10
123.0661176581976
 20
1.4761807362726349
 30
0.0
 11
123.0661176581976
 21
1.4761807362726349
 31
0.0
  0
LINE
  5
6704
  8
0
 62
     0
 10
118.30361765819769
 20
8.6199307362727708
 30
0.0
 11
118.30361765819769
 21
8.6199307362727708
 31
0.0
  0
LINE
  5
6705
  8
0
 62
     0
 10
118.30361765819769
 20
3.8574307362727711
 30
0.0
 11
118.30361765819769
 21
3.8574307362727711
 31
0.0
  0
LINE
  5
6706
  8
0
 62
     0
 10
113.54111765819761
 20
6.2386807362726344
 30
0.0
 11
113.54111765819761
 21
6.2386807362726344
 31
0.0
  0
LINE
  5
6707
  8
0
 62
     0
 10
113.54111765819761
 20
1.4761807362726349
 30
0.0
 11
113.54111765819761
 21
1.4761807362726349
 31
0.0
  0
LINE
  5
6708
  8
0
 62
     0
 10
108.7786176581977
 20
8.6199307362727708
 30
0.0
 11
108.7786176581977
 21
8.6199307362727708
 31
0.0
  0
LINE
  5
6709
  8
0
 62
     0
 10
108.7786176581977
 20
3.8574307362727711
 30
0.0
 11
108.7786176581977
 21
3.8574307362727711
 31
0.0
  0
LINE
  5
670A
  8
0
 62
     0
 10
104.0161176581976
 20
6.2386807362726344
 30
0.0
 11
104.0161176581976
 21
6.2386807362726344
 31
0.0
  0
LINE
  5
670B
  8
0
 62
     0
 10
104.0161176581976
 20
1.4761807362726349
 30
0.0
 11
104.0161176581976
 21
1.4761807362726349
 31
0.0
  0
LINE
  5
670C
  8
0
 62
     0
 10
99.253617658197626
 20
8.6199307362727708
 30
0.0
 11
99.253617658197626
 21
8.6199307362727708
 31
0.0
  0
LINE
  5
670D
  8
0
 62
     0
 10
99.253617658197626
 20
3.8574307362727711
 30
0.0
 11
99.253617658197626
 21
3.8574307362727711
 31
0.0
  0
LINE
  5
670E
  8
0
 62
     0
 10
94.491117658197695
 20
6.2386807362728609
 30
0.0
 11
94.491117658197695
 21
6.2386807362728609
 31
0.0
  0
LINE
  5
670F
  8
0
 62
     0
 10
94.491117658197695
 20
1.4761807362728621
 30
0.0
 11
94.491117658197695
 21
1.4761807362728621
 31
0.0
  0
LINE
  5
6710
  8
0
 62
     0
 10
89.728617658197635
 20
8.6199307362727708
 30
0.0
 11
89.728617658197635
 21
8.6199307362727708
 31
0.0
  0
LINE
  5
6711
  8
0
 62
     0
 10
89.728617658197635
 20
3.8574307362727711
 30
0.0
 11
89.728617658197635
 21
3.8574307362727711
 31
0.0
  0
LINE
  5
6712
  8
0
 62
     0
 10
84.966117658197703
 20
6.2386807362728609
 30
0.0
 11
84.966117658197703
 21
6.2386807362728609
 31
0.0
  0
LINE
  5
6713
  8
0
 62
     0
 10
84.966117658197703
 20
1.4761807362728621
 30
0.0
 11
84.966117658197703
 21
1.4761807362728621
 31
0.0
  0
LINE
  5
6714
  8
0
 62
     0
 10
80.203617658197672
 20
8.6199307362725435
 30
0.0
 11
80.203617658197672
 21
8.6199307362725435
 31
0.0
  0
LINE
  5
6715
  8
0
 62
     0
 10
80.203617658197672
 20
3.8574307362725442
 30
0.0
 11
80.203617658197672
 21
3.8574307362725442
 31
0.0
  0
LINE
  5
6716
  8
0
 62
     0
 10
75.441117658197626
 20
6.2386807362726344
 30
0.0
 11
75.441117658197626
 21
6.2386807362726344
 31
0.0
  0
LINE
  5
6717
  8
0
 62
     0
 10
75.441117658197626
 20
1.4761807362726349
 30
0.0
 11
75.441117658197626
 21
1.4761807362726349
 31
0.0
  0
LINE
  5
6718
  8
0
 62
     0
 10
70.678617658197695
 20
8.6199307362727708
 30
0.0
 11
70.678617658197695
 21
8.6199307362727708
 31
0.0
  0
LINE
  5
6719
  8
0
 62
     0
 10
70.678617658197695
 20
3.8574307362727711
 30
0.0
 11
70.678617658197695
 21
3.8574307362727711
 31
0.0
  0
LINE
  5
671A
  8
0
 62
     0
 10
65.916117658197649
 20
6.2386807362726344
 30
0.0
 11
65.916117658197649
 21
6.2386807362726344
 31
0.0
  0
LINE
  5
671B
  8
0
 62
     0
 10
65.916117658197649
 20
1.4761807362726349
 30
0.0
 11
65.916117658197649
 21
1.4761807362726349
 31
0.0
  0
LINE
  5
671C
  8
0
 62
     0
 10
61.153617658197717
 20
8.6199307362727708
 30
0.0
 11
61.153617658197717
 21
8.6199307362727708
 31
0.0
  0
LINE
  5
671D
  8
0
 62
     0
 10
61.153617658197717
 20
3.8574307362727711
 30
0.0
 11
61.153617658197717
 21
3.8574307362727711
 31
0.0
  0
LINE
  5
671E
  8
0
 62
     0
 10
56.391117658197672
 20
6.2386807362726344
 30
0.0
 11
56.391117658197672
 21
6.2386807362726344
 31
0.0
  0
LINE
  5
671F
  8
0
 62
     0
 10
56.391117658197672
 20
1.4761807362726349
 30
0.0
 11
56.391117658197672
 21
1.4761807362726349
 31
0.0
  0
LINE
  5
6720
  8
0
 62
     0
 10
51.628617658197619
 20
8.6199307362727708
 30
0.0
 11
51.628617658197619
 21
8.6199307362727708
 31
0.0
  0
LINE
  5
6721
  8
0
 62
     0
 10
51.628617658197619
 20
3.8574307362727711
 30
0.0
 11
51.628617658197619
 21
3.8574307362727711
 31
0.0
  0
LINE
  5
6722
  8
0
 62
     0
 10
46.866117658197687
 20
6.2386807362728609
 30
0.0
 11
46.866117658197687
 21
6.2386807362728609
 31
0.0
  0
LINE
  5
6723
  8
0
 62
     0
 10
46.866117658197687
 20
1.4761807362728621
 30
0.0
 11
46.866117658197687
 21
1.4761807362728621
 31
0.0
  0
LINE
  5
6724
  8
0
 62
     0
 10
42.103617658197642
 20
8.6199307362727708
 30
0.0
 11
42.103617658197642
 21
8.6199307362727708
 31
0.0
  0
LINE
  5
6725
  8
0
 62
     0
 10
42.103617658197642
 20
3.8574307362727711
 30
0.0
 11
42.103617658197642
 21
3.8574307362727711
 31
0.0
  0
LINE
  5
6726
  8
0
 62
     0
 10
37.341117658197717
 20
6.2386807362728609
 30
0.0
 11
37.341117658197717
 21
6.2386807362728609
 31
0.0
  0
LINE
  5
6727
  8
0
 62
     0
 10
37.341117658197717
 20
1.4761807362728621
 30
0.0
 11
37.341117658197717
 21
1.4761807362728621
 31
0.0
  0
LINE
  5
6728
  8
0
 62
     0
 10
32.578617658197672
 20
8.6199307362725435
 30
0.0
 11
32.578617658197672
 21
8.6199307362725435
 31
0.0
  0
LINE
  5
6729
  8
0
 62
     0
 10
32.578617658197672
 20
3.8574307362725442
 30
0.0
 11
32.578617658197672
 21
3.8574307362725442
 31
0.0
  0
LINE
  5
672A
  8
0
 62
     0
 10
27.81611765819763
 20
6.2386807362726344
 30
0.0
 11
27.81611765819763
 21
6.2386807362726344
 31
0.0
  0
LINE
  5
672B
  8
0
 62
     0
 10
27.81611765819763
 20
1.4761807362726349
 30
0.0
 11
27.81611765819763
 21
1.4761807362726349
 31
0.0
  0
LINE
  5
672C
  8
0
 62
     0
 10
23.053617658197691
 20
8.6199307362727708
 30
0.0
 11
23.053617658197691
 21
8.6199307362727708
 31
0.0
  0
LINE
  5
672D
  8
0
 62
     0
 10
23.053617658197691
 20
3.8574307362727711
 30
0.0
 11
23.053617658197691
 21
3.8574307362727711
 31
0.0
  0
LINE
  5
672E
  8
0
 62
     0
 10
18.291117658197649
 20
6.2386807362728609
 30
0.0
 11
18.291117658197649
 21
6.2386807362728609
 31
0.0
  0
LINE
  5
672F
  8
0
 62
     0
 10
18.291117658197649
 20
1.4761807362728621
 30
0.0
 11
18.291117658197649
 21
1.4761807362728621
 31
0.0
  0
LINE
  5
6730
  8
0
 62
     0
 10
13.52861765819771
 20
8.6199307362727708
 30
0.0
 11
13.52861765819771
 21
8.6199307362727708
 31
0.0
  0
LINE
  5
6731
  8
0
 62
     0
 10
13.52861765819771
 20
3.8574307362727711
 30
0.0
 11
13.52861765819771
 21
3.8574307362727711
 31
0.0
  0
LINE
  5
6732
  8
0
 62
     0
 10
8.7661176581976701
 20
6.2386807362726344
 30
0.0
 11
8.7661176581976701
 21
6.2386807362726344
 31
0.0
  0
LINE
  5
6733
  8
0
 62
     0
 10
8.7661176581976701
 20
1.4761807362726349
 30
0.0
 11
8.7661176581976701
 21
1.4761807362726349
 31
0.0
  0
LINE
  5
6734
  8
0
 62
     0
 10
4.0036176581976806
 20
8.6199307362727708
 30
0.0
 11
4.0036176581976806
 21
8.6199307362727708
 31
0.0
  0
LINE
  5
6735
  8
0
 62
     0
 10
4.0036176581976806
 20
3.8574307362727711
 30
0.0
 11
4.0036176581976806
 21
3.8574307362727711
 31
0.0
  0
ENDBLK
  5
6737
  8
0
  0
BLOCK
  8
0
  2
*U127
 70
     1
 10
0.0
 20
0.0
 30
0.0
  3
*U127
  1

  0
TEXT
  5
6739
  8
AM_5
 62
     2
 10
286.37566062610608
 20
352.92255172861599
 30
0.0
 40
12.0
  1
4-6.5×11長穴
  0
ENDBLK
  5
673B
  8
0
  0
BLOCK
  8
0
  2
*U128
 70
     1
 10
0.0
 20
0.0
 30
0.0
  3
*U128
  1

  0
TEXT
  5
6758
  8
AM_5
 62
     7
 10
682.75218909607975
 20
1057.3788964952321
 30
0.0
 40
17.5
  1
1
  7
ACISOTS
  0
ENDBLK
  5
675A
  8
0
  0
BLOCK
  8
0
  2
*U129
 70
     1
 10
0.0
 20
0.0
 30
0.0
  3
*U129
  1

  0
TEXT
  5
675C
  8
AM_5
 62
     7
 10
180.05673370791931
 20
852.42461754977364
 30
0.0
 40
17.5
  1
2
  7
ACISOTS
  0
ENDBLK
  5
675E
  8
0
  0
BLOCK
  8
0
  2
*U130
 70
     1
 10
0.0
 20
0.0
 30
0.0
  3
*U130
  1

  0
TEXT
  5
6760
  8
AM_5
 62
     7
 10
744.40806205058755
 20
1014.252413657973
 30
0.0
 40
17.5
  1
3
  7
ACISOTS
  0
ENDBLK
  5
6762
  8
0
  0
BLOCK
  8
0
  2
*U131
 70
     1
 10
0.0
 20
0.0
 30
0.0
  3
*U131
  1

  0
TEXT
  5
6764
  8
AM_5
 62
     7
 10
413.37852671519732
 20
1035.748560306746
 30
0.0
 40
17.5
  1
5
  7
ACISOTS
  0
ENDBLK
  5
6766
  8
0
  0
BLOCK
  8
0
  2
*U132
 70
     1
 10
0.0
 20
0.0
 30
0.0
  3
*U132
  1

  0
TEXT
  5
6768
  8
AM_5
 62
     7
 10
570.05915355824106
 20
1043.698435640305
 30
0.0
 40
17.5
  1
4
  7
ACISOTS
  0
ENDBLK
  5
676A
  8
0
  0
BLOCK
  8
0
  2
*U133
 70
     1
 10
0.0
 20
0.0
 30
0.0
  3
*U133
  1

  0
TEXT
  5
676C
  8
AM_5
 62
     7
 10
546.28383916687119
 20
367.43327360901458
 30
0.0
 40
14.0
  1
6
  7
ACISOTS
  0
ENDBLK
  5
676E
  8
0
  0
BLOCK
  8
0
  2
*U134
 70
     1
 10
0.0
 20
0.0
 30
0.0
  3
*U134
  1

  0
TEXT
  5
6770
  8
AM_5
 62
     7
 10
1702.737634383506
 20
810.90962624083022
 30
0.0
 40
17.5
  1
7
  7
ACISOTS
  0
ENDBLK
  5
6772
  8
0
  0
BLOCK
  8
0
  2
*U135
 70
     1
 10
0.0
 20
0.0
 30
0.0
  3
*U135
  1

  0
TEXT
  5
6774
  8
0
 62
     2
 10
1083.125
 20
1314.0
 30
0.0
 40
17.5
  1
1
  7
ACISOTS
  0
ENDBLK
  5
6776
  8
0
  0
BLOCK
  8
0
  2
*U136
 70
     1
 10
0.0
 20
0.0
 30
0.0
  3
*U136
  1

  0
TEXT
  5
6778
  8
0
 62
     2
 10
1129.5
 20
1314.0
 30
0.0
 40
17.5
  1
テーブル
  7
ACISOTS
  0
ENDBLK
  5
677A
  8
0
  0
BLOCK
  8
0
  2
*U137
 70
     1
 10
0.0
 20
0.0
 30
0.0
  3
*U137
  1

  0
TEXT
  5
677C
  8
0
 62
     2
 10
1395.625
 20
1314.0
 30
0.0
 40
17.5
  1
1
  7
ACISOTS
  0
ENDBLK
  5
677E
  8
0
  0
BLOCK
  8
0
  2
*U138
 70
     1
 10
0.0
 20
0.0
 30
0.0
  3
*U138
  1

  0
TEXT
  5
6780
  8
0
 62
     2
 10
1452.56811023622
 20
1314.0
 30
0.0
 40
17.5
  1
SPCC t1.0
  7
ACISOTS
  0
ENDBLK
  5
6782
  8
0
  0
BLOCK
  8
0
  2
*U139
 70
     1
 10
0.0
 20
0.0
 30
0.0
  3
*U139
  1

  0
TEXT
  5
6784
  8
0
 62
     2
 10
1704.5
 20
1314.0
 30
0.0
 40
17.5
  1
黒半つや塗装・ベージュ塗装
  7
ACISOTS
  0
ENDBLK
  5
6786
  8
0
  0
BLOCK
  8
0
  2
*U140
 70
     1
 10
0.0
 20
0.0
 30
0.0
  3
*U140
  1

  0
TEXT
  5
6788
  8
0
 62
     2
 10
1081.071678149606
 20
1283.1215551181101
 30
0.0
 40
17.5
  1
2
  7
ACISOTS
  0
ENDBLK
  5
678A
  8
0
  0
BLOCK
  8
0
  2
*U141
 70
     1
 10
0.0
 20
0.0
 30
0.0
  3
*U141
  1

  0
TEXT
  5
678C
  8
0
 62
     2
 10
1129.5
 20
1283.125
 30
0.0
 40
17.5
  1
側板
  7
ACISOTS
  0
ENDBLK
  5
678E
  8
0
  0
BLOCK
  8
0
  2
*U142
 70
     1
 10
0.0
 20
0.0
 30
0.0
  3
*U142
  1

  0
TEXT
  5
6790
  8
0
 62
     2
 10
1365.4375
 20
1283.125
 30
0.0
 40
17.5
  1
左右各1
  7
ACISOTS
  0
ENDBLK
  5
6792
  8
0
  0
BLOCK
  8
0
  2
*U143
 70
     1
 10
0.0
 20
0.0
 30
0.0
  3
*U143
  1

  0
TEXT
  5
6794
  8
0
 62
     2
 10
1452.56811023622
 20
1283.1215551181101
 30
0.0
 40
17.5
  1
SPCC t2.3
  7
ACISOTS
  0
ENDBLK
  5
6796
  8
0
  0
BLOCK
  8
0
  2
*U144
 70
     1
 10
0.0
 20
0.0
 30
0.0
  3
*U144
  1

  0
TEXT
  5
6798
  8
0
 62
     2
 10
1704.5
 20
1283.125
 30
0.0
 40
17.5
  1
黒半つや塗装・ベージュ塗装
  7
ACISOTS
  0
ENDBLK
  5
679A
  8
0
  0
BLOCK
  8
0
  2
*U145
 70
     1
 10
0.0
 20
0.0
 30
0.0
  3
*U145
  1

  0
TEXT
  5
679C
  8
0
 62
     2
 10
1081.0125631329231
 20
1252.25
 30
0.0
 40
17.5
  1
3
  7
ACISOTS
  0
ENDBLK
  5
679E
  8
0
  0
BLOCK
  8
0
  2
*U146
 70
     1
 10
0.0
 20
0.0
 30
0.0
  3
*U146
  1

  0
TEXT
  5
67A0
  8
0
 62
     2
 10
1129.5
 20
1252.25
 30
0.0
 40
17.5
  1
ボールスライド
  7
ACISOTS
  0
ENDBLK
  5
67A2
  8
0
  0
BLOCK
  8
0
  2
*U147
 70
     1
 10
0.0
 20
0.0
 30
0.0
  3
*U147
  1

  0
TEXT
  5
67A4
  8
0
 62
     2
 10
1393.571678149606
 20
1252.2465551181101
 30
0.0
 40
17.5
  1
2
  7
ACISOTS
  0
ENDBLK
  5
67A6
  8
0
  0
BLOCK
  8
0
  2
*U148
 70
     1
 10
0.0
 20
0.0
 30
0.0
  3
*U148
  1

  0
TEXT
  5
67A8
  8
0
 62
     2
 10
1452.56811023622
 20
1252.25
 30
0.0
 40
17.5
  1
SPCC t1.6
  7
ACISOTS
  0
ENDBLK
  5
67AA
  8
0
  0
BLOCK
  8
0
  2
*U149
 70
     1
 10
0.0
 20
0.0
 30
0.0
  3
*U149
  1

  0
TEXT
  5
67AC
  8
0
 62
     2
 10
1704.5
 20
1251.375
 30
0.0
 40
17.5
  1
光沢クローメイトメッキ(白色)
  7
ACISOTS
  0
ENDBLK
  5
67AE
  8
0
  0
BLOCK
  8
0
  2
*U150
 70
     1
 10
0.0
 20
0.0
 30
0.0
  3
*U150
  1

  0
TEXT
  5
67B0
  8
0
 62
     2
 10
1080.5
 20
1221.375
 30
0.0
 40
17.5
  1
4
  7
ACISOTS
  0
ENDBLK
  5
67B2
  8
0
  0
BLOCK
  8
0
  2
*U151
 70
     1
 10
0.0
 20
0.0
 30
0.0
  3
*U151
  1

  0
TEXT
  5
67B4
  8
0
 62
     2
 10
1129.5
 20
1221.375
 30
0.0
 40
17.5
  1
補強金具
  7
ACISOTS
  0
ENDBLK
  5
67B6
  8
0
  0
BLOCK
  8
0
  2
*U152
 70
     1
 10
0.0
 20
0.0
 30
0.0
  3
*U152
  1

  0
TEXT
  5
67B8
  8
0
 62
     2
 10
1395.625
 20
1221.375
 30
0.0
 40
17.5
  1
1
  7
ACISOTS
  0
ENDBLK
  5
67BA
  8
0
  0
BLOCK
  8
0
  2
*U153
 70
     1
 10
0.0
 20
0.0
 30
0.0
  3
*U153
  1

  0
TEXT
  5
67BC
  8
0
 62
     2
 10
1452.56811023622
 20
1221.375
 30
0.0
 40
17.5
  1
SPCC t1.6
  7
ACISOTS
  0
ENDBLK
  5
67BE
  8
0
  0
BLOCK
  8
0
  2
*U154
 70
     1
 10
0.0
 20
0.0
 30
0.0
  3
*U154
  1

  0
TEXT
  5
67C0
  8
0
 62
     2
 10
1704.5
 20
1221.375
 30
0.0
 40
17.5
  1
黒半つや塗装・ベージュ塗装
  7
ACISOTS
  0
ENDBLK
  5
67C2
  8
0
  0
BLOCK
  8
0
  2
*U155
 70
     1
 10
0.0
 20
0.0
 30
0.0
  3
*U155
  1

  0
TEXT
  5
67C4
  8
0
 62
     2
 10
1081.0125631329231
 20
1190.5
 30
0.0
 40
17.5
  1
5
  7
ACISOTS
  0
ENDBLK
  5
67C6
  8
0
  0
BLOCK
  8
0
  2
*U156
 70
     1
 10
0.0
 20
0.0
 30
0.0
  3
*U156
  1

  0
TEXT
  5
67C8
  8
0
 62
     2
 10
1129.5
 20
1190.5
 30
0.0
 40
17.5
  1
ロック金具
  7
ACISOTS
  0
ENDBLK
  5
67CA
  8
0
  0
BLOCK
  8
0
  2
*U157
 70
     1
 10
0.0
 20
0.0
 30
0.0
  3
*U157
  1

  0
TEXT
  5
67CC
  8
0
 62
     2
 10
1395.625
 20
1190.5
 30
0.0
 40
17.5
  1
1
  7
ACISOTS
  0
ENDBLK
  5
67CE
  8
0
  0
BLOCK
  8
0
  2
*U158
 70
     1
 10
0.0
 20
0.0
 30
0.0
  3
*U158
  1

  0
TEXT
  5
67D0
  8
0
 62
     2
 10
1451.875
 20
1190.37829861554
 30
0.0
 40
17.5
  1
ZDC
  7
ACISOTS
  0
ENDBLK
  5
67D2
  8
0
  0
BLOCK
  8
0
  2
*U159
 70
     1
 10
0.0
 20
0.0
 30
0.0
  3
*U159
  1

  0
TEXT
  5
67D4
  8
0
 62
     2
 10
1704.5
 20
1190.5
 30
0.0
 40
17.5
  1
クロームメッキ
  7
ACISOTS
  0
ENDBLK
  5
67D6
  8
0
  0
BLOCK
  8
0
  2
*U160
 70
     1
 10
0.0
 20
0.0
 30
0.0
  3
*U160
  1

  0
TEXT
  5
67D8
  8
0
 62
     2
 10
1081.464566929134
 20
1159.625
 30
0.0
 40
17.5
  1
6
  7
ACISOTS
  0
ENDBLK
  5
67DA
  8
0
  0
BLOCK
  8
0
  2
*U161
 70
     1
 10
0.0
 20
0.0
 30
0.0
  3
*U161
  1

  0
TEXT
  5
67DC
  8
0
 62
     2
 10
1129.5
 20
1159.625
 30
0.0
 40
17.5
  1
取手
  7
ACISOTS
  0
ENDBLK
  5
67DE
  8
0
  0
BLOCK
  8
0
  2
*U162
 70
     1
 10
0.0
 20
0.0
 30
0.0
  3
*U162
  1

  0
TEXT
  5
67E0
  8
0
 62
     2
 10
1395.625
 20
1159.625
 30
0.0
 40
17.5
  1
1
  7
ACISOTS
  0
ENDBLK
  5
67E2
  8
0
  0
BLOCK
  8
0
  2
*U163
 70
     1
 10
0.0
 20
0.0
 30
0.0
  3
*U163
  1

  0
TEXT
  5
67E4
  8
0
 62
     2
 10
1451.875
 20
1159.625
 30
0.0
 40
17.5
  1
ABS
  7
ACISOTS
  0
ENDBLK
  5
67E6
  8
0
  0
BLOCK
  8
0
  2
*U164
 70
     1
 10
0.0
 20
0.0
 30
0.0
  3
*U164
  1

  0
TEXT
  5
67E8
  8
0
 62
     2
 10
1704.5
 20
1159.625
 30
0.0
 40
17.5
  1
黒
  7
ACISOTS
  0
ENDBLK
  5
67EA
  8
0
  0
BLOCK
  8
0
  2
*U165
 70
     1
 10
0.0
 20
0.0
 30
0.0
  3
*U165
  1

  0
TEXT
  5
67EC
  8
0
 62
     2
 10
1081.375
 20
1128.75
 30
0.0
 40
17.5
  1
7
  7
ACISOTS
  0
ENDBLK
  5
67EE
  8
0
  0
BLOCK
  8
0
  2
*U166
 70
     1
 10
0.0
 20
0.0
 30
0.0
  3
*U166
  1

  0
TEXT
  5
67F0
  8
0
 62
     2
 10
1129.5
 20
1128.75
 30
0.0
 40
17.5
  1
保護スポンジ
  7
ACISOTS
  0
ENDBLK
  5
67F2
  8
0
  0
BLOCK
  8
0
  2
*U167
 70
     1
 10
0.0
 20
0.0
 30
0.0
  3
*U167
  1

  0
TEXT
  5
67F4
  8
0
 62
     2
 10
1393.571678149606
 20
1128.7465551181101
 30
0.0
 40
17.5
  1
2
  7
ACISOTS
  0
ENDBLK
  5
67F6
  8
0
  0
BLOCK
  8
0
  2
*U168
 70
     1
 10
0.0
 20
0.0
 30
0.0
  3
*U168
  1

  0
TEXT
  5
67F8
  8
0
 62
     2
 10
1454.5
 20
1128.75
 30
0.0
 40
17.5
  1
ネオプレーン t10
  7
ACISOTS
  0
ENDBLK
  5
67FA
  8
0
  0
BLOCK
  8
0
  2
*U169
 70
     1
 10
0.0
 20
0.0
 30
0.0
  3
*U169
  1

  0
TEXT
  5
67FC
  8
0
 62
     2
 10
1704.5
 20
1128.75
 30
0.0
 40
17.5
  1
黒
  7
ACISOTS
  0
ENDBLK
  5
67FE
  8
0
  0
BLOCK
  8
0
  2
*U170
 70
     1
 10
0.0
 20
0.0
 30
0.0
  3
*U170
  1

  0
TEXT
  5
6800
  8
0
 62
     2
 10
1081.0804185339859
 20
1097.875
 30
0.0
 40
17.5
  1
9
  7
ACISOTS
  0
ENDBLK
  5
6802
  8
0
  0
BLOCK
  8
0
  2
*U171
 70
     1
 10
0.0
 20
0.0
 30
0.0
  3
*U171
  1

  0
TEXT
  5
6804
  8
0
 62
     2
 10
1129.5
 20
1097.0
 30
0.0
 40
17.5
  1
取付ビス(ﾊﾞｲﾝﾄﾞM4×6)
  7
ACISOTS
  0
ENDBLK
  5
6806
  8
0
  0
BLOCK
  8
0
  2
*U172
 70
     1
 10
0.0
 20
0.0
 30
0.0
  3
*U172
  1

  0
TEXT
  5
6808
  8
0
 62
     2
 10
1389.5
 20
1097.875
 30
0.0
 40
17.5
  1
18
  7
ACISOTS
  0
ENDBLK
  5
680A
  8
0
  0
BLOCK
  8
0
  2
*U173
 70
     1
 10
0.0
 20
0.0
 30
0.0
  3
*U173
  1

  0
TEXT
  5
680C
  8
0
 62
     2
 10
1454.5
 20
1097.875
 30
0.0
 40
17.5
  1
鉄
  7
ACISOTS
  0
ENDBLK
  5
680E
  8
0
  0
BLOCK
  8
0
  2
*U174
 70
     1
 10
0.0
 20
0.0
 30
0.0
  3
*U174
  1

  0
TEXT
  5
6810
  8
0
 62
     2
 10
1704.5
 20
1097.875
 30
0.0
 40
17.5
  1
三価黒ｸﾛｰﾒｲﾄ
  7
ACISOTS
  0
ENDBLK
  5
6812
  8
0
  0
BLOCK
  8
0
  2
*U175
 70
     1
 10
0.0
 20
0.0
 30
0.0
  3
*U175
  1

  0
TEXT
  5
6814
  8
0
 62
     2
 10
1076.99311023622
 20
1067.0
 30
0.0
 40
17.5
  1
10
  7
ACISOTS
  0
ENDBLK
  5
6816
  8
0
  0
BLOCK
  8
0
  2
*U176
 70
     1
 10
0.0
 20
0.0
 30
0.0
  3
*U176
  1

  0
TEXT
  5
6818
  8
0
 62
     2
 10
1129.5
 20
1066.125
 30
0.0
 40
17.5
  1
取付ビス(ナットM4)
  7
ACISOTS
  0
ENDBLK
  5
681A
  8
0
  0
BLOCK
  8
0
  2
*U177
 70
     1
 10
0.0
 20
0.0
 30
0.0
  3
*U177
  1

  0
TEXT
  5
681C
  8
0
 62
     2
 10
1393.964566929134
 20
1067.0
 30
0.0
 40
17.5
  1
6
  7
ACISOTS
  0
ENDBLK
  5
681E
  8
0
  0
BLOCK
  8
0
  2
*U178
 70
     1
 10
0.0
 20
0.0
 30
0.0
  3
*U178
  1

  0
TEXT
  5
6820
  8
0
 62
     2
 10
1454.5
 20
1067.0
 30
0.0
 40
17.5
  1
鉄
  7
ACISOTS
  0
ENDBLK
  5
6822
  8
0
  0
BLOCK
  8
0
  2
*U179
 70
     1
 10
0.0
 20
0.0
 30
0.0
  3
*U179
  1

  0
TEXT
  5
6824
  8
0
 62
     2
 10
1704.5
 20
1067.0
 30
0.0
 40
17.5
  1
三価黒ｸﾛｰﾒｲﾄ
  7
ACISOTS
  0
ENDBLK
  5
6826
  8
0
  0
BLOCK
  8
0
  2
*U180
 70
     1
 10
0.0
 20
0.0
 30
0.0
  3
*U180
  1

  0
TEXT
  5
6828
  8
0
 62
     2
 10
1078.75
 20
1036.125
 30
0.0
 40
17.5
  1
11
  7
ACISOTS
  0
ENDBLK
  5
682A
  8
0
  0
BLOCK
  8
0
  2
*U181
 70
     1
 10
0.0
 20
0.0
 30
0.0
  3
*U181
  1

  0
TEXT
  5
682C
  8
0
 62
     2
 10
1129.5
 20
1035.25
 30
0.0
 40
17.5
  1
取付ビス(ﾊﾞｲﾝﾄﾞM3×5)
  7
ACISOTS
  0
ENDBLK
  5
682E
  8
0
  0
BLOCK
  8
0
  2
*U182
 70
     1
 10
0.0
 20
0.0
 30
0.0
  3
*U182
  1

  0
TEXT
  5
6830
  8
0
 62
     2
 10
1393.571678149606
 20
1036.1215551181101
 30
0.0
 40
17.5
  1
2
  7
ACISOTS
  0
ENDBLK
  5
6832
  8
0
  0
BLOCK
  8
0
  2
*U183
 70
     1
 10
0.0
 20
0.0
 30
0.0
  3
*U183
  1

  0
TEXT
  5
6834
  8
0
 62
     2
 10
1454.5
 20
1036.125
 30
0.0
 40
17.5
  1
鉄
  7
ACISOTS
  0
ENDBLK
  5
6836
  8
0
  0
BLOCK
  8
0
  2
*U184
 70
     1
 10
0.0
 20
0.0
 30
0.0
  3
*U184
  1

  0
TEXT
  5
6838
  8
0
 62
     2
 10
1704.5
 20
1036.125
 30
0.0
 40
17.5
  1
三価黒ｸﾛｰﾒｲﾄ
  7
ACISOTS
  0
ENDBLK
  5
683A
  8
0
  0
BLOCK
  8
0
  2
*U185
 70
     1
 10
0.0
 20
0.0
 30
0.0
  3
*U185
  1

  0
TEXT
  5
683C
  8
0
 62
     2
 10
1076.4744832677161
 20
1005.24655511811
 30
0.0
 40
17.5
  1
12
  7
ACISOTS
  0
ENDBLK
  5
683E
  8
0
  0
BLOCK
  8
0
  2
*U186
 70
     1
 10
0.0
 20
0.0
 30
0.0
  3
*U186
  1

  0
TEXT
  5
6840
  8
0
 62
     2
 10
1129.5
 20
1004.375
 30
0.0
 40
17.5
  1
取付ビス(サラM3×5)
  7
ACISOTS
  0
ENDBLK
  5
6842
  8
0
  0
BLOCK
  8
0
  2
*U187
 70
     1
 10
0.0
 20
0.0
 30
0.0
  3
*U187
  1

  0
TEXT
  5
6844
  8
0
 62
     2
 10
1393.571678149606
 20
1005.24655511811
 30
0.0
 40
17.5
  1
2
  7
ACISOTS
  0
ENDBLK
  5
6846
  8
0
  0
BLOCK
  8
0
  2
*U188
 70
     1
 10
0.0
 20
0.0
 30
0.0
  3
*U188
  1

  0
TEXT
  5
6848
  8
0
 62
     2
 10
1454.5
 20
1005.25
 30
0.0
 40
17.5
  1
鉄
  7
ACISOTS
  0
ENDBLK
  5
684A
  8
0
  0
BLOCK
  8
0
  2
*U189
 70
     1
 10
0.0
 20
0.0
 30
0.0
  3
*U189
  1

  0
TEXT
  5
684C
  8
0
 62
     2
 10
1704.5
 20
1005.25
 30
0.0
 40
17.5
  1
三価黒ｸﾛｰﾒｲﾄ
  7
ACISOTS
  0
ENDBLK
  5
684E
  8
0
  0
BLOCK
  8
0
  2
*U190
 70
     1
 10
0.0
 20
0.0
 30
0.0
  3
*U190
  1

  0
TEXT
  5
6850
  8
0
 62
     2
 10
1068.25
 20
1344.875
 30
0.0
 40
17.5
  1
照番
  7
ACISOTS
  0
ENDBLK
  5
6852
  8
0
  0
BLOCK
  8
0
  2
*U191
 70
     1
 10
0.0
 20
0.0
 30
0.0
  3
*U191
  1

  0
TEXT
  5
6854
  8
0
 62
     2
 10
1218.25
 20
1344.875
 30
0.0
 40
17.5
  1
名称
  7
ACISOTS
  0
ENDBLK
  5
6856
  8
0
  0
BLOCK
  8
0
  2
*U192
 70
     1
 10
0.0
 20
0.0
 30
0.0
  3
*U192
  1

  0
TEXT
  5
6858
  8
0
 62
     2
 10
1379.0
 20
1344.875
 30
0.0
 40
17.5
  1
個数
  7
ACISOTS
  0
ENDBLK
  5
685A
  8
0
  0
BLOCK
  8
0
  2
*U193
 70
     1
 10
0.0
 20
0.0
 30
0.0
  3
*U193
  1

  0
TEXT
  5
685C
  8
0
 62
     2
 10
1555.75
 20
1344.875
 30
0.0
 40
17.5
  1
材質
  7
ACISOTS
  0
ENDBLK
  5
685E
  8
0
  0
BLOCK
  8
0
  2
*U194
 70
     1
 10
0.0
 20
0.0
 30
0.0
  3
*U194
  1

  0
TEXT
  5
6860
  8
0
 62
     2
 10
1794.5
 20
1344.875
 30
0.0
 40
17.5
  1
色・表面処理
  7
ACISOTS
  0
ENDBLK
  5
6862
  8
0
  0
BLOCK
  8
0
  2
*U195
 70
     1
 10
0.0
 20
0.0
 30
0.0
  3
*U195
  1

  0
TEXT
  5
6864
  8
0
 62
     2
 10
1491.8125
 20
1375.8125
 30
0.0
 40
17.5
  1
構成内容
  7
ACISOTS
  0
ENDBLK
  5
6866
  8
0
  0
BLOCK
  8
0
  2
*U196
 70
     1
 10
0.0
 20
0.0
 30
0.0
  3
*U196
  1

  0
TEXT
  5
6868
  8
AM_5
 62
     7
 10
1546.1733070476971
 20
315.09189536034228
 30
0.0
 40
17.5
  1
9
  7
ACISOTS
  0
ENDBLK
  5
686A
  8
0
  0
BLOCK
  8
0
  2
*U197
 70
     1
 10
0.0
 20
0.0
 30
0.0
  3
*U197
  1

  0
TEXT
  5
686C
  8
AM_5
 62
     7
 10
1669.065459325358
 20
317.34464413997921
 30
0.0
 40
17.5
  1
10
  7
ACISOTS
  0
ENDBLK
  5
686E
  8
0
  0
BLOCK
  8
0
  2
*U198
 70
     1
 10
0.0
 20
0.0
 30
0.0
  3
*U198
  1

  0
TEXT
  5
6870
  8
AM_5
 62
     7
 10
1795.4131829417979
 20
314.52871168585898
 30
0.0
 40
17.5
  1
11
  7
ACISOTS
  0
ENDBLK
  5
6872
  8
0
  0
BLOCK
  8
0
  2
*U199
 70
     1
 10
0.0
 20
0.0
 30
0.0
  3
*U199
  1

  0
TEXT
  5
6874
  8
AM_5
 62
     7
 10
1915.469045426325
 20
311.01952542413068
 30
0.0
 40
17.5
  1
12
  7
ACISOTS
  0
ENDBLK
  5
6876
  8
0
  0
ENDSEC
  0
SECTION
  2
ENTITIES
  0
INSERT
  5
5CF
  8
ﾃ_ﾌ_ﾙ
  2
TK-A3
 10
0.0
 20
0.0
 30
0.0
 41
5.0
 42
5.0
 43
5.0
1001
GENIUS_GENOREF_13
1005
638
1001
GENIUS_GENOBJ-N-SDF_13
1002
{
1000
OWNER
1000
GEN
1002
}
1001
GENIUS_GENODEF_13
1002
{
1000
HIER
1070
     0
1002
}
1002
{
1000
MANEDIT
1070
     0
1002
}
1002
{
1000
NOSEL
1070
     0
1002
}
1002
{
1000
BEHIND
1070
     0
1002
}
1002
{
1000
OTHER
1070
     0
1002
}
1002
{
1000
REACTOR
1002
}
1001
GENIUS_GENSCREG_13
1040
5.0
1040
1.0
1011
0.0
1021
0.0
1031
0.0
1021
0.0
1031
0.0
1011
2015.0
1021
0.0
1031
0.0
1021
1400.0
1031
0.0
1070
     3
  0
INSERT
  5
62E
  8
0
 66
     1
  2
TK-TITLE
 10
2015.0
 20
0.0
 30
0.0
 41
5.0
 42
5.0
 43
5.0
1001
GENIUS_GENOREF_13
1005
638
  0
ATTRIB
  5
4E2F
  8
0
 10
1974.988454052271
 20
8.5259471719751811
 30
0.0
 40
12.5
  1

  2
GEN-TITLE-NR2
 70
     0
  0
ATTRIB
  5
4E30
  8
0
 10
1594.287404920733
 20
64.139521628218844
 30
0.0
 40
17.5
  1
NST-133
  2
GEN-TITLE-DES1
 70
     0
  0
ATTRIB
  5
4E31
  8
0
 10
1595.0
 20
45.749999999999737
 30
0.0
 40
12.5
  1
NST型EIAラックスライドテーブル
  2
GEN-TITLE-DES2
 70
     0
  0
ATTRIB
  5
4E32
  8
0
 10
1595.0
 20
9.9999999999997868
 30
0.0
 40
15.0
  1

  2
GEN-TITLE-NR1
 70
     0
  0
ATTRIB
  5
4E33
  8
0
 10
1270.190662082354
 20
216.4999999999996
 30
0.0
 40
15.0
  1

  2
GEN-TITLE-MAT1
 70
     0
  0
ATTRIB
  5
4E34
  8
0
 10
1270.190662082354
 20
166.49999999999949
 30
0.0
 40
15.0
  1

  2
GEN-TITLE-MAT2
 70
     0
  0
ATTRIB
  5
4E35
  8
0
 10
1136.9362954369519
 20
80.999999999999716
 30
0.0
 40
15.0
  1

 72
     2
 11
1136.9362954369519
 21
78.999999999999702
 31
0.0
  2
GEN-TITLE-QTY
 70
     0
 74
     1
  0
ATTRIB
  5
4E36
  8
0
 10
1105.0049815843199
 20
143.49999999999989
 30
0.0
 40
15.0
  1
1:5
 72
     2
 11
1125.876301927879
 21
141.49999999999989
 31
0.0
  2
GEN-TITLE-SCA
 70
     0
 74
     1
  0
ATTRIB
  5
4E37
  8
0
 10
1063.0782694461291
 20
19.941712688053322
 30
0.0
 40
15.0
  1
2009/08/31
 72
     1
 11
1113.9140241689299
 21
17.941712688053322
 31
0.0
  2
GEN-TITLE-DAT
 70
     0
 74
     1
  0
SEQEND
  5
4E2E
  8
0
  0
POINT
  5
638
  8
0
 10
0.0
 20
0.0
 30
0.0
1001
GENIUS_GENOENT_13
1002
{
1000
MYREF
1005
638
1002
}
1002
{
1000
GRP
1005
0
1002
}
1001
GENIUS_GENOBJ-N-TIT_13
1002
{
1000
OWNER
1000
GEN
1002
}
1001
GENIUS_GENODEF_13
1002
{
1000
HIER
1070
     1
1002
}
1002
{
1000
MANEDIT
1070
     0
1002
}
1002
{
1000
NOSEL
1070
     0
1002
}
1002
{
1000
BEHIND
1070
     0
1002
}
1002
{
1000
OTHER
1070
     0
1002
}
1002
{
1000
REACTOR
1002
}
1001
GENIUS_GENOLIS_13
1002
{
1000
ENT
1005
62E
1005
5CF
1005
4E2D
1002
}
1001
GENIUS_GENTITLE_13
1002
{
1000
BORDER
1000
TK-A3
1002
}
1002
{
1000
TITLE
1000
TK-TITLE
1002
}
1002
{
1000
SCALE
1000
1:5
1002
}
1002
{
1000
TITLESTD
1000
ISO
1002
}
1002
{
1000
HRA
1005
5CF
1002
}
1002
{
1000
HTIT
1005
62E
1002
}
1002
{
1000
GENIUSID
1005
638
1002
}
1002
{
1000
INVTXTID
1005
0
1002
}
1002
{
1000
UNCHG
1002
{
1000
GEN-TITLE-SIZ
1000
GEN-TITLE-SCA
1002
}
1002
}
  0
INSERT
  5
8FB
  8
AM_12
  2
*S56
 10
0.0
 20
0.0
 30
0.0
  0
INSERT
  5
901
  8
AM_12
  2
*S57
 10
0.0
 20
0.0
 30
0.0
  0
INSERT
  5
902
  8
AM_12
  2
*S58
 10
0.0
 20
0.0
 30
0.0
  0
INSERT
  5
903
  8
AM_12
  2
*S59
 10
0.0
 20
0.0
 30
0.0
  0
INSERT
  5
904
  8
AM_12
  2
*S60
 10
0.0
 20
0.0
 30
0.0
  0
INSERT
  5
905
  8
AM_12
  2
*S61
 10
0.0
 20
0.0
 30
0.0
  0
INSERT
  5
906
  8
AM_12
  2
*S62
 10
0.0
 20
0.0
 30
0.0
  0
INSERT
  5
FC1
  8
AM_5
  2
*S63
 10
0.0
 20
0.0
 30
0.0
  0
INSERT
  5
FC3
  8
AM_5
  2
*S64
 10
0.0
 20
0.0
 30
0.0
  0
INSERT
  5
FC4
  8
AM_5
  2
*S65
 10
0.0
 20
0.0
 30
0.0
  0
INSERT
  5
FC6
  8
AM_5
  2
*S66
 10
0.0
 20
0.0
 30
0.0
  0
INSERT
  5
FCA
  8
AM_5
  2
*S67
 10
0.0
 20
0.0
 30
0.0
  0
INSERT
  5
16D8
  8
AM_5
  2
*S68
 10
0.0
 20
0.0
 30
0.0
  0
LINE
  5
3637
  8
ﾃ_ﾌ_ﾙ
 10
698.63250211273078
 20
317.95462079507888
 30
0.0
 11
263.63250211273089
 21
317.95462079507888
 31
0.0
  0
LINE
  5
3638
  8
ﾃ_ﾌ_ﾙ
 10
698.63250211273078
 20
317.95462079507888
 30
0.0
 11
698.63250211273078
 21
274.95462079507888
 31
0.0
  0
LINE
  5
3639
  8
ﾃ_ﾌ_ﾙ0
 10
529.88250211273078
 20
306.75462079507912
 30
0.0
 11
529.88250211273078
 21
286.1546207950787
 31
0.0
  0
ARC
  5
363A
  8
ﾃ_ﾌ_ﾙ0
 10
529.38250211273078
 20
306.75462079507912
 30
0.0
 40
0.5
 50
0.0
 51
90.0
1001
GENIUS_GENODEF_13
1002
{
1000
HIER
1070
     0
1002
}
1002
{
1000
MANEDIT
1070
     0
1002
}
1002
{
1000
NOSEL
1070
     0
1002
}
1002
{
1000
BEHIND
1070
     0
1002
}
1002
{
1000
OTHER
1070
     0
1002
}
1002
{
1000
REACTOR
1002
}
1001
GENIUS_GENOBJ-N-FIL_13
1002
{
1000
OWNER
1000
GEN
1002
}
  0
LINE
  5
363B
  8
ﾃ_ﾌ_ﾙ0
 10
529.38250211273078
 20
285.6546207950787
 30
0.0
 11
432.88250211273078
 21
285.6546207950787
 31
0.0
  0
ARC
  5
363C
  8
ﾃ_ﾌ_ﾙ0
 10
529.38250211273078
 20
286.1546207950787
 30
0.0
 40
0.5
 50
270.0
 51
0.0
1001
GENIUS_GENOBJ-N-FIL_13
1002
{
1000
OWNER
1000
GEN
1002
}
1001
GENIUS_GENODEF_13
1002
{
1000
HIER
1070
     0
1002
}
1002
{
1000
MANEDIT
1070
     0
1002
}
1002
{
1000
NOSEL
1070
     0
1002
}
1002
{
1000
BEHIND
1070
     0
1002
}
1002
{
1000
OTHER
1070
     0
1002
}
1002
{
1000
REACTOR
1002
}
  0
LINE
  5
363D
  8
ﾃ_ﾌ_ﾙ0
 10
529.38250211273078
 20
307.25462079507912
 30
0.0
 11
432.88250211273078
 21
307.25462079507912
 31
0.0
  0
ARC
  5
363E
  8
ﾃ_ﾌ_ﾙ0
 10
432.88250211273078
 20
306.75462079507912
 30
0.0
 40
0.5
 50
90.0
 51
180.0
1001
GENIUS_GENODEF_13
1002
{
1000
HIER
1070
     0
1002
}
1002
{
1000
MANEDIT
1070
     0
1002
}
1002
{
1000
NOSEL
1070
     0
1002
}
1002
{
1000
BEHIND
1070
     0
1002
}
1002
{
1000
OTHER
1070
     0
1002
}
1002
{
1000
REACTOR
1002
}
1001
GENIUS_GENOBJ-N-FIL_13
1002
{
1000
OWNER
1000
GEN
1002
}
  0
LINE
  5
363F
  8
ﾃ_ﾌ_ﾙ0
 10
432.38250211273089
 20
286.1546207950787
 30
0.0
 11
432.38250211273089
 21
306.75462079507912
 31
0.0
  0
ARC
  5
3640
  8
ﾃ_ﾌ_ﾙ0
 10
432.88250211273078
 20
286.1546207950787
 30
0.0
 40
0.5
 50
180.0
 51
270.0
1001
GENIUS_GENOBJ-N-FIL_13
1002
{
1000
OWNER
1000
GEN
1002
}
1001
GENIUS_GENODEF_13
1002
{
1000
HIER
1070
     0
1002
}
1002
{
1000
MANEDIT
1070
     0
1002
}
1002
{
1000
NOSEL
1070
     0
1002
}
1002
{
1000
BEHIND
1070
     0
1002
}
1002
{
1000
OTHER
1070
     0
1002
}
1002
{
1000
REACTOR
1002
}
  0
LINE
  5
3649
  8
ﾃ_ﾌ_ﾙ
 10
272.13250211273089
 20
855.08387890204312
 30
0.0
 11
272.13250211273089
 21
854.08387890204324
 31
0.0
  0
LINE
  5
3668
  8
0
 10
432.38250211273089
 20
505.08387890204301
 30
0.0
 11
432.38250211273089
 21
504.08387890204312
 31
0.0
  0
LINE
  5
3669
  8
0
 10
529.88250211273078
 20
504.08387890204312
 30
0.0
 11
529.88250211273078
 21
505.08387890204301
 31
0.0
  0
LINE
  5
366A
  8
ﾃ_ﾌ_ﾙ0
 10
263.63250211273089
 20
316.95462079507888
 30
0.0
 11
698.63250211273078
 21
316.95462079507888
 31
0.0
  0
LINE
  5
366B
  8
ﾃ_ﾌ_ﾙ0
 10
698.63250211273078
 20
275.95462079507888
 30
0.0
 11
263.63250211273089
 21
275.95462079507888
 31
0.0
  0
LINE
  5
366C
  8
ﾃ_ﾌ_ﾙ0
 10
690.13250211273078
 20
275.95462079507888
 30
0.0
 11
690.13250211273078
 21
315.95462079507888
 31
0.0
  0
ARC
  5
366D
  8
ﾃ_ﾌ_ﾙ0
 10
689.13250211273078
 20
315.95462079507888
 30
0.0
 40
1.0
 50
0.0
 51
90.0
1001
GENIUS_GENOBJ-N-FIL_13
1002
{
1000
OWNER
1000
GEN
1002
}
1001
GENIUS_GENODEF_13
1002
{
1000
HIER
1070
     0
1002
}
1002
{
1000
MANEDIT
1070
     0
1002
}
1002
{
1000
NOSEL
1070
     0
1002
}
1002
{
1000
BEHIND
1070
     0
1002
}
1002
{
1000
OTHER
1070
     0
1002
}
1002
{
1000
REACTOR
1002
}
  0
LINE
  5
366E
  8
ﾃ_ﾌ_ﾙ0
 10
670.03250211273087
 20
316.95462079507888
 30
0.0
 11
670.03250211273087
 21
315.95462079507888
 31
0.0
  0
LINE
  5
366F
  8
ﾃ_ﾌ_ﾙ0
 10
670.03250211273087
 20
315.95462079507888
 30
0.0
 11
689.13250211273078
 21
315.95462079507888
 31
0.0
  0
LINE
  5
3670
  8
ﾃ_ﾌ_ﾙ0
 10
689.13250211273078
 20
315.95462079507888
 30
0.0
 11
689.13250211273134
 21
275.95462079507888
 31
0.0
  0
LINE
  5
3671
  8
ﾃ_ﾌ_ﾙ
 10
263.63250211273089
 20
274.95462079507888
 30
0.0
 11
698.63250211273078
 21
274.95462079507888
 31
0.0
  0
ARC
  5
3672
  8
ﾃ_ﾌ_ﾙ0
 10
690.13250211273134
 20
275.95462079507888
 30
0.0
 40
1.0
 50
180.0
 51
270.0
1001
GENIUS_GENOBJ-N-FIL_13
1002
{
1000
OWNER
1000
GEN
1002
}
1001
GENIUS_GENODEF_13
1002
{
1000
HIER
1070
     0
1002
}
1002
{
1000
MANEDIT
1070
     0
1002
}
1002
{
1000
NOSEL
1070
     0
1002
}
1002
{
1000
BEHIND
1070
     0
1002
}
1002
{
1000
OTHER
1070
     0
1002
}
1002
{
1000
REACTOR
1002
}
  0
LINE
  5
3673
  8
ﾃ_ﾌ_ﾙ0
 10
697.63250211273078
 20
316.95462079507888
 30
0.0
 11
697.63250211273078
 21
275.95462079507888
 31
0.0
  0
LINE
  5
3674
  8
ﾃ_ﾌ_ﾙ
 10
263.63250211273089
 20
317.95462079507888
 30
0.0
 11
263.63250211273089
 21
274.95462079507888
 31
0.0
  0
ARC
  5
3675
  8
ﾃ_ﾌ_ﾙ0
 10
273.13250211273089
 20
315.95462079507888
 30
0.0
 40
1.0
 50
90.0
 51
180.0
1001
GENIUS_GENOBJ-N-FIL_13
1002
{
1000
OWNER
1000
GEN
1002
}
1001
GENIUS_GENODEF_13
1002
{
1000
HIER
1070
     0
1002
}
1002
{
1000
MANEDIT
1070
     0
1002
}
1002
{
1000
NOSEL
1070
     0
1002
}
1002
{
1000
BEHIND
1070
     0
1002
}
1002
{
1000
OTHER
1070
     0
1002
}
1002
{
1000
REACTOR
1002
}
  0
LINE
  5
3676
  8
ﾃ_ﾌ_ﾙ0
 10
292.2325021127308
 20
316.95462079507888
 30
0.0
 11
292.2325021127308
 21
315.95462079507888
 31
0.0
  0
LINE
  5
3677
  8
ﾃ_ﾌ_ﾙ0
 10
292.2325021127308
 20
315.95462079507888
 30
0.0
 11
273.13250211273089
 21
315.95462079507888
 31
0.0
  0
ARC
  5
3678
  8
ﾃ_ﾌ_ﾙ0
 10
272.13250211273049
 20
275.95462079507888
 30
0.0
 40
1.0
 50
270.0
 51
0.0
1001
GENIUS_GENOBJ-N-FIL_13
1002
{
1000
OWNER
1000
GEN
1002
}
1001
GENIUS_GENODEF_13
1002
{
1000
HIER
1070
     0
1002
}
1002
{
1000
MANEDIT
1070
     0
1002
}
1002
{
1000
NOSEL
1070
     0
1002
}
1002
{
1000
BEHIND
1070
     0
1002
}
1002
{
1000
OTHER
1070
     0
1002
}
1002
{
1000
REACTOR
1002
}
  0
LINE
  5
3679
  8
ﾃ_ﾌ_ﾙ0
 10
264.63250211273089
 20
316.95462079507888
 30
0.0
 11
264.63250211273089
 21
275.95462079507888
 31
0.0
  0
LINE
  5
367A
  8
ﾃ_ﾌ_ﾙ0
 10
689.13250211273112
 20
298.55462079507879
 30
0.0
 11
690.13250211273078
 21
298.55462079507879
 31
0.0
  0
LINE
  5
367B
  8
ﾃ_ﾌ_ﾙ0
 10
689.13250211273112
 20
294.35462079507897
 30
0.0
 11
690.13250211273078
 21
294.35462079507897
 31
0.0
  0
LINE
  5
367C
  8
ﾃ_ﾌ_ﾙ0
 10
273.13250211273072
 20
298.55462079507879
 30
0.0
 11
272.13250211273089
 21
298.55462079507879
 31
0.0
  0
LINE
  5
367D
  8
ﾃ_ﾌ_ﾙ0
 10
273.13250211273072
 20
294.35462079507897
 30
0.0
 11
272.13250211273089
 21
294.35462079507897
 31
0.0
  0
LINE
  5
367E
  8
ﾃ_ﾌ_ﾙ0
 10
273.13250211273038
 20
275.95462079507888
 30
0.0
 11
273.13250211273089
 21
315.95462079507888
 31
0.0
  0
LINE
  5
367F
  8
ﾃ_ﾌ_ﾙ0
 10
272.13250211273089
 20
315.95462079507888
 30
0.0
 11
272.13250211273089
 21
275.95462079507888
 31
0.0
  0
DIMENSION
  5
368E
  8
AM_5
  2
*D15
 10
722.43250211273084
 20
446.07094040244908
 30
0.0
 11
481.13250211273078
 21
457.32266284339408
 31
0.0
 70
     0
 13
239.83250211273091
 23
504.08387890204312
 33
0.0
 14
722.43250211273084
 24
504.08387890204312
 34
0.0
1001
ACAD
1000
DSTYLE
1002
{
1070
   287
1070
     4
1070
    40
1040
5.0
1070
    41
1040
1.5
1070
   147
1040
0.5
1070
   279
1070
     1
1002
}
  0
DIMENSION
  5
3691
  8
AM_5
  2
*D16
 10
962.1158301577176
 20
135.07510153709759
 30
0.0
 11
940.61583015771748
 21
146.32510153709771
 31
0.0
 70
     0
 13
919.11583015771748
 23
174.88410841484139
 33
0.0
 14
962.1158301577176
 24
174.88410841484139
 34
0.0
1001
ACAD
1000
DSTYLE
1002
{
1070
   287
1070
     4
1070
    40
1040
5.0
1070
    41
1040
1.5
1070
   147
1040
0.5
1070
   279
1070
     1
1002
}
  0
DIMENSION
  5
3697
  8
AM_5
  2
*D14
 10
739.51298992964701
 20
504.08387890204312
 30
0.0
 11
728.26298992964701
 21
729.58387890204324
 31
0.0
 70
     0
 13
690.13250211273078
 23
955.08387890204312
 33
0.0
 14
722.43250211273084
 24
504.08387890204312
 34
0.0
 50
90.0
1001
ACAD
1000
DSTYLE
1002
{
1070
   287
1070
     4
1070
    40
1040
5.0
1070
    41
1040
1.5
1070
   147
1040
0.5
1070
   279
1070
     1
1002
}
  0
LINE
  5
36A5
  8
ﾃ_ﾌ_ﾙ
 10
920.11583015771748
 20
955.08387890204312
 30
0.0
 11
923.11583015771737
 21
955.08387890204335
 31
0.0
  0
LINE
  5
36A6
  8
ﾃ_ﾌ_ﾙ
 10
959.11583015771748
 20
955.08387890204335
 30
0.0
 11
962.11583015771748
 21
955.08387890204312
 31
0.0
  0
ARC
  5
36A7
  8
ﾃ_ﾌ_ﾙ
 10
920.11583015771748
 20
954.08387890204324
 30
0.0
 40
1.0
 50
90.0
 51
180.0
1001
GENIUS_GENOBJ-N-FIL_13
1002
{
1000
OWNER
1000
GEN
1002
}
1001
GENIUS_GENODEF_13
1002
{
1000
HIER
1070
     0
1002
}
1002
{
1000
MANEDIT
1070
     0
1002
}
1002
{
1000
NOSEL
1070
     0
1002
}
1002
{
1000
BEHIND
1070
     0
1002
}
1002
{
1000
OTHER
1070
     0
1002
}
1002
{
1000
REACTOR
1002
}
  0
LINE
  5
36A8
  8
ﾃ_ﾌ_ﾙ
 10
962.11583015771748
 20
955.08387890204312
 30
0.0
 11
962.11583015771726
 21
853.40698407037405
 31
0.0
  0
LINE
  5
36A9
  8
ﾃ_ﾌ_ﾙ
 10
919.11583015771748
 20
854.08410841484158
 30
0.0
 11
919.11583015771748
 21
954.08387890204324
 31
0.0
  0
LINE
  5
36AA
  8
ﾃ_ﾌ_ﾙ
 10
962.11583015771748
 20
953.98387890204265
 30
0.0
 11
959.11583015771748
 21
953.98387890204299
 31
0.0
  0
LINE
  5
36AB
  8
ﾃ_ﾌ_ﾙ
 10
923.11583015771737
 20
953.98387890204299
 30
0.0
 11
920.11583015771748
 21
953.98387890204265
 31
0.0
  0
LINE
  5
36AC
  8
ﾃ_ﾌ_ﾙ
 10
920.11583015771748
 20
953.98387890204265
 30
0.0
 11
920.11583015771748
 21
854.08410841484158
 31
0.0
  0
LINE
  5
36AD
  8
ﾃ_ﾌ_ﾙ
 10
961.11583015771726
 20
854.08410841484158
 30
0.0
 11
961.11583015771748
 21
953.98387890204265
 31
0.0
  0
LINE
  5
36AE
  8
ﾃ_ﾌ_ﾙ0
 10
921.11583015771737
 20
953.98387890204265
 30
0.0
 11
921.11583015771737
 21
854.08410841484158
 31
0.0
  0
LINE
  5
36C1
  8
ボ_ルスライド0
 10
76.602478241891731
 20
514.08387890204312
 30
0.0
 11
111.9024782418919
 21
514.08387890204312
 31
0.0
  0
LINE
  5
36C2
  8
ボ_ルスライド0
 10
111.9024782418919
 20
971.28387890204306
 30
0.0
 11
76.602478241891731
 21
971.28387890204306
 31
0.0
  0
LINE
  5
36CE
  8
ボ_ルスライド0
 10
111.9024782418919
 20
971.28387890204306
 30
0.0
 11
111.9024782418919
 21
514.08387890204312
 31
0.0
  0
LINE
  5
36CF
  8
ボ_ルスライド0
 10
76.602478241891731
 20
971.28387890204306
 30
0.0
 11
76.602478241891731
 21
514.08387890204312
 31
0.0
  0
INSERT
  5
36D4
  8
0
  2
取手正面
 10
481.13250211273078
 20
309.45462079507888
 30
0.0
  0
INSERT
  5
36D5
  8
0
  2
取手横
 10
924.61582963782132
 20
190.85650143935621
 30
0.0
 41
-1.0
 50
180.0
  0
INSERT
  5
36D6
  8
0
  2
取手上
 10
533.13250194455304
 20
503.1446512962645
 30
0.0
 50
90.0
  0
INSERT
  5
36D7
  8
ロック金具
  2
ロック金具凸
 10
493.13250157850592
 20
959.08387913908223
 30
0.0
 41
0.3333333333332575
 42
0.3333333333332575
 43
0.3333333333333333
 50
90.0
  0
INSERT
  5
36D8
  8
ロック金具
  2
ロック金具凹
 10
481.13250211273078
 20
955.08387890204312
 30
0.0
 50
90.0
  0
LINE
  5
3704
  8
ﾃ_ﾌ_ﾙ0
 10
1476.665626017261
 20
505.08387890204301
 30
0.0
 11
1476.665626017261
 21
504.08387890204312
 31
0.0
  0
LINE
  5
3705
  8
ﾃ_ﾌ_ﾙ0
 10
1379.165626017261
 20
504.08387890204312
 30
0.0
 11
1379.165626017261
 21
505.08387890204301
 31
0.0
  0
INSERT
  5
3713
  8
0
  2
取手上
 10
1375.9156261854389
 20
501.09391028751901
 30
0.0
 41
-1.0
 50
270.0
  0
INSERT
  5
3714
  8
ロック金具
  2
ロック金具凸
 10
1415.915626551486
 20
959.08387913908223
 30
0.0
 41
-0.3333333333332575
 42
0.3333333333332575
 43
0.3333333333333333
 50
270.0
  0
INSERT
  5
3715
  8
ロック金具
  2
ロック金具凹
 10
1427.915626017261
 20
955.08387890204312
 30
0.0
 41
-1.0
 50
270.0
  0
INSERT
  5
3716
  8
保護スポンジ
  2
保護スポンジ
 10
1635.9156237410009
 20
505.58388234180211
 30
0.0
 50
90.0
  0
INSERT
  5
3717
  8
保護スポンジ
  2
保護スポンジ
 10
1219.9156282935221
 20
505.58388234180211
 30
0.0
 41
-1.0
 50
270.0
  0
INSERT
  5
3718
  8
0
  2
取手横
 10
110.7524787617876
 20
190.85650143935621
 30
0.0
 50
180.0
  0
INSERT
  5
3787
  8
AM_5
  2
*S69
 10
0.0
 20
0.0
 30
0.0
  0
DIMENSION
  5
37C6
  8
AM_5
  2
*D17
 10
739.51298992964757
 20
981.08387890204312
 30
0.0
 11
728.26126748870263
 21
968.08387890204324
 31
0.0
 70
     0
 13
690.13250211273078
 23
955.08387890204312
 33
0.0
 14
699.33250211273094
 24
981.08387890204312
 34
0.0
 50
90.0
1001
ACAD
1000
DSTYLE
1002
{
1070
   287
1070
     4
1070
    40
1040
5.0
1070
    41
1040
1.5
1070
   147
1040
0.5
1070
   279
1070
     1
1002
}
  0
DIMENSION
  5
3A1D
  8
AM_5
  2
*D18
 10
226.3800744204805
 20
312.1546207950787
 30
0.0
 11
226.8185314673151
 21
294.96920011748631
 31
0.0
 70
   128
 13
241.83250211273091
 23
274.45462079507888
 33
0.0
 14
245.58250211273099
 24
312.1546207950787
 34
0.0
 50
90.0
1001
ACAD
1000
DSTYLE
1002
{
1070
   287
1070
     4
1070
    40
1040
5.0
1070
    41
1040
1.5
1070
   140
1040
3.0
1070
   147
1040
0.5
1070
   279
1070
     1
1002
}
  0
DIMENSION
  5
3A4B
  8
AM_5
  2
*D19
 10
226.38007442048041
 20
312.1546207950787
 30
0.0
 11
216.38007442048041
 21
340.70462079507871
 31
0.0
 70
     0
 13
245.58250211273099
 23
369.25462079507861
 33
0.0
 14
245.58250211273099
 24
312.1546207950787
 34
0.0
 50
90.0
1001
ACAD
1000
DSTYLE
1002
{
1070
   287
1070
     4
1070
    40
1040
5.0
1070
    41
1040
1.5
1070
   140
1040
3.0
1070
   147
1040
0.5
1070
   279
1070
     1
1002
}
  0
DIMENSION
  5
3A81
  8
AM_5
  2
*D20
 10
226.3800744204805
 20
369.25462079507861
 30
0.0
 11
227.31701850446831
 21
388.97776107000982
 31
0.0
 70
   128
 13
241.83250211273091
 23
406.95462079507882
 33
0.0
 14
245.58250211273099
 24
369.25462079507861
 34
0.0
 50
90.0
1001
ACAD
1000
DSTYLE
1002
{
1070
   287
1070
     4
1070
    40
1040
5.0
1070
    41
1040
1.5
1070
   140
1040
3.0
1070
   147
1040
0.5
1070
   279
1070
     1
1002
}
  0
DIMENSION
  5
3AC9
  8
AM_5
  2
*D21
 10
205.30839934042211
 20
406.95462079507882
 30
0.0
 11
194.05667689947711
 21
340.70462079507888
 31
0.0
 70
     0
 13
241.83250211273091
 23
274.45462079507888
 33
0.0
 14
241.83250211273091
 24
406.95462079507882
 34
0.0
 50
90.0
1001
ACAD
1000
DSTYLE
1002
{
1070
   287
1070
     4
1070
    40
1040
5.0
1070
    41
1040
1.5
1070
   147
1040
0.5
1070
   279
1070
     1
1002
}
  0
DIMENSION
  5
3CD2
  8
AM_5
  2
*D22
 10
262.63250211273089
 20
226.4546207950788
 30
0.0
 11
213.77808511544251
 21
221.43096113265349
 31
0.0
 70
   128
 13
239.83250211273091
 23
276.45462079507888
 33
0.0
 14
262.63250211273089
 24
274.45462079507888
 34
0.0
1001
ACAD
1000
DSTYLE
1002
{
1070
   287
1070
     4
1070
    40
1040
5.0
1070
    41
1040
1.5
1070
   140
1040
3.0
1070
   147
1040
0.5
1070
   279
1070
     1
1002
}
  0
DIMENSION
  5
3D00
  8
AM_5
  2
*D23
 10
263.63250211273089
 20
226.4546207950788
 30
0.0
 11
272.69590949666099
 21
226.21230805478351
 31
0.0
 70
   128
 13
262.63250211273089
 23
274.45462079507888
 33
0.0
 14
263.63250211273089
 24
274.95462079507888
 34
0.0
1001
ACAD
1000
DSTYLE
1002
{
1070
   287
1070
     4
1070
    40
1040
5.0
1070
    41
1040
1.5
1070
   140
1040
3.0
1070
   147
1040
0.5
1070
   279
1070
     1
1002
}
  0
DIMENSION
  5
3D36
  8
AM_5
  2
*D24
 10
698.632502112731
 20
226.45462079507931
 30
0.0
 11
481.13250211273089
 21
237.70462079507931
 31
0.0
 70
     0
 13
263.63250211273089
 23
274.95462079507888
 33
0.0
 14
698.632502112731
 24
274.95462079507888
 34
0.0
1001
ACAD
1000
DSTYLE
1002
{
1070
   287
1070
     4
1070
    40
1040
5.0
1070
    41
1040
1.5
1070
   147
1040
0.5
1070
   279
1070
     1
1002
}
  0
DIMENSION
  5
3D52
  8
AM_5
  2
*D25
 10
699.63250211273066
 20
226.45462079507979
 30
0.0
 11
688.29402749431972
 21
226.1732802587012
 31
0.0
 70
   128
 13
698.63250211273078
 23
274.95462079507888
 33
0.0
 14
699.63250211273066
 24
274.45462079507888
 34
0.0
1001
ACAD
1000
DSTYLE
1002
{
1070
   287
1070
     4
1070
    40
1040
5.0
1070
    41
1040
1.5
1070
   140
1040
3.0
1070
   147
1040
0.5
1070
   279
1070
     1
1002
}
  0
DIMENSION
  5
3D72
  8
AM_5
  2
*D26
 10
722.43250211273084
 20
226.45462079507979
 30
0.0
 11
748.8336259062512
 21
224.66009207103701
 31
0.0
 70
   128
 13
699.63250211273089
 23
274.45462079507888
 33
0.0
 14
722.43250211273084
 24
276.45462079507888
 34
0.0
1001
ACAD
1000
DSTYLE
1002
{
1070
   287
1070
     4
1070
    40
1040
5.0
1070
    41
1040
1.5
1070
   140
1040
3.0
1070
   147
1040
0.5
1070
   279
1070
     1
1002
}
  0
DIMENSION
  5
3E2C
  8
AM_5
  2
*D27
 10
247.83250211273099
 20
245.22028196101661
 30
0.0
 11
252.12901064768681
 21
245.01364526798079
 31
0.0
 70
   128
 13
239.83250211273091
 23
276.45462079507888
 33
0.0
 14
247.83250211273099
 24
308.9046207950787
 34
0.0
1001
ACAD
1000
DSTYLE
1002
{
1070
   287
1070
     4
1070
    40
1040
5.0
1070
    41
1040
1.5
1070
   140
1040
3.0
1070
   147
1040
0.5
1070
   279
1070
     1
1002
}
  0
DIMENSION
  5
3E73
  8
AM_5
  2
*D28
 10
245.58250211273099
 20
312.15462079507881
 30
0.0
 11
334.07566062610613
 21
350.92255172861599
 31
0.0
 70
   132
  1
4-6.5×11長穴
 15
247.93283161272919
 25
314.3992702646924
 35
0.0
 40
0.0
1001
ACAD
1000
DSTYLE
1002
{
1070
   140
1040
3.0
1070
    40
1040
4.0
1070
   147
1040
0.5
1002
}
  0
DIMENSION
  5
3FE1
  8
AM_5
  2
*D29
 10
777.06302865667647
 20
504.08410841484169
 30
0.0
 11
765.81302865667635
 21
679.08410841484192
 31
0.0
 70
     0
 13
914.17234334533214
 23
854.08410841484158
 33
0.0
 14
830.11583015771737
 24
504.08410841484169
 34
0.0
 50
90.0
1001
ACAD
1000
DSTYLE
1002
{
1070
   287
1070
     4
1070
    41
1040
1.5
1070
    40
1040
5.0
1070
   147
1040
0.5
1070
   279
1070
     1
1002
}
  0
DIMENSION
  5
3FFC
  8
AM_5
  2
*D30
 10
1028.615831157718
 20
955.08410841484135
 30
0.0
 11
1017.365831157717
 21
729.58410841484147
 31
0.0
 70
     0
 13
962.61583015771748
 23
504.08410841484141
 33
0.0
 14
962.61583015776318
 24
955.08410841484135
 34
0.0
 50
90.0
1001
ACAD
1000
DSTYLE
1002
{
1070
   287
1070
     4
1070
    40
1040
5.0
1070
    41
1040
1.5
1070
   147
1040
0.5
1070
   279
1070
     1
1002
}
  0
DIMENSION
  5
3FFD
  8
AM_5
  2
*D31
 10
998.61583115771759
 20
981.08410841484135
 30
0.0
 11
987.36410871677265
 21
968.08410841484147
 31
0.0
 70
     0
 13
962.61583015776318
 23
955.08410841484135
 33
0.0
 14
960.11583015771748
 24
981.08410841484135
 34
0.0
 50
90.0
1001
ACAD
1000
DSTYLE
1002
{
1070
   287
1070
     4
1070
    40
1040
5.0
1070
    41
1040
1.5
1070
   147
1040
0.5
1070
   279
1070
     1
1002
}
  0
DIMENSION
  5
3FFE
  8
AM_5
  2
*D32
 10
1058.615831157719
 20
981.08387890204335
 30
0.0
 11
1047.365831157718
 21
742.58399365844241
 31
0.0
 70
     0
 13
962.61583015771748
 23
504.08410841484141
 33
0.0
 14
960.11583015771748
 24
981.08387890204335
 34
0.0
 50
90.0
1001
ACAD
1000
DSTYLE
1002
{
1070
   287
1070
     4
1070
    40
1040
5.0
1070
    41
1040
1.5
1070
   147
1040
0.5
1070
   279
1070
     1
1002
}
  0
DIMENSION
  5
3FFF
  8
AM_5
  2
*D33
 10
998.61583115771896
 20
542.68410841484138
 30
0.0
 11
998.95848957223279
 21
524.16258849248334
 31
0.0
 70
   128
 13
962.61583015771748
 23
504.08410841484141
 33
0.0
 14
940.61583015771748
 24
542.68410841484138
 34
0.0
 50
90.0
1001
ACAD
1000
DSTYLE
1002
{
1070
   287
1070
     4
1070
   140
1040
3.0
1070
    40
1040
5.0
1070
    41
1040
1.5
1070
   147
1040
0.5
1070
   279
1070
     1
1002
}
  0
DIMENSION
  5
4000
  8
AM_5
  2
*D34
 10
998.61583115771896
 20
641.08410841484135
 30
0.0
 11
987.36583115771873
 21
591.88410841484165
 31
0.0
 70
     0
 13
940.61583015771748
 23
542.68410841484149
 33
0.0
 14
940.61583015771748
 24
641.08410841484135
 34
0.0
 50
90.0
1001
ACAD
1000
DSTYLE
1002
{
1070
   287
1070
     4
1070
    40
1040
5.0
1070
    41
1040
1.5
1070
   147
1040
0.5
1070
   279
1070
     1
1002
}
  0
DIMENSION
  5
4001
  8
AM_5
  2
*D35
 10
998.61583115771862
 20
742.68387890204326
 30
0.0
 11
987.36583115771862
 21
691.88399365844248
 31
0.0
 70
     0
 13
940.61583015771748
 23
641.08410841484135
 33
0.0
 14
940.61583015771748
 24
742.68387890204326
 34
0.0
 50
90.0
1001
ACAD
1000
DSTYLE
1002
{
1070
   287
1070
     4
1070
    40
1040
5.0
1070
    41
1040
1.5
1070
   147
1040
0.5
1070
   279
1070
     1
1002
}
  0
DIMENSION
  5
4002
  8
AM_5
  2
*D36
 10
998.61583115771862
 20
854.08410841484135
 30
0.0
 11
999.98027959497449
 21
889.14649840976017
 31
0.0
 70
   128
 13
940.61583015771748
 23
831.58410841484147
 33
0.0
 14
962.61583015771748
 24
854.08410841484135
 34
0.0
 50
90.0
1001
ACAD
1000
DSTYLE
1002
{
1070
   287
1070
     4
1070
    40
1040
5.0
1070
    41
1040
1.5
1070
   147
1040
0.5
1070
   279
1070
     1
1002
}
  0
DIMENSION
  5
4003
  8
AM_5
  2
*D37
 10
962.61583015771748
 20
890.08410841484135
 30
0.0
 11
951.05861618165488
 21
890.08410841484135
 31
0.0
 70
   128
 13
940.61583015771748
 23
829.98410841484144
 33
0.0
 14
962.61583015771748
 24
854.08410841484135
 34
0.0
 50
180.0
1001
ACAD
1000
DSTYLE
1002
{
1070
   287
1070
     4
1070
    40
1040
5.0
1070
    41
1040
1.5
1070
   147
1040
0.5
1070
   279
1070
     1
1002
}
  0
DIMENSION
  5
4004
  8
AM_5
  2
*D38
 10
998.61583015771771
 20
173.88410841484131
 30
0.0
 11
987.36410771677288
 21
338.98410841484161
 31
0.0
 70
     0
  1
トラベル<>
 13
962.61583015771748
 23
504.08410841484141
 33
0.0
 14
961.11583015771748
 24
173.88410841484131
 34
0.0
 50
90.0
1001
ACAD
1000
DSTYLE
1002
{
1070
   287
1070
     4
1070
    40
1040
5.0
1070
    41
1040
1.5
1070
   147
1040
0.5
1070
   279
1070
     1
1002
}
  0
INSERT
  5
4194
  8
AM_12
  2
*S70
 10
0.0
 20
0.0
 30
0.0
  0
INSERT
  5
4195
  8
AM_12
  2
*S71
 10
0.0
 20
0.0
 30
0.0
  0
INSERT
  5
4196
  8
AM_12
  2
*S72
 10
0.0
 20
0.0
 30
0.0
  0
INSERT
  5
419E
  8
0
  2
*S73
 10
0.0
 20
0.0
 30
0.0
  0
INSERT
  5
44E8
  8
AM_12
  2
*S74
 10
0.0
 20
0.0
 30
0.0
  0
INSERT
  5
4768
  8
AM_5
  2
*S75
 10
0.0
 20
0.0
 30
0.0
  0
INSERT
  5
4769
  8
AM_5
  2
*S76
 10
0.0
 20
0.0
 30
0.0
  0
INSERT
  5
476A
  8
AM_5
  2
*S77
 10
0.0
 20
0.0
 30
0.0
  0
INSERT
  5
476B
  8
AM_5
  2
*S78
 10
0.0
 20
0.0
 30
0.0
  0
INSERT
  5
4782
  8
ﾃ_ﾌ_ﾙ
  2
*U123
 10
0.0
 20
0.0
 30
0.0
  0
INSERT
  5
4784
  8
ﾃ_ﾌ_ﾙ
  2
*U124
 10
0.0
 20
0.0
 30
0.0
  0
INSERT
  5
478F
  8
ﾃ_ﾌ_ﾙ
  2
*U125
 10
0.0
 20
0.0
 30
0.0
  0
DIMENSION
  5
5842
  8
AM_5
  2
*D45
 10
998.61583115771862
 20
831.58410841484147
 30
0.0
 11
987.36583115771862
 21
787.13399365844236
 31
0.0
 70
     0
 13
940.61583015771748
 23
742.68387890204326
 33
0.0
 14
940.61583015771748
 24
831.58410841484147
 34
0.0
 50
90.0
1001
ACAD
1000
DSTYLE
1002
{
1070
   287
1070
     4
1070
    40
1040
5.0
1070
    41
1040
1.5
1070
   147
1040
0.5
1070
   279
1070
     1
1002
}
  0
LINE
  5
59A3
  8
ﾃ_ﾌ_ﾙ
 10
959.11583015771748
 20
955.08387890204335
 30
0.0
 11
962.11583015771748
 21
955.08387890204335
 31
0.0
  0
ARC
  5
59A4
  8
ﾃ_ﾌ_ﾙ
 10
920.11583015771748
 20
954.08387890204335
 30
0.0
 40
1.0
 50
90.0
 51
180.0
1001
GENIUS_GENOBJ-N-FIL_13
1002
{
1000
OWNER
1000
GEN
1002
}
1001
GENIUS_GENODEF_13
1002
{
1000
HIER
1070
     0
1002
}
1002
{
1000
MANEDIT
1070
     0
1002
}
1002
{
1000
NOSEL
1070
     0
1002
}
1002
{
1000
BEHIND
1070
     0
1002
}
1002
{
1000
OTHER
1070
     0
1002
}
1002
{
1000
REACTOR
1002
}
  0
LINE
  5
59A5
  8
ﾃ_ﾌ_ﾙ
 10
962.11583015771748
 20
955.08387890204335
 30
0.0
 11
962.11583015771748
 21
854.08410841484158
 31
0.0
  0
LINE
  5
59A6
  8
ﾃ_ﾌ_ﾙ
 10
961.11583015771748
 20
504.08410841484169
 30
0.0
 11
920.11583015771748
 21
504.08410841484169
 31
0.0
  0
LINE
  5
59A9
  8
ﾃ_ﾌ_ﾙ
 10
919.11583015771748
 20
854.08410841484158
 30
0.0
 11
919.11583015771748
 21
954.08387890204335
 31
0.0
  0
LINE
  5
59AA
  8
ﾃ_ﾌ_ﾙ
 10
962.11583015771748
 20
953.98387890204299
 30
0.0
 11
959.11583015771748
 21
953.98387890204299
 31
0.0
  0
LINE
  5
59AB
  8
ﾃ_ﾌ_ﾙ
 10
920.11583015771748
 20
953.98387890204299
 30
0.0
 11
920.11583015771748
 21
854.08410841484158
 31
0.0
  0
LINE
  5
59AD
  8
ﾃ_ﾌ_ﾙ
 10
961.11583015771726
 20
854.08410841484158
 30
0.0
 11
961.11583015771748
 21
953.98387890204299
 31
0.0
  0
LINE
  5
59AF
  8
ﾃ_ﾌ_ﾙ0
 10
921.11583015771737
 20
953.98387890204299
 30
0.0
 11
921.1158301577176
 21
854.08410841484181
 31
0.0
  0
LINE
  5
5A46
  8
ﾃ_ﾌ_ﾙ
 10
115.25247824189179
 20
955.08387890204312
 30
0.0
 11
112.25247824189179
 21
955.08387890204335
 31
0.0
  0
LINE
  5
5A47
  8
ﾃ_ﾌ_ﾙ
 10
76.252478241891822
 20
955.08387890204335
 30
0.0
 11
73.252478241891822
 21
955.08387890204312
 31
0.0
  0
ARC
  5
5A48
  8
ﾃ_ﾌ_ﾙ
 10
115.25247824189179
 20
954.08387890204324
 30
0.0
 40
1.0
 50
0.000000000000007
 51
90.0
1001
GENIUS_GENOBJ-N-FIL_13
1002
{
1000
OWNER
1000
GEN
1002
}
1001
GENIUS_GENODEF_13
1002
{
1000
HIER
1070
     0
1002
}
1002
{
1000
MANEDIT
1070
     0
1002
}
1002
{
1000
NOSEL
1070
     0
1002
}
1002
{
1000
BEHIND
1070
     0
1002
}
1002
{
1000
OTHER
1070
     0
1002
}
1002
{
1000
REACTOR
1002
}
  0
LINE
  5
5A49
  8
ﾃ_ﾌ_ﾙ
 10
73.252478241891822
 20
955.08387890204312
 30
0.0
 11
73.252478241891936
 21
853.40698407037405
 31
0.0
  0
LINE
  5
5A4A
  8
ﾃ_ﾌ_ﾙ
 10
116.25247824189179
 20
854.08410841484158
 30
0.0
 11
116.25247824189179
 21
954.08387890204324
 31
0.0
  0
LINE
  5
5A4B
  8
ﾃ_ﾌ_ﾙ
 10
73.252478241891822
 20
953.98387890204265
 30
0.0
 11
76.252478241891822
 21
953.98387890204299
 31
0.0
  0
LINE
  5
5A4C
  8
ﾃ_ﾌ_ﾙ
 10
112.25247824189179
 20
953.98387890204299
 30
0.0
 11
115.25247824189179
 21
953.98387890204265
 31
0.0
  0
LINE
  5
5A4D
  8
ﾃ_ﾌ_ﾙ
 10
115.25247824189179
 20
953.98387890204265
 30
0.0
 11
115.25247824189179
 21
854.08410841484158
 31
0.0
  0
LINE
  5
5A4E
  8
ﾃ_ﾌ_ﾙ
 10
74.252478241891936
 20
854.08410841484158
 30
0.0
 11
74.252478241891822
 21
953.98387890204265
 31
0.0
  0
LINE
  5
5A4F
  8
ﾃ_ﾌ_ﾙ0
 10
114.25247824189179
 20
953.98387890204265
 30
0.0
 11
114.25247824189179
 21
854.08410841484158
 31
0.0
  0
LINE
  5
5A50
  8
ﾃ_ﾌ_ﾙ
 10
76.252478241891822
 20
955.08387890204335
 30
0.0
 11
73.252478241891822
 21
955.08387890204335
 31
0.0
  0
ARC
  5
5A51
  8
ﾃ_ﾌ_ﾙ
 10
115.25247824189179
 20
954.08387890204335
 30
0.0
 40
1.0
 50
0.000000000000007
 51
90.0
1001
GENIUS_GENOBJ-N-FIL_13
1002
{
1000
OWNER
1000
GEN
1002
}
1001
GENIUS_GENODEF_13
1002
{
1000
HIER
1070
     0
1002
}
1002
{
1000
MANEDIT
1070
     0
1002
}
1002
{
1000
NOSEL
1070
     0
1002
}
1002
{
1000
BEHIND
1070
     0
1002
}
1002
{
1000
OTHER
1070
     0
1002
}
1002
{
1000
REACTOR
1002
}
  0
LINE
  5
5A52
  8
ﾃ_ﾌ_ﾙ
 10
73.252478241891822
 20
955.08387890204335
 30
0.0
 11
73.252478241891822
 21
854.08410841484158
 31
0.0
  0
LINE
  5
5A53
  8
ﾃ_ﾌ_ﾙ
 10
116.25247824189169
 20
854.08410841484158
 30
0.0
 11
116.25247824189179
 21
954.08387890204335
 31
0.0
  0
LINE
  5
5A54
  8
ﾃ_ﾌ_ﾙ
 10
73.252478241891822
 20
953.98387890204299
 30
0.0
 11
76.252478241891822
 21
953.98387890204299
 31
0.0
  0
LINE
  5
5A55
  8
ﾃ_ﾌ_ﾙ
 10
115.25247824189179
 20
953.98387890204299
 30
0.0
 11
115.25247824189179
 21
854.08410841484158
 31
0.0
  0
LINE
  5
5A56
  8
ﾃ_ﾌ_ﾙ
 10
74.252478241891936
 20
854.08410841484158
 30
0.0
 11
74.252478241891822
 21
953.98387890204299
 31
0.0
  0
LINE
  5
5A57
  8
ﾃ_ﾌ_ﾙ0
 10
114.25247824189179
 20
953.98387890204299
 30
0.0
 11
114.25247824189159
 21
854.08410841484181
 31
0.0
  0
LINE
  5
5A62
  8
ﾃ_ﾌ_ﾙ
 10
74.252478241891936
 20
504.08410841484169
 30
0.0
 11
115.25247824189189
 21
504.08410841484169
 31
0.0
  0
LINE
  5
5AC5
  8
ﾃ_ﾌ_ﾙ
 10
698.63250211273078
 20
1225.2440194579781
 30
0.0
 11
263.63250211273089
 21
1225.2440194579781
 31
0.0
  0
LINE
  5
5AC6
  8
ﾃ_ﾌ_ﾙ
 10
698.63250211273078
 20
1225.2440194579781
 30
0.0
 11
698.63250211273078
 21
1227.6440194579779
 31
0.0
  0
LINE
  5
5AC7
  8
ﾃ_ﾌ_ﾙ
 10
698.63250211273078
 20
1266.8440194579789
 30
0.0
 11
698.63250211273078
 21
1268.2440194579781
 31
0.0
  0
LINE
  5
5AC8
  8
ﾃ_ﾌ_ﾙ0
 10
263.63250211273089
 20
1226.2440194579781
 30
0.0
 11
690.13250211273078
 21
1226.2440194579781
 31
0.0
  0
LINE
  5
5AC9
  8
ﾃ_ﾌ_ﾙ
 10
690.13250211273078
 20
1267.2440194579781
 30
0.0
 11
690.13250211273078
 21
1266.8440194579789
 31
0.0
  0
LINE
  5
5ACA
  8
ﾃ_ﾌ_ﾙ
 10
690.13250211273078
 20
1227.6440194579779
 30
0.0
 11
690.13250211273078
 21
1226.2440194579781
 31
0.0
  0
ARC
  5
5ACB
  8
ﾃ_ﾌ_ﾙ0
 10
689.13250211273078
 20
1227.244019457979
 30
0.0
 40
1.0
 50
270.0
 51
0.0
1001
GENIUS_GENOBJ-N-FIL_13
1002
{
1000
OWNER
1000
GEN
1002
}
1001
GENIUS_GENODEF_13
1002
{
1000
HIER
1070
     0
1002
}
1002
{
1000
MANEDIT
1070
     0
1002
}
1002
{
1000
NOSEL
1070
     0
1002
}
1002
{
1000
BEHIND
1070
     0
1002
}
1002
{
1000
OTHER
1070
     0
1002
}
1002
{
1000
REACTOR
1002
}
  0
LINE
  5
5ACC
  8
ﾃ_ﾌ_ﾙ0
 10
670.03250211273098
 20
1226.2440194579781
 30
0.0
 11
670.03250211273098
 21
1227.244019457979
 31
0.0
  0
LINE
  5
5ACD
  8
ﾃ_ﾌ_ﾙ0
 10
670.03250211273098
 20
1227.244019457979
 30
0.0
 11
689.13250211273089
 21
1227.244019457979
 31
0.0
  0
LINE
  5
5ACE
  8
ﾃ_ﾌ_ﾙ0
 10
689.13250211273089
 20
1227.244019457979
 30
0.0
 11
689.13250211273089
 21
1227.6440194579779
 31
0.0
  0
LINE
  5
5ACF
  8
ﾃ_ﾌ_ﾙ0
 10
689.13250211273134
 20
1266.8440194579789
 30
0.0
 11
689.13250211273134
 21
1267.2440194579781
 31
0.0
  0
LINE
  5
5AD0
  8
ﾃ_ﾌ_ﾙ
 10
263.63250211273089
 20
1268.2440194579781
 30
0.0
 11
698.63250211273078
 21
1268.2440194579781
 31
0.0
  0
ARC
  5
5AD1
  8
ﾃ_ﾌ_ﾙ0
 10
690.13250211273134
 20
1267.2440194579781
 30
0.0
 40
1.0
 50
90.0
 51
180.0
1001
GENIUS_GENOBJ-N-FIL_13
1002
{
1000
OWNER
1000
GEN
1002
}
1001
GENIUS_GENODEF_13
1002
{
1000
HIER
1070
     0
1002
}
1002
{
1000
MANEDIT
1070
     0
1002
}
1002
{
1000
NOSEL
1070
     0
1002
}
1002
{
1000
BEHIND
1070
     0
1002
}
1002
{
1000
OTHER
1070
     0
1002
}
1002
{
1000
REACTOR
1002
}
  0
LINE
  5
5AD2
  8
ﾃ_ﾌ_ﾙ
 10
697.63250211273078
 20
1226.2440194579781
 30
0.0
 11
697.63250211273078
 21
1227.6440194579779
 31
0.0
  0
LINE
  5
5AD3
  8
ﾃ_ﾌ_ﾙ
 10
697.63250211273078
 20
1266.8440194579789
 30
0.0
 11
697.63250211273078
 21
1267.2440194579781
 31
0.0
  0
LINE
  5
5AD4
  8
ﾃ_ﾌ_ﾙ
 10
690.13250211273134
 20
1267.2440194579781
 30
0.0
 11
698.632502112731
 21
1267.2440194579781
 31
0.0
  0
LINE
  5
5AD5
  8
ﾃ_ﾌ_ﾙ
 10
690.13250211273078
 20
1226.2440194579781
 30
0.0
 11
698.632502112731
 21
1226.2440194579781
 31
0.0
  0
LINE
  5
5AD6
  8
ﾃ_ﾌ_ﾙ
 10
263.63250211273089
 20
1225.2440194579781
 30
0.0
 11
263.63250211273089
 21
1227.6440194579779
 31
0.0
  0
LINE
  5
5AD7
  8
ﾃ_ﾌ_ﾙ
 10
263.63250211273089
 20
1266.8440194579789
 30
0.0
 11
263.63250211273089
 21
1268.2440194579781
 31
0.0
  0
LINE
  5
5AD8
  8
ﾃ_ﾌ_ﾙ
 10
272.13250211273089
 20
1267.2440194579781
 30
0.0
 11
272.13250211273089
 21
1266.8440194579789
 31
0.0
  0
LINE
  5
5AD9
  8
ﾃ_ﾌ_ﾙ
 10
272.13250211273089
 20
1227.6440194579779
 30
0.0
 11
272.13250211273089
 21
1226.2440194579781
 31
0.0
  0
ARC
  5
5ADA
  8
ﾃ_ﾌ_ﾙ0
 10
273.13250211273089
 20
1227.244019457979
 30
0.0
 40
1.0
 50
180.0
 51
270.0
1001
GENIUS_GENOBJ-N-FIL_13
1002
{
1000
OWNER
1000
GEN
1002
}
1001
GENIUS_GENODEF_13
1002
{
1000
HIER
1070
     0
1002
}
1002
{
1000
MANEDIT
1070
     0
1002
}
1002
{
1000
NOSEL
1070
     0
1002
}
1002
{
1000
BEHIND
1070
     0
1002
}
1002
{
1000
OTHER
1070
     0
1002
}
1002
{
1000
REACTOR
1002
}
  0
LINE
  5
5ADB
  8
ﾃ_ﾌ_ﾙ0
 10
292.23250211273069
 20
1226.2440194579781
 30
0.0
 11
292.23250211273069
 21
1227.244019457979
 31
0.0
  0
LINE
  5
5ADC
  8
ﾃ_ﾌ_ﾙ0
 10
292.23250211273069
 20
1227.244019457979
 30
0.0
 11
273.13250211273078
 21
1227.244019457979
 31
0.0
  0
LINE
  5
5ADD
  8
ﾃ_ﾌ_ﾙ0
 10
273.13250211273078
 20
1227.244019457979
 30
0.0
 11
273.13250211273078
 21
1227.6440194579779
 31
0.0
  0
LINE
  5
5ADE
  8
ﾃ_ﾌ_ﾙ0
 10
273.13250211273038
 20
1266.8440194579789
 30
0.0
 11
273.13250211273038
 21
1267.2440194579781
 31
0.0
  0
ARC
  5
5ADF
  8
ﾃ_ﾌ_ﾙ0
 10
272.13250211273049
 20
1267.2440194579781
 30
0.0
 40
1.0
 50
0.0
 51
90.0
1001
GENIUS_GENOBJ-N-FIL_13
1002
{
1000
OWNER
1000
GEN
1002
}
1001
GENIUS_GENODEF_13
1002
{
1000
HIER
1070
     0
1002
}
1002
{
1000
MANEDIT
1070
     0
1002
}
1002
{
1000
NOSEL
1070
     0
1002
}
1002
{
1000
BEHIND
1070
     0
1002
}
1002
{
1000
OTHER
1070
     0
1002
}
1002
{
1000
REACTOR
1002
}
  0
LINE
  5
5AE0
  8
ﾃ_ﾌ_ﾙ
 10
264.63250211273089
 20
1226.2440194579781
 30
0.0
 11
264.63250211273089
 21
1227.6440194579779
 31
0.0
  0
LINE
  5
5AE1
  8
ﾃ_ﾌ_ﾙ
 10
264.63250211273089
 20
1266.8440194579789
 30
0.0
 11
264.63250211273089
 21
1267.2440194579781
 31
0.0
  0
LINE
  5
5AE2
  8
ﾃ_ﾌ_ﾙ
 10
272.13250211273049
 20
1267.2440194579781
 30
0.0
 11
263.63250211273078
 21
1267.2440194579781
 31
0.0
  0
LINE
  5
5AE3
  8
ﾃ_ﾌ_ﾙ
 10
272.13250211273089
 20
1226.2440194579781
 30
0.0
 11
263.63250211273078
 21
1226.2440194579781
 31
0.0
  0
LINE
  5
5AE4
  8
補強金具
 10
701.93250211273096
 20
1229.244019457979
 30
0.0
 11
701.93250211273096
 21
1265.2440194579781
 31
0.0
  0
LINE
  5
5AE5
  8
補強金具
 10
701.93250211273096
 20
1229.244019457979
 30
0.0
 11
699.13250211273089
 21
1229.244019457979
 31
0.0
  0
LINE
  5
5AE6
  8
補強金具
 10
699.13250211273089
 20
1229.244019457979
 30
0.0
 11
263.13250211273089
 21
1229.244019457979
 31
0.0
  0
LINE
  5
5AE7
  8
補強金具
 10
263.13250211273089
 20
1229.244019457979
 30
0.0
 11
260.33250211273099
 21
1229.244019457979
 31
0.0
  0
LINE
  5
5AE8
  8
補強金具
 10
701.93250211273096
 20
1265.2440194579781
 30
0.0
 11
699.13250211273089
 21
1265.2440194579781
 31
0.0
  0
LINE
  5
5AE9
  8
補強金具
 10
699.13250211273089
 20
1265.2440194579781
 30
0.0
 11
263.13250211273089
 21
1265.2440194579781
 31
0.0
  0
LINE
  5
5AEA
  8
補強金具
 10
263.13250211273089
 20
1265.2440194579781
 30
0.0
 11
260.33250211273099
 21
1265.2440194579781
 31
0.0
  0
LINE
  5
5AEB
  8
補強金具
 10
699.13250211273089
 20
1266.8440194579789
 30
0.0
 11
263.13250211273089
 21
1266.8440194579789
 31
0.0
  0
LINE
  5
5AEC
  8
補強金具
 10
699.13250211273089
 20
1227.6440194579779
 30
0.0
 11
263.13250211273089
 21
1227.6440194579779
 31
0.0
  0
LINE
  5
5AED
  8
補強金具
 10
260.33250211273099
 20
1265.2440194579781
 30
0.0
 11
260.33250211273099
 21
1229.244019457979
 31
0.0
  0
LINE
  5
5AEE
  8
補強金具0
 10
261.93250211273107
 20
1265.2440194579781
 30
0.0
 11
261.93250211273107
 21
1229.244019457979
 31
0.0
  0
LINE
  5
5AEF
  8
補強金具
 10
263.13250211273089
 20
1266.8440194579789
 30
0.0
 11
263.13250211273089
 21
1265.2440194579781
 31
0.0
  0
LINE
  5
5AF0
  8
補強金具
 10
263.13250211273089
 20
1229.244019457979
 30
0.0
 11
263.13250211273089
 21
1227.6440194579779
 31
0.0
  0
LINE
  5
5AF1
  8
補強金具0
 10
700.33250211273105
 20
1229.244019457979
 30
0.0
 11
700.33250211273105
 21
1265.2440194579781
 31
0.0
  0
LINE
  5
5AF2
  8
補強金具
 10
699.13250211273089
 20
1227.6440194579779
 30
0.0
 11
699.13250211273089
 21
1229.244019457979
 31
0.0
  0
LINE
  5
5AF3
  8
補強金具
 10
699.13250211273089
 20
1265.2440194579781
 30
0.0
 11
699.13250211273089
 21
1266.8440194579789
 31
0.0
  0
CIRCLE
  5
5AF4
  8
補強金具0
 10
473.13250211273078
 20
1247.2440194579781
 30
0.0
 40
1.5
  0
CIRCLE
  5
5AF5
  8
補強金具
 10
473.13250211273078
 20
1247.2440194579781
 30
0.0
 40
1.3
  0
CIRCLE
  5
5AF6
  8
補強金具0
 10
489.13250211273078
 20
1247.2440194579781
 30
0.0
 40
1.5
  0
CIRCLE
  5
5AF7
  8
補強金具
 10
489.13250211273078
 20
1247.2440194579781
 30
0.0
 40
1.3
  0
LINE
  5
5B1F
  8
左側板
 10
239.83250211273091
 20
1138.2440194579781
 30
0.0
 11
239.83250211273091
 21
1266.7440194579781
 31
0.0
  0
LINE
  5
5B20
  8
左側板
 10
241.83250211273091
 20
1268.7440194579781
 30
0.0
 11
262.63250211273089
 21
1268.7440194579781
 31
0.0
  0
ARC
  5
5B21
  8
左側板
 10
241.83250211273091
 20
1266.7440194579781
 30
0.0
 40
2.0
 50
90.0
 51
180.0
1001
GENIUS_GENODEF_13
1002
{
1000
HIER
1070
     0
1002
}
1002
{
1000
MANEDIT
1070
     0
1002
}
1002
{
1000
NOSEL
1070
     0
1002
}
1002
{
1000
BEHIND
1070
     0
1002
}
1002
{
1000
OTHER
1070
     0
1002
}
1002
{
1000
REACTOR
1002
}
1001
GENIUS_GENOBJ-N-FIL_13
1002
{
1000
OWNER
1000
GEN
1002
}
  0
LINE
  5
5B22
  8
左側板
 10
262.63250211273089
 20
1268.7440194579781
 30
0.0
 11
262.632502112731
 21
1265.244019457979
 31
0.0
  0
LINE
  5
5B23
  8
左側板
 10
262.63250211273089
 20
1136.2440194579781
 30
0.0
 11
241.83250211273091
 21
1136.2440194579781
 31
0.0
  0
ARC
  5
5B24
  8
左側板
 10
241.83250211273091
 20
1138.2440194579781
 30
0.0
 40
2.0
 50
180.0
 51
270.0
1001
GENIUS_GENOBJ-N-FIL_13
1002
{
1000
OWNER
1000
GEN
1002
}
1001
GENIUS_GENODEF_13
1002
{
1000
HIER
1070
     0
1002
}
1002
{
1000
MANEDIT
1070
     0
1002
}
1002
{
1000
NOSEL
1070
     0
1002
}
1002
{
1000
BEHIND
1070
     0
1002
}
1002
{
1000
OTHER
1070
     0
1002
}
1002
{
1000
REACTOR
1002
}
  0
LINE
  5
5B25
  8
左側板
 10
260.33250211273099
 20
1136.2440194579781
 30
0.0
 11
260.33250211273099
 21
1268.7440194579781
 31
0.0
  0
LINE
  5
5B2A
  8
左側板
 10
245.58250211273099
 20
1227.7940194579789
 30
0.0
 11
250.08250211273091
 21
1227.7940194579789
 31
0.0
1001
GENIUS_GENOBJ-N-CEN_13
1002
{
1000
OWNER
1000
GEN
1002
}
1001
GENIUS_GENODEF_13
1002
{
1000
HIER
1070
     0
1002
}
1002
{
1000
MANEDIT
1070
     0
1002
}
1002
{
1000
NOSEL
1070
     0
1002
}
1002
{
1000
BEHIND
1070
     0
1002
}
1002
{
1000
OTHER
1070
     0
1002
}
1002
{
1000
REACTOR
1002
}
1001
GENIUS_GENCEN_19
1002
{
1040
6.0
1002
}
  0
LINE
  5
5B2B
  8
左側板
 10
245.58250211273099
 20
1234.2940194579789
 30
0.0
 11
250.08250211273091
 21
1234.2940194579789
 31
0.0
1001
GENIUS_GENOBJ-N-CEN_13
1002
{
1000
OWNER
1000
GEN
1002
}
1001
GENIUS_GENODEF_13
1002
{
1000
HIER
1070
     0
1002
}
1002
{
1000
MANEDIT
1070
     0
1002
}
1002
{
1000
NOSEL
1070
     0
1002
}
1002
{
1000
BEHIND
1070
     0
1002
}
1002
{
1000
OTHER
1070
     0
1002
}
1002
{
1000
REACTOR
1002
}
1001
GENIUS_GENCEN_19
1002
{
1040
6.0
1002
}
  0
ARC
  5
5B2C
  8
左側板
 10
250.08250211273091
 20
1231.0440194579789
 30
0.0
 40
3.25
 50
270.0
 51
90.0
  0
ARC
  5
5B2D
  8
左側板
 10
245.58250211273099
 20
1231.0440194579789
 30
0.0
 40
3.25
 50
90.0
 51
270.0
  0
LINE
  5
5B2E
  8
左側板
 10
245.58250211273099
 20
1170.694019457979
 30
0.0
 11
250.08250211273091
 21
1170.694019457979
 31
0.0
1001
GENIUS_GENOBJ-N-CEN_13
1002
{
1000
OWNER
1000
GEN
1002
}
1001
GENIUS_GENODEF_13
1002
{
1000
HIER
1070
     0
1002
}
1002
{
1000
MANEDIT
1070
     0
1002
}
1002
{
1000
NOSEL
1070
     0
1002
}
1002
{
1000
BEHIND
1070
     0
1002
}
1002
{
1000
OTHER
1070
     0
1002
}
1002
{
1000
REACTOR
1002
}
1001
GENIUS_GENCEN_19
1002
{
1040
6.0
1002
}
  0
LINE
  5
5B2F
  8
左側板
 10
245.58250211273099
 20
1177.194019457979
 30
0.0
 11
250.08250211273091
 21
1177.194019457979
 31
0.0
1001
GENIUS_GENOBJ-N-CEN_13
1002
{
1000
OWNER
1000
GEN
1002
}
1001
GENIUS_GENODEF_13
1002
{
1000
HIER
1070
     0
1002
}
1002
{
1000
MANEDIT
1070
     0
1002
}
1002
{
1000
NOSEL
1070
     0
1002
}
1002
{
1000
BEHIND
1070
     0
1002
}
1002
{
1000
OTHER
1070
     0
1002
}
1002
{
1000
REACTOR
1002
}
1001
GENIUS_GENCEN_19
1002
{
1040
6.0
1002
}
  0
ARC
  5
5B30
  8
左側板
 10
250.08250211273091
 20
1173.944019457979
 30
0.0
 40
3.25
 50
270.0
 51
90.0
  0
ARC
  5
5B31
  8
左側板
 10
245.58250211273099
 20
1173.944019457979
 30
0.0
 40
3.25
 50
90.0
 51
270.0
  0
LINE
  5
5B32
  8
右側板
 10
722.43250211273084
 20
1138.2440194579781
 30
0.0
 11
722.43250211273084
 21
1266.7440194579781
 31
0.0
  0
LINE
  5
5B33
  8
右側板
 10
720.43250211273084
 20
1268.7440194579781
 30
0.0
 11
699.63250211273089
 21
1268.7440194579781
 31
0.0
  0
ARC
  5
5B34
  8
右側板
 10
720.43250211273084
 20
1266.7440194579781
 30
0.0
 40
2.0
 50
0.0
 51
90.0
1001
GENIUS_GENODEF_13
1002
{
1000
HIER
1070
     0
1002
}
1002
{
1000
MANEDIT
1070
     0
1002
}
1002
{
1000
NOSEL
1070
     0
1002
}
1002
{
1000
BEHIND
1070
     0
1002
}
1002
{
1000
OTHER
1070
     0
1002
}
1002
{
1000
REACTOR
1002
}
1001
GENIUS_GENOBJ-N-FIL_13
1002
{
1000
OWNER
1000
GEN
1002
}
  0
LINE
  5
5B35
  8
右側板
 10
699.63250211273089
 20
1268.7440194579781
 30
0.0
 11
699.63250211273089
 21
1265.2440194579781
 31
0.0
  0
LINE
  5
5B36
  8
右側板
 10
699.63250211273089
 20
1136.2440194579781
 30
0.0
 11
720.43250211273084
 21
1136.2440194579781
 31
0.0
  0
ARC
  5
5B37
  8
右側板
 10
720.43250211273084
 20
1138.2440194579781
 30
0.0
 40
2.0
 50
270.0
 51
0.0
1001
GENIUS_GENOBJ-N-FIL_13
1002
{
1000
OWNER
1000
GEN
1002
}
1001
GENIUS_GENODEF_13
1002
{
1000
HIER
1070
     0
1002
}
1002
{
1000
MANEDIT
1070
     0
1002
}
1002
{
1000
NOSEL
1070
     0
1002
}
1002
{
1000
BEHIND
1070
     0
1002
}
1002
{
1000
OTHER
1070
     0
1002
}
1002
{
1000
REACTOR
1002
}
  0
LINE
  5
5B38
  8
右側板
 10
701.93250211273084
 20
1136.2440194579781
 30
0.0
 11
701.93250211273084
 21
1268.7440194579781
 31
0.0
  0
LINE
  5
5B3D
  8
右側板
 10
712.18250211273084
 20
1170.694019457979
 30
0.0
 11
716.68250211273084
 21
1170.694019457979
 31
0.0
1001
GENIUS_GENOBJ-N-CEN_13
1002
{
1000
OWNER
1000
GEN
1002
}
1001
GENIUS_GENODEF_13
1002
{
1000
HIER
1070
     0
1002
}
1002
{
1000
MANEDIT
1070
     0
1002
}
1002
{
1000
NOSEL
1070
     0
1002
}
1002
{
1000
BEHIND
1070
     0
1002
}
1002
{
1000
OTHER
1070
     0
1002
}
1002
{
1000
REACTOR
1002
}
1001
GENIUS_GENCEN_19
1002
{
1040
6.0
1002
}
  0
LINE
  5
5B3E
  8
右側板
 10
712.18250211273084
 20
1177.194019457979
 30
0.0
 11
716.68250211273084
 21
1177.194019457979
 31
0.0
1001
GENIUS_GENOBJ-N-CEN_13
1002
{
1000
OWNER
1000
GEN
1002
}
1001
GENIUS_GENODEF_13
1002
{
1000
HIER
1070
     0
1002
}
1002
{
1000
MANEDIT
1070
     0
1002
}
1002
{
1000
NOSEL
1070
     0
1002
}
1002
{
1000
BEHIND
1070
     0
1002
}
1002
{
1000
OTHER
1070
     0
1002
}
1002
{
1000
REACTOR
1002
}
1001
GENIUS_GENCEN_19
1002
{
1040
6.0
1002
}
  0
ARC
  5
5B3F
  8
右側板
 10
716.68250211273084
 20
1173.944019457979
 30
0.0
 40
3.25
 50
270.0
 51
90.0
  0
ARC
  5
5B40
  8
右側板
 10
712.18250211273084
 20
1173.944019457979
 30
0.0
 40
3.25
 50
90.0
 51
270.0
  0
LINE
  5
5B41
  8
右側板
 10
712.18250211273084
 20
1227.7940194579789
 30
0.0
 11
716.68250211273084
 21
1227.7940194579789
 31
0.0
1001
GENIUS_GENOBJ-N-CEN_13
1002
{
1000
OWNER
1000
GEN
1002
}
1001
GENIUS_GENODEF_13
1002
{
1000
HIER
1070
     0
1002
}
1002
{
1000
MANEDIT
1070
     0
1002
}
1002
{
1000
NOSEL
1070
     0
1002
}
1002
{
1000
BEHIND
1070
     0
1002
}
1002
{
1000
OTHER
1070
     0
1002
}
1002
{
1000
REACTOR
1002
}
1001
GENIUS_GENCEN_19
1002
{
1040
6.0
1002
}
  0
LINE
  5
5B42
  8
右側板
 10
712.18250211273084
 20
1234.2940194579789
 30
0.0
 11
716.68250211273084
 21
1234.2940194579789
 31
0.0
1001
GENIUS_GENOBJ-N-CEN_13
1002
{
1000
OWNER
1000
GEN
1002
}
1001
GENIUS_GENODEF_13
1002
{
1000
HIER
1070
     0
1002
}
1002
{
1000
MANEDIT
1070
     0
1002
}
1002
{
1000
NOSEL
1070
     0
1002
}
1002
{
1000
BEHIND
1070
     0
1002
}
1002
{
1000
OTHER
1070
     0
1002
}
1002
{
1000
REACTOR
1002
}
1001
GENIUS_GENCEN_19
1002
{
1040
6.0
1002
}
  0
ARC
  5
5B43
  8
右側板
 10
716.68250211273084
 20
1231.0440194579789
 30
0.0
 40
3.25
 50
270.0
 51
90.0
  0
ARC
  5
5B44
  8
右側板
 10
712.18250211273084
 20
1231.0440194579789
 30
0.0
 40
3.25
 50
90.0
 51
270.0
  0
LINE
  5
5B45
  8
左側板
 10
262.632502112731
 20
1229.244019457979
 30
0.0
 11
262.63250211273089
 21
1136.2440194579781
 31
0.0
  0
LINE
  5
5B46
  8
右側板
 10
699.63250211273089
 20
1229.244019457979
 30
0.0
 11
699.63250211273089
 21
1136.2440194579781
 31
0.0
  0
DIMENSION
  5
5ED6
  8
AM_5
  2
*D46
 10
810.43230029928236
 20
604.08410841484147
 30
0.0
 11
799.18230029928225
 21
554.08410841484181
 31
0.0
 70
     0
 13
830.11583015771737
 23
504.08410841484169
 33
0.0
 14
830.11583015771737
 24
604.08410841484147
 34
0.0
 50
90.000000000000028
1001
ACAD
1000
DSTYLE
1002
{
1070
   287
1070
     4
1070
    40
1040
5.0
1070
    41
1040
1.5
1070
   147
1040
0.5
1070
   279
1070
     1
1002
}
  0
DIMENSION
  5
5EFE
  8
AM_5
  2
*D47
 10
810.43230029928236
 20
604.08410841484135
 30
0.0
 11
799.18057785833741
 21
729.08410841484181
 31
0.0
 70
     0
 13
914.17234334533214
 23
854.08410841484158
 33
0.0
 14
830.11583015771737
 24
604.08410841484135
 34
0.0
 50
90.0
1001
ACAD
1000
DSTYLE
1002
{
1070
   287
1070
     4
1070
    40
1040
5.0
1070
    41
1040
1.5
1070
   147
1040
0.5
1070
   279
1070
     1
1002
}
  0
LINE
  5
5FC9
  8
補強金具
 10
699.13250211273055
 20
972.68387890204258
 30
0.0
 11
700.33250211273094
 21
972.68387890204258
 31
0.0
  0
ARC
  5
5FCA
  8
補強金具
 10
700.33250211273094
 20
971.08387890204312
 30
0.0
 40
1.6000000000000001
 50
0.0
 51
90.0
1001
GENIUS_GENODEF_13
1002
{
1000
HIER
1070
     0
1002
}
1002
{
1000
MANEDIT
1070
     0
1002
}
1002
{
1000
NOSEL
1070
     0
1002
}
1002
{
1000
BEHIND
1070
     0
1002
}
1002
{
1000
REACTOR
1002
}
1001
GENIUS_GENOBJ-N-FIL_13
1002
{
1000
OWNER
1000
GEN
1002
}
  0
LINE
  5
5FCB
  8
補強金具
 10
699.33250211273094
 20
981.08387890204312
 30
0.0
 11
699.33250211273094
 21
971.08387890204312
 31
0.0
  0
ARC
  5
5FCC
  8
補強金具
 10
261.9325021127309
 20
971.08387890204312
 30
0.0
 40
1.6000000000000001
 50
90.0
 51
180.0
1001
GENIUS_GENODEF_13
1002
{
1000
HIER
1070
     0
1002
}
1002
{
1000
MANEDIT
1070
     0
1002
}
1002
{
1000
NOSEL
1070
     0
1002
}
1002
{
1000
BEHIND
1070
     0
1002
}
1002
{
1000
REACTOR
1002
}
1001
GENIUS_GENOBJ-N-FIL_13
1002
{
1000
OWNER
1000
GEN
1002
}
  0
LINE
  5
5FCD
  8
補強金具
 10
262.93250211273079
 20
981.08387890204312
 30
0.0
 11
699.33250211273094
 21
981.08387890204312
 31
0.0
  0
LINE
  5
5FCE
  8
補強金具
 10
261.9325021127309
 20
971.08387890204312
 30
0.0
 11
700.33250211273094
 21
971.08387890204312
 31
0.0
  0
LINE
  5
5FCF
  8
補強金具0
 10
263.13250211273061
 20
972.68387890204303
 30
0.0
 11
699.13250211273055
 21
972.68387890204303
 31
0.0
  0
LINE
  5
5FD0
  8
補強金具
 10
262.93250211273079
 20
981.08387890204312
 30
0.0
 11
262.93250211273079
 21
971.08387890204312
 31
0.0
  0
LINE
  5
5FD1
  8
補強金具
 10
700.33250211273094
 20
932.68387890204258
 30
0.0
 11
701.93250211273084
 21
932.68387890204258
 31
0.0
  0
LINE
  5
5FD2
  8
補強金具
 10
260.33250211273071
 20
932.68387890204258
 30
0.0
 11
261.9325021127309
 21
932.68387890204258
 31
0.0
  0
LINE
  5
5FD3
  8
補強金具
 10
261.9325021127309
 20
972.68387890204258
 30
0.0
 11
263.13250211273061
 21
972.68387890204258
 31
0.0
  0
LINE
  5
5FD4
  8
補強金具
 10
261.9325021127309
 20
932.68387890204258
 30
0.0
 11
261.9325021127309
 21
971.08387890204312
 31
0.0
  0
LINE
  5
5FD5
  8
補強金具
 10
700.33250211273094
 20
932.68387890204258
 30
0.0
 11
700.33250211273094
 21
971.08387890204312
 31
0.0
  0
LINE
  5
5FD6
  8
補強金具
 10
701.93250211273084
 20
932.68387890204258
 30
0.0
 11
701.93250211273084
 21
971.08387890204312
 31
0.0
  0
LINE
  5
5FD7
  8
補強金具
 10
260.33250211273071
 20
932.68387890204258
 30
0.0
 11
260.33250211273071
 21
971.08387890204312
 31
0.0
  0
LINE
  5
5FE1
  8
左側板
 10
260.33250211273099
 20
854.08387890204324
 30
0.0
 11
262.63250211273112
 21
854.08387890204324
 31
0.0
  0
LINE
  5
5FE2
  8
左側板
 10
262.63250211273112
 20
854.08387890204324
 30
0.0
 11
262.63250211273112
 21
508.08387890204312
 31
0.0
  0
LINE
  5
5FE3
  8
左側板
 10
258.632502112731
 20
504.08387890204312
 30
0.0
 11
239.83250211273091
 21
504.08387890204312
 31
0.0
  0
ARC
  5
5FE4
  8
左側板
 10
258.632502112731
 20
508.08387890204312
 30
0.0
 40
4.0
 50
270.0
 51
0.0
1001
GENIUS_GENODEF_13
1002
{
1000
HIER
1070
     0
1002
}
1002
{
1000
MANEDIT
1070
     0
1002
}
1002
{
1000
NOSEL
1070
     0
1002
}
1002
{
1000
BEHIND
1070
     0
1002
}
1002
{
1000
OTHER
1070
     0
1002
}
1002
{
1000
REACTOR
1002
}
1001
GENIUS_GENOBJ-N-FIL_13
1002
{
1000
OWNER
1000
GEN
1002
}
  0
LINE
  5
5FE5
  8
左側板
 10
239.83250211273091
 20
504.08387890204312
 30
0.0
 11
239.83250211273091
 21
506.38387890204302
 31
0.0
  0
LINE
  5
5FE6
  8
左側板
 10
239.83250211273091
 20
506.38387890204302
 30
0.0
 11
258.33250211273088
 21
506.38387890204302
 31
0.0
  0
ARC
  5
5FE7
  8
左側板
 10
258.33250211273088
 20
508.38387890204308
 30
0.0
 40
2.0
 50
270.0
 51
0.0
1001
GENIUS_GENOBJ-N-FIL_13
1002
{
1000
OWNER
1000
GEN
1002
}
1001
GENIUS_GENODEF_13
1002
{
1000
HIER
1070
     0
1002
}
1002
{
1000
MANEDIT
1070
     0
1002
}
1002
{
1000
NOSEL
1070
     0
1002
}
1002
{
1000
BEHIND
1070
     0
1002
}
1002
{
1000
OTHER
1070
     0
1002
}
1002
{
1000
REACTOR
1002
}
  0
LINE
  5
5FE8
  8
左側板
 10
260.33250211273088
 20
508.38387890204308
 30
0.0
 11
260.33250211273099
 21
854.08387890204324
 31
0.0
  0
LINE
  5
5FE9
  8
左側板0
 10
260.33250211273088
 20
643.08387890204312
 30
0.0
 11
262.63250211273112
 21
643.08387890204312
 31
0.0
  0
LINE
  5
5FEA
  8
左側板0
 10
260.33250211273088
 20
642.78387890204306
 30
0.0
 11
262.63250211273112
 21
642.78387890204306
 31
0.0
  0
LINE
  5
5FEB
  8
左側板0
 10
260.33250211273088
 20
639.38387890204297
 30
0.0
 11
262.63250211273112
 21
639.38387890204297
 31
0.0
  0
LINE
  5
5FEC
  8
左側板0
 10
260.33250211273088
 20
639.08387890204312
 30
0.0
 11
262.63250211273112
 21
639.08387890204312
 31
0.0
  0
LINE
  5
5FED
  8
左側板0
 10
260.33250211273099
 20
744.68387890204303
 30
0.0
 11
262.63250211273112
 21
744.68387890204303
 31
0.0
  0
LINE
  5
5FEE
  8
左側板0
 10
260.33250211273099
 20
744.38387890204285
 30
0.0
 11
262.63250211273112
 21
744.38387890204285
 31
0.0
  0
LINE
  5
5FEF
  8
左側板0
 10
260.33250211273099
 20
740.98387890204299
 30
0.0
 11
262.63250211273112
 21
740.98387890204299
 31
0.0
  0
LINE
  5
5FF0
  8
左側板0
 10
260.33250211273099
 20
740.68387890204303
 30
0.0
 11
262.63250211273112
 21
740.68387890204303
 31
0.0
  0
LINE
  5
5FF1
  8
左側板0
 10
260.33250211273099
 20
833.58387890204312
 30
0.0
 11
262.63250211273112
 21
833.58387890204312
 31
0.0
  0
LINE
  5
5FF2
  8
左側板0
 10
260.33250211273099
 20
833.28387890204306
 30
0.0
 11
262.63250211273112
 21
833.28387890204306
 31
0.0
  0
LINE
  5
5FF3
  8
左側板0
 10
260.33250211273099
 20
829.88387890204308
 30
0.0
 11
262.63250211273112
 21
829.88387890204308
 31
0.0
  0
LINE
  5
5FF4
  8
左側板0
 10
260.33250211273099
 20
829.58387890204312
 30
0.0
 11
262.63250211273112
 21
829.58387890204312
 31
0.0
  0
LINE
  5
5FF5
  8
左側板0
 10
242.132502112731
 20
506.38387890204302
 30
0.0
 11
242.132502112731
 21
504.08387890204312
 31
0.0
  0
LINE
  5
5FF6
  8
左側板0
 10
253.5325021127307
 20
506.38387890204302
 30
0.0
 11
253.5325021127307
 21
504.08387890204312
 31
0.0
  0
LINE
  5
5FF7
  8
左側板0
 10
260.33250211273088
 20
544.68387890204303
 30
0.0
 11
262.63250211273112
 21
544.68387890204303
 31
0.0
  0
LINE
  5
5FF8
  8
左側板0
 10
260.33250211273088
 20
544.38387890204297
 30
0.0
 11
262.63250211273112
 21
544.38387890204297
 31
0.0
  0
LINE
  5
5FF9
  8
左側板0
 10
260.33250211273088
 20
540.98387890204299
 30
0.0
 11
262.63250211273112
 21
540.98387890204299
 31
0.0
  0
LINE
  5
5FFA
  8
左側板0
 10
260.33250211273088
 20
540.68387890204303
 30
0.0
 11
262.63250211273112
 21
540.68387890204303
 31
0.0
  0
LINE
  5
5FFB
  8
左側板
 10
121.1959650542772
 20
854.08410841484158
 30
0.0
 11
74.752478241891936
 21
854.08410841484158
 31
0.0
  0
ARC
  5
5FFC
  8
左側板
 10
121.1959650542772
 20
852.08410841484147
 30
0.0
 40
2.0
 50
14.2158534736737
 51
90.0
1001
GENIUS_GENODEF_13
1002
{
1000
HIER
1070
     0
1002
}
1002
{
1000
MANEDIT
1070
     0
1002
}
1002
{
1000
NOSEL
1070
     0
1002
}
1002
{
1000
BEHIND
1070
     0
1002
}
1002
{
1000
OTHER
1070
     0
1002
}
1002
{
1000
REACTOR
1002
}
1001
GENIUS_GENOBJ-N-FIL_13
1002
{
1000
OWNER
1000
GEN
1002
}
  0
LINE
  5
5FFD
  8
左側板
 10
72.752478241891936
 20
852.08410841484147
 30
0.0
 11
72.752478241891865
 21
504.08410841484152
 31
0.0
  0
ARC
  5
5FFE
  8
左側板
 10
74.752478241891936
 20
852.08410841484147
 30
0.0
 40
2.0
 50
90.0
 51
180.0
1001
GENIUS_GENOBJ-N-FIL_13
1002
{
1000
OWNER
1000
GEN
1002
}
1001
GENIUS_GENODEF_13
1002
{
1000
HIER
1070
     0
1002
}
1002
{
1000
MANEDIT
1070
     0
1002
}
1002
{
1000
NOSEL
1070
     0
1002
}
1002
{
1000
BEHIND
1070
     0
1002
}
1002
{
1000
OTHER
1070
     0
1002
}
1002
{
1000
REACTOR
1002
}
  0
LINE
  5
5FFF
  8
左側板
 10
72.752478241891865
 20
504.08410841484152
 30
0.0
 11
205.25247824189191
 21
504.08410841484152
 31
0.0
  0
LINE
  5
6000
  8
左側板
 10
205.25247824189191
 20
506.38410841484148
 30
0.0
 11
72.752478241891879
 21
506.38410841484148
 31
0.0
  0
CIRCLE
  5
6001
  8
左側板
 10
94.752478241891936
 20
831.58410841484147
 30
0.0
 40
1.7
  0
CIRCLE
  5
6002
  8
左側板0
 10
94.752478241891936
 20
831.58410841484147
 30
0.0
 40
2.0
  0
CIRCLE
  5
6003
  8
左側板
 10
94.752478241891893
 20
641.08410841484147
 30
0.0
 40
1.7
  0
CIRCLE
  5
6004
  8
左側板0
 10
94.752478241891893
 20
641.08410841484147
 30
0.0
 40
2.0
  0
CIRCLE
  5
6005
  8
左側板
 10
94.752478241891865
 20
542.68410841484138
 30
0.0
 40
1.7
  0
CIRCLE
  5
6006
  8
左側板0
 10
94.752478241891865
 20
542.68410841484138
 30
0.0
 40
2.0
  0
LINE
  5
6007
  8
左側板0
 10
170.80247824189161
 20
506.38410841484148
 30
0.0
 11
170.80247824189161
 21
504.08410841484152
 31
0.0
  0
LINE
  5
6008
  8
左側板0
 10
164.30247824189161
 20
504.08410841484152
 30
0.0
 11
164.30247824189161
 21
506.38410841484148
 31
0.0
  0
LINE
  5
6009
  8
左側板0
 10
113.7024782418917
 20
506.38410841484148
 30
0.0
 11
113.7024782418917
 21
504.08410841484152
 31
0.0
  0
LINE
  5
600A
  8
左側板0
 10
107.2024782418917
 20
504.08410841484152
 30
0.0
 11
107.2024782418917
 21
506.38410841484148
 31
0.0
  0
LINE
  5
600B
  8
左側板
 10
205.25247824189191
 20
504.08410841484152
 30
0.0
 11
205.25247824189191
 21
604.08410841484147
 31
0.0
  0
LINE
  5
600C
  8
左側板
 10
205.25247824189191
 20
604.08410841484147
 30
0.0
 11
123.13471992904
 21
852.57525964978151
 31
0.0
  0
CIRCLE
  5
600D
  8
左側板
 10
94.752478241891907
 20
742.68410841484138
 30
0.0
 40
1.7
  0
CIRCLE
  5
600E
  8
左側板0
 10
94.752478241891907
 20
742.68410841484138
 30
0.0
 40
2.0
  0
CIRCLE
  5
6053
  8
補強金具
 10
94.252478241891836
 20
942.38387890204319
 30
0.0
 40
1.6000000000000001
  0
CIRCLE
  5
6054
  8
補強金具
 10
94.252478241891836
 20
955.08387890204312
 30
0.0
 40
1.6000000000000001
  0
ARC
  5
6055
  8
補強金具
 10
76.252478241892064
 20
972.68387890204349
 30
0.0
 40
1.6000000000000001
 50
180.0
 51
270.0
1001
GENIUS_GENODEF_13
1002
{
1000
HIER
1070
     0
1002
}
1002
{
1000
MANEDIT
1070
     0
1002
}
1002
{
1000
NOSEL
1070
     0
1002
}
1002
{
1000
BEHIND
1070
     0
1002
}
1002
{
1000
REACTOR
1002
}
1001
GENIUS_GENOBJ-N-FIL_13
1002
{
1000
OWNER
1000
GEN
1002
}
  0
ARC
  5
6056
  8
補強金具
 10
112.25247824189159
 20
972.68387890204349
 30
0.0
 40
1.6000000000000001
 50
270.0
 51
0.0
1001
GENIUS_GENODEF_13
1002
{
1000
HIER
1070
     0
1002
}
1002
{
1000
MANEDIT
1070
     0
1002
}
1002
{
1000
NOSEL
1070
     0
1002
}
1002
{
1000
BEHIND
1070
     0
1002
}
1002
{
1000
REACTOR
1002
}
1001
GENIUS_GENOBJ-N-FIL_13
1002
{
1000
OWNER
1000
GEN
1002
}
  0
LINE
  5
6057
  8
補強金具
 10
76.252478241891836
 20
981.08387890204312
 30
0.0
 11
74.652478241891686
 21
981.08387890204312
 31
0.0
  0
LINE
  5
6058
  8
補強金具
 10
113.8524782418919
 20
981.08387890204312
 30
0.0
 11
112.25247824189179
 21
981.08387890204312
 31
0.0
  0
LINE
  5
6059
  8
補強金具
 10
112.25247824189179
 20
972.68387890204349
 30
0.0
 11
76.252478241891836
 21
972.68387890204349
 31
0.0
  0
LINE
  5
605A
  8
補強金具0
 10
112.25247824189179
 20
971.18387890204338
 30
0.0
 11
76.252478241891836
 21
971.18387890204338
 31
0.0
  0
LINE
  5
605B
  8
補強金具
 10
113.8524782418919
 20
981.08387890204312
 30
0.0
 11
113.8524782418919
 21
972.68387890204349
 31
0.0
  0
LINE
  5
605C
  8
補強金具
 10
112.25247824189179
 20
981.08387890204312
 30
0.0
 11
112.25247824189179
 21
932.68387890204349
 31
0.0
  0
LINE
  5
605D
  8
補強金具
 10
76.252478241891836
 20
981.08387890204312
 30
0.0
 11
76.252478241891822
 21
932.68387890204349
 31
0.0
  0
LINE
  5
605E
  8
補強金具
 10
74.652478241891686
 20
981.08387890204312
 30
0.0
 11
74.652478241891686
 21
972.68387890204349
 31
0.0
  0
LINE
  5
605F
  8
補強金具
 10
112.25247824189179
 20
932.68387890204349
 30
0.0
 11
76.252478241891822
 21
932.68387890204349
 31
0.0
  0
CIRCLE
  5
6060
  8
補強金具0
 62
     5
 10
94.252478241891836
 20
942.38387890204319
 30
0.0
 40
2.0
  0
CIRCLE
  5
6061
  8
補強金具0
 62
     5
 10
94.252478241891836
 20
955.08387890204312
 30
0.0
 40
2.0
  0
LINE
  5
6062
  8
ﾃ_ﾌ_ﾙ0
 10
73.252478241891936
 20
504.08410841484169
 30
0.0
 11
73.252478241891936
 21
174.88410841484139
 31
0.0
  0
LINE
  5
6063
  8
ﾃ_ﾌ_ﾙ0
 10
74.252478241891936
 20
173.88410841484139
 30
0.0
 11
115.25247824189189
 21
173.88410841484139
 31
0.0
  0
ARC
  5
6064
  8
ﾃ_ﾌ_ﾙ0
 10
74.252478241891936
 20
174.88410841484139
 30
0.0
 40
1.0
 50
180.0
 51
270.0
1001
GENIUS_GENOBJ-N-FIL_13
1002
{
1000
OWNER
1000
GEN
1002
}
1001
GENIUS_GENODEF_13
1002
{
1000
HIER
1070
     0
1002
}
1002
{
1000
MANEDIT
1070
     0
1002
}
1002
{
1000
NOSEL
1070
     0
1002
}
1002
{
1000
BEHIND
1070
     0
1002
}
1002
{
1000
OTHER
1070
     0
1002
}
1002
{
1000
REACTOR
1002
}
  0
ARC
  5
6065
  8
ﾃ_ﾌ_ﾙ0
 10
115.25247824189189
 20
174.88410841484139
 30
0.0
 40
1.0
 50
270.0
 51
0.0
1001
GENIUS_GENOBJ-N-FIL_13
1002
{
1000
OWNER
1000
GEN
1002
}
1001
GENIUS_GENODEF_13
1002
{
1000
HIER
1070
     0
1002
}
1002
{
1000
MANEDIT
1070
     0
1002
}
1002
{
1000
NOSEL
1070
     0
1002
}
1002
{
1000
BEHIND
1070
     0
1002
}
1002
{
1000
OTHER
1070
     0
1002
}
1002
{
1000
REACTOR
1002
}
  0
LINE
  5
6066
  8
ﾃ_ﾌ_ﾙ0
 10
116.25247824189189
 20
174.88410841484139
 30
0.0
 11
116.25247824189189
 21
504.08410841484169
 31
0.0
  0
LINE
  5
6067
  8
ﾃ_ﾌ_ﾙ0
 10
115.25247824189189
 20
504.08410841484169
 30
0.0
 11
115.25247824189189
 21
173.88410841484139
 31
0.0
  0
LINE
  5
6068
  8
ﾃ_ﾌ_ﾙ0
 10
115.25247824189189
 20
183.88387890204311
 30
0.0
 11
74.252478241891936
 21
183.88387890204311
 31
0.0
  0
LINE
  5
6069
  8
ﾃ_ﾌ_ﾙ0
 10
74.252478241891936
 20
173.88410841484139
 30
0.0
 11
74.252478241891936
 21
504.08410841484169
 31
0.0
  0
LINE
  5
606A
  8
ﾃ_ﾌ_ﾙ0
 10
74.252478241891936
 20
183.88387890204311
 30
0.0
 11
73.252478241891936
 21
183.88387890204311
 31
0.0
  0
LINE
  5
606B
  8
ﾃ_ﾌ_ﾙ0
 10
114.25247824189189
 20
504.08410841484169
 30
0.0
 11
114.25247824189189
 21
174.88410841484139
 31
0.0
  0
LINE
  5
606C
  8
ﾃ_ﾌ_ﾙ0
 10
115.25247824189189
 20
174.88410841484139
 30
0.0
 11
74.252478241891936
 21
174.88410841484139
 31
0.0
  0
CIRCLE
  5
606D
  8
ﾃ_ﾌ_ﾙ0
 10
94.752478241891936
 20
412.48387890204287
 30
0.0
 40
2.1000000000000001
  0
CIRCLE
  5
606E
  8
ﾃ_ﾌ_ﾙ0
 10
94.752478241891936
 20
209.2838789020432
 30
0.0
 40
2.1000000000000001
  0
LINE
  5
606F
  8
左側板
 10
239.83250211273091
 20
404.95462079507882
 30
0.0
 11
239.83250211273091
 21
276.45462079507888
 31
0.0
  0
LINE
  5
6070
  8
左側板
 10
241.83250211273091
 20
274.45462079507888
 30
0.0
 11
262.63250211273089
 21
274.45462079507888
 31
0.0
  0
ARC
  5
6071
  8
左側板
 10
241.83250211273091
 20
276.45462079507888
 30
0.0
 40
2.0
 50
180.0
 51
270.0
1001
GENIUS_GENODEF_13
1002
{
1000
HIER
1070
     0
1002
}
1002
{
1000
MANEDIT
1070
     0
1002
}
1002
{
1000
NOSEL
1070
     0
1002
}
1002
{
1000
BEHIND
1070
     0
1002
}
1002
{
1000
OTHER
1070
     0
1002
}
1002
{
1000
REACTOR
1002
}
1001
GENIUS_GENOBJ-N-FIL_13
1002
{
1000
OWNER
1000
GEN
1002
}
  0
LINE
  5
6072
  8
左側板
 10
262.63250211273089
 20
274.45462079507888
 30
0.0
 11
262.63250211273089
 21
406.95462079507882
 31
0.0
  0
LINE
  5
6073
  8
左側板
 10
262.63250211273089
 20
406.95462079507882
 30
0.0
 11
241.83250211273091
 21
406.95462079507882
 31
0.0
  0
ARC
  5
6074
  8
左側板
 10
241.83250211273091
 20
404.95462079507882
 30
0.0
 40
2.0
 50
90.0
 51
180.0
1001
GENIUS_GENOBJ-N-FIL_13
1002
{
1000
OWNER
1000
GEN
1002
}
1001
GENIUS_GENODEF_13
1002
{
1000
HIER
1070
     0
1002
}
1002
{
1000
MANEDIT
1070
     0
1002
}
1002
{
1000
NOSEL
1070
     0
1002
}
1002
{
1000
BEHIND
1070
     0
1002
}
1002
{
1000
OTHER
1070
     0
1002
}
1002
{
1000
REACTOR
1002
}
  0
LINE
  5
6075
  8
左側板0
 10
260.33250211273099
 20
406.95462079507882
 30
0.0
 11
260.33250211273099
 21
274.45462079507888
 31
0.0
  0
LINE
  5
6076
  8
左側板0
 10
260.33250211273099
 20
298.45462079507888
 30
0.0
 11
262.63250211273089
 21
298.45462079507888
 31
0.0
  0
LINE
  5
6077
  8
左側板0
 10
262.63250211273089
 20
298.1546207950787
 30
0.0
 11
260.33250211273099
 21
298.1546207950787
 31
0.0
  0
LINE
  5
6078
  8
左側板0
 10
260.33250211273099
 20
294.75462079507861
 30
0.0
 11
262.63250211273089
 21
294.75462079507861
 31
0.0
  0
LINE
  5
6079
  8
左側板0
 10
262.63250211273089
 20
294.45462079507888
 30
0.0
 11
260.33250211273099
 21
294.45462079507888
 31
0.0
  0
LINE
  5
607A
  8
左側板
 10
245.58250211273099
 20
315.4046207950787
 30
0.0
 11
250.08250211273091
 21
315.4046207950787
 31
0.0
1001
GENIUS_GENOBJ-N-CEN_13
1002
{
1000
OWNER
1000
GEN
1002
}
1001
GENIUS_GENODEF_13
1002
{
1000
HIER
1070
     0
1002
}
1002
{
1000
MANEDIT
1070
     0
1002
}
1002
{
1000
NOSEL
1070
     0
1002
}
1002
{
1000
BEHIND
1070
     0
1002
}
1002
{
1000
OTHER
1070
     0
1002
}
1002
{
1000
REACTOR
1002
}
1001
GENIUS_GENCEN_19
1002
{
1040
6.0
1002
}
  0
LINE
  5
607B
  8
左側板
 10
245.58250211273099
 20
308.9046207950787
 30
0.0
 11
250.08250211273091
 21
308.9046207950787
 31
0.0
1001
GENIUS_GENOBJ-N-CEN_13
1002
{
1000
OWNER
1000
GEN
1002
}
1001
GENIUS_GENODEF_13
1002
{
1000
HIER
1070
     0
1002
}
1002
{
1000
MANEDIT
1070
     0
1002
}
1002
{
1000
NOSEL
1070
     0
1002
}
1002
{
1000
BEHIND
1070
     0
1002
}
1002
{
1000
OTHER
1070
     0
1002
}
1002
{
1000
REACTOR
1002
}
1001
GENIUS_GENCEN_19
1002
{
1040
6.0
1002
}
  0
ARC
  5
607C
  8
左側板
 10
250.08250211273091
 20
312.1546207950787
 30
0.0
 40
3.25
 50
270.0
 51
90.0
  0
ARC
  5
607D
  8
左側板
 10
245.58250211273099
 20
312.1546207950787
 30
0.0
 40
3.25
 50
90.0
 51
270.0
  0
LINE
  5
607E
  8
左側板
 10
245.58250211273099
 20
372.50462079507861
 30
0.0
 11
250.08250211273091
 21
372.50462079507861
 31
0.0
1001
GENIUS_GENOBJ-N-CEN_13
1002
{
1000
OWNER
1000
GEN
1002
}
1001
GENIUS_GENODEF_13
1002
{
1000
HIER
1070
     0
1002
}
1002
{
1000
MANEDIT
1070
     0
1002
}
1002
{
1000
NOSEL
1070
     0
1002
}
1002
{
1000
BEHIND
1070
     0
1002
}
1002
{
1000
OTHER
1070
     0
1002
}
1002
{
1000
REACTOR
1002
}
1001
GENIUS_GENCEN_19
1002
{
1040
6.0
1002
}
  0
LINE
  5
607F
  8
左側板
 10
245.58250211273099
 20
366.00462079507861
 30
0.0
 11
250.08250211273091
 21
366.00462079507861
 31
0.0
1001
GENIUS_GENOBJ-N-CEN_13
1002
{
1000
OWNER
1000
GEN
1002
}
1001
GENIUS_GENODEF_13
1002
{
1000
HIER
1070
     0
1002
}
1002
{
1000
MANEDIT
1070
     0
1002
}
1002
{
1000
NOSEL
1070
     0
1002
}
1002
{
1000
BEHIND
1070
     0
1002
}
1002
{
1000
OTHER
1070
     0
1002
}
1002
{
1000
REACTOR
1002
}
1001
GENIUS_GENCEN_19
1002
{
1040
6.0
1002
}
  0
ARC
  5
6080
  8
左側板
 10
250.08250211273091
 20
369.25462079507861
 30
0.0
 40
3.25
 50
270.0
 51
90.0
  0
ARC
  5
6081
  8
左側板
 10
245.58250211273099
 20
369.25462079507861
 30
0.0
 40
3.25
 50
90.0
 51
270.0
  0
LINE
  5
60A5
  8
右側板
 10
701.93250211273084
 20
854.08387890204324
 30
0.0
 11
699.63250211273055
 21
854.08387890204324
 31
0.0
  0
LINE
  5
60A6
  8
右側板
 10
699.63250211273055
 20
854.08387890204324
 30
0.0
 11
699.63250211273055
 21
508.08387890204312
 31
0.0
  0
LINE
  5
60A7
  8
右側板
 10
703.63250211273055
 20
504.08387890204312
 30
0.0
 11
722.43250211273084
 21
504.08387890204312
 31
0.0
  0
ARC
  5
60A8
  8
右側板
 10
703.63250211273055
 20
508.08387890204312
 30
0.0
 40
4.0
 50
180.0
 51
270.0
1001
GENIUS_GENODEF_13
1002
{
1000
HIER
1070
     0
1002
}
1002
{
1000
MANEDIT
1070
     0
1002
}
1002
{
1000
NOSEL
1070
     0
1002
}
1002
{
1000
BEHIND
1070
     0
1002
}
1002
{
1000
OTHER
1070
     0
1002
}
1002
{
1000
REACTOR
1002
}
1001
GENIUS_GENOBJ-N-FIL_13
1002
{
1000
OWNER
1000
GEN
1002
}
  0
LINE
  5
60A9
  8
右側板
 10
722.43250211273084
 20
504.08387890204312
 30
0.0
 11
722.43250211273084
 21
506.38387890204302
 31
0.0
  0
LINE
  5
60AA
  8
右側板
 10
722.43250211273084
 20
506.38387890204302
 30
0.0
 11
703.93250211273084
 21
506.38387890204291
 31
0.0
  0
ARC
  5
60AB
  8
右側板
 10
703.93250211273084
 20
508.38387890204291
 30
0.0
 40
2.0
 50
180.0
 51
270.0
1001
GENIUS_GENOBJ-N-FIL_13
1002
{
1000
OWNER
1000
GEN
1002
}
1001
GENIUS_GENODEF_13
1002
{
1000
HIER
1070
     0
1002
}
1002
{
1000
MANEDIT
1070
     0
1002
}
1002
{
1000
NOSEL
1070
     0
1002
}
1002
{
1000
BEHIND
1070
     0
1002
}
1002
{
1000
OTHER
1070
     0
1002
}
1002
{
1000
REACTOR
1002
}
  0
LINE
  5
60AC
  8
右側板
 10
701.93250211273084
 20
508.38387890204291
 30
0.0
 11
701.93250211273084
 21
854.08387890204324
 31
0.0
  0
LINE
  5
60AD
  8
右側板0
 10
701.93250211273084
 20
643.0838789020429
 30
0.0
 11
699.63250211273055
 21
643.0838789020429
 31
0.0
  0
LINE
  5
60AE
  8
右側板0
 10
701.93250211273084
 20
642.78387890204306
 30
0.0
 11
699.63250211273055
 21
642.78387890204306
 31
0.0
  0
LINE
  5
60AF
  8
右側板0
 10
701.93250211273084
 20
639.38387890204297
 30
0.0
 11
699.63250211273055
 21
639.38387890204297
 31
0.0
  0
LINE
  5
60B0
  8
右側板0
 10
701.93250211273084
 20
639.0838789020429
 30
0.0
 11
699.63250211273055
 21
639.0838789020429
 31
0.0
  0
LINE
  5
60B1
  8
右側板0
 10
701.93250211273084
 20
744.68387890204292
 30
0.0
 11
699.63250211273055
 21
744.68387890204292
 31
0.0
  0
LINE
  5
60B2
  8
右側板0
 10
701.93250211273084
 20
744.38387890204285
 30
0.0
 11
699.63250211273055
 21
744.38387890204285
 31
0.0
  0
LINE
  5
60B3
  8
右側板0
 10
701.93250211273084
 20
740.98387890204299
 30
0.0
 11
699.63250211273055
 21
740.98387890204299
 31
0.0
  0
LINE
  5
60B4
  8
右側板0
 10
701.93250211273084
 20
740.68387890204292
 30
0.0
 11
699.63250211273055
 21
740.68387890204292
 31
0.0
  0
LINE
  5
60B5
  8
右側板0
 10
701.93250211273084
 20
833.58387890204278
 30
0.0
 11
699.63250211273055
 21
833.58387890204278
 31
0.0
  0
LINE
  5
60B6
  8
右側板0
 10
701.93250211273084
 20
833.28387890204306
 30
0.0
 11
699.63250211273055
 21
833.28387890204306
 31
0.0
  0
LINE
  5
60B7
  8
右側板0
 10
701.93250211273084
 20
829.88387890204285
 30
0.0
 11
699.63250211273055
 21
829.88387890204285
 31
0.0
  0
LINE
  5
60B8
  8
右側板0
 10
701.93250211273084
 20
829.5838789020429
 30
0.0
 11
699.63250211273055
 21
829.5838789020429
 31
0.0
  0
LINE
  5
60B9
  8
右側板0
 10
720.13250211273055
 20
506.38387890204302
 30
0.0
 11
720.13250211273055
 21
504.08387890204312
 31
0.0
  0
LINE
  5
60BA
  8
右側板0
 10
708.73250211273103
 20
506.38387890204302
 30
0.0
 11
708.73250211273103
 21
504.08387890204312
 31
0.0
  0
LINE
  5
60BB
  8
右側板0
 10
701.93250211273084
 20
544.68387890204303
 30
0.0
 11
699.63250211273055
 21
544.68387890204303
 31
0.0
  0
LINE
  5
60BC
  8
右側板0
 10
701.93250211273084
 20
544.38387890204297
 30
0.0
 11
699.63250211273055
 21
544.38387890204297
 31
0.0
  0
LINE
  5
60BD
  8
右側板0
 10
701.93250211273084
 20
540.98387890204299
 30
0.0
 11
699.63250211273055
 21
540.98387890204299
 31
0.0
  0
LINE
  5
60BE
  8
右側板0
 10
701.93250211273084
 20
540.68387890204303
 30
0.0
 11
699.63250211273055
 21
540.68387890204303
 31
0.0
  0
LINE
  5
60BF
  8
右側板
 10
1207.1156260172611
 20
854.08387890204324
 30
0.0
 11
1209.415626017261
 21
854.08387890204324
 31
0.0
  0
LINE
  5
60C0
  8
右側板
 10
1209.415626017261
 20
854.08387890204324
 30
0.0
 11
1209.415626017261
 21
508.08387890204312
 31
0.0
  0
LINE
  5
60C1
  8
右側板
 10
1205.415626017261
 20
504.08387890204312
 30
0.0
 11
1186.6156260172611
 21
504.08387890204312
 31
0.0
  0
ARC
  5
60C2
  8
右側板
 10
1205.415626017261
 20
508.08387890204312
 30
0.0
 40
4.0
 50
270.0
 51
0.0
1001
GENIUS_GENODEF_13
1002
{
1000
HIER
1070
     0
1002
}
1002
{
1000
MANEDIT
1070
     0
1002
}
1002
{
1000
NOSEL
1070
     0
1002
}
1002
{
1000
BEHIND
1070
     0
1002
}
1002
{
1000
OTHER
1070
     0
1002
}
1002
{
1000
REACTOR
1002
}
1001
GENIUS_GENOBJ-N-FIL_13
1002
{
1000
OWNER
1000
GEN
1002
}
  0
LINE
  5
60C3
  8
右側板
 10
1186.6156260172611
 20
504.08387890204312
 30
0.0
 11
1186.6156260172611
 21
506.38387890204302
 31
0.0
  0
LINE
  5
60C4
  8
右側板
 10
1186.6156260172611
 20
506.38387890204302
 30
0.0
 11
1205.1156260172611
 21
506.38387890204291
 31
0.0
  0
ARC
  5
60C5
  8
右側板
 10
1205.1156260172611
 20
508.38387890204291
 30
0.0
 40
2.0
 50
270.0
 51
0.0
1001
GENIUS_GENOBJ-N-FIL_13
1002
{
1000
OWNER
1000
GEN
1002
}
1001
GENIUS_GENODEF_13
1002
{
1000
HIER
1070
     0
1002
}
1002
{
1000
MANEDIT
1070
     0
1002
}
1002
{
1000
NOSEL
1070
     0
1002
}
1002
{
1000
BEHIND
1070
     0
1002
}
1002
{
1000
OTHER
1070
     0
1002
}
1002
{
1000
REACTOR
1002
}
  0
LINE
  5
60C6
  8
右側板
 10
1207.1156260172611
 20
508.38387890204291
 30
0.0
 11
1207.1156260172611
 21
854.08387890204324
 31
0.0
  0
LINE
  5
60C7
  8
右側板0
 10
1207.1156260172611
 20
643.0838789020429
 30
0.0
 11
1209.415626017261
 21
643.0838789020429
 31
0.0
  0
LINE
  5
60C8
  8
右側板0
 10
1207.1156260172611
 20
642.78387890204306
 30
0.0
 11
1209.415626017261
 21
642.78387890204306
 31
0.0
  0
LINE
  5
60C9
  8
右側板0
 10
1207.1156260172611
 20
639.38387890204297
 30
0.0
 11
1209.415626017261
 21
639.38387890204297
 31
0.0
  0
LINE
  5
60CA
  8
右側板0
 10
1207.1156260172611
 20
639.0838789020429
 30
0.0
 11
1209.415626017261
 21
639.0838789020429
 31
0.0
  0
LINE
  5
60CB
  8
右側板0
 10
1207.1156260172611
 20
744.68387890204292
 30
0.0
 11
1209.415626017261
 21
744.68387890204292
 31
0.0
  0
LINE
  5
60CC
  8
右側板0
 10
1207.1156260172611
 20
744.38387890204285
 30
0.0
 11
1209.415626017261
 21
744.38387890204285
 31
0.0
  0
LINE
  5
60CD
  8
右側板0
 10
1207.1156260172611
 20
740.98387890204299
 30
0.0
 11
1209.415626017261
 21
740.98387890204299
 31
0.0
  0
LINE
  5
60CE
  8
右側板0
 10
1207.1156260172611
 20
740.68387890204292
 30
0.0
 11
1209.415626017261
 21
740.68387890204292
 31
0.0
  0
LINE
  5
60CF
  8
右側板0
 10
1207.1156260172611
 20
833.58387890204278
 30
0.0
 11
1209.415626017261
 21
833.58387890204278
 31
0.0
  0
LINE
  5
60D0
  8
右側板0
 10
1207.1156260172611
 20
833.28387890204306
 30
0.0
 11
1209.415626017261
 21
833.28387890204306
 31
0.0
  0
LINE
  5
60D1
  8
右側板0
 10
1207.1156260172611
 20
829.88387890204285
 30
0.0
 11
1209.415626017261
 21
829.88387890204285
 31
0.0
  0
LINE
  5
60D2
  8
右側板0
 10
1207.1156260172611
 20
829.5838789020429
 30
0.0
 11
1209.415626017261
 21
829.5838789020429
 31
0.0
  0
LINE
  5
60D3
  8
右側板0
 10
1188.915626017261
 20
506.38387890204302
 30
0.0
 11
1188.915626017261
 21
504.08387890204312
 31
0.0
  0
LINE
  5
60D4
  8
右側板0
 10
1200.3156260172609
 20
506.38387890204302
 30
0.0
 11
1200.3156260172609
 21
504.08387890204312
 31
0.0
  0
LINE
  5
60D5
  8
右側板0
 10
1207.1156260172611
 20
544.68387890204303
 30
0.0
 11
1209.415626017261
 21
544.68387890204303
 31
0.0
  0
LINE
  5
60D6
  8
右側板0
 10
1207.1156260172611
 20
544.38387890204297
 30
0.0
 11
1209.415626017261
 21
544.38387890204297
 31
0.0
  0
LINE
  5
60D7
  8
右側板0
 10
1207.1156260172611
 20
540.98387890204299
 30
0.0
 11
1209.415626017261
 21
540.98387890204299
 31
0.0
  0
LINE
  5
60D8
  8
右側板0
 10
1207.1156260172611
 20
540.68387890204303
 30
0.0
 11
1209.415626017261
 21
540.68387890204303
 31
0.0
  0
LINE
  5
612E
  8
補強金具
 10
1209.915626017261
 20
972.68387890204258
 30
0.0
 11
1208.715626017261
 21
972.68387890204258
 31
0.0
  0
ARC
  5
612F
  8
補強金具
 10
1208.715626017261
 20
971.08387890204312
 30
0.0
 40
1.6000000000000001
 50
90.0
 51
180.0
1001
GENIUS_GENODEF_13
1002
{
1000
HIER
1070
     0
1002
}
1002
{
1000
MANEDIT
1070
     0
1002
}
1002
{
1000
NOSEL
1070
     0
1002
}
1002
{
1000
BEHIND
1070
     0
1002
}
1002
{
1000
REACTOR
1002
}
1001
GENIUS_GENOBJ-N-FIL_13
1002
{
1000
OWNER
1000
GEN
1002
}
  0
LINE
  5
6130
  8
補強金具
 10
1209.715626017261
 20
981.08387890204312
 30
0.0
 11
1209.715626017261
 21
971.08387890204312
 31
0.0
  0
ARC
  5
6131
  8
補強金具
 10
1647.1156260172611
 20
971.08387890204312
 30
0.0
 40
1.6000000000000001
 50
0.0
 51
90.0
1001
GENIUS_GENODEF_13
1002
{
1000
HIER
1070
     0
1002
}
1002
{
1000
MANEDIT
1070
     0
1002
}
1002
{
1000
NOSEL
1070
     0
1002
}
1002
{
1000
BEHIND
1070
     0
1002
}
1002
{
1000
REACTOR
1002
}
1001
GENIUS_GENOBJ-N-FIL_13
1002
{
1000
OWNER
1000
GEN
1002
}
  0
LINE
  5
6132
  8
補強金具
 10
1646.1156260172611
 20
981.08387890204312
 30
0.0
 11
1209.715626017261
 21
981.08387890204312
 31
0.0
  0
LINE
  5
6133
  8
補強金具
 10
1647.1156260172611
 20
971.08387890204312
 30
0.0
 11
1208.715626017261
 21
971.08387890204312
 31
0.0
  0
LINE
  5
6134
  8
補強金具0
 10
1645.915626017261
 20
972.68387890204303
 30
0.0
 11
1209.915626017261
 21
972.68387890204303
 31
0.0
  0
LINE
  5
6135
  8
補強金具
 10
1646.1156260172611
 20
981.08387890204312
 30
0.0
 11
1646.1156260172611
 21
971.08387890204312
 31
0.0
  0
LINE
  5
6136
  8
補強金具
 10
1208.715626017261
 20
932.68387890204258
 30
0.0
 11
1207.1156260172611
 21
932.68387890204258
 31
0.0
  0
LINE
  5
6137
  8
補強金具
 10
1648.715626017261
 20
932.68387890204258
 30
0.0
 11
1647.1156260172611
 21
932.68387890204258
 31
0.0
  0
LINE
  5
6138
  8
補強金具
 10
1647.1156260172611
 20
972.68387890204258
 30
0.0
 11
1645.915626017261
 21
972.68387890204258
 31
0.0
  0
LINE
  5
6139
  8
補強金具
 10
1647.1156260172611
 20
932.68387890204258
 30
0.0
 11
1647.1156260172611
 21
971.08387890204312
 31
0.0
  0
LINE
  5
613A
  8
補強金具
 10
1208.715626017261
 20
932.68387890204258
 30
0.0
 11
1208.715626017261
 21
971.08387890204312
 31
0.0
  0
LINE
  5
613B
  8
補強金具
 10
1207.1156260172611
 20
932.68387890204258
 30
0.0
 11
1207.1156260172611
 21
971.08387890204312
 31
0.0
  0
LINE
  5
613C
  8
補強金具
 10
1648.715626017261
 20
932.68387890204258
 30
0.0
 11
1648.715626017261
 21
971.08387890204312
 31
0.0
  0
LINE
  5
613D
  8
左側板
 10
1648.715626017261
 20
854.08387890204324
 30
0.0
 11
1646.415626017261
 21
854.08387890204324
 31
0.0
  0
LINE
  5
613E
  8
左側板
 10
1646.415626017261
 20
854.08387890204324
 30
0.0
 11
1646.415626017261
 21
508.08387890204312
 31
0.0
  0
LINE
  5
613F
  8
左側板
 10
1650.415626017261
 20
504.08387890204312
 30
0.0
 11
1669.215626017261
 21
504.08387890204312
 31
0.0
  0
ARC
  5
6140
  8
左側板
 10
1650.415626017261
 20
508.08387890204312
 30
0.0
 40
4.0
 50
180.0
 51
270.0
1001
GENIUS_GENODEF_13
1002
{
1000
HIER
1070
     0
1002
}
1002
{
1000
MANEDIT
1070
     0
1002
}
1002
{
1000
NOSEL
1070
     0
1002
}
1002
{
1000
BEHIND
1070
     0
1002
}
1002
{
1000
OTHER
1070
     0
1002
}
1002
{
1000
REACTOR
1002
}
1001
GENIUS_GENOBJ-N-FIL_13
1002
{
1000
OWNER
1000
GEN
1002
}
  0
LINE
  5
6141
  8
左側板
 10
1669.215626017261
 20
504.08387890204312
 30
0.0
 11
1669.215626017261
 21
506.38387890204302
 31
0.0
  0
LINE
  5
6142
  8
左側板
 10
1669.215626017261
 20
506.38387890204302
 30
0.0
 11
1650.715626017261
 21
506.38387890204302
 31
0.0
  0
ARC
  5
6143
  8
左側板
 10
1650.715626017261
 20
508.38387890204308
 30
0.0
 40
2.0
 50
180.0
 51
270.0
1001
GENIUS_GENOBJ-N-FIL_13
1002
{
1000
OWNER
1000
GEN
1002
}
1001
GENIUS_GENODEF_13
1002
{
1000
HIER
1070
     0
1002
}
1002
{
1000
MANEDIT
1070
     0
1002
}
1002
{
1000
NOSEL
1070
     0
1002
}
1002
{
1000
BEHIND
1070
     0
1002
}
1002
{
1000
OTHER
1070
     0
1002
}
1002
{
1000
REACTOR
1002
}
  0
LINE
  5
6144
  8
左側板
 10
1648.715626017261
 20
508.38387890204308
 30
0.0
 11
1648.715626017261
 21
854.08387890204324
 31
0.0
  0
LINE
  5
6145
  8
左側板0
 10
1648.715626017261
 20
643.08387890204312
 30
0.0
 11
1646.415626017261
 21
643.08387890204312
 31
0.0
  0
LINE
  5
6146
  8
左側板0
 10
1648.715626017261
 20
642.78387890204306
 30
0.0
 11
1646.415626017261
 21
642.78387890204306
 31
0.0
  0
LINE
  5
6147
  8
左側板0
 10
1648.715626017261
 20
639.38387890204297
 30
0.0
 11
1646.415626017261
 21
639.38387890204297
 31
0.0
  0
LINE
  5
6148
  8
左側板0
 10
1648.715626017261
 20
639.08387890204312
 30
0.0
 11
1646.415626017261
 21
639.08387890204312
 31
0.0
  0
LINE
  5
6149
  8
左側板0
 10
1648.715626017261
 20
744.68387890204303
 30
0.0
 11
1646.415626017261
 21
744.68387890204303
 31
0.0
  0
LINE
  5
614A
  8
左側板0
 10
1648.715626017261
 20
744.38387890204285
 30
0.0
 11
1646.415626017261
 21
744.38387890204285
 31
0.0
  0
LINE
  5
614B
  8
左側板0
 10
1648.715626017261
 20
740.98387890204299
 30
0.0
 11
1646.415626017261
 21
740.98387890204299
 31
0.0
  0
LINE
  5
614C
  8
左側板0
 10
1648.715626017261
 20
740.68387890204303
 30
0.0
 11
1646.415626017261
 21
740.68387890204303
 31
0.0
  0
LINE
  5
614D
  8
左側板0
 10
1648.715626017261
 20
833.58387890204312
 30
0.0
 11
1646.415626017261
 21
833.58387890204312
 31
0.0
  0
LINE
  5
614E
  8
左側板0
 10
1648.715626017261
 20
833.28387890204306
 30
0.0
 11
1646.415626017261
 21
833.28387890204306
 31
0.0
  0
LINE
  5
614F
  8
左側板0
 10
1648.715626017261
 20
829.88387890204308
 30
0.0
 11
1646.415626017261
 21
829.88387890204308
 31
0.0
  0
LINE
  5
6150
  8
左側板0
 10
1648.715626017261
 20
829.58387890204312
 30
0.0
 11
1646.415626017261
 21
829.58387890204312
 31
0.0
  0
LINE
  5
6151
  8
左側板0
 10
1666.915626017261
 20
506.38387890204302
 30
0.0
 11
1666.915626017261
 21
504.08387890204312
 31
0.0
  0
LINE
  5
6152
  8
左側板0
 10
1655.515626017261
 20
506.38387890204302
 30
0.0
 11
1655.515626017261
 21
504.08387890204312
 31
0.0
  0
LINE
  5
6153
  8
左側板0
 10
1648.715626017261
 20
544.68387890204303
 30
0.0
 11
1646.415626017261
 21
544.68387890204303
 31
0.0
  0
LINE
  5
6154
  8
左側板0
 10
1648.715626017261
 20
544.38387890204297
 30
0.0
 11
1646.415626017261
 21
544.38387890204297
 31
0.0
  0
LINE
  5
6155
  8
左側板0
 10
1648.715626017261
 20
540.98387890204299
 30
0.0
 11
1646.415626017261
 21
540.98387890204299
 31
0.0
  0
LINE
  5
6156
  8
左側板0
 10
1648.715626017261
 20
540.68387890204303
 30
0.0
 11
1646.415626017261
 21
540.68387890204303
 31
0.0
  0
LINE
  5
6157
  8
ﾃ_ﾌ_ﾙ
 10
1644.415626017261
 20
504.08387890204312
 30
0.0
 11
1211.415626017261
 21
504.08387890204312
 31
0.0
  0
LINE
  5
6158
  8
ﾃ_ﾌ_ﾙ
 10
1636.915626017261
 20
955.08387890204312
 30
0.0
 11
1218.915626017261
 21
955.08387890204312
 31
0.0
  0
LINE
  5
6159
  8
ﾃ_ﾌ_ﾙ
 10
1645.415626017261
 20
954.08387890204324
 30
0.0
 11
1645.415626017261
 21
505.08387890204301
 31
0.0
  0
LINE
  5
615A
  8
ﾃ_ﾌ_ﾙ
 10
1210.415626017261
 20
505.08387890204301
 30
0.0
 11
1210.415626017261
 21
954.08387890204324
 31
0.0
  0
LINE
  5
615B
  8
ﾃ_ﾌ_ﾙ
 10
1210.415626017261
 20
953.98387890204265
 30
0.0
 11
1210.415626017261
 21
514.68387890204303
 31
0.0
  0
ARC
  5
615C
  8
ﾃ_ﾌ_ﾙ
 10
1644.415626017261
 20
505.08387890204301
 30
0.0
 40
1.0
 50
270.0
 51
0.0
1001
GENIUS_GENODEF_13
1002
{
1000
HIER
1070
     0
1002
}
1002
{
1000
MANEDIT
1070
     0
1002
}
1002
{
1000
NOSEL
1070
     0
1002
}
1002
{
1000
BEHIND
1070
     0
1002
}
1002
{
1000
REACTOR
1002
}
1001
GENIUS_GENOBJ-N-FIL_13
1002
{
1000
OWNER
1000
GEN
1002
}
  0
ARC
  5
615D
  8
ﾃ_ﾌ_ﾙ
 10
1211.415626017261
 20
505.08387890204301
 30
0.0
 40
1.0
 50
180.0
 51
270.0
1001
GENIUS_GENODEF_13
1002
{
1000
HIER
1070
     0
1002
}
1002
{
1000
MANEDIT
1070
     0
1002
}
1002
{
1000
NOSEL
1070
     0
1002
}
1002
{
1000
BEHIND
1070
     0
1002
}
1002
{
1000
REACTOR
1002
}
1001
GENIUS_GENOBJ-N-FIL_13
1002
{
1000
OWNER
1000
GEN
1002
}
  0
LINE
  5
615E
  8
ﾃ_ﾌ_ﾙ
 10
1645.415626017261
 20
953.98387890204265
 30
0.0
 11
1645.415626017261
 21
514.68387890204303
 31
0.0
  0
LINE
  5
615F
  8
ﾃ_ﾌ_ﾙ
 10
1218.915626017261
 20
955.08387890204312
 30
0.0
 11
1218.915626017261
 21
954.08387890204324
 31
0.0
  0
LINE
  5
6160
  8
ﾃ_ﾌ_ﾙ
 10
1219.015626017261
 20
954.08387890204324
 30
0.0
 11
1210.415626017261
 21
954.08387890204324
 31
0.0
  0
LINE
  5
6161
  8
ﾃ_ﾌ_ﾙ
 10
1636.915626017261
 20
955.08387890204312
 30
0.0
 11
1636.915626017261
 21
954.08387890204324
 31
0.0
  0
LINE
  5
6162
  8
ﾃ_ﾌ_ﾙ
 10
1636.8156260172609
 20
954.08387890204324
 30
0.0
 11
1645.415626017261
 21
954.08387890204324
 31
0.0
  0
LINE
  5
6163
  8
ﾃ_ﾌ_ﾙ
 10
1636.8156260172609
 20
954.08387890204324
 30
0.0
 11
1219.015626017261
 21
954.08387890204324
 31
0.0
  0
LINE
  5
6164
  8
ﾃ_ﾌ_ﾙ
 10
1210.415626017261
 20
514.08387890204312
 30
0.0
 11
1645.415626017261
 21
514.08387890204312
 31
0.0
  0
LINE
  5
6165
  8
ﾃ_ﾌ_ﾙ0
 10
1636.915626017261
 20
505.08387890204301
 30
0.0
 11
1636.915626017261
 21
954.08387890204324
 31
0.0
  0
LINE
  5
6166
  8
ﾃ_ﾌ_ﾙ
 10
1635.915626017261
 20
954.08387890204324
 30
0.0
 11
1635.915626017261
 21
505.08387890204301
 31
0.0
  0
LINE
  5
6167
  8
ﾃ_ﾌ_ﾙ0
 10
1211.415626017261
 20
505.08387890204301
 30
0.0
 11
1644.415626017261
 21
505.08387890204301
 31
0.0
  0
LINE
  5
6168
  8
ﾃ_ﾌ_ﾙ
 10
1644.415626017261
 20
514.08387890204312
 30
0.0
 11
1644.415626017261
 21
505.08387890204301
 31
0.0
  0
LINE
  5
6169
  8
ﾃ_ﾌ_ﾙ
 10
1616.8156260172609
 20
954.08387890204324
 30
0.0
 11
1616.8156260172609
 21
505.08387890204301
 31
0.0
  0
LINE
  5
616A
  8
ﾃ_ﾌ_ﾙ0
 10
1218.915626017261
 20
505.08387890204301
 30
0.0
 11
1218.915626017261
 21
954.08387890204324
 31
0.0
  0
LINE
  5
616B
  8
ﾃ_ﾌ_ﾙ
 10
1219.915626017261
 20
954.08387890204324
 30
0.0
 11
1219.915626017261
 21
505.08387890204301
 31
0.0
  0
LINE
  5
616C
  8
ﾃ_ﾌ_ﾙ
 10
1211.415626017261
 20
514.08387890204312
 30
0.0
 11
1211.415626017261
 21
505.08387890204301
 31
0.0
  0
LINE
  5
616D
  8
ﾃ_ﾌ_ﾙ
 10
1239.015626017261
 20
954.08387890204324
 30
0.0
 11
1239.015626017261
 21
505.08387890204301
 31
0.0
  0
LINE
  5
616E
  8
ﾃ_ﾌ_ﾙ
 10
1635.915626017261
 20
541.58387890204312
 30
0.0
 11
1636.915626017261
 21
541.58387890204312
 31
0.0
  0
LINE
  5
616F
  8
ﾃ_ﾌ_ﾙ
 10
1635.915626017261
 20
537.38387890204331
 30
0.0
 11
1636.915626017261
 21
537.38387890204331
 31
0.0
  0
LINE
  5
6170
  8
ﾃ_ﾌ_ﾙ
 10
1635.915626017261
 20
744.78387890204328
 30
0.0
 11
1636.915626017261
 21
744.78387890204328
 31
0.0
  0
LINE
  5
6171
  8
ﾃ_ﾌ_ﾙ
 10
1635.915626017261
 20
740.58387890204312
 30
0.0
 11
1636.915626017261
 21
740.58387890204312
 31
0.0
  0
LINE
  5
6172
  8
ﾃ_ﾌ_ﾙ
 10
1635.915626017261
 20
947.98387890204322
 30
0.0
 11
1636.915626017261
 21
947.98387890204322
 31
0.0
  0
LINE
  5
6173
  8
ﾃ_ﾌ_ﾙ
 10
1635.915626017261
 20
943.7838789020434
 30
0.0
 11
1636.915626017261
 21
943.7838789020434
 31
0.0
  0
LINE
  5
6174
  8
ﾃ_ﾌ_ﾙ
 10
1219.915626017261
 20
541.58387890204312
 30
0.0
 11
1218.915626017261
 21
541.58387890204312
 31
0.0
  0
LINE
  5
6175
  8
ﾃ_ﾌ_ﾙ
 10
1219.915626017261
 20
537.38387890204331
 30
0.0
 11
1218.915626017261
 21
537.38387890204331
 31
0.0
  0
LINE
  5
6176
  8
ﾃ_ﾌ_ﾙ
 10
1219.915626017261
 20
744.78387890204328
 30
0.0
 11
1218.915626017261
 21
744.78387890204328
 31
0.0
  0
LINE
  5
6177
  8
ﾃ_ﾌ_ﾙ
 10
1219.915626017261
 20
740.58387890204312
 30
0.0
 11
1218.915626017261
 21
740.58387890204312
 31
0.0
  0
LINE
  5
6178
  8
ﾃ_ﾌ_ﾙ
 10
1219.915626017261
 20
947.98387890204322
 30
0.0
 11
1218.915626017261
 21
947.98387890204322
 31
0.0
  0
LINE
  5
6179
  8
ﾃ_ﾌ_ﾙ
 10
1219.915626017261
 20
943.7838789020434
 30
0.0
 11
1218.915626017261
 21
943.7838789020434
 31
0.0
  0
LINE
  5
617A
  8
ﾃ_ﾌ_ﾙ
 10
1416.165626017261
 20
955.08387890204312
 30
0.0
 11
1416.165626017261
 21
954.08387890204324
 31
0.0
  0
LINE
  5
617B
  8
ﾃ_ﾌ_ﾙ
 10
1419.665626017261
 20
955.08387890204312
 30
0.0
 11
1419.665626017261
 21
954.08387890204324
 31
0.0
  0
LINE
  5
617C
  8
ﾃ_ﾌ_ﾙ
 10
1436.165626017261
 20
955.08387890204312
 30
0.0
 11
1436.165626017261
 21
954.08387890204324
 31
0.0
  0
LINE
  5
617D
  8
ﾃ_ﾌ_ﾙ
 10
1439.665626017261
 20
955.08387890204312
 30
0.0
 11
1439.665626017261
 21
954.08387890204324
 31
0.0
  0
LINE
  5
617E
  8
ﾃ_ﾌ_ﾙ
 10
1379.165626017261
 20
505.08387890204301
 30
0.0
 11
1379.165626017261
 21
504.08387890204312
 31
0.0
  0
LINE
  5
617F
  8
ﾃ_ﾌ_ﾙ
 10
1476.665626017261
 20
504.08387890204312
 30
0.0
 11
1476.665626017261
 21
505.08387890204301
 31
0.0
  0
LINE
  5
6180
  8
ﾃ_ﾌ_ﾙ
 10
1219.915626017261
 20
541.58387890204312
 30
0.0
 11
1218.915626017261
 21
541.58387890204312
 31
0.0
  0
LINE
  5
6181
  8
ﾃ_ﾌ_ﾙ
 10
1219.915626017261
 20
537.38387890204331
 30
0.0
 11
1218.915626017261
 21
537.38387890204331
 31
0.0
  0
LINE
  5
6182
  8
ﾃ_ﾌ_ﾙ
 10
1219.915626017261
 20
744.78387890204328
 30
0.0
 11
1218.915626017261
 21
744.78387890204328
 31
0.0
  0
LINE
  5
6183
  8
ﾃ_ﾌ_ﾙ
 10
1219.915626017261
 20
740.58387890204312
 30
0.0
 11
1218.915626017261
 21
740.58387890204312
 31
0.0
  0
LINE
  5
6184
  8
ﾃ_ﾌ_ﾙ
 10
1219.915626017261
 20
947.98387890204322
 30
0.0
 11
1218.915626017261
 21
947.98387890204322
 31
0.0
  0
LINE
  5
6185
  8
ﾃ_ﾌ_ﾙ
 10
1219.915626017261
 20
943.7838789020434
 30
0.0
 11
1218.915626017261
 21
943.7838789020434
 31
0.0
  0
LINE
  5
6186
  8
ボ_ルスライド0
 10
958.76583015771735
 20
514.08387890204312
 30
0.0
 11
923.46583015771728
 21
514.08387890204312
 31
0.0
  0
LINE
  5
6187
  8
ボ_ルスライド0
 10
923.46583015771728
 20
971.28387890204306
 30
0.0
 11
958.76583015771735
 21
971.28387890204306
 31
0.0
  0
LINE
  5
6188
  8
ボ_ルスライド0
 10
923.46583015771728
 20
971.28387890204306
 30
0.0
 11
923.46583015771728
 21
514.08387890204312
 31
0.0
  0
LINE
  5
6189
  8
ボ_ルスライド0
 10
958.76583015771735
 20
971.28387890204306
 30
0.0
 11
958.76583015771735
 21
514.08387890204312
 31
0.0
  0
LINE
  5
618A
  8
ボ_ルスライド0
 10
1209.415626017261
 20
971.08387890204312
 30
0.0
 11
1209.415626017261
 21
514.08387890204312
 31
0.0
  0
LINE
  5
618B
  8
ボ_ルスライド0
 10
1217.415626017261
 20
971.08387890204312
 30
0.0
 11
1217.415626017261
 21
514.08387890204312
 31
0.0
  0
LINE
  5
618C
  8
ボ_ルスライド0
 10
1217.415626017261
 20
971.08387890204312
 30
0.0
 11
1209.415626017261
 21
971.08387890204312
 31
0.0
  0
LINE
  5
618D
  8
ボ_ルスライド0
 10
1209.415626017261
 20
514.08387890204312
 30
0.0
 11
1217.415626017261
 21
514.08387890204312
 31
0.0
  0
LINE
  5
618E
  8
ボ_ルスライド0
 10
1209.915626017261
 20
514.08387890204312
 30
0.0
 11
1209.915626017261
 21
971.28387890204306
 31
0.0
  0
LINE
  5
618F
  8
ボ_ルスライド0
 10
1218.915626017261
 20
514.08387890204312
 30
0.0
 11
1218.915626017261
 21
971.28387890204306
 31
0.0
  0
LINE
  5
6190
  8
ボ_ルスライド0
 10
1218.915626017261
 20
514.08387890204312
 30
0.0
 11
1209.915626017261
 21
514.08387890204312
 31
0.0
  0
LINE
  5
6191
  8
ボ_ルスライド0
 10
1209.915626017261
 20
971.28387890204306
 30
0.0
 11
1218.915626017261
 21
971.28387890204306
 31
0.0
  0
LINE
  5
6192
  8
ボ_ルスライド0
 10
1646.415626017261
 20
971.08387890204312
 30
0.0
 11
1646.415626017261
 21
514.08387890204312
 31
0.0
  0
LINE
  5
6193
  8
ボ_ルスライド0
 10
1638.415626017261
 20
971.08387890204312
 30
0.0
 11
1638.415626017261
 21
514.08387890204312
 31
0.0
  0
LINE
  5
6194
  8
ボ_ルスライド0
 10
1638.415626017261
 20
971.08387890204312
 30
0.0
 11
1646.415626017261
 21
971.08387890204312
 31
0.0
  0
LINE
  5
6195
  8
ボ_ルスライド0
 10
1646.415626017261
 20
514.08387890204312
 30
0.0
 11
1638.415626017261
 21
514.08387890204312
 31
0.0
  0
LINE
  5
6196
  8
ボ_ルスライド0
 10
1645.915626017261
 20
514.08387890204312
 30
0.0
 11
1645.915626017261
 21
971.28387890204306
 31
0.0
  0
LINE
  5
6197
  8
ボ_ルスライド0
 10
1636.915626017261
 20
514.08387890204312
 30
0.0
 11
1636.915626017261
 21
971.28387890204306
 31
0.0
  0
LINE
  5
6198
  8
ボ_ルスライド0
 10
1636.915626017261
 20
514.08387890204312
 30
0.0
 11
1645.915626017261
 21
514.08387890204312
 31
0.0
  0
LINE
  5
6199
  8
ボ_ルスライド0
 10
1645.915626017261
 20
971.28387890204306
 30
0.0
 11
1636.915626017261
 21
971.28387890204306
 31
0.0
  0
LINE
  5
619A
  8
右側板
 10
914.17234334533214
 20
854.08410841484158
 30
0.0
 11
960.61583015771737
 21
854.08410841484158
 31
0.0
  0
ARC
  5
619B
  8
右側板
 10
914.17234334533214
 20
852.08410841484169
 30
0.0
 40
2.0
 50
90.0
 51
165.78414652632671
1001
GENIUS_GENODEF_13
1002
{
1000
HIER
1070
     0
1002
}
1002
{
1000
MANEDIT
1070
     0
1002
}
1002
{
1000
NOSEL
1070
     0
1002
}
1002
{
1000
BEHIND
1070
     0
1002
}
1002
{
1000
OTHER
1070
     0
1002
}
1002
{
1000
REACTOR
1002
}
1001
GENIUS_GENOBJ-N-FIL_13
1002
{
1000
OWNER
1000
GEN
1002
}
  0
LINE
  5
619C
  8
右側板
 10
962.61583015771748
 20
852.08410841484169
 30
0.0
 11
962.61583015771748
 21
504.08410841484169
 31
0.0
  0
ARC
  5
619D
  8
右側板
 10
960.61583015771737
 20
852.08410841484169
 30
0.0
 40
2.0
 50
0.0
 51
90.0
1001
GENIUS_GENOBJ-N-FIL_13
1002
{
1000
OWNER
1000
GEN
1002
}
1001
GENIUS_GENODEF_13
1002
{
1000
HIER
1070
     0
1002
}
1002
{
1000
MANEDIT
1070
     0
1002
}
1002
{
1000
NOSEL
1070
     0
1002
}
1002
{
1000
BEHIND
1070
     0
1002
}
1002
{
1000
OTHER
1070
     0
1002
}
1002
{
1000
REACTOR
1002
}
  0
LINE
  5
619E
  8
右側板
 10
962.61583015771748
 20
504.08410841484169
 30
0.0
 11
830.11583015771737
 21
504.08410841484169
 31
0.0
  0
LINE
  5
619F
  8
右側板
 10
830.11583015771737
 20
506.38410841484159
 30
0.0
 11
962.61583015771748
 21
506.38410841484159
 31
0.0
  0
CIRCLE
  5
61A0
  8
右側板
 10
940.61583015771748
 20
831.58410841484147
 30
0.0
 40
1.7
  0
CIRCLE
  5
61A1
  8
右側板0
 10
940.61583015771748
 20
831.58410841484147
 30
0.0
 40
2.0
  0
CIRCLE
  5
61A2
  8
右側板
 10
940.61583015771748
 20
641.08410841484147
 30
0.0
 40
1.7
  0
CIRCLE
  5
61A3
  8
右側板0
 10
940.61583015771748
 20
641.08410841484147
 30
0.0
 40
2.0
  0
CIRCLE
  5
61A4
  8
右側板
 10
940.61583015771748
 20
542.68410841484149
 30
0.0
 40
1.7
  0
CIRCLE
  5
61A5
  8
右側板0
 10
940.61583015771748
 20
542.68410841484149
 30
0.0
 40
2.0
  0
LINE
  5
61A6
  8
右側板0
 10
864.56583015771776
 20
506.38410841484159
 30
0.0
 11
864.56583015771776
 21
504.08410841484169
 31
0.0
  0
LINE
  5
61A7
  8
右側板0
 10
871.06583015771776
 20
504.08410841484169
 30
0.0
 11
871.06583015771776
 21
506.38410841484159
 31
0.0
  0
LINE
  5
61A8
  8
右側板0
 10
921.66583015771755
 20
506.38410841484159
 30
0.0
 11
921.66583015771755
 21
504.08410841484169
 31
0.0
  0
LINE
  5
61A9
  8
右側板0
 10
928.16583015771766
 20
504.08410841484169
 30
0.0
 11
928.16583015771766
 21
506.38410841484159
 31
0.0
  0
LINE
  5
61AA
  8
右側板
 10
830.11583015771737
 20
504.08410841484169
 30
0.0
 11
830.11583015771737
 21
604.08410841484147
 31
0.0
  0
LINE
  5
61AB
  8
右側板
 10
830.11583015771737
 20
604.08410841484147
 30
0.0
 11
912.23358847056954
 21
852.57525964978174
 31
0.0
  0
CIRCLE
  5
61AC
  8
右側板
 10
940.61583015771748
 20
742.68410841484138
 30
0.0
 40
1.7
  0
CIRCLE
  5
61AD
  8
右側板0
 10
940.61583015771748
 20
742.68410841484138
 30
0.0
 40
2.0
  0
LINE
  5
61C0
  8
右側板
 10
722.43250211273084
 20
404.95462079507882
 30
0.0
 11
722.43250211273084
 21
276.45462079507888
 31
0.0
  0
LINE
  5
61C1
  8
右側板
 10
720.43250211273084
 20
274.45462079507888
 30
0.0
 11
699.63250211273089
 21
274.45462079507888
 31
0.0
  0
ARC
  5
61C2
  8
右側板
 10
720.43250211273084
 20
276.45462079507888
 30
0.0
 40
2.0
 50
270.0
 51
0.0
1001
GENIUS_GENODEF_13
1002
{
1000
HIER
1070
     0
1002
}
1002
{
1000
MANEDIT
1070
     0
1002
}
1002
{
1000
NOSEL
1070
     0
1002
}
1002
{
1000
BEHIND
1070
     0
1002
}
1002
{
1000
OTHER
1070
     0
1002
}
1002
{
1000
REACTOR
1002
}
1001
GENIUS_GENOBJ-N-FIL_13
1002
{
1000
OWNER
1000
GEN
1002
}
  0
LINE
  5
61C3
  8
右側板
 10
699.63250211273089
 20
274.45462079507888
 30
0.0
 11
699.63250211273089
 21
406.95462079507882
 31
0.0
  0
LINE
  5
61C4
  8
右側板
 10
699.63250211273089
 20
406.95462079507882
 30
0.0
 11
720.43250211273084
 21
406.95462079507882
 31
0.0
  0
ARC
  5
61C5
  8
右側板
 10
720.43250211273084
 20
404.95462079507882
 30
0.0
 40
2.0
 50
0.0
 51
90.0
1001
GENIUS_GENOBJ-N-FIL_13
1002
{
1000
OWNER
1000
GEN
1002
}
1001
GENIUS_GENODEF_13
1002
{
1000
HIER
1070
     0
1002
}
1002
{
1000
MANEDIT
1070
     0
1002
}
1002
{
1000
NOSEL
1070
     0
1002
}
1002
{
1000
BEHIND
1070
     0
1002
}
1002
{
1000
OTHER
1070
     0
1002
}
1002
{
1000
REACTOR
1002
}
  0
LINE
  5
61C6
  8
右側板0
 10
701.93250211273084
 20
406.95462079507882
 30
0.0
 11
701.93250211273084
 21
274.45462079507888
 31
0.0
  0
LINE
  5
61C7
  8
右側板0
 10
701.93250211273084
 20
298.45462079507888
 30
0.0
 11
699.63250211273089
 21
298.45462079507888
 31
0.0
  0
LINE
  5
61C8
  8
右側板0
 10
699.63250211273089
 20
298.1546207950787
 30
0.0
 11
701.93250211273084
 21
298.1546207950787
 31
0.0
  0
LINE
  5
61C9
  8
右側板0
 10
701.93250211273084
 20
294.75462079507861
 30
0.0
 11
699.63250211273089
 21
294.75462079507861
 31
0.0
  0
LINE
  5
61CA
  8
右側板0
 10
699.63250211273089
 20
294.45462079507888
 30
0.0
 11
701.93250211273084
 21
294.45462079507888
 31
0.0
  0
LINE
  5
61CB
  8
右側板
 10
712.18250211273084
 20
372.50462079507861
 30
0.0
 11
716.68250211273084
 21
372.50462079507861
 31
0.0
1001
GENIUS_GENOBJ-N-CEN_13
1002
{
1000
OWNER
1000
GEN
1002
}
1001
GENIUS_GENODEF_13
1002
{
1000
HIER
1070
     0
1002
}
1002
{
1000
MANEDIT
1070
     0
1002
}
1002
{
1000
NOSEL
1070
     0
1002
}
1002
{
1000
BEHIND
1070
     0
1002
}
1002
{
1000
OTHER
1070
     0
1002
}
1002
{
1000
REACTOR
1002
}
1001
GENIUS_GENCEN_19
1002
{
1040
6.0
1002
}
  0
LINE
  5
61CC
  8
右側板
 10
712.18250211273084
 20
366.00462079507861
 30
0.0
 11
716.68250211273084
 21
366.00462079507861
 31
0.0
1001
GENIUS_GENOBJ-N-CEN_13
1002
{
1000
OWNER
1000
GEN
1002
}
1001
GENIUS_GENODEF_13
1002
{
1000
HIER
1070
     0
1002
}
1002
{
1000
MANEDIT
1070
     0
1002
}
1002
{
1000
NOSEL
1070
     0
1002
}
1002
{
1000
BEHIND
1070
     0
1002
}
1002
{
1000
OTHER
1070
     0
1002
}
1002
{
1000
REACTOR
1002
}
1001
GENIUS_GENCEN_19
1002
{
1040
6.0
1002
}
  0
ARC
  5
61CD
  8
右側板
 10
716.68250211273084
 20
369.25462079507861
 30
0.0
 40
3.25
 50
270.0
 51
90.0
  0
ARC
  5
61CE
  8
右側板
 10
712.18250211273084
 20
369.25462079507861
 30
0.0
 40
3.25
 50
90.0
 51
270.0
  0
LINE
  5
61CF
  8
右側板
 10
712.18250211273084
 20
315.4046207950787
 30
0.0
 11
716.68250211273084
 21
315.4046207950787
 31
0.0
1001
GENIUS_GENOBJ-N-CEN_13
1002
{
1000
OWNER
1000
GEN
1002
}
1001
GENIUS_GENODEF_13
1002
{
1000
HIER
1070
     0
1002
}
1002
{
1000
MANEDIT
1070
     0
1002
}
1002
{
1000
NOSEL
1070
     0
1002
}
1002
{
1000
BEHIND
1070
     0
1002
}
1002
{
1000
OTHER
1070
     0
1002
}
1002
{
1000
REACTOR
1002
}
1001
GENIUS_GENCEN_19
1002
{
1040
6.0
1002
}
  0
LINE
  5
61D0
  8
右側板
 10
712.18250211273084
 20
308.9046207950787
 30
0.0
 11
716.68250211273084
 21
308.9046207950787
 31
0.0
1001
GENIUS_GENOBJ-N-CEN_13
1002
{
1000
OWNER
1000
GEN
1002
}
1001
GENIUS_GENODEF_13
1002
{
1000
HIER
1070
     0
1002
}
1002
{
1000
MANEDIT
1070
     0
1002
}
1002
{
1000
NOSEL
1070
     0
1002
}
1002
{
1000
BEHIND
1070
     0
1002
}
1002
{
1000
OTHER
1070
     0
1002
}
1002
{
1000
REACTOR
1002
}
1001
GENIUS_GENCEN_19
1002
{
1040
6.0
1002
}
  0
ARC
  5
61D1
  8
右側板
 10
716.68250211273084
 20
312.1546207950787
 30
0.0
 40
3.25
 50
270.0
 51
90.0
  0
ARC
  5
61D2
  8
右側板
 10
712.18250211273084
 20
312.1546207950787
 30
0.0
 40
3.25
 50
90.0
 51
270.0
  0
LINE
  5
61D3
  8
ﾃ_ﾌ_ﾙ
 10
697.63250211273078
 20
504.08387890204312
 30
0.0
 11
264.63250211273089
 21
504.08387890204312
 31
0.0
  0
LINE
  5
61D4
  8
ﾃ_ﾌ_ﾙ
 10
690.13250211273078
 20
955.08387890204312
 30
0.0
 11
272.13250211273089
 21
955.08387890204312
 31
0.0
  0
LINE
  5
61D5
  8
ﾃ_ﾌ_ﾙ
 10
698.63250211273078
 20
954.08387890204324
 30
0.0
 11
698.63250211273078
 21
505.08387890204301
 31
0.0
  0
LINE
  5
61D6
  8
ﾃ_ﾌ_ﾙ
 10
263.63250211273089
 20
505.08387890204301
 30
0.0
 11
263.63250211273089
 21
954.08387890204324
 31
0.0
  0
LINE
  5
61D7
  8
ﾃ_ﾌ_ﾙ
 10
263.63250211273089
 20
953.98387890204265
 30
0.0
 11
263.63250211273089
 21
514.68387890204303
 31
0.0
  0
ARC
  5
61D8
  8
ﾃ_ﾌ_ﾙ
 10
697.63250211273078
 20
505.08387890204301
 30
0.0
 40
1.0
 50
270.0
 51
0.0
1001
GENIUS_GENODEF_13
1002
{
1000
HIER
1070
     0
1002
}
1002
{
1000
MANEDIT
1070
     0
1002
}
1002
{
1000
NOSEL
1070
     0
1002
}
1002
{
1000
BEHIND
1070
     0
1002
}
1002
{
1000
REACTOR
1002
}
1001
GENIUS_GENOBJ-N-FIL_13
1002
{
1000
OWNER
1000
GEN
1002
}
  0
ARC
  5
61D9
  8
ﾃ_ﾌ_ﾙ
 10
264.63250211273089
 20
505.08387890204301
 30
0.0
 40
1.0
 50
180.0
 51
270.0
1001
GENIUS_GENODEF_13
1002
{
1000
HIER
1070
     0
1002
}
1002
{
1000
MANEDIT
1070
     0
1002
}
1002
{
1000
NOSEL
1070
     0
1002
}
1002
{
1000
BEHIND
1070
     0
1002
}
1002
{
1000
REACTOR
1002
}
1001
GENIUS_GENOBJ-N-FIL_13
1002
{
1000
OWNER
1000
GEN
1002
}
  0
LINE
  5
61DA
  8
ﾃ_ﾌ_ﾙ
 10
698.63250211273078
 20
953.98387890204265
 30
0.0
 11
698.63250211273078
 21
514.68387890204303
 31
0.0
  0
LINE
  5
61DB
  8
ﾃ_ﾌ_ﾙ
 10
272.13250211273089
 20
955.08387890204312
 30
0.0
 11
272.13250211273089
 21
954.08387890204324
 31
0.0
  0
LINE
  5
61DC
  8
ﾃ_ﾌ_ﾙ
 10
272.2325021127308
 20
954.08387890204324
 30
0.0
 11
263.63250211273089
 21
954.08387890204324
 31
0.0
  0
LINE
  5
61DD
  8
ﾃ_ﾌ_ﾙ
 10
690.13250211273078
 20
955.08387890204312
 30
0.0
 11
690.13250211273078
 21
954.08387890204324
 31
0.0
  0
LINE
  5
61DE
  8
ﾃ_ﾌ_ﾙ
 10
690.03250211273098
 20
954.08387890204324
 30
0.0
 11
698.63250211273078
 21
954.08387890204324
 31
0.0
  0
LINE
  5
61DF
  8
ﾃ_ﾌ_ﾙ0
 10
690.03250211273075
 20
954.08387890204324
 30
0.0
 11
272.2325021127308
 21
954.08387890204324
 31
0.0
  0
LINE
  5
61E0
  8
ﾃ_ﾌ_ﾙ0
 10
263.63250211273089
 20
514.08387890204312
 30
0.0
 11
698.63250211273078
 21
514.08387890204312
 31
0.0
  0
LINE
  5
61E1
  8
ﾃ_ﾌ_ﾙ0
 10
690.13250211273078
 20
505.08387890204301
 30
0.0
 11
690.13250211273078
 21
954.08387890204324
 31
0.0
  0
LINE
  5
61E2
  8
ﾃ_ﾌ_ﾙ0
 10
689.13250211273078
 20
954.08387890204324
 30
0.0
 11
689.13250211273078
 21
505.08387890204301
 31
0.0
  0
LINE
  5
61E3
  8
ﾃ_ﾌ_ﾙ0
 10
264.63250211273089
 20
505.08387890204301
 30
0.0
 11
697.63250211273078
 21
505.08387890204301
 31
0.0
  0
LINE
  5
61E4
  8
ﾃ_ﾌ_ﾙ0
 10
697.63250211273078
 20
514.08387890204312
 30
0.0
 11
697.63250211273078
 21
505.08387890204301
 31
0.0
  0
LINE
  5
61E5
  8
ﾃ_ﾌ_ﾙ0
 10
670.03250211273087
 20
954.08387890204324
 30
0.0
 11
670.03250211273087
 21
505.08387890204301
 31
0.0
  0
LINE
  5
61E6
  8
ﾃ_ﾌ_ﾙ0
 10
272.13250211273089
 20
505.08387890204301
 30
0.0
 11
272.13250211273089
 21
954.08387890204324
 31
0.0
  0
LINE
  5
61E7
  8
ﾃ_ﾌ_ﾙ0
 10
273.13250211273089
 20
954.08387890204324
 30
0.0
 11
273.13250211273089
 21
505.08387890204301
 31
0.0
  0
LINE
  5
61E8
  8
ﾃ_ﾌ_ﾙ0
 10
264.63250211273089
 20
514.08387890204312
 30
0.0
 11
264.63250211273089
 21
505.08387890204301
 31
0.0
  0
LINE
  5
61E9
  8
ﾃ_ﾌ_ﾙ0
 10
292.2325021127308
 20
954.08387890204324
 30
0.0
 11
292.2325021127308
 21
505.08387890204301
 31
0.0
  0
LINE
  5
61EA
  8
ﾃ_ﾌ_ﾙ0
 10
689.13250211273078
 20
541.58387890204312
 30
0.0
 11
690.13250211273078
 21
541.58387890204312
 31
0.0
  0
LINE
  5
61EB
  8
ﾃ_ﾌ_ﾙ0
 10
689.13250211273078
 20
537.38387890204331
 30
0.0
 11
690.13250211273078
 21
537.38387890204331
 31
0.0
  0
LINE
  5
61EC
  8
ﾃ_ﾌ_ﾙ0
 10
689.13250211273078
 20
744.78387890204385
 30
0.0
 11
690.13250211273078
 21
744.78387890204385
 31
0.0
  0
LINE
  5
61ED
  8
ﾃ_ﾌ_ﾙ0
 10
689.13250211273078
 20
740.58387890204312
 30
0.0
 11
690.13250211273078
 21
740.58387890204312
 31
0.0
  0
LINE
  5
61EE
  8
ﾃ_ﾌ_ﾙ0
 10
689.13250211273078
 20
947.98387890204276
 30
0.0
 11
690.13250211273078
 21
947.98387890204276
 31
0.0
  0
LINE
  5
61EF
  8
ﾃ_ﾌ_ﾙ0
 10
689.13250211273078
 20
943.78387890204385
 30
0.0
 11
690.13250211273078
 21
943.78387890204385
 31
0.0
  0
LINE
  5
61F0
  8
ﾃ_ﾌ_ﾙ0
 10
273.13250211273089
 20
541.58387890204312
 30
0.0
 11
272.13250211273089
 21
541.58387890204312
 31
0.0
  0
LINE
  5
61F1
  8
ﾃ_ﾌ_ﾙ0
 10
273.13250211273089
 20
537.38387890204331
 30
0.0
 11
272.13250211273089
 21
537.38387890204331
 31
0.0
  0
LINE
  5
61F2
  8
ﾃ_ﾌ_ﾙ0
 10
273.13250211273089
 20
744.78387890204385
 30
0.0
 11
272.13250211273089
 21
744.78387890204385
 31
0.0
  0
LINE
  5
61F3
  8
ﾃ_ﾌ_ﾙ0
 10
273.13250211273089
 20
740.58387890204312
 30
0.0
 11
272.13250211273089
 21
740.58387890204312
 31
0.0
  0
LINE
  5
61F4
  8
ﾃ_ﾌ_ﾙ0
 10
273.13250211273089
 20
947.98387890204276
 30
0.0
 11
272.13250211273089
 21
947.98387890204276
 31
0.0
  0
LINE
  5
61F5
  8
ﾃ_ﾌ_ﾙ0
 10
273.13250211273089
 20
943.78387890204385
 30
0.0
 11
272.13250211273089
 21
943.78387890204385
 31
0.0
  0
LINE
  5
61F6
  8
ﾃ_ﾌ_ﾙ0
 10
469.38250211273089
 20
955.08387890204312
 30
0.0
 11
469.38250211273089
 21
954.08387890204324
 31
0.0
  0
LINE
  5
61F7
  8
ﾃ_ﾌ_ﾙ0
 10
472.88250211273089
 20
955.08387890204312
 30
0.0
 11
472.88250211273089
 21
954.08387890204324
 31
0.0
  0
LINE
  5
61F8
  8
ﾃ_ﾌ_ﾙ0
 10
489.38250211273089
 20
955.08387890204312
 30
0.0
 11
489.38250211273089
 21
954.08387890204324
 31
0.0
  0
LINE
  5
61F9
  8
ﾃ_ﾌ_ﾙ0
 10
492.88250211273078
 20
955.08387890204312
 30
0.0
 11
492.88250211273078
 21
954.08387890204324
 31
0.0
  0
LINE
  5
61FA
  8
ﾃ_ﾌ_ﾙ0
 10
432.38250211273089
 20
505.08387890204301
 30
0.0
 11
432.38250211273089
 21
504.08387890204312
 31
0.0
  0
LINE
  5
61FB
  8
ﾃ_ﾌ_ﾙ0
 10
529.88250211273078
 20
504.08387890204312
 30
0.0
 11
529.88250211273078
 21
505.08387890204301
 31
0.0
  0
LINE
  5
61FC
  8
ﾃ_ﾌ_ﾙ0
 10
273.13250211273089
 20
541.58387890204312
 30
0.0
 11
272.13250211273089
 21
541.58387890204312
 31
0.0
  0
LINE
  5
61FD
  8
ﾃ_ﾌ_ﾙ0
 10
273.13250211273089
 20
537.38387890204331
 30
0.0
 11
272.13250211273089
 21
537.38387890204331
 31
0.0
  0
LINE
  5
61FE
  8
ﾃ_ﾌ_ﾙ0
 10
273.13250211273089
 20
744.78387890204385
 30
0.0
 11
272.13250211273089
 21
744.78387890204385
 31
0.0
  0
LINE
  5
61FF
  8
ﾃ_ﾌ_ﾙ0
 10
273.13250211273089
 20
740.58387890204312
 30
0.0
 11
272.13250211273089
 21
740.58387890204312
 31
0.0
  0
LINE
  5
6200
  8
ﾃ_ﾌ_ﾙ0
 10
273.13250211273089
 20
947.98387890204276
 30
0.0
 11
272.13250211273089
 21
947.98387890204276
 31
0.0
  0
LINE
  5
6201
  8
ﾃ_ﾌ_ﾙ0
 10
273.13250211273089
 20
943.78387890204385
 30
0.0
 11
272.13250211273089
 21
943.78387890204385
 31
0.0
  0
LINE
  5
6234
  8
ボ_ルスライド0
 10
262.63250211273089
 20
971.08387890204312
 30
0.0
 11
262.63250211273089
 21
514.08387890204312
 31
0.0
  0
LINE
  5
6235
  8
ボ_ルスライド0
 10
270.63250211273089
 20
971.08387890204312
 30
0.0
 11
270.63250211273089
 21
514.08387890204312
 31
0.0
  0
LINE
  5
6236
  8
ボ_ルスライド0
 10
270.63250211273089
 20
971.08387890204312
 30
0.0
 11
262.63250211273089
 21
971.08387890204312
 31
0.0
  0
LINE
  5
6237
  8
ボ_ルスライド0
 10
262.63250211273089
 20
514.08387890204312
 30
0.0
 11
270.63250211273089
 21
514.08387890204312
 31
0.0
  0
LINE
  5
6238
  8
ボ_ルスライド0
 10
263.13250211273061
 20
514.08387890204312
 30
0.0
 11
263.13250211273061
 21
971.28387890204306
 31
0.0
  0
LINE
  5
6239
  8
ボ_ルスライド0
 10
272.13250211273072
 20
514.08387890204312
 30
0.0
 11
272.13250211273072
 21
971.28387890204306
 31
0.0
  0
LINE
  5
623A
  8
ボ_ルスライド0
 10
272.13250211273072
 20
514.08387890204312
 30
0.0
 11
263.13250211273061
 21
514.08387890204312
 31
0.0
  0
LINE
  5
623B
  8
ボ_ルスライド0
 10
263.13250211273061
 20
971.28387890204306
 30
0.0
 11
272.13250211273072
 21
971.28387890204306
 31
0.0
  0
LINE
  5
623C
  8
ボ_ルスライド0
 10
699.63250211273089
 20
971.08387890204312
 30
0.0
 11
699.63250211273089
 21
514.08387890204312
 31
0.0
  0
LINE
  5
623D
  8
ボ_ルスライド0
 10
691.63250211273089
 20
971.08387890204312
 30
0.0
 11
691.63250211273089
 21
514.08387890204312
 31
0.0
  0
LINE
  5
623E
  8
ボ_ルスライド0
 10
691.63250211273089
 20
971.08387890204312
 30
0.0
 11
699.63250211273089
 21
971.08387890204312
 31
0.0
  0
LINE
  5
623F
  8
ボ_ルスライド0
 10
699.63250211273089
 20
514.08387890204312
 30
0.0
 11
691.63250211273089
 21
514.08387890204312
 31
0.0
  0
LINE
  5
6240
  8
ボ_ルスライド0
 10
699.13250211273089
 20
514.08387890204312
 30
0.0
 11
699.13250211273089
 21
971.28387890204306
 31
0.0
  0
LINE
  5
6241
  8
ボ_ルスライド0
 10
690.13250211273078
 20
514.08387890204312
 30
0.0
 11
690.13250211273078
 21
971.28387890204306
 31
0.0
  0
LINE
  5
6242
  8
ボ_ルスライド0
 10
690.13250211273078
 20
514.08387890204312
 30
0.0
 11
699.13250211273089
 21
514.08387890204312
 31
0.0
  0
LINE
  5
6243
  8
ボ_ルスライド0
 10
699.13250211273089
 20
971.28387890204306
 30
0.0
 11
690.13250211273078
 21
971.28387890204306
 31
0.0
  0
INSERT
  5
62F7
  8
ﾋ_ｽ
  2
バインドM4_6
 10
1511.866100043876
 20
268.52545823518312
 30
0.0
  0
INSERT
  5
62F8
  8
ﾋ_ｽ
  2
バインドM4_6ヨコ
 10
1547.079602223647
 20
268.52545823518312
 30
0.0
  0
INSERT
  5
62F9
  8
ﾋ_ｽ
  2
サラM3_5
 10
1880.163006155002
 20
268.52545823518312
 30
0.0
  0
INSERT
  5
62FA
  8
ﾋ_ｽ
  2
サラM3_5ヨコ
 10
1901.2750105722239
 20
268.52545823518312
 30
0.0
  0
INSERT
  5
62FB
  8
ﾋ_ｽ
  2
バインドM3_5
 10
1760.660247196246
 20
268.52545823518312
 30
0.0
  0
INSERT
  5
62FC
  8
ﾋ_ｽ
  2
バインドM3_5ヨコ
 10
1794.873749376017
 20
268.52545823518312
 30
0.0
  0
INSERT
  5
62FD
  8
ﾋ_ｽ
  2
ナットM4
 10
1641.265408142403
 20
268.52545823518312
 30
0.0
  0
INSERT
  5
62FE
  8
ﾋ_ｽ
  2
ナットM4ヨコ
 10
1664.493966346256
 20
268.52545823518312
 30
0.0
  0
LINE
  5
6300
  8
ﾃ_ﾌ_ﾙ0
 10
962.11583015771748
 20
504.08410841484169
 30
0.0
 11
962.11583015771748
 21
174.88410841484139
 31
0.0
  0
LINE
  5
6301
  8
ﾃ_ﾌ_ﾙ0
 10
961.11583015771748
 20
173.88410841484139
 30
0.0
 11
920.11583015771748
 21
173.88410841484139
 31
0.0
  0
ARC
  5
6302
  8
ﾃ_ﾌ_ﾙ0
 10
961.11583015771748
 20
174.88410841484139
 30
0.0
 40
1.0
 50
270.0
 51
0.0
1001
GENIUS_GENOBJ-N-FIL_13
1002
{
1000
OWNER
1000
GEN
1002
}
1001
GENIUS_GENODEF_13
1002
{
1000
HIER
1070
     0
1002
}
1002
{
1000
MANEDIT
1070
     0
1002
}
1002
{
1000
NOSEL
1070
     0
1002
}
1002
{
1000
BEHIND
1070
     0
1002
}
1002
{
1000
OTHER
1070
     0
1002
}
1002
{
1000
REACTOR
1002
}
  0
ARC
  5
6303
  8
ﾃ_ﾌ_ﾙ0
 10
920.11583015771748
 20
174.88410841484139
 30
0.0
 40
1.0
 50
180.0
 51
270.0
1001
GENIUS_GENOBJ-N-FIL_13
1002
{
1000
OWNER
1000
GEN
1002
}
1001
GENIUS_GENODEF_13
1002
{
1000
HIER
1070
     0
1002
}
1002
{
1000
MANEDIT
1070
     0
1002
}
1002
{
1000
NOSEL
1070
     0
1002
}
1002
{
1000
BEHIND
1070
     0
1002
}
1002
{
1000
OTHER
1070
     0
1002
}
1002
{
1000
REACTOR
1002
}
  0
LINE
  5
6304
  8
ﾃ_ﾌ_ﾙ0
 10
919.11583015771748
 20
174.88410841484139
 30
0.0
 11
919.11583015771748
 21
504.08410841484169
 31
0.0
  0
LINE
  5
6305
  8
ﾃ_ﾌ_ﾙ0
 10
920.11583015771748
 20
504.08410841484169
 30
0.0
 11
920.11583015771748
 21
173.88410841484139
 31
0.0
  0
LINE
  5
6306
  8
ﾃ_ﾌ_ﾙ0
 10
920.11583015771748
 20
183.88387890204311
 30
0.0
 11
961.11583015771748
 21
183.88387890204311
 31
0.0
  0
LINE
  5
6307
  8
ﾃ_ﾌ_ﾙ0
 10
961.11583015771748
 20
173.88410841484139
 30
0.0
 11
961.11583015771748
 21
504.08410841484169
 31
0.0
  0
LINE
  5
6308
  8
ﾃ_ﾌ_ﾙ0
 10
961.11583015771748
 20
183.88387890204311
 30
0.0
 11
962.11583015771748
 21
183.88387890204311
 31
0.0
  0
LINE
  5
6309
  8
ﾃ_ﾌ_ﾙ0
 10
921.11583015771737
 20
504.08410841484169
 30
0.0
 11
921.11583015771737
 21
174.88410841484139
 31
0.0
  0
LINE
  5
630A
  8
ﾃ_ﾌ_ﾙ0
 10
920.11583015771748
 20
174.88410841484139
 30
0.0
 11
961.11583015771748
 21
174.88410841484139
 31
0.0
  0
CIRCLE
  5
630B
  8
ﾃ_ﾌ_ﾙ0
 10
940.61583015771748
 20
412.48387890204287
 30
0.0
 40
2.1000000000000001
  0
CIRCLE
  5
630C
  8
ﾃ_ﾌ_ﾙ0
 10
940.61583015771748
 20
209.2838789020432
 30
0.0
 40
2.1000000000000001
  0
CIRCLE
  5
630E
  8
補強金具
 10
941.11583015771737
 20
942.38387890204319
 30
0.0
 40
1.6000000000000001
  0
CIRCLE
  5
630F
  8
補強金具
 10
941.11583015771737
 20
955.08387890204312
 30
0.0
 40
1.6000000000000001
  0
ARC
  5
6310
  8
補強金具
 10
959.11583015771726
 20
972.68387890204349
 30
0.0
 40
1.6000000000000001
 50
270.0
 51
0.0
1001
GENIUS_GENODEF_13
1002
{
1000
HIER
1070
     0
1002
}
1002
{
1000
MANEDIT
1070
     0
1002
}
1002
{
1000
NOSEL
1070
     0
1002
}
1002
{
1000
BEHIND
1070
     0
1002
}
1002
{
1000
REACTOR
1002
}
1001
GENIUS_GENOBJ-N-FIL_13
1002
{
1000
OWNER
1000
GEN
1002
}
  0
ARC
  5
6311
  8
補強金具
 10
923.11583015771782
 20
972.68387890204349
 30
0.0
 40
1.6000000000000001
 50
180.0
 51
270.0
1001
GENIUS_GENODEF_13
1002
{
1000
HIER
1070
     0
1002
}
1002
{
1000
MANEDIT
1070
     0
1002
}
1002
{
1000
NOSEL
1070
     0
1002
}
1002
{
1000
BEHIND
1070
     0
1002
}
1002
{
1000
REACTOR
1002
}
1001
GENIUS_GENOBJ-N-FIL_13
1002
{
1000
OWNER
1000
GEN
1002
}
  0
LINE
  5
6312
  8
補強金具
 10
959.11583015771748
 20
981.08387890204312
 30
0.0
 11
960.71583015771751
 21
981.08387890204312
 31
0.0
  0
LINE
  5
6313
  8
補強金具
 10
921.51583015771735
 20
981.08387890204312
 30
0.0
 11
923.11583015771737
 21
981.08387890204312
 31
0.0
  0
LINE
  5
6314
  8
補強金具
 10
923.11583015771737
 20
972.68387890204349
 30
0.0
 11
959.11583015771748
 21
972.68387890204349
 31
0.0
  0
LINE
  5
6315
  8
補強金具0
 10
923.11583015771737
 20
971.18387890204338
 30
0.0
 11
959.11583015771748
 21
971.18387890204338
 31
0.0
  0
LINE
  5
6316
  8
補強金具
 10
921.51583015771735
 20
981.08387890204312
 30
0.0
 11
921.51583015771735
 21
972.68387890204349
 31
0.0
  0
LINE
  5
6317
  8
補強金具
 10
923.11583015771737
 20
981.08387890204312
 30
0.0
 11
923.11583015771737
 21
932.68387890204349
 31
0.0
  0
LINE
  5
6318
  8
補強金具
 10
959.11583015771748
 20
981.08387890204312
 30
0.0
 11
959.11583015771748
 21
932.68387890204349
 31
0.0
  0
LINE
  5
6319
  8
補強金具
 10
960.71583015771751
 20
981.08387890204312
 30
0.0
 11
960.71583015771751
 21
972.68387890204349
 31
0.0
  0
LINE
  5
631A
  8
補強金具
 10
923.11583015771737
 20
932.68387890204349
 30
0.0
 11
959.11583015771748
 21
932.68387890204349
 31
0.0
  0
CIRCLE
  5
631B
  8
補強金具0
 62
     5
 10
941.11583015771737
 20
942.38387890204319
 30
0.0
 40
2.0
  0
CIRCLE
  5
631C
  8
補強金具0
 62
     5
 10
941.11583015771737
 20
955.08387890204312
 30
0.0
 40
2.0
  0
VIEWPORT
  5
17C
 67
     1
  8
0
 10
133.34999084472651
 20
101.5999970436096
 30
0.0
 40
370.22669129365238
 41
228.4221935424805
 68
     1
 69
     1
1001
ACAD
1000
MVIEW
1002
{
1070
    16
1010
0.0
1020
0.0
1030
0.0
1010
0.0
1020
0.0
1030
1.0
1040
0.0
1040
228.4221935424805
1040
133.34999084472651
1040
101.5999970436096
1040
50.0
1040
0.0
1040
0.0
1070
     0
1070
   100
1070
     1
1070
     1
1070
     0
1070
     0
1070
     0
1070
     0
1040
0.0
1040
0.0
1040
0.0
1040
10.0
1040
10.0
1040
10.0
1040
10.0
1070
     0
1002
{
1002
}
1002
}
1001
GENIUS_GENODEF_13
1002
{
1000
HIER
1070
     0
1002
}
1002
{
1000
MANEDIT
1070
     0
1002
}
1002
{
1000
NOSEL
1070
     0
1002
}
1002
{
1000
BEHIND
1070
     0
1002
}
1002
{
1000
OTHER
1070
     0
1002
}
1002
{
1000
REACTOR
1002
}
1001
GENIUS_GENOBJ-N-SDF_13
1002
{
1000
OWNER
1000
GEN
1002
}
1001
GENIUS_GENSCREG_15
1000
PF
1040
1.0
1000
DF
1040
1.0
1000
MIN
1011
-51.763354802099627
1021
0.0
1031
0.0
1021
-12.6110997276306
1031
0.0
1000
MAX
1011
318.4633364915527
1021
0.0
1031
0.0
1021
215.8110938148499
1031
0.0
1000
FLAGS
1070
     4
  0
ENDSEC
  0
EOF
