  0
SECTION
  2
HEADER
  9
$ACADVER
  1
AC1009
  9
$INSBASE
 10
0.0
 20
0.0
 30
0.0
  9
$EXTMIN
 10
-0.1229670717752924
 20
-0.0854361789015457
 30
-374.40917010531859
  9
$EXTMAX
 10
1612.0000075073769
 20
1120.0000052160431
 30
0.0000017435584141
  9
$LIMMIN
 10
0.0
 20
0.0
  9
$LIMMAX
 10
1612.0
 20
1120.0
  9
$ORTHOMODE
 70
     1
  9
$REGENMODE
 70
     1
  9
$FILLMODE
 70
     1
  9
$QTEXTMODE
 70
     0
  9
$MIRRTEXT
 70
     1
  9
$DRAGMODE
 70
     2
  9
$LTSCALE
 40
4.0
  9
$OSMODE
 70
   431
  9
$ATTMODE
 70
     1
  9
$TEXTSIZE
 40
73.985717453579113
  9
$TRACEWID
 40
1.0
  9
$TEXTSTYLE
  7
STANDARD
  9
$CLAYER
  8
AM_7N
  9
$CELTYPE
  6
BYLAYER
  9
$CECOLOR
 62
   256
  9
$DIMSCALE
 40
4.0
  9
$DIMASZ
 40
2.5
  9
$DIMEXO
 40
1.0
  9
$DIMDLI
 40
10.0
  9
$DIMRND
 40
0.0
  9
$DIMDLE
 40
0.0
  9
$DIMEXE
 40
1.0
  9
$DIMTP
 40
0.1
  9
$DIMTM
 40
0.1
  9
$DIMTXT
 40
3.5
  9
$DIMCEN
 40
0.0
  9
$DIMTSZ
 40
0.0
  9
$DIMTOL
 70
     0
  9
$DIMLIM
 70
     0
  9
$DIMTIH
 70
     0
  9
$DIMTOH
 70
     0
  9
$DIMSE1
 70
     0
  9
$DIMSE2
 70
     0
  9
$DIMTAD
 70
     1
  9
$DIMZIN
 70
     8
  9
$DIMBLK
  1
OPEN30
  9
$DIMASO
 70
     1
  9
$DIMSHO
 70
     1
  9
$DIMPOST
  1

  9
$DIMAPOST
  1
"
  9
$DIMALT
 70
     0
  9
$DIMALTD
 70
     2
  9
$DIMALTF
 40
0.0393701
  9
$DIMLFAC
 40
1.0
  9
$DIMTOFL
 70
     1
  9
$DIMTVP
 40
0.0
  9
$DIMTIX
 70
     0
  9
$DIMSOXD
 70
     0
  9
$DIMSAH
 70
     0
  9
$DIMBLK1
  1

  9
$DIMBLK2
  1

  9
$DIMSTYLE
  2
AM_ISO
  9
$DIMCLRD
 70
   256
  9
$DIMCLRE
 70
   256
  9
$DIMCLRT
 70
     2
  9
$DIMTFAC
 40
0.71
  9
$DIMGAP
 40
1.5
  9
$LUNITS
 70
     2
  9
$LUPREC
 70
     2
  9
$SKETCHINC
 40
1.0
  9
$FILLETRAD
 40
2.2999999999999989
  9
$AUNITS
 70
     0
  9
$AUPREC
 70
     0
  9
$MENU
  1
.
  9
$ELEVATION
 40
0.0
  9
$PELEVATION
 40
0.0
  9
$THICKNESS
 40
0.0
  9
$LIMCHECK
 70
     0
  9
$BLIPMODE
 70
     0
  9
$CHAMFERA
 40
10.0
  9
$CHAMFERB
 40
10.0
  9
$SKPOLY
 70
     0
  9
$TDCREATE
 40
2453509.7781942599
  9
$TDUPDATE
 40
2455077.550909468
  9
$TDINDWG
 40
0.4052570833
  9
$TDUSRTIMER
 40
0.4052570833
  9
$USRTIMER
 70
     1
  9
$ANGBASE
 50
0.0
  9
$ANGDIR
 70
     0
  9
$PDMODE
 70
     0
  9
$PDSIZE
 40
0.0
  9
$PLINEWID
 40
0.0
  9
$COORDS
 70
     0
  9
$SPLFRAME
 70
     0
  9
$SPLINETYPE
 70
     6
  9
$SPLINESEGS
 70
     8
  9
$ATTDIA
 70
     1
  9
$ATTREQ
 70
     1
  9
$HANDLING
 70
     1
  9
$HANDSEED
  5
5159
  9
$SURFTAB1
 70
     6
  9
$SURFTAB2
 70
     6
  9
$SURFTYPE
 70
     6
  9
$SURFU
 70
     6
  9
$SURFV
 70
     6
  9
$UCSNAME
  2

  9
$UCSORG
 10
0.0
 20
0.0
 30
0.0
  9
$UCSXDIR
 10
1.0
 20
0.0
 30
0.0
  9
$UCSYDIR
 10
0.0
 20
1.0
 30
0.0
  9
$PUCSNAME
  2

  9
$PUCSORG
 10
0.0
 20
0.0
 30
0.0
  9
$PUCSXDIR
 10
1.0
 20
0.0
 30
0.0
  9
$PUCSYDIR
 10
0.0
 20
1.0
 30
0.0
  9
$USERI1
 70
     0
  9
$USERI2
 70
     0
  9
$USERI3
 70
     0
  9
$USERI4
 70
     0
  9
$USERI5
 70
     0
  9
$USERR1
 40
0.0
  9
$USERR2
 40
0.0
  9
$USERR3
 40
0.0
  9
$USERR4
 40
0.0
  9
$USERR5
 40
0.0
  9
$WORLDVIEW
 70
     1
  9
$SHADEDGE
 70
     3
  9
$SHADEDIF
 70
    70
  9
$TILEMODE
 70
     1
  9
$MAXACTVP
 70
    64
  9
$PLIMCHECK
 70
     0
  9
$PEXTMIN
 10
1.0000000000000000E+020
 20
1.0000000000000000E+020
 30
1.0000000000000000E+020
  9
$PEXTMAX
 10
-1.0000000000000000E+020
 20
-1.0000000000000000E+020
 30
-1.0000000000000000E+020
  9
$PLIMMIN
 10
-6.350006103515625
 20
-6.3499999046325684
  9
$PLIMMAX
 10
273.04998779296881
 20
209.54999399185181
  9
$UNITMODE
 70
     0
  9
$VISRETAIN
 70
     1
  9
$PLINEGEN
 70
     0
  9
$PSLTSCALE
 70
     1
  0
ENDSEC
  0
SECTION
  2
TABLES
  0
TABLE
  2
VPORT
 70
     3
  0
VPORT
  2
*ACTIVE
 70
     0
 10
0.0
 20
0.0
 11
1.0
 21
1.0
 12
805.93852021780106
 22
559.95728451857065
 13
0.0
 23
0.0
 14
10.0
 24
10.0
 15
40.0
 25
40.0
 16
0.0
 26
0.0
 36
1.0
 17
0.0
 27
0.0
 37
0.0
 40
1378.409257320402
 41
1.1773142112125159
 42
50.0
 43
0.0
 44
0.0
 50
0.0
 51
0.0
 71
     0
 72
   100
 73
     1
 74
     3
 75
     0
 76
     0
 77
     0
 78
     0
  0
ENDTAB
  0
TABLE
  2
LTYPE
 70
    20
  0
LTYPE
  2
CONTINUOUS
 70
     0
  3
Solid line
 72
    65
 73
     0
 40
0.0
  0
LTYPE
  2
AM_ISO02W050
 70
     0
  3
__ __ __ __ __ __ __ __ __ __ __ __ __ __ __
 72
    65
 73
     2
 40
7.5
 49
6.0
 49
-1.5
  0
LTYPE
  2
AM_ISO08W050
 70
     0
  3
____ . ____ . ____ . ____ . ____ . ____ . ____
 72
    65
 73
     4
 40
18.0
 49
12.0
 49
-1.5
 49
3.0
 49
-1.5
  0
LTYPE
  2
AM_ISO09W050
 70
     0
  3
_____ . . _____ . . _____ . . ____ .. ____
 72
    65
 73
     6
 40
22.5
 49
12.0
 49
-1.5
 49
3.0
 49
-1.5
 49
3.0
 49
-1.5
  0
LTYPE
  2
AMCONSTR
 70
     0
  3
_______________________
 72
    65
 73
     2
 40
9999.0
 49
9999.0
 49
0.0
  0
LTYPE
  2
AM_ISO08W050X2
 70
     0
  3
__ . __ . __ . __ . __ . __
 72
    65
 73
     4
 40
9.0
 49
6.0
 49
-0.75
 49
1.5
 49
-0.75
  0
LTYPE
  2
AM_ISO02W050X2
 70
     0
  3
 _ _ _ _ _ _ _ _ _ _ _ _
 72
    65
 73
     2
 40
3.75
 49
3.0
 49
-0.75
  0
LTYPE
  2
AMZIGZAG
 70
     0
  3
/\/-/\/-/\/-/\/-/\/-/\/
 72
    65
 73
     2
 40
11.0001
 49
0.0001
 49
-11.0
  0
LTYPE
  2
ACISOWELD
 70
     0
  3
_ _ _ _ _
 72
    65
 73
     2
 40
2.0
 49
2.0
 49
-1.0
  0
LTYPE
  2
ACISOTGB
 70
     0
  3
__ . . __ . .
 72
    65
 73
     6
 40
9.0
 49
4.0
 49
-1.0
 49
1.0
 49
-1.0
 49
1.0
 49
-1.0
  0
LTYPE
  2
ACISOTGL
 70
     0
  3
_ _ _ _ _
 72
    65
 73
     2
 40
3.0
 49
2.0
 49
-1.0
  0
LTYPE
  2
CENTER
 70
     0
  3
__ . __
 72
    65
 73
     4
 40
7.0
 49
4.0
 49
-1.0
 49
1.0
 49
-1.0
  0
LTYPE
  2
HIDDEN
 70
     0
  3
Hidden __ __ __ __ __ __ __ __ __ __ __ __ __ _
 72
    65
 73
     2
 40
9.5249999999999986
 49
6.3499999999999988
 49
-3.1749999999999989
  0
LTYPE
  2
PHANTOM2
 70
     0
  3
Phantom (.5x) ___ _ _ ___ _ _ ___ _ _ ___ _ _
 72
    65
 73
     6
 40
31.75
 49
15.875
 49
-3.1749999999999989
 49
3.1749999999999989
 49
-3.1749999999999989
 49
3.1749999999999989
 49
-3.1749999999999989
  0
LTYPE
  2
GEN3
 70
     0
  3
-- -- -- -- -- -- -- -- -- -- -- -- -- -- --
 72
    65
 73
     2
 40
6.25
 49
4.75
 49
-1.5
  0
LTYPE
  2
GEN7
 70
     0
  3
____ . ____ . ____ . ____ . ____ . ____ . ____
 72
    65
 73
     4
 40
13.75
 49
9.75
 49
-1.5
 49
1.0
 49
-1.5
  0
LTYPE
  2
GEN3A
 70
     0
  3
 - - - - -
 72
    65
 73
     2
 40
3.125
 49
2.25
 49
-0.875
  0
LTYPE
  2
GEN7A
 70
     0
  3
__ . __ . __
 72
    65
 73
     4
 40
6.875
 49
4.75
 49
-0.875
 49
0.375
 49
-0.875
  0
LTYPE
  2
GEN4A
 70
     0
  3
_____ . . _____ . . _____ . . ____ .. ____
 72
    65
 73
     6
 40
16.25
 49
9.75
 49
-1.5
 49
1.0
 49
-1.5
 49
1.0
 49
-1.5
  0
LTYPE
  2
GENZIGZAG
 70
     0
  3
/\/-/\/-/\/-/\/-/\/-/\/
 72
    65
 73
     2
 40
12.0001
 49
0.0001
 49
-12.0
  0
ENDTAB
  0
TABLE
  2
LAYER
 70
    32
  0
LAYER
  2
0
 70
     0
 62
     7
  6
CONTINUOUS
  0
LAYER
  2
DEFPOINTS
 70
     0
 62
     7
  6
CONTINUOUS
  0
LAYER
  2
ﾛｯｸ金具0
 70
     0
 62
     4
  6
AM_ISO02W050X2
  0
LAYER
  2
7A
 70
     0
 62
     4
  6
GEN7A
  0
LAYER
  2
RAHM2
 70
     0
 62
     1
  6
CONTINUOUS
  0
LAYER
  2
左側板
 70
     0
 62
     2
  6
CONTINUOUS
  0
LAYER
  2
補強金具
 70
     0
 62
     3
  6
CONTINUOUS
  0
LAYER
  2
ﾃ_ﾌ_ﾙ
 70
     0
 62
     7
  6
CONTINUOUS
  0
LAYER
  2
右側板
 70
     0
 62
     5
  6
CONTINUOUS
  0
LAYER
  2
AM_5
 70
     0
 62
     3
  6
CONTINUOUS
  0
LAYER
  2
AM_12
 70
     0
 62
     7
  6
CONTINUOUS
  0
LAYER
  2
AM_PAREF
 70
     0
 62
     4
  6
CONTINUOUS
  0
LAYER
  2
AM_7
 70
     0
 62
     4
  6
AM_ISO08W050
  0
LAYER
  2
ﾃ_ﾌ_ﾙ0
 70
     0
 62
     7
  6
AM_ISO02W050
  0
LAYER
  2
保護スポンジ
 70
     0
 62
     6
  6
CONTINUOUS
  0
LAYER
  2
AM_8
 70
     0
 62
     1
  6
CONTINUOUS
  0
LAYER
  2
補強金具0
 70
     0
 62
     3
  6
AM_ISO02W050
  0
LAYER
  2
左側板0
 70
     0
 62
     2
  6
AM_ISO02W050
  0
LAYER
  2
右側板0
 70
     0
 62
     5
  6
AM_ISO02W050
  0
LAYER
  2
AM_CL
 70
     0
 62
     1
  6
AMCONSTR
  0
LAYER
  2
ボ_ルスライド
 70
     0
 62
     8
  6
CONTINUOUS
  0
LAYER
  2
ボ_ルスライド0
 70
     0
 62
     8
  6
AM_ISO02W050
  0
LAYER
  2
ﾋ_ｽ
 70
     0
 62
     8
  6
CONTINUOUS
  0
LAYER
  2
ﾋ_ｽ0
 70
     0
 62
     8
  6
AM_ISO02W050X2
  0
LAYER
  2
AM_0
 70
     0
 62
     7
  6
CONTINUOUS
  0
LAYER
  2
AM_0N
 70
     0
 62
     7
  6
CONTINUOUS
  0
LAYER
  2
AM_4
 70
     0
 62
     3
  6
CONTINUOUS
  0
LAYER
  2
AM_3
 70
     0
 62
     6
  6
AM_ISO02W050
  0
LAYER
  2
AM_6
 70
     0
 62
     2
  6
CONTINUOUS
  0
LAYER
  2
AM_9
 70
     0
 62
   253
  6
CONTINUOUS
  0
LAYER
  2
AM_7N
 70
     0
 62
     4
  6
AM_ISO08W050
  0
LAYER
  2
ﾛｯｸ金具
 70
     0
 62
     7
  6
CONTINUOUS
  0
ENDTAB
  0
TABLE
  2
STYLE
 70
     5
  0
STYLE
  2
STANDARD
 70
     0
 40
0.0
 41
1.0
 50
0.0
 71
     0
 42
73.985717453579113
  3
ISOCP.SHX
  4
bigfont.shx
  0
STYLE
  2

 70
     1
 40
0.0
 41
1.0
 50
0.0
 71
     0
 42
2.5
  3
ltypeshp.shx
  4

  0
STYLE
  2
ACISOTS
 70
     0
 40
1.0
 41
1.0
 50
0.0
 71
     0
 42
2.5
  3
isocp.shx
  4
extfont.shx
  0
STYLE
  2
ACISOGDT
 70
     0
 40
0.0
 41
1.0
 50
0.0
 71
     0
 42
2.5
  3
amgdt.shx
  4

  0
STYLE
  2

 70
     1
 40
0.0
 41
1.0
 50
0.0
 71
     0
 42
3.0
  3
genltshp.shx
  4

  0
ENDTAB
  0
TABLE
  2
VIEW
 70
     6
  0
VIEW
  2
AM_VIEW1
 70
     0
 40
684.74336283185835
 10
403.0
 20
777.62831858407094
 41
806.0
 11
0.0
 21
0.0
 31
1.0
 12
0.0
 22
0.0
 32
0.0
 42
50.0
 43
0.0
 44
0.0
 50
0.0
 71
     0
  0
VIEW
  2
AM_VIEW2
 70
     0
 40
684.74336283185835
 10
1209.0
 20
777.62831858407094
 41
806.0
 11
0.0
 21
0.0
 31
1.0
 12
0.0
 22
0.0
 32
0.0
 42
50.0
 43
0.0
 44
0.0
 50
0.0
 71
     0
  0
VIEW
  2
AM_VIEW3
 70
     0
 40
684.74336283185835
 10
403.0
 20
342.37168141592917
 41
806.0
 11
0.0
 21
0.0
 31
1.0
 12
0.0
 22
0.0
 32
0.0
 42
50.0
 43
0.0
 44
0.0
 50
0.0
 71
     0
  0
VIEW
  2
AM_VIEW4
 70
     0
 40
684.74336283185835
 10
1209.0
 20
342.37168141592917
 41
806.0
 11
0.0
 21
0.0
 31
1.0
 12
0.0
 22
0.0
 32
0.0
 42
50.0
 43
0.0
 44
0.0
 50
0.0
 71
     0
  0
VIEW
  2
AM_VIEW5
 70
     0
 40
684.74336283185835
 10
806.0
 20
560.00000000000011
 41
806.0
 11
0.0
 21
0.0
 31
1.0
 12
0.0
 22
0.0
 32
0.0
 42
50.0
 43
0.0
 44
0.0
 50
0.0
 71
     0
  0
VIEW
  2
AM_VIEW6
 70
     0
 40
1369.4730307964601
 10
806.0
 20
560.00000000000011
 41
1611.9838799999991
 11
0.0
 21
0.0
 31
1.0
 12
0.0
 22
0.0
 32
0.0
 42
50.0
 43
0.0
 44
0.0
 50
0.0
 71
     0
  0
ENDTAB
  0
TABLE
  2
UCS
 70
     0
  0
ENDTAB
  0
TABLE
  2
APPID
 70
    49
  0
APPID
  2
ACAD
 70
     0
  0
APPID
  2
MCAD_NO_VIS
 70
     0
  0
APPID
  2
ACAD_TEMP_GRAPHIC
 70
     0
  0
APPID
  2
ACATTRIBSERVICES
 70
     0
  0
APPID
  2
AD_DRAW
 70
     0
  0
APPID
  2
DESIGNERASSEMBLIES
 70
     0
  0
APPID
  2
ACADM_DIM_EDIT
 70
     0
  0
APPID
  2
AMDT_DM_ADJ
 70
     0
  0
APPID
  2
GENIUS_GENREC_14
 70
     0
  0
APPID
  2
GENIUS_GENODEF_13
 70
     0
  0
APPID
  2
GENIUS_GENOBJ-N-REC_13
 70
     0
  0
APPID
  2
GENIUS_GENDIMSH_14
 70
     0
  0
APPID
  2
GENIUS_GENCFG_13
 70
     0
  0
APPID
  2
GENIUS_GENCFG0_13
 70
     0
  0
APPID
  2
GENIUS_GENCFG1_13
 70
     0
  0
APPID
  2
GENIUS_GENCFG2_13
 70
     0
  0
APPID
  2
GENIUS_GENCFG3_13
 70
     0
  0
APPID
  2
GENIUS_GENCFG4_13
 70
     0
  0
APPID
  2
GENIUS_GEVCFG0_13
 70
     0
  0
APPID
  2
GENIUS_GENOENT_13
 70
     0
  0
APPID
  2
GENIUS_GENOBJ-N-CRS_13
 70
     0
  0
APPID
  2
GENIUS_GENOREF_13
 70
     0
  0
APPID
  2
GENIUS_GENOLIS_13
 70
     0
  0
APPID
  2
GENIUS_GENOBJ-N-TIT_13
 70
     0
  0
APPID
  2
GENIUS_GENTITLE_13
 70
     0
  0
APPID
  2
GENIUS_GENSCREG_15
 70
     0
  0
APPID
  2
GENIUS_GENOBJ-N-SDF_13
 70
     0
  0
APPID
  2
GENIUS_GENOBJ-N-CEN_13
 70
     0
  0
APPID
  2
GENIUS_GENOBJ-N-HTC_13
 70
     0
  0
APPID
  2
GENIUS_GENHATCH_13
 70
     0
  0
APPID
  2
GENIUS_GENOBJ-N-ZOO_13
 70
     0
  0
APPID
  2
GENIUS_GENZOO_17
 70
     0
  0
APPID
  2
RAK
 70
     0
  0
APPID
  2
GENIUS_GENOBJ-N-FIL_13
 70
     0
  0
APPID
  2
GENIUS_GENCEN_19
 70
     0
  0
APPID
  2
ACAD_PSEXT
 70
     0
  0
APPID
  2
GENIUS_GENDTOL_13
 70
     0
  0
APPID
  2
ACAECLAYERSTANDARD
 70
     0
  0
APPID
  2
GEVID1250837798
 70
     0
  0
APPID
  2
GEVDC
 70
     0
  0
APPID
  2
GEVCON
 70
     0
  0
APPID
  2
GENIUS_GENOBJ-F-SCPASSM_13
 70
     0
  0
APPID
  2
AMG_2DHIDE
 70
     0
  0
APPID
  2
AMG_2DSTRUCT_BTR
 70
     0
  0
APPID
  2
ACADM_2DVIEW_IGN_NOTIFY
 70
     0
  0
APPID
  2
GEVID1250837800
 70
     0
  0
APPID
  2
GEVID1250837801
 70
     0
  0
APPID
  2
GEVID1250837802
 70
     0
  0
APPID
  2
GENIUS_GENSCREG_13
 70
     0
  0
ENDTAB
  0
TABLE
  2
DIMSTYLE
 70
    24
  0
DIMSTYLE
  2
AM_ISO
 70
     0
  3

  4
"
  5
OPEN30
  6

  7

 40
1.0
 41
2.5
 42
1.0
 43
10.0
 44
1.0
 45
0.0
 46
0.0
 47
0.1
 48
0.1
140
3.5
141
0.0
142
0.0
143
0.0393701
144
1.0
145
0.0
146
0.71
147
1.5
 71
     0
 72
     0
 73
     0
 74
     0
 75
     0
 76
     0
 77
     1
 78
     8
170
     0
171
     2
172
     1
173
     0
174
     0
175
     0
176
   256
177
   256
178
     2
  0
DIMSTYLE
  2
AM_ISO$3
 70
     0
  3

  4
"
  5
OPEN30
  6

  7

 40
1.0
 41
2.5
 42
1.0
 43
10.0
 44
1.0
 45
0.0
 46
0.0
 47
0.1
 48
0.1
140
3.5
141
0.0
142
0.0
143
0.0393701
144
1.0
145
0.0
146
0.71
147
1.5
 71
     0
 72
     0
 73
     0
 74
     1
 75
     0
 76
     0
 77
     1
 78
     8
170
     0
171
     2
172
     0
173
     0
174
     0
175
     0
176
   256
177
   256
178
     2
  0
DIMSTYLE
  2
AM_ISO$4
 70
     0
  3

  4
"
  5
OPEN30
  6

  7

 40
1.0
 41
2.5
 42
1.0
 43
10.0
 44
1.0
 45
0.0
 46
0.0
 47
0.1
 48
0.1
140
3.5
141
0.0
142
0.0
143
0.0393701
144
1.0
145
0.0
146
0.71
147
1.5
 71
     0
 72
     0
 73
     0
 74
     1
 75
     0
 76
     0
 77
     1
 78
     8
170
     0
171
     2
172
     0
173
     0
174
     0
175
     0
176
   256
177
   256
178
     2
  0
DIMSTYLE
  2
AM_ISO$6
 70
     0
  3

  4
"
  5
OPEN30
  6

  7

 40
1.0
 41
2.5
 42
1.0
 43
10.0
 44
1.0
 45
0.0
 46
0.0
 47
0.1
 48
0.1
140
3.5
141
0.0
142
0.0
143
0.0393701
144
1.0
145
0.0
146
0.71
147
1.5
 71
     0
 72
     0
 73
     0
 74
     0
 75
     0
 76
     0
 77
     0
 78
     8
170
     0
171
     2
172
     1
173
     0
174
     0
175
     0
176
   256
177
   256
178
     2
  0
DIMSTYLE
  2
AM_ISO$7
 70
     0
  3

  4
"
  5
OPEN30
  6

  7

 40
1.0
 41
2.5
 42
1.0
 43
10.0
 44
1.0
 45
0.0
 46
0.0
 47
0.1
 48
0.1
140
5.0
141
0.0
142
0.0
143
0.0393701
144
1.0
145
0.0
146
0.71
147
1.5
 71
     0
 72
     0
 73
     0
 74
     0
 75
     0
 76
     0
 77
     1
 78
     8
170
     0
171
     2
172
     1
173
     0
174
     0
175
     0
176
   256
177
   256
178
     2
  0
DIMSTYLE
  2
AM_ISO$SF
 70
     0
  3

  4
"
  5
OPEN30
  6

  7

 40
1.0
 41
2.5
 42
1.0
 43
10.0
 44
1.0
 45
0.0
 46
0.0
 47
0.1
 48
0.1
140
3.5
141
0.0
142
0.0
143
0.0393701
144
1.0
145
0.0
146
0.71
147
1.5
 71
     0
 72
     0
 73
     0
 74
     0
 75
     1
 76
     1
 77
     1
 78
     8
170
     0
171
     2
172
     1
173
     0
174
     0
175
     0
176
   256
177
   256
178
     2
  0
DIMSTYLE
  2
AM_ISO$SH
 70
     0
  3

  4
"
  5

  6
GENAXEH
  7
OPEN30
 40
1.0
 41
2.5
 42
1.0
 43
10.0
 44
1.0
 45
0.0
 46
0.0
 47
0.1
 48
0.1
140
3.5
141
0.0
142
0.0
143
0.0393701
144
2.0
145
0.0
146
0.71
147
1.5
 71
     0
 72
     0
 73
     0
 74
     0
 75
     1
 76
     1
 77
     1
 78
     8
170
     0
171
     2
172
     1
173
     1
174
     0
175
     0
176
   256
177
   256
178
     2
  0
DIMSTYLE
  2
GEN-ISO
 70
     0
  3

  4
"
  5

  6

  7

 40
1.0
 41
2.5
 42
1.0
 43
10.0
 44
1.0
 45
0.0
 46
0.0
 47
0.1
 48
0.1
140
3.5
141
0.0
142
0.0
143
0.0393701
144
1.0
145
0.0
146
0.71
147
1.5
 71
     0
 72
     0
 73
     0
 74
     0
 75
     0
 76
     0
 77
     1
 78
     8
170
     0
171
     2
172
     1
173
     0
174
     0
175
     0
176
   256
177
   256
178
     2
  0
DIMSTYLE
  2
GEN-ISO$3
 70
     0
  3

  4
"
  5

  6

  7

 40
1.0
 41
2.5
 42
1.0
 43
10.0
 44
1.0
 45
0.0
 46
0.0
 47
0.1
 48
0.1
140
3.5
141
0.0
142
0.0
143
0.0393701
144
1.0
145
0.0
146
0.71
147
1.5
 71
     0
 72
     0
 73
     0
 74
     1
 75
     0
 76
     0
 77
     1
 78
     8
170
     0
171
     2
172
     0
173
     0
174
     0
175
     0
176
   256
177
   256
178
     2
  0
DIMSTYLE
  2
GEN-ISO$4
 70
     0
  3

  4
"
  5

  6

  7

 40
1.0
 41
2.5
 42
1.0
 43
10.0
 44
1.0
 45
0.0
 46
0.0
 47
0.1
 48
0.1
140
3.5
141
0.0
142
0.0
143
0.0393701
144
1.0
145
0.0
146
0.71
147
1.5
 71
     0
 72
     0
 73
     0
 74
     1
 75
     0
 76
     0
 77
     1
 78
     8
170
     0
171
     2
172
     0
173
     0
174
     0
175
     0
176
   256
177
   256
178
     2
  0
DIMSTYLE
  2
GEN-ISO$6
 70
     0
  3

  4
"
  5

  6

  7

 40
1.0
 41
2.5
 42
1.0
 43
10.0
 44
1.0
 45
0.0
 46
0.0
 47
0.1
 48
0.1
140
3.5
141
0.0
142
0.0
143
0.0393701
144
1.0
145
0.0
146
0.71
147
1.5
 71
     0
 72
     0
 73
     0
 74
     0
 75
     0
 76
     0
 77
     0
 78
     8
170
     0
171
     2
172
     0
173
     0
174
     0
175
     0
176
   256
177
   256
178
     2
  0
DIMSTYLE
  2
GEN-ISO-POS
 70
     0
  3

  4
"
  5

  6

  7

 40
1.0
 41
2.5
 42
1.0
 43
10.0
 44
1.0
 45
0.0
 46
0.0
 47
0.1
 48
0.1
140
5.0
141
0.0
142
0.0
143
0.0393701
144
1.0
145
0.0
146
0.71
147
1.5
 71
     0
 72
     0
 73
     0
 74
     0
 75
     0
 76
     0
 77
     0
 78
     8
170
     0
171
     2
172
     0
173
     0
174
     0
175
     0
176
   256
177
   256
178
     2
  0
DIMSTYLE
  2
GEN-ISO-AXE-F
 70
     0
  3

  4
"
  5

  6

  7

 40
1.0
 41
2.5
 42
1.0
 43
10.0
 44
1.0
 45
0.0
 46
0.0
 47
0.1
 48
0.1
140
3.5
141
0.0
142
0.0
143
0.0393701
144
1.0
145
0.0
146
0.71
147
1.5
 71
     0
 72
     0
 73
     0
 74
     0
 75
     1
 76
     1
 77
     1
 78
     8
170
     0
171
     2
172
     1
173
     0
174
     0
175
     0
176
   256
177
   256
178
     2
  0
DIMSTYLE
  2
GEN-ISO-AXE-H
 70
     0
  3

  4
"
  5

  6

  7

 40
1.0
 41
2.5
 42
1.0
 43
10.0
 44
1.0
 45
0.0
 46
0.0
 47
0.1
 48
0.1
140
3.5
141
0.0
142
0.0
143
0.0393701
144
2.0
145
0.0
146
0.71
147
1.5
 71
     0
 72
     0
 73
     0
 74
     0
 75
     1
 76
     1
 77
     1
 78
     8
170
     0
171
     2
172
     1
173
     1
174
     0
175
     0
176
   256
177
   256
178
     2
  0
DIMSTYLE
  2
ISO-25
 70
     0
  3

  4

  5

  6

  7

 40
1.0
 41
2.5
 42
0.625
 43
3.75
 44
1.25
 45
0.0
 46
0.0
 47
0.0
 48
0.0
140
2.5
141
2.5
142
0.0
143
0.03937007874016
144
1.0
145
0.0
146
1.0
147
0.625
 71
     0
 72
     0
 73
     0
 74
     0
 75
     0
 76
     0
 77
     1
 78
     8
170
     0
171
     3
172
     1
173
     0
174
     0
175
     0
176
     0
177
     0
178
     0
  0
DIMSTYLE
  2
AM_JIS
 70
     0
  3

  4
"
  5
OPEN30
  6

  7

 40
1.0
 41
2.5
 42
1.0
 43
10.0
 44
1.0
 45
0.0
 46
0.0
 47
0.1
 48
0.1
140
3.5
141
0.0
142
0.0
143
0.0393701
144
1.0
145
0.0
146
0.71
147
1.5
 71
     0
 72
     0
 73
     0
 74
     0
 75
     0
 76
     0
 77
     3
 78
     8
170
     0
171
     2
172
     1
173
     0
174
     0
175
     0
176
   256
177
   256
178
     2
  0
DIMSTYLE
  2
AM_ANSI
 70
     0
  3

  4
mm
  5

  6

  7

 40
1.0
 41
0.1
 42
0.05
 43
0.5
 44
0.1
 45
0.0
 46
0.0
 47
0.1
 48
0.1
140
0.12
141
0.0
142
0.0
143
25.399999999999999
144
1.0
145
0.0
146
0.71
147
0.06
 71
     0
 72
     0
 73
     1
 74
     1
 75
     0
 76
     0
 77
     0
 78
     7
170
     0
171
     2
172
     0
173
     0
174
     0
175
     0
176
   256
177
   256
178
     2
  0
DIMSTYLE
  2
AM_ISO$0
 70
     0
  3

  4
"
  5
OPEN30
  6

  7

 40
1.0
 41
2.5
 42
1.0
 43
10.0
 44
1.0
 45
0.0
 46
0.0
 47
0.1
 48
0.1
140
3.5
141
0.0
142
0.0
143
0.0393701
144
1.0
145
0.0
146
0.71
147
1.5
 71
     0
 72
     0
 73
     0
 74
     0
 75
     0
 76
     0
 77
     1
 78
     8
170
     0
171
     2
172
     1
173
     0
174
     0
175
     0
176
   256
177
   256
178
     2
  0
DIMSTYLE
  2
AM_JIS$3
 70
     0
  3

  4
"
  5
OPEN30
  6
OPEN30
  7
OPEN30
 40
1.0
 41
2.5
 42
1.0
 43
10.0
 44
1.0
 45
0.0
 46
0.0
 47
0.1
 48
0.1
140
3.5
141
0.0
142
0.0
143
0.0393701
144
1.0
145
0.0
146
0.71
147
1.5
 71
     0
 72
     0
 73
     0
 74
     1
 75
     0
 76
     0
 77
     3
 78
     8
170
     0
171
     2
172
     0
173
     0
174
     0
175
     0
176
   256
177
   256
178
     2
  0
DIMSTYLE
  2
AM_JIS$4
 70
     0
  3

  4
"
  5
OPEN30
  6
OPEN30
  7
OPEN30
 40
1.0
 41
2.5
 42
1.0
 43
10.0
 44
1.0
 45
0.0
 46
0.0
 47
0.1
 48
0.1
140
3.5
141
0.0
142
0.0
143
0.0393701
144
1.0
145
0.0
146
0.71
147
1.5
 71
     0
 72
     0
 73
     0
 74
     1
 75
     0
 76
     0
 77
     3
 78
     8
170
     0
171
     2
172
     0
173
     0
174
     0
175
     0
176
   256
177
   256
178
     2
  0
DIMSTYLE
  2
AM_JIS$6
 70
     0
  3

  4
"
  5
OPEN30
  6
OPEN30
  7
OPEN30
 40
1.0
 41
2.5
 42
1.0
 43
10.0
 44
1.0
 45
0.0
 46
0.0
 47
0.1
 48
0.1
140
3.5
141
0.0
142
0.0
143
0.0393701
144
1.0
145
0.0
146
0.71
147
1.5
 71
     0
 72
     0
 73
     0
 74
     0
 75
     0
 76
     0
 77
     0
 78
     8
170
     0
171
     2
172
     1
173
     0
174
     0
175
     0
176
   256
177
   256
178
     2
  0
DIMSTYLE
  2
AM_JIS$7
 70
     0
  3

  4
"
  5
OPEN30
  6
OPEN30
  7
OPEN30
 40
1.0
 41
2.5
 42
1.0
 43
10.0
 44
1.0
 45
0.0
 46
0.0
 47
0.1
 48
0.1
140
5.0
141
0.0
142
0.0
143
0.0393701
144
1.0
145
0.0
146
0.71
147
1.5
 71
     0
 72
     0
 73
     0
 74
     0
 75
     0
 76
     0
 77
     3
 78
     8
170
     0
171
     2
172
     1
173
     0
174
     0
175
     0
176
   256
177
   256
178
     2
  0
DIMSTYLE
  2
AM_JIS$SF
 70
     0
  3

  4
"
  5
OPEN30
  6
OPEN30
  7
OPEN30
 40
1.0
 41
2.5
 42
1.0
 43
10.0
 44
1.0
 45
0.0
 46
0.0
 47
0.1
 48
0.1
140
3.5
141
0.0
142
0.0
143
0.0393701
144
1.0
145
0.0
146
0.71
147
1.5
 71
     0
 72
     0
 73
     0
 74
     0
 75
     1
 76
     1
 77
     3
 78
     8
170
     0
171
     2
172
     1
173
     0
174
     0
175
     0
176
   256
177
   256
178
     2
  0
DIMSTYLE
  2
AM_JIS$SH
 70
     0
  3

  4
"
  5
OPEN30
  6
GENAXEH
  7
OPEN30
 40
1.0
 41
2.5
 42
1.0
 43
10.0
 44
1.0
 45
0.0
 46
0.0
 47
0.1
 48
0.1
140
3.5
141
0.0
142
0.0
143
0.0393701
144
2.0
145
0.0
146
0.71
147
1.5
 71
     0
 72
     0
 73
     0
 74
     0
 75
     1
 76
     1
 77
     3
 78
     8
170
     0
171
     2
172
     1
173
     1
174
     0
175
     0
176
   256
177
   256
178
     2
  0
ENDTAB
  0
ENDSEC
  0
SECTION
  2
BLOCKS
  0
BLOCK
  8
0
  2
$MODEL_SPACE
 70
     0
 10
0.0
 20
0.0
 30
0.0
  3
$MODEL_SPACE
  1

  0
ENDBLK
  5
21
  8
0
  0
BLOCK
 67
     1
  8
0
  2
$PAPER_SPACE
 70
     0
 10
0.0
 20
0.0
 30
0.0
  3
$PAPER_SPACE
  1

  0
ENDBLK
  5
25
 67
     1
  8
0
  0
BLOCK
  8
0
  2
GENAXEH
 70
     0
 10
0.0
 20
0.0
 30
0.0
  3
GENAXEH
  1

  0
LINE
  5
88
  8
0
 10
-1.0
 20
0.0
 30
0.0
 11
1.0
 21
0.0
 31
0.0
  0
ENDBLK
  5
8A
  8
0
  0
BLOCK
  8
0
  2
_OPEN30
 70
     0
 10
0.0
 20
0.0
 30
0.0
  3
_OPEN30
  1

  0
LINE
  5
408
  8
0
  6
BYBLOCK
 62
     0
 10
-1.0
 20
0.26794919
 30
0.0
 11
0.0
 21
0.0
 31
0.0
  0
LINE
  5
409
  8
0
  6
BYBLOCK
 62
     0
 10
0.0
 20
0.0
 30
0.0
 11
-1.0
 21
-0.26794919
 31
0.0
  0
LINE
  5
40A
  8
0
  6
BYBLOCK
 62
     0
 10
0.0
 20
0.0
 30
0.0
 11
-1.0
 21
0.0
 31
0.0
  0
ENDBLK
  5
40C
  8
0
  0
BLOCK
  8
0
  2
TAKACHI-A3
 70
     0
 10
0.0
 20
0.0
 30
0.0
  3
TAKACHI-A3
  1

  0
POLYLINE
  5
5B4
  8
0
 66
     1
 10
0.0
 20
0.0
 30
0.0
 70
     1
1001
GENIUS_GENREC_14
1002
{
1000
PYDIR
1011
10.000000000000011
1021
0.0
1031
0.0
1021
280.0
1031
0.0
1002
}
1002
{
1000
PXDIR
1011
410.0
1021
0.0
1031
0.0
1021
0.0
1031
0.0
1002
}
1002
{
1000
PORI
1011
10.0
1021
0.0
1031
0.0
1021
0.0
1031
0.0
1002
}
1002
{
1000
PINS
1011
210.0
1021
0.0
1031
0.0
1021
139.99999999999989
1031
0.0
1002
}
1002
{
1000
HVAL
1000
280
1002
}
1002
{
1000
H
1070
     2
1002
}
1002
{
1000
WVAL
1000
400
1002
}
1002
{
1000
W
1070
     2
1002
}
1002
{
1000
C
1070
     4
1002
}
1001
GENIUS_GENODEF_13
1002
{
1000
HIER
1070
     0
1002
}
1002
{
1000
MANEDIT
1070
     0
1002
}
1002
{
1000
NOSEL
1070
     0
1002
}
1002
{
1000
BEHIND
1070
     0
1002
}
1002
{
1000
REACTOR
1002
}
1001
GENIUS_GENOBJ-N-REC_13
1002
{
1000
OWNER
1000
GEN
1002
}
  0
VERTEX
  5
4E34
  8
0
 10
10.0
 20
0.0
 30
0.0
  0
VERTEX
  5
4E35
  8
0
 10
410.0
 20
0.0
 30
0.0
  0
VERTEX
  5
4E36
  8
0
 10
410.0
 20
280.0
 30
0.0
  0
VERTEX
  5
4E37
  8
0
 10
10.00000000000003
 20
280.0
 30
0.0
  0
SEQEND
  5
4E38
  8
0
  0
TEXT
  5
5B5
  8
0
 10
15.00000000000003
 20
50.0
 30
0.0
 40
2.5
  1
!GENTITLE-LL
  0
TEXT
  5
5B6
  8
0
 10
410.0
 20
0.0
 30
0.0
 40
2.5
  1
!GENTITLE-INSERT
  0
TEXT
  5
5B7
  8
0
 10
405.0
 20
275.0
 30
0.0
 40
2.5
  1
!GENTITLE-RU
  0
TEXT
  5
5B8
  8
0
 10
410.0
 20
280.0
 30
0.0
 40
2.5
  1
!GENTITLE-MAX
  0
LINE
  5
5B9
  8
0
 10
366.0
 20
275.0
 30
0.0
 11
410.0
 21
275.0
 31
0.0
  0
INSERT
  5
5BA
  8
AM_7N
  2
*U76
 10
0.0
 20
0.0
 30
0.0
  0
LINE
  5
5BB
  8
0
 10
366.0
 20
280.0
 30
0.0
 11
366.0
 21
275.0
 31
0.0
  0
ENDBLK
  5
5BE
  8
0
  0
BLOCK
  8
0
  2
TAKACHI-TITLE
 70
     2
 10
0.0
 20
0.0
 30
0.0
  3
TAKACHI-TITLE
  1

  0
LINE
  5
5D6
  8
RAHM2
 10
-195.0
 20
30.000000000000028
 30
0.0
 11
-94.0
 21
30.000000000000028
 31
0.0
  0
LINE
  5
5D7
  8
RAHM2
 10
-195.0
 20
35.000000000000028
 30
0.0
 11
-94.0
 21
35.000000000000028
 31
0.0
  0
LINE
  5
5D8
  8
RAHM2
 10
-195.0
 20
40.000000000000021
 30
0.0
 11
-94.0
 21
40.000000000000021
 31
0.0
  0
LINE
  5
5D9
  8
RAHM2
 10
-195.0
 20
45.000000000000021
 30
0.0
 11
-94.0
 21
45.000000000000021
 31
0.0
  0
LINE
  5
5DA
  8
0
 10
-195.0
 20
7.0
 30
0.0
 11
-94.0
 21
7.0
 31
0.0
  0
LINE
  5
5DB
  8
0
 10
-195.0
 20
19.999999999999972
 30
0.0
 11
-94.0
 21
19.999999999999972
 31
0.0
  0
ATTDEF
  5
5DC
  8
0
 10
-183.24385271456069
 20
8.9508505244280823
 30
0.0
 40
2.5
  1

 11
-183.24385271456069
 21
8.6175171910947483
 31
0.0
  3
サブタイトル
  2
GEN-TITLE-DES2
 70
     0
 74
     1
  0
ATTDEF
  5
5DD
  8
0
 10
-183.24385271456069
 20
2.0175171910947478
 30
0.0
 40
3.0
  1

 11
-183.24385271456069
 21
1.6175171910947479
 31
0.0
  3
図番
  2
GEN-TITLE-NR
 70
     0
 74
     1
  0
INSERT
  5
5DE
  8
AM_7N
  2
*U77
 10
0.0
 20
0.0
 30
0.0
  0
ATTDEF
  5
5DF
  8
0
 10
-183.24385271456069
 20
14.40728619501834
 30
0.0
 40
4.0
  1

 11
-183.24385271456069
 21
13.873952861685011
 31
0.0
  3
品名
  2
GEN-TITLE-DES1
 70
     0
 74
     1
  0
LINE
  5
5E0
  8
RAHM2
 10
-187.57512886940361
 20
30.400000000000041
 30
0.0
 11
-190.0
 21
34.60000000000003
 31
0.0
  0
LINE
  5
5E1
  8
RAHM2
 10
-190.0
 20
34.60000000000003
 30
0.0
 11
-192.42487113059639
 21
30.400000000000041
 31
0.0
  0
LINE
  5
5E2
  8
RAHM2
 10
-185.0
 20
50.000000000000028
 30
0.0
 11
-185.0
 21
19.99999999999994
 31
0.0
  0
LINE
  5
5E3
  8
RAHM2
 10
-192.42487113059639
 20
30.400000000000041
 30
0.0
 11
-187.57512886940361
 21
30.400000000000041
 31
0.0
  0
INSERT
  5
5E4
  8
AM_7N
  2
*U78
 10
0.0
 20
0.0
 30
0.0
  0
INSERT
  5
5E5
  8
AM_7N
  2
*U79
 10
0.0
 20
0.0
 30
0.0
  0
LINE
  5
5E6
  8
RAHM2
 10
-192.42487113059639
 20
45.400000000000027
 30
0.0
 11
-187.57512886940361
 21
45.400000000000027
 31
0.0
  0
LINE
  5
5E7
  8
RAHM2
 10
-187.57512886940361
 20
45.400000000000027
 30
0.0
 11
-190.0
 21
49.600000000000023
 31
0.0
  0
LINE
  5
5E8
  8
RAHM2
 10
-192.42487113059639
 20
40.400000000000027
 30
0.0
 11
-187.57512886940361
 21
40.400000000000027
 31
0.0
  0
LINE
  5
5E9
  8
RAHM2
 10
-187.57512886940361
 20
40.400000000000027
 30
0.0
 11
-190.0
 21
44.600000000000023
 31
0.0
  0
LINE
  5
5EA
  8
RAHM2
 10
-192.42487113059639
 20
35.400000000000041
 30
0.0
 11
-187.57512886940361
 21
35.400000000000041
 31
0.0
  0
LINE
  5
5EB
  8
RAHM2
 10
-187.57512886940361
 20
35.400000000000041
 30
0.0
 11
-190.0
 21
39.600000000000023
 31
0.0
  0
LINE
  5
5EC
  8
RAHM2
 10
-190.0
 20
39.600000000000023
 30
0.0
 11
-192.42487113059639
 21
35.400000000000041
 31
0.0
  0
LINE
  5
5ED
  8
RAHM2
 10
-190.0
 20
44.600000000000023
 30
0.0
 11
-192.42487113059639
 21
40.400000000000027
 31
0.0
  0
LINE
  5
5EE
  8
RAHM2
 10
-190.0
 20
49.600000000000023
 30
0.0
 11
-192.42487113059639
 21
45.400000000000027
 31
0.0
  0
LINE
  5
5EF
  8
RAHM2
 10
-129.0
 20
50.000000000000028
 30
0.0
 11
-129.0
 21
19.99999999999994
 31
0.0
  0
INSERT
  5
5F0
  8
AM_7N
  2
*U80
 10
0.0
 20
0.0
 30
0.0
  0
LINE
  5
5F1
  8
0
 10
-34.0
 20
50.0
 30
0.0
 11
-34.0
 21
0.0
 31
0.0
  0
LINE
  5
5F2
  8
0
 10
-94.0
 20
50.0
 30
0.0
 11
-94.0
 21
0.0
 31
0.0
  0
INSERT
  5
5F3
  8
AM_7N
  2
*U81
 10
0.0
 20
0.0
 30
0.0
  0
LINE
  5
5F4
  8
0
 10
-94.0
 20
10.0
 30
0.0
 11
-34.0
 21
10.0
 31
0.0
  0
ATTDEF
  5
5F5
  8
0
 10
-58.014051197997453
 20
39.255005561783491
 30
0.0
 40
3.0
  1

 72
     2
 11
-58.014051197997453
 21
39.255005561783491
 31
0.0
  3
尺度
  2
GEN-TITLE-SCA
 70
     0
  0
ATTDEF
  5
5F6
  8
0
 10
-77.002849666490064
 20
31.02180787943475
 30
0.0
 40
3.0
  1

 11
-77.002849666490064
 21
30.621807879434751
 31
0.0
  3
材質
  2
GEN-TITLE-MAT1
 70
     0
 74
     1
  0
ATTDEF
  5
5F7
  8
0
 10
-77.002849666490064
 20
21.02180787943475
 30
0.0
 40
3.0
  1

 11
-77.002849666490064
 21
20.621807879434751
 31
0.0
  3
表面処理
  2
GEN-TITLE-MAT2
 70
     0
 74
     1
  0
ATTDEF
  5
5F8
  8
0
 10
-77.002849666490064
 20
12.01751719109475
 30
0.0
 40
3.0
  1

 11
-77.002849666490064
 21
11.61751719109475
 31
0.0
  3
日付
  2
GEN-TITLE-DAT
 70
     0
 74
     1
  0
LINE
  5
5F9
  8
0
 10
-94.0
 20
37.5
 30
0.0
 11
-34.0
 21
37.5
 31
0.0
  0
LINE
  5
5FA
  8
0
 10
-94.0
 20
27.5
 30
0.0
 11
-34.0
 21
27.5
 31
0.0
  0
LINE
  5
5FB
  8
0
 10
-94.0
 20
17.5
 30
0.0
 11
-34.0
 21
17.5
 31
0.0
  0
LINE
  5
5FC
  8
RAHM2
 10
-109.0
 20
50.000000000000028
 30
0.0
 11
-109.0
 21
19.99999999999994
 31
0.0
  0
INSERT
  5
5FD
  8
AM_7N
  2
*U82
 10
0.0
 20
0.0
 30
0.0
  0
INSERT
  5
5FE
  8
AM_7N
  2
*U83
 10
0.0
 20
0.0
 30
0.0
  0
INSERT
  5
5FF
  8
AM_7N
  2
*U84
 10
0.0
 20
0.0
 30
0.0
  0
INSERT
  5
600
  8
AM_7N
  2
*U85
 10
0.0
 20
0.0
 30
0.0
  0
INSERT
  5
601
  8
AM_7N
  2
*U86
 10
0.0
 20
0.0
 30
0.0
  0
INSERT
  5
602
  8
AM_7N
  2
*U87
 10
0.0
 20
0.0
 30
0.0
  0
INSERT
  5
603
  8
AM_7N
  2
*U88
 10
0.0
 20
0.0
 30
0.0
  0
INSERT
  5
604
  8
AM_7N
  2
*U89
 10
0.0
 20
0.0
 30
0.0
  0
LINE
  5
605
  8
7A
 10
-89.0
 20
43.75
 30
0.0
 11
-75.218691599714703
 21
43.75
 31
0.0
1001
GENIUS_GENOREF_13
1005
618
  0
LINE
  5
606
  8
0
 10
-84.0
 20
45.75
 30
0.0
 11
-76.0
 21
46.749999999999993
 31
0.0
  0
LINE
  5
607
  8
0
 10
-76.0
 20
40.75
 30
0.0
 11
-84.0
 21
41.749999999999993
 31
0.0
  0
LINE
  5
608
  8
7A
 10
-89.0
 20
43.75
 30
0.0
 11
-89.0
 21
47.324786644731482
 31
0.0
1001
GENIUS_GENOREF_13
1005
618
  0
CIRCLE
  5
609
  8
0
 10
-89.0
 20
43.75
 30
0.0
 40
2.0
  0
CIRCLE
  5
60A
  8
0
 10
-89.0
 20
43.75
 30
0.0
 40
3.0
  0
LINE
  5
60B
  8
0
 10
-84.0
 20
41.749999999999993
 30
0.0
 11
-84.0
 21
45.75
 31
0.0
  0
INSERT
  5
60C
  8
AM_7N
  2
*U90
 10
0.0
 20
0.0
 30
0.0
  0
LINE
  5
60D
  8
7A
 10
-89.0
 20
43.75
 30
0.0
 11
-92.723037371251166
 21
43.75
 31
0.0
1001
GENIUS_GENOREF_13
1005
618
  0
LINE
  5
60E
  8
7A
 10
-89.0
 20
43.75
 30
0.0
 11
-89.0
 21
40.039917242284787
 31
0.0
1001
GENIUS_GENOREF_13
1005
618
  0
LINE
  5
60F
  8
0
 10
-76.0
 20
46.749999999999993
 30
0.0
 11
-76.0
 21
40.75
 31
0.0
  0
LINE
  5
610
  8
0
 10
-74.0
 20
50.0
 30
0.0
 11
-74.0
 21
37.5
 31
0.0
  0
INSERT
  5
611
  8
AM_7N
  2
*U91
 10
0.0
 20
0.0
 30
0.0
  0
ATTDEF
  5
612
  8
0
 10
-37.76317379391503
 20
39.255005561783491
 30
0.0
 40
3.0
  1

 72
     2
 11
-37.76317379391503
 21
39.255005561783491
 31
0.0
  3
数量
  2
GEN-TITLE-QTY
 70
     0
  0
LINE
  5
613
  8
0
 10
-34.0
 20
25.0
 30
0.0
 11
0.0
 21
25.0
 31
0.0
  0
LINE
  5
614
  8
0
 10
-54.0
 20
50.0
 30
0.0
 11
-54.0
 21
37.5
 31
0.0
  0
INSERT
  5
615
  8
AM_7N
  2
*U92
 10
0.0
 20
0.0
 30
0.0
  0
INSERT
  5
616
  8
AM_7N
  2
*U93
 10
0.0
 20
0.0
 30
0.0
  0
INSERT
  5
617
  8
AM_7N
  2
*U94
 10
0.0
 20
0.0
 30
0.0
  0
POINT
  5
618
  8
0
 10
-320.5355579819676
 20
-138.11048412682541
 30
0.0
1001
GENIUS_GENODEF_13
1002
{
1000
HIER
1070
    10
1002
}
1002
{
1000
MANEDIT
1070
     0
1002
}
1002
{
1000
NOSEL
1070
     0
1002
}
1002
{
1000
BEHIND
1070
     0
1002
}
1002
{
1000
REACTOR
1002
}
1001
GENIUS_GENOBJ-N-CRS_13
1002
{
1000
OWNER
1000
GEN
1002
}
1001
GENIUS_GENOENT_13
1002
{
1000
MYREF
1005
618
1002
}
1002
{
1000
GRP
1005
0
1002
}
1001
GENIUS_GENOLIS_13
1002
{
1000
ENT
1005
60E
1005
60D
1005
608
1005
605
1002
}
  0
LINE
  5
619
  8
RAHM2
 10
-190.0
 20
29.600000000000019
 30
0.0
 11
-192.42487113059639
 21
25.400000000000041
 31
0.0
  0
LINE
  5
61A
  8
RAHM2
 10
-187.57512886940361
 20
25.400000000000041
 30
0.0
 11
-190.0
 21
29.600000000000019
 31
0.0
  0
LINE
  5
61B
  8
RAHM2
 10
-192.42487113059639
 20
25.400000000000041
 30
0.0
 11
-187.57512886940361
 21
25.400000000000041
 31
0.0
  0
LINE
  5
61C
  8
RAHM2
 10
-195.0
 20
25.000000000000028
 30
0.0
 11
-94.0
 21
25.000000000000028
 31
0.0
  0
INSERT
  5
61D
  8
AM_7N
  2
*U95
 10
0.0
 20
0.0
 30
0.0
  0
TEXT
  5
61E
  8
RAHM2
 10
-190.8155863565801
 20
25.98333333333337
 30
0.0
 40
2.5
  1
1
 72
     1
 11
-190.19058635658021
 21
25.650000000000031
 31
0.0
 73
     1
  0
TEXT
  5
61F
  8
RAHM2
 10
-190.9183316929134
 20
30.98333333333337
 30
0.0
 40
2.5
  1
2
 72
     1
 11
-190.0
 21
30.650000000000031
 31
0.0
 73
     1
  0
TEXT
  5
620
  8
RAHM2
 10
-190.92677669529661
 20
35.983333333333341
 30
0.0
 40
2.5
  1
3
 72
     1
 11
-190.0
 21
35.650000000000013
 31
0.0
 73
     1
  0
TEXT
  5
621
  8
RAHM2
 10
-191.0
 20
40.98333333333337
 30
0.0
 40
2.5
  1
4
 72
     1
 11
-190.0
 21
40.650000000000027
 31
0.0
 73
     1
  0
TEXT
  5
622
  8
RAHM2
 10
-190.92677669529661
 20
45.98333333333337
 30
0.0
 40
2.5
  1
5
 72
     1
 11
-190.0
 21
45.650000000000027
 31
0.0
 73
     1
  0
LINE
  5
623
  8
0
 10
-17.0
 20
50.0
 30
0.0
 11
-17.0
 21
0.0
 31
0.0
  0
LINE
  5
624
  8
0
 10
-195.0
 20
0.0
 30
0.0
 11
0.0
 21
0.0
 31
0.0
1001
GENIUS_GENREC_14
1002
{
1000
PYDIR
1011
-184.0
1021
0.0
1031
0.0
1021
50.0
1031
0.0
1002
}
1002
{
1000
PXDIR
1011
0.0
1021
0.0
1031
0.0
1021
0.0
1031
0.0
1002
}
1002
{
1000
PORI
1011
-184.0
1021
0.0
1031
0.0
1021
0.0
1031
0.0
1002
}
1002
{
1000
PINS
1011
-100.5
1021
0.0
1031
0.0
1021
25.0
1031
0.0
1002
}
1002
{
1000
HVAL
1000
50
1002
}
1002
{
1000
H
1070
     2
1002
}
1002
{
1000
WVAL
1000
167
1002
}
1002
{
1000
W
1070
     2
1002
}
1002
{
1000
C
1070
     4
1002
}
1001
GENIUS_GENODEF_13
1002
{
1000
HIER
1070
     0
1002
}
1002
{
1000
MANEDIT
1070
     0
1002
}
1002
{
1000
NOSEL
1070
     0
1002
}
1002
{
1000
BEHIND
1070
     0
1002
}
1002
{
1000
REACTOR
1002
}
1001
GENIUS_GENOBJ-N-REC_13
1002
{
1000
OWNER
1000
GEN
1002
}
  0
LINE
  5
625
  8
0
 10
0.0
 20
0.0
 30
0.0
 11
0.0
 21
50.0
 31
0.0
1001
GENIUS_GENREC_14
1002
{
1000
PYDIR
1011
-184.0
1021
0.0
1031
0.0
1021
50.0
1031
0.0
1002
}
1002
{
1000
PXDIR
1011
0.0
1021
0.0
1031
0.0
1021
0.0
1031
0.0
1002
}
1002
{
1000
PORI
1011
-184.0
1021
0.0
1031
0.0
1021
0.0
1031
0.0
1002
}
1002
{
1000
PINS
1011
-100.5
1021
0.0
1031
0.0
1021
25.0
1031
0.0
1002
}
1002
{
1000
HVAL
1000
50
1002
}
1002
{
1000
H
1070
     2
1002
}
1002
{
1000
WVAL
1000
167
1002
}
1002
{
1000
W
1070
     2
1002
}
1002
{
1000
C
1070
     4
1002
}
1001
GENIUS_GENODEF_13
1002
{
1000
HIER
1070
     0
1002
}
1002
{
1000
MANEDIT
1070
     0
1002
}
1002
{
1000
NOSEL
1070
     0
1002
}
1002
{
1000
BEHIND
1070
     0
1002
}
1002
{
1000
REACTOR
1002
}
1001
GENIUS_GENOBJ-N-REC_13
1002
{
1000
OWNER
1000
GEN
1002
}
  0
LINE
  5
626
  8
0
 10
0.0
 20
50.0
 30
0.0
 11
-195.0
 21
50.000000000000028
 31
0.0
1001
GENIUS_GENREC_14
1002
{
1000
PYDIR
1011
-184.0
1021
0.0
1031
0.0
1021
50.0
1031
0.0
1002
}
1002
{
1000
PXDIR
1011
0.0
1021
0.0
1031
0.0
1021
0.0
1031
0.0
1002
}
1002
{
1000
PORI
1011
-184.0
1021
0.0
1031
0.0
1021
0.0
1031
0.0
1002
}
1002
{
1000
PINS
1011
-100.5
1021
0.0
1031
0.0
1021
25.0
1031
0.0
1002
}
1002
{
1000
HVAL
1000
50
1002
}
1002
{
1000
H
1070
     2
1002
}
1002
{
1000
WVAL
1000
167
1002
}
1002
{
1000
W
1070
     2
1002
}
1002
{
1000
C
1070
     4
1002
}
1001
GENIUS_GENODEF_13
1002
{
1000
HIER
1070
     0
1002
}
1002
{
1000
MANEDIT
1070
     0
1002
}
1002
{
1000
NOSEL
1070
     0
1002
}
1002
{
1000
BEHIND
1070
     0
1002
}
1002
{
1000
REACTOR
1002
}
1001
GENIUS_GENOBJ-N-REC_13
1002
{
1000
OWNER
1000
GEN
1002
}
  0
LINE
  5
627
  8
0
 10
-195.0
 20
50.000000000000028
 30
0.0
 11
-195.0
 21
0.0
 31
0.0
1001
GENIUS_GENREC_14
1002
{
1000
PYDIR
1011
-195.0
1021
0.0
1031
0.0
1021
50.0
1031
0.0
1002
}
1002
{
1000
PXDIR
1011
-11.0
1021
0.0
1031
0.0
1021
0.0
1031
0.0
1002
}
1002
{
1000
PORI
1011
-195.0
1021
0.0
1031
0.0
1021
0.0
1031
0.0
1002
}
1002
{
1000
PINS
1011
-111.5
1021
0.0
1031
0.0
1021
25.0
1031
0.0
1002
}
1002
{
1000
HVAL
1000
50
1002
}
1002
{
1000
H
1070
     2
1002
}
1002
{
1000
WVAL
1000
167
1002
}
1002
{
1000
W
1070
     2
1002
}
1002
{
1000
C
1070
     4
1002
}
1001
GENIUS_GENODEF_13
1002
{
1000
HIER
1070
     0
1002
}
1002
{
1000
MANEDIT
1070
     0
1002
}
1002
{
1000
NOSEL
1070
     0
1002
}
1002
{
1000
BEHIND
1070
     0
1002
}
1002
{
1000
REACTOR
1002
}
1001
GENIUS_GENOBJ-N-REC_13
1002
{
1000
OWNER
1000
GEN
1002
}
  0
INSERT
  5
628
  8
AM_7N
  2
*U96
 10
0.0
 20
0.0
 30
0.0
  0
INSERT
  5
629
  8
AM_7N
  2
*U97
 10
0.0
 20
0.0
 30
0.0
  0
ENDBLK
  5
62C
  8
0
  0
BLOCK
  8
0
  2
TK-A3
 70
     0
 10
0.0
 20
0.0
 30
0.0
  3
TK-A3
  1

  0
TEXT
  5
CB2
  8
0
 10
403.0
 20
280.0
 30
0.0
 40
2.5
  1
!GENTITLE-MAX
  0
TEXT
  5
CB3
  8
0
 10
0.0
 20
0.0
 30
0.0
 40
2.5
  1
!GENTITLE-LL
  0
TEXT
  5
CB4
  8
0
 10
403.0
 20
0.0
 30
0.0
 40
2.5
  1
!GENTITLE-INSERT
  0
LINE
  5
CB5
  8
0
 10
359.0
 20
275.0
 30
0.0
 11
403.0
 21
275.0
 31
0.0
  0
TEXT
  8
0
  40
2.5
  5
514F
  72
0
  71
0
 10
402.359
 20
272.859
 30
0.000000
  1
(文書番号：TY-34)2008.02.08
  0
LINE
  5
CB7
  8
0
 10
359.0
 20
280.0
 30
0.0
 11
359.0
 21
275.0
 31
0.0
  0
ENDBLK
  5
CBA
  8
0
  0
BLOCK
  8
0
  2
TK-TITLE
 70
     2
 10
0.0
 20
0.0
 30
0.0
  3
TK-TITLE
  1

  0
ATTDEF
  5
CBF
  8
0
 10
-8.0023091895458265
 20
1.705189434395036
 30
0.0
 40
2.5
  1

  3
Rev.
  2
GEN-TITLE-NR2
 70
     0
  0
ATTDEF
  5
CC0
  8
0
 10
-84.142519015853296
 20
12.82790432564377
 30
0.0
 40
3.5
  1

  3
品名
  2
GEN-TITLE-DES1
 70
     0
  0
LINE
  5
CC1
  8
0
 10
0.0
 20
0.0
 30
0.0
 11
0.0
 21
50.0
 31
0.0
1001
GENIUS_GENREC_14
1002
{
1000
PYDIR
1011
-414.0
1021
0.0
1031
0.0
1021
291.0
1031
0.0
1002
}
1002
{
1000
PXDIR
1011
6.0
1021
0.0
1031
0.0
1021
-6.0
1031
0.0
1002
}
1002
{
1000
PORI
1011
-414.0
1021
0.0
1031
0.0
1021
-6.0
1031
0.0
1002
}
1002
{
1000
PINS
1011
-414.0
1021
0.0
1031
0.0
1021
-6.0
1031
0.0
1002
}
1002
{
1000
HVAL
1000
297
1002
}
1002
{
1000
H
1070
     2
1002
}
1002
{
1000
WVAL
1000
420
1002
}
1002
{
1000
W
1070
     2
1002
}
1002
{
1000
C
1070
     1
1002
}
1001
GENIUS_GENODEF_13
1002
{
1000
HIER
1070
     0
1002
}
1002
{
1000
MANEDIT
1070
     0
1002
}
1002
{
1000
NOSEL
1070
     0
1002
}
1002
{
1000
BEHIND
1070
     0
1002
}
1002
{
1000
OTHER
1070
     0
1002
}
1002
{
1000
REACTOR
1002
}
1001
GENIUS_GENOBJ-N-REC_13
1002
{
1000
OWNER
1000
GEN
1002
}
  0
ATTDEF
  5
CC2
  8
0
 10
-84.0
 20
9.1499999999999488
 30
0.0
 40
2.5
  1

  3
サブタイトル
  2
GEN-TITLE-DES2
 70
     0
  0
ATTDEF
  5
CC3
  8
0
 10
-84.0
 20
1.9999999999999569
 30
0.0
 40
3.0
  1

  3
図番
  2
GEN-TITLE-NR1
 70
     0
  0
LINE
  5
CC4
  8
0
 10
-96.0
 20
50.000000000000007
 30
0.0
 11
-96.0
 21
-0.0000000000000142
 31
0.0
1001
GENIUS_GENREC_14
1002
{
1000
PYDIR
1011
-96.0
1021
0.0
1031
0.0
1021
49.999999999999993
1031
0.0
1002
}
1002
{
1000
PXDIR
1011
88.0
1021
0.0
1031
0.0
1021
-0.0000000000000142
1031
0.0
1002
}
1002
{
1000
PORI
1011
-96.0
1021
0.0
1031
0.0
1021
-0.0000000000000142
1031
0.0
1002
}
1002
{
1000
PINS
1011
-12.5
1021
0.0
1031
0.0
1021
24.999999999999989
1031
0.0
1002
}
1002
{
1000
HVAL
1000
50
1002
}
1002
{
1000
H
1070
     2
1002
}
1002
{
1000
WVAL
1000
167
1002
}
1002
{
1000
W
1070
     2
1002
}
1002
{
1000
C
1070
     4
1002
}
1001
GENIUS_GENODEF_13
1002
{
1000
HIER
1070
     0
1002
}
1002
{
1000
MANEDIT
1070
     0
1002
}
1002
{
1000
NOSEL
1070
     0
1002
}
1002
{
1000
BEHIND
1070
     0
1002
}
1002
{
1000
REACTOR
1002
}
1001
GENIUS_GENOBJ-N-REC_13
1002
{
1000
OWNER
1000
GEN
1002
}
  0
LINE
  5
CC5
  8
0
 10
0.0
 20
50.0
 30
0.0
 11
-193.00000000000011
 21
50.000000000000021
 31
0.0
1001
GENIUS_GENREC_14
1002
{
1000
PYDIR
1011
-184.0
1021
0.0
1031
0.0
1021
50.0
1031
0.0
1002
}
1002
{
1000
PXDIR
1011
0.0
1021
0.0
1031
0.0
1021
0.0
1031
0.0
1002
}
1002
{
1000
PORI
1011
-184.0
1021
0.0
1031
0.0
1021
0.0
1031
0.0
1002
}
1002
{
1000
PINS
1011
-100.5
1021
0.0
1031
0.0
1021
25.0
1031
0.0
1002
}
1002
{
1000
HVAL
1000
50
1002
}
1002
{
1000
H
1070
     2
1002
}
1002
{
1000
WVAL
1000
167
1002
}
1002
{
1000
W
1070
     2
1002
}
1002
{
1000
C
1070
     4
1002
}
1001
GENIUS_GENODEF_13
1002
{
1000
HIER
1070
     0
1002
}
1002
{
1000
MANEDIT
1070
     0
1002
}
1002
{
1000
NOSEL
1070
     0
1002
}
1002
{
1000
BEHIND
1070
     0
1002
}
1002
{
1000
REACTOR
1002
}
1001
GENIUS_GENOBJ-N-REC_13
1002
{
1000
OWNER
1000
GEN
1002
}
  0
LINE
  5
CC6
  8
0
 10
-193.00000000000011
 20
0.0
 30
0.0
 11
0.0
 21
0.0
 31
0.0
1001
GENIUS_GENREC_14
1002
{
1000
PYDIR
1011
-184.0
1021
0.0
1031
0.0
1021
50.0
1031
0.0
1002
}
1002
{
1000
PXDIR
1011
0.0
1021
0.0
1031
0.0
1021
0.0
1031
0.0
1002
}
1002
{
1000
PORI
1011
-184.0
1021
0.0
1031
0.0
1021
0.0
1031
0.0
1002
}
1002
{
1000
PINS
1011
-100.5
1021
0.0
1031
0.0
1021
25.0
1031
0.0
1002
}
1002
{
1000
HVAL
1000
50
1002
}
1002
{
1000
H
1070
     2
1002
}
1002
{
1000
WVAL
1000
167
1002
}
1002
{
1000
W
1070
     2
1002
}
1002
{
1000
C
1070
     4
1002
}
1001
GENIUS_GENODEF_13
1002
{
1000
HIER
1070
     0
1002
}
1002
{
1000
MANEDIT
1070
     0
1002
}
1002
{
1000
NOSEL
1070
     0
1002
}
1002
{
1000
BEHIND
1070
     0
1002
}
1002
{
1000
REACTOR
1002
}
1001
GENIUS_GENOBJ-N-REC_13
1002
{
1000
OWNER
1000
GEN
1002
}
  0
TEXT
  5
CC7
  8
RAHM2
 10
-91.926776695296624
 20
45.983333333333348
 30
0.0
 40
2.5
  1
5
 72
     1
 11
-91.0
 21
45.65000000000002
 31
0.0
 73
     1
  0
TEXT
  5
CC8
  8
RAHM2
 10
-92.0
 20
40.983333333333348
 30
0.0
 40
2.5
  1
4
 72
     1
 11
-91.0
 21
40.65000000000002
 31
0.0
 73
     1
  0
TEXT
  5
CC9
  8
RAHM2
 10
-91.926776695296624
 20
35.983333333333327
 30
0.0
 40
2.5
  1
3
 72
     1
 11
-91.0
 21
35.649999999999991
 31
0.0
 73
     1
  0
TEXT
  5
CCA
  8
RAHM2
 10
-91.918331692913384
 20
30.983333333333348
 30
0.0
 40
2.5
  1
2
 72
     1
 11
-91.0
 21
30.65000000000002
 31
0.0
 73
     1
  0
TEXT
  5
CCB
  8
RAHM2
 10
-91.815586356580184
 20
25.983333333333348
 30
0.0
 40
2.5
  1
1
 72
     1
 11
-91.190586356580184
 21
25.65000000000002
 31
0.0
 73
     1
  0
INSERT
  5
CCC
  8
AM_7N
  2
*U98
 10
0.0
 20
0.0
 30
0.0
  0
LINE
  5
CCD
  8
RAHM2
 10
-96.0
 20
25.0
 30
0.0
 11
0.0000000000001137
 21
25.000000000000028
 31
0.0
  0
LINE
  5
CCE
  8
RAHM2
 10
-93.424871130596443
 20
25.40000000000002
 30
0.0
 11
-88.575128869403557
 21
25.40000000000002
 31
0.0
  0
LINE
  5
CCF
  8
RAHM2
 10
-88.575128869403557
 20
25.40000000000002
 30
0.0
 11
-91.0
 21
29.600000000000009
 31
0.0
  0
LINE
  5
CD0
  8
RAHM2
 10
-91.0
 20
29.600000000000009
 30
0.0
 11
-93.424871130596443
 21
25.40000000000002
 31
0.0
  0
INSERT
  5
CD1
  8
AM_7N
  2
*U99
 10
0.0
 20
0.0
 30
0.0
  0
INSERT
  5
CD2
  8
AM_7N
  2
*U100
 10
0.0
 20
0.0
 30
0.0
  0
INSERT
  5
CD3
  8
AM_7N
  2
*U101
 10
0.0
 20
0.0
 30
0.0
  0
INSERT
  5
CD4
  8
AM_7N
  2
*U102
 10
0.0
 20
0.0
 30
0.0
  0
INSERT
  5
CD5
  8
AM_7N
  2
*U103
 10
0.0
 20
0.0
 30
0.0
  0
INSERT
  5
CD6
  8
AM_7N
  2
*U104
 10
0.0
 20
0.0
 30
0.0
  0
LINE
  5
CD7
  8
RAHM2
 10
-11.82081941068907
 20
50.000000000000028
 30
0.0
 11
-11.82081941068907
 21
19.99999999999994
 31
0.0
  0
INSERT
  5
CD8
  8
AM_7N
  2
*U105
 10
0.0
 20
0.0
 30
0.0
  0
LINE
  5
CD9
  8
RAHM2
 10
-31.820819410689069
 20
50.000000000000028
 30
0.0
 11
-31.820819410689179
 21
19.99999999999994
 31
0.0
  0
LINE
  5
CDA
  8
RAHM2
 10
-91.0
 20
49.600000000000001
 30
0.0
 11
-93.424871130596443
 21
45.400000000000013
 31
0.0
  0
LINE
  5
CDB
  8
RAHM2
 10
-91.0
 20
44.600000000000001
 30
0.0
 11
-93.424871130596443
 21
40.400000000000013
 31
0.0
  0
LINE
  5
CDC
  8
RAHM2
 10
-91.0
 20
39.600000000000009
 30
0.0
 11
-93.424871130596443
 21
35.40000000000002
 31
0.0
  0
LINE
  5
CDD
  8
RAHM2
 10
-88.575128869403557
 20
35.40000000000002
 30
0.0
 11
-91.0
 21
39.600000000000009
 31
0.0
  0
LINE
  5
CDE
  8
RAHM2
 10
-93.424871130596443
 20
35.40000000000002
 30
0.0
 11
-88.575128869403557
 21
35.40000000000002
 31
0.0
  0
LINE
  5
CDF
  8
RAHM2
 10
-88.575128869403557
 20
40.400000000000013
 30
0.0
 11
-91.0
 21
44.600000000000001
 31
0.0
  0
LINE
  5
CE0
  8
RAHM2
 10
-93.424871130596443
 20
40.400000000000013
 30
0.0
 11
-88.575128869403557
 21
40.400000000000013
 31
0.0
  0
LINE
  5
CE1
  8
RAHM2
 10
-88.575128869403557
 20
45.400000000000013
 30
0.0
 11
-91.0
 21
49.600000000000001
 31
0.0
  0
LINE
  5
CE2
  8
RAHM2
 10
-93.424871130596443
 20
45.400000000000013
 30
0.0
 11
-88.575128869403557
 21
45.400000000000013
 31
0.0
  0
INSERT
  5
CE3
  8
AM_7N
  2
*U106
 10
0.0
 20
0.0
 30
0.0
  0
INSERT
  5
CE4
  8
AM_7N
  2
*U107
 10
0.0
 20
0.0
 30
0.0
  0
LINE
  5
CE5
  8
RAHM2
 10
-93.424871130596443
 20
30.40000000000002
 30
0.0
 11
-88.575128869403557
 21
30.40000000000002
 31
0.0
  0
LINE
  5
CE6
  8
RAHM2
 10
-86.0
 20
50.000000000000007
 30
0.0
 11
-86.0
 21
19.999999999999929
 31
0.0
  0
LINE
  5
CE7
  8
RAHM2
 10
-91.0
 20
34.600000000000009
 30
0.0
 11
-93.424871130596443
 21
30.40000000000002
 31
0.0
  0
LINE
  5
CE8
  8
RAHM2
 10
-88.575128869403557
 20
30.40000000000002
 30
0.0
 11
-91.0
 21
34.600000000000009
 31
0.0
  0
INSERT
  5
CE9
  8
AM_7N
  2
*U108
 10
0.0
 20
0.0
 30
0.0
  0
LINE
  5
CEA
  8
0
 10
-96.0
 20
19.999999999999972
 30
0.0
 11
0.0000000000001137
 21
19.999999999999972
 31
0.0
  0
LINE
  5
CEB
  8
0
 10
-96.0
 20
7.0
 30
0.0
 11
0.0000000000001137
 21
7.0
 31
0.0
  0
LINE
  5
CEC
  8
RAHM2
 10
-96.0
 20
45.000000000000021
 30
0.0
 11
0.0000000000001137
 21
45.000000000000021
 31
0.0
  0
LINE
  5
CED
  8
RAHM2
 10
-96.0
 20
39.999999999999929
 30
0.0
 11
0.0000000000001137
 21
40.000000000000021
 31
0.0
  0
LINE
  5
CEE
  8
RAHM2
 10
-96.0
 20
35.000000000000028
 30
0.0
 11
0.0000000000001137
 21
35.000000000000028
 31
0.0
  0
LINE
  5
CEF
  8
RAHM2
 10
-96.0
 20
29.999999999999918
 30
0.0
 11
0.0000000000001137
 21
30.000000000000028
 31
0.0
  0
LINE
  5
CF0
  8
0
 10
-21.175419266257109
 20
0.0
 30
0.0
 11
-21.17541926625734
 21
7.0
 31
0.0
  0
INSERT
  5
CF1
  8
AM_7N
  2
*U109
 10
0.0
 20
0.0
 30
0.0
  0
INSERT
  5
CF2
  8
AM_7N
  2
*U110
 10
0.0
 20
0.0
 30
0.0
  0
LINE
  5
CF3
  8
0
 10
-167.0
 20
19.999999999999929
 30
0.0
 11
-96.0
 21
19.999999999999929
 31
0.0
  0
LINE
  5
CF4
  8
0
 10
-113.75
 20
19.999999999999929
 30
0.0
 11
-113.75
 21
-0.0000000000000533
 31
0.0
  0
LINE
  5
CF5
  8
0
 10
-131.50000000000011
 20
19.999999999999929
 30
0.0
 11
-131.50000000000011
 21
-0.0000000000000533
 31
0.0
  0
INSERT
  5
CF6
  8
AM_7N
  2
*U111
 10
0.0
 20
0.0
 30
0.0
  0
LINE
  5
CF7
  8
0
 10
-167.0
 20
49.99999999999995
 30
0.0
 11
-167.0
 21
-0.0000000000000497
 31
0.0
  0
LINE
  5
CF8
  8
0
 10
-149.25000000000011
 20
19.999999999999929
 30
0.0
 11
-149.25000000000011
 21
-0.0000000000000462
 31
0.0
  0
INSERT
  5
CF9
  8
AM_7N
  2
*U112
 10
0.0
 20
0.0
 30
0.0
  0
INSERT
  5
CFA
  8
AM_7N
  2
*U113
 10
0.0
 20
0.0
 30
0.0
  0
LINE
  5
CFB
  8
0
 10
-167.0
 20
29.999999999999918
 30
0.0
 11
-96.0
 21
29.999999999999918
 31
0.0
  0
INSERT
  5
CFC
  8
AM_7N
  2
*U114
 10
0.0
 20
0.0
 30
0.0
  0
ATTDEF
  5
CFD
  8
0
 10
-148.96186758352911
 20
43.299999999999912
 30
0.0
 40
3.0
  1

  3
材質
  2
GEN-TITLE-MAT1
 70
     0
  0
ATTDEF
  5
CFE
  8
0
 10
-148.96186758352911
 20
33.299999999999912
 30
0.0
 40
3.0
  1

  3
表面処理
  2
GEN-TITLE-MAT2
 70
     0
  0
INSERT
  5
CFF
  8
AM_7N
  2
*U115
 10
0.0
 20
0.0
 30
0.0
  0
INSERT
  5
D00
  8
AM_7N
  2
*U116
 10
0.0
 20
0.0
 30
0.0
  0
LINE
  5
D01
  8
0
 10
-167.0
 20
39.999999999999908
 30
0.0
 11
-96.0
 21
39.999999999999922
 31
0.0
  0
LINE
  5
D02
  8
0
 10
-167.0
 20
24.999999999999972
 30
0.0
 11
-193.00000000000011
 21
24.999999999999972
 31
0.0
  0
LINE
  5
D03
  8
0
 10
-171.71674187457961
 20
46.74999999999995
 30
0.0
 11
-171.71674187457961
 21
40.749999999999943
 31
0.0
  0
LINE
  5
D04
  8
7A
 10
-184.71674187457961
 20
43.74999999999995
 30
0.0
 11
-184.71674187457961
 21
40.03991724228473
 31
0.0
1001
GENIUS_GENOREF_13
1005
D16
  0
LINE
  5
D05
  8
7A
 10
-184.71674187457961
 20
43.74999999999995
 30
0.0
 11
-188.43977924583069
 21
43.74999999999995
 31
0.0
1001
GENIUS_GENOREF_13
1005
D16
  0
LINE
  5
D06
  8
0
 10
-179.71674187457961
 20
41.74999999999995
 30
0.0
 11
-179.71674187457961
 21
45.749999999999943
 31
0.0
  0
CIRCLE
  5
D07
  8
0
 10
-184.71674187457961
 20
43.74999999999995
 30
0.0
 40
3.0
  0
CIRCLE
  5
D08
  8
0
 10
-184.71674187457961
 20
43.74999999999995
 30
0.0
 40
2.0
  0
LINE
  5
D09
  8
7A
 10
-184.71674187457961
 20
43.74999999999995
 30
0.0
 11
-184.71674187457961
 21
47.324786644731439
 31
0.0
1001
GENIUS_GENOREF_13
1005
D16
  0
LINE
  5
D0A
  8
0
 10
-171.71674187457961
 20
40.749999999999943
 30
0.0
 11
-179.71674187457961
 21
41.74999999999995
 31
0.0
  0
LINE
  5
D0B
  8
0
 10
-179.71674187457961
 20
45.749999999999943
 30
0.0
 11
-171.71674187457961
 21
46.74999999999995
 31
0.0
  0
LINE
  5
D0C
  8
7A
 10
-184.71674187457961
 20
43.74999999999995
 30
0.0
 11
-170.93543347429431
 21
43.74999999999995
 31
0.0
1001
GENIUS_GENOREF_13
1005
D16
  0
LINE
  5
D0D
  8
0
 10
-193.00000000000011
 20
49.999999999999993
 30
0.0
 11
-193.00000000000011
 21
-0.0000000000000142
 31
0.0
  0
ATTDEF
  5
D0E
  8
0
 10
-175.6127409126095
 20
16.199999999999939
 30
0.0
 40
3.0
  1

 72
     2
 11
-175.6127409126095
 21
15.79999999999994
 31
0.0
  3
数量
  2
GEN-TITLE-QTY
 70
     0
 74
     1
  0
INSERT
  5
D0F
  8
AM_7N
  2
*U117
 10
0.0
 20
0.0
 30
0.0
  0
INSERT
  5
D10
  8
AM_7N
  2
*U118
 10
0.0
 20
0.0
 30
0.0
  0
ATTDEF
  5
D11
  8
0
 10
-177.824739614424
 20
28.699999999999971
 30
0.0
 40
3.0
  1

 72
     2
 11
-177.824739614424
 21
28.299999999999979
 31
0.0
  3
尺度
  2
GEN-TITLE-SCA
 70
     0
 74
     1
  0
INSERT
  5
D12
  8
AM_7N
  2
*U119
 10
0.0
 20
0.0
 30
0.0
  0
ATTDEF
  5
D13
  8
0
 10
-180.2171951662138
 20
3.9883425376106638
 30
0.0
 40
3.0
  1

 72
     1
 11
-180.2171951662138
 21
3.5883425376106639
 31
0.0
  3
日付
  2
GEN-TITLE-DAT
 70
     0
 74
     1
  0
LINE
  5
D14
  8
0
 10
-167.0
 20
37.499999999999979
 30
0.0
 11
-193.00000000000011
 21
37.499999999999979
 31
0.0
  0
LINE
  5
D15
  8
0
 10
-167.0
 20
12.499999999999959
 30
0.0
 11
-193.00000000000011
 21
12.499999999999959
 31
0.0
  0
POINT
  5
D16
  8
0
 10
-418.53555798196749
 20
-138.11048412682541
 30
0.0
1001
GENIUS_GENODEF_13
1002
{
1000
HIER
1070
    10
1002
}
1002
{
1000
MANEDIT
1070
     0
1002
}
1002
{
1000
NOSEL
1070
     0
1002
}
1002
{
1000
BEHIND
1070
     0
1002
}
1002
{
1000
REACTOR
1002
}
1001
GENIUS_GENOBJ-N-CRS_13
1002
{
1000
OWNER
1000
GEN
1002
}
1001
GENIUS_GENOENT_13
1002
{
1000
MYREF
1005
D16
1002
}
1002
{
1000
GRP
1005
0
1002
}
1001
GENIUS_GENOLIS_13
1002
{
1000
ENT
1005
D04
1005
D05
1005
D09
1005
D0C
1002
}
  0
ENDBLK
  5
D19
  8
0
  0
BLOCK
  8
0
  2
取手正面
 70
     0
 10
0.0
 20
0.0
 30
0.0
  3
取手正面
  1

  0
ARC
  5
2E56
  8
0
  6
CONTINUOUS
 10
47.0
 20
-21.0
 30
0.0
 40
5.0
 50
270.0
 51
0.0
  0
LINE
  5
2E57
  8
0
  6
CONTINUOUS
 10
38.0
 20
3.0
 30
0.0
 11
-38.0
 21
3.0
 31
0.0
  0
LINE
  5
2E58
  8
0
  6
CONTINUOUS
 10
47.0
 20
0.0
 30
0.0
 11
-47.0
 21
0.0
 31
0.0
  0
LINE
  5
2E59
  8
0
  6
CONTINUOUS
 10
47.0
 20
-26.0
 30
0.0
 11
-47.0
 21
-26.0
 31
0.0
  0
LINE
  5
2E5A
  8
0
  6
CONTINUOUS
 10
-52.0
 20
-5.0
 30
0.0
 11
-52.0
 21
-21.0
 31
0.0
  0
LINE
  5
2E5B
  8
0
  6
CONTINUOUS
 10
-47.0
 20
-9.0
 30
0.0
 11
-47.0
 21
-18.658203999999841
 31
0.0
  0
LINE
  5
2E5C
  8
0
  6
CONTINUOUS
 10
41.0
 20
0.0
 30
0.0
 11
41.0
 21
0.0
 31
0.0
  0
LINE
  5
2E5D
  8
0
  6
CONTINUOUS
 10
-41.0
 20
0.0
 30
0.0
 11
-41.0
 21
0.0
 31
0.0
  0
ARC
  5
2E5E
  8
0
  6
CONTINUOUS
 10
-44.0
 20
-9.0
 30
0.0
 40
3.0
 50
90.0
 51
180.0
  0
LINE
  5
2E5F
  8
0
  6
CONTINUOUS
 10
44.0
 20
-21.658203999999841
 30
0.0
 11
-44.0
 21
-21.658203999999841
 31
0.0
  0
ARC
  5
2E60
  8
0
  6
CONTINUOUS
 10
-44.0
 20
-18.658203999999841
 30
0.0
 40
3.0
 50
180.0
 51
270.0
  0
ARC
  5
2E61
  8
0
  6
CONTINUOUS
 10
44.0
 20
-9.0
 30
0.0
 40
3.0
 50
0.0
 51
90.0
  0
LINE
  5
2E62
  8
0
  6
CONTINUOUS
 10
44.0
 20
-6.0
 30
0.0
 11
-44.0
 21
-6.0
 31
0.0
  0
ARC
  5
2E63
  8
0
  6
CONTINUOUS
 10
44.0
 20
-18.658203999999841
 30
0.0
 40
3.0
 50
270.0
 51
0.0
  0
ARC
  5
2E64
  8
0
  6
CONTINUOUS
 10
-47.0
 20
-5.0
 30
0.0
 40
5.0
 50
90.0
 51
180.0
  0
LINE
  5
2E65
  8
0
  6
CONTINUOUS
 10
47.0
 20
-9.0
 30
0.0
 11
47.0
 21
-18.658203999999841
 31
0.0
  0
ARC
  5
2E66
  8
0
  6
CONTINUOUS
 10
-47.0
 20
-21.0
 30
0.0
 40
5.0
 50
180.0
 51
270.0
  0
LINE
  5
2E67
  8
0
  6
CONTINUOUS
 10
52.0
 20
-5.0
 30
0.0
 11
52.0
 21
-21.0
 31
0.0
  0
ARC
  5
2E68
  8
0
  6
CONTINUOUS
 10
38.0
 20
0.0
 30
0.0
 40
3.0
 50
0.0
 51
90.0
  0
ARC
  5
2E69
  8
0
  6
CONTINUOUS
 10
-38.0
 20
0.0
 30
0.0
 40
3.0
 50
90.0
 51
180.0
  0
ARC
  5
2E6A
  8
0
  6
CONTINUOUS
 10
56.99999200000002
 20
-9.0698780000000152
 30
0.0
 40
16.0
 50
180.05762799999781
 51
223.67830199999821
  0
LINE
  5
2E6B
  8
0
  6
CONTINUOUS
 10
41.0
 20
-9.0859709999999723
 30
0.0
 11
41.0
 21
-6.0
 31
0.0
  0
ARC
  5
2E6C
  8
0
  6
CONTINUOUS
 10
-56.999991999999793
 20
-9.0698780000000152
 30
0.0
 40
16.0
 50
316.32169800000167
 51
359.94237200000219
  0
LINE
  5
2E6D
  8
0
  6
CONTINUOUS
 10
-41.0
 20
-9.0859709999999723
 30
0.0
 11
-41.0
 21
-6.0
 31
0.0
  0
ARC
  5
2E6E
  8
0
  6
CONTINUOUS
 10
47.0
 20
-5.0
 30
0.0
 40
5.0
 50
0.0
 51
90.0
  0
ENDBLK
  5
2E72
  8
0
  0
BLOCK
  8
0
  2
取手横
 70
     0
 10
0.0
 20
0.0
 30
0.0
  3
取手横
  1

  0
LINE
  5
2ED7
  8
0
  6
CONTINUOUS
 10
3.0000005198960471
 20
16.972393024514759
 30
0.0
 11
29.000000519896052
 21
16.972393024514759
 31
0.0
  0
LINE
  5
2ED8
  8
0
  6
CONTINUOUS
 10
3.0000005198960471
 20
17.265286024514801
 30
0.0
 11
3.0000005198960471
 21
16.972393024514759
 31
0.0
  0
LINE
  5
2ED9
  8
0
  6
CONTINUOUS
 10
29.000000519896052
 20
17.067405024514748
 30
0.0
 11
29.000000519896052
 21
16.972393024514759
 31
0.0
  0
LINE
  5
2EDA
  8
0
  6
HIDDEN
 10
0.000000519896048
 20
14.87239302451462
 30
0.0
 11
0.000000519896048
 21
3.3858070245146328
 31
0.0
  0
LINE
  5
2EDB
  8
0
  6
HIDDEN
 10
1.0000005198960471
 20
15.87239302451462
 30
0.0
 11
5.0000005198960471
 21
15.87239302451462
 31
0.0
  0
LINE
  5
2EDC
  8
0
  6
HIDDEN
 10
5.0000005198960471
 20
16.972393024514759
 30
0.0
 11
5.0000005198960471
 21
15.87239302451462
 31
0.0
  0
ARC
  5
2EDD
  8
0
  6
HIDDEN
 10
1.0000005198960471
 20
14.87239302451462
 30
0.0
 40
1.0
 50
90.0
 51
180.0
  0
ARC
  5
2EDE
  8
0
  6
HIDDEN
 10
6.7262805198959077
 20
19.972393024514759
 30
0.0
 40
20.0
 50
257.33836500000331
 51
351.37307300000481
  0
ARC
  5
2EDF
  8
0
  6
CONTINUOUS
 10
4.0000005198960471
 20
17.265286024514801
 30
0.0
 40
1.0
 50
109.47122099999559
 51
180.0
  0
ARC
  5
2EE0
  8
0
  6
CONTINUOUS
 10
28.000000519896052
 20
17.067405024514748
 30
0.0
 40
1.0
 50
0.0
 51
84.259468000003736
  0
ARC
  5
2EE1
  8
0
  6
CONTINUOUS
 10
9.0000005198960462
 20
17.972393024514759
 30
0.0
 40
2.0
 50
84.259468000003736
 51
109.47122099999559
  0
LINE
  5
2EE2
  8
0
  6
CONTINUOUS
 10
8.3333335198958594
 20
19.858011024514781
 30
0.0
 11
3.6666665198958981
 21
18.208095024514702
 31
0.0
  0
LINE
  5
2EE3
  8
0
  6
CONTINUOUS
 10
28.100023519896009
 20
18.062390024514801
 30
0.0
 11
9.2000475198960885
 21
19.962363024514609
 31
0.0
  0
LINE
  5
2EE4
  8
0
  6
HIDDEN
 10
7.0000005198960471
 20
16.972393024514759
 30
0.0
 11
7.0000005198960471
 21
1.97447402451462
 31
0.0
  0
ARC
  5
2EE5
  8
0
  6
HIDDEN
 10
3.0000005198960471
 20
3.3858070245146328
 30
0.0
 40
3.0
 50
180.0
 51
257.33836500000331
  0
ARC
  5
2EE6
  8
0
  6
HIDDEN
 10
17.991060519895878
 20
8.4913060245146426
 30
0.0
 40
10.991076
 50
129.4991610000107
 51
180.0
  0
ARC
  5
2EE7
  8
0
  6
HIDDEN
 10
23.100000519895961
 20
15.87239302451462
 30
0.0
 40
4.0
 50
303.15016600000399
 51
0.0
  0
LINE
  5
2EE8
  8
0
  6
HIDDEN
 10
26.301519519895919
 20
15.87239302451462
 30
0.0
 11
27.100000519895961
 21
15.87239302451462
 31
0.0
  0
ENDBLK
  5
2EEC
  8
0
  0
BLOCK
  8
0
  2
取手上
 70
     0
 10
0.0
 20
0.0
 30
0.0
  3
取手上
  1

  0
LINE
  5
2F33
  8
0
  6
HIDDEN
 10
7.4489594934837546
 20
79.999999831822151
 30
0.0
 11
4.0999984934836098
 21
79.999999831822151
 31
0.0
  0
LINE
  5
2F34
  8
0
  6
HIDDEN
 10
7.4489594934837546
 20
73.999999831822151
 30
0.0
 11
7.4489594934837546
 21
79.999999831822151
 31
0.0
  0
LINE
  5
2F35
  8
0
  6
HIDDEN
 10
4.0999984934836098
 20
73.999999831822151
 30
0.0
 11
7.4489594934837546
 21
73.999999831822151
 31
0.0
  0
LINE
  5
2F36
  8
0
  6
HIDDEN
 10
7.4489594934837546
 20
54.999999831822151
 30
0.0
 11
4.0999984934836098
 21
54.999999831822151
 31
0.0
  0
LINE
  5
2F37
  8
0
  6
HIDDEN
 10
7.4489594934837546
 20
48.999999831822151
 30
0.0
 11
7.4489594934837546
 21
54.999999831822151
 31
0.0
  0
LINE
  5
2F38
  8
0
  6
HIDDEN
 10
4.0999984934836098
 20
48.999999831822151
 30
0.0
 11
7.4489594934837546
 21
48.999999831822151
 31
0.0
  0
LINE
  5
2F39
  8
0
  6
CONTINUOUS
 62
     7
 10
7.4489594934836978
 20
29.999999831822151
 30
0.0
 11
4.0999984934835529
 21
29.999999831822151
 31
0.0
  0
LINE
  5
2F3A
  8
0
  6
CONTINUOUS
 62
     7
 10
7.4489594934836978
 20
23.999999831822151
 30
0.0
 11
7.4489594934836978
 21
29.999999831822151
 31
0.0
  0
LINE
  5
2F3B
  8
0
  6
CONTINUOUS
 62
     7
 10
4.0999984934835529
 20
23.999999831822151
 30
0.0
 11
7.4489594934836978
 21
23.999999831822151
 31
0.0
  0
LINE
  5
2F3C
  8
0
  6
HIDDEN
 10
4.0999984934835529
 20
21.999999831822151
 30
0.0
 11
2.9999984934836439
 21
21.999999831822151
 31
0.0
  0
LINE
  5
2F3D
  8
0
  6
HIDDEN
 10
4.0999984934836098
 20
81.999999831822137
 30
0.0
 11
4.0999984934835529
 21
21.999999831822151
 31
0.0
  0
LINE
  5
2F3E
  8
0
  6
HIDDEN
 10
2.9999984934837012
 20
81.999999831822137
 30
0.0
 11
4.0999984934836098
 21
81.999999831822137
 31
0.0
  0
LINE
  5
2F3F
  8
0
  6
CONTINUOUS
 62
     7
 10
1.5480984934836211
 20
6.310933831822239
 30
0.0
 11
1.5480984934836779
 21
97.68906583182229
 31
0.0
  0
ARC
  5
2F40
  8
0
  6
CONTINUOUS
 62
     7
 10
-1.451901506516321
 20
97.68906583182229
 30
0.0
 40
3.0
 50
0.0
 51
25.911220000003901
  0
LINE
  5
2F41
  8
0
  6
CONTINUOUS
 62
     7
 10
-0.0000015065162984
 20
98.999999831822151
 30
0.0
 11
1.246515493483741
 21
98.999999831822151
 31
0.0
  0
LINE
  5
2F42
  8
0
  6
CONTINUOUS
 62
     7
 10
-0.0000015065163552
 20
4.9999998318221506
 30
0.0
 11
1.246515493483684
 21
4.9999998318221506
 31
0.0
  0
ARC
  5
2F43
  8
0
  6
CONTINUOUS
 62
     7
 10
-1.4519015065163781
 20
6.310933831822239
 30
0.0
 40
3.0
 50
334.08877999999612
 51
0.0
  0
ARC
  5
2F44
  8
0
  6
HIDDEN
 10
16.999998493483702
 20
91.935245831822144
 30
0.0
 40
3.0
 50
0.0
 51
69.075497999995164
  0
ARC
  5
2F45
  8
0
  6
HIDDEN
 10
16.999998493483641
 20
12.064753831822371
 30
0.0
 40
3.0
 50
290.92450200000491
 51
0.0
  0
LINE
  5
2F46
  8
0
  6
HIDDEN
 10
18.071411493483531
 20
9.262598831822288
 30
0.0
 11
2.9999984934836439
 21
3.499999831822151
 31
0.0
  0
LINE
  5
2F47
  8
0
  6
HIDDEN
 10
19.999998493483702
 20
91.935245831822144
 30
0.0
 11
19.999998493483641
 21
12.064753831822371
 31
0.0
  0
LINE
  5
2F48
  8
0
  6
HIDDEN
 10
2.9999984934837012
 20
100.49999983182209
 30
0.0
 11
18.071411493483591
 21
94.737400831822242
 31
0.0
  0
LINE
  5
2F49
  8
0
  6
CONTINUOUS
 62
     7
 10
0.9999984934837016
 20
93.999999831822151
 30
0.0
 11
0.9999984934836447
 21
9.9999998318221515
 31
0.0
  0
LINE
  5
2F4A
  8
0
  6
CONTINUOUS
 62
     7
 10
1.999998493483701
 20
102.0365718318223
 30
0.0
 11
1.9999984934836439
 21
1.963427831822173
 31
0.0
  0
ARC
  5
2F4B
  8
0
  6
CONTINUOUS
 62
     7
 10
-3.0000015065162979
 20
102.0365718318223
 30
0.0
 40
5.0
 50
0.0
 51
23.1217050000044
  0
LINE
  5
2F4C
  8
0
  6
CONTINUOUS
 62
     7
 10
-0.0000015065163552
 20
-0.0000001681778485
 30
0.0
 11
-0.0000015065162984
 21
103.99999983182209
 31
0.0
  0
LINE
  5
2F4D
  8
0
  6
CONTINUOUS
 62
     7
 10
2.9999984934836439
 20
-0.0000001681778485
 30
0.0
 11
-0.0000015065163552
 21
-0.0000001681778485
 31
0.0
  0
LINE
  5
2F4E
  8
0
  6
CONTINUOUS
 62
     7
 10
2.9999984934837012
 20
103.99999983182209
 30
0.0
 11
2.9999984934836439
 21
-0.0000001681778485
 31
0.0
  0
LINE
  5
2F4F
  8
0
  6
CONTINUOUS
 62
     7
 10
-0.0000015065162984
 20
103.99999983182209
 30
0.0
 11
2.9999984934837012
 21
103.99999983182209
 31
0.0
  0
ARC
  5
2F50
  8
0
  6
CONTINUOUS
 62
     7
 10
-3.0000015065163552
 20
1.963427831822173
 30
0.0
 40
5.0
 50
336.8782949999956
 51
0.0
  0
ENDBLK
  5
2F54
  8
0
  0
BLOCK
  8
0
  2
ロック金具凸
 70
     0
 10
0.0
 20
0.0
 30
0.0
  3
ロック金具凸
  1

  0
LINE
  5
2F95
  8
ﾛｯｸ金具
  6
CONTINUOUS
 10
35.999999288882471
 20
-0.0000016026749563
 30
0.0
 11
35.999999288882471
 21
71.999998397325044
 31
0.0
  0
LINE
  5
2F96
  8
ﾛｯｸ金具
  6
CONTINUOUS
 10
-0.0000007111175364
 20
32.549998397324998
 30
0.0
 11
-0.0000007111175364
 21
39.449998397325089
 31
0.0
  0
LINE
  5
2F97
  8
ﾛｯｸ金具
  6
CONTINUOUS
 10
26.99999928888246
 20
71.999998397325044
 30
0.0
 11
35.999999288882471
 21
71.999998397325044
 31
0.0
  0
LINE
  5
2F98
  8
ﾛｯｸ金具
  6
CONTINUOUS
 10
26.99999928888246
 20
-0.0000016026749563
 30
0.0
 11
35.999999288882471
 21
-0.0000016026749563
 31
0.0
  0
LINE
  5
2F99
  8
ﾛｯｸ金具
  6
CONTINUOUS
 10
26.99999928888246
 20
-0.0000016026749563
 30
0.0
 11
26.99999928888246
 21
20.249998397325051
 31
0.0
  0
LINE
  5
2F9A
  8
ﾛｯｸ金具
  6
CONTINUOUS
 10
5.672999288882238
 20
43.794898397325142
 30
0.0
 11
13.766999288882291
 21
41.612098397324871
 31
0.0
  0
LINE
  5
2F9B
  8
ﾛｯｸ金具
  6
CONTINUOUS
 10
5.672999288882238
 20
28.205098397324939
 30
0.0
 11
13.766999288882291
 21
30.387898397324989
 31
0.0
  0
LINE
  5
2F9C
  8
ﾛｯｸ金具
  6
CONTINUOUS
 10
26.99999928888246
 20
51.749998397325037
 30
0.0
 11
26.99999928888246
 21
71.999998397325044
 31
0.0
  0
ARC
  5
2F9D
  8
ﾛｯｸ金具
  6
CONTINUOUS
 10
16.499999288882009
 20
51.749998397325037
 30
0.0
 40
10.5
 50
254.9089999999928
 51
0.0
  0
ARC
  5
2F9E
  8
ﾛｯｸ金具
  6
CONTINUOUS
 10
4.4999992888824627
 20
39.449998397325089
 30
0.0
 40
4.5
 50
74.909299999996321
 51
180.0
  0
ARC
  5
2F9F
  8
ﾛｯｸ金具
  6
CONTINUOUS
 10
4.4999992888824627
 20
32.549998397324998
 30
0.0
 40
4.5
 50
180.0
 51
285.09100000000723
  0
ARC
  5
2FA0
  8
ﾛｯｸ金具
  6
CONTINUOUS
 10
16.499999288882009
 20
20.249998397325051
 30
0.0
 40
10.5
 50
0.0
 51
105.0910000000072
  0
ENDBLK
  5
2FA4
  8
0
  0
BLOCK
  8
0
  2
ロック金具凹
 70
     0
 10
0.0
 20
0.0
 30
0.0
  3
ロック金具凹
  1

  0
LINE
  5
3034
  8
ﾛｯｸ金具
  6
CONTINUOUS
 10
0.0
 20
14.0
 30
0.0
 11
0.0
 21
-14.0
 31
0.0
  0
LINE
  5
3035
  8
ﾛｯｸ金具
  6
CONTINUOUS
 10
11.99989999999991
 20
14.0
 30
0.0
 11
11.99989999999991
 21
3.2999999999999541
 31
0.0
  0
LINE
  5
3036
  8
ﾛｯｸ金具
  6
CONTINUOUS
 10
11.99989999999991
 20
14.0
 30
0.0
 11
0.0
 21
14.0
 31
0.0
  0
LINE
  5
3037
  8
ﾛｯｸ金具
  6
CONTINUOUS
 10
11.99989999999991
 20
-14.0
 30
0.0
 11
0.0
 21
-14.0
 31
0.0
  0
LINE
  5
3038
  8
ﾛｯｸ金具
  6
CONTINUOUS
 10
1.9999000000000251
 20
3.2999999999999541
 30
0.0
 11
1.9999000000000251
 21
-3.3000000000000682
 31
0.0
  0
LINE
  5
3039
  8
ﾛｯｸ金具
  6
CONTINUOUS
 10
11.99989999999991
 20
-3.3000000000000682
 30
0.0
 11
1.9999000000000251
 21
-3.3000000000000682
 31
0.0
  0
LINE
  5
303A
  8
ﾛｯｸ金具
  6
CONTINUOUS
 10
11.99989999999991
 20
3.2999999999999541
 30
0.0
 11
1.9999000000000251
 21
3.2999999999999541
 31
0.0
  0
LINE
  5
303B
  8
ﾛｯｸ金具
  6
CONTINUOUS
 10
11.99989999999991
 20
-3.3000000000000682
 30
0.0
 11
11.99989999999991
 21
-14.0
 31
0.0
  0
ARC
  5
303C
  8
ﾛｯｸ金具
  6
CONTINUOUS
 10
7.9999000000000251
 20
-4.27800000000002
 30
0.0
 40
2.7779999999999991
 50
20.61289999999881
 51
159.38700000000131
  0
ARC
  5
303D
  8
ﾛｯｸ金具
  6
CONTINUOUS
 10
7.9999000000000251
 20
4.2779999999999063
 30
0.0
 40
2.7779999999999991
 50
200.61299999999869
 51
339.38700000000131
  0
LINE
  5
303E
  8
ﾛｯｸ金具
  6
CONTINUOUS
 10
2.4999000000000251
 20
3.2999999999999541
 30
0.0
 11
1.9999000000000251
 21
2.7999999999999541
 31
0.0
  0
LINE
  5
303F
  8
ﾛｯｸ金具
  6
CONTINUOUS
 10
1.9999000000000251
 20
-2.8000000000000682
 30
0.0
 11
2.4999000000000251
 21
-3.3000000000000682
 31
0.0
  0
ENDBLK
  5
3043
  8
0
  0
BLOCK
  8
0
  2
保護スポンジ
 70
     0
 10
0.0
 20
0.0
 30
0.0
  3
保護スポンジ
  1

  0
LINE
  5
30D9
  8
保護スポンジ
 10
-0.0000034397589843
 20
9.9999977237393978
 30
0.0
 11
347.99999656024102
 21
9.9999977237393978
 31
0.0
  0
LINE
  5
30DA
  8
保護スポンジ
 10
-0.0000034397589843
 20
-0.0000022762606022
 30
0.0
 11
347.99999656024102
 21
-0.0000022762606022
 31
0.0
  0
LINE
  5
30DB
  8
保護スポンジ
 10
-0.0000034397589843
 20
-0.0000022762606022
 30
0.0
 11
-0.0000034397589843
 21
9.9999977237393978
 31
0.0
  0
LINE
  5
30DC
  8
保護スポンジ
 10
347.99999656024102
 20
-0.0000022762606022
 30
0.0
 11
347.99999656024102
 21
9.9999977237393978
 31
0.0
  0
INSERT
  5
30DD
  8
AM_8
  6
CONTINUOUS
 62
     8
  2
*X120
 10
0.0
 20
0.0
 30
0.0
1001
GENIUS_GENOBJ-N-HTC_13
1002
{
1000
OWNER
1000
GEN
1002
}
1001
GENIUS_GENODEF_13
1002
{
1000
HIER
1070
     0
1002
}
1002
{
1000
MANEDIT
1070
     0
1002
}
1002
{
1000
NOSEL
1070
     0
1002
}
1002
{
1000
BEHIND
1070
     0
1002
}
1002
{
1000
OTHER
1070
     0
1002
}
1002
{
1000
REACTOR
1002
}
1001
GENIUS_GENHATCH_13
1002
{
1000
DATA
1040
45.0
1042
2.5
1000
_U
1070
     0
1011
217.9852248648954
1021
0.0
1031
0.0
1021
5.4641508000011072
1031
0.0
1002
}
1002
{
1000
UCS
1010
0.0
1020
0.0
1030
0.0
1010
1.0
1020
0.0
1030
0.0
1010
0.0
1020
1.0
1030
0.0
1002
}
1001
ACAD
1000
HATCH
1002
{
1070
    19
1000
DOTS
1040
3.0
1040
0.0
1000
R14_HATCH_DATA
1000
30DD
1011
1.0
1021
0.0
1031
0.0
1021
0.0
1031
0.0
1011
0.0
1021
0.0
1031
0.0
1021
1.0
1031
0.0
1011
0.0
1021
0.0
1031
0.0
1021
0.0
1031
1.0
1040
0.0
1010
0.0
1020
0.0
1030
1.0
1000
DOTS
1070
     0
1070
     0
1071
        1
1071
        1
1071
        4
1070
     1
1040
-0.0000034397589843
1040
-0.0000022762606022
1040
347.99999656024102
1040
-0.0000022762606022
1070
     1
1040
347.99999656024102
1040
-0.0000022762606022
1040
347.99999656024102
1040
9.9999977237393978
1070
     1
1040
347.99999656024102
1040
9.9999977237393978
1040
-0.0000034397589843
1040
9.9999977237393978
1070
     1
1040
-0.0000034397589843
1040
9.9999977237393978
1040
-0.0000034397589843
1040
-0.0000022762606022
1071
        0
1070
     0
1070
     1
1040
0.0
1040
3.0
1070
     0
1070
     1
1040
0.0
1040
-34.656579965264662
1040
-328.89162205455273
1040
2.3812499999999992
1040
4.7624999999999993
1070
     2
1040
0.0
1040
-4.7624999999999993
1071
        1
1040
-34.656579965264662
1040
-328.89162205455273
1040
0.0
1002
}
  0
ENDBLK
  5
30E1
  8
0
  0
BLOCK
  8
0
  2
*D14
 70
     1
 10
0.0
 20
0.0
 30
0.0
  3
*D14
  1

  0
LINE
  5
41B6
  8
AM_5
 10
631.35335399001258
 20
747.78902229187167
 30
0.0
 11
687.49699868794914
 21
747.78902229187167
 31
0.0
  0
LINE
  5
41B7
  8
AM_5
 10
663.65335399001265
 20
396.78902229187179
 30
0.0
 11
687.49699868794914
 21
396.78902229187179
 31
0.0
  0
LINE
  5
41B8
  8
AM_5
 10
683.49699868794914
 20
741.78902229187179
 30
0.0
 11
683.49699868794914
 21
402.78902229187179
 31
0.0
  0
INSERT
  5
41B9
  8
AM_5
  2
_OPEN30
 10
683.49699868794914
 20
747.78902229187167
 30
0.0
 41
6.0
 42
6.0
 43
6.0
 50
90.0
  0
INSERT
  5
41BA
  8
AM_5
  2
_OPEN30
 10
683.49699868794914
 20
396.78902229187179
 30
0.0
 41
6.0
 42
6.0
 43
6.0
 50
270.0
  0
INSERT
  5
41BB
  8
AM_7N
  2
*U121
 10
0.0
 20
0.0
 30
0.0
  0
POINT
  5
41BC
  8
DEFPOINTS
 62
     0
 10
627.35335399001258
 20
747.78902229187167
 30
0.0
  0
POINT
  5
41BD
  8
DEFPOINTS
 62
     0
 10
659.65335399001265
 20
396.78902229187179
 30
0.0
  0
POINT
  5
41BE
  8
DEFPOINTS
 62
     0
 10
683.49699868794914
 20
396.78902229187179
 30
0.0
  0
ENDBLK
  5
3746
  8
0
  0
BLOCK
  8
0
  2
*D15
 70
     1
 10
0.0
 20
0.0
 30
0.0
  3
*D15
  1

  0
LINE
  5
4785
  8
AM_5
 10
177.05335399001271
 20
393.78902229187179
 30
0.0
 11
177.05335399001271
 21
326.4266780908647
 31
0.0
  0
LINE
  5
4786
  8
AM_5
 10
659.65335399001265
 20
393.78902229187179
 30
0.0
 11
659.65335399001265
 21
326.4266780908647
 31
0.0
  0
LINE
  5
4787
  8
AM_5
 10
184.55335399001271
 20
329.4266780908647
 30
0.0
 11
652.15335399001265
 21
329.4266780908647
 31
0.0
  0
INSERT
  5
4788
  8
AM_5
  2
_OPEN30
 10
177.05335399001271
 20
329.4266780908647
 30
0.0
 41
7.5
 42
7.5
 43
7.5
 50
180.0
  0
INSERT
  5
4789
  8
AM_5
  2
_OPEN30
 10
659.65335399001265
 20
329.4266780908647
 30
0.0
 41
7.5
 42
7.5
 43
7.5
  0
INSERT
  5
478A
  8
AM_7N
  2
*U136
 10
0.0
 20
0.0
 30
0.0
  0
POINT
  5
478B
  8
DEFPOINTS
 62
     0
 10
177.05335399001271
 20
396.78902229187179
 30
0.0
  0
POINT
  5
478C
  8
DEFPOINTS
 62
     0
 10
659.65335399001265
 20
396.78902229187179
 30
0.0
  0
POINT
  5
478D
  8
DEFPOINTS
 62
     0
 10
659.65335399001265
 20
329.4266780908647
 30
0.0
  0
ENDBLK
  5
3748
  8
0
  0
BLOCK
  8
0
  2
*D16
 70
     1
 10
0.0
 20
0.0
 30
0.0
  3
*D16
  1

  0
LINE
  5
4F82
  8
AM_5
 10
737.36738750304164
 20
118.7892518046701
 30
0.0
 11
737.36738750304164
 21
78.980244926926389
 31
0.0
  0
LINE
  5
4F83
  8
AM_5
 10
780.36738750304175
 20
118.7892518046701
 30
0.0
 11
780.36738750304175
 21
78.980244926926389
 31
0.0
  0
LINE
  5
4F84
  8
AM_5
 10
743.36738750304164
 20
82.980244926926375
 30
0.0
 11
774.36738750304175
 21
82.980244926926375
 31
0.0
  0
INSERT
  5
4F85
  8
AM_5
  2
_OPEN30
 10
737.36738750304164
 20
82.980244926926375
 30
0.0
 41
6.0
 42
6.0
 43
6.0
 50
180.0
  0
INSERT
  5
4F86
  8
AM_5
  2
_OPEN30
 10
780.36738750304175
 20
82.980244926926375
 30
0.0
 41
6.0
 42
6.0
 43
6.0
  0
TEXT
  8
AM_5
  40
12
  5
5150
  62
2
  72
0
  71
0
 10
758.867
 20
75.3802
 30
0.000000
  1
43
  0
POINT
  5
4F88
  8
DEFPOINTS
 62
     0
 10
737.36738750304164
 20
122.7892518046701
 30
0.0
  0
POINT
  5
4F89
  8
DEFPOINTS
 62
     0
 10
780.36738750304175
 20
122.7892518046701
 30
0.0
  0
POINT
  5
4F8A
  8
DEFPOINTS
 62
     0
 10
780.36738750304175
 20
82.980244926926375
 30
0.0
  0
ENDBLK
  5
374A
  8
0
  0
BLOCK
  8
0
  2
*D17
 70
     1
 10
0.0
 20
0.0
 30
0.0
  3
*D17
  1

  0
LINE
  5
41BF
  8
AM_5
 10
631.35335399001258
 20
747.78902229187167
 30
0.0
 11
687.49699868794937
 21
747.78902229187167
 31
0.0
  0
LINE
  5
41C0
  8
AM_5
 10
640.55335399001274
 20
773.78902229187179
 30
0.0
 11
687.4969986879496
 21
773.78902229187179
 31
0.0
  0
LINE
  5
41C1
  8
AM_5
 10
683.49699868794937
 20
753.78902229187179
 30
0.0
 11
683.49699868794937
 21
767.78902229187167
 31
0.0
  0
INSERT
  5
41C2
  8
AM_5
  2
_OPEN30
 10
683.49699868794937
 20
747.78902229187167
 30
0.0
 41
6.0
 42
6.0
 43
6.0
 50
270.0
  0
INSERT
  5
41C3
  8
AM_5
  2
_OPEN30
 10
683.4969986879496
 20
773.78902229187179
 30
0.0
 41
6.0
 42
6.0
 43
6.0
 50
90.0
  0
INSERT
  5
41C4
  8
AM_7N
  2
*U122
 10
0.0
 20
0.0
 30
0.0
  0
POINT
  5
41C5
  8
DEFPOINTS
 62
     0
 10
627.35335399001258
 20
747.78902229187167
 30
0.0
  0
POINT
  5
41C6
  8
DEFPOINTS
 62
     0
 10
636.55335399001274
 20
773.78902229187179
 30
0.0
  0
POINT
  5
41C7
  8
DEFPOINTS
 62
     0
 10
683.4969986879496
 20
773.78902229187179
 30
0.0
  0
ENDBLK
  5
37E4
  8
0
  0
BLOCK
  8
0
  2
*D18
 70
     1
 10
0.0
 20
0.0
 30
0.0
  3
*D18
  1

  0
LINE
  5
4F8B
  8
AM_5
 10
175.05335399001271
 20
252.47699041611671
 30
0.0
 11
159.6009262977623
 21
252.47699041611671
 31
0.0
  0
LINE
  5
4F8C
  8
AM_5
 10
178.80335399001271
 20
258.57699041611681
 30
0.0
 11
159.6009262977623
 21
258.57699041611681
 31
0.0
  0
LINE
  5
4F8D
  8
AM_5
 10
163.6009262977623
 20
246.47699041611671
 30
0.0
 11
163.6009262977623
 21
240.47699041611671
 31
0.0
  0
LINE
  5
4F8E
  8
AM_5
 10
163.6009262977623
 20
264.57699041611681
 30
0.0
 11
163.6009262977623
 21
270.57699041611681
 31
0.0
  0
LINE
  5
4F8F
  8
AM_5
 10
163.6009262977623
 20
221.2275166394393
 30
0.0
 11
163.6009262977623
 21
252.47699041611671
 31
0.0
  0
TEXT
  8
AM_5
  40
12
  5
5151
  62
2
  72
0
  71
0
 10
155.601
 20
215.187
 30
0.000000
  1
6.1
  0
LINE
  5
4F91
  8
AM_5
 10
163.6009262977623
 20
252.47699041611671
 30
0.0
 11
163.6009262977623
 21
258.57699041611681
 31
0.0
  0
LINE
  5
4F92
  8
AM_5
 10
163.6009262977623
 20
252.47699041611671
 30
0.0
 11
163.6009262977623
 21
258.57699041611681
 31
0.0
  0
INSERT
  5
4F93
  8
AM_5
  2
_OPEN30
 10
163.6009262977623
 20
252.47699041611671
 30
0.0
 41
6.0
 42
6.0
 43
6.0
 50
90.0
  0
INSERT
  5
4F94
  8
AM_5
  2
_OPEN30
 10
163.6009262977623
 20
258.57699041611681
 30
0.0
 41
6.0
 42
6.0
 43
6.0
 50
270.0
  0
POINT
  5
4F95
  8
DEFPOINTS
 62
     0
 10
179.05335399001271
 20
252.47699041611671
 30
0.0
  0
POINT
  5
4F96
  8
DEFPOINTS
 62
     0
 10
182.80335399001271
 20
258.57699041611681
 30
0.0
  0
POINT
  5
4F97
  8
DEFPOINTS
 62
     0
 10
163.6009262977623
 20
258.57699041611681
 30
0.0
  0
ENDBLK
  5
3AB5
  8
0
  0
BLOCK
  8
0
  2
*D19
 70
     1
 10
0.0
 20
0.0
 30
0.0
  3
*D19
  1

  0
LINE
  5
4AF3
  8
AM_5
 10
178.80335399001271
 20
290.37699041611683
 30
0.0
 11
159.60092629776219
 21
290.37699041611683
 31
0.0
  0
LINE
  5
4AF4
  8
AM_5
 10
178.80335399001271
 20
258.57699041611681
 30
0.0
 11
159.60092629776219
 21
258.57699041611681
 31
0.0
  0
LINE
  5
4AF5
  8
AM_5
 10
163.60092629776219
 20
284.37699041611683
 30
0.0
 11
163.60092629776219
 21
264.57699041611681
 31
0.0
  0
INSERT
  5
4AF6
  8
AM_5
  2
_OPEN30
 10
163.60092629776219
 20
290.37699041611683
 30
0.0
 41
6.0
 42
6.0
 43
6.0
 50
90.0
  0
INSERT
  5
4AF7
  8
AM_5
  2
_OPEN30
 10
163.60092629776219
 20
258.57699041611681
 30
0.0
 41
6.0
 42
6.0
 43
6.0
 50
270.0
  0
INSERT
  5
4AF8
  8
AM_7N
  2
*U138
 10
0.0
 20
0.0
 30
0.0
  0
POINT
  5
4AF9
  8
DEFPOINTS
 62
     0
 10
182.80335399001271
 20
290.37699041611683
 30
0.0
  0
POINT
  5
4AFA
  8
DEFPOINTS
 62
     0
 10
182.80335399001271
 20
258.57699041611681
 30
0.0
  0
POINT
  5
4AFB
  8
DEFPOINTS
 62
     0
 10
163.60092629776219
 20
258.57699041611681
 30
0.0
  0
ENDBLK
  5
3AB7
  8
0
  0
BLOCK
  8
0
  2
*D20
 70
     1
 10
0.0
 20
0.0
 30
0.0
  3
*D20
  1

  0
LINE
  5
4F98
  8
AM_5
 10
175.05335399001271
 20
296.47699041611668
 30
0.0
 11
159.60092629776219
 21
296.47699041611668
 31
0.0
  0
LINE
  5
4F99
  8
AM_5
 10
178.80335399001271
 20
290.37699041611683
 30
0.0
 11
159.60092629776219
 21
290.37699041611683
 31
0.0
  0
LINE
  5
4F9A
  8
AM_5
 10
163.60092629776219
 20
302.47699041611668
 30
0.0
 11
163.60092629776219
 21
308.47699041611668
 31
0.0
  0
LINE
  5
4F9B
  8
AM_5
 10
163.60092629776219
 20
284.37699041611683
 30
0.0
 11
163.60092629776219
 21
278.37699041611683
 31
0.0
  0
LINE
  5
4F9C
  8
AM_5
 10
163.6009262977623
 20
328.40656656099043
 30
0.0
 11
163.60092629776219
 21
296.47699041611668
 31
0.0
  0
TEXT
  8
AM_5
  40
12
  5
5152
  62
2
  72
0
  71
0
 10
155.601
 20
303.248
 30
0.000000
  1
6.1
  0
LINE
  5
4F9E
  8
AM_5
 10
163.60092629776219
 20
296.47699041611668
 30
0.0
 11
163.60092629776219
 21
290.37699041611683
 31
0.0
  0
LINE
  5
4F9F
  8
AM_5
 10
163.60092629776219
 20
296.47699041611668
 30
0.0
 11
163.60092629776219
 21
290.37699041611683
 31
0.0
  0
INSERT
  5
4FA0
  8
AM_5
  2
_OPEN30
 10
163.60092629776219
 20
296.47699041611668
 30
0.0
 41
6.0
 42
6.0
 43
6.0
 50
270.0
  0
INSERT
  5
4FA1
  8
AM_5
  2
_OPEN30
 10
163.60092629776219
 20
290.37699041611683
 30
0.0
 41
6.0
 42
6.0
 43
6.0
 50
90.0
  0
POINT
  5
4FA2
  8
DEFPOINTS
 62
     0
 10
179.05335399001271
 20
296.47699041611668
 30
0.0
  0
POINT
  5
4FA3
  8
DEFPOINTS
 62
     0
 10
182.80335399001271
 20
290.37699041611683
 30
0.0
  0
POINT
  5
4FA4
  8
DEFPOINTS
 62
     0
 10
163.60092629776219
 20
290.37699041611683
 30
0.0
  0
ENDBLK
  5
3AB9
  8
0
  0
BLOCK
  8
0
  2
*D21
 70
     1
 10
0.0
 20
0.0
 30
0.0
  3
*D21
  1

  0
LINE
  5
4B09
  8
AM_5
 10
175.05335399001271
 20
252.47699041611671
 30
0.0
 11
138.5292512177038
 21
252.47699041611671
 31
0.0
  0
LINE
  5
4B0A
  8
AM_5
 10
175.05335399001271
 20
296.47699041611679
 30
0.0
 11
138.5292512177038
 21
296.47699041611679
 31
0.0
  0
LINE
  5
4B0B
  8
AM_5
 10
142.5292512177038
 20
258.47699041611662
 30
0.0
 11
142.5292512177038
 21
290.47699041611679
 31
0.0
  0
INSERT
  5
4B0C
  8
AM_5
  2
_OPEN30
 10
142.5292512177038
 20
252.47699041611671
 30
0.0
 41
6.0
 42
6.0
 43
6.0
 50
270.0
  0
INSERT
  5
4B0D
  8
AM_5
  2
_OPEN30
 10
142.5292512177038
 20
296.47699041611679
 30
0.0
 41
6.0
 42
6.0
 43
6.0
 50
90.0
  0
INSERT
  5
4B0E
  8
AM_7N
  2
*U139
 10
0.0
 20
0.0
 30
0.0
  0
POINT
  5
4B0F
  8
DEFPOINTS
 62
     0
 10
179.05335399001271
 20
252.47699041611671
 30
0.0
  0
POINT
  5
4B10
  8
DEFPOINTS
 62
     0
 10
179.05335399001271
 20
296.47699041611679
 30
0.0
  0
POINT
  5
4B11
  8
DEFPOINTS
 62
     0
 10
142.5292512177038
 20
296.47699041611679
 30
0.0
  0
ENDBLK
  5
3AE3
  8
0
  0
BLOCK
  8
0
  2
*D22
 70
     1
 10
0.0
 20
0.0
 30
0.0
  3
*D22
  1

  0
LINE
  5
4FA5
  8
AM_5
 10
177.05335399001271
 20
250.47699041611671
 30
0.0
 11
177.05335399001271
 21
200.47699041611659
 31
0.0
  0
LINE
  5
4FA6
  8
AM_5
 10
199.85335399001269
 20
248.47699041611671
 30
0.0
 11
199.85335399001269
 21
200.47699041611659
 31
0.0
  0
LINE
  5
4FA7
  8
AM_5
 10
183.05335399001271
 20
204.47699041611659
 30
0.0
 11
193.85335399001269
 21
204.47699041611659
 31
0.0
  0
LINE
  5
4FA8
  8
AM_5
 10
136.24657478799989
 20
204.47699041611659
 30
0.0
 11
177.05335399001271
 21
204.47699041611659
 31
0.0
  0
TEXT
  8
AM_5
  40
12
  5
5153
  62
2
  72
0
  71
0
 10
150.999
 20
196.878
 30
0.000000
  1
22.8
  0
INSERT
  5
4FAA
  8
AM_5
  2
_OPEN30
 10
177.05335399001271
 20
204.47699041611659
 30
0.0
 41
6.0
 42
6.0
 43
6.0
 50
180.0
  0
INSERT
  5
4FAB
  8
AM_5
  2
_OPEN30
 10
199.85335399001269
 20
204.47699041611659
 30
0.0
 41
6.0
 42
6.0
 43
6.0
  0
POINT
  5
4FAC
  8
DEFPOINTS
 62
     0
 10
177.05335399001271
 20
254.47699041611671
 30
0.0
  0
POINT
  5
4FAD
  8
DEFPOINTS
 62
     0
 10
199.85335399001269
 20
252.47699041611671
 30
0.0
  0
POINT
  5
4FAE
  8
DEFPOINTS
 62
     0
 10
199.85335399001269
 20
204.47699041611659
 30
0.0
  0
ENDBLK
  5
3DA6
  8
0
  0
BLOCK
  8
0
  2
*D23
 70
     1
 10
0.0
 20
0.0
 30
0.0
  3
*D23
  1

  0
LINE
  5
4FAF
  8
AM_5
 10
199.85335399001269
 20
248.47699041611671
 30
0.0
 11
199.85335399001269
 21
200.47699041611659
 31
0.0
  0
LINE
  5
4FB0
  8
AM_5
 10
200.85335399001269
 20
248.97699041611671
 30
0.0
 11
200.85335399001269
 21
200.47699041611659
 31
0.0
  0
LINE
  5
4FB1
  8
AM_5
 10
193.85335399001269
 20
204.47699041611659
 30
0.0
 11
187.85335399001269
 21
204.47699041611659
 31
0.0
  0
LINE
  5
4FB2
  8
AM_5
 10
206.85335399001269
 20
204.47699041611659
 30
0.0
 11
212.85335399001269
 21
204.47699041611659
 31
0.0
  0
TEXT
  8
AM_5
  40
12
  5
5154
  62
2
  72
0
  71
0
 10
209.917
 20
196.635
 30
0.000000
  1
1
  0
LINE
  5
4FB4
  8
AM_5
 10
199.85335399001269
 20
204.47699041611659
 30
0.0
 11
200.85335399001269
 21
204.47699041611659
 31
0.0
  0
INSERT
  5
4FB5
  8
AM_5
  2
_OPEN30
 10
199.85335399001269
 20
204.47699041611659
 30
0.0
 41
6.0
 42
6.0
 43
6.0
  0
INSERT
  5
4FB6
  8
AM_5
  2
_OPEN30
 10
200.85335399001269
 20
204.47699041611659
 30
0.0
 41
6.0
 42
6.0
 43
6.0
 50
180.0
  0
POINT
  5
4FB7
  8
DEFPOINTS
 62
     0
 10
199.85335399001269
 20
252.47699041611671
 30
0.0
  0
POINT
  5
4FB8
  8
DEFPOINTS
 62
     0
 10
200.85335399001269
 20
252.97699041611671
 30
0.0
  0
POINT
  5
4FB9
  8
DEFPOINTS
 62
     0
 10
200.85335399001269
 20
204.47699041611659
 30
0.0
  0
ENDBLK
  5
3DA8
  8
0
  0
BLOCK
  8
0
  2
*D24
 70
     1
 10
0.0
 20
0.0
 30
0.0
  3
*D24
  1

  0
LINE
  5
4FBA
  8
AM_5
 10
200.85335399001269
 20
248.97699041611671
 30
0.0
 11
200.85335399001269
 21
200.4769904161171
 31
0.0
  0
LINE
  5
4FBB
  8
AM_5
 10
635.85335399001281
 20
248.97699041611671
 30
0.0
 11
635.85335399001281
 21
200.4769904161171
 31
0.0
  0
LINE
  5
4FBC
  8
AM_5
 10
206.85335399001269
 20
204.4769904161171
 30
0.0
 11
629.85335399001281
 21
204.4769904161171
 31
0.0
  0
INSERT
  5
4FBD
  8
AM_5
  2
_OPEN30
 10
200.85335399001269
 20
204.4769904161171
 30
0.0
 41
6.0
 42
6.0
 43
6.0
 50
180.0
  0
INSERT
  5
4FBE
  8
AM_5
  2
_OPEN30
 10
635.85335399001281
 20
204.4769904161171
 30
0.0
 41
6.0
 42
6.0
 43
6.0
  0
TEXT
  8
AM_5
  40
12
  5
5155
  62
2
  72
0
  71
0
 10
418.353
 20
196.877
 30
0.000000
  1
435
  0
POINT
  5
4FC0
  8
DEFPOINTS
 62
     0
 10
200.85335399001269
 20
252.97699041611671
 30
0.0
  0
POINT
  5
4FC1
  8
DEFPOINTS
 62
     0
 10
635.85335399001281
 20
252.97699041611671
 30
0.0
  0
POINT
  5
4FC2
  8
DEFPOINTS
 62
     0
 10
635.85335399001281
 20
204.4769904161171
 30
0.0
  0
ENDBLK
  5
3DAA
  8
0
  0
BLOCK
  8
0
  2
*D25
 70
     1
 10
0.0
 20
0.0
 30
0.0
  3
*D25
  1

  0
LINE
  5
4FC3
  8
AM_5
 10
635.85335399001258
 20
248.97699041611671
 30
0.0
 11
635.85335399001258
 21
200.4769904161177
 31
0.0
  0
LINE
  5
4FC4
  8
AM_5
 10
636.85335399001247
 20
248.47699041611671
 30
0.0
 11
636.85335399001247
 21
200.4769904161177
 31
0.0
  0
LINE
  5
4FC5
  8
AM_5
 10
629.85335399001269
 20
204.4769904161177
 30
0.0
 11
623.85335399001258
 21
204.4769904161177
 31
0.0
  0
LINE
  5
4FC6
  8
AM_5
 10
642.85335399001258
 20
204.4769904161177
 30
0.0
 11
648.85335399001247
 21
204.4769904161177
 31
0.0
  0
TEXT
  8
AM_5
  40
12
  5
5156
  62
2
  72
0
  71
0
 10
625.515
 20
196.596
 30
0.000000
  1
1
  0
LINE
  5
4FC8
  8
AM_5
 10
635.85335399001258
 20
204.4769904161177
 30
0.0
 11
636.85335399001247
 21
204.4769904161177
 31
0.0
  0
INSERT
  5
4FC9
  8
AM_5
  2
_OPEN30
 10
635.85335399001258
 20
204.4769904161177
 30
0.0
 41
6.0
 42
6.0
 43
6.0
  0
INSERT
  5
4FCA
  8
AM_5
  2
_OPEN30
 10
636.85335399001247
 20
204.4769904161177
 30
0.0
 41
6.0
 42
6.0
 43
6.0
 50
180.0
  0
POINT
  5
4FCB
  8
DEFPOINTS
 62
     0
 10
635.85335399001258
 20
252.97699041611671
 30
0.0
  0
POINT
  5
4FCC
  8
DEFPOINTS
 62
     0
 10
636.85335399001247
 20
252.47699041611671
 30
0.0
  0
POINT
  5
4FCD
  8
DEFPOINTS
 62
     0
 10
636.85335399001247
 20
204.4769904161177
 30
0.0
  0
ENDBLK
  5
3DAC
  8
0
  0
BLOCK
  8
0
  2
*D26
 70
     1
 10
0.0
 20
0.0
 30
0.0
  3
*D26
  1

  0
LINE
  5
4FCE
  8
AM_5
 10
636.85335399001269
 20
248.47699041611671
 30
0.0
 11
636.85335399001269
 21
200.4769904161177
 31
0.0
  0
LINE
  5
4FCF
  8
AM_5
 10
659.65335399001265
 20
250.47699041611671
 30
0.0
 11
659.65335399001265
 21
200.4769904161177
 31
0.0
  0
LINE
  5
4FD0
  8
AM_5
 10
642.85335399001269
 20
204.4769904161177
 30
0.0
 11
653.65335399001265
 21
204.4769904161177
 31
0.0
  0
LINE
  5
4FD1
  8
AM_5
 10
700.80683998825725
 20
204.4769904161177
 30
0.0
 11
659.65335399001265
 21
204.4769904161177
 31
0.0
  0
TEXT
  8
AM_5
  40
12
  5
5157
  62
2
  72
0
  71
0
 10
686.054
 20
196.878
 30
0.000000
  1
22.8
  0
INSERT
  5
4FD3
  8
AM_5
  2
_OPEN30
 10
636.85335399001269
 20
204.4769904161177
 30
0.0
 41
6.0
 42
6.0
 43
6.0
 50
180.0
  0
INSERT
  5
4FD4
  8
AM_5
  2
_OPEN30
 10
659.65335399001265
 20
204.4769904161177
 30
0.0
 41
6.0
 42
6.0
 43
6.0
  0
POINT
  5
4FD5
  8
DEFPOINTS
 62
     0
 10
636.85335399001269
 20
252.47699041611671
 30
0.0
  0
POINT
  5
4FD6
  8
DEFPOINTS
 62
     0
 10
659.65335399001265
 20
254.47699041611671
 30
0.0
  0
POINT
  5
4FD7
  8
DEFPOINTS
 62
     0
 10
659.65335399001265
 20
204.4769904161177
 30
0.0
  0
ENDBLK
  5
3DAE
  8
0
  0
BLOCK
  8
0
  2
*D27
 70
     1
 10
0.0
 20
0.0
 30
0.0
  3
*D27
  1

  0
LINE
  5
4FD8
  8
AM_5
 10
177.05335399001271
 20
250.47699041611671
 30
0.0
 11
177.05335399001271
 21
219.24265158205429
 31
0.0
  0
LINE
  5
4FD9
  8
AM_5
 10
185.05335399001271
 20
251.3269904161167
 30
0.0
 11
185.05335399001271
 21
219.24265158205429
 31
0.0
  0
LINE
  5
4FDA
  8
AM_5
 10
171.05335399001271
 20
223.24265158205429
 30
0.0
 11
165.05335399001271
 21
223.24265158205429
 31
0.0
  0
LINE
  5
4FDB
  8
AM_5
 10
191.05335399001271
 20
223.24265158205429
 30
0.0
 11
197.05335399001271
 21
223.24265158205429
 31
0.0
  0
TEXT
  8
AM_5
  40
12
  5
5158
  62
2
  72
0
  71
0
 10
189.350
 20
215.436
 30
0.000000
  1
8
  0
LINE
  5
4FDD
  8
AM_5
 10
177.05335399001271
 20
223.24265158205429
 30
0.0
 11
185.05335399001271
 21
223.24265158205429
 31
0.0
  0
INSERT
  5
4FDE
  8
AM_5
  2
_OPEN30
 10
177.05335399001271
 20
223.24265158205429
 30
0.0
 41
6.0
 42
6.0
 43
6.0
  0
INSERT
  5
4FDF
  8
AM_5
  2
_OPEN30
 10
185.05335399001271
 20
223.24265158205429
 30
0.0
 41
6.0
 42
6.0
 43
6.0
 50
180.0
  0
POINT
  5
4FE0
  8
DEFPOINTS
 62
     0
 10
177.05335399001271
 20
254.47699041611671
 30
0.0
  0
POINT
  5
4FE1
  8
DEFPOINTS
 62
     0
 10
185.05335399001271
 20
255.3269904161167
 30
0.0
  0
POINT
  5
4FE2
  8
DEFPOINTS
 62
     0
 10
185.05335399001271
 20
223.24265158205429
 30
0.0
  0
ENDBLK
  5
3E4A
  8
0
  0
BLOCK
  8
0
  2
*D28
 70
     1
 10
0.0
 20
0.0
 30
0.0
  3
*D28
  1

  0
LINE
  5
4311
  8
AM_5
 10
193.04237800623119
 20
250.16718142926689
 30
0.0
 11
223.39651250338801
 21
225.23585275205451
 31
0.0
  0
LINE
  5
4312
  8
AM_5
 10
223.39651250338801
 20
225.23585275205451
 30
0.0
 11
317.19651250338802
 21
225.23585275205451
 31
0.0
  0
INSERT
  5
4313
  8
AM_5
  2
_OPEN30
 10
185.31481271097169
 20
256.51420707971931
 30
0.0
 41
10.0
 42
10.0
 43
10.0
 50
140.60207223771869
  0
INSERT
  5
4314
  8
AM_7N
  2
*U133
 10
0.0
 20
0.0
 30
0.0
  0
POINT
  5
4315
  8
DEFPOINTS
 62
     0
 10
185.31481271097169
 20
256.51420707971931
 30
0.0
  0
POINT
  5
4316
  8
DEFPOINTS
 62
     0
 10
182.8033539900124
 20
258.5769904161163
 30
0.0
  0
ENDBLK
  5
3E8F
  8
0
  0
BLOCK
  8
0
  2
*D29
 70
     1
 10
0.0
 20
0.0
 30
0.0
  3
*D29
  1

  0
LINE
  5
4238
  8
AM_5
 10
735.36738750304175
 20
646.78925180467024
 30
0.0
 11
716.30089223525283
 21
646.78925180467024
 31
0.0
  0
LINE
  5
4239
  8
AM_5
 10
732.86738750304175
 20
396.78925180467007
 30
0.0
 11
716.30089223525283
 21
396.78925180467007
 31
0.0
  0
LINE
  5
423A
  8
AM_5
 10
720.30089223525283
 20
636.78925180467024
 30
0.0
 11
720.30089223525283
 21
406.78925180467007
 31
0.0
  0
INSERT
  5
423B
  8
AM_5
  2
_OPEN30
 10
720.30089223525283
 20
646.78925180467024
 30
0.0
 41
10.0
 42
10.0
 43
10.0
 50
90.0
  0
INSERT
  5
423C
  8
AM_5
  2
_OPEN30
 10
720.30089223525283
 20
396.78925180467007
 30
0.0
 41
10.0
 42
10.0
 43
10.0
 50
270.0
  0
INSERT
  5
423D
  8
AM_7N
  2
*U123
 10
0.0
 20
0.0
 30
0.0
  0
POINT
  5
423E
  8
DEFPOINTS
 62
     0
 10
739.36738750304175
 20
646.78925180467024
 30
0.0
  0
POINT
  5
423F
  8
DEFPOINTS
 62
     0
 10
736.86738750304175
 20
396.78925180467007
 30
0.0
  0
POINT
  5
4240
  8
DEFPOINTS
 62
     0
 10
720.30089223525283
 20
396.78925180467007
 30
0.0
  0
ENDBLK
  5
3FFB
  8
0
  0
BLOCK
  8
0
  2
*D30
 70
     1
 10
0.0
 20
0.0
 30
0.0
  3
*D30
  1

  0
LINE
  5
4241
  8
AM_5
 10
784.86738750304175
 20
396.78925180467007
 30
0.0
 11
850.86738850304198
 21
396.78925180467007
 31
0.0
  0
LINE
  5
4242
  8
AM_5
 10
784.86738750308746
 20
747.78925180467002
 30
0.0
 11
850.86738850304198
 21
747.78925180467002
 31
0.0
  0
LINE
  5
4243
  8
AM_5
 10
846.86738850304187
 20
402.78925180467007
 30
0.0
 11
846.86738850304187
 21
741.7892518046699
 31
0.0
  0
INSERT
  5
4244
  8
AM_5
  2
_OPEN30
 10
846.86738850304187
 20
396.78925180467007
 30
0.0
 41
6.0
 42
6.0
 43
6.0
 50
270.0
  0
INSERT
  5
4245
  8
AM_5
  2
_OPEN30
 10
846.86738850304187
 20
747.78925180467002
 30
0.0
 41
6.0
 42
6.0
 43
6.0
 50
90.0
  0
INSERT
  5
4246
  8
AM_7N
  2
*U124
 10
0.0
 20
0.0
 30
0.0
  0
POINT
  5
4247
  8
DEFPOINTS
 62
     0
 10
780.86738750304175
 20
396.78925180467007
 30
0.0
  0
POINT
  5
4248
  8
DEFPOINTS
 62
     0
 10
780.86738750308746
 20
747.78925180467002
 30
0.0
  0
POINT
  5
4249
  8
DEFPOINTS
 62
     0
 10
846.86738850304187
 20
747.78925180467002
 30
0.0
  0
ENDBLK
  5
40B9
  8
0
  0
BLOCK
  8
0
  2
*D31
 70
     1
 10
0.0
 20
0.0
 30
0.0
  3
*D31
  1

  0
LINE
  5
424A
  8
AM_5
 10
784.86738750308746
 20
747.78925180467002
 30
0.0
 11
820.86738850304175
 21
747.78925180467002
 31
0.0
  0
LINE
  5
424B
  8
AM_5
 10
782.36738750304187
 20
773.78925180467002
 30
0.0
 11
820.86738850304175
 21
773.78925180467002
 31
0.0
  0
LINE
  5
424C
  8
AM_5
 10
816.86738850304175
 20
753.78925180467002
 30
0.0
 11
816.86738850304175
 21
767.78925180467002
 31
0.0
  0
INSERT
  5
424D
  8
AM_5
  2
_OPEN30
 10
816.86738850304175
 20
747.78925180467002
 30
0.0
 41
6.0
 42
6.0
 43
6.0
 50
270.0
  0
INSERT
  5
424E
  8
AM_5
  2
_OPEN30
 10
816.86738850304175
 20
773.78925180467002
 30
0.0
 41
6.0
 42
6.0
 43
6.0
 50
90.0
  0
INSERT
  5
424F
  8
AM_7N
  2
*U125
 10
0.0
 20
0.0
 30
0.0
  0
POINT
  5
4250
  8
DEFPOINTS
 62
     0
 10
780.86738750308746
 20
747.78925180467002
 30
0.0
  0
POINT
  5
4251
  8
DEFPOINTS
 62
     0
 10
778.36738750304187
 20
773.78925180467002
 30
0.0
  0
POINT
  5
4252
  8
DEFPOINTS
 62
     0
 10
816.86738850304175
 20
773.78925180467002
 30
0.0
  0
ENDBLK
  5
40BB
  8
0
  0
BLOCK
  8
0
  2
*D32
 70
     1
 10
0.0
 20
0.0
 30
0.0
  3
*D32
  1

  0
LINE
  5
4253
  8
AM_5
 10
784.86738750304175
 20
396.78925180467007
 30
0.0
 11
880.86738850304278
 21
396.78925180467007
 31
0.0
  0
LINE
  5
4254
  8
AM_5
 10
782.36738750304187
 20
773.78925180467002
 30
0.0
 11
880.867388503043
 21
773.78925180467002
 31
0.0
  0
LINE
  5
4255
  8
AM_5
 10
876.86738850304289
 20
402.78925180467007
 30
0.0
 11
876.86738850304289
 21
767.78925180467002
 31
0.0
  0
INSERT
  5
4256
  8
AM_5
  2
_OPEN30
 10
876.86738850304289
 20
396.78925180467007
 30
0.0
 41
6.0
 42
6.0
 43
6.0
 50
270.0
  0
INSERT
  5
4257
  8
AM_5
  2
_OPEN30
 10
876.867388503043
 20
773.78925180467002
 30
0.0
 41
6.0
 42
6.0
 43
6.0
 50
90.0
  0
INSERT
  5
4258
  8
AM_7N
  2
*U126
 10
0.0
 20
0.0
 30
0.0
  0
POINT
  5
4259
  8
DEFPOINTS
 62
     0
 10
780.86738750304175
 20
396.78925180467007
 30
0.0
  0
POINT
  5
425A
  8
DEFPOINTS
 62
     0
 10
778.36738750304187
 20
773.78925180467002
 30
0.0
  0
POINT
  5
425B
  8
DEFPOINTS
 62
     0
 10
876.867388503043
 20
773.78925180467002
 30
0.0
  0
ENDBLK
  5
40BD
  8
0
  0
BLOCK
  8
0
  2
*D33
 70
     1
 10
0.0
 20
0.0
 30
0.0
  3
*D33
  1

  0
LINE
  5
425C
  8
AM_5
 10
784.86738750304175
 20
396.78925180467007
 30
0.0
 11
820.86738850304334
 21
396.78925180467007
 31
0.0
  0
LINE
  5
425D
  8
AM_5
 10
762.86738750304175
 20
435.3892518046701
 30
0.0
 11
820.86738850304334
 21
435.3892518046701
 31
0.0
  0
LINE
  5
425E
  8
AM_5
 10
816.86738850304334
 20
402.78925180467007
 30
0.0
 11
816.86738850304334
 21
429.38925180467021
 31
0.0
  0
INSERT
  5
425F
  8
AM_5
  2
_OPEN30
 10
816.86738850304334
 20
396.78925180467007
 30
0.0
 41
6.0
 42
6.0
 43
6.0
 50
270.0
  0
INSERT
  5
4260
  8
AM_5
  2
_OPEN30
 10
816.86738850304334
 20
435.3892518046701
 30
0.0
 41
6.0
 42
6.0
 43
6.0
 50
90.0
  0
INSERT
  5
4261
  8
AM_7N
  2
*U127
 10
0.0
 20
0.0
 30
0.0
  0
POINT
  5
4262
  8
DEFPOINTS
 62
     0
 10
780.86738750304175
 20
396.78925180467007
 30
0.0
  0
POINT
  5
4263
  8
DEFPOINTS
 62
     0
 10
758.86738750304175
 20
435.3892518046701
 30
0.0
  0
POINT
  5
4264
  8
DEFPOINTS
 62
     0
 10
816.86738850304334
 20
435.3892518046701
 30
0.0
  0
ENDBLK
  5
40BF
  8
0
  0
BLOCK
  8
0
  2
*D34
 70
     1
 10
0.0
 20
0.0
 30
0.0
  3
*D34
  1

  0
LINE
  5
4265
  8
AM_5
 10
762.86738750304175
 20
435.38925180467021
 30
0.0
 11
820.86738850304323
 21
435.38925180467021
 31
0.0
  0
LINE
  5
4266
  8
AM_5
 10
762.86738750304175
 20
533.78925180467013
 30
0.0
 11
820.86738850304323
 21
533.7892518046699
 31
0.0
  0
LINE
  5
4267
  8
AM_5
 10
816.86738850304334
 20
441.38925180467032
 30
0.0
 11
816.86738850304334
 21
527.78925180467002
 31
0.0
  0
INSERT
  5
4268
  8
AM_5
  2
_OPEN30
 10
816.86738850304334
 20
435.38925180467021
 30
0.0
 41
6.0
 42
6.0
 43
6.0
 50
270.0
  0
INSERT
  5
4269
  8
AM_5
  2
_OPEN30
 10
816.86738850304334
 20
533.7892518046699
 30
0.0
 41
6.0
 42
6.0
 43
6.0
 50
90.0
  0
INSERT
  5
426A
  8
AM_7N
  2
*U128
 10
0.0
 20
0.0
 30
0.0
  0
POINT
  5
426B
  8
DEFPOINTS
 62
     0
 10
758.86738750304175
 20
435.38925180467021
 30
0.0
  0
POINT
  5
426C
  8
DEFPOINTS
 62
     0
 10
758.86738750304175
 20
533.78925180467013
 30
0.0
  0
POINT
  5
426D
  8
DEFPOINTS
 62
     0
 10
816.86738850304334
 20
533.7892518046699
 30
0.0
  0
ENDBLK
  5
40C1
  8
0
  0
BLOCK
  8
0
  2
*D35
 70
     1
 10
0.0
 20
0.0
 30
0.0
  3
*D35
  1

  0
LINE
  5
426E
  8
AM_5
 10
762.86738750304175
 20
533.78925180467013
 30
0.0
 11
820.867388503043
 21
533.7892518046699
 31
0.0
  0
LINE
  5
426F
  8
AM_5
 10
762.86738750304175
 20
622.68925180467022
 30
0.0
 11
820.867388503043
 21
622.68925180466999
 31
0.0
  0
LINE
  5
4270
  8
AM_5
 10
816.86738850304289
 20
539.78925180467002
 30
0.0
 11
816.86738850304289
 21
616.68925180467011
 31
0.0
  0
INSERT
  5
4271
  8
AM_5
  2
_OPEN30
 10
816.86738850304289
 20
533.7892518046699
 30
0.0
 41
6.0
 42
6.0
 43
6.0
 50
270.0
  0
INSERT
  5
4272
  8
AM_5
  2
_OPEN30
 10
816.86738850304289
 20
622.68925180466999
 30
0.0
 41
6.0
 42
6.0
 43
6.0
 50
90.0
  0
INSERT
  5
4273
  8
AM_7N
  2
*U129
 10
0.0
 20
0.0
 30
0.0
  0
POINT
  5
4274
  8
DEFPOINTS
 62
     0
 10
758.86738750304175
 20
533.78925180467013
 30
0.0
  0
POINT
  5
4275
  8
DEFPOINTS
 62
     0
 10
758.86738750304175
 20
622.68925180467022
 30
0.0
  0
POINT
  5
4276
  8
DEFPOINTS
 62
     0
 10
816.86738850304289
 20
622.68925180466999
 30
0.0
  0
ENDBLK
  5
40C3
  8
0
  0
BLOCK
  8
0
  2
*D36
 70
     1
 10
0.0
 20
0.0
 30
0.0
  3
*D36
  1

  0
LINE
  5
4277
  8
AM_5
 10
762.86738750304175
 20
622.68925180467022
 30
0.0
 11
820.86738850304278
 21
622.68925180466999
 31
0.0
  0
LINE
  5
4278
  8
AM_5
 10
784.86738750304175
 20
646.78925180467002
 30
0.0
 11
820.86738850304278
 21
646.78925180467002
 31
0.0
  0
LINE
  5
4279
  8
AM_5
 10
816.86738850304289
 20
628.68925180467011
 30
0.0
 11
816.86738850304289
 21
640.78925180467002
 31
0.0
  0
LINE
  5
427A
  8
AM_5
 10
816.86738850304289
 20
646.78925180467002
 30
0.0
 11
816.86738850304289
 21
681.09397621411881
 31
0.0
  0
INSERT
  5
427B
  8
AM_5
  2
_OPEN30
 10
816.86738850304289
 20
622.68925180466999
 30
0.0
 41
6.0
 42
6.0
 43
6.0
 50
270.0
  0
INSERT
  5
427C
  8
AM_5
  2
_OPEN30
 10
816.86738850304289
 20
646.78925180467002
 30
0.0
 41
6.0
 42
6.0
 43
6.0
 50
90.0
  0
INSERT
  5
427D
  8
AM_7N
  2
*U130
 10
0.0
 20
0.0
 30
0.0
  0
POINT
  5
427E
  8
DEFPOINTS
 62
     0
 10
758.86738750304175
 20
622.68925180467022
 30
0.0
  0
POINT
  5
427F
  8
DEFPOINTS
 62
     0
 10
780.86738750304175
 20
646.78925180467002
 30
0.0
  0
POINT
  5
4280
  8
DEFPOINTS
 62
     0
 10
816.86738850304289
 20
646.78925180467002
 30
0.0
  0
ENDBLK
  5
40C5
  8
0
  0
BLOCK
  8
0
  2
*D37
 70
     1
 10
0.0
 20
0.0
 30
0.0
  3
*D37
  1

  0
LINE
  5
4281
  8
AM_5
 10
758.86738750304175
 20
626.68925180467022
 30
0.0
 11
758.86738750304175
 21
686.78925180467002
 31
0.0
  0
LINE
  5
4282
  8
AM_5
 10
780.86738750304175
 20
650.78925180467002
 30
0.0
 11
780.86738750304175
 21
686.78925180467002
 31
0.0
  0
LINE
  5
4283
  8
AM_5
 10
764.86738750304175
 20
682.78925180467002
 30
0.0
 11
774.86738750304175
 21
682.78925180467002
 31
0.0
  0
INSERT
  5
4284
  8
AM_5
  2
_OPEN30
 10
758.86738750304175
 20
682.78925180467002
 30
0.0
 41
6.0
 42
6.0
 43
6.0
 50
180.0
  0
INSERT
  5
4285
  8
AM_5
  2
_OPEN30
 10
780.86738750304175
 20
682.78925180467002
 30
0.0
 41
6.0
 42
6.0
 43
6.0
  0
INSERT
  5
4286
  8
AM_7N
  2
*U131
 10
0.0
 20
0.0
 30
0.0
  0
POINT
  5
4287
  8
DEFPOINTS
 62
     0
 10
758.86738750304175
 20
622.68925180467022
 30
0.0
  0
POINT
  5
4288
  8
DEFPOINTS
 62
     0
 10
780.86738750304175
 20
646.78925180467002
 30
0.0
  0
POINT
  5
4289
  8
DEFPOINTS
 62
     0
 10
780.86738750304175
 20
682.78925180467002
 30
0.0
  0
ENDBLK
  5
40C7
  8
0
  0
BLOCK
  8
0
  2
*D38
 70
     1
 10
0.0
 20
0.0
 30
0.0
  3
*D38
  1

  0
LINE
  5
428A
  8
AM_5
 10
784.86738750304175
 20
396.78925180467007
 30
0.0
 11
820.86738750304198
 21
396.78925180467007
 31
0.0
  0
LINE
  5
428B
  8
AM_5
 10
783.36738750304175
 20
121.78925180467
 30
0.0
 11
820.86738750304198
 21
121.78925180467
 31
0.0
  0
LINE
  5
428C
  8
AM_5
 10
816.8673875030421
 20
390.78925180467007
 30
0.0
 11
816.86738750304187
 21
127.78925180467
 31
0.0
  0
INSERT
  5
428D
  8
AM_5
  2
_OPEN30
 10
816.8673875030421
 20
396.78925180467007
 30
0.0
 41
6.0
 42
6.0
 43
6.0
 50
90.0
  0
INSERT
  5
428E
  8
AM_5
  2
_OPEN30
 10
816.86738750304187
 20
121.78925180467
 30
0.0
 41
6.0
 42
6.0
 43
6.0
 50
270.0
  0
INSERT
  5
428F
  8
AM_7N
  2
*U132
 10
0.0
 20
0.0
 30
0.0
  0
POINT
  5
4290
  8
DEFPOINTS
 62
     0
 10
780.86738750304175
 20
396.78925180467007
 30
0.0
  0
POINT
  5
4291
  8
DEFPOINTS
 62
     0
 10
779.36738750304175
 20
121.78925180467
 30
0.0
  0
POINT
  5
4292
  8
DEFPOINTS
 62
     0
 10
816.86738750304187
 20
121.78925180467
 30
0.0
  0
ENDBLK
  5
40C9
  8
0
  0
BLOCK
  8
0
  2
バインドM4_6
 70
     0
 10
0.0
 20
0.0
 30
0.0
  3
バインドM4_6
  1

  0
CIRCLE
  5
438B
  8
ﾋ_ｽ
 10
0.0
 20
0.0
 30
0.0
 40
4.1500000000006247
  0
ARC
  5
438C
  8
ﾋ_ｽ
 10
-1.8568181818181979
 20
-1.856818181818084
 30
0.0
 40
1.368181818181796
 50
0.0
 51
90.0
  0
LINE
  5
438D
  8
ﾋ_ｽ
 10
-0.4886363636364877
 20
-2.1499999999998631
 30
0.0
 11
-0.4886363636364877
 21
-1.856818181818084
 31
0.0
  0
LINE
  5
438E
  8
ﾋ_ｽ
 10
0.4886363636364877
 20
-2.1499999999998631
 30
0.0
 11
-0.4886363636364877
 21
-2.1499999999998631
 31
0.0
  0
LINE
  5
438F
  8
ﾋ_ｽ
 10
-2.1500000000000901
 20
0.488636363636374
 30
0.0
 11
-1.8568181818181979
 21
0.488636363636374
 31
0.0
  0
LINE
  5
4390
  8
ﾋ_ｽ
 10
-0.4886363636364877
 20
1.8568181818181979
 30
0.0
 11
-0.4886363636364877
 21
2.1500000000000901
 31
0.0
  0
LINE
  5
4391
  8
ﾋ_ｽ
 10
-0.4886363636364877
 20
2.1500000000000901
 30
0.0
 11
0.4886363636362603
 21
2.1500000000000341
 31
0.0
  0
ARC
  5
4392
  8
ﾋ_ｽ
 10
-1.8568181818181979
 20
1.8568181818181979
 30
0.0
 40
1.368181818181796
 50
270.0
 51
0.0
  0
LINE
  5
4393
  8
ﾋ_ｽ
 10
-2.1500000000000901
 20
-0.4886363636362603
 30
0.0
 11
-2.1500000000000901
 21
0.488636363636374
 31
0.0
  0
LINE
  5
4394
  8
ﾋ_ｽ
 10
-1.8568181818181979
 20
-0.4886363636362603
 30
0.0
 11
-2.1500000000000901
 21
-0.4886363636362603
 31
0.0
  0
ARC
  5
4395
  8
ﾋ_ｽ
 10
1.8568181818181979
 20
-1.856818181818084
 30
0.0
 40
1.368181818181796
 50
90.0
 51
180.0
  0
LINE
  5
4396
  8
ﾋ_ｽ
 10
0.4886363636364877
 20
-1.856818181818084
 30
0.0
 11
0.4886363636364877
 21
-2.1499999999999768
 31
0.0
  0
LINE
  5
4397
  8
ﾋ_ｽ
 10
2.1500000000000901
 20
-0.4886363636362603
 30
0.0
 11
1.8568181818181979
 21
-0.4886363636362603
 31
0.0
  0
LINE
  5
4398
  8
ﾋ_ｽ
 10
2.1500000000000901
 20
0.488636363636374
 30
0.0
 11
2.1500000000000901
 21
-0.4886363636362603
 31
0.0
  0
ARC
  5
4399
  8
ﾋ_ｽ
 10
1.8568181818181979
 20
1.8568181818181979
 30
0.0
 40
1.368181818181796
 50
180.0
 51
270.0
  0
LINE
  5
439A
  8
ﾋ_ｽ
 10
1.8568181818181979
 20
0.488636363636374
 30
0.0
 11
2.1500000000000901
 21
0.488636363636374
 31
0.0
  0
LINE
  5
439B
  8
ﾋ_ｽ
 10
0.4886363636364877
 20
2.1500000000000901
 30
0.0
 11
0.4886363636364877
 21
1.856818181818312
 31
0.0
  0
ENDBLK
  5
439F
  8
0
  0
BLOCK
  8
0
  2
バインドM4_6ヨコ
 70
     0
 10
0.0
 20
0.0
 30
0.0
  3
バインドM4_6ヨコ
  1

  0
LINE
  5
43A5
  8
ﾋ_ｽ
 10
-6.0
 20
-4.1499999999999773
 30
0.0
 11
-6.0
 21
4.1499999999999773
 31
0.0
  0
ARC
  5
43A6
  8
ﾋ_ｽ
 10
-5.7999999999999536
 20
-1.8508722636684061
 30
0.0
 40
0.2
 50
77.124998440386804
 51
179.9999999999967
1001
GENIUS_GENODEF_13
1002
{
1000
HIER
1070
     0
1002
}
1002
{
1000
MANEDIT
1070
     0
1002
}
1002
{
1000
NOSEL
1070
     0
1002
}
1002
{
1000
BEHIND
1070
     0
1002
}
1002
{
1000
OTHER
1070
     0
1002
}
1002
{
1000
REACTOR
1002
}
1001
GENIUS_GENOBJ-N-FIL_13
1002
{
1000
OWNER
1000
GEN
1002
}
  0
ARC
  5
43A7
  8
ﾋ_ｽ
 10
-5.7999999999999536
 20
1.8508722636683499
 30
0.0
 40
0.2
 50
179.9999999999967
 51
282.87500155961322
1001
GENIUS_GENODEF_13
1002
{
1000
HIER
1070
     0
1002
}
1002
{
1000
MANEDIT
1070
     0
1002
}
1002
{
1000
NOSEL
1070
     0
1002
}
1002
{
1000
BEHIND
1070
     0
1002
}
1002
{
1000
OTHER
1070
     0
1002
}
1002
{
1000
REACTOR
1002
}
1001
GENIUS_GENOBJ-N-FIL_13
1002
{
1000
OWNER
1000
GEN
1002
}
  0
LINE
  5
43A8
  8
ﾋ_ｽ
 10
0.0
 20
-1.999999999999545
 30
0.0
 11
0.0
 21
1.999999999999545
 31
0.0
  0
LINE
  5
43A9
  8
ﾋ_ｽ
 10
-5.7554350396994769
 20
1.6559005623539631
 30
0.0
 11
-4.2500000000006821
 21
1.999999999999545
 31
0.0
  0
LINE
  5
43AA
  8
ﾋ_ｽ
 10
-5.7554350396994769
 20
-1.655900562354077
 30
0.0
 11
-4.2500000000009086
 21
-1.999999999999545
 31
0.0
  0
LINE
  5
43AB
  8
ﾋ_ｽ
 10
-4.2500000000009086
 20
-1.999999999999545
 30
0.0
 11
-4.2500000000006821
 21
1.999999999999545
 31
0.0
  0
LINE
  5
43AC
  8
ﾋ_ｽ
 10
-4.2500000000009086
 20
-1.999999999999545
 30
0.0
 11
0.0
 21
-1.999999999999545
 31
0.0
  0
LINE
  5
43AD
  8
ﾋ_ｽ
 10
0.0
 20
1.999999999999545
 30
0.0
 11
-4.2500000000006821
 21
1.999999999999545
 31
0.0
  0
LINE
  5
43AE
  8
ﾋ_ｽ0
 10
-6.0
 20
-1.5999999999995671
 30
0.0
 11
0.0
 21
-1.5999999999995671
 31
0.0
  0
LINE
  5
43AF
  8
ﾋ_ｽ0
 10
-5.9999999999997717
 20
1.5999999999995671
 30
0.0
 11
0.0
 21
1.5999999999995671
 31
0.0
  0
LINE
  5
43B0
  8
ﾋ_ｽ
 10
-6.0
 20
4.1499999999999773
 30
0.0
 11
-7.6999999999998181
 21
4.0012692720059704
 31
0.0
  0
LINE
  5
43B1
  8
ﾋ_ｽ
 10
-7.6999999999998181
 20
4.0012692720059704
 30
0.0
 11
-7.6999999999998181
 21
-4.0012692720058558
 31
0.0
  0
LINE
  5
43B2
  8
ﾋ_ｽ
 10
-7.6999999999998181
 20
-4.0012692720058558
 30
0.0
 11
-6.0
 21
-4.1499999999999773
 31
0.0
  0
ARC
  5
43B3
  8
ﾋ_ｽ
 10
1.9063473669366431
 20
0.0
 30
0.0
 40
10.40634736693659
 50
157.3871256045245
 51
202.6128743954755
  0
ENDBLK
  5
43B7
  8
0
  0
BLOCK
  8
0
  2
サラM3_5
 70
     0
 10
0.0
 20
0.0
 30
0.0
  3
サラM3_5
  1

  0
CIRCLE
  5
4458
  8
ﾋ_ｽ
 10
0.0
 20
0.0
 30
0.0
 40
2.9999999999975859
  0
ARC
  5
4459
  8
ﾋ_ｽ
 10
-1.554545454545404
 20
1.5545454545454609
 30
0.0
 40
1.1454545454545391
 50
270.0
 51
0.0
  0
ARC
  5
445A
  8
ﾋ_ｽ
 10
-1.554545454545404
 20
-1.554545454545404
 30
0.0
 40
1.1454545454545391
 50
0.0
 51
90.0
  0
LINE
  5
445B
  8
ﾋ_ｽ
 10
-1.7999999999999541
 20
0.4090909090908781
 30
0.0
 11
-1.554545454545404
 21
0.4090909090908781
 31
0.0
  0
LINE
  5
445C
  8
ﾋ_ｽ
 10
-1.7999999999999541
 20
-0.4090909090908781
 30
0.0
 11
-1.7999999999999541
 21
0.4090909090908781
 31
0.0
  0
LINE
  5
445D
  8
ﾋ_ｽ
 10
-1.554545454545404
 20
-0.4090909090908781
 30
0.0
 11
-1.7999999999999541
 21
-0.4090909090908781
 31
0.0
  0
LINE
  5
445E
  8
ﾋ_ｽ
 10
-0.4090909090907644
 20
1.5545454545454609
 30
0.0
 11
-0.4090909090907644
 21
1.800000000000068
 31
0.0
  0
LINE
  5
445F
  8
ﾋ_ｽ
 10
-0.4090909090907644
 20
-1.7999999999999541
 30
0.0
 11
-0.4090909090907644
 21
-1.554545454545404
 31
0.0
  0
ARC
  5
4460
  8
ﾋ_ｽ
 10
1.5545454545456321
 20
-1.554545454545404
 30
0.0
 40
1.1454545454545391
 50
90.0
 51
180.0
  0
LINE
  5
4461
  8
ﾋ_ｽ
 10
0.4090909090909918
 20
-1.800000000000068
 30
0.0
 11
-0.4090909090907644
 21
-1.800000000000068
 31
0.0
  0
LINE
  5
4462
  8
ﾋ_ｽ
 10
0.4090909090909918
 20
-1.554545454545404
 30
0.0
 11
0.4090909090909918
 21
-1.800000000000068
 31
0.0
  0
LINE
  5
4463
  8
ﾋ_ｽ
 10
1.7999999999999541
 20
-0.4090909090908781
 30
0.0
 11
1.5545454545456321
 21
-0.4090909090908781
 31
0.0
  0
LINE
  5
4464
  8
ﾋ_ｽ
 10
1.7999999999999541
 20
0.409090909090935
 30
0.0
 11
1.7999999999999541
 21
-0.4090909090908781
 31
0.0
  0
ARC
  5
4465
  8
ﾋ_ｽ
 10
1.554545454545404
 20
1.5545454545454609
 30
0.0
 40
1.1454545454545391
 50
180.0
 51
270.0
  0
LINE
  5
4466
  8
ﾋ_ｽ
 10
1.554545454545404
 20
0.4090909090908781
 30
0.0
 11
1.7999999999999541
 21
0.4090909090908781
 31
0.0
  0
LINE
  5
4467
  8
ﾋ_ｽ
 10
0.4090909090909918
 20
1.800000000000068
 30
0.0
 11
0.4090909090909918
 21
1.554545454545518
 31
0.0
  0
LINE
  5
4468
  8
ﾋ_ｽ
 10
-0.4090909090907644
 20
1.800000000000068
 30
0.0
 11
0.4090909090909918
 21
1.800000000000068
 31
0.0
  0
ENDBLK
  5
446C
  8
0
  0
BLOCK
  8
0
  2
サラM3_5ヨコ
 70
     0
 10
0.0
 20
0.0
 30
0.0
  3
サラM3_5ヨコ
  1

  0
LINE
  5
447D
  8
ﾋ_ｽ
 10
2.7500000000002269
 20
-1.4999999999998861
 30
0.0
 11
4.9999999999997717
 21
-1.5
 31
0.0
  0
LINE
  5
447E
  8
ﾋ_ｽ
 10
4.9999999999997717
 20
1.5
 30
0.0
 11
2.75
 21
1.500000000000056
 31
0.0
  0
LINE
  5
447F
  8
ﾋ_ｽ0
 10
2.1242640687119092
 20
1.25
 30
0.0
 11
4.9999999999997717
 21
1.25
 31
0.0
  0
LINE
  5
4480
  8
ﾋ_ｽ0
 10
4.9999999999997717
 20
-1.2499999999999429
 30
0.0
 11
2.1242640687121361
 21
-1.2499999999998861
 31
0.0
  0
LINE
  5
4481
  8
ﾋ_ｽ
 10
1.912132034356091
 20
1.337867965644022
 30
0.0
 11
0.25
 21
3.0
 31
0.0
  0
LINE
  5
4482
  8
ﾋ_ｽ
 10
0.25
 20
-3.0
 30
0.0
 11
0.25
 21
3.0
 31
0.0
  0
LINE
  5
4483
  8
ﾋ_ｽ
 10
0.0
 20
3.0
 30
0.0
 11
0.0
 21
-3.0
 31
0.0
  0
LINE
  5
4484
  8
ﾋ_ｽ
 10
0.25
 20
-3.0
 30
0.0
 11
1.912132034356091
 21
-1.3378679656439649
 31
0.0
  0
LINE
  5
4485
  8
ﾋ_ｽ
 10
0.0
 20
-3.0
 30
0.0
 11
0.25
 21
-3.0
 31
0.0
  0
LINE
  5
4486
  8
ﾋ_ｽ0
 10
1.75
 20
-1.5
 30
0.0
 11
1.75
 21
1.5
 31
0.0
  0
LINE
  5
4487
  8
ﾋ_ｽ
 10
2.0380053120384209
 20
-1.2626684373460639
 30
0.0
 11
2.75
 21
-1.5
 31
0.0
  0
LINE
  5
4488
  8
ﾋ_ｽ
 10
2.75
 20
-1.5
 30
0.0
 11
2.75
 21
1.5
 31
0.0
  0
LINE
  5
4489
  8
ﾋ_ｽ
 10
2.75
 20
1.5
 30
0.0
 11
2.0380053120384209
 21
1.2626684373461781
 31
0.0
  0
LINE
  5
448A
  8
ﾋ_ｽ
 10
0.0
 20
3.0
 30
0.0
 11
0.2500000000002274
 21
3.0
 31
0.0
  0
LINE
  5
448B
  8
ﾋ_ｽ
 10
4.9999999999997717
 20
-1.5
 30
0.0
 11
4.9999999999997717
 21
1.5
 31
0.0
  0
ARC
  5
448C
  8
ﾋ_ｽ
 10
2.1242640687121361
 20
-1.5499999999999541
 30
0.0
 40
0.3
 50
90.0
 51
134.99999999999301
1001
GENIUS_GENOBJ-N-FIL_13
1002
{
1000
OWNER
1000
GEN
1002
}
1001
GENIUS_GENODEF_13
1002
{
1000
HIER
1070
     0
1002
}
1002
{
1000
MANEDIT
1070
     0
1002
}
1002
{
1000
NOSEL
1070
     0
1002
}
1002
{
1000
BEHIND
1070
     0
1002
}
1002
{
1000
OTHER
1070
     0
1002
}
1002
{
1000
REACTOR
1002
}
  0
ARC
  5
448D
  8
ﾋ_ｽ
 10
2.1242640687119092
 20
1.5500000000000109
 30
0.0
 40
0.3
 50
225.00000000000691
 51
270.0
1001
GENIUS_GENODEF_13
1002
{
1000
HIER
1070
     0
1002
}
1002
{
1000
MANEDIT
1070
     0
1002
}
1002
{
1000
NOSEL
1070
     0
1002
}
1002
{
1000
BEHIND
1070
     0
1002
}
1002
{
1000
OTHER
1070
     0
1002
}
1002
{
1000
REACTOR
1002
}
1001
GENIUS_GENOBJ-N-FIL_13
1002
{
1000
OWNER
1000
GEN
1002
}
  0
ENDBLK
  5
4491
  8
0
  0
BLOCK
  8
0
  2
バインドM3_5
 70
     0
 10
0.0
 20
0.0
 30
0.0
  3
バインドM3_5
  1

  0
CIRCLE
  5
4498
  8
ﾋ_ｽ
 10
0.0
 20
0.0
 30
0.0
 40
3.1499999999994519
  0
LINE
  5
4499
  8
ﾋ_ｽ
 10
0.4204545454545042
 20
-1.8500000000000221
 30
0.0
 11
-0.4204545454545042
 21
-1.8500000000000221
 31
0.0
  0
LINE
  5
449A
  8
ﾋ_ｽ
 10
-0.4204545454545042
 20
1.8500000000000221
 30
0.0
 11
0.4204545454545042
 21
1.8500000000000221
 31
0.0
  0
LINE
  5
449B
  8
ﾋ_ｽ
 10
-1.8499999999999091
 20
0.420454545454561
 30
0.0
 11
-1.5977272727272971
 21
0.420454545454561
 31
0.0
  0
LINE
  5
449C
  8
ﾋ_ｽ
 10
-0.4204545454545042
 20
1.5977272727272971
 30
0.0
 11
-0.4204545454545042
 21
1.8500000000000221
 31
0.0
  0
ARC
  5
449D
  8
ﾋ_ｽ
 10
-1.5977272727272971
 20
1.5977272727272971
 30
0.0
 40
1.177272727272711
 50
270.0
 51
0.0
  0
ARC
  5
449E
  8
ﾋ_ｽ
 10
-1.5977272727272971
 20
-1.597727272727183
 30
0.0
 40
1.177272727272711
 50
0.0
 51
90.0
  0
LINE
  5
449F
  8
ﾋ_ｽ
 10
-1.8499999999999091
 20
-0.4204545454545042
 30
0.0
 11
-1.8499999999999091
 21
0.4204545454546178
 31
0.0
  0
LINE
  5
44A0
  8
ﾋ_ｽ
 10
-1.5977272727272971
 20
-0.4204545454545042
 30
0.0
 11
-1.8499999999999091
 21
-0.4204545454545042
 31
0.0
  0
LINE
  5
44A1
  8
ﾋ_ｽ
 10
-0.4204545454545042
 20
-1.8499999999999091
 30
0.0
 11
-0.4204545454545042
 21
-1.597727272727183
 31
0.0
  0
ARC
  5
44A2
  8
ﾋ_ｽ
 10
1.5977272727272971
 20
-1.597727272727183
 30
0.0
 40
1.177272727272711
 50
90.0
 51
180.0
  0
LINE
  5
44A3
  8
ﾋ_ｽ
 10
0.4204545454545042
 20
-1.597727272727183
 30
0.0
 11
0.4204545454545042
 21
-1.8500000000000221
 31
0.0
  0
LINE
  5
44A4
  8
ﾋ_ｽ
 10
1.8499999999999091
 20
-0.4204545454545042
 30
0.0
 11
1.5977272727272971
 21
-0.4204545454545042
 31
0.0
  0
LINE
  5
44A5
  8
ﾋ_ｽ
 10
1.8499999999999091
 20
0.4204545454545042
 30
0.0
 11
1.8499999999999091
 21
-0.4204545454545042
 31
0.0
  0
ARC
  5
44A6
  8
ﾋ_ｽ
 10
1.5977272727272971
 20
1.5977272727272971
 30
0.0
 40
1.177272727272711
 50
180.0
 51
270.0
  0
LINE
  5
44A7
  8
ﾋ_ｽ
 10
1.5977272727272971
 20
0.420454545454561
 30
0.0
 11
1.8499999999999091
 21
0.420454545454561
 31
0.0
  0
LINE
  5
44A8
  8
ﾋ_ｽ
 10
0.4204545454545042
 20
1.8500000000000221
 30
0.0
 11
0.4204545454545042
 21
1.597727272727411
 31
0.0
  0
ENDBLK
  5
44AC
  8
0
  0
BLOCK
  8
0
  2
バインドM3_5ヨコ
 70
     0
 10
0.0
 20
0.0
 30
0.0
  3
バインドM3_5ヨコ
  1

  0
LINE
  5
44BC
  8
ﾋ_ｽ
 10
-5.0
 20
-3.1499999999999768
 30
0.0
 11
-5.0
 21
3.1500000000000341
 31
0.0
  0
ARC
  5
44BD
  8
ﾋ_ｽ
 10
-4.9000000000000901
 20
1.326839681057435
 30
0.0
 40
0.1
 50
179.9999999999967
 51
283.49573328080749
1001
GENIUS_GENODEF_13
1002
{
1000
HIER
1070
     0
1002
}
1002
{
1000
MANEDIT
1070
     0
1002
}
1002
{
1000
NOSEL
1070
     0
1002
}
1002
{
1000
BEHIND
1070
     0
1002
}
1002
{
1000
OTHER
1070
     0
1002
}
1002
{
1000
REACTOR
1002
}
1001
GENIUS_GENOBJ-N-FIL_13
1002
{
1000
OWNER
1000
GEN
1002
}
  0
ARC
  5
44BE
  8
ﾋ_ｽ
 10
-4.9000000000003183
 20
-1.3268396810574921
 30
0.0
 40
0.1
 50
76.504266719192529
 51
179.9999999999967
1001
GENIUS_GENODEF_13
1002
{
1000
HIER
1070
     0
1002
}
1002
{
1000
MANEDIT
1070
     0
1002
}
1002
{
1000
NOSEL
1070
     0
1002
}
1002
{
1000
BEHIND
1070
     0
1002
}
1002
{
1000
OTHER
1070
     0
1002
}
1002
{
1000
REACTOR
1002
}
1001
GENIUS_GENOBJ-N-FIL_13
1002
{
1000
OWNER
1000
GEN
1002
}
  0
LINE
  5
44BF
  8
ﾋ_ｽ
 10
0.0
 20
-1.5
 30
0.0
 11
0.0
 21
1.5
 31
0.0
  0
LINE
  5
44C0
  8
ﾋ_ｽ
 10
-4.8766627047525608
 20
1.2296009508593211
 30
0.0
 11
-3.7500000000004539
 21
1.5
 31
0.0
  0
LINE
  5
44C1
  8
ﾋ_ｽ
 10
-4.8766627047527891
 20
-1.229600950859435
 30
0.0
 11
-3.7500000000006821
 21
-1.5
 31
0.0
  0
LINE
  5
44C2
  8
ﾋ_ｽ
 10
-3.7500000000006821
 20
-1.5
 30
0.0
 11
-3.7500000000004539
 21
1.5
 31
0.0
  0
LINE
  5
44C3
  8
ﾋ_ｽ
 10
-3.7500000000006821
 20
-1.5
 30
0.0
 11
0.0
 21
-1.5
 31
0.0
  0
LINE
  5
44C4
  8
ﾋ_ｽ
 10
0.0
 20
1.5
 30
0.0
 11
-3.7500000000004539
 21
1.5
 31
0.0
  0
LINE
  5
44C5
  8
ﾋ_ｽ0
 10
-5.0000000000002274
 20
-1.199999999999988
 30
0.0
 11
0.0
 21
-1.199999999999988
 31
0.0
  0
LINE
  5
44C6
  8
ﾋ_ｽ0
 10
-5.0000000000002274
 20
1.199999999999988
 30
0.0
 11
0.0
 21
1.199999999999988
 31
0.0
  0
LINE
  5
44C7
  8
ﾋ_ｽ
 10
-5.0
 20
3.1500000000000341
 30
0.0
 11
-6.300000000000181
 21
3.0362647374163312
 31
0.0
  0
LINE
  5
44C8
  8
ﾋ_ｽ
 10
-5.0
 20
-3.1499999999999768
 30
0.0
 11
-6.300000000000181
 21
-3.0362647374162739
 31
0.0
  0
LINE
  5
44C9
  8
ﾋ_ｽ
 10
-6.300000000000181
 20
3.0362647374163312
 30
0.0
 11
-6.300000000000181
 21
-3.0362647374162739
 31
0.0
  0
ARC
  5
44CA
  8
ﾋ_ｽ
 10
1.0824196297307931
 20
0.0000000000000568
 30
0.0
 40
7.9824196297310488
 50
157.64346058573031
 51
202.35653941427259
  0
ENDBLK
  5
44CE
  8
0
  0
BLOCK
  8
0
  2
*U48
 70
     1
 10
0.0
 20
0.0
 30
0.0
  3
*U48
  1

  0
ENDBLK
  5
4605
  8
0
  0
BLOCK
  8
0
  2
ナットM4
 70
     0
 10
0.0
 20
0.0
 30
0.0
  3
ナットM4
  1

  0
CIRCLE
  5
473F
  8
ﾋ_ｽ
 10
0.0
 20
0.0
 30
0.0
 40
3.25
  0
CIRCLE
  5
4740
  8
ﾋ_ｽ
 10
0.0
 20
0.0
 30
0.0
 40
1.6950000000000001
  0
LINE
  5
4741
  8
ﾋ_ｽ
 10
-3.475000000000136
 20
-2.0351596988933802
 30
0.0
 11
0.0000000000004547
 21
-4.0414518843274996
 31
0.0
  0
LINE
  5
4742
  8
ﾋ_ｽ
 10
0.0000000000004547
 20
-4.0414518843274996
 30
0.0
 11
3.5
 21
-2.0207259421637209
 31
0.0
  0
LINE
  5
4743
  8
ﾋ_ｽ
 10
3.5
 20
-2.0207259421637209
 30
0.0
 11
3.5
 21
2.021774057836466
 31
0.0
  0
LINE
  5
4744
  8
ﾋ_ｽ
 10
-3.4999999999997722
 20
2.0217740578363528
 30
0.0
 11
-3.5
 21
-1.9918584287041761
 31
0.0
  0
CIRCLE
  5
4745
  8
ﾋ_ｽ0
 10
0.0
 20
0.0
 30
0.0
 40
2.0
  0
LINE
  5
4746
  8
ﾋ_ｽ
 10
3.5
 20
2.021774057836466
 30
0.0
 11
-0.0000000000002274
 21
4.0425000000000182
 31
0.0
  0
LINE
  5
4747
  8
ﾋ_ｽ
 10
-0.0000000000002274
 20
4.0425000000000182
 30
0.0
 11
-3.4999999999997722
 21
2.0217740578363528
 31
0.0
  0
ENDBLK
  5
474B
  8
0
  0
BLOCK
  8
0
  2
ナットM4ヨコ
 70
     0
 10
0.0
 20
0.0
 30
0.0
  3
ナットM4ヨコ
  1

  0
ARC
  5
4751
  8
ﾋ_ｽ
 10
1.412930680013005
 20
3.0318749999999559
 30
0.0
 40
1.7870693199869589
 50
325.5615305952013
 51
25.561530595456212
  0
ARC
  5
4752
  8
ﾋ_ｽ
 10
1.7870693199872669
 20
3.0318750000000132
 30
0.0
 40
1.7870693199869589
 50
154.4384694045408
 51
214.4384694047987
  0
LINE
  5
4753
  8
ﾋ_ｽ
 10
3.200000000000045
 20
3.5
 30
0.0
 11
3.200000000000272
 21
-3.5
 31
0.0
  0
LINE
  5
4754
  8
ﾋ_ｽ
 10
0.0
 20
3.5
 30
0.0
 11
0.0
 21
-3.4999999999999432
 31
0.0
  0
ARC
  5
4755
  8
ﾋ_ｽ
 10
1.412930680009594
 20
-3.0318749999999559
 30
0.0
 40
1.7870693199904151
 50
334.43846940472741
 51
34.438469404733659
  0
ARC
  5
4756
  8
ﾋ_ｽ
 10
-3.4784584983865439
 20
0.0
 30
0.0
 40
6.6784584983865471
 50
342.3830311595533
 51
17.61696884044364
  0
ARC
  5
4757
  8
ﾋ_ｽ
 10
6.6784584983865889
 20
-0.0000000000000568
 30
0.0
 40
6.6784584983865649
 50
162.3830311595533
 51
197.6169688404436
  0
ARC
  5
4758
  8
ﾋ_ｽ
 10
1.78706931998704
 20
-3.0318749999989332
 30
0.0
 40
1.7870693199869589
 50
145.56153059523481
 51
205.56153059567771
  0
LINE
  5
4759
  8
ﾋ_ｽ
 10
2.886787478964834
 20
-4.0424999999999613
 30
0.0
 11
3.200000000000272
 21
-3.5
 31
0.0
  0
LINE
  5
475A
  8
ﾋ_ｽ
 10
0.3132125210354388
 20
2.0212500000000091
 30
0.0
 11
2.8867874789646062
 21
2.0212500000000091
 31
0.0
  0
LINE
  5
475B
  8
ﾋ_ｽ
 10
0.3132125210352115
 20
-4.0424999999999613
 30
0.0
 11
0.0
 21
-3.4999999999999432
 31
0.0
  0
LINE
  5
475C
  8
ﾋ_ｽ
 10
0.3132125210352115
 20
-4.0424999999999613
 30
0.0
 11
2.886787478964834
 21
-4.0424999999999613
 31
0.0
  0
LINE
  5
475D
  8
ﾋ_ｽ
 10
0.3132125210354388
 20
-2.0212499999999518
 30
0.0
 11
2.8867874789646062
 21
-2.0212500000000091
 31
0.0
  0
LINE
  5
475E
  8
ﾋ_ｽ
 10
2.886787478964834
 20
4.0424999999999613
 30
0.0
 11
3.200000000000045
 21
3.5
 31
0.0
  0
LINE
  5
475F
  8
ﾋ_ｽ
 10
0.3132125210354388
 20
4.0425000000000182
 30
0.0
 11
0.0
 21
3.5
 31
0.0
  0
LINE
  5
4760
  8
ﾋ_ｽ
 10
0.3132125210354388
 20
4.0425000000000182
 30
0.0
 11
2.886787478964834
 21
4.0424999999999613
 31
0.0
  0
ENDBLK
  5
4764
  8
0
  0
BLOCK
  8
0
  2
*S53
 70
     1
 10
0.0
 20
0.0
 30
0.0
  3
*S53
  1

  0
CIRCLE
  5
4CFC
  8
AM_12
 62
     4
 10
92.363040129423553
 20
632.90137751601878
 30
0.0
 40
5.25
  0
LINE
  5
4CFD
  8
AM_12
 62
     4
 10
87.113040129423538
 20
627.65137751601878
 30
0.0
 11
97.613040129423553
 21
638.15137751601867
 31
0.0
  0
LINE
  5
4CFE
  8
AM_12
 62
     4
 10
87.113040129423538
 20
638.15137751601867
 30
0.0
 11
97.613040129423553
 21
627.65137751601878
 31
0.0
  0
ENDBLK
  5
4D00
  8
0
  0
BLOCK
  8
0
  2
*S54
 70
     1
 10
0.0
 20
0.0
 30
0.0
  3
*S54
  1

  0
CIRCLE
  5
4D03
  8
AM_12
 62
     4
 10
555.09182797406424
 20
727.93509237144985
 30
0.0
 40
5.25
  0
LINE
  5
4D04
  8
AM_12
 62
     4
 10
549.84182797406424
 20
722.68509237144985
 30
0.0
 11
560.34182797406424
 21
733.18509237144985
 31
0.0
  0
LINE
  5
4D05
  8
AM_12
 62
     4
 10
549.84182797406424
 20
733.18509237144985
 30
0.0
 11
560.34182797406424
 21
722.68509237144985
 31
0.0
  0
ENDBLK
  5
4D07
  8
0
  0
BLOCK
  8
0
  2
*S55
 70
     1
 10
0.0
 20
0.0
 30
0.0
  3
*S55
  1

  0
CIRCLE
  5
4D0A
  8
AM_12
 62
     4
 10
1370.6099551949119
 20
650.74823588413062
 30
0.0
 40
5.25
  0
LINE
  5
4D0B
  8
AM_12
 62
     4
 10
1365.3599551949119
 20
645.49823588413062
 30
0.0
 11
1375.8599551949119
 21
655.99823588413062
 31
0.0
  0
LINE
  5
4D0C
  8
AM_12
 62
     4
 10
1365.3599551949119
 20
655.99823588413062
 30
0.0
 11
1375.8599551949119
 21
645.49823588413062
 31
0.0
  0
ENDBLK
  5
4D0E
  8
0
  0
BLOCK
  8
0
  2
*S56
 70
     1
 10
0.0
 20
0.0
 30
0.0
  3
*S56
  1

  0
CIRCLE
  5
4D11
  8
AM_12
 62
     4
 10
433.58584908651898
 20
272.51439576766347
 30
0.0
 40
5.25
  0
LINE
  5
4D12
  8
AM_12
 62
     4
 10
428.33584908651898
 20
267.26439576766347
 30
0.0
 11
438.83584908651898
 21
277.76439576766347
 31
0.0
  0
LINE
  5
4D13
  8
AM_12
 62
     4
 10
428.33584908651898
 20
277.76439576766347
 30
0.0
 11
438.83584908651898
 21
267.26439576766347
 31
0.0
  0
ENDBLK
  5
4D15
  8
0
  0
BLOCK
  8
0
  2
*S57
 70
     1
 10
0.0
 20
0.0
 30
0.0
  3
*S57
  1

  0
CIRCLE
  5
4D18
  8
AM_12
 62
     4
 10
410.18559127606358
 20
755.3326102650251
 30
0.0
 40
5.25
  0
LINE
  5
4D19
  8
AM_12
 62
     4
 10
404.93559127606358
 20
750.08261026502498
 30
0.0
 11
415.43559127606358
 21
760.5826102650251
 31
0.0
  0
LINE
  5
4D1A
  8
AM_12
 62
     4
 10
404.93559127606358
 20
760.5826102650251
 30
0.0
 11
415.43559127606358
 21
750.08261026502498
 31
0.0
  0
ENDBLK
  5
4D1C
  8
0
  0
BLOCK
  8
0
  2
*S58
 70
     1
 10
0.0
 20
0.0
 30
0.0
  3
*S58
  1

  0
CIRCLE
  5
4D1F
  8
AM_12
 62
     4
 10
469.59958027792231
 20
770.2765943787997
 30
0.0
 40
5.25
  0
LINE
  5
4D20
  8
AM_12
 62
     4
 10
464.34958027792231
 20
765.0265943787997
 30
0.0
 11
474.84958027792231
 21
775.5265943787997
 31
0.0
  0
LINE
  5
4D21
  8
AM_12
 62
     4
 10
464.34958027792231
 20
775.5265943787997
 30
0.0
 11
474.84958027792231
 21
765.0265943787997
 31
0.0
  0
ENDBLK
  5
4D23
  8
0
  0
BLOCK
  8
0
  2
*S59
 70
     1
 10
0.0
 20
0.0
 30
0.0
  3
*S59
  1

  0
CIRCLE
  5
4D26
  8
AM_12
 62
     4
 10
630.87342266578389
 20
753.13240821652994
 30
0.0
 40
5.25
  0
LINE
  5
4D27
  8
AM_12
 62
     4
 10
625.62342266578389
 20
747.88240821652994
 30
0.0
 11
636.12342266578378
 21
758.38240821652994
 31
0.0
  0
LINE
  5
4D28
  8
AM_12
 62
     4
 10
625.62342266578389
 20
758.38240821652994
 30
0.0
 11
636.12342266578378
 21
747.88240821652994
 31
0.0
  0
ENDBLK
  5
4D2A
  8
0
  0
BLOCK
  8
0
  2
*S60
 70
     1
 10
0.0
 20
0.0
 30
0.0
  3
*S60
  1

  0
LINE
  5
4D2D
  8
AM_5
 10
635.43612112008714
 20
838.91137146814663
 30
0.0
 11
563.30104127128163
 21
738.12878137683879
 31
0.0
  0
TRACE
  5
4D2E
  8
AM_5
 10
561.80225896043032
 20
739.20153393828105
 30
0.0
 11
564.79982358213294
 21
737.05602881539653
 31
0.0
 12
555.15267655441448
 22
726.7443994243165
 32
0.0
 13
555.15267655441448
 23
726.7443994243165
 33
0.0
  0
INSERT
  5
4D2F
  8
AM_7N
  2
*U140
 10
0.0
 20
0.0
 30
0.0
  0
CIRCLE
  5
4D30
  8
AM_5
 62
     3
 10
649.69575937460468
 20
858.83403988506041
 30
0.0
 40
24.5
  0
ENDBLK
  5
4D32
  8
0
  0
BLOCK
  8
0
  2
*S61
 70
     1
 10
0.0
 20
0.0
 30
0.0
  3
*S61
  1

  0
LINE
  5
4D35
  8
AM_5
 10
132.40748534377801
 20
665.02874378334843
 30
0.0
 11
103.2246996755249
 21
641.7427683364092
 31
0.0
  0
TRACE
  5
4D36
  8
AM_5
 10
102.0751170753728
 20
643.18346480646426
 30
0.0
 11
104.3742822756771
 21
640.30207186635414
 31
0.0
 12
92.281523489090432
 22
633.01082153442655
 32
0.0
 13
92.281523489090432
 23
633.01082153442655
 33
0.0
  0
INSERT
  5
4D37
  8
AM_7N
  2
*U141
 10
0.0
 20
0.0
 30
0.0
  0
CIRCLE
  5
4D38
  8
AM_5
 62
     3
 10
151.55804367003839
 20
680.3096506868178
 30
0.0
 40
24.5
  0
ENDBLK
  5
4D3A
  8
0
  0
BLOCK
  8
0
  2
*S62
 70
     1
 10
0.0
 20
0.0
 30
0.0
  3
*S62
  1

  0
LINE
  5
4D3D
  8
AM_5
 10
672.02693743785244
 20
797.23106447413988
 30
0.0
 11
642.04500809638773
 21
762.80091574672201
 31
0.0
  0
TRACE
  5
4D3E
  8
AM_5
 10
640.65502159174514
 20
764.01132228599431
 30
0.0
 11
643.43499460103033
 21
761.59050920744971
 31
0.0
 12
632.85105760661997
 22
752.24291999034381
 32
0.0
 13
632.85105760661997
 23
752.24291999034381
 33
0.0
  0
INSERT
  5
4D3F
  8
AM_7N
  2
*U142
 10
0.0
 20
0.0
 30
0.0
  0
CIRCLE
  5
4D40
  8
AM_5
 62
     3
 10
688.1163507949459
 20
815.70755704780186
 30
0.0
 40
24.5
  0
ENDBLK
  5
4D42
  8
0
  0
BLOCK
  8
0
  2
*S63
 70
     1
 10
0.0
 20
0.0
 30
0.0
  3
*S63
  1

  0
LINE
  5
4D45
  8
AM_5
 10
370.70497135615568
 20
816.83716668175816
 30
0.0
 11
404.1151302894944
 21
766.87083910016395
 31
0.0
  0
TRACE
  5
4D46
  8
AM_5
 10
402.58295574478382
 20
765.84634525540798
 30
0.0
 11
405.64730483420499
 21
767.8953329449198
 31
0.0
 12
411.89693365898029
 22
755.23281794884019
 32
0.0
 13
411.89693365898029
 23
755.23281794884019
 33
0.0
  0
INSERT
  5
4D47
  8
AM_7N
  2
*U143
 10
0.0
 20
0.0
 30
0.0
  0
CIRCLE
  5
4D48
  8
AM_5
 62
     3
 10
357.08681545955551
 20
837.20370369657485
 30
0.0
 40
24.5
  0
ENDBLK
  5
4D4A
  8
0
  0
BLOCK
  8
0
  2
*S64
 70
     1
 10
0.0
 20
0.0
 30
0.0
  3
*S64
  1

  0
LINE
  5
4D4D
  8
AM_5
 10
501.69507120437657
 20
824.1328884991899
 30
0.0
 11
476.1403627679706
 21
781.44870693861117
 31
0.0
  0
TRACE
  5
4D4E
  8
AM_5
 10
474.55897625536318
 20
782.39547151924626
 30
0.0
 11
477.72174928057808
 21
780.50194235797642
 31
0.0
 12
468.94897177874412
 22
769.43688377807189
 32
0.0
 13
468.94897177874412
 23
769.43688377807189
 33
0.0
  0
INSERT
  5
4D4F
  8
AM_7N
  2
*U144
 10
0.0
 20
0.0
 30
0.0
  0
CIRCLE
  5
4D50
  8
AM_5
 62
     3
 10
514.28000543552287
 20
845.15357903013398
 30
0.0
 40
24.5
  0
ENDBLK
  5
4D52
  8
0
  0
BLOCK
  8
0
  2
*S65
 70
     1
 10
0.0
 20
0.0
 30
0.0
  3
*S65
  1

  0
LINE
  5
4D55
  8
AM_5
 10
525.58857286900013
 20
179.3890810768053
 30
0.0
 11
443.67779741009161
 21
262.76372916874948
 31
0.0
  0
TRACE
  5
4D56
  8
AM_5
 10
444.99258186485753
 20
264.05542894459052
 30
0.0
 11
442.36301295532581
 21
261.47202939290838
 31
0.0
 12
433.8663634815652
 22
272.75050864294229
 32
0.0
 13
433.8663634815652
 23
272.75050864294229
 33
0.0
  0
INSERT
  5
4D57
  8
AM_7N
  2
*U145
 10
0.0
 20
0.0
 30
0.0
  0
CIRCLE
  5
4D58
  8
AM_5
 62
     3
 10
542.75858224392141
 20
161.9122169969678
 30
0.0
 40
24.5
  0
ENDBLK
  5
4D5A
  8
0
  0
BLOCK
  8
0
  2
*S66
 70
     1
 10
0.0
 20
0.0
 30
0.0
  3
*S66
  1

  0
LINE
  5
4D5D
  8
AM_5
 10
1432.428077847439
 20
696.46942002972025
 30
0.0
 11
1385.931949670992
 21
656.82750981773916
 31
0.0
  0
TRACE
  5
4D5E
  8
AM_5
 10
1384.736142547762
 20
658.23007596499747
 30
0.0
 11
1387.1277567942211
 21
655.42494367048073
 31
0.0
 12
1375.2784020420511
 22
647.74445290291715
 32
0.0
 13
1375.2784020420511
 23
647.74445290291715
 33
0.0
  0
INSERT
  5
4D5F
  8
AM_7N
  2
*U146
 10
0.0
 20
0.0
 30
0.0
  0
CIRCLE
  5
4D60
  8
AM_5
 62
     3
 10
1451.071786198085
 20
712.36476963065888
 30
0.0
 40
24.5
  0
ENDBLK
  5
4D62
  8
0
  0
BLOCK
  8
0
  2
*S67
 70
     1
 10
0.0
 20
0.0
 30
0.0
  3
*S67
  1

  0
CIRCLE
  5
4D65
  8
AM_12
 62
     4
 10
1051.612283896395
 20
268.9012187324351
 30
-374.380611490229
 40
7.0
  0
LINE
  5
4D66
  8
AM_12
 62
     4
 10
1044.6122838963961
 20
261.90121873243498
 30
-374.380611490229
 11
1058.6122838963961
 21
275.90121873243498
 31
-374.380611490229
  0
LINE
  5
4D67
  8
AM_12
 62
     4
 10
1044.6122838963961
 20
275.90121873243498
 30
-374.380611490229
 11
1058.6122838963961
 21
261.90121873243498
 31
-374.380611490229
  0
ENDBLK
  5
4D69
  8
0
  0
BLOCK
  8
0
  2
*S68
 70
     1
 10
0.0
 20
0.0
 30
0.0
  3
*S68
  1

  0
CIRCLE
  5
4D6C
  8
AM_12
 62
     4
 10
1193.0724154331299
 20
268.41116838828651
 30
-374.380611490229
 40
7.0
  0
LINE
  5
4D6D
  8
AM_12
 62
     4
 10
1186.072415433129
 20
261.4111683882864
 30
-374.380611490229
 11
1200.072415433129
 21
275.4111683882864
 31
-374.380611490229
  0
LINE
  5
4D6E
  8
AM_12
 62
     4
 10
1186.072415433129
 20
275.4111683882864
 30
-374.380611490229
 11
1200.072415433129
 21
261.4111683882864
 31
-374.380611490229
  0
ENDBLK
  5
4D70
  8
0
  0
BLOCK
  8
0
  2
*S69
 70
     1
 10
0.0
 20
0.0
 30
0.0
  3
*S69
  1

  0
CIRCLE
  5
4D73
  8
AM_12
 62
     4
 10
1432.4562105192581
 20
269.14307337774881
 30
-374.380611490229
 40
7.0
  0
LINE
  5
4D74
  8
AM_12
 62
     4
 10
1425.456210519257
 20
262.14307337774881
 30
-374.380611490229
 11
1439.4562105192581
 21
276.14307337774881
 31
-374.380611490229
  0
LINE
  5
4D75
  8
AM_12
 62
     4
 10
1425.456210519257
 20
276.14307337774881
 30
-374.380611490229
 11
1439.4562105192581
 21
262.14307337774881
 31
-374.380611490229
  0
ENDBLK
  5
4D77
  8
0
  0
BLOCK
  8
0
  2
*S70
 70
     1
 10
0.0
 20
0.0
 30
0.0
  3
*S70
  1

  0
LINE
  5
4D7A
  8
0
 62
     1
 10
840.0
 20
1045.9000000000001
 30
0.0
 11
1612.0
 21
1045.9000000000001
 31
0.0
  0
LINE
  5
4D7B
  8
0
 62
     1
 10
840.0
 20
1021.2
 30
0.0
 11
1612.0
 21
1021.2
 31
0.0
  0
LINE
  5
4D7C
  8
0
 62
     1
 10
840.0
 20
996.49999999999989
 30
0.0
 11
1612.0
 21
996.49999999999989
 31
0.0
  0
LINE
  5
4D7D
  8
0
 62
     1
 10
840.0
 20
971.79999999999995
 30
0.0
 11
1612.0
 21
971.79999999999995
 31
0.0
  0
LINE
  5
4D7E
  8
0
 62
     1
 10
840.0
 20
947.10000000000002
 30
0.0
 11
1612.0
 21
947.10000000000002
 31
0.0
  0
LINE
  5
4D7F
  8
0
 62
     1
 10
840.0
 20
922.39999999999998
 30
0.0
 11
1612.0
 21
922.39999999999998
 31
0.0
  0
LINE
  5
4D80
  8
0
 62
     1
 10
840.0
 20
897.70000000000005
 30
0.0
 11
1612.0
 21
897.70000000000005
 31
0.0
  0
LINE
  5
4D81
  8
0
 62
     1
 10
840.0
 20
873.0
 30
0.0
 11
1612.0
 21
873.0
 31
0.0
  0
LINE
  5
4D82
  8
0
 62
     1
 10
840.0
 20
848.29999999999995
 30
0.0
 11
1612.0
 21
848.29999999999995
 31
0.0
  0
LINE
  5
4D83
  8
0
 62
     1
 10
840.0
 20
823.60000000000002
 30
0.0
 11
1612.0
 21
823.60000000000002
 31
0.0
  0
INSERT
  5
4D84
  8
AM_7N
  2
*U147
 10
0.0
 20
0.0
 30
0.0
  0
LINE
  5
4D85
  8
0
 62
     1
 10
900.0
 20
1070.5999999999999
 30
0.0
 11
900.0
 21
1045.9000000000001
 31
0.0
  0
INSERT
  5
4D86
  8
AM_7N
  2
*U148
 10
0.0
 20
0.0
 30
0.0
  0
LINE
  5
4D87
  8
0
 62
     1
 10
1080.0
 20
1070.5999999999999
 30
0.0
 11
1080.0
 21
1045.9000000000001
 31
0.0
  0
INSERT
  5
4D88
  8
AM_7N
  2
*U149
 10
0.0
 20
0.0
 30
0.0
  0
LINE
  5
4D89
  8
0
 62
     1
 10
1160.0
 20
1070.5999999999999
 30
0.0
 11
1160.0
 21
1045.9000000000001
 31
0.0
  0
INSERT
  5
4D8A
  8
AM_7N
  2
*U150
 10
0.0
 20
0.0
 30
0.0
  0
LINE
  5
4D8B
  8
0
 62
     1
 10
1360.0
 20
1070.5999999999999
 30
0.0
 11
1360.0
 21
1045.9000000000001
 31
0.0
  0
INSERT
  5
4D8C
  8
AM_7N
  2
*U151
 10
0.0
 20
0.0
 30
0.0
  0
INSERT
  5
4D8D
  8
AM_7N
  2
*U152
 10
0.0
 20
0.0
 30
0.0
  0
LINE
  5
4D8E
  8
0
 62
     1
 10
900.0
 20
1045.9000000000001
 30
0.0
 11
900.0
 21
1021.2
 31
0.0
  0
INSERT
  5
4D8F
  8
AM_7N
  2
*U153
 10
0.0
 20
0.0
 30
0.0
  0
LINE
  5
4D90
  8
0
 62
     1
 10
1080.0
 20
1045.9000000000001
 30
0.0
 11
1080.0
 21
1021.2
 31
0.0
  0
INSERT
  5
4D91
  8
AM_7N
  2
*U154
 10
0.0
 20
0.0
 30
0.0
  0
LINE
  5
4D92
  8
0
 62
     1
 10
1160.0
 20
1045.9000000000001
 30
0.0
 11
1160.0
 21
1021.2
 31
0.0
  0
INSERT
  5
4D93
  8
AM_7N
  2
*U155
 10
0.0
 20
0.0
 30
0.0
  0
LINE
  5
4D94
  8
0
 62
     1
 10
1360.0
 20
1045.9000000000001
 30
0.0
 11
1360.0
 21
1021.2
 31
0.0
  0
INSERT
  5
4D95
  8
AM_7N
  2
*U156
 10
0.0
 20
0.0
 30
0.0
  0
INSERT
  5
4D96
  8
AM_7N
  2
*U157
 10
0.0
 20
0.0
 30
0.0
  0
LINE
  5
4D97
  8
0
 62
     1
 10
900.0
 20
1021.2
 30
0.0
 11
900.0
 21
996.49999999999989
 31
0.0
  0
INSERT
  5
4D98
  8
AM_7N
  2
*U158
 10
0.0
 20
0.0
 30
0.0
  0
LINE
  5
4D99
  8
0
 62
     1
 10
1080.0
 20
1021.2
 30
0.0
 11
1080.0
 21
996.49999999999989
 31
0.0
  0
INSERT
  5
4D9A
  8
AM_7N
  2
*U159
 10
0.0
 20
0.0
 30
0.0
  0
LINE
  5
4D9B
  8
0
 62
     1
 10
1160.0
 20
1021.2
 30
0.0
 11
1160.0
 21
996.49999999999989
 31
0.0
  0
INSERT
  5
4D9C
  8
AM_7N
  2
*U160
 10
0.0
 20
0.0
 30
0.0
  0
LINE
  5
4D9D
  8
0
 62
     1
 10
1360.0
 20
1021.2
 30
0.0
 11
1360.0
 21
996.49999999999989
 31
0.0
  0
INSERT
  5
4D9E
  8
AM_7N
  2
*U161
 10
0.0
 20
0.0
 30
0.0
  0
INSERT
  5
4D9F
  8
AM_7N
  2
*U162
 10
0.0
 20
0.0
 30
0.0
  0
LINE
  5
4DA0
  8
0
 62
     1
 10
900.0
 20
996.49999999999989
 30
0.0
 11
900.0
 21
971.79999999999995
 31
0.0
  0
INSERT
  5
4DA1
  8
AM_7N
  2
*U163
 10
0.0
 20
0.0
 30
0.0
  0
LINE
  5
4DA2
  8
0
 62
     1
 10
1080.0
 20
996.49999999999989
 30
0.0
 11
1080.0
 21
971.79999999999995
 31
0.0
  0
INSERT
  5
4DA3
  8
AM_7N
  2
*U164
 10
0.0
 20
0.0
 30
0.0
  0
LINE
  5
4DA4
  8
0
 62
     1
 10
1160.0
 20
996.49999999999989
 30
0.0
 11
1160.0
 21
971.79999999999995
 31
0.0
  0
INSERT
  5
4DA5
  8
AM_7N
  2
*U165
 10
0.0
 20
0.0
 30
0.0
  0
LINE
  5
4DA6
  8
0
 62
     1
 10
1360.0
 20
996.49999999999989
 30
0.0
 11
1360.0
 21
971.79999999999995
 31
0.0
  0
INSERT
  5
4DA7
  8
AM_7N
  2
*U166
 10
0.0
 20
0.0
 30
0.0
  0
INSERT
  5
4DA8
  8
AM_7N
  2
*U167
 10
0.0
 20
0.0
 30
0.0
  0
LINE
  5
4DA9
  8
0
 62
     1
 10
900.0
 20
971.79999999999995
 30
0.0
 11
900.0
 21
947.10000000000002
 31
0.0
  0
INSERT
  5
4DAA
  8
AM_7N
  2
*U168
 10
0.0
 20
0.0
 30
0.0
  0
LINE
  5
4DAB
  8
0
 62
     1
 10
1080.0
 20
971.79999999999995
 30
0.0
 11
1080.0
 21
947.10000000000002
 31
0.0
  0
INSERT
  5
4DAC
  8
AM_7N
  2
*U169
 10
0.0
 20
0.0
 30
0.0
  0
LINE
  5
4DAD
  8
0
 62
     1
 10
1160.0
 20
971.79999999999995
 30
0.0
 11
1160.0
 21
947.10000000000002
 31
0.0
  0
INSERT
  5
4DAE
  8
AM_7N
  2
*U170
 10
0.0
 20
0.0
 30
0.0
  0
LINE
  5
4DAF
  8
0
 62
     1
 10
1360.0
 20
971.79999999999995
 30
0.0
 11
1360.0
 21
947.10000000000002
 31
0.0
  0
INSERT
  5
4DB0
  8
AM_7N
  2
*U171
 10
0.0
 20
0.0
 30
0.0
  0
INSERT
  5
4DB1
  8
AM_7N
  2
*U172
 10
0.0
 20
0.0
 30
0.0
  0
LINE
  5
4DB2
  8
0
 62
     1
 10
900.0
 20
947.10000000000002
 30
0.0
 11
900.0
 21
922.39999999999998
 31
0.0
  0
INSERT
  5
4DB3
  8
AM_7N
  2
*U173
 10
0.0
 20
0.0
 30
0.0
  0
LINE
  5
4DB4
  8
0
 62
     1
 10
1080.0
 20
947.10000000000002
 30
0.0
 11
1080.0
 21
922.39999999999998
 31
0.0
  0
INSERT
  5
4DB5
  8
AM_7N
  2
*U174
 10
0.0
 20
0.0
 30
0.0
  0
LINE
  5
4DB6
  8
0
 62
     1
 10
1160.0
 20
947.10000000000002
 30
0.0
 11
1160.0
 21
922.39999999999998
 31
0.0
  0
INSERT
  5
4DB7
  8
AM_7N
  2
*U175
 10
0.0
 20
0.0
 30
0.0
  0
LINE
  5
4DB8
  8
0
 62
     1
 10
1360.0
 20
947.10000000000002
 30
0.0
 11
1360.0
 21
922.39999999999998
 31
0.0
  0
INSERT
  5
4DB9
  8
AM_7N
  2
*U176
 10
0.0
 20
0.0
 30
0.0
  0
INSERT
  5
4DBA
  8
AM_7N
  2
*U177
 10
0.0
 20
0.0
 30
0.0
  0
LINE
  5
4DBB
  8
0
 62
     1
 10
900.0
 20
922.39999999999998
 30
0.0
 11
900.0
 21
897.70000000000005
 31
0.0
  0
INSERT
  5
4DBC
  8
AM_7N
  2
*U178
 10
0.0
 20
0.0
 30
0.0
  0
LINE
  5
4DBD
  8
0
 62
     1
 10
1080.0
 20
922.39999999999998
 30
0.0
 11
1080.0
 21
897.70000000000005
 31
0.0
  0
INSERT
  5
4DBE
  8
AM_7N
  2
*U179
 10
0.0
 20
0.0
 30
0.0
  0
LINE
  5
4DBF
  8
0
 62
     1
 10
1160.0
 20
922.39999999999998
 30
0.0
 11
1160.0
 21
897.70000000000005
 31
0.0
  0
INSERT
  5
4DC0
  8
AM_7N
  2
*U180
 10
0.0
 20
0.0
 30
0.0
  0
LINE
  5
4DC1
  8
0
 62
     1
 10
1360.0
 20
922.39999999999998
 30
0.0
 11
1360.0
 21
897.70000000000005
 31
0.0
  0
INSERT
  5
4DC2
  8
AM_7N
  2
*U181
 10
0.0
 20
0.0
 30
0.0
  0
INSERT
  5
4DC3
  8
AM_7N
  2
*U182
 10
0.0
 20
0.0
 30
0.0
  0
LINE
  5
4DC4
  8
0
 62
     1
 10
900.0
 20
897.70000000000005
 30
0.0
 11
900.0
 21
873.0
 31
0.0
  0
INSERT
  5
4DC5
  8
AM_7N
  2
*U183
 10
0.0
 20
0.0
 30
0.0
  0
LINE
  5
4DC6
  8
0
 62
     1
 10
1080.0
 20
897.70000000000005
 30
0.0
 11
1080.0
 21
873.0
 31
0.0
  0
INSERT
  5
4DC7
  8
AM_7N
  2
*U184
 10
0.0
 20
0.0
 30
0.0
  0
LINE
  5
4DC8
  8
0
 62
     1
 10
1160.0
 20
897.70000000000005
 30
0.0
 11
1160.0
 21
873.0
 31
0.0
  0
INSERT
  5
4DC9
  8
AM_7N
  2
*U185
 10
0.0
 20
0.0
 30
0.0
  0
LINE
  5
4DCA
  8
0
 62
     1
 10
1360.0
 20
897.70000000000005
 30
0.0
 11
1360.0
 21
873.0
 31
0.0
  0
INSERT
  5
4DCB
  8
AM_7N
  2
*U186
 10
0.0
 20
0.0
 30
0.0
  0
INSERT
  5
4DCC
  8
AM_7N
  2
*U187
 10
0.0
 20
0.0
 30
0.0
  0
LINE
  5
4DCD
  8
0
 62
     1
 10
900.0
 20
873.0
 30
0.0
 11
900.0
 21
848.29999999999995
 31
0.0
  0
INSERT
  5
4DCE
  8
AM_7N
  2
*U188
 10
0.0
 20
0.0
 30
0.0
  0
LINE
  5
4DCF
  8
0
 62
     1
 10
1080.0
 20
873.0
 30
0.0
 11
1080.0
 21
848.29999999999995
 31
0.0
  0
INSERT
  5
4DD0
  8
AM_7N
  2
*U189
 10
0.0
 20
0.0
 30
0.0
  0
LINE
  5
4DD1
  8
0
 62
     1
 10
1160.0
 20
873.0
 30
0.0
 11
1160.0
 21
848.29999999999995
 31
0.0
  0
INSERT
  5
4DD2
  8
AM_7N
  2
*U190
 10
0.0
 20
0.0
 30
0.0
  0
LINE
  5
4DD3
  8
0
 62
     1
 10
1360.0
 20
873.0
 30
0.0
 11
1360.0
 21
848.29999999999995
 31
0.0
  0
INSERT
  5
4DD4
  8
AM_7N
  2
*U191
 10
0.0
 20
0.0
 30
0.0
  0
INSERT
  5
4DD5
  8
AM_7N
  2
*U192
 10
0.0
 20
0.0
 30
0.0
  0
LINE
  5
4DD6
  8
0
 62
     1
 10
900.0
 20
848.29999999999995
 30
0.0
 11
900.0
 21
823.60000000000002
 31
0.0
  0
INSERT
  5
4DD7
  8
AM_7N
  2
*U193
 10
0.0
 20
0.0
 30
0.0
  0
LINE
  5
4DD8
  8
0
 62
     1
 10
1080.0
 20
848.29999999999995
 30
0.0
 11
1080.0
 21
823.60000000000002
 31
0.0
  0
INSERT
  5
4DD9
  8
AM_7N
  2
*U194
 10
0.0
 20
0.0
 30
0.0
  0
LINE
  5
4DDA
  8
0
 62
     1
 10
1160.0
 20
848.29999999999995
 30
0.0
 11
1160.0
 21
823.60000000000002
 31
0.0
  0
INSERT
  5
4DDB
  8
AM_7N
  2
*U195
 10
0.0
 20
0.0
 30
0.0
  0
LINE
  5
4DDC
  8
0
 62
     1
 10
1360.0
 20
848.29999999999995
 30
0.0
 11
1360.0
 21
823.60000000000002
 31
0.0
  0
INSERT
  5
4DDD
  8
AM_7N
  2
*U196
 10
0.0
 20
0.0
 30
0.0
  0
INSERT
  5
4DDE
  8
AM_7N
  2
*U197
 10
0.0
 20
0.0
 30
0.0
  0
LINE
  5
4DDF
  8
0
 62
     1
 10
900.0
 20
823.60000000000002
 30
0.0
 11
900.0
 21
798.89999999999998
 31
0.0
  0
INSERT
  5
4DE0
  8
AM_7N
  2
*U198
 10
0.0
 20
0.0
 30
0.0
  0
LINE
  5
4DE1
  8
0
 62
     1
 10
1080.0
 20
823.60000000000002
 30
0.0
 11
1080.0
 21
798.89999999999998
 31
0.0
  0
INSERT
  5
4DE2
  8
AM_7N
  2
*U199
 10
0.0
 20
0.0
 30
0.0
  0
LINE
  5
4DE3
  8
0
 62
     1
 10
1160.0
 20
823.60000000000002
 30
0.0
 11
1160.0
 21
798.89999999999998
 31
0.0
  0
INSERT
  5
4DE4
  8
AM_7N
  2
*U200
 10
0.0
 20
0.0
 30
0.0
  0
LINE
  5
4DE5
  8
0
 62
     1
 10
1360.0
 20
823.60000000000002
 30
0.0
 11
1360.0
 21
798.89999999999998
 31
0.0
  0
INSERT
  5
4DE6
  8
AM_7N
  2
*U201
 10
0.0
 20
0.0
 30
0.0
  0
LINE
  5
4DE7
  8
0
 62
     1
 10
840.0
 20
1070.5999999999999
 30
0.0
 11
1612.0
 21
1070.5999999999999
 31
0.0
  0
INSERT
  5
4DE8
  8
AM_7N
  2
*U202
 10
0.0
 20
0.0
 30
0.0
  0
LINE
  5
4DE9
  8
0
 62
     1
 10
900.0
 20
1095.3
 30
0.0
 11
900.0
 21
1070.5999999999999
 31
0.0
  0
INSERT
  5
4DEA
  8
AM_7N
  2
*U203
 10
0.0
 20
0.0
 30
0.0
  0
LINE
  5
4DEB
  8
0
 62
     1
 10
1080.0
 20
1095.3
 30
0.0
 11
1080.0
 21
1070.5999999999999
 31
0.0
  0
INSERT
  5
4DEC
  8
AM_7N
  2
*U204
 10
0.0
 20
0.0
 30
0.0
  0
LINE
  5
4DED
  8
0
 62
     1
 10
1160.0
 20
1095.3
 30
0.0
 11
1160.0
 21
1070.5999999999999
 31
0.0
  0
INSERT
  5
4DEE
  8
AM_7N
  2
*U205
 10
0.0
 20
0.0
 30
0.0
  0
LINE
  5
4DEF
  8
0
 62
     1
 10
1360.0
 20
1095.3
 30
0.0
 11
1360.0
 21
1070.5999999999999
 31
0.0
  0
INSERT
  5
4DF0
  8
AM_7N
  2
*U206
 10
0.0
 20
0.0
 30
0.0
  0
INSERT
  5
4DF1
  8
AM_7N
  2
*U207
 10
0.0
 20
0.0
 30
0.0
  0
LINE
  5
4DF2
  8
0
 62
     1
 10
840.0
 20
1095.3
 30
0.0
 11
1612.0
 21
1095.3
 31
0.0
  0
LINE
  5
4DF3
  8
0
 62
     7
 10
840.0
 20
1120.0
 30
0.0
 11
1612.0
 21
1120.0
 31
0.0
  0
LINE
  5
4DF4
  8
0
 62
     7
 10
1612.0
 20
1120.0
 30
0.0
 11
1612.0
 21
798.89999999999998
 31
0.0
  0
LINE
  5
4DF5
  8
0
 62
     7
 10
1612.0
 20
798.89999999999998
 30
0.0
 11
840.0
 21
798.89999999999998
 31
0.0
  0
LINE
  5
4DF6
  8
0
 62
     7
 10
840.0
 20
798.89999999999998
 30
0.0
 11
840.0
 21
1120.0
 31
0.0
  0
ENDBLK
  5
4DF8
  8
0
  0
BLOCK
  8
0
  2
*S71
 70
     1
 10
0.0
 20
0.0
 30
0.0
  3
*S71
  1

  0
CIRCLE
  5
4DFB
  8
AM_12
 62
     4
 10
1317.1364081290881
 20
268.80512492633352
 30
0.0
 40
7.0
  0
LINE
  5
4DFC
  8
AM_12
 62
     4
 10
1310.1364081290881
 20
261.80512492633352
 30
0.0
 11
1324.1364081290881
 21
275.80512492633352
 31
0.0
  0
LINE
  5
4DFD
  8
AM_12
 62
     4
 10
1310.1364081290881
 20
275.80512492633352
 30
0.0
 11
1324.1364081290881
 21
261.80512492633352
 31
0.0
  0
ENDBLK
  5
4DFF
  8
0
  0
BLOCK
  8
0
  2
*S72
 70
     1
 10
0.0
 20
0.0
 30
0.0
  3
*S72
  1

  0
LINE
  5
4E02
  8
AM_5
 10
1077.6754710196719
 20
304.34875626185311
 30
0.0
 11
1061.391869461645
 21
282.96140462215692
 31
0.0
  0
TRACE
  5
4E03
  8
AM_5
 10
1059.925400640682
 20
284.0779240669255
 30
0.0
 11
1062.8583382826071
 21
281.84488517738828
 31
0.0
 12
1052.9110622592671
 22
271.8224679944488
 32
0.0
 13
1052.9110622592671
 23
271.8224679944488
 33
0.0
  0
INSERT
  5
4E04
  8
AM_7N
  2
*U208
 10
0.0
 20
0.0
 30
0.0
  0
CIRCLE
  5
4E05
  8
AM_5
 62
     3
 10
1092.5168836238331
 20
323.84189536034228
 30
0.0
 40
24.5
  0
ENDBLK
  5
4E07
  8
0
  0
BLOCK
  8
0
  2
*S73
 70
     1
 10
0.0
 20
0.0
 30
0.0
  3
*S73
  1

  0
LINE
  5
4E0A
  8
AM_5
 10
1205.5034158077231
 20
305.98375268710453
 30
0.0
 11
1191.4413047104399
 21
285.77343058992523
 31
0.0
  0
TRACE
  5
4E0B
  8
AM_5
 10
1189.928362380916
 20
286.82611856883273
 30
0.0
 11
1192.9542470399631
 21
284.72074261101773
 31
0.0
 12
1183.445345629561
 22
274.28149261685388
 32
0.0
 13
1183.445345629561
 23
274.28149261685388
 33
0.0
  0
INSERT
  5
4E0C
  8
AM_7N
  2
*U209
 10
0.0
 20
0.0
 30
0.0
  0
CIRCLE
  5
4E0D
  8
AM_5
 62
     3
 10
1219.49634419926
 20
326.09464413997921
 30
0.0
 40
24.5
  0
ENDBLK
  5
4E0F
  8
0
  0
BLOCK
  8
0
  2
*S74
 70
     1
 10
0.0
 20
0.0
 30
0.0
  3
*S74
  1

  0
LINE
  5
4E12
  8
AM_5
 10
1329.225177591921
 20
303.80126466816819
 30
0.0
 11
1310.8957772072849
 21
279.7796044738605
 31
0.0
  0
TRACE
  5
4E13
  8
AM_5
 10
1309.4304889015341
 20
280.89767274298862
 30
0.0
 11
1312.361065513036
 21
278.66153620473239
 31
0.0
 12
1302.4032055158571
 22
268.6496347494658
 32
0.0
 13
1302.4032055158571
 23
268.6496347494658
 33
0.0
  0
INSERT
  5
4E14
  8
AM_7N
  2
*U210
 10
0.0
 20
0.0
 30
0.0
  0
CIRCLE
  5
4E15
  8
AM_5
 62
     3
 10
1344.087178051921
 20
323.27871168585898
 30
0.0
 40
24.5
  0
ENDBLK
  5
4E17
  8
0
  0
BLOCK
  8
0
  2
*S75
 70
     1
 10
0.0
 20
0.0
 30
0.0
  3
*S75
  1

  0
LINE
  5
4E1A
  8
AM_5
 10
1449.8754142681009
 20
301.6998776995153
 30
0.0
 11
1429.9943626297199
 21
279.9822486235829
 31
0.0
  0
TRACE
  5
4E1B
  8
AM_5
 10
1428.634853483145
 20
281.22678924316062
 30
0.0
 11
1431.353871776296
 21
278.73770800400513
 31
0.0
 12
1420.5411380579319
 22
269.65575138611979
 32
0.0
 13
1420.5411380579319
 23
269.65575138611979
 33
0.0
  0
INSERT
  5
4E1C
  8
AM_7N
  2
*U211
 10
0.0
 20
0.0
 30
0.0
  0
CIRCLE
  5
4E1D
  8
AM_5
 62
     3
 10
1466.4185572687311
 20
319.77124786507562
 30
0.0
 40
24.5
  0
ENDBLK
  5
4E1F
  8
0
  0
BLOCK
  8
0
  2
*U76
 70
     1
 10
0.0
 20
0.0
 30
0.0
  3
*U76
  1

  0
TEXT
  5
4E3A
  8
0
 10
367.55531168523049
 20
276.233542987227
 30
0.0
 40
2.5
  1
(文書番号：TY-34)2004.10.29
  0
ENDBLK
  5
4E3C
  8
0
  0
BLOCK
  8
0
  2
*U77
 70
     1
 10
0.0
 20
0.0
 30
0.0
  3
*U77
  1

  0
TEXT
  5
4E3E
  8
RAHM2
 10
-193.80025513713139
 20
3.3010354072796408
 30
0.0
 40
2.5
  1
図番
  0
ENDBLK
  5
4E40
  8
0
  0
BLOCK
  8
0
  2
*U78
 70
     1
 10
0.0
 20
0.0
 30
0.0
  3
*U78
  1

  0
TEXT
  5
4E42
  8
RAHM2
 10
-193.0
 20
21.249999999999972
 30
0.0
 40
2.5
  1
符号
  0
ENDBLK
  5
4E44
  8
0
  0
BLOCK
  8
0
  2
*U79
 70
     1
 10
0.0
 20
0.0
 30
0.0
  3
*U79
  1

  0
TEXT
  5
4E46
  8
RAHM2
 10
-193.80025513713139
 20
16.30103540727961
 30
0.0
 40
2.5
  1
品名
  0
ENDBLK
  5
4E48
  8
0
  0
BLOCK
  8
0
  2
*U80
 70
     1
 10
0.0
 20
0.0
 30
0.0
  3
*U80
  1

  0
TEXT
  5
4E4A
  8
RAHM2
 10
-163.1448171868856
 20
21.249999999999972
 30
0.0
 40
2.5
  1
変更記事
  0
ENDBLK
  5
4E4C
  8
0
  0
BLOCK
  8
0
  2
*U81
 70
     1
 10
0.0
 20
0.0
 30
0.0
  3
*U81
  1

  0
TEXT
  5
4E4E
  8
0
 10
-88.85532994923858
 20
3.4187817258883251
 30
0.0
 40
3.5
  1
株式会社タカチ電機工業
  0
ENDBLK
  5
4E50
  8
0
  0
BLOCK
  8
0
  2
*U82
 70
     1
 10
0.0
 20
0.0
 30
0.0
  3
*U82
  1

  0
TEXT
  5
4E52
  8
RAHM2
 10
-123.3541228057275
 20
31.250000000000028
 30
0.0
 40
2.5
  1
・  ・   
  0
ENDBLK
  5
4E54
  8
0
  0
BLOCK
  8
0
  2
*U83
 70
     1
 10
0.0
 20
0.0
 30
0.0
  3
*U83
  1

  0
TEXT
  5
4E56
  8
RAHM2
 10
-126.238119805002
 20
21.249999999999972
 30
0.0
 40
2.5
  1
年・月・日
  0
ENDBLK
  5
4E58
  8
0
  0
BLOCK
  8
0
  2
*U84
 70
     1
 10
0.0
 20
0.0
 30
0.0
  3
*U84
  1

  0
TEXT
  5
4E5A
  8
RAHM2
 10
-104.5
 20
21.249999999999972
 30
0.0
 40
2.5
  1
担当
  0
ENDBLK
  5
4E5C
  8
0
  0
BLOCK
  8
0
  2
*U85
 70
     1
 10
0.0
 20
0.0
 30
0.0
  3
*U85
  1

  0
TEXT
  5
4E5E
  8
RAHM2
 10
-123.3541228057275
 20
41.250000000000021
 30
0.0
 40
2.5
  1
・  ・   
  0
ENDBLK
  5
4E60
  8
0
  0
BLOCK
  8
0
  2
*U86
 70
     1
 10
0.0
 20
0.0
 30
0.0
  3
*U86
  1

  0
TEXT
  5
4E62
  8
RAHM2
 10
-123.3541228057275
 20
36.250000000000028
 30
0.0
 40
2.5
  1
・  ・   
  0
ENDBLK
  5
4E64
  8
0
  0
BLOCK
  8
0
  2
*U87
 70
     1
 10
0.0
 20
0.0
 30
0.0
  3
*U87
  1

  0
TEXT
  5
4E66
  8
RAHM2
 10
-123.3541228057275
 20
46.250000000000021
 30
0.0
 40
2.5
  1
・  ・   
  0
ENDBLK
  5
4E68
  8
0
  0
BLOCK
  8
0
  2
*U88
 70
     1
 10
0.0
 20
0.0
 30
0.0
  3
*U88
  1

  0
TEXT
  5
4E6A
  8
RAHM2
 10
-92.800255137131444
 20
13.80103540727964
 30
0.0
 40
2.5
  1
日付
  0
ENDBLK
  5
4E6C
  8
0
  0
BLOCK
  8
0
  2
*U89
 70
     1
 10
0.0
 20
0.0
 30
0.0
  3
*U89
  1

  0
TEXT
  5
4E6E
  8
RAHM2
 10
-92.800255137131444
 20
23.801035407279642
 30
0.0
 40
2.5
  1
表面処理
  0
ENDBLK
  5
4E70
  8
0
  0
BLOCK
  8
0
  2
*U90
 70
     1
 10
0.0
 20
0.0
 30
0.0
  3
*U90
  1

  0
TEXT
  5
4E72
  8
RAHM2
 10
-92.800255137131444
 20
33.801035407279642
 30
0.0
 40
2.5
  1
材質
  0
ENDBLK
  5
4E74
  8
0
  0
BLOCK
  8
0
  2
*U91
 70
     1
 10
0.0
 20
0.0
 30
0.0
  3
*U91
  1

  0
TEXT
  5
4E76
  8
RAHM2
 10
-72.800255137131444
 20
46.301035407279642
 30
0.0
 40
2.5
  1
尺度
  0
ENDBLK
  5
4E78
  8
0
  0
BLOCK
  8
0
  2
*U92
 70
     1
 10
0.0
 20
0.0
 30
0.0
  3
*U92
  1

  0
TEXT
  5
4E7A
  8
RAHM2
 10
-52.800255137131451
 20
46.301035407279642
 30
0.0
 40
2.5
  1
数量
  0
ENDBLK
  5
4E7C
  8
0
  0
BLOCK
  8
0
  2
*U93
 70
     1
 10
0.0
 20
0.0
 30
0.0
  3
*U93
  1

  0
TEXT
  5
4E7E
  8
RAHM2
 10
-28.3125
 20
21.301035407279642
 30
0.0
 40
2.5
  1
承認
  0
ENDBLK
  5
4E80
  8
0
  0
BLOCK
  8
0
  2
*U94
 70
     1
 10
0.0
 20
0.0
 30
0.0
  3
*U94
  1

  0
TEXT
  5
4E82
  8
RAHM2
 10
-28.3125
 20
46.301035407279642
 30
0.0
 40
2.5
  1
承認
  0
ENDBLK
  5
4E84
  8
0
  0
BLOCK
  8
0
  2
*U95
 70
     1
 10
0.0
 20
0.0
 30
0.0
  3
*U95
  1

  0
TEXT
  5
4E86
  8
RAHM2
 10
-123.3541228057275
 20
26.250000000000028
 30
0.0
 40
2.5
  1
・  ・   
  0
ENDBLK
  5
4E88
  8
0
  0
BLOCK
  8
0
  2
*U96
 70
     1
 10
0.0
 20
0.0
 30
0.0
  3
*U96
  1

  0
TEXT
  5
4E8A
  8
RAHM2
 10
-11.3125
 20
46.301035407279642
 30
0.0
 40
2.5
  1
検図
  0
ENDBLK
  5
4E8C
  8
0
  0
BLOCK
  8
0
  2
*U97
 70
     1
 10
0.0
 20
0.0
 30
0.0
  3
*U97
  1

  0
TEXT
  5
4E8E
  8
RAHM2
 10
-11.3125
 20
21.301035407279642
 30
0.0
 40
2.5
  1
製図
  0
ENDBLK
  5
4E90
  8
0
  0
BLOCK
  8
0
  2
*U98
 70
     1
 10
0.0
 20
0.0
 30
0.0
  3
*U98
  1

  0
TEXT
  5
4E96
  8
RAHM2
 10
-26.1749422164166
 20
26.250000000000028
 30
0.0
 40
2.5
  1
・  ・   
  0
ENDBLK
  5
4E98
  8
0
  0
BLOCK
  8
0
  2
*U99
 70
     1
 10
0.0
 20
0.0
 30
0.0
  3
*U99
  1

  0
TEXT
  5
4E9A
  8
RAHM2
 10
-26.1749422164166
 20
46.250000000000021
 30
0.0
 40
2.5
  1
・  ・   
  0
ENDBLK
  5
4E9C
  8
0
  0
BLOCK
  8
0
  2
*U100
 70
     1
 10
0.0
 20
0.0
 30
0.0
  3
*U100
  1

  0
TEXT
  5
4E9E
  8
RAHM2
 10
-26.1749422164166
 20
36.250000000000028
 30
0.0
 40
2.5
  1
・  ・   
  0
ENDBLK
  5
4EA0
  8
0
  0
BLOCK
  8
0
  2
*U101
 70
     1
 10
0.0
 20
0.0
 30
0.0
  3
*U101
  1

  0
TEXT
  5
4EA2
  8
RAHM2
 10
-26.1749422164166
 20
41.250000000000021
 30
0.0
 40
2.5
  1
・  ・   
  0
ENDBLK
  5
4EA4
  8
0
  0
BLOCK
  8
0
  2
*U102
 70
     1
 10
0.0
 20
0.0
 30
0.0
  3
*U102
  1

  0
TEXT
  5
4EA6
  8
RAHM2
 10
-8.9104097053444775
 20
21.249999999999972
 30
0.0
 40
2.5
  1
担当
  0
ENDBLK
  5
4EA8
  8
0
  0
BLOCK
  8
0
  2
*U103
 70
     1
 10
0.0
 20
0.0
 30
0.0
  3
*U103
  1

  0
TEXT
  5
4EAA
  8
RAHM2
 10
-29.058939215691112
 20
21.249999999999972
 30
0.0
 40
2.5
  1
年・月・日
  0
ENDBLK
  5
4EAC
  8
0
  0
BLOCK
  8
0
  2
*U104
 70
     1
 10
0.0
 20
0.0
 30
0.0
  3
*U104
  1

  0
TEXT
  5
4EAE
  8
RAHM2
 10
-26.1749422164166
 20
31.250000000000028
 30
0.0
 40
2.5
  1
・  ・   
  0
ENDBLK
  5
4EB0
  8
0
  0
BLOCK
  8
0
  2
*U105
 70
     1
 10
0.0
 20
0.0
 30
0.0
  3
*U105
  1

  0
TEXT
  5
4EB2
  8
RAHM2
 10
-65.0
 20
21.249999999999961
 30
0.0
 40
2.5
  1
変更記事
  0
ENDBLK
  5
4EB4
  8
0
  0
BLOCK
  8
0
  2
*U106
 70
     1
 10
0.0
 20
0.0
 30
0.0
  3
*U106
  1

  0
TEXT
  5
4EB6
  8
RAHM2
 10
-94.800255137131444
 20
16.301035407279599
 30
0.0
 40
2.5
  1
品名
  0
ENDBLK
  5
4EB8
  8
0
  0
BLOCK
  8
0
  2
*U107
 70
     1
 10
0.0
 20
0.0
 30
0.0
  3
*U107
  1

  0
TEXT
  5
4EBA
  8
RAHM2
 10
-94.0
 20
21.249999999999961
 30
0.0
 40
2.5
  1
符号
  0
ENDBLK
  5
4EBC
  8
0
  0
BLOCK
  8
0
  2
*U108
 70
     1
 10
0.0
 20
0.0
 30
0.0
  3
*U108
  1

  0
TEXT
  5
4EBE
  8
RAHM2
 10
-94.800255137131444
 20
3.3010354072796271
 30
0.0
 40
2.5
  1
図番
  0
ENDBLK
  5
4EC0
  8
0
  0
BLOCK
  8
0
  2
*U109
 70
     1
 10
0.0
 20
0.0
 30
0.0
  3
*U109
  1

  0
TEXT
  5
4EC2
  8
RAHM2
 10
-19.982425929334909
 20
2.1847624665659851
 30
0.0
 40
2.5
  1
Rev.
  0
ENDBLK
  5
4EC4
  8
0
  0
BLOCK
  8
0
  2
*U110
 70
     1
 10
0.0
 20
0.0
 30
0.0
  3
*U110
  1

  0
TEXT
  5
4EC6
  8
RAHM2
 10
-107.6875
 20
16.301035407279571
 30
0.0
 40
2.5
  1
製図
  0
ENDBLK
  5
4EC8
  8
0
  0
BLOCK
  8
0
  2
*U111
 70
     1
 10
0.0
 20
0.0
 30
0.0
  3
*U111
  1

  0
TEXT
  5
4ECA
  8
RAHM2
 10
-125.4375000000001
 20
16.301035407279581
 30
0.0
 40
2.5
  1
検図
  0
ENDBLK
  5
4ECC
  8
0
  0
BLOCK
  8
0
  2
*U112
 70
     1
 10
0.0
 20
0.0
 30
0.0
  3
*U112
  1

  0
TEXT
  5
4ECE
  8
RAHM2
 10
-143.18750000000011
 20
16.301035407279581
 30
0.0
 40
2.5
  1
承認
  0
ENDBLK
  5
4ED0
  8
0
  0
BLOCK
  8
0
  2
*U113
 70
     1
 10
0.0
 20
0.0
 30
0.0
  3
*U113
  1

  0
TEXT
  5
4ED2
  8
RAHM2
 10
-160.93750000000011
 20
16.30103540727956
 30
0.0
 40
2.5
  1
承認
  0
ENDBLK
  5
4ED4
  8
0
  0
BLOCK
  8
0
  2
*U114
 70
     1
 10
0.0
 20
0.0
 30
0.0
  3
*U114
  1

  0
TEXT
  5
4ED6
  8
0
 10
-156.35532994923869
 20
23.418781725888241
 30
0.0
 40
3.5
  1
株式会社タカチ電機工業
  0
ENDBLK
  5
4ED8
  8
0
  0
BLOCK
  8
0
  2
*U115
 70
     1
 10
0.0
 20
0.0
 30
0.0
  3
*U115
  1

  0
TEXT
  5
4EDA
  8
RAHM2
 10
-165.80025513713139
 20
46.301035407279549
 30
0.0
 40
2.5
  1
材質
  0
ENDBLK
  5
4EDC
  8
0
  0
BLOCK
  8
0
  2
*U116
 70
     1
 10
0.0
 20
0.0
 30
0.0
  3
*U116
  1

  0
TEXT
  5
4EDE
  8
RAHM2
 10
-165.80025513713139
 20
36.301035407279556
 30
0.0
 40
2.5
  1
表面処理
  0
ENDBLK
  5
4EE0
  8
0
  0
BLOCK
  8
0
  2
*U117
 70
     1
 10
0.0
 20
0.0
 30
0.0
  3
*U117
  1

  0
TEXT
  5
4EE2
  8
RAHM2
 10
-191.8002551371315
 20
21.301035407279631
 30
0.0
 40
2.5
  1
数量
  0
ENDBLK
  5
4EE4
  8
0
  0
BLOCK
  8
0
  2
*U118
 70
     1
 10
0.0
 20
0.0
 30
0.0
  3
*U118
  1

  0
TEXT
  5
4EE6
  8
RAHM2
 10
-191.8002551371315
 20
33.801035407279663
 30
0.0
 40
2.5
  1
尺度
  0
ENDBLK
  5
4EE8
  8
0
  0
BLOCK
  8
0
  2
*U119
 70
     1
 10
0.0
 20
0.0
 30
0.0
  3
*U119
  1

  0
TEXT
  5
4EEA
  8
RAHM2
 10
-191.8002551371315
 20
8.8010354072796062
 30
0.0
 40
2.5
  1
日付
  0
ENDBLK
  5
4EEC
  8
0
  0
BLOCK
  8
0
  2
*X120
 70
     1
 10
0.0
 20
0.0
 30
0.0
  3
*X120
  1

  0
LINE
  5
4EEE
  8
0
 62
     0
 10
346.34342003473489
 20
4.4833779454472156
 30
0.0
 11
346.34342003473489
 21
4.4833779454472156
 31
0.0
  0
LINE
  5
4EEF
  8
0
 62
     0
 10
341.5809200347349
 20
4.4833779454472156
 30
0.0
 11
341.5809200347349
 21
4.4833779454472156
 31
0.0
  0
LINE
  5
4EF0
  8
0
 62
     0
 10
336.81842003473491
 20
4.4833779454472156
 30
0.0
 11
336.81842003473491
 21
4.4833779454472156
 31
0.0
  0
LINE
  5
4EF1
  8
0
 62
     0
 10
332.05592003473492
 20
4.4833779454472156
 30
0.0
 11
332.05592003473492
 21
4.4833779454472156
 31
0.0
  0
LINE
  5
4EF2
  8
0
 62
     0
 10
327.29342003473499
 20
4.4833779454472156
 30
0.0
 11
327.29342003473499
 21
4.4833779454472156
 31
0.0
  0
LINE
  5
4EF3
  8
0
 62
     0
 10
322.530920034735
 20
4.4833779454472156
 30
0.0
 11
322.530920034735
 21
4.4833779454472156
 31
0.0
  0
LINE
  5
4EF4
  8
0
 62
     0
 10
317.7684200347349
 20
4.4833779454472156
 30
0.0
 11
317.7684200347349
 21
4.4833779454472156
 31
0.0
  0
LINE
  5
4EF5
  8
0
 62
     0
 10
313.00592003473503
 20
4.4833779454472156
 30
0.0
 11
313.00592003473503
 21
4.4833779454472156
 31
0.0
  0
LINE
  5
4EF6
  8
0
 62
     0
 10
308.24342003473498
 20
4.4833779454472156
 30
0.0
 11
308.24342003473498
 21
4.4833779454472156
 31
0.0
  0
LINE
  5
4EF7
  8
0
 62
     0
 10
303.48092003473499
 20
4.4833779454472156
 30
0.0
 11
303.48092003473499
 21
4.4833779454472156
 31
0.0
  0
LINE
  5
4EF8
  8
0
 62
     0
 10
298.718420034735
 20
4.4833779454472156
 30
0.0
 11
298.718420034735
 21
4.4833779454472156
 31
0.0
  0
LINE
  5
4EF9
  8
0
 62
     0
 10
293.95592003473502
 20
4.4833779454472156
 30
0.0
 11
293.95592003473502
 21
4.4833779454472156
 31
0.0
  0
LINE
  5
4EFA
  8
0
 62
     0
 10
289.19342003473503
 20
4.4833779454472156
 30
0.0
 11
289.19342003473503
 21
4.4833779454472156
 31
0.0
  0
LINE
  5
4EFB
  8
0
 62
     0
 10
284.43092003473498
 20
4.4833779454472156
 30
0.0
 11
284.43092003473498
 21
4.4833779454472156
 31
0.0
  0
LINE
  5
4EFC
  8
0
 62
     0
 10
279.66842003473511
 20
4.4833779454472156
 30
0.0
 11
279.66842003473511
 21
4.4833779454472156
 31
0.0
  0
LINE
  5
4EFD
  8
0
 62
     0
 10
274.90592003473512
 20
4.4833779454472156
 30
0.0
 11
274.90592003473512
 21
4.4833779454472156
 31
0.0
  0
LINE
  5
4EFE
  8
0
 62
     0
 10
270.14342003473507
 20
4.4833779454472156
 30
0.0
 11
270.14342003473507
 21
4.4833779454472156
 31
0.0
  0
LINE
  5
4EFF
  8
0
 62
     0
 10
265.38092003473508
 20
4.4833779454472156
 30
0.0
 11
265.38092003473508
 21
4.4833779454472156
 31
0.0
  0
LINE
  5
4F00
  8
0
 62
     0
 10
260.6184200347351
 20
4.4833779454472156
 30
0.0
 11
260.6184200347351
 21
4.4833779454472156
 31
0.0
  0
LINE
  5
4F01
  8
0
 62
     0
 10
255.85592003473511
 20
4.4833779454472156
 30
0.0
 11
255.85592003473511
 21
4.4833779454472156
 31
0.0
  0
LINE
  5
4F02
  8
0
 62
     0
 10
251.09342003473509
 20
4.4833779454472156
 30
0.0
 11
251.09342003473509
 21
4.4833779454472156
 31
0.0
  0
LINE
  5
4F03
  8
0
 62
     0
 10
246.3309200347351
 20
4.4833779454472156
 30
0.0
 11
246.3309200347351
 21
4.4833779454472156
 31
0.0
  0
LINE
  5
4F04
  8
0
 62
     0
 10
241.56842003473511
 20
4.4833779454472156
 30
0.0
 11
241.56842003473511
 21
4.4833779454472156
 31
0.0
  0
LINE
  5
4F05
  8
0
 62
     0
 10
236.80592003473521
 20
4.4833779454472156
 30
0.0
 11
236.80592003473521
 21
4.4833779454472156
 31
0.0
  0
LINE
  5
4F06
  8
0
 62
     0
 10
232.04342003473519
 20
4.4833779454472156
 30
0.0
 11
232.04342003473519
 21
4.4833779454472156
 31
0.0
  0
LINE
  5
4F07
  8
0
 62
     0
 10
227.2809200347352
 20
4.4833779454472156
 30
0.0
 11
227.2809200347352
 21
4.4833779454472156
 31
0.0
  0
LINE
  5
4F08
  8
0
 62
     0
 10
222.51842003473519
 20
4.4833779454472156
 30
0.0
 11
222.51842003473519
 21
4.4833779454472156
 31
0.0
  0
LINE
  5
4F09
  8
0
 62
     0
 10
217.7559200347352
 20
4.4833779454472156
 30
0.0
 11
217.7559200347352
 21
4.4833779454472156
 31
0.0
  0
LINE
  5
4F0A
  8
0
 62
     0
 10
212.99342003473521
 20
4.4833779454472156
 30
0.0
 11
212.99342003473521
 21
4.4833779454472156
 31
0.0
  0
LINE
  5
4F0B
  8
0
 62
     0
 10
208.23092003473519
 20
4.4833779454472156
 30
0.0
 11
208.23092003473519
 21
4.4833779454472156
 31
0.0
  0
LINE
  5
4F0C
  8
0
 62
     0
 10
203.4684200347352
 20
4.4833779454472156
 30
0.0
 11
203.4684200347352
 21
4.4833779454472156
 31
0.0
  0
LINE
  5
4F0D
  8
0
 62
     0
 10
198.70592003473519
 20
4.4833779454472156
 30
0.0
 11
198.70592003473519
 21
4.4833779454472156
 31
0.0
  0
LINE
  5
4F0E
  8
0
 62
     0
 10
193.9434200347352
 20
4.4833779454472156
 30
0.0
 11
193.9434200347352
 21
4.4833779454472156
 31
0.0
  0
LINE
  5
4F0F
  8
0
 62
     0
 10
189.18092003473529
 20
4.4833779454472156
 30
0.0
 11
189.18092003473529
 21
4.4833779454472156
 31
0.0
  0
LINE
  5
4F10
  8
0
 62
     0
 10
184.41842003473531
 20
4.4833779454472156
 30
0.0
 11
184.41842003473531
 21
4.4833779454472156
 31
0.0
  0
LINE
  5
4F11
  8
0
 62
     0
 10
179.65592003473529
 20
4.4833779454472156
 30
0.0
 11
179.65592003473529
 21
4.4833779454472156
 31
0.0
  0
LINE
  5
4F12
  8
0
 62
     0
 10
174.8934200347353
 20
4.4833779454472156
 30
0.0
 11
174.8934200347353
 21
4.4833779454472156
 31
0.0
  0
LINE
  5
4F13
  8
0
 62
     0
 10
170.13092003473531
 20
4.4833779454472156
 30
0.0
 11
170.13092003473531
 21
4.4833779454472156
 31
0.0
  0
LINE
  5
4F14
  8
0
 62
     0
 10
165.36842003473529
 20
4.4833779454472156
 30
0.0
 11
165.36842003473529
 21
4.4833779454472156
 31
0.0
  0
LINE
  5
4F15
  8
0
 62
     0
 10
160.60592003473531
 20
4.4833779454472156
 30
0.0
 11
160.60592003473531
 21
4.4833779454472156
 31
0.0
  0
LINE
  5
4F16
  8
0
 62
     0
 10
155.84342003473529
 20
4.4833779454472156
 30
0.0
 11
155.84342003473529
 21
4.4833779454472156
 31
0.0
  0
LINE
  5
4F17
  8
0
 62
     0
 10
151.0809200347353
 20
4.4833779454472156
 30
0.0
 11
151.0809200347353
 21
4.4833779454472156
 31
0.0
  0
LINE
  5
4F18
  8
0
 62
     0
 10
146.31842003473531
 20
4.4833779454472156
 30
0.0
 11
146.31842003473531
 21
4.4833779454472156
 31
0.0
  0
LINE
  5
4F19
  8
0
 62
     0
 10
141.55592003473541
 20
4.4833779454472156
 30
0.0
 11
141.55592003473541
 21
4.4833779454472156
 31
0.0
  0
LINE
  5
4F1A
  8
0
 62
     0
 10
136.79342003473539
 20
4.4833779454472156
 30
0.0
 11
136.79342003473539
 21
4.4833779454472156
 31
0.0
  0
LINE
  5
4F1B
  8
0
 62
     0
 10
132.0309200347354
 20
4.4833779454472156
 30
0.0
 11
132.0309200347354
 21
4.4833779454472156
 31
0.0
  0
LINE
  5
4F1C
  8
0
 62
     0
 10
127.2684200347354
 20
4.4833779454472156
 30
0.0
 11
127.2684200347354
 21
4.4833779454472156
 31
0.0
  0
LINE
  5
4F1D
  8
0
 62
     0
 10
122.5059200347354
 20
4.4833779454472156
 30
0.0
 11
122.5059200347354
 21
4.4833779454472156
 31
0.0
  0
LINE
  5
4F1E
  8
0
 62
     0
 10
117.74342003473539
 20
4.4833779454472156
 30
0.0
 11
117.74342003473539
 21
4.4833779454472156
 31
0.0
  0
LINE
  5
4F1F
  8
0
 62
     0
 10
112.98092003473541
 20
4.4833779454472156
 30
0.0
 11
112.98092003473541
 21
4.4833779454472156
 31
0.0
  0
LINE
  5
4F20
  8
0
 62
     0
 10
108.2184200347354
 20
4.4833779454472156
 30
0.0
 11
108.2184200347354
 21
4.4833779454472156
 31
0.0
  0
LINE
  5
4F21
  8
0
 62
     0
 10
103.4559200347354
 20
4.4833779454472156
 30
0.0
 11
103.4559200347354
 21
4.4833779454472156
 31
0.0
  0
LINE
  5
4F22
  8
0
 62
     0
 10
98.693420034735396
 20
4.4833779454472156
 30
0.0
 11
98.693420034735396
 21
4.4833779454472156
 31
0.0
  0
LINE
  5
4F23
  8
0
 62
     0
 10
93.930920034735394
 20
4.4833779454472156
 30
0.0
 11
93.930920034735394
 21
4.4833779454472156
 31
0.0
  0
LINE
  5
4F24
  8
0
 62
     0
 10
89.168420034735377
 20
4.4833779454472156
 30
0.0
 11
89.168420034735377
 21
4.4833779454472156
 31
0.0
  0
LINE
  5
4F25
  8
0
 62
     0
 10
84.405920034735374
 20
4.4833779454472156
 30
0.0
 11
84.405920034735374
 21
4.4833779454472156
 31
0.0
  0
LINE
  5
4F26
  8
0
 62
     0
 10
79.643420034735371
 20
4.4833779454472156
 30
0.0
 11
79.643420034735371
 21
4.4833779454472156
 31
0.0
  0
LINE
  5
4F27
  8
0
 62
     0
 10
74.880920034735354
 20
4.4833779454472156
 30
0.0
 11
74.880920034735354
 21
4.4833779454472156
 31
0.0
  0
LINE
  5
4F28
  8
0
 62
     0
 10
70.118420034735365
 20
4.4833779454472156
 30
0.0
 11
70.118420034735365
 21
4.4833779454472156
 31
0.0
  0
LINE
  5
4F29
  8
0
 62
     0
 10
65.355920034735362
 20
4.4833779454472156
 30
0.0
 11
65.355920034735362
 21
4.4833779454472156
 31
0.0
  0
LINE
  5
4F2A
  8
0
 62
     0
 10
60.59342003473536
 20
4.4833779454472156
 30
0.0
 11
60.59342003473536
 21
4.4833779454472156
 31
0.0
  0
LINE
  5
4F2B
  8
0
 62
     0
 10
55.83092003473535
 20
4.4833779454472156
 30
0.0
 11
55.83092003473535
 21
4.4833779454472156
 31
0.0
  0
LINE
  5
4F2C
  8
0
 62
     0
 10
51.068420034735347
 20
4.4833779454472156
 30
0.0
 11
51.068420034735347
 21
4.4833779454472156
 31
0.0
  0
LINE
  5
4F2D
  8
0
 62
     0
 10
46.305920034735351
 20
4.4833779454472156
 30
0.0
 11
46.305920034735351
 21
4.4833779454472156
 31
0.0
  0
LINE
  5
4F2E
  8
0
 62
     0
 10
41.543420034735341
 20
4.4833779454472156
 30
0.0
 11
41.543420034735341
 21
4.4833779454472156
 31
0.0
  0
LINE
  5
4F2F
  8
0
 62
     0
 10
36.780920034735352
 20
4.4833779454472156
 30
0.0
 11
36.780920034735352
 21
4.4833779454472156
 31
0.0
  0
LINE
  5
4F30
  8
0
 62
     0
 10
32.018420034735342
 20
4.4833779454472156
 30
0.0
 11
32.018420034735342
 21
4.4833779454472156
 31
0.0
  0
LINE
  5
4F31
  8
0
 62
     0
 10
27.25592003473535
 20
4.4833779454472156
 30
0.0
 11
27.25592003473535
 21
4.4833779454472156
 31
0.0
  0
LINE
  5
4F32
  8
0
 62
     0
 10
22.493420034735351
 20
4.4833779454472156
 30
0.0
 11
22.493420034735351
 21
4.4833779454472156
 31
0.0
  0
LINE
  5
4F33
  8
0
 62
     0
 10
17.730920034735352
 20
4.4833779454472156
 30
0.0
 11
17.730920034735352
 21
4.4833779454472156
 31
0.0
  0
LINE
  5
4F34
  8
0
 62
     0
 10
12.968420034735351
 20
4.4833779454472156
 30
0.0
 11
12.968420034735351
 21
4.4833779454472156
 31
0.0
  0
LINE
  5
4F35
  8
0
 62
     0
 10
8.2059200347353496
 20
4.4833779454472156
 30
0.0
 11
8.2059200347353496
 21
4.4833779454472156
 31
0.0
  0
LINE
  5
4F36
  8
0
 62
     0
 10
3.4434200347353499
 20
4.4833779454472156
 30
0.0
 11
3.4434200347353499
 21
4.4833779454472156
 31
0.0
  0
LINE
  5
4F37
  8
0
 62
     0
 10
343.96217003473492
 20
9.2458779454472051
 30
0.0
 11
343.96217003473492
 21
9.2458779454472051
 31
0.0
  0
LINE
  5
4F38
  8
0
 62
     0
 10
339.19967003473488
 20
9.2458779454472051
 30
0.0
 11
339.19967003473488
 21
9.2458779454472051
 31
0.0
  0
LINE
  5
4F39
  8
0
 62
     0
 10
334.43717003473489
 20
9.2458779454472051
 30
0.0
 11
334.43717003473489
 21
9.2458779454472051
 31
0.0
  0
LINE
  5
4F3A
  8
0
 62
     0
 10
329.6746700347349
 20
9.2458779454472051
 30
0.0
 11
329.6746700347349
 21
9.2458779454472051
 31
0.0
  0
LINE
  5
4F3B
  8
0
 62
     0
 10
324.91217003473491
 20
9.2458779454472051
 30
0.0
 11
324.91217003473491
 21
9.2458779454472051
 31
0.0
  0
LINE
  5
4F3C
  8
0
 62
     0
 10
320.14967003473492
 20
9.2458779454472051
 30
0.0
 11
320.14967003473492
 21
9.2458779454472051
 31
0.0
  0
LINE
  5
4F3D
  8
0
 62
     0
 10
315.38717003473488
 20
9.2458779454472051
 30
0.0
 11
315.38717003473488
 21
9.2458779454472051
 31
0.0
  0
LINE
  5
4F3E
  8
0
 62
     0
 10
310.62467003473489
 20
9.2458779454472051
 30
0.0
 11
310.62467003473489
 21
9.2458779454472051
 31
0.0
  0
LINE
  5
4F3F
  8
0
 62
     0
 10
305.8621700347349
 20
9.2458779454472051
 30
0.0
 11
305.8621700347349
 21
9.2458779454472051
 31
0.0
  0
LINE
  5
4F40
  8
0
 62
     0
 10
301.09967003473503
 20
9.2458779454472051
 30
0.0
 11
301.09967003473503
 21
9.2458779454472051
 31
0.0
  0
LINE
  5
4F41
  8
0
 62
     0
 10
296.33717003473498
 20
9.2458779454472051
 30
0.0
 11
296.33717003473498
 21
9.2458779454472051
 31
0.0
  0
LINE
  5
4F42
  8
0
 62
     0
 10
291.57467003473499
 20
9.2458779454472051
 30
0.0
 11
291.57467003473499
 21
9.2458779454472051
 31
0.0
  0
LINE
  5
4F43
  8
0
 62
     0
 10
286.812170034735
 20
9.2458779454472051
 30
0.0
 11
286.812170034735
 21
9.2458779454472051
 31
0.0
  0
LINE
  5
4F44
  8
0
 62
     0
 10
282.04967003473502
 20
9.2458779454472051
 30
0.0
 11
282.04967003473502
 21
9.2458779454472051
 31
0.0
  0
LINE
  5
4F45
  8
0
 62
     0
 10
277.28717003473503
 20
9.2458779454472051
 30
0.0
 11
277.28717003473503
 21
9.2458779454472051
 31
0.0
  0
LINE
  5
4F46
  8
0
 62
     0
 10
272.5246700347351
 20
9.2458779454472051
 30
0.0
 11
272.5246700347351
 21
9.2458779454472051
 31
0.0
  0
LINE
  5
4F47
  8
0
 62
     0
 10
267.76217003473511
 20
9.2458779454472051
 30
0.0
 11
267.76217003473511
 21
9.2458779454472051
 31
0.0
  0
LINE
  5
4F48
  8
0
 62
     0
 10
262.99967003473512
 20
9.2458779454472051
 30
0.0
 11
262.99967003473512
 21
9.2458779454472051
 31
0.0
  0
LINE
  5
4F49
  8
0
 62
     0
 10
258.23717003473507
 20
9.2458779454472051
 30
0.0
 11
258.23717003473507
 21
9.2458779454472051
 31
0.0
  0
LINE
  5
4F4A
  8
0
 62
     0
 10
253.47467003473511
 20
9.2458779454472051
 30
0.0
 11
253.47467003473511
 21
9.2458779454472051
 31
0.0
  0
LINE
  5
4F4B
  8
0
 62
     0
 10
248.7121700347351
 20
9.2458779454472051
 30
0.0
 11
248.7121700347351
 21
9.2458779454472051
 31
0.0
  0
LINE
  5
4F4C
  8
0
 62
     0
 10
243.94967003473511
 20
9.2458779454472051
 30
0.0
 11
243.94967003473511
 21
9.2458779454472051
 31
0.0
  0
LINE
  5
4F4D
  8
0
 62
     0
 10
239.18717003473509
 20
9.2458779454472051
 30
0.0
 11
239.18717003473509
 21
9.2458779454472051
 31
0.0
  0
LINE
  5
4F4E
  8
0
 62
     0
 10
234.4246700347351
 20
9.2458779454472051
 30
0.0
 11
234.4246700347351
 21
9.2458779454472051
 31
0.0
  0
LINE
  5
4F4F
  8
0
 62
     0
 10
229.66217003473511
 20
9.2458779454472051
 30
0.0
 11
229.66217003473511
 21
9.2458779454472051
 31
0.0
  0
LINE
  5
4F50
  8
0
 62
     0
 10
224.89967003473521
 20
9.2458779454472051
 30
0.0
 11
224.89967003473521
 21
9.2458779454472051
 31
0.0
  0
LINE
  5
4F51
  8
0
 62
     0
 10
220.13717003473519
 20
9.2458779454472051
 30
0.0
 11
220.13717003473519
 21
9.2458779454472051
 31
0.0
  0
LINE
  5
4F52
  8
0
 62
     0
 10
215.3746700347352
 20
9.2458779454472051
 30
0.0
 11
215.3746700347352
 21
9.2458779454472051
 31
0.0
  0
LINE
  5
4F53
  8
0
 62
     0
 10
210.61217003473519
 20
9.2458779454472051
 30
0.0
 11
210.61217003473519
 21
9.2458779454472051
 31
0.0
  0
LINE
  5
4F54
  8
0
 62
     0
 10
205.8496700347352
 20
9.2458779454472051
 30
0.0
 11
205.8496700347352
 21
9.2458779454472051
 31
0.0
  0
LINE
  5
4F55
  8
0
 62
     0
 10
201.08717003473521
 20
9.2458779454472051
 30
0.0
 11
201.08717003473521
 21
9.2458779454472051
 31
0.0
  0
LINE
  5
4F56
  8
0
 62
     0
 10
196.32467003473519
 20
9.2458779454472051
 30
0.0
 11
196.32467003473519
 21
9.2458779454472051
 31
0.0
  0
LINE
  5
4F57
  8
0
 62
     0
 10
191.5621700347352
 20
9.2458779454472051
 30
0.0
 11
191.5621700347352
 21
9.2458779454472051
 31
0.0
  0
LINE
  5
4F58
  8
0
 62
     0
 10
186.79967003473519
 20
9.2458779454472051
 30
0.0
 11
186.79967003473519
 21
9.2458779454472051
 31
0.0
  0
LINE
  5
4F59
  8
0
 62
     0
 10
182.0371700347352
 20
9.2458779454472051
 30
0.0
 11
182.0371700347352
 21
9.2458779454472051
 31
0.0
  0
LINE
  5
4F5A
  8
0
 62
     0
 10
177.27467003473521
 20
9.2458779454472051
 30
0.0
 11
177.27467003473521
 21
9.2458779454472051
 31
0.0
  0
LINE
  5
4F5B
  8
0
 62
     0
 10
172.51217003473531
 20
9.2458779454472051
 30
0.0
 11
172.51217003473531
 21
9.2458779454472051
 31
0.0
  0
LINE
  5
4F5C
  8
0
 62
     0
 10
167.74967003473529
 20
9.2458779454472051
 30
0.0
 11
167.74967003473529
 21
9.2458779454472051
 31
0.0
  0
LINE
  5
4F5D
  8
0
 62
     0
 10
162.9871700347353
 20
9.2458779454472051
 30
0.0
 11
162.9871700347353
 21
9.2458779454472051
 31
0.0
  0
LINE
  5
4F5E
  8
0
 62
     0
 10
158.22467003473531
 20
9.2458779454472051
 30
0.0
 11
158.22467003473531
 21
9.2458779454472051
 31
0.0
  0
LINE
  5
4F5F
  8
0
 62
     0
 10
153.46217003473529
 20
9.2458779454472051
 30
0.0
 11
153.46217003473529
 21
9.2458779454472051
 31
0.0
  0
LINE
  5
4F60
  8
0
 62
     0
 10
148.69967003473531
 20
9.2458779454472051
 30
0.0
 11
148.69967003473531
 21
9.2458779454472051
 31
0.0
  0
LINE
  5
4F61
  8
0
 62
     0
 10
143.93717003473529
 20
9.2458779454472051
 30
0.0
 11
143.93717003473529
 21
9.2458779454472051
 31
0.0
  0
LINE
  5
4F62
  8
0
 62
     0
 10
139.1746700347353
 20
9.2458779454472051
 30
0.0
 11
139.1746700347353
 21
9.2458779454472051
 31
0.0
  0
LINE
  5
4F63
  8
0
 62
     0
 10
134.4121700347354
 20
9.2458779454472051
 30
0.0
 11
134.4121700347354
 21
9.2458779454472051
 31
0.0
  0
LINE
  5
4F64
  8
0
 62
     0
 10
129.64967003473529
 20
9.2458779454472051
 30
0.0
 11
129.64967003473529
 21
9.2458779454472051
 31
0.0
  0
LINE
  5
4F65
  8
0
 62
     0
 10
124.88717003473531
 20
9.2458779454472051
 30
0.0
 11
124.88717003473531
 21
9.2458779454472051
 31
0.0
  0
LINE
  5
4F66
  8
0
 62
     0
 10
120.1246700347353
 20
9.2458779454472051
 30
0.0
 11
120.1246700347353
 21
9.2458779454472051
 31
0.0
  0
LINE
  5
4F67
  8
0
 62
     0
 10
115.3621700347353
 20
9.2458779454472051
 30
0.0
 11
115.3621700347353
 21
9.2458779454472051
 31
0.0
  0
LINE
  5
4F68
  8
0
 62
     0
 10
110.5996700347353
 20
9.2458779454472051
 30
0.0
 11
110.5996700347353
 21
9.2458779454472051
 31
0.0
  0
LINE
  5
4F69
  8
0
 62
     0
 10
105.83717003473529
 20
9.2458779454472051
 30
0.0
 11
105.83717003473529
 21
9.2458779454472051
 31
0.0
  0
LINE
  5
4F6A
  8
0
 62
     0
 10
101.07467003473531
 20
9.2458779454472051
 30
0.0
 11
101.07467003473531
 21
9.2458779454472051
 31
0.0
  0
LINE
  5
4F6B
  8
0
 62
     0
 10
96.312170034735374
 20
9.2458779454472051
 30
0.0
 11
96.312170034735374
 21
9.2458779454472051
 31
0.0
  0
LINE
  5
4F6C
  8
0
 62
     0
 10
91.549670034735357
 20
9.2458779454472051
 30
0.0
 11
91.549670034735357
 21
9.2458779454472051
 31
0.0
  0
LINE
  5
4F6D
  8
0
 62
     0
 10
86.787170034735354
 20
9.2458779454472051
 30
0.0
 11
86.787170034735354
 21
9.2458779454472051
 31
0.0
  0
LINE
  5
4F6E
  8
0
 62
     0
 10
82.024670034735337
 20
9.2458779454472051
 30
0.0
 11
82.024670034735337
 21
9.2458779454472051
 31
0.0
  0
LINE
  5
4F6F
  8
0
 62
     0
 10
77.262170034735348
 20
9.2458779454472051
 30
0.0
 11
77.262170034735348
 21
9.2458779454472051
 31
0.0
  0
LINE
  5
4F70
  8
0
 62
     0
 10
72.499670034735345
 20
9.2458779454472051
 30
0.0
 11
72.499670034735345
 21
9.2458779454472051
 31
0.0
  0
LINE
  5
4F71
  8
0
 62
     0
 10
67.737170034735342
 20
9.2458779454472051
 30
0.0
 11
67.737170034735342
 21
9.2458779454472051
 31
0.0
  0
LINE
  5
4F72
  8
0
 62
     0
 10
62.97467003473534
 20
9.2458779454472051
 30
0.0
 11
62.97467003473534
 21
9.2458779454472051
 31
0.0
  0
LINE
  5
4F73
  8
0
 62
     0
 10
58.212170034735337
 20
9.2458779454472051
 30
0.0
 11
58.212170034735337
 21
9.2458779454472051
 31
0.0
  0
LINE
  5
4F74
  8
0
 62
     0
 10
53.449670034735327
 20
9.2458779454472051
 30
0.0
 11
53.449670034735327
 21
9.2458779454472051
 31
0.0
  0
LINE
  5
4F75
  8
0
 62
     0
 10
48.687170034735331
 20
9.2458779454472051
 30
0.0
 11
48.687170034735331
 21
9.2458779454472051
 31
0.0
  0
LINE
  5
4F76
  8
0
 62
     0
 10
43.924670034735328
 20
9.2458779454472051
 30
0.0
 11
43.924670034735328
 21
9.2458779454472051
 31
0.0
  0
LINE
  5
4F77
  8
0
 62
     0
 10
39.162170034735333
 20
9.2458779454472051
 30
0.0
 11
39.162170034735333
 21
9.2458779454472051
 31
0.0
  0
LINE
  5
4F78
  8
0
 62
     0
 10
34.399670034735323
 20
9.2458779454472051
 30
0.0
 11
34.399670034735323
 21
9.2458779454472051
 31
0.0
  0
LINE
  5
4F79
  8
0
 62
     0
 10
29.63717003473533
 20
9.2458779454472051
 30
0.0
 11
29.63717003473533
 21
9.2458779454472051
 31
0.0
  0
LINE
  5
4F7A
  8
0
 62
     0
 10
24.874670034735331
 20
9.2458779454472051
 30
0.0
 11
24.874670034735331
 21
9.2458779454472051
 31
0.0
  0
LINE
  5
4F7B
  8
0
 62
     0
 10
20.112170034735321
 20
9.2458779454472051
 30
0.0
 11
20.112170034735321
 21
9.2458779454472051
 31
0.0
  0
LINE
  5
4F7C
  8
0
 62
     0
 10
15.34967003473532
 20
9.2458779454472051
 30
0.0
 11
15.34967003473532
 21
9.2458779454472051
 31
0.0
  0
LINE
  5
4F7D
  8
0
 62
     0
 10
10.587170034735321
 20
9.2458779454472051
 30
0.0
 11
10.587170034735321
 21
9.2458779454472051
 31
0.0
  0
LINE
  5
4F7E
  8
0
 62
     0
 10
5.824670034735326
 20
9.2458779454472051
 30
0.0
 11
5.824670034735326
 21
9.2458779454472051
 31
0.0
  0
LINE
  5
4F7F
  8
0
 62
     0
 10
1.0621700347353269
 20
9.2458779454472051
 30
0.0
 11
1.0621700347353269
 21
9.2458779454472051
 31
0.0
  0
ENDBLK
  5
4F81
  8
0
  0
BLOCK
  8
0
  2
*U121
 70
     1
 10
0.0
 20
0.0
 30
0.0
  3
*U121
  1

  0
TEXT
  5
4FE4
  8
AM_5
 62
     2
 10
681.49699868794903
 20
560.88902229187192
 30
0.0
 40
12.0
  1
351
 50
90.0
  0
ENDBLK
  5
4FE6
  8
0
  0
BLOCK
  8
0
  2
*U122
 70
     1
 10
0.0
 20
0.0
 30
0.0
  3
*U122
  1

  0
TEXT
  5
4FE8
  8
AM_5
 62
     2
 10
681.49699868794937
 20
752.24374670132067
 30
0.0
 40
12.0
  1
26
 50
90.0
  0
ENDBLK
  5
4FEA
  8
0
  0
BLOCK
  8
0
  2
*U123
 70
     1
 10
0.0
 20
0.0
 30
0.0
  3
*U123
  1

  0
TEXT
  5
4FEC
  8
AM_5
 62
     2
 10
714.30089223525272
 20
507.26149589915849
 30
0.0
 40
14.0
  1
250
 50
90.0
  0
ENDBLK
  5
4FEE
  8
0
  0
BLOCK
  8
0
  2
*U124
 70
     1
 10
0.0
 20
0.0
 30
0.0
  3
*U124
  1

  0
TEXT
  5
4FF0
  8
AM_5
 62
     2
 10
844.86738850304175
 20
560.88925180467015
 30
0.0
 40
12.0
  1
351
 50
90.0
  0
ENDBLK
  5
4FF2
  8
0
  0
BLOCK
  8
0
  2
*U125
 70
     1
 10
0.0
 20
0.0
 30
0.0
  3
*U125
  1

  0
TEXT
  5
4FF4
  8
AM_5
 62
     2
 10
814.86738850304152
 20
752.24397621411913
 30
0.0
 40
12.0
  1
26
 50
90.0
  0
ENDBLK
  5
4FF6
  8
0
  0
BLOCK
  8
0
  2
*U126
 70
     1
 10
0.0
 20
0.0
 30
0.0
  3
*U126
  1

  0
TEXT
  5
4FF8
  8
AM_5
 62
     2
 10
874.86738850304266
 20
572.68925180467033
 30
0.0
 40
12.0
  1
377
 50
90.0
  0
ENDBLK
  5
4FFA
  8
0
  0
BLOCK
  8
0
  2
*U127
 70
     1
 10
0.0
 20
0.0
 30
0.0
  3
*U127
  1

  0
TEXT
  5
4FFC
  8
AM_5
 62
     2
 10
814.86738850304312
 20
401.39161400939457
 30
0.0
 40
12.0
  1
38.6
 50
90.0
  0
ENDBLK
  5
4FFE
  8
0
  0
BLOCK
  8
0
  2
*U128
 70
     1
 10
0.0
 20
0.0
 30
0.0
  3
*U128
  1

  0
TEXT
  5
5000
  8
AM_5
 62
     2
 10
814.86738850304312
 20
469.7958479761628
 30
0.0
 40
12.0
  1
98.4
 50
90.0
  0
ENDBLK
  5
5002
  8
0
  0
BLOCK
  8
0
  2
*U129
 70
     1
 10
0.0
 20
0.0
 30
0.0
  3
*U129
  1

  0
TEXT
  5
5004
  8
AM_5
 62
     2
 10
814.86738850304289
 20
563.40969093065974
 30
0.0
 40
12.0
  1
88.9
 50
90.0
  0
ENDBLK
  5
5006
  8
0
  0
BLOCK
  8
0
  2
*U130
 70
     1
 10
0.0
 20
0.0
 30
0.0
  3
*U130
  1

  0
TEXT
  5
5008
  8
AM_5
 62
     2
 10
814.86738850304278
 20
653.29397621411897
 30
0.0
 40
12.0
  1
24.1
 50
90.0
  0
ENDBLK
  5
500A
  8
0
  0
BLOCK
  8
0
  2
*U131
 70
     1
 10
0.0
 20
0.0
 30
0.0
  3
*U131
  1

  0
TEXT
  5
500C
  8
AM_5
 62
     2
 10
760.70218140099496
 20
684.78925180467002
 30
0.0
 40
12.0
  1
22
  0
ENDBLK
  5
500E
  8
0
  0
BLOCK
  8
0
  2
*U132
 70
     1
 10
0.0
 20
0.0
 30
0.0
  3
*U132
  1

  0
TEXT
  5
5010
  8
AM_5
 62
     2
 10
814.86738750304198
 20
220.14072366724631
 30
0.0
 40
12.0
  1
トラベル275
 50
90.0
  0
ENDBLK
  5
5012
  8
0
  0
BLOCK
  8
0
  2
*U133
 70
     1
 10
0.0
 20
0.0
 30
0.0
  3
*U133
  1

  0
TEXT
  5
5014
  8
AM_5
 62
     2
 10
223.5965125033878
 20
227.2358527520544
 30
0.0
 40
12.0
  1
4-6.5×11長穴
  0
ENDBLK
  5
5016
  8
0
  0
BLOCK
  8
0
  2
*U134
 70
     1
 10
0.0
 20
0.0
 30
0.0
  3
*U134
  1

  0
TEXT
  5
5018
  8
0
 10
1140.840805416399
 20
366.11663561889691
 30
0.0
 40
12.0
  1
引出し面
  0
ENDBLK
  5
501A
  8
0
  0
BLOCK
  8
0
  2
*U135
 70
     1
 10
0.0
 20
0.0
 30
0.0
  3
*U135
  1

  0
TEXT
  5
501C
  8
0
 10
382.2204324938433
 20
366.11663561889691
 30
0.0
 40
12.0
  1
テーブル面
  0
ENDBLK
  5
501E
  8
0
  0
BLOCK
  8
0
  2
*U136
 70
     1
 10
0.0
 20
0.0
 30
0.0
  3
*U136
  1

  0
TEXT
  5
5020
  8
AM_5
 62
     2
 10
401.29292091914652
 20
333.9266780908647
 30
0.0
 40
10.5
  1
482.6
  0
ENDBLK
  5
5022
  8
0
  0
BLOCK
  8
0
  2
*U137
 70
     1
 10
0.0
 20
0.0
 30
0.0
  3
*U137
  1

  0
TEXT
  5
5024
  8
0
 10
274.22043249384342
 20
99.909109411861223
 30
0.0
 40
12.0
  1
※取手の向きは使う面によって変えられます
  0
ENDBLK
  5
5026
  8
0
  0
BLOCK
  8
0
  2
*U138
 70
     1
 10
0.0
 20
0.0
 30
0.0
  3
*U138
  1

  0
TEXT
  5
5028
  8
AM_5
 62
     2
 10
161.60092629776219
 20
261.27699041611692
 30
0.0
 40
12.0
  1
31.8
 50
90.0
  0
ENDBLK
  5
502A
  8
0
  0
BLOCK
  8
0
  2
*U139
 70
     1
 10
0.0
 20
0.0
 30
0.0
  3
*U139
  1

  0
TEXT
  5
502C
  8
AM_5
 62
     2
 10
140.5292512177038
 20
264.87699041611683
 30
0.0
 40
12.0
  1
44
 50
90.0
  0
ENDBLK
  5
502E
  8
0
  0
BLOCK
  8
0
  2
*U140
 70
     1
 10
0.0
 20
0.0
 30
0.0
  3
*U140
  1

  0
TEXT
  5
5030
  8
AM_5
 62
     7
 10
646.19575937460456
 20
851.83403988506063
 30
0.0
 40
14.0
  1
1
  7
ACISOTS
  0
ENDBLK
  5
5032
  8
0
  0
BLOCK
  8
0
  2
*U141
 70
     1
 10
0.0
 20
0.0
 30
0.0
  3
*U141
  1

  0
TEXT
  5
5034
  8
AM_5
 62
     7
 10
146.41538618972339
 20
673.30827273406192
 30
0.0
 40
14.0
  1
2
  7
ACISOTS
  0
ENDBLK
  5
5036
  8
0
  0
BLOCK
  8
0
  2
*U142
 70
     1
 10
0.0
 20
0.0
 30
0.0
  3
*U142
  1

  0
TEXT
  5
5038
  8
AM_5
 62
     7
 10
682.92640130128473
 20
808.70755704780186
 30
0.0
 40
14.0
  1
3
  7
ACISOTS
  0
ENDBLK
  5
503A
  8
0
  0
BLOCK
  8
0
  2
*U143
 70
     1
 10
0.0
 20
0.0
 30
0.0
  3
*U143
  1

  0
TEXT
  5
503C
  8
AM_5
 62
     7
 10
351.89686596589439
 20
830.20370369657485
 30
0.0
 40
14.0
  1
5
  7
ACISOTS
  0
ENDBLK
  5
503E
  8
0
  0
BLOCK
  8
0
  2
*U144
 70
     1
 10
0.0
 20
0.0
 30
0.0
  3
*U144
  1

  0
TEXT
  5
5040
  8
AM_5
 62
     7
 10
508.6800054355229
 20
838.15357903013398
 30
0.0
 40
14.0
  1
4
  7
ACISOTS
  0
ENDBLK
  5
5042
  8
0
  0
BLOCK
  8
0
  2
*U145
 70
     1
 10
0.0
 20
0.0
 30
0.0
  3
*U145
  1

  0
TEXT
  5
5044
  8
AM_5
 62
     7
 10
537.93023578722853
 20
154.9122169969678
 30
0.0
 40
14.0
  1
6
  7
ACISOTS
  0
ENDBLK
  5
5046
  8
0
  0
BLOCK
  8
0
  2
*U146
 70
     1
 10
0.0
 20
0.0
 30
0.0
  3
*U146
  1

  0
TEXT
  5
5048
  8
AM_5
 62
     7
 10
1446.1717861980851
 20
705.36476963065888
 30
0.0
 40
14.0
  1
7
  7
ACISOTS
  0
ENDBLK
  5
504A
  8
0
  0
BLOCK
  8
0
  2
*U147
 70
     1
 10
0.0
 20
0.0
 30
0.0
  3
*U147
  1

  0
TEXT
  5
504C
  8
0
 62
     2
 10
866.5
 20
1051.2
 30
0.0
 40
14.0
  1
1
  7
ACISOTS
  0
ENDBLK
  5
504E
  8
0
  0
BLOCK
  8
0
  2
*U148
 70
     1
 10
0.0
 20
0.0
 30
0.0
  3
*U148
  1

  0
TEXT
  5
5050
  8
0
 62
     2
 10
903.59999999999991
 20
1051.2
 30
0.0
 40
14.0
  1
テーブル
  7
ACISOTS
  0
ENDBLK
  5
5052
  8
0
  0
BLOCK
  8
0
  2
*U149
 70
     1
 10
0.0
 20
0.0
 30
0.0
  3
*U149
  1

  0
TEXT
  5
5054
  8
0
 62
     2
 10
1116.5
 20
1051.2
 30
0.0
 40
14.0
  1
1
  7
ACISOTS
  0
ENDBLK
  5
5056
  8
0
  0
BLOCK
  8
0
  2
*U150
 70
     1
 10
0.0
 20
0.0
 30
0.0
  3
*U150
  1

  0
TEXT
  5
5058
  8
0
 62
     2
 10
1162.0544881889759
 20
1051.2
 30
0.0
 40
14.0
  1
SPCC t1.0
  7
ACISOTS
  0
ENDBLK
  5
505A
  8
0
  0
BLOCK
  8
0
  2
*U151
 70
     1
 10
0.0
 20
0.0
 30
0.0
  3
*U151
  1

  0
TEXT
  5
505C
  8
0
 62
     2
 10
1363.5999999999999
 20
1051.2
 30
0.0
 40
14.0
  1
黒半つや塗装・ベージュ塗装
  7
ACISOTS
  0
ENDBLK
  5
505E
  8
0
  0
BLOCK
  8
0
  2
*U152
 70
     1
 10
0.0
 20
0.0
 30
0.0
  3
*U152
  1

  0
TEXT
  5
5060
  8
0
 62
     2
 10
864.85734251968495
 20
1026.497244094488
 30
0.0
 40
14.0
  1
2
  7
ACISOTS
  0
ENDBLK
  5
5062
  8
0
  0
BLOCK
  8
0
  2
*U153
 70
     1
 10
0.0
 20
0.0
 30
0.0
  3
*U153
  1

  0
TEXT
  5
5064
  8
0
 62
     2
 10
903.59999999999991
 20
1026.5
 30
0.0
 40
14.0
  1
側板
  7
ACISOTS
  0
ENDBLK
  5
5066
  8
0
  0
BLOCK
  8
0
  2
*U154
 70
     1
 10
0.0
 20
0.0
 30
0.0
  3
*U154
  1

  0
TEXT
  5
5068
  8
0
 62
     2
 10
1092.3499999999999
 20
1026.5
 30
0.0
 40
14.0
  1
左右各1
  7
ACISOTS
  0
ENDBLK
  5
506A
  8
0
  0
BLOCK
  8
0
  2
*U155
 70
     1
 10
0.0
 20
0.0
 30
0.0
  3
*U155
  1

  0
TEXT
  5
506C
  8
0
 62
     2
 10
1162.0544881889759
 20
1026.497244094488
 30
0.0
 40
14.0
  1
SPCC t2.3
  7
ACISOTS
  0
ENDBLK
  5
506E
  8
0
  0
BLOCK
  8
0
  2
*U156
 70
     1
 10
0.0
 20
0.0
 30
0.0
  3
*U156
  1

  0
TEXT
  5
5070
  8
0
 62
     2
 10
1363.5999999999999
 20
1026.5
 30
0.0
 40
14.0
  1
黒半つや塗装・ベージュ塗装
  7
ACISOTS
  0
ENDBLK
  5
5072
  8
0
  0
BLOCK
  8
0
  2
*U157
 70
     1
 10
0.0
 20
0.0
 30
0.0
  3
*U157
  1

  0
TEXT
  5
5074
  8
0
 62
     2
 10
864.81005050633871
 20
1001.8
 30
0.0
 40
14.0
  1
3
  7
ACISOTS
  0
ENDBLK
  5
5076
  8
0
  0
BLOCK
  8
0
  2
*U158
 70
     1
 10
0.0
 20
0.0
 30
0.0
  3
*U158
  1

  0
TEXT
  5
5078
  8
0
 62
     2
 10
903.59999999999991
 20
1001.8
 30
0.0
 40
14.0
  1
ボールスライド
  7
ACISOTS
  0
ENDBLK
  5
507A
  8
0
  0
BLOCK
  8
0
  2
*U159
 70
     1
 10
0.0
 20
0.0
 30
0.0
  3
*U159
  1

  0
TEXT
  5
507C
  8
0
 62
     2
 10
1114.8573425196851
 20
1001.797244094488
 30
0.0
 40
14.0
  1
2
  7
ACISOTS
  0
ENDBLK
  5
507E
  8
0
  0
BLOCK
  8
0
  2
*U160
 70
     1
 10
0.0
 20
0.0
 30
0.0
  3
*U160
  1

  0
TEXT
  5
5080
  8
0
 62
     2
 10
1162.0544881889759
 20
1001.8
 30
0.0
 40
14.0
  1
SPCC t1.6
  7
ACISOTS
  0
ENDBLK
  5
5082
  8
0
  0
BLOCK
  8
0
  2
*U161
 70
     1
 10
0.0
 20
0.0
 30
0.0
  3
*U161
  1

  0
TEXT
  5
5084
  8
0
 62
     2
 10
1363.5999999999999
 20
1001.1
 30
0.0
 40
14.0
  1
光沢クローメイトメッキ(白色)
  7
ACISOTS
  0
ENDBLK
  5
5086
  8
0
  0
BLOCK
  8
0
  2
*U162
 70
     1
 10
0.0
 20
0.0
 30
0.0
  3
*U162
  1

  0
TEXT
  5
5088
  8
0
 62
     2
 10
864.39999999999998
 20
977.10000000000002
 30
0.0
 40
14.0
  1
4
  7
ACISOTS
  0
ENDBLK
  5
508A
  8
0
  0
BLOCK
  8
0
  2
*U163
 70
     1
 10
0.0
 20
0.0
 30
0.0
  3
*U163
  1

  0
TEXT
  5
508C
  8
0
 62
     2
 10
903.59999999999991
 20
977.10000000000002
 30
0.0
 40
14.0
  1
補強金具
  7
ACISOTS
  0
ENDBLK
  5
508E
  8
0
  0
BLOCK
  8
0
  2
*U164
 70
     1
 10
0.0
 20
0.0
 30
0.0
  3
*U164
  1

  0
TEXT
  5
5090
  8
0
 62
     2
 10
1116.5
 20
977.10000000000002
 30
0.0
 40
14.0
  1
1
  7
ACISOTS
  0
ENDBLK
  5
5092
  8
0
  0
BLOCK
  8
0
  2
*U165
 70
     1
 10
0.0
 20
0.0
 30
0.0
  3
*U165
  1

  0
TEXT
  5
5094
  8
0
 62
     2
 10
1162.0544881889759
 20
977.10000000000002
 30
0.0
 40
14.0
  1
SPCC t1.6
  7
ACISOTS
  0
ENDBLK
  5
5096
  8
0
  0
BLOCK
  8
0
  2
*U166
 70
     1
 10
0.0
 20
0.0
 30
0.0
  3
*U166
  1

  0
TEXT
  5
5098
  8
0
 62
     2
 10
1363.5999999999999
 20
977.10000000000002
 30
0.0
 40
14.0
  1
黒半つや塗装・ベージュ塗装
  7
ACISOTS
  0
ENDBLK
  5
509A
  8
0
  0
BLOCK
  8
0
  2
*U167
 70
     1
 10
0.0
 20
0.0
 30
0.0
  3
*U167
  1

  0
TEXT
  5
509C
  8
0
 62
     2
 10
864.81005050633871
 20
952.39999999999986
 30
0.0
 40
14.0
  1
5
  7
ACISOTS
  0
ENDBLK
  5
509E
  8
0
  0
BLOCK
  8
0
  2
*U168
 70
     1
 10
0.0
 20
0.0
 30
0.0
  3
*U168
  1

  0
TEXT
  5
50A0
  8
0
 62
     2
 10
903.59999999999991
 20
952.39999999999986
 30
0.0
 40
14.0
  1
ロック金具
  7
ACISOTS
  0
ENDBLK
  5
50A2
  8
0
  0
BLOCK
  8
0
  2
*U169
 70
     1
 10
0.0
 20
0.0
 30
0.0
  3
*U169
  1

  0
TEXT
  5
50A4
  8
0
 62
     2
 10
1116.5
 20
952.39999999999986
 30
0.0
 40
14.0
  1
1
  7
ACISOTS
  0
ENDBLK
  5
50A6
  8
0
  0
BLOCK
  8
0
  2
*U170
 70
     1
 10
0.0
 20
0.0
 30
0.0
  3
*U170
  1

  0
TEXT
  5
50A8
  8
0
 62
     2
 10
1161.5
 20
952.30263889243179
 30
0.0
 40
14.0
  1
ZDC
  7
ACISOTS
  0
ENDBLK
  5
50AA
  8
0
  0
BLOCK
  8
0
  2
*U171
 70
     1
 10
0.0
 20
0.0
 30
0.0
  3
*U171
  1

  0
TEXT
  5
50AC
  8
0
 62
     2
 10
1363.5999999999999
 20
952.39999999999986
 30
0.0
 40
14.0
  1
クロームメッキ
  7
ACISOTS
  0
ENDBLK
  5
50AE
  8
0
  0
BLOCK
  8
0
  2
*U172
 70
     1
 10
0.0
 20
0.0
 30
0.0
  3
*U172
  1

  0
TEXT
  5
50B0
  8
0
 62
     2
 10
865.171653543307
 20
927.70000000000005
 30
0.0
 40
14.0
  1
6
  7
ACISOTS
  0
ENDBLK
  5
50B2
  8
0
  0
BLOCK
  8
0
  2
*U173
 70
     1
 10
0.0
 20
0.0
 30
0.0
  3
*U173
  1

  0
TEXT
  5
50B4
  8
0
 62
     2
 10
903.59999999999991
 20
927.70000000000005
 30
0.0
 40
14.0
  1
取手
  7
ACISOTS
  0
ENDBLK
  5
50B6
  8
0
  0
BLOCK
  8
0
  2
*U174
 70
     1
 10
0.0
 20
0.0
 30
0.0
  3
*U174
  1

  0
TEXT
  5
50B8
  8
0
 62
     2
 10
1116.5
 20
927.70000000000005
 30
0.0
 40
14.0
  1
1
  7
ACISOTS
  0
ENDBLK
  5
50BA
  8
0
  0
BLOCK
  8
0
  2
*U175
 70
     1
 10
0.0
 20
0.0
 30
0.0
  3
*U175
  1

  0
TEXT
  5
50BC
  8
0
 62
     2
 10
1161.5
 20
927.70000000000005
 30
0.0
 40
14.0
  1
ABS
  7
ACISOTS
  0
ENDBLK
  5
50BE
  8
0
  0
BLOCK
  8
0
  2
*U176
 70
     1
 10
0.0
 20
0.0
 30
0.0
  3
*U176
  1

  0
TEXT
  5
50C0
  8
0
 62
     2
 10
1363.5999999999999
 20
927.70000000000005
 30
0.0
 40
14.0
  1
黒
  7
ACISOTS
  0
ENDBLK
  5
50C2
  8
0
  0
BLOCK
  8
0
  2
*U177
 70
     1
 10
0.0
 20
0.0
 30
0.0
  3
*U177
  1

  0
TEXT
  5
50C4
  8
0
 62
     2
 10
865.09999999999991
 20
903.0
 30
0.0
 40
14.0
  1
7
  7
ACISOTS
  0
ENDBLK
  5
50C6
  8
0
  0
BLOCK
  8
0
  2
*U178
 70
     1
 10
0.0
 20
0.0
 30
0.0
  3
*U178
  1

  0
TEXT
  5
50C8
  8
0
 62
     2
 10
903.59999999999991
 20
903.0
 30
0.0
 40
14.0
  1
保護スポンジ
  7
ACISOTS
  0
ENDBLK
  5
50CA
  8
0
  0
BLOCK
  8
0
  2
*U179
 70
     1
 10
0.0
 20
0.0
 30
0.0
  3
*U179
  1

  0
TEXT
  5
50CC
  8
0
 62
     2
 10
1114.8573425196851
 20
902.99724409448834
 30
0.0
 40
14.0
  1
2
  7
ACISOTS
  0
ENDBLK
  5
50CE
  8
0
  0
BLOCK
  8
0
  2
*U180
 70
     1
 10
0.0
 20
0.0
 30
0.0
  3
*U180
  1

  0
TEXT
  5
50D0
  8
0
 62
     2
 10
1163.5999999999999
 20
903.0
 30
0.0
 40
14.0
  1
ネオプレーン t10
  7
ACISOTS
  0
ENDBLK
  5
50D2
  8
0
  0
BLOCK
  8
0
  2
*U181
 70
     1
 10
0.0
 20
0.0
 30
0.0
  3
*U181
  1

  0
TEXT
  5
50D4
  8
0
 62
     2
 10
1363.5999999999999
 20
903.0
 30
0.0
 40
14.0
  1
黒
  7
ACISOTS
  0
ENDBLK
  5
50D6
  8
0
  0
BLOCK
  8
0
  2
*U182
 70
     1
 10
0.0
 20
0.0
 30
0.0
  3
*U182
  1

  0
TEXT
  5
50D8
  8
0
 62
     2
 10
864.86433482718894
 20
878.29999999999995
 30
0.0
 40
14.0
  1
9
  7
ACISOTS
  0
ENDBLK
  5
50DA
  8
0
  0
BLOCK
  8
0
  2
*U183
 70
     1
 10
0.0
 20
0.0
 30
0.0
  3
*U183
  1

  0
TEXT
  5
50DC
  8
0
 62
     2
 10
903.59999999999991
 20
877.59999999999991
 30
0.0
 40
14.0
  1
取付ビス(ﾊﾞｲﾝﾄﾞM4×6)
  7
ACISOTS
  0
ENDBLK
  5
50DE
  8
0
  0
BLOCK
  8
0
  2
*U184
 70
     1
 10
0.0
 20
0.0
 30
0.0
  3
*U184
  1

  0
TEXT
  5
50E0
  8
0
 62
     2
 10
1111.5999999999999
 20
878.29999999999995
 30
0.0
 40
14.0
  1
18
  7
ACISOTS
  0
ENDBLK
  5
50E2
  8
0
  0
BLOCK
  8
0
  2
*U185
 70
     1
 10
0.0
 20
0.0
 30
0.0
  3
*U185
  1

  0
TEXT
  5
50E4
  8
0
 62
     2
 10
1163.5999999999999
 20
878.29999999999995
 30
0.0
 40
14.0
  1
鉄
  7
ACISOTS
  0
ENDBLK
  5
50E6
  8
0
  0
BLOCK
  8
0
  2
*U186
 70
     1
 10
0.0
 20
0.0
 30
0.0
  3
*U186
  1

  0
TEXT
  5
50E8
  8
0
 62
     2
 10
1363.5999999999999
 20
878.29999999999995
 30
0.0
 40
14.0
  1
三価黒ｸﾛｰﾒｲﾄ
  7
ACISOTS
  0
ENDBLK
  5
50EA
  8
0
  0
BLOCK
  8
0
  2
*U187
 70
     1
 10
0.0
 20
0.0
 30
0.0
  3
*U187
  1

  0
TEXT
  5
50EC
  8
0
 62
     2
 10
861.59448818897636
 20
853.59999999999991
 30
0.0
 40
14.0
  1
10
  7
ACISOTS
  0
ENDBLK
  5
50EE
  8
0
  0
BLOCK
  8
0
  2
*U188
 70
     1
 10
0.0
 20
0.0
 30
0.0
  3
*U188
  1

  0
TEXT
  5
50F0
  8
0
 62
     2
 10
903.59999999999991
 20
852.89999999999986
 30
0.0
 40
14.0
  1
取付ビス(ナットM4)
  7
ACISOTS
  0
ENDBLK
  5
50F2
  8
0
  0
BLOCK
  8
0
  2
*U189
 70
     1
 10
0.0
 20
0.0
 30
0.0
  3
*U189
  1

  0
TEXT
  5
50F4
  8
0
 62
     2
 10
1115.171653543307
 20
853.59999999999991
 30
0.0
 40
14.0
  1
6
  7
ACISOTS
  0
ENDBLK
  5
50F6
  8
0
  0
BLOCK
  8
0
  2
*U190
 70
     1
 10
0.0
 20
0.0
 30
0.0
  3
*U190
  1

  0
TEXT
  5
50F8
  8
0
 62
     2
 10
1163.5999999999999
 20
853.59999999999991
 30
0.0
 40
14.0
  1
鉄
  7
ACISOTS
  0
ENDBLK
  5
50FA
  8
0
  0
BLOCK
  8
0
  2
*U191
 70
     1
 10
0.0
 20
0.0
 30
0.0
  3
*U191
  1

  0
TEXT
  5
50FC
  8
0
 62
     2
 10
1363.5999999999999
 20
853.59999999999991
 30
0.0
 40
14.0
  1
三価黒ｸﾛｰﾒｲﾄ
  7
ACISOTS
  0
ENDBLK
  5
50FE
  8
0
  0
BLOCK
  8
0
  2
*U192
 70
     1
 10
0.0
 20
0.0
 30
0.0
  3
*U192
  1

  0
TEXT
  5
5100
  8
0
 62
     2
 10
863.0
 20
828.90000000000009
 30
0.0
 40
14.0
  1
11
  7
ACISOTS
  0
ENDBLK
  5
5102
  8
0
  0
BLOCK
  8
0
  2
*U193
 70
     1
 10
0.0
 20
0.0
 30
0.0
  3
*U193
  1

  0
TEXT
  5
5104
  8
0
 62
     2
 10
903.59999999999991
 20
828.20000000000005
 30
0.0
 40
14.0
  1
取付ビス(ﾊﾞｲﾝﾄﾞM3×5)
  7
ACISOTS
  0
ENDBLK
  5
5106
  8
0
  0
BLOCK
  8
0
  2
*U194
 70
     1
 10
0.0
 20
0.0
 30
0.0
  3
*U194
  1

  0
TEXT
  5
5108
  8
0
 62
     2
 10
1114.8573425196851
 20
828.89724409448831
 30
0.0
 40
14.0
  1
2
  7
ACISOTS
  0
ENDBLK
  5
510A
  8
0
  0
BLOCK
  8
0
  2
*U195
 70
     1
 10
0.0
 20
0.0
 30
0.0
  3
*U195
  1

  0
TEXT
  5
510C
  8
0
 62
     2
 10
1163.5999999999999
 20
828.90000000000009
 30
0.0
 40
14.0
  1
鉄
  7
ACISOTS
  0
ENDBLK
  5
510E
  8
0
  0
BLOCK
  8
0
  2
*U196
 70
     1
 10
0.0
 20
0.0
 30
0.0
  3
*U196
  1

  0
TEXT
  5
5110
  8
0
 62
     2
 10
1363.5999999999999
 20
828.90000000000009
 30
0.0
 40
14.0
  1
三価黒ｸﾛｰﾒｲﾄ
  7
ACISOTS
  0
ENDBLK
  5
5112
  8
0
  0
BLOCK
  8
0
  2
*U197
 70
     1
 10
0.0
 20
0.0
 30
0.0
  3
*U197
  1

  0
TEXT
  5
5114
  8
0
 62
     2
 10
861.1795866141731
 20
804.19724409448827
 30
0.0
 40
14.0
  1
12
  7
ACISOTS
  0
ENDBLK
  5
5116
  8
0
  0
BLOCK
  8
0
  2
*U198
 70
     1
 10
0.0
 20
0.0
 30
0.0
  3
*U198
  1

  0
TEXT
  5
5118
  8
0
 62
     2
 10
903.59999999999991
 20
803.5
 30
0.0
 40
14.0
  1
取付ビス(サラM3×5)
  7
ACISOTS
  0
ENDBLK
  5
511A
  8
0
  0
BLOCK
  8
0
  2
*U199
 70
     1
 10
0.0
 20
0.0
 30
0.0
  3
*U199
  1

  0
TEXT
  5
511C
  8
0
 62
     2
 10
1114.8573425196851
 20
804.19724409448827
 30
0.0
 40
14.0
  1
2
  7
ACISOTS
  0
ENDBLK
  5
511E
  8
0
  0
BLOCK
  8
0
  2
*U200
 70
     1
 10
0.0
 20
0.0
 30
0.0
  3
*U200
  1

  0
TEXT
  5
5120
  8
0
 62
     2
 10
1163.5999999999999
 20
804.19999999999993
 30
0.0
 40
14.0
  1
鉄
  7
ACISOTS
  0
ENDBLK
  5
5122
  8
0
  0
BLOCK
  8
0
  2
*U201
 70
     1
 10
0.0
 20
0.0
 30
0.0
  3
*U201
  1

  0
TEXT
  5
5124
  8
0
 62
     2
 10
1363.5999999999999
 20
804.19999999999993
 30
0.0
 40
14.0
  1
三価黒ｸﾛｰﾒｲﾄ
  7
ACISOTS
  0
ENDBLK
  5
5126
  8
0
  0
BLOCK
  8
0
  2
*U202
 70
     1
 10
0.0
 20
0.0
 30
0.0
  3
*U202
  1

  0
TEXT
  5
5128
  8
0
 62
     2
 10
854.60000000000014
 20
1075.9000000000001
 30
0.0
 40
14.0
  1
照番
  7
ACISOTS
  0
ENDBLK
  5
512A
  8
0
  0
BLOCK
  8
0
  2
*U203
 70
     1
 10
0.0
 20
0.0
 30
0.0
  3
*U203
  1

  0
TEXT
  5
512C
  8
0
 62
     2
 10
974.60000000000002
 20
1075.9000000000001
 30
0.0
 40
14.0
  1
名称
  7
ACISOTS
  0
ENDBLK
  5
512E
  8
0
  0
BLOCK
  8
0
  2
*U204
 70
     1
 10
0.0
 20
0.0
 30
0.0
  3
*U204
  1

  0
TEXT
  5
5130
  8
0
 62
     2
 10
1103.2
 20
1075.9000000000001
 30
0.0
 40
14.0
  1
個数
  7
ACISOTS
  0
ENDBLK
  5
5132
  8
0
  0
BLOCK
  8
0
  2
*U205
 70
     1
 10
0.0
 20
0.0
 30
0.0
  3
*U205
  1

  0
TEXT
  5
5134
  8
0
 62
     2
 10
1244.5999999999999
 20
1075.9000000000001
 30
0.0
 40
14.0
  1
材質
  7
ACISOTS
  0
ENDBLK
  5
5136
  8
0
  0
BLOCK
  8
0
  2
*U206
 70
     1
 10
0.0
 20
0.0
 30
0.0
  3
*U206
  1

  0
TEXT
  5
5138
  8
0
 62
     2
 10
1435.5999999999999
 20
1075.9000000000001
 30
0.0
 40
14.0
  1
色・表面処理
  7
ACISOTS
  0
ENDBLK
  5
513A
  8
0
  0
BLOCK
  8
0
  2
*U207
 70
     1
 10
0.0
 20
0.0
 30
0.0
  3
*U207
  1

  0
TEXT
  5
513C
  8
0
 62
     2
 10
1193.45
 20
1100.6500000000001
 30
0.0
 40
14.0
  1
構成内容
  7
ACISOTS
  0
ENDBLK
  5
513E
  8
0
  0
BLOCK
  8
0
  2
*U208
 70
     1
 10
0.0
 20
0.0
 30
0.0
  3
*U208
  1

  0
TEXT
  5
5140
  8
AM_5
 62
     7
 10
1087.3812184510221
 20
316.84189536034228
 30
0.0
 40
14.0
  1
9
  7
ACISOTS
  0
ENDBLK
  5
5142
  8
0
  0
BLOCK
  8
0
  2
*U209
 70
     1
 10
0.0
 20
0.0
 30
0.0
  3
*U209
  1

  0
TEXT
  5
5144
  8
AM_5
 62
     7
 10
1211.090832388237
 20
319.09464413997921
 30
0.0
 40
14.0
  1
10
  7
ACISOTS
  0
ENDBLK
  5
5146
  8
0
  0
BLOCK
  8
0
  2
*U210
 70
     1
 10
0.0
 20
0.0
 30
0.0
  3
*U210
  1

  0
TEXT
  5
5148
  8
AM_5
 62
     7
 10
1337.087178051921
 20
316.27871168585898
 30
0.0
 40
14.0
  1
11
  7
ACISOTS
  0
ENDBLK
  5
514A
  8
0
  0
BLOCK
  8
0
  2
*U211
 70
     1
 10
0.0
 20
0.0
 30
0.0
  3
*U211
  1

  0
TEXT
  5
514C
  8
AM_5
 62
     7
 10
1457.598143882904
 20
312.76986991231968
 30
0.0
 40
14.0
  1
12
  7
ACISOTS
  0
ENDBLK
  5
514E
  8
0
  0
ENDSEC
  0
SECTION
  2
ENTITIES
  0
INSERT
  5
5CF
  8
0
  2
TK-A3
 10
0.0
 20
0.0
 30
0.0
 41
4.0
 42
4.0
 43
4.0
1001
GENIUS_GENOREF_13
1005
638
1001
GENIUS_GENOBJ-N-SDF_13
1002
{
1000
OWNER
1000
GEN
1002
}
1001
GENIUS_GENODEF_13
1002
{
1000
HIER
1070
     0
1002
}
1002
{
1000
MANEDIT
1070
     0
1002
}
1002
{
1000
NOSEL
1070
     0
1002
}
1002
{
1000
BEHIND
1070
     0
1002
}
1002
{
1000
OTHER
1070
     0
1002
}
1002
{
1000
REACTOR
1002
}
1001
GENIUS_GENSCREG_13
1040
4.0
1040
1.0
1011
0.0
1021
0.0
1031
0.0
1021
0.0
1031
0.0
1011
1612.0
1021
0.0
1031
0.0
1021
1120.0
1031
0.0
1070
     3
  0
INSERT
  5
62E
  8
0
 66
     1
  2
TK-TITLE
 10
1612.0
 20
0.0
 30
0.0
 41
4.0
 42
4.0
 43
4.0
1001
GENIUS_GENOREF_13
1005
638
  0
ATTRIB
  5
34C2
  8
0
 10
1579.9907632418169
 20
6.820757737580144
 30
0.0
 40
10.0
  1

  2
GEN-TITLE-NR2
 70
     0
  0
ATTRIB
  5
34C3
  8
0
 10
1275.4299239365871
 20
51.311617302575087
 30
0.0
 40
14.0
  1
NST-44
  2
GEN-TITLE-DES1
 70
     0
  0
ATTRIB
  5
34C4
  8
0
 10
1276.0
 20
36.599999999999802
 30
0.0
 40
10.0
  1
NST型EIAラックスライドテーブル
  2
GEN-TITLE-DES2
 70
     0
  0
ATTRIB
  5
34C5
  8
0
 10
1276.0
 20
7.9999999999998286
 30
0.0
 40
12.0
  1

  2
GEN-TITLE-NR1
 70
     0
  0
ATTRIB
  5
34C6
  8
0
 10
1016.152529665883
 20
173.19999999999959
 30
0.0
 40
12.0
  1

  2
GEN-TITLE-MAT1
 70
     0
  0
ATTRIB
  5
34C7
  8
0
 10
1016.152529665883
 20
133.19999999999959
 30
0.0
 40
12.0
  1

  2
GEN-TITLE-MAT2
 70
     0
  0
ATTRIB
  5
34C8
  8
0
 10
909.5490363495619
 20
64.799999999999756
 30
0.0
 40
12.0
  1

 72
     2
 11
909.5490363495619
 21
63.199999999999761
 31
0.0
  2
GEN-TITLE-QTY
 70
     0
 74
     1
  0
ATTRIB
  5
34C9
  8
0
 10
883.30104154230366
 20
114.7999999999999
 30
0.0
 40
12.0
  1
1:4
 72
     2
 11
900.70104154230376
 21
113.1999999999999
 31
0.0
  2
GEN-TITLE-SCA
 70
     0
 74
     1
  0
ATTRIB
  5
34CA
  8
0
 10
850.4626155569033
 20
15.953370150442661
 30
0.0
 40
12.0
  1
2009/08/21
 72
     1
 11
891.13121933514446
 21
14.353370150442659
 31
0.0
  2
GEN-TITLE-DAT
 70
     0
 74
     1
  0
SEQEND
  5
34C1
  8
0
  0
POINT
  5
638
  8
0
 10
0.0
 20
0.0
 30
0.0
1001
GENIUS_GENOENT_13
1002
{
1000
MYREF
1005
638
1002
}
1002
{
1000
GRP
1005
0
1002
}
1001
GENIUS_GENOBJ-N-TIT_13
1002
{
1000
OWNER
1000
GEN
1002
}
1001
GENIUS_GENODEF_13
1002
{
1000
HIER
1070
     1
1002
}
1002
{
1000
MANEDIT
1070
     0
1002
}
1002
{
1000
NOSEL
1070
     0
1002
}
1002
{
1000
BEHIND
1070
     0
1002
}
1002
{
1000
OTHER
1070
     0
1002
}
1002
{
1000
REACTOR
1002
}
1001
GENIUS_GENOLIS_13
1002
{
1000
ENT
1005
62E
1005
5CF
1005
34C0
1002
}
1001
GENIUS_GENTITLE_13
1002
{
1000
BORDER
1000
TK-A3
1002
}
1002
{
1000
TITLE
1000
TK-TITLE
1002
}
1002
{
1000
SCALE
1000
1:4
1002
}
1002
{
1000
TITLESTD
1000
ISO
1002
}
1002
{
1000
HRA
1005
5CF
1002
}
1002
{
1000
HTIT
1005
62E
1002
}
1002
{
1000
GENIUSID
1005
638
1002
}
1002
{
1000
INVTXTID
1005
0
1002
}
1002
{
1000
UNCHG
1002
{
1000
GEN-TITLE-SIZ
1000
GEN-TITLE-SCA
1002
}
1002
}
  0
INSERT
  5
8FB
  8
AM_12
  2
*S53
 10
0.0
 20
0.0
 30
0.0
  0
INSERT
  5
901
  8
AM_12
  2
*S54
 10
0.0
 20
0.0
 30
0.0
  0
INSERT
  5
902
  8
AM_12
  2
*S55
 10
0.0
 20
0.0
 30
0.0
  0
INSERT
  5
903
  8
AM_12
  2
*S56
 10
0.0
 20
0.0
 30
0.0
  0
INSERT
  5
904
  8
AM_12
  2
*S57
 10
0.0
 20
0.0
 30
0.0
  0
INSERT
  5
905
  8
AM_12
  2
*S58
 10
0.0
 20
0.0
 30
0.0
  0
INSERT
  5
906
  8
AM_12
  2
*S59
 10
0.0
 20
0.0
 30
0.0
  0
INSERT
  5
FC1
  8
AM_5
  2
*S60
 10
0.0
 20
0.0
 30
0.0
  0
INSERT
  5
FC3
  8
AM_5
  2
*S61
 10
0.0
 20
0.0
 30
0.0
  0
INSERT
  5
FC4
  8
AM_5
  2
*S62
 10
0.0
 20
0.0
 30
0.0
  0
INSERT
  5
FC6
  8
AM_5
  2
*S63
 10
0.0
 20
0.0
 30
0.0
  0
INSERT
  5
FCA
  8
AM_5
  2
*S64
 10
0.0
 20
0.0
 30
0.0
  0
INSERT
  5
16D8
  8
AM_5
  2
*S65
 10
0.0
 20
0.0
 30
0.0
  0
LINE
  5
3637
  8
ﾃ_ﾌ_ﾙ
 10
635.85335399001258
 20
295.97699041611668
 30
0.0
 11
200.85335399001269
 21
295.97699041611668
 31
0.0
  0
LINE
  5
3638
  8
ﾃ_ﾌ_ﾙ
 10
635.85335399001258
 20
295.97699041611668
 30
0.0
 11
635.85335399001258
 21
252.97699041611671
 31
0.0
  0
LINE
  5
3639
  8
ﾃ_ﾌ_ﾙ0
 10
467.10335399001258
 20
284.7769904161168
 30
0.0
 11
467.10335399001258
 21
264.1769904161165
 31
0.0
  0
ARC
  5
363A
  8
ﾃ_ﾌ_ﾙ0
 10
466.60335399001258
 20
284.7769904161168
 30
0.0
 40
0.5
 50
0.0
 51
90.0
1001
GENIUS_GENODEF_13
1002
{
1000
HIER
1070
     0
1002
}
1002
{
1000
MANEDIT
1070
     0
1002
}
1002
{
1000
NOSEL
1070
     0
1002
}
1002
{
1000
BEHIND
1070
     0
1002
}
1002
{
1000
OTHER
1070
     0
1002
}
1002
{
1000
REACTOR
1002
}
1001
GENIUS_GENOBJ-N-FIL_13
1002
{
1000
OWNER
1000
GEN
1002
}
  0
LINE
  5
363B
  8
ﾃ_ﾌ_ﾙ0
 10
466.60335399001258
 20
263.6769904161165
 30
0.0
 11
370.10335399001269
 21
263.6769904161165
 31
0.0
  0
ARC
  5
363C
  8
ﾃ_ﾌ_ﾙ0
 10
466.60335399001258
 20
264.1769904161165
 30
0.0
 40
0.5
 50
270.0
 51
0.0
1001
GENIUS_GENOBJ-N-FIL_13
1002
{
1000
OWNER
1000
GEN
1002
}
1001
GENIUS_GENODEF_13
1002
{
1000
HIER
1070
     0
1002
}
1002
{
1000
MANEDIT
1070
     0
1002
}
1002
{
1000
NOSEL
1070
     0
1002
}
1002
{
1000
BEHIND
1070
     0
1002
}
1002
{
1000
OTHER
1070
     0
1002
}
1002
{
1000
REACTOR
1002
}
  0
LINE
  5
363D
  8
ﾃ_ﾌ_ﾙ0
 10
466.60335399001258
 20
285.27699041611692
 30
0.0
 11
370.10335399001269
 21
285.27699041611692
 31
0.0
  0
ARC
  5
363E
  8
ﾃ_ﾌ_ﾙ0
 10
370.10335399001269
 20
284.7769904161168
 30
0.0
 40
0.5
 50
90.0
 51
180.0
1001
GENIUS_GENODEF_13
1002
{
1000
HIER
1070
     0
1002
}
1002
{
1000
MANEDIT
1070
     0
1002
}
1002
{
1000
NOSEL
1070
     0
1002
}
1002
{
1000
BEHIND
1070
     0
1002
}
1002
{
1000
OTHER
1070
     0
1002
}
1002
{
1000
REACTOR
1002
}
1001
GENIUS_GENOBJ-N-FIL_13
1002
{
1000
OWNER
1000
GEN
1002
}
  0
LINE
  5
363F
  8
ﾃ_ﾌ_ﾙ0
 10
369.60335399001269
 20
264.1769904161165
 30
0.0
 11
369.60335399001269
 21
284.7769904161168
 31
0.0
  0
ARC
  5
3640
  8
ﾃ_ﾌ_ﾙ0
 10
370.10335399001269
 20
264.1769904161165
 30
0.0
 40
0.5
 50
180.0
 51
270.0
1001
GENIUS_GENOBJ-N-FIL_13
1002
{
1000
OWNER
1000
GEN
1002
}
1001
GENIUS_GENODEF_13
1002
{
1000
HIER
1070
     0
1002
}
1002
{
1000
MANEDIT
1070
     0
1002
}
1002
{
1000
NOSEL
1070
     0
1002
}
1002
{
1000
BEHIND
1070
     0
1002
}
1002
{
1000
OTHER
1070
     0
1002
}
1002
{
1000
REACTOR
1002
}
  0
LINE
  5
3641
  8
ﾃ_ﾌ_ﾙ
 10
634.85335399001269
 20
396.78902229187179
 30
0.0
 11
201.85335399001269
 21
396.78902229187179
 31
0.0
  0
LINE
  5
3642
  8
ﾃ_ﾌ_ﾙ
 10
627.35335399001258
 20
747.78902229187167
 30
0.0
 11
209.35335399001269
 21
747.78902229187167
 31
0.0
  0
LINE
  5
3643
  8
ﾃ_ﾌ_ﾙ
 10
635.85335399001258
 20
746.78902229187167
 30
0.0
 11
635.85335399001258
 21
397.78902229187179
 31
0.0
  0
LINE
  5
3644
  8
ﾃ_ﾌ_ﾙ
 10
200.85335399001269
 20
397.78902229187179
 30
0.0
 11
200.85335399001269
 21
746.78902229187167
 31
0.0
  0
LINE
  5
3645
  8
ﾃ_ﾌ_ﾙ
 10
200.85335399001269
 20
746.68902229187131
 30
0.0
 11
200.85335399001269
 21
407.38902229187158
 31
0.0
  0
ARC
  5
3646
  8
ﾃ_ﾌ_ﾙ
 10
634.85335399001269
 20
397.78902229187179
 30
0.0
 40
1.0
 50
270.0
 51
0.0
1001
GENIUS_GENODEF_13
1002
{
1000
HIER
1070
     0
1002
}
1002
{
1000
MANEDIT
1070
     0
1002
}
1002
{
1000
NOSEL
1070
     0
1002
}
1002
{
1000
BEHIND
1070
     0
1002
}
1002
{
1000
REACTOR
1002
}
1001
GENIUS_GENOBJ-N-FIL_13
1002
{
1000
OWNER
1000
GEN
1002
}
  0
ARC
  5
3647
  8
ﾃ_ﾌ_ﾙ
 10
201.85335399001269
 20
397.78902229187179
 30
0.0
 40
1.0
 50
180.0
 51
270.0
1001
GENIUS_GENODEF_13
1002
{
1000
HIER
1070
     0
1002
}
1002
{
1000
MANEDIT
1070
     0
1002
}
1002
{
1000
NOSEL
1070
     0
1002
}
1002
{
1000
BEHIND
1070
     0
1002
}
1002
{
1000
REACTOR
1002
}
1001
GENIUS_GENOBJ-N-FIL_13
1002
{
1000
OWNER
1000
GEN
1002
}
  0
LINE
  5
3648
  8
ﾃ_ﾌ_ﾙ
 10
635.85335399001258
 20
746.68902229187131
 30
0.0
 11
635.85335399001258
 21
407.38902229187158
 31
0.0
  0
LINE
  5
3649
  8
ﾃ_ﾌ_ﾙ
 10
209.35335399001269
 20
747.78902229187167
 30
0.0
 11
209.35335399001269
 21
746.78902229187167
 31
0.0
  0
LINE
  5
364A
  8
ﾃ_ﾌ_ﾙ
 10
209.4533539900126
 20
746.78902229187167
 30
0.0
 11
200.85335399001269
 21
746.78902229187167
 31
0.0
  0
LINE
  5
364B
  8
ﾃ_ﾌ_ﾙ
 10
627.35335399001258
 20
747.78902229187167
 30
0.0
 11
627.35335399001258
 21
746.78902229187167
 31
0.0
  0
LINE
  5
364C
  8
ﾃ_ﾌ_ﾙ
 10
627.25335399001256
 20
746.78902229187167
 30
0.0
 11
635.85335399001258
 21
746.78902229187167
 31
0.0
  0
LINE
  5
364D
  8
ﾃ_ﾌ_ﾙ0
 10
627.25335399001256
 20
746.78902229187167
 30
0.0
 11
209.4533539900126
 21
746.78902229187167
 31
0.0
  0
LINE
  5
364E
  8
ﾃ_ﾌ_ﾙ0
 10
200.85335399001269
 20
406.78902229187179
 30
0.0
 11
635.85335399001258
 21
406.78902229187179
 31
0.0
  0
LINE
  5
364F
  8
ﾃ_ﾌ_ﾙ0
 10
627.35335399001258
 20
397.78902229187179
 30
0.0
 11
627.35335399001258
 21
746.78902229187167
 31
0.0
  0
LINE
  5
3650
  8
ﾃ_ﾌ_ﾙ0
 10
626.35335399001269
 20
746.78902229187167
 30
0.0
 11
626.35335399001269
 21
397.78902229187179
 31
0.0
  0
LINE
  5
3651
  8
ﾃ_ﾌ_ﾙ0
 10
201.85335399001269
 20
397.78902229187179
 30
0.0
 11
634.85335399001269
 21
397.78902229187179
 31
0.0
  0
LINE
  5
3652
  8
ﾃ_ﾌ_ﾙ0
 10
634.85335399001269
 20
406.78902229187179
 30
0.0
 11
634.85335399001269
 21
397.78902229187179
 31
0.0
  0
LINE
  5
3653
  8
ﾃ_ﾌ_ﾙ0
 10
607.25335399001267
 20
746.78902229187167
 30
0.0
 11
607.25335399001278
 21
397.78902229187179
 31
0.0
  0
LINE
  5
3654
  8
ﾃ_ﾌ_ﾙ0
 10
209.35335399001269
 20
397.78902229187179
 30
0.0
 11
209.35335399001269
 21
746.78902229187167
 31
0.0
  0
LINE
  5
3655
  8
ﾃ_ﾌ_ﾙ0
 10
210.35335399001269
 20
746.78902229187167
 30
0.0
 11
210.35335399001269
 21
397.78902229187179
 31
0.0
  0
LINE
  5
3656
  8
ﾃ_ﾌ_ﾙ0
 10
201.85335399001269
 20
406.78902229187179
 30
0.0
 11
201.85335399001269
 21
397.78902229187179
 31
0.0
  0
LINE
  5
3657
  8
ﾃ_ﾌ_ﾙ0
 10
229.4533539900126
 20
746.78902229187167
 30
0.0
 11
229.4533539900126
 21
397.78902229187179
 31
0.0
  0
LINE
  5
3658
  8
ﾃ_ﾌ_ﾙ0
 10
626.35335399001269
 20
434.28902229187167
 30
0.0
 11
627.35335399001258
 21
434.28902229187167
 31
0.0
  0
LINE
  5
3659
  8
ﾃ_ﾌ_ﾙ0
 10
626.35335399001269
 20
430.08902229187169
 30
0.0
 11
627.35335399001258
 21
430.08902229187169
 31
0.0
  0
LINE
  5
365A
  8
ﾃ_ﾌ_ﾙ0
 10
626.35335399001269
 20
535.88902229187158
 30
0.0
 11
627.35335399001258
 21
535.88902229187158
 31
0.0
  0
LINE
  5
365B
  8
ﾃ_ﾌ_ﾙ0
 10
626.35335399001269
 20
531.68902229187177
 30
0.0
 11
627.35335399001258
 21
531.68902229187177
 31
0.0
  0
LINE
  5
365C
  8
ﾃ_ﾌ_ﾙ0
 10
626.35335399001269
 20
637.48902229187183
 30
0.0
 11
627.35335399001258
 21
637.48902229187183
 31
0.0
  0
LINE
  5
365D
  8
ﾃ_ﾌ_ﾙ0
 10
626.35335399001269
 20
633.28902229187179
 30
0.0
 11
627.35335399001258
 21
633.28902229187179
 31
0.0
  0
LINE
  5
365E
  8
ﾃ_ﾌ_ﾙ0
 10
210.35335399001269
 20
434.28902229187167
 30
0.0
 11
209.35335399001269
 21
434.28902229187167
 31
0.0
  0
LINE
  5
365F
  8
ﾃ_ﾌ_ﾙ0
 10
210.35335399001269
 20
430.08902229187169
 30
0.0
 11
209.35335399001269
 21
430.08902229187169
 31
0.0
  0
LINE
  5
3660
  8
ﾃ_ﾌ_ﾙ0
 10
210.35335399001269
 20
535.88902229187158
 30
0.0
 11
209.35335399001269
 21
535.88902229187158
 31
0.0
  0
LINE
  5
3661
  8
ﾃ_ﾌ_ﾙ0
 10
210.35335399001269
 20
531.68902229187177
 30
0.0
 11
209.35335399001269
 21
531.68902229187177
 31
0.0
  0
LINE
  5
3662
  8
ﾃ_ﾌ_ﾙ0
 10
210.35335399001269
 20
637.48902229187183
 30
0.0
 11
209.35335399001269
 21
637.48902229187183
 31
0.0
  0
LINE
  5
3663
  8
ﾃ_ﾌ_ﾙ0
 10
210.35335399001269
 20
633.28902229187179
 30
0.0
 11
209.35335399001269
 21
633.28902229187179
 31
0.0
  0
LINE
  5
3664
  8
ﾃ_ﾌ_ﾙ0
 10
406.60335399001269
 20
747.78902229187167
 30
0.0
 11
406.60335399001269
 21
746.78902229187167
 31
0.0
  0
LINE
  5
3665
  8
ﾃ_ﾌ_ﾙ0
 10
410.10335399001269
 20
747.78902229187167
 30
0.0
 11
410.10335399001269
 21
746.78902229187167
 31
0.0
  0
LINE
  5
3666
  8
ﾃ_ﾌ_ﾙ0
 10
426.60335399001258
 20
747.78902229187167
 30
0.0
 11
426.60335399001258
 21
746.78902229187167
 31
0.0
  0
LINE
  5
3667
  8
ﾃ_ﾌ_ﾙ0
 10
430.10335399001258
 20
747.78902229187167
 30
0.0
 11
430.10335399001258
 21
746.78902229187167
 31
0.0
  0
LINE
  5
3668
  8
ﾃ_ﾌ_ﾙ0
 10
369.60335399001269
 20
397.78902229187179
 30
0.0
 11
369.60335399001269
 21
396.78902229187179
 31
0.0
  0
LINE
  5
3669
  8
ﾃ_ﾌ_ﾙ0
 10
467.10335399001258
 20
396.78902229187179
 30
0.0
 11
467.10335399001258
 21
397.78902229187179
 31
0.0
  0
LINE
  5
366A
  8
ﾃ_ﾌ_ﾙ0
 10
200.85335399001269
 20
294.97699041611668
 30
0.0
 11
635.85335399001258
 21
294.97699041611668
 31
0.0
  0
LINE
  5
366B
  8
ﾃ_ﾌ_ﾙ0
 10
635.85335399001258
 20
253.97699041611671
 30
0.0
 11
200.85335399001269
 21
253.97699041611671
 31
0.0
  0
LINE
  5
366C
  8
ﾃ_ﾌ_ﾙ0
 10
627.35335399001258
 20
253.97699041611671
 30
0.0
 11
627.35335399001258
 21
293.97699041611668
 31
0.0
  0
ARC
  5
366D
  8
ﾃ_ﾌ_ﾙ0
 10
626.35335399001269
 20
293.97699041611668
 30
0.0
 40
1.0
 50
0.0
 51
90.0
1001
GENIUS_GENOBJ-N-FIL_13
1002
{
1000
OWNER
1000
GEN
1002
}
1001
GENIUS_GENODEF_13
1002
{
1000
HIER
1070
     0
1002
}
1002
{
1000
MANEDIT
1070
     0
1002
}
1002
{
1000
NOSEL
1070
     0
1002
}
1002
{
1000
BEHIND
1070
     0
1002
}
1002
{
1000
OTHER
1070
     0
1002
}
1002
{
1000
REACTOR
1002
}
  0
LINE
  5
366E
  8
ﾃ_ﾌ_ﾙ0
 10
607.2533539900129
 20
294.97699041611668
 30
0.0
 11
607.2533539900129
 21
293.97699041611668
 31
0.0
  0
LINE
  5
366F
  8
ﾃ_ﾌ_ﾙ0
 10
607.2533539900129
 20
293.97699041611668
 30
0.0
 11
626.35335399001269
 21
293.97699041611668
 31
0.0
  0
LINE
  5
3670
  8
ﾃ_ﾌ_ﾙ0
 10
626.35335399001269
 20
293.97699041611668
 30
0.0
 11
626.35335399001315
 21
253.97699041611671
 31
0.0
  0
LINE
  5
3671
  8
ﾃ_ﾌ_ﾙ
 10
200.85335399001269
 20
252.97699041611671
 30
0.0
 11
635.85335399001258
 21
252.97699041611671
 31
0.0
  0
ARC
  5
3672
  8
ﾃ_ﾌ_ﾙ0
 10
627.35335399001315
 20
253.97699041611671
 30
0.0
 40
1.0
 50
180.0
 51
270.0
1001
GENIUS_GENOBJ-N-FIL_13
1002
{
1000
OWNER
1000
GEN
1002
}
1001
GENIUS_GENODEF_13
1002
{
1000
HIER
1070
     0
1002
}
1002
{
1000
MANEDIT
1070
     0
1002
}
1002
{
1000
NOSEL
1070
     0
1002
}
1002
{
1000
BEHIND
1070
     0
1002
}
1002
{
1000
OTHER
1070
     0
1002
}
1002
{
1000
REACTOR
1002
}
  0
LINE
  5
3673
  8
ﾃ_ﾌ_ﾙ0
 10
634.85335399001269
 20
294.97699041611668
 30
0.0
 11
634.85335399001269
 21
253.97699041611671
 31
0.0
  0
LINE
  5
3674
  8
ﾃ_ﾌ_ﾙ
 10
200.85335399001269
 20
295.97699041611668
 30
0.0
 11
200.85335399001269
 21
252.97699041611671
 31
0.0
  0
ARC
  5
3675
  8
ﾃ_ﾌ_ﾙ0
 10
210.35335399001269
 20
293.97699041611668
 30
0.0
 40
1.0
 50
90.0
 51
180.0
1001
GENIUS_GENOBJ-N-FIL_13
1002
{
1000
OWNER
1000
GEN
1002
}
1001
GENIUS_GENODEF_13
1002
{
1000
HIER
1070
     0
1002
}
1002
{
1000
MANEDIT
1070
     0
1002
}
1002
{
1000
NOSEL
1070
     0
1002
}
1002
{
1000
BEHIND
1070
     0
1002
}
1002
{
1000
OTHER
1070
     0
1002
}
1002
{
1000
REACTOR
1002
}
  0
LINE
  5
3676
  8
ﾃ_ﾌ_ﾙ0
 10
229.4533539900126
 20
294.97699041611668
 30
0.0
 11
229.4533539900126
 21
293.97699041611668
 31
0.0
  0
LINE
  5
3677
  8
ﾃ_ﾌ_ﾙ0
 10
229.4533539900126
 20
293.97699041611668
 30
0.0
 11
210.35335399001269
 21
293.97699041611668
 31
0.0
  0
ARC
  5
3678
  8
ﾃ_ﾌ_ﾙ0
 10
209.35335399001221
 20
253.97699041611671
 30
0.0
 40
1.0
 50
270.0
 51
0.0
1001
GENIUS_GENOBJ-N-FIL_13
1002
{
1000
OWNER
1000
GEN
1002
}
1001
GENIUS_GENODEF_13
1002
{
1000
HIER
1070
     0
1002
}
1002
{
1000
MANEDIT
1070
     0
1002
}
1002
{
1000
NOSEL
1070
     0
1002
}
1002
{
1000
BEHIND
1070
     0
1002
}
1002
{
1000
OTHER
1070
     0
1002
}
1002
{
1000
REACTOR
1002
}
  0
LINE
  5
3679
  8
ﾃ_ﾌ_ﾙ0
 10
201.85335399001269
 20
294.97699041611668
 30
0.0
 11
201.85335399001269
 21
253.97699041611671
 31
0.0
  0
LINE
  5
367A
  8
ﾃ_ﾌ_ﾙ0
 10
626.35335399001292
 20
276.57699041611659
 30
0.0
 11
627.35335399001258
 21
276.57699041611659
 31
0.0
  0
LINE
  5
367B
  8
ﾃ_ﾌ_ﾙ0
 10
626.35335399001292
 20
272.37699041611683
 30
0.0
 11
627.35335399001258
 21
272.37699041611683
 31
0.0
  0
LINE
  5
367C
  8
ﾃ_ﾌ_ﾙ0
 10
210.35335399001249
 20
276.57699041611659
 30
0.0
 11
209.35335399001269
 21
276.57699041611659
 31
0.0
  0
LINE
  5
367D
  8
ﾃ_ﾌ_ﾙ0
 10
210.35335399001249
 20
272.37699041611683
 30
0.0
 11
209.35335399001269
 21
272.37699041611683
 31
0.0
  0
LINE
  5
367E
  8
ﾃ_ﾌ_ﾙ0
 10
210.35335399001221
 20
253.97699041611671
 30
0.0
 11
210.35335399001269
 21
293.97699041611668
 31
0.0
  0
LINE
  5
367F
  8
ﾃ_ﾌ_ﾙ0
 10
209.35335399001269
 20
293.97699041611668
 30
0.0
 11
209.35335399001269
 21
253.97699041611671
 31
0.0
  0
LINE
  5
3680
  8
ﾃ_ﾌ_ﾙ0
 10
780.36738750304175
 20
396.78925180467041
 30
0.0
 11
780.36738750304175
 21
122.7892518046701
 31
0.0
  0
LINE
  5
3681
  8
ﾃ_ﾌ_ﾙ0
 10
779.36738750304175
 20
121.7892518046701
 30
0.0
 11
738.36738750304164
 21
121.7892518046701
 31
0.0
  0
ARC
  5
3682
  8
ﾃ_ﾌ_ﾙ0
 10
779.36738750304175
 20
122.7892518046701
 30
0.0
 40
1.0
 50
270.0
 51
0.0
1001
GENIUS_GENOBJ-N-FIL_13
1002
{
1000
OWNER
1000
GEN
1002
}
1001
GENIUS_GENODEF_13
1002
{
1000
HIER
1070
     0
1002
}
1002
{
1000
MANEDIT
1070
     0
1002
}
1002
{
1000
NOSEL
1070
     0
1002
}
1002
{
1000
BEHIND
1070
     0
1002
}
1002
{
1000
OTHER
1070
     0
1002
}
1002
{
1000
REACTOR
1002
}
  0
ARC
  5
3683
  8
ﾃ_ﾌ_ﾙ0
 10
738.36738750304164
 20
122.7892518046701
 30
0.0
 40
1.0
 50
180.0
 51
270.0
1001
GENIUS_GENOBJ-N-FIL_13
1002
{
1000
OWNER
1000
GEN
1002
}
1001
GENIUS_GENODEF_13
1002
{
1000
HIER
1070
     0
1002
}
1002
{
1000
MANEDIT
1070
     0
1002
}
1002
{
1000
NOSEL
1070
     0
1002
}
1002
{
1000
BEHIND
1070
     0
1002
}
1002
{
1000
OTHER
1070
     0
1002
}
1002
{
1000
REACTOR
1002
}
  0
LINE
  5
3684
  8
ﾃ_ﾌ_ﾙ0
 10
737.36738750304164
 20
122.7892518046701
 30
0.0
 11
737.36738750304164
 21
396.78925180467041
 31
0.0
  0
LINE
  5
3685
  8
ﾃ_ﾌ_ﾙ0
 10
738.36738750304175
 20
396.78925180467007
 30
0.0
 11
738.36738750304175
 21
121.7892518046701
 31
0.0
  0
LINE
  5
3686
  8
ﾃ_ﾌ_ﾙ0
 10
738.36738750304175
 20
131.78902229187179
 30
0.0
 11
779.36738750304175
 21
131.78902229187179
 31
0.0
  0
LINE
  5
3687
  8
ﾃ_ﾌ_ﾙ0
 10
779.36738750304175
 20
121.7892518046701
 30
0.0
 11
779.36738750304175
 21
396.78925180467007
 31
0.0
  0
LINE
  5
3688
  8
ﾃ_ﾌ_ﾙ0
 10
779.36738750304175
 20
131.78902229187179
 30
0.0
 11
780.36738750304175
 21
131.78902229187179
 31
0.0
  0
LINE
  5
3689
  8
ﾃ_ﾌ_ﾙ0
 10
739.36738750304175
 20
396.78925180467007
 30
0.0
 11
739.36738750304175
 21
122.7892518046701
 31
0.0
  0
LINE
  5
368A
  8
ﾃ_ﾌ_ﾙ0
 10
738.36738750304175
 20
122.7892518046701
 30
0.0
 11
779.36738750304175
 21
122.7892518046701
 31
0.0
  0
CIRCLE
  5
368B
  8
ﾃ_ﾌ_ﾙ
 10
758.86738750304175
 20
360.3890222918717
 30
0.0
 40
2.1000000000000001
  0
CIRCLE
  5
368C
  8
ﾃ_ﾌ_ﾙ
 10
758.86738750304175
 20
258.78902229187179
 30
0.0
 40
2.1000000000000001
  0
CIRCLE
  5
368D
  8
ﾃ_ﾌ_ﾙ
 10
758.86738750304175
 20
157.18902229187191
 30
0.0
 40
2.1000000000000001
  0
DIMENSION
  5
368E
  8
AM_5
  2
*D15
 10
659.65335399001265
 20
329.4266780908647
 30
0.0
 11
418.35335399001258
 21
339.1777115554317
 31
0.0
 70
     0
 13
177.05335399001271
 23
396.78902229187179
 33
0.0
 14
659.65335399001265
 24
396.78902229187179
 34
0.0
1001
ACAD
1000
DSTYLE
1002
{
1070
    40
1040
3.0
1002
}
  0
DIMENSION
  5
3691
  8
AM_5
  2
*D16
 10
780.36738750304175
 20
82.980244926926375
 30
0.0
 11
758.86738750304175
 21
90.980244926926389
 31
0.0
 70
     0
 13
737.36738750304164
 23
122.7892518046701
 33
0.0
 14
780.36738750304175
 24
122.7892518046701
 34
0.0
1001
ACAD
1000
DSTYLE
1002
{
1070
   287
1070
     4
1070
    40
1040
4.0
1070
    41
1040
1.5
1070
   140
1040
3.0
1070
   147
1040
0.5
1070
   279
1070
     1
1002
}
  0
DIMENSION
  5
3697
  8
AM_5
  2
*D14
 10
683.49699868794914
 20
396.78902229187179
 30
0.0
 11
675.49699868794903
 21
572.2890222918719
 31
0.0
 70
     0
 13
627.35335399001258
 23
747.78902229187167
 33
0.0
 14
659.65335399001265
 24
396.78902229187179
 34
0.0
 50
90.0
1001
ACAD
1000
DSTYLE
1002
{
1070
    40
1040
4.0
1070
    41
1040
1.5
1070
   140
1040
3.0
1070
   147
1040
0.5
1002
}
  0
LINE
  5
369A
  8
ﾃ_ﾌ_ﾙ0
 10
210.35335399001269
 20
434.28902229187167
 30
0.0
 11
209.35335399001269
 21
434.28902229187167
 31
0.0
  0
LINE
  5
369B
  8
ﾃ_ﾌ_ﾙ0
 10
210.35335399001269
 20
430.08902229187169
 30
0.0
 11
209.35335399001269
 21
430.08902229187169
 31
0.0
  0
LINE
  5
369C
  8
ﾃ_ﾌ_ﾙ0
 10
210.35335399001269
 20
535.88902229187158
 30
0.0
 11
209.35335399001269
 21
535.88902229187158
 31
0.0
  0
LINE
  5
369D
  8
ﾃ_ﾌ_ﾙ0
 10
210.35335399001269
 20
531.68902229187177
 30
0.0
 11
209.35335399001269
 21
531.68902229187177
 31
0.0
  0
LINE
  5
369E
  8
ﾃ_ﾌ_ﾙ0
 10
210.35335399001269
 20
637.48902229187183
 30
0.0
 11
209.35335399001269
 21
637.48902229187183
 31
0.0
  0
LINE
  5
369F
  8
ﾃ_ﾌ_ﾙ0
 10
210.35335399001269
 20
633.28902229187179
 30
0.0
 11
209.35335399001269
 21
633.28902229187179
 31
0.0
  0
LINE
  5
36A5
  8
ﾃ_ﾌ_ﾙ
 10
738.36738750304175
 20
747.78902229187167
 30
0.0
 11
741.36738750304175
 21
747.78902229187202
 31
0.0
  0
LINE
  5
36A6
  8
ﾃ_ﾌ_ﾙ
 10
777.36738750304175
 20
747.78902229187202
 30
0.0
 11
780.36738750304175
 21
747.78902229187167
 31
0.0
  0
ARC
  5
36A7
  8
ﾃ_ﾌ_ﾙ
 10
738.36738750304175
 20
746.78902229187167
 30
0.0
 40
1.0
 50
90.0
 51
180.0
1001
GENIUS_GENOBJ-N-FIL_13
1002
{
1000
OWNER
1000
GEN
1002
}
1001
GENIUS_GENODEF_13
1002
{
1000
HIER
1070
     0
1002
}
1002
{
1000
MANEDIT
1070
     0
1002
}
1002
{
1000
NOSEL
1070
     0
1002
}
1002
{
1000
BEHIND
1070
     0
1002
}
1002
{
1000
OTHER
1070
     0
1002
}
1002
{
1000
REACTOR
1002
}
  0
LINE
  5
36A8
  8
ﾃ_ﾌ_ﾙ
 10
780.36738750304175
 20
747.78902229187167
 30
0.0
 11
780.36738750304164
 21
646.11212746020249
 31
0.0
  0
LINE
  5
36A9
  8
ﾃ_ﾌ_ﾙ
 10
737.36738750304175
 20
646.11212746020249
 30
0.0
 11
737.36738750304175
 21
746.78902229187167
 31
0.0
  0
LINE
  5
36AA
  8
ﾃ_ﾌ_ﾙ
 10
780.36738750304175
 20
746.68902229187131
 30
0.0
 11
777.36738750304175
 21
746.68902229187165
 31
0.0
  0
LINE
  5
36AB
  8
ﾃ_ﾌ_ﾙ
 10
741.36738750304175
 20
746.68902229187165
 30
0.0
 11
738.36738750304175
 21
746.68902229187131
 31
0.0
  0
LINE
  5
36AC
  8
ﾃ_ﾌ_ﾙ
 10
738.36738750304175
 20
746.68902229187131
 30
0.0
 11
738.36738750304175
 21
646.78925180467024
 31
0.0
  0
LINE
  5
36AD
  8
ﾃ_ﾌ_ﾙ
 10
779.36738750304164
 20
646.78925180467024
 30
0.0
 11
779.36738750304175
 21
746.68902229187131
 31
0.0
  0
LINE
  5
36AE
  8
ﾃ_ﾌ_ﾙ0
 10
739.36738750304175
 20
746.68902229187131
 30
0.0
 11
739.36738750304175
 21
646.78925180467024
 31
0.0
  0
LINE
  5
36B3
  8
ﾃ_ﾌ_ﾙ0
 10
61.469526590057278
 20
396.78925180467041
 30
0.0
 11
61.469526590057278
 21
122.7892518046701
 31
0.0
  0
LINE
  5
36B4
  8
ﾃ_ﾌ_ﾙ0
 10
62.469526590057278
 20
121.7892518046701
 30
0.0
 11
103.4695265900573
 21
121.7892518046701
 31
0.0
  0
ARC
  5
36B5
  8
ﾃ_ﾌ_ﾙ0
 10
62.469526590057278
 20
122.7892518046701
 30
0.0
 40
1.0
 50
180.0
 51
270.0
1001
GENIUS_GENOBJ-N-FIL_13
1002
{
1000
OWNER
1000
GEN
1002
}
1001
GENIUS_GENODEF_13
1002
{
1000
HIER
1070
     0
1002
}
1002
{
1000
MANEDIT
1070
     0
1002
}
1002
{
1000
NOSEL
1070
     0
1002
}
1002
{
1000
BEHIND
1070
     0
1002
}
1002
{
1000
OTHER
1070
     0
1002
}
1002
{
1000
REACTOR
1002
}
  0
ARC
  5
36B6
  8
ﾃ_ﾌ_ﾙ0
 10
103.4695265900573
 20
122.7892518046701
 30
0.0
 40
1.0
 50
270.0
 51
0.0
1001
GENIUS_GENOBJ-N-FIL_13
1002
{
1000
OWNER
1000
GEN
1002
}
1001
GENIUS_GENODEF_13
1002
{
1000
HIER
1070
     0
1002
}
1002
{
1000
MANEDIT
1070
     0
1002
}
1002
{
1000
NOSEL
1070
     0
1002
}
1002
{
1000
BEHIND
1070
     0
1002
}
1002
{
1000
OTHER
1070
     0
1002
}
1002
{
1000
REACTOR
1002
}
  0
LINE
  5
36B7
  8
ﾃ_ﾌ_ﾙ0
 10
104.4695265900573
 20
122.7892518046701
 30
0.0
 11
104.4695265900573
 21
396.78925180467041
 31
0.0
  0
LINE
  5
36B8
  8
ﾃ_ﾌ_ﾙ0
 10
103.4695265900573
 20
396.78925180467007
 30
0.0
 11
103.4695265900573
 21
121.7892518046701
 31
0.0
  0
LINE
  5
36B9
  8
ﾃ_ﾌ_ﾙ0
 10
103.4695265900573
 20
131.78902229187179
 30
0.0
 11
62.469526590057278
 21
131.78902229187179
 31
0.0
  0
LINE
  5
36BA
  8
ﾃ_ﾌ_ﾙ0
 10
62.469526590057278
 20
121.7892518046701
 30
0.0
 11
62.469526590057278
 21
396.78925180467007
 31
0.0
  0
LINE
  5
36BB
  8
ﾃ_ﾌ_ﾙ0
 10
62.469526590057278
 20
131.78902229187179
 30
0.0
 11
61.469526590057278
 21
131.78902229187179
 31
0.0
  0
LINE
  5
36BC
  8
ﾃ_ﾌ_ﾙ0
 10
102.4695265900573
 20
396.78925180467007
 30
0.0
 11
102.4695265900573
 21
122.7892518046701
 31
0.0
  0
LINE
  5
36BD
  8
ﾃ_ﾌ_ﾙ0
 10
103.4695265900573
 20
122.7892518046701
 30
0.0
 11
62.469526590057278
 21
122.7892518046701
 31
0.0
  0
CIRCLE
  5
36BE
  8
ﾃ_ﾌ_ﾙ0
 10
82.969526590057285
 20
360.3890222918717
 30
0.0
 40
2.1000000000000001
  0
CIRCLE
  5
36BF
  8
ﾃ_ﾌ_ﾙ0
 10
82.969526590057285
 20
258.78902229187179
 30
0.0
 40
2.1000000000000001
  0
CIRCLE
  5
36C0
  8
ﾃ_ﾌ_ﾙ0
 10
82.969526590057285
 20
157.18902229187191
 30
0.0
 40
2.1000000000000001
  0
LINE
  5
36C1
  8
ボ_ルスライド0
 10
64.819526590057194
 20
406.78902229187179
 30
0.0
 11
100.1195265900574
 21
406.78902229187179
 31
0.0
  0
LINE
  5
36C2
  8
ボ_ルスライド0
 10
100.1195265900574
 20
762.3890222918717
 30
0.0
 11
64.819526590057194
 21
762.3890222918717
 31
0.0
  0
LINE
  5
36C3
  8
ﾃ_ﾌ_ﾙ
 10
103.4695265900573
 20
747.78902229187167
 30
0.0
 11
100.4695265900573
 21
747.78902229187202
 31
0.0
  0
LINE
  5
36C4
  8
ﾃ_ﾌ_ﾙ
 10
64.469526590057285
 20
747.78902229187202
 30
0.0
 11
61.469526590057278
 21
747.78902229187167
 31
0.0
  0
ARC
  5
36C5
  8
ﾃ_ﾌ_ﾙ
 10
103.4695265900573
 20
746.78902229187167
 30
0.0
 40
1.0
 50
0.0
 51
90.0
1001
GENIUS_GENOBJ-N-FIL_13
1002
{
1000
OWNER
1000
GEN
1002
}
1001
GENIUS_GENODEF_13
1002
{
1000
HIER
1070
     0
1002
}
1002
{
1000
MANEDIT
1070
     0
1002
}
1002
{
1000
NOSEL
1070
     0
1002
}
1002
{
1000
BEHIND
1070
     0
1002
}
1002
{
1000
OTHER
1070
     0
1002
}
1002
{
1000
REACTOR
1002
}
  0
LINE
  5
36C6
  8
ﾃ_ﾌ_ﾙ
 10
61.469526590057278
 20
747.78902229187167
 30
0.0
 11
61.469526590057278
 21
646.11212746020249
 31
0.0
  0
LINE
  5
36C7
  8
ﾃ_ﾌ_ﾙ
 10
104.4695265900573
 20
646.11212746020249
 30
0.0
 11
104.4695265900573
 21
746.78902229187167
 31
0.0
  0
LINE
  5
36C8
  8
ﾃ_ﾌ_ﾙ
 10
61.469526590057278
 20
746.68902229187131
 30
0.0
 11
64.469526590057285
 21
746.68902229187165
 31
0.0
  0
LINE
  5
36C9
  8
ﾃ_ﾌ_ﾙ
 10
100.4695265900573
 20
746.68902229187165
 30
0.0
 11
103.4695265900573
 21
746.68902229187131
 31
0.0
  0
LINE
  5
36CA
  8
ﾃ_ﾌ_ﾙ
 10
103.4695265900573
 20
746.68902229187131
 30
0.0
 11
103.4695265900573
 21
646.78925180467024
 31
0.0
  0
LINE
  5
36CB
  8
ﾃ_ﾌ_ﾙ
 10
62.469526590057278
 20
646.78925180467024
 30
0.0
 11
62.469526590057278
 21
746.68902229187131
 31
0.0
  0
LINE
  5
36CC
  8
ﾃ_ﾌ_ﾙ0
 10
102.4695265900573
 20
746.68902229187131
 30
0.0
 11
102.4695265900573
 21
646.78925180467024
 31
0.0
  0
LINE
  5
36CE
  8
ボ_ルスライド0
 10
100.1195265900574
 20
762.3890222918717
 30
0.0
 11
100.1195265900574
 21
406.78902229187179
 31
0.0
  0
LINE
  5
36CF
  8
ボ_ルスライド0
 10
64.819526590057194
 20
762.3890222918717
 30
0.0
 11
64.819526590057194
 21
406.78902229187179
 31
0.0
  0
INSERT
  5
36D4
  8
0
  2
取手正面
 10
418.35335399001258
 20
287.47699041611668
 30
0.0
  0
INSERT
  5
36D5
  8
0
  2
取手横
 10
742.86738698314571
 20
138.76164482918489
 30
0.0
 41
-1.0
 50
180.0
  0
INSERT
  5
36D6
  8
0
  2
取手上
 10
470.35335382183479
 20
393.79905367734767
 30
0.0
 50
90.0
  0
INSERT
  5
36D7
  8
ﾛｯｸ金具
  2
ロック金具凸
 10
430.35335345578773
 20
751.78902252891078
 30
0.0
 41
0.3333333333332575
 42
0.3333333333332575
 43
0.3333333333333333
 50
90.0
  0
INSERT
  5
36D8
  8
ﾛｯｸ金具
  2
ロック金具凹
 10
418.35335399001258
 20
747.78902229187167
 30
0.0
 50
90.0
  0
LINE
  5
36D9
  8
ﾃ_ﾌ_ﾙ
 10
953.62477783184022
 20
396.78902229187179
 30
0.0
 11
1386.62477783184
 21
396.78902229187179
 31
0.0
  0
LINE
  5
36DA
  8
ﾃ_ﾌ_ﾙ
 10
961.12477783184022
 20
747.78902229187167
 30
0.0
 11
1379.12477783184
 21
747.78902229187167
 31
0.0
  0
LINE
  5
36DB
  8
ﾃ_ﾌ_ﾙ
 10
952.62477783184033
 20
746.78902229187167
 30
0.0
 11
952.62477783184033
 21
397.78902229187179
 31
0.0
  0
LINE
  5
36DC
  8
ﾃ_ﾌ_ﾙ
 10
1387.62477783184
 20
397.78902229187179
 30
0.0
 11
1387.62477783184
 21
746.78902229187167
 31
0.0
  0
LINE
  5
36DD
  8
ﾃ_ﾌ_ﾙ
 10
1387.62477783184
 20
746.68902229187131
 30
0.0
 11
1387.62477783184
 21
407.38902229187158
 31
0.0
  0
ARC
  5
36DE
  8
ﾃ_ﾌ_ﾙ
 10
953.62477783184022
 20
397.78902229187179
 30
0.0
 40
1.0
 50
180.0
 51
270.0
1001
GENIUS_GENODEF_13
1002
{
1000
HIER
1070
     0
1002
}
1002
{
1000
MANEDIT
1070
     0
1002
}
1002
{
1000
NOSEL
1070
     0
1002
}
1002
{
1000
BEHIND
1070
     0
1002
}
1002
{
1000
REACTOR
1002
}
1001
GENIUS_GENOBJ-N-FIL_13
1002
{
1000
OWNER
1000
GEN
1002
}
  0
ARC
  5
36DF
  8
ﾃ_ﾌ_ﾙ
 10
1386.62477783184
 20
397.78902229187179
 30
0.0
 40
1.0
 50
270.0
 51
0.0
1001
GENIUS_GENODEF_13
1002
{
1000
HIER
1070
     0
1002
}
1002
{
1000
MANEDIT
1070
     0
1002
}
1002
{
1000
NOSEL
1070
     0
1002
}
1002
{
1000
BEHIND
1070
     0
1002
}
1002
{
1000
REACTOR
1002
}
1001
GENIUS_GENOBJ-N-FIL_13
1002
{
1000
OWNER
1000
GEN
1002
}
  0
LINE
  5
36E0
  8
ﾃ_ﾌ_ﾙ
 10
952.62477783184033
 20
746.68902229187131
 30
0.0
 11
952.62477783184033
 21
407.38902229187158
 31
0.0
  0
LINE
  5
36E1
  8
ﾃ_ﾌ_ﾙ
 10
1379.12477783184
 20
747.78902229187167
 30
0.0
 11
1379.12477783184
 21
746.78902229187167
 31
0.0
  0
LINE
  5
36E2
  8
ﾃ_ﾌ_ﾙ
 10
1379.0247778318401
 20
746.78902229187167
 30
0.0
 11
1387.62477783184
 21
746.78902229187167
 31
0.0
  0
LINE
  5
36E3
  8
ﾃ_ﾌ_ﾙ
 10
961.12477783184022
 20
747.78902229187167
 30
0.0
 11
961.12477783184022
 21
746.78902229187167
 31
0.0
  0
LINE
  5
36E4
  8
ﾃ_ﾌ_ﾙ
 10
961.22477783184013
 20
746.78902229187167
 30
0.0
 11
952.62477783184033
 21
746.78902229187167
 31
0.0
  0
LINE
  5
36E5
  8
ﾃ_ﾌ_ﾙ
 10
961.22477783184036
 20
746.78902229187167
 30
0.0
 11
1379.0247778318401
 21
746.78902229187167
 31
0.0
  0
LINE
  5
36E6
  8
ﾃ_ﾌ_ﾙ
 10
1387.62477783184
 20
406.78902229187179
 30
0.0
 11
952.62477783184033
 21
406.78902229187179
 31
0.0
  0
LINE
  5
36E7
  8
ﾃ_ﾌ_ﾙ0
 10
961.12477783184022
 20
397.78902229187179
 30
0.0
 11
961.12477783184022
 21
406.78902229187179
 31
0.0
  0
LINE
  5
36E8
  8
ﾃ_ﾌ_ﾙ0
 10
961.12477783184022
 20
406.78902229187202
 30
0.0
 11
961.12477783184022
 21
746.78902229187167
 31
0.0
  0
LINE
  5
36E9
  8
ﾃ_ﾌ_ﾙ
 10
962.12477783184022
 20
746.78902229187167
 30
0.0
 11
962.12477783184022
 21
406.78902229187219
 31
0.0
  0
LINE
  5
36EA
  8
ﾃ_ﾌ_ﾙ0
 10
962.12477783184022
 20
406.78902229187179
 30
0.0
 11
962.12477783184022
 21
397.78902229187179
 31
0.0
  0
LINE
  5
36EB
  8
ﾃ_ﾌ_ﾙ0
 10
1386.62477783184
 20
397.78902229187179
 30
0.0
 11
953.62477783184022
 21
397.78902229187179
 31
0.0
  0
LINE
  5
36EC
  8
ﾃ_ﾌ_ﾙ0
 10
953.62477783184022
 20
406.78902229187179
 30
0.0
 11
953.62477783184022
 21
397.78902229187179
 31
0.0
  0
LINE
  5
36ED
  8
ﾃ_ﾌ_ﾙ
 10
981.22477783184013
 20
746.78902229187167
 30
0.0
 11
981.22477783184013
 21
406.7890222918715
 31
0.0
  0
LINE
  5
36EE
  8
ﾃ_ﾌ_ﾙ0
 10
1379.12477783184
 20
397.78902229187179
 30
0.0
 11
1379.12477783184
 21
406.78902229187179
 31
0.0
  0
LINE
  5
36EF
  8
ﾃ_ﾌ_ﾙ0
 10
1379.12477783184
 20
406.78902229187202
 30
0.0
 11
1379.12477783184
 21
746.78902229187167
 31
0.0
  0
LINE
  5
36F0
  8
ﾃ_ﾌ_ﾙ
 10
1378.12477783184
 20
746.78902229187167
 30
0.0
 11
1378.12477783184
 21
406.78902229187202
 31
0.0
  0
LINE
  5
36F1
  8
ﾃ_ﾌ_ﾙ0
 10
1378.1247778318409
 20
406.78902229187179
 30
0.0
 11
1378.12477783184
 21
397.78902229187179
 31
0.0
  0
LINE
  5
36F2
  8
ﾃ_ﾌ_ﾙ0
 10
1386.62477783184
 20
406.78902229187179
 30
0.0
 11
1386.62477783184
 21
397.78902229187179
 31
0.0
  0
LINE
  5
36F3
  8
ﾃ_ﾌ_ﾙ
 10
1359.0247778318401
 20
746.78902229187167
 30
0.0
 11
1359.0247778318401
 21
406.7890222918715
 31
0.0
  0
LINE
  5
36F4
  8
ﾃ_ﾌ_ﾙ0
 10
962.12477783184022
 20
434.28902229187167
 30
0.0
 11
961.12477783184022
 21
434.28902229187167
 31
0.0
  0
LINE
  5
36F5
  8
ﾃ_ﾌ_ﾙ0
 10
962.12477783184022
 20
430.08902229187169
 30
0.0
 11
961.12477783184022
 21
430.08902229187169
 31
0.0
  0
LINE
  5
36F6
  8
ﾃ_ﾌ_ﾙ0
 10
962.12477783184022
 20
535.88902229187158
 30
0.0
 11
961.12477783184022
 21
535.88902229187158
 31
0.0
  0
LINE
  5
36F7
  8
ﾃ_ﾌ_ﾙ0
 10
962.12477783184022
 20
531.68902229187177
 30
0.0
 11
961.12477783184022
 21
531.68902229187177
 31
0.0
  0
LINE
  5
36F8
  8
ﾃ_ﾌ_ﾙ0
 10
962.12477783184022
 20
637.48902229187183
 30
0.0
 11
961.12477783184022
 21
637.48902229187183
 31
0.0
  0
LINE
  5
36F9
  8
ﾃ_ﾌ_ﾙ0
 10
962.12477783184022
 20
633.28902229187179
 30
0.0
 11
961.12477783184022
 21
633.28902229187179
 31
0.0
  0
LINE
  5
36FA
  8
ﾃ_ﾌ_ﾙ0
 10
1378.12477783184
 20
434.28902229187167
 30
0.0
 11
1379.12477783184
 21
434.28902229187167
 31
0.0
  0
LINE
  5
36FB
  8
ﾃ_ﾌ_ﾙ0
 10
1378.12477783184
 20
430.08902229187169
 30
0.0
 11
1379.12477783184
 21
430.08902229187169
 31
0.0
  0
LINE
  5
36FC
  8
ﾃ_ﾌ_ﾙ0
 10
1378.12477783184
 20
535.88902229187158
 30
0.0
 11
1379.12477783184
 21
535.88902229187158
 31
0.0
  0
LINE
  5
36FD
  8
ﾃ_ﾌ_ﾙ0
 10
1378.12477783184
 20
531.68902229187177
 30
0.0
 11
1379.12477783184
 21
531.68902229187177
 31
0.0
  0
LINE
  5
36FE
  8
ﾃ_ﾌ_ﾙ0
 10
1378.12477783184
 20
637.48902229187183
 30
0.0
 11
1379.12477783184
 21
637.48902229187183
 31
0.0
  0
LINE
  5
36FF
  8
ﾃ_ﾌ_ﾙ0
 10
1378.12477783184
 20
633.28902229187179
 30
0.0
 11
1379.12477783184
 21
633.28902229187179
 31
0.0
  0
LINE
  5
3700
  8
ﾃ_ﾌ_ﾙ0
 10
1181.87477783184
 20
747.78902229187167
 30
0.0
 11
1181.87477783184
 21
746.78902229187167
 31
0.0
  0
LINE
  5
3701
  8
ﾃ_ﾌ_ﾙ0
 10
1178.37477783184
 20
747.78902229187167
 30
0.0
 11
1178.37477783184
 21
746.78902229187167
 31
0.0
  0
LINE
  5
3702
  8
ﾃ_ﾌ_ﾙ0
 10
1161.87477783184
 20
747.78902229187167
 30
0.0
 11
1161.87477783184
 21
746.78902229187167
 31
0.0
  0
LINE
  5
3703
  8
ﾃ_ﾌ_ﾙ0
 10
1158.37477783184
 20
747.78902229187167
 30
0.0
 11
1158.37477783184
 21
746.78902229187167
 31
0.0
  0
LINE
  5
3704
  8
ﾃ_ﾌ_ﾙ0
 10
1218.87477783184
 20
397.78902229187179
 30
0.0
 11
1218.87477783184
 21
396.78902229187179
 31
0.0
  0
LINE
  5
3705
  8
ﾃ_ﾌ_ﾙ0
 10
1121.37477783184
 20
396.78902229187179
 30
0.0
 11
1121.37477783184
 21
397.78902229187179
 31
0.0
  0
LINE
  5
3706
  8
ﾃ_ﾌ_ﾙ0
 10
1378.12477783184
 20
434.28902229187167
 30
0.0
 11
1379.12477783184
 21
434.28902229187167
 31
0.0
  0
LINE
  5
3707
  8
ﾃ_ﾌ_ﾙ0
 10
1378.12477783184
 20
430.08902229187169
 30
0.0
 11
1379.12477783184
 21
430.08902229187169
 31
0.0
  0
LINE
  5
3708
  8
ﾃ_ﾌ_ﾙ0
 10
1378.12477783184
 20
535.88902229187158
 30
0.0
 11
1379.12477783184
 21
535.88902229187158
 31
0.0
  0
LINE
  5
3709
  8
ﾃ_ﾌ_ﾙ0
 10
1378.12477783184
 20
531.68902229187177
 30
0.0
 11
1379.12477783184
 21
531.68902229187177
 31
0.0
  0
LINE
  5
370A
  8
ﾃ_ﾌ_ﾙ0
 10
1378.12477783184
 20
637.48902229187183
 30
0.0
 11
1379.12477783184
 21
637.48902229187183
 31
0.0
  0
LINE
  5
370B
  8
ﾃ_ﾌ_ﾙ0
 10
1378.12477783184
 20
633.28902229187179
 30
0.0
 11
1379.12477783184
 21
633.28902229187179
 31
0.0
  0
INSERT
  5
3713
  8
0
  2
取手上
 10
1118.1247780000181
 20
393.79905367734767
 30
0.0
 41
-1.0
 50
270.0
  0
INSERT
  5
3714
  8
ﾛｯｸ金具
  2
ロック金具凸
 10
1158.1247783660649
 20
751.78902252891078
 30
0.0
 41
-0.3333333333332575
 42
0.3333333333332575
 43
0.3333333333333333
 50
270.0
  0
INSERT
  5
3715
  8
ﾛｯｸ金具
  2
ロック金具凹
 10
1170.12477783184
 20
747.78902229187167
 30
0.0
 41
-1.0
 50
270.0
  0
INSERT
  5
3716
  8
保護スポンジ
  2
保護スポンジ
 10
1378.1247755555789
 20
398.28902573163077
 30
0.0
 50
90.0
  0
INSERT
  5
3717
  8
保護スポンジ
  2
保護スポンジ
 10
962.12478010810082
 20
398.28902573163077
 30
0.0
 41
-1.0
 50
270.0
  0
INSERT
  5
3718
  8
0
  2
取手横
 10
98.969527109953106
 20
138.76164482918489
 30
0.0
 50
180.0
  0
INSERT
  5
3787
  8
AM_5
  2
*S66
 10
0.0
 20
0.0
 30
0.0
  0
DIMENSION
  5
37C6
  8
AM_5
  2
*D17
 10
683.4969986879496
 20
773.78902229187179
 30
0.0
 11
675.49581758558713
 21
760.7890222918719
 31
0.0
 70
     0
 13
627.35335399001258
 23
747.78902229187167
 33
0.0
 14
636.55335399001274
 24
773.78902229187179
 34
0.0
 50
90.0
1001
ACAD
1000
DSTYLE
1002
{
1070
   140
1040
3.0
1070
    41
1040
1.5
1070
    40
1040
4.0
1070
   147
1040
0.5
1002
}
  0
DIMENSION
  5
3A1D
  8
AM_5
  2
*D18
 10
163.6009262977623
 20
258.57699041611681
 30
0.0
 11
164.77573589314491
 21
230.78657175754961
 31
0.0
 70
   128
 13
179.05335399001271
 23
252.47699041611671
 33
0.0
 14
182.80335399001271
 24
258.57699041611681
 34
0.0
 50
90.000000000000028
1001
ACAD
1000
DSTYLE
1002
{
1070
   287
1070
     4
1070
   279
1070
     1
1070
    40
1040
4.0
1070
    41
1040
1.5
1070
   140
1040
3.0
1070
   147
1040
0.5
1002
}
  0
DIMENSION
  5
3A4B
  8
AM_5
  2
*D19
 10
163.60092629776219
 20
258.57699041611681
 30
0.0
 11
155.60092629776219
 21
274.47699041611679
 31
0.0
 70
     0
 13
182.80335399001271
 23
290.37699041611683
 33
0.0
 14
182.80335399001271
 24
258.57699041611681
 34
0.0
 50
90.0
1001
ACAD
1000
DSTYLE
1002
{
1070
    40
1040
4.0
1070
    41
1040
1.5
1070
   140
1040
3.0
1070
   147
1040
0.5
1002
}
  0
DIMENSION
  5
3A81
  8
AM_5
  2
*D20
 10
163.60092629776219
 20
290.37699041611683
 30
0.0
 11
161.4570081861402
 21
318.8475114428802
 31
0.0
 70
   128
 13
179.05335399001271
 23
296.47699041611668
 33
0.0
 14
182.80335399001271
 24
290.37699041611683
 34
0.0
 50
90.0
1001
ACAD
1000
DSTYLE
1002
{
1070
   287
1070
     4
1070
    40
1040
4.0
1070
    41
1040
1.5
1070
   140
1040
3.0
1070
   147
1040
0.5
1070
   279
1070
     1
1002
}
  0
DIMENSION
  5
3AC9
  8
AM_5
  2
*D21
 10
142.5292512177038
 20
296.47699041611679
 30
0.0
 11
134.5292512177038
 21
274.47699041611679
 31
0.0
 70
     0
 13
179.05335399001271
 23
252.47699041611671
 33
0.0
 14
179.05335399001271
 24
296.47699041611679
 34
0.0
 50
90.000000000000028
1001
ACAD
1000
DSTYLE
1002
{
1070
    40
1040
4.0
1070
    41
1040
1.5
1070
   140
1040
3.0
1070
   147
1040
0.5
1002
}
  0
DIMENSION
  5
3CD2
  8
AM_5
  2
*D22
 10
199.85335399001269
 20
204.47699041611659
 30
0.0
 11
150.99893699272431
 21
199.4533307536912
 31
0.0
 70
   128
 13
177.05335399001271
 23
254.47699041611671
 33
0.0
 14
199.85335399001269
 24
252.47699041611671
 34
0.0
1001
ACAD
1000
DSTYLE
1002
{
1070
   287
1070
     4
1070
    40
1040
4.0
1070
    41
1040
1.5
1070
   140
1040
3.0
1070
   147
1040
0.5
1070
   279
1070
     1
1002
}
  0
DIMENSION
  5
3D00
  8
AM_5
  2
*D23
 10
200.85335399001269
 20
204.47699041611659
 30
0.0
 11
209.91676137394279
 21
204.2346776758213
 31
0.0
 70
   128
 13
199.85335399001269
 23
252.47699041611671
 33
0.0
 14
200.85335399001269
 24
252.97699041611671
 34
0.0
1001
ACAD
1000
DSTYLE
1002
{
1070
   287
1070
     4
1070
    40
1040
4.0
1070
    41
1040
1.5
1070
   140
1040
3.0
1070
   147
1040
0.5
1070
   279
1070
     1
1002
}
  0
DIMENSION
  5
3D36
  8
AM_5
  2
*D24
 10
635.85335399001281
 20
204.4769904161171
 30
0.0
 11
418.35335399001269
 21
212.4769904161171
 31
0.0
 70
     0
 13
200.85335399001269
 23
252.97699041611671
 33
0.0
 14
635.85335399001281
 24
252.97699041611671
 34
0.0
1001
ACAD
1000
DSTYLE
1002
{
1070
   287
1070
     4
1070
    40
1040
4.0
1070
    41
1040
1.5
1070
   140
1040
3.0
1070
   147
1040
0.5
1070
   279
1070
     1
1002
}
  0
DIMENSION
  5
3D52
  8
AM_5
  2
*D25
 10
636.85335399001247
 20
204.4769904161177
 30
0.0
 11
625.51487937160152
 21
204.19564987973899
 31
0.0
 70
   128
 13
635.85335399001258
 23
252.97699041611671
 33
0.0
 14
636.85335399001247
 24
252.47699041611671
 34
0.0
1001
ACAD
1000
DSTYLE
1002
{
1070
   287
1070
     4
1070
    40
1040
4.0
1070
    41
1040
1.5
1070
   140
1040
3.0
1070
   147
1040
0.5
1070
   279
1070
     1
1002
}
  0
DIMENSION
  5
3D72
  8
AM_5
  2
*D26
 10
659.65335399001265
 20
204.4769904161177
 30
0.0
 11
686.054477783533
 21
202.6824616920749
 31
0.0
 70
   128
 13
636.85335399001269
 23
252.47699041611671
 33
0.0
 14
659.65335399001265
 24
254.47699041611671
 34
0.0
1001
ACAD
1000
DSTYLE
1002
{
1070
   287
1070
     4
1070
    40
1040
4.0
1070
    41
1040
1.5
1070
   140
1040
3.0
1070
   147
1040
0.5
1070
   279
1070
     1
1002
}
  0
DIMENSION
  5
3E2C
  8
AM_5
  2
*D27
 10
185.05335399001271
 20
223.24265158205429
 30
0.0
 11
189.3498625249685
 21
223.03601488901859
 31
0.0
 70
   128
 13
177.05335399001271
 23
254.47699041611671
 33
0.0
 14
185.05335399001271
 24
255.3269904161167
 34
0.0
1001
ACAD
1000
DSTYLE
1002
{
1070
   287
1070
     4
1070
    40
1040
4.0
1070
    41
1040
1.5
1070
   140
1040
3.0
1070
   147
1040
0.5
1070
   279
1070
     1
1002
}
  0
DIMENSION
  5
3E73
  8
AM_5
  2
*D28
 10
182.8033539900124
 20
258.5769904161163
 30
0.0
 11
271.29651250338782
 21
225.2358527520544
 31
0.0
 70
   132
  1
4-6.5×11長穴
 15
185.31481271097169
 25
256.51420707971931
 35
0.0
 40
0.0
1001
ACAD
1000
DSTYLE
1002
{
1070
   140
1040
3.0
1070
    40
1040
4.0
1070
   147
1040
0.5
1002
}
  0
DIMENSION
  5
3FE1
  8
AM_5
  2
*D29
 10
720.30089223525283
 20
396.78925180467007
 30
0.0
 11
707.29951428249683
 21
521.78925180467024
 31
0.0
 70
     0
 13
739.36738750304175
 23
646.78925180467024
 33
0.0
 14
736.86738750304175
 24
396.78925180467007
 34
0.0
 50
90.0
1001
ACAD
1000
DSTYLE
1002
{
1070
    40
1040
4.0
1002
}
  0
DIMENSION
  5
3FFC
  8
AM_5
  2
*D30
 10
846.86738850304187
 20
747.78925180467002
 30
0.0
 11
838.86738850304187
 21
572.28925180467024
 31
0.0
 70
     0
 13
780.86738750304175
 23
396.78925180467007
 33
0.0
 14
780.86738750308746
 24
747.78925180467002
 34
0.0
 50
90.0
1001
ACAD
1000
DSTYLE
1002
{
1070
    40
1040
4.0
1070
    41
1040
1.5
1070
   140
1040
3.0
1070
   147
1040
0.5
1002
}
  0
DIMENSION
  5
3FFD
  8
AM_5
  2
*D31
 10
816.86738850304175
 20
773.78925180467002
 30
0.0
 11
808.8662074006794
 21
760.78925180467024
 31
0.0
 70
     0
 13
780.86738750308746
 23
747.78925180467002
 33
0.0
 14
778.36738750304187
 24
773.78925180467002
 34
0.0
 50
90.0
1001
ACAD
1000
DSTYLE
1002
{
1070
    40
1040
4.0
1070
    41
1040
1.5
1070
   140
1040
3.0
1070
   147
1040
0.5
1002
}
  0
DIMENSION
  5
3FFE
  8
AM_5
  2
*D32
 10
876.867388503043
 20
773.78925180467002
 30
0.0
 11
868.86738850304266
 21
585.28925180467024
 31
0.0
 70
     0
 13
780.86738750304175
 23
396.78925180467007
 33
0.0
 14
778.36738750304187
 24
773.78925180467002
 34
0.0
 50
90.0
1001
ACAD
1000
DSTYLE
1002
{
1070
    40
1040
4.0
1070
    41
1040
1.5
1070
   140
1040
3.0
1070
   147
1040
0.5
1002
}
  0
DIMENSION
  5
3FFF
  8
AM_5
  2
*D33
 10
816.86738850304334
 20
435.3892518046701
 30
0.0
 11
808.86738850304323
 21
416.0892518046702
 31
0.0
 70
     0
 13
780.86738750304175
 23
396.78925180467007
 33
0.0
 14
758.86738750304175
 24
435.3892518046701
 34
0.0
 50
90.0
1001
ACAD
1000
DSTYLE
1002
{
1070
    40
1040
4.0
1070
    41
1040
1.5
1070
   140
1040
3.0
1070
   147
1040
0.5
1002
}
  0
DIMENSION
  5
4000
  8
AM_5
  2
*D34
 10
816.86738850304334
 20
533.7892518046699
 30
0.0
 11
808.86738850304312
 21
484.5892518046702
 31
0.0
 70
     0
 13
758.86738750304175
 23
435.38925180467021
 33
0.0
 14
758.86738750304175
 24
533.78925180467013
 34
0.0
 50
90.0
1001
ACAD
1000
DSTYLE
1002
{
1070
    40
1040
4.0
1070
    41
1040
1.5
1070
   140
1040
3.0
1070
   147
1040
0.5
1002
}
  0
DIMENSION
  5
4001
  8
AM_5
  2
*D35
 10
816.86738850304289
 20
622.68925180466999
 30
0.0
 11
808.86738850304289
 21
578.23925180467029
 31
0.0
 70
     0
 13
758.86738750304175
 23
533.78925180467013
 33
0.0
 14
758.86738750304175
 24
622.68925180467022
 34
0.0
 50
90.0
1001
ACAD
1000
DSTYLE
1002
{
1070
    40
1040
4.0
1070
    41
1040
1.5
1070
   140
1040
3.0
1070
   147
1040
0.5
1002
}
  0
DIMENSION
  5
4002
  8
AM_5
  2
*D36
 10
816.86738850304289
 20
646.78925180467002
 30
0.0
 11
808.86620740068054
 21
666.9416140093947
 31
0.0
 70
     0
 13
758.86738750304175
 23
622.68925180467022
 33
0.0
 14
780.86738750304175
 24
646.78925180467002
 34
0.0
 50
90.0
1001
ACAD
1000
DSTYLE
1002
{
1070
    40
1040
4.0
1070
    41
1040
1.5
1070
   140
1040
3.0
1070
   147
1040
0.5
1002
}
  0
DIMENSION
  5
4003
  8
AM_5
  2
*D37
 10
780.86738750304175
 20
682.78925180467002
 30
0.0
 11
769.31017352697927
 21
682.78925180467002
 31
0.0
 70
   128
 13
758.86738750304175
 23
622.68925180467022
 33
0.0
 14
780.86738750304175
 24
646.78925180467002
 34
0.0
 50
180.0
1001
ACAD
1000
DSTYLE
1002
{
1070
    40
1040
4.0
1070
    41
1040
1.5
1070
   140
1040
3.0
1070
   147
1040
0.5
1002
}
  0
DIMENSION
  5
4004
  8
AM_5
  2
*D38
 10
816.86738750304187
 20
121.78925180467
 30
0.0
 11
808.86620640067974
 21
259.28925180467019
 31
0.0
 70
     0
  1
トラベル<>
 13
780.86738750304175
 23
396.78925180467007
 33
0.0
 14
779.36738750304175
 24
121.78925180467
 34
0.0
 50
90.0
1001
ACAD
1000
DSTYLE
1002
{
1070
    40
1040
4.0
1070
    41
1040
1.5
1070
   140
1040
3.0
1070
   147
1040
0.5
1002
}
  0
INSERT
  5
4194
  8
AM_12
  2
*S67
 10
0.0
 20
0.0
 30
0.0
  0
INSERT
  5
4195
  8
AM_12
  2
*S68
 10
0.0
 20
0.0
 30
0.0
  0
INSERT
  5
4196
  8
AM_12
  2
*S69
 10
0.0
 20
0.0
 30
0.0
  0
INSERT
  5
419E
  8
0
  2
*S70
 10
0.0
 20
0.0
 30
0.0
  0
INSERT
  5
43A1
  8
ﾋ_ｽ
  2
バインドM4_6
 10
1051.6174822743999
 20
268.99771514106811
 30
0.0
  0
INSERT
  5
43B9
  8
ﾋ_ｽ
  2
バインドM4_6ヨコ
 10
1086.8309844541709
 20
268.99771514106811
 30
0.0
  0
INSERT
  5
446E
  8
ﾋ_ｽ
  2
サラM3_5
 10
1419.9143883855261
 20
268.99771514106811
 30
0.0
  0
INSERT
  5
4493
  8
ﾋ_ｽ
  2
サラM3_5ヨコ
 10
1441.026392802748
 20
268.99771514106811
 30
0.0
  0
INSERT
  5
44AE
  8
ﾋ_ｽ
  2
バインドM3_5
 10
1300.4116294267701
 20
268.99771514106811
 30
0.0
  0
INSERT
  5
44D0
  8
ﾋ_ｽ
  2
バインドM3_5ヨコ
 10
1334.6251316065409
 20
268.99771514106811
 30
0.0
  0
INSERT
  5
44E8
  8
AM_12
  2
*S71
 10
0.0
 20
0.0
 30
0.0
  0
INSERT
  5
474D
  8
ﾋ_ｽ
  2
ナットM4
 10
1181.0167903729271
 20
268.99771514106811
 30
0.0
  0
INSERT
  5
4766
  8
ﾋ_ｽ
  2
ナットM4ヨコ
 10
1204.245348576781
 20
268.997715141068
 30
0.0
  0
INSERT
  5
4768
  8
AM_5
  2
*S72
 10
0.0
 20
0.0
 30
0.0
  0
INSERT
  5
4769
  8
AM_5
  2
*S73
 10
0.0
 20
0.0
 30
0.0
  0
INSERT
  5
476A
  8
AM_5
  2
*S74
 10
0.0
 20
0.0
 30
0.0
  0
INSERT
  5
476B
  8
AM_5
  2
*S75
 10
0.0
 20
0.0
 30
0.0
  0
INSERT
  5
4782
  8
AM_7N
  2
*U134
 10
0.0
 20
0.0
 30
0.0
  0
INSERT
  5
4784
  8
AM_7N
  2
*U135
 10
0.0
 20
0.0
 30
0.0
  0
INSERT
  5
478F
  8
AM_7N
  2
*U137
 10
0.0
 20
0.0
 30
0.0
  0
LINE
  5
4837
  8
ﾃ_ﾌ_ﾙ
 10
635.85335399001258
 20
925.82889508723656
 30
0.0
 11
200.85335399001269
 21
925.82889508723656
 31
0.0
  0
LINE
  5
4838
  8
ﾃ_ﾌ_ﾙ
 10
635.85335399001258
 20
925.82889508723656
 30
0.0
 11
635.85335399001258
 21
928.22889508723654
 31
0.0
  0
LINE
  5
4839
  8
ﾃ_ﾌ_ﾙ0
 10
200.85335399001269
 20
926.82889508723645
 30
0.0
 11
627.35335399001258
 21
926.82889508723645
 31
0.0
  0
LINE
  5
483A
  8
ﾃ_ﾌ_ﾙ
 10
627.35335399001258
 20
967.82889508723645
 30
0.0
 11
627.35335399001258
 21
967.42889508723692
 31
0.0
  0
ARC
  5
483B
  8
ﾃ_ﾌ_ﾙ0
 10
626.35335399001269
 20
927.82889508723645
 30
0.0
 40
1.0
 50
270.0
 51
0.0
1001
GENIUS_GENOBJ-N-FIL_13
1002
{
1000
OWNER
1000
GEN
1002
}
1001
GENIUS_GENODEF_13
1002
{
1000
HIER
1070
     0
1002
}
1002
{
1000
MANEDIT
1070
     0
1002
}
1002
{
1000
NOSEL
1070
     0
1002
}
1002
{
1000
BEHIND
1070
     0
1002
}
1002
{
1000
OTHER
1070
     0
1002
}
1002
{
1000
REACTOR
1002
}
  0
LINE
  5
483C
  8
ﾃ_ﾌ_ﾙ0
 10
607.2533539900129
 20
926.82889508723645
 30
0.0
 11
607.2533539900129
 21
927.82889508723645
 31
0.0
  0
LINE
  5
483D
  8
ﾃ_ﾌ_ﾙ0
 10
607.2533539900129
 20
927.82889508723645
 30
0.0
 11
626.35335399001269
 21
927.82889508723645
 31
0.0
  0
LINE
  5
483E
  8
ﾃ_ﾌ_ﾙ0
 10
626.35335399001269
 20
927.82889508723645
 30
0.0
 11
626.35335399001269
 21
928.22889508723654
 31
0.0
  0
LINE
  5
483F
  8
ﾃ_ﾌ_ﾙ
 10
200.85335399001269
 20
968.82889508723645
 30
0.0
 11
635.85335399001258
 21
968.82889508723645
 31
0.0
  0
ARC
  5
4840
  8
ﾃ_ﾌ_ﾙ0
 10
627.35335399001315
 20
967.82889508723645
 30
0.0
 40
1.0
 50
90.0
 51
180.0
1001
GENIUS_GENOBJ-N-FIL_13
1002
{
1000
OWNER
1000
GEN
1002
}
1001
GENIUS_GENODEF_13
1002
{
1000
HIER
1070
     0
1002
}
1002
{
1000
MANEDIT
1070
     0
1002
}
1002
{
1000
NOSEL
1070
     0
1002
}
1002
{
1000
BEHIND
1070
     0
1002
}
1002
{
1000
OTHER
1070
     0
1002
}
1002
{
1000
REACTOR
1002
}
  0
LINE
  5
4841
  8
ﾃ_ﾌ_ﾙ
 10
634.85335399001269
 20
926.82889508723645
 30
0.0
 11
634.85335399001258
 21
928.22889508723654
 31
0.0
  0
LINE
  5
4846
  8
ﾃ_ﾌ_ﾙ
 10
627.35335399001315
 20
967.82889508723645
 30
0.0
 11
635.85335399001281
 21
967.82889508723667
 31
0.0
  0
LINE
  5
4847
  8
ﾃ_ﾌ_ﾙ
 10
627.35335399001258
 20
926.82889508723645
 30
0.0
 11
635.85335399001281
 21
926.82889508723667
 31
0.0
  0
LINE
  5
4848
  8
ﾃ_ﾌ_ﾙ
 10
200.85335399001269
 20
925.82889508723656
 30
0.0
 11
200.85335399001269
 21
928.22889508723654
 31
0.0
  0
LINE
  5
4849
  8
ﾃ_ﾌ_ﾙ
 10
209.35335399001269
 20
967.82889508723645
 30
0.0
 11
209.35335399001269
 21
967.42889508723692
 31
0.0
  0
ARC
  5
484A
  8
ﾃ_ﾌ_ﾙ0
 10
210.35335399001269
 20
927.82889508723645
 30
0.0
 40
1.0
 50
180.0
 51
270.0
1001
GENIUS_GENOBJ-N-FIL_13
1002
{
1000
OWNER
1000
GEN
1002
}
1001
GENIUS_GENODEF_13
1002
{
1000
HIER
1070
     0
1002
}
1002
{
1000
MANEDIT
1070
     0
1002
}
1002
{
1000
NOSEL
1070
     0
1002
}
1002
{
1000
BEHIND
1070
     0
1002
}
1002
{
1000
OTHER
1070
     0
1002
}
1002
{
1000
REACTOR
1002
}
  0
LINE
  5
484B
  8
ﾃ_ﾌ_ﾙ0
 10
229.45335399001249
 20
926.82889508723645
 30
0.0
 11
229.45335399001249
 21
927.82889508723645
 31
0.0
  0
LINE
  5
484C
  8
ﾃ_ﾌ_ﾙ0
 10
229.45335399001249
 20
927.82889508723645
 30
0.0
 11
210.35335399001261
 21
927.82889508723645
 31
0.0
  0
LINE
  5
484D
  8
ﾃ_ﾌ_ﾙ0
 10
210.35335399001261
 20
927.82889508723645
 30
0.0
 11
210.35335399001261
 21
928.22889508723654
 31
0.0
  0
ARC
  5
484E
  8
ﾃ_ﾌ_ﾙ0
 10
209.35335399001221
 20
967.82889508723645
 30
0.0
 40
1.0
 50
0.0
 51
90.0
1001
GENIUS_GENOBJ-N-FIL_13
1002
{
1000
OWNER
1000
GEN
1002
}
1001
GENIUS_GENODEF_13
1002
{
1000
HIER
1070
     0
1002
}
1002
{
1000
MANEDIT
1070
     0
1002
}
1002
{
1000
NOSEL
1070
     0
1002
}
1002
{
1000
BEHIND
1070
     0
1002
}
1002
{
1000
OTHER
1070
     0
1002
}
1002
{
1000
REACTOR
1002
}
  0
LINE
  5
484F
  8
ﾃ_ﾌ_ﾙ
 10
201.85335399001269
 20
926.82889508723645
 30
0.0
 11
201.85335399001269
 21
928.22889508723654
 31
0.0
  0
LINE
  5
4852
  8
ﾃ_ﾌ_ﾙ
 10
209.35335399001221
 20
967.82889508723645
 30
0.0
 11
200.85335399001261
 21
967.82889508723667
 31
0.0
  0
LINE
  5
4853
  8
ﾃ_ﾌ_ﾙ
 10
209.35335399001269
 20
926.82889508723645
 30
0.0
 11
200.85335399001261
 21
926.82889508723667
 31
0.0
  0
LINE
  5
493D
  8
補強金具
 10
639.15335399001276
 20
929.82889508723645
 30
0.0
 11
639.15335399001276
 21
965.82889508723656
 31
0.0
  0
LINE
  5
493E
  8
補強金具
 10
639.15335399001276
 20
929.82889508723645
 30
0.0
 11
636.35335399001258
 21
929.82889508723645
 31
0.0
  0
LINE
  5
493F
  8
補強金具
 10
636.35335399001258
 20
929.82889508723645
 30
0.0
 11
200.35335399001269
 21
929.82889508723645
 31
0.0
  0
LINE
  5
4940
  8
補強金具
 10
200.35335399001269
 20
929.82889508723645
 30
0.0
 11
197.55335399001271
 21
929.82889508723645
 31
0.0
  0
LINE
  5
4941
  8
補強金具
 10
639.15335399001276
 20
965.82889508723656
 30
0.0
 11
636.35335399001258
 21
965.82889508723656
 31
0.0
  0
LINE
  5
4942
  8
補強金具
 10
636.35335399001258
 20
965.82889508723656
 30
0.0
 11
200.35335399001269
 21
965.82889508723656
 31
0.0
  0
LINE
  5
4943
  8
補強金具
 10
200.35335399001269
 20
965.82889508723656
 30
0.0
 11
197.55335399001271
 21
965.82889508723656
 31
0.0
  0
LINE
  5
4944
  8
補強金具
 10
636.35335399001258
 20
967.42889508723658
 30
0.0
 11
200.35335399001269
 21
967.42889508723658
 31
0.0
  0
LINE
  5
4945
  8
補強金具
 10
636.35335399001258
 20
928.22889508723654
 30
0.0
 11
200.35335399001269
 21
928.22889508723654
 31
0.0
  0
LINE
  5
4946
  8
補強金具
 10
197.55335399001271
 20
965.82889508723656
 30
0.0
 11
197.55335399001271
 21
929.82889508723645
 31
0.0
  0
LINE
  5
4947
  8
補強金具0
 10
199.15335399001279
 20
965.82889508723656
 30
0.0
 11
199.15335399001279
 21
929.82889508723645
 31
0.0
  0
LINE
  5
4948
  8
補強金具
 10
200.35335399001269
 20
967.42889508723658
 30
0.0
 11
200.35335399001269
 21
965.82889508723656
 31
0.0
  0
LINE
  5
4949
  8
補強金具
 10
200.35335399001269
 20
929.82889508723645
 30
0.0
 11
200.35335399001269
 21
928.22889508723654
 31
0.0
  0
LINE
  5
494A
  8
補強金具0
 10
637.55335399001285
 20
929.82889508723645
 30
0.0
 11
637.55335399001285
 21
965.82889508723656
 31
0.0
  0
LINE
  5
494B
  8
補強金具
 10
636.35335399001258
 20
928.22889508723654
 30
0.0
 11
636.35335399001258
 21
929.82889508723645
 31
0.0
  0
LINE
  5
494C
  8
補強金具
 10
636.35335399001258
 20
965.82889508723656
 30
0.0
 11
636.35335399001258
 21
967.42889508723658
 31
0.0
  0
CIRCLE
  5
494D
  8
補強金具0
 10
410.35335399001258
 20
947.82889508723656
 30
0.0
 40
1.5
  0
CIRCLE
  5
494E
  8
補強金具
 10
410.35335399001258
 20
947.82889508723656
 30
0.0
 40
1.3
  0
CIRCLE
  5
494F
  8
補強金具0
 10
426.35335399001269
 20
947.82889508723656
 30
0.0
 40
1.5
  0
CIRCLE
  5
4950
  8
補強金具
 10
426.35335399001269
 20
947.82889508723656
 30
0.0
 40
1.3
  0
LINE
  5
4951
  8
ﾃ_ﾌ_ﾙ0
 10
210.35335399001221
 20
967.42889508723692
 30
0.0
 11
210.35335399001221
 21
967.82889508723645
 31
0.0
  0
LINE
  5
4952
  8
ﾃ_ﾌ_ﾙ
 10
209.35335399001269
 20
928.22889508723654
 30
0.0
 11
209.35335399001269
 21
926.82889508723667
 31
0.0
  0
LINE
  5
4953
  8
ﾃ_ﾌ_ﾙ
 10
201.85335399001269
 20
967.42889508723681
 30
0.0
 11
201.85335399001269
 21
967.82889508723645
 31
0.0
  0
LINE
  5
4954
  8
ﾃ_ﾌ_ﾙ
 10
200.85335399001269
 20
967.42889508723658
 30
0.0
 11
200.85335399001269
 21
968.82889508723645
 31
0.0
  0
LINE
  5
4955
  8
ﾃ_ﾌ_ﾙ
 10
627.35335399001258
 20
928.22889508723654
 30
0.0
 11
627.35335399001258
 21
926.82889508723667
 31
0.0
  0
LINE
  5
4956
  8
ﾃ_ﾌ_ﾙ0
 10
626.35335399001315
 20
967.42889508723692
 30
0.0
 11
626.35335399001315
 21
967.82889508723645
 31
0.0
  0
LINE
  5
4957
  8
ﾃ_ﾌ_ﾙ
 10
634.85335399001258
 20
967.42889508723681
 30
0.0
 11
634.85335399001269
 21
967.82889508723645
 31
0.0
  0
LINE
  5
4958
  8
ﾃ_ﾌ_ﾙ
 10
635.85335399001258
 20
967.42889508723658
 30
0.0
 11
635.85335399001258
 21
968.82889508723645
 31
0.0
  0
LINE
  5
495F
  8
右側板
 10
636.85335399001269
 20
969.32889508723656
 30
0.0
 11
636.85335399001247
 21
965.82889508723645
 31
0.0
  0
LINE
  5
4965
  8
右側板
 10
639.15335399001265
 20
969.32889508723656
 30
0.0
 11
639.15335399001265
 21
925.32889508723645
 31
0.0
  0
LINE
  5
496B
  8
左側板
 10
197.5533539900126
 20
969.32889508723656
 30
0.0
 11
197.5533539900126
 21
925.32889508723645
 31
0.0
  0
LINE
  5
4971
  8
左側板
 10
199.85335399001261
 20
969.32889508723656
 30
0.0
 11
199.85335399001261
 21
965.82889508723656
 31
0.0
  0
LINE
  5
498C
  8
右側板
 10
639.15335399001265
 20
925.32889508723645
 30
0.0
 11
636.85335399001269
 21
925.32889508723645
 31
0.0
  0
LINE
  5
4996
  8
右側板
 10
639.15335399001265
 20
969.32889508723656
 30
0.0
 11
636.85335399001269
 21
969.32889508723656
 31
0.0
  0
LINE
  5
4997
  8
左側板
 10
199.85335399001261
 20
969.32889508723656
 30
0.0
 11
197.5533539900126
 21
969.32889508723656
 31
0.0
  0
LINE
  5
4998
  8
左側板
 10
199.85335399001261
 20
925.32889508723645
 30
0.0
 11
197.5533539900126
 21
925.32889508723645
 31
0.0
  0
LINE
  5
4999
  8
右側板
 10
636.85335399001247
 20
929.82889508723645
 30
0.0
 11
636.85335399001269
 21
925.32889508723645
 31
0.0
  0
LINE
  5
499A
  8
左側板
 10
199.85335399001261
 20
929.82889508723645
 30
0.0
 11
199.85335399001261
 21
925.32889508723645
 31
0.0
  0
LINE
  5
49D6
  8
左側板
 10
177.05335399001271
 20
927.32889508723656
 30
0.0
 11
177.05335399001271
 21
967.32889508723645
 31
0.0
  0
LINE
  5
49D7
  8
左側板
 10
179.05335399001271
 20
969.32889508723656
 30
0.0
 11
199.85335399001269
 21
969.32889508723656
 31
0.0
  0
ARC
  5
49D8
  8
左側板
 10
179.05335399001271
 20
967.32889508723645
 30
0.0
 40
2.0
 50
90.0
 51
180.0
1001
GENIUS_GENODEF_13
1002
{
1000
HIER
1070
     0
1002
}
1002
{
1000
MANEDIT
1070
     0
1002
}
1002
{
1000
NOSEL
1070
     0
1002
}
1002
{
1000
BEHIND
1070
     0
1002
}
1002
{
1000
OTHER
1070
     0
1002
}
1002
{
1000
REACTOR
1002
}
1001
GENIUS_GENOBJ-N-FIL_13
1002
{
1000
OWNER
1000
GEN
1002
}
  0
LINE
  5
49DA
  8
左側板
 10
199.85335399001269
 20
925.32889508723645
 30
0.0
 11
179.05335399001271
 21
925.32889508723645
 31
0.0
  0
ARC
  5
49DB
  8
左側板
 10
179.05335399001271
 20
927.32889508723656
 30
0.0
 40
2.0
 50
180.0
 51
270.0
1001
GENIUS_GENOBJ-N-FIL_13
1002
{
1000
OWNER
1000
GEN
1002
}
1001
GENIUS_GENODEF_13
1002
{
1000
HIER
1070
     0
1002
}
1002
{
1000
MANEDIT
1070
     0
1002
}
1002
{
1000
NOSEL
1070
     0
1002
}
1002
{
1000
BEHIND
1070
     0
1002
}
1002
{
1000
OTHER
1070
     0
1002
}
1002
{
1000
REACTOR
1002
}
  0
LINE
  5
49E1
  8
左側板
 10
182.80335399001271
 20
934.67889508723636
 30
0.0
 11
187.30335399001271
 21
934.67889508723636
 31
0.0
1001
GENIUS_GENODEF_13
1002
{
1000
HIER
1070
     0
1002
}
1002
{
1000
MANEDIT
1070
     0
1002
}
1002
{
1000
NOSEL
1070
     0
1002
}
1002
{
1000
BEHIND
1070
     0
1002
}
1002
{
1000
OTHER
1070
     0
1002
}
1002
{
1000
REACTOR
1002
}
1001
GENIUS_GENOBJ-N-CEN_13
1002
{
1000
OWNER
1000
GEN
1002
}
1001
GENIUS_GENCEN_19
1002
{
1040
6.0
1002
}
  0
LINE
  5
49E2
  8
左側板
 10
182.80335399001271
 20
928.17889508723636
 30
0.0
 11
187.30335399001271
 21
928.17889508723636
 31
0.0
1001
GENIUS_GENODEF_13
1002
{
1000
HIER
1070
     0
1002
}
1002
{
1000
MANEDIT
1070
     0
1002
}
1002
{
1000
NOSEL
1070
     0
1002
}
1002
{
1000
BEHIND
1070
     0
1002
}
1002
{
1000
OTHER
1070
     0
1002
}
1002
{
1000
REACTOR
1002
}
1001
GENIUS_GENOBJ-N-CEN_13
1002
{
1000
OWNER
1000
GEN
1002
}
1001
GENIUS_GENCEN_19
1002
{
1040
6.0
1002
}
  0
ARC
  5
49E3
  8
左側板
 10
187.30335399001271
 20
931.42889508723647
 30
0.0
 40
3.25
 50
270.0
 51
90.0
  0
ARC
  5
49E4
  8
左側板
 10
182.80335399001271
 20
931.42889508723647
 30
0.0
 40
3.25
 50
90.0
 51
270.0
  0
LINE
  5
49E5
  8
左側板
 10
182.80335399001271
 20
959.97889508723642
 30
0.0
 11
187.30335399001271
 21
959.97889508723642
 31
0.0
1001
GENIUS_GENODEF_13
1002
{
1000
HIER
1070
     0
1002
}
1002
{
1000
MANEDIT
1070
     0
1002
}
1002
{
1000
NOSEL
1070
     0
1002
}
1002
{
1000
BEHIND
1070
     0
1002
}
1002
{
1000
OTHER
1070
     0
1002
}
1002
{
1000
REACTOR
1002
}
1001
GENIUS_GENOBJ-N-CEN_13
1002
{
1000
OWNER
1000
GEN
1002
}
1001
GENIUS_GENCEN_19
1002
{
1040
6.0
1002
}
  0
LINE
  5
49E6
  8
左側板
 10
182.80335399001271
 20
966.47889508723665
 30
0.0
 11
187.30335399001271
 21
966.47889508723631
 31
0.0
1001
GENIUS_GENODEF_13
1002
{
1000
HIER
1070
     0
1002
}
1002
{
1000
MANEDIT
1070
     0
1002
}
1002
{
1000
NOSEL
1070
     0
1002
}
1002
{
1000
BEHIND
1070
     0
1002
}
1002
{
1000
OTHER
1070
     0
1002
}
1002
{
1000
REACTOR
1002
}
1001
GENIUS_GENOBJ-N-CEN_13
1002
{
1000
OWNER
1000
GEN
1002
}
1001
GENIUS_GENCEN_19
1002
{
1040
6.0
1002
}
  0
ARC
  5
49E7
  8
左側板
 10
187.30335399001271
 20
963.22889508723642
 30
0.0
 40
3.25
 50
270.0
 51
90.0
  0
ARC
  5
49E8
  8
左側板
 10
182.80335399001271
 20
963.22889508723642
 30
0.0
 40
3.25
 50
90.0
 51
270.0
  0
LINE
  5
49E9
  8
右側板
 10
659.65335399001265
 20
927.32889508723656
 30
0.0
 11
659.65335399001265
 21
967.32889508723645
 31
0.0
  0
LINE
  5
49EA
  8
右側板
 10
657.65335399001265
 20
969.32889508723656
 30
0.0
 11
636.85335399001269
 21
969.32889508723656
 31
0.0
  0
ARC
  5
49EB
  8
右側板
 10
657.65335399001265
 20
967.32889508723645
 30
0.0
 40
2.0
 50
0.0
 51
90.0
1001
GENIUS_GENODEF_13
1002
{
1000
HIER
1070
     0
1002
}
1002
{
1000
MANEDIT
1070
     0
1002
}
1002
{
1000
NOSEL
1070
     0
1002
}
1002
{
1000
BEHIND
1070
     0
1002
}
1002
{
1000
OTHER
1070
     0
1002
}
1002
{
1000
REACTOR
1002
}
1001
GENIUS_GENOBJ-N-FIL_13
1002
{
1000
OWNER
1000
GEN
1002
}
  0
LINE
  5
49ED
  8
右側板
 10
636.85335399001269
 20
925.32889508723645
 30
0.0
 11
657.65335399001265
 21
925.32889508723645
 31
0.0
  0
ARC
  5
49EE
  8
右側板
 10
657.65335399001265
 20
927.32889508723656
 30
0.0
 40
2.0
 50
270.0
 51
0.0
1001
GENIUS_GENOBJ-N-FIL_13
1002
{
1000
OWNER
1000
GEN
1002
}
1001
GENIUS_GENODEF_13
1002
{
1000
HIER
1070
     0
1002
}
1002
{
1000
MANEDIT
1070
     0
1002
}
1002
{
1000
NOSEL
1070
     0
1002
}
1002
{
1000
BEHIND
1070
     0
1002
}
1002
{
1000
OTHER
1070
     0
1002
}
1002
{
1000
REACTOR
1002
}
  0
LINE
  5
49F4
  8
右側板
 10
649.40335399001265
 20
934.67889508723636
 30
0.0
 11
653.90335399001265
 21
934.67889508723636
 31
0.0
1001
GENIUS_GENODEF_13
1002
{
1000
HIER
1070
     0
1002
}
1002
{
1000
MANEDIT
1070
     0
1002
}
1002
{
1000
NOSEL
1070
     0
1002
}
1002
{
1000
BEHIND
1070
     0
1002
}
1002
{
1000
OTHER
1070
     0
1002
}
1002
{
1000
REACTOR
1002
}
1001
GENIUS_GENOBJ-N-CEN_13
1002
{
1000
OWNER
1000
GEN
1002
}
1001
GENIUS_GENCEN_19
1002
{
1040
6.0
1002
}
  0
LINE
  5
49F5
  8
右側板
 10
649.40335399001265
 20
928.17889508723636
 30
0.0
 11
653.90335399001265
 21
928.17889508723636
 31
0.0
1001
GENIUS_GENODEF_13
1002
{
1000
HIER
1070
     0
1002
}
1002
{
1000
MANEDIT
1070
     0
1002
}
1002
{
1000
NOSEL
1070
     0
1002
}
1002
{
1000
BEHIND
1070
     0
1002
}
1002
{
1000
OTHER
1070
     0
1002
}
1002
{
1000
REACTOR
1002
}
1001
GENIUS_GENOBJ-N-CEN_13
1002
{
1000
OWNER
1000
GEN
1002
}
1001
GENIUS_GENCEN_19
1002
{
1040
6.0
1002
}
  0
ARC
  5
49F6
  8
右側板
 10
653.90335399001265
 20
931.42889508723647
 30
0.0
 40
3.25
 50
270.0
 51
90.0
  0
ARC
  5
49F7
  8
右側板
 10
649.40335399001265
 20
931.42889508723647
 30
0.0
 40
3.25
 50
90.0
 51
270.0
  0
LINE
  5
49F8
  8
右側板
 10
649.40335399001265
 20
966.47889508723631
 30
0.0
 11
653.90335399001265
 21
966.47889508723631
 31
0.0
1001
GENIUS_GENODEF_13
1002
{
1000
HIER
1070
     0
1002
}
1002
{
1000
MANEDIT
1070
     0
1002
}
1002
{
1000
NOSEL
1070
     0
1002
}
1002
{
1000
BEHIND
1070
     0
1002
}
1002
{
1000
OTHER
1070
     0
1002
}
1002
{
1000
REACTOR
1002
}
1001
GENIUS_GENOBJ-N-CEN_13
1002
{
1000
OWNER
1000
GEN
1002
}
1001
GENIUS_GENCEN_19
1002
{
1040
6.0
1002
}
  0
LINE
  5
49F9
  8
右側板
 10
649.40335399001265
 20
959.97889508723642
 30
0.0
 11
653.90335399001265
 21
959.97889508723642
 31
0.0
1001
GENIUS_GENODEF_13
1002
{
1000
HIER
1070
     0
1002
}
1002
{
1000
MANEDIT
1070
     0
1002
}
1002
{
1000
NOSEL
1070
     0
1002
}
1002
{
1000
BEHIND
1070
     0
1002
}
1002
{
1000
OTHER
1070
     0
1002
}
1002
{
1000
REACTOR
1002
}
1001
GENIUS_GENOBJ-N-CEN_13
1002
{
1000
OWNER
1000
GEN
1002
}
1001
GENIUS_GENCEN_19
1002
{
1040
6.0
1002
}
  0
ARC
  5
49FA
  8
右側板
 10
653.90335399001265
 20
963.22889508723642
 30
0.0
 40
3.25
 50
270.0
 51
90.0
  0
ARC
  5
49FB
  8
右側板
 10
649.40335399001265
 20
963.22889508723642
 30
0.0
 40
3.25
 50
90.0
 51
270.0
  0
CIRCLE
  5
4A4A
  8
補強金具
 10
82.469526590057285
 20
735.08902229187186
 30
0.0
 40
1.6000000000000001
  0
CIRCLE
  5
4A4B
  8
補強金具
 10
82.469526590057285
 20
747.78902229187167
 30
0.0
 40
1.6000000000000001
  0
ARC
  5
4A4C
  8
補強金具
 10
64.469526590057527
 20
765.38902229187215
 30
0.0
 40
1.6000000000000001
 50
180.0
 51
270.0
1001
GENIUS_GENODEF_13
1002
{
1000
HIER
1070
     0
1002
}
1002
{
1000
MANEDIT
1070
     0
1002
}
1002
{
1000
NOSEL
1070
     0
1002
}
1002
{
1000
BEHIND
1070
     0
1002
}
1002
{
1000
REACTOR
1002
}
1001
GENIUS_GENOBJ-N-FIL_13
1002
{
1000
OWNER
1000
GEN
1002
}
  0
ARC
  5
4A4D
  8
補強金具
 10
100.469526590057
 20
765.38902229187215
 30
0.0
 40
1.6000000000000001
 50
270.0
 51
0.0
1001
GENIUS_GENODEF_13
1002
{
1000
HIER
1070
     0
1002
}
1002
{
1000
MANEDIT
1070
     0
1002
}
1002
{
1000
NOSEL
1070
     0
1002
}
1002
{
1000
BEHIND
1070
     0
1002
}
1002
{
1000
REACTOR
1002
}
1001
GENIUS_GENOBJ-N-FIL_13
1002
{
1000
OWNER
1000
GEN
1002
}
  0
LINE
  5
4A4E
  8
補強金具
 10
64.469526590057299
 20
773.78902229187179
 30
0.0
 11
62.869526590057163
 21
773.78902229187179
 31
0.0
  0
LINE
  5
4A4F
  8
補強金具
 10
102.06952659005739
 20
773.78902229187179
 30
0.0
 11
100.4695265900573
 21
773.78902229187179
 31
0.0
  0
LINE
  5
4A50
  8
補強金具
 10
100.4695265900573
 20
765.38902229187215
 30
0.0
 11
64.469526590057299
 21
765.38902229187215
 31
0.0
  0
LINE
  5
4A51
  8
補強金具0
 10
100.4695265900573
 20
763.88902229187215
 30
0.0
 11
64.469526590057299
 21
763.88902229187215
 31
0.0
  0
LINE
  5
4A52
  8
補強金具
 10
102.06952659005739
 20
773.78902229187179
 30
0.0
 11
102.06952659005739
 21
765.38902229187215
 31
0.0
  0
LINE
  5
4A53
  8
補強金具
 10
100.4695265900573
 20
773.78902229187179
 30
0.0
 11
100.4695265900573
 21
725.38902229187215
 31
0.0
  0
LINE
  5
4A54
  8
補強金具
 10
64.469526590057299
 20
773.78902229187179
 30
0.0
 11
64.469526590057285
 21
725.38902229187215
 31
0.0
  0
LINE
  5
4A55
  8
補強金具
 10
62.869526590057163
 20
773.78902229187179
 30
0.0
 11
62.869526590057163
 21
765.38902229187215
 31
0.0
  0
LINE
  5
4A56
  8
補強金具
 10
100.4695265900573
 20
725.38902229187215
 30
0.0
 11
64.469526590057285
 21
725.38902229187215
 31
0.0
  0
CIRCLE
  5
4A57
  8
補強金具0
 62
     5
 10
82.469526590057285
 20
735.08902229187186
 30
0.0
 40
2.0
  0
CIRCLE
  5
4A58
  8
補強金具0
 62
     5
 10
82.469526590057285
 20
747.78902229187167
 30
0.0
 40
2.0
  0
LINE
  5
4A59
  8
補強金具
 10
636.35335399001235
 20
765.38902229187124
 30
0.0
 11
637.55335399001274
 21
765.38902229187124
 31
0.0
  0
ARC
  5
4A5A
  8
補強金具
 10
637.55335399001274
 20
763.78902229187167
 30
0.0
 40
1.6000000000000001
 50
0.0
 51
90.0
1001
GENIUS_GENODEF_13
1002
{
1000
HIER
1070
     0
1002
}
1002
{
1000
MANEDIT
1070
     0
1002
}
1002
{
1000
NOSEL
1070
     0
1002
}
1002
{
1000
BEHIND
1070
     0
1002
}
1002
{
1000
REACTOR
1002
}
1001
GENIUS_GENOBJ-N-FIL_13
1002
{
1000
OWNER
1000
GEN
1002
}
  0
LINE
  5
4A5B
  8
補強金具
 10
636.55335399001274
 20
773.78902229187179
 30
0.0
 11
636.55335399001274
 21
763.78902229187167
 31
0.0
  0
ARC
  5
4A5C
  8
補強金具
 10
199.15335399001259
 20
763.78902229187167
 30
0.0
 40
1.6000000000000001
 50
90.0
 51
180.0
1001
GENIUS_GENODEF_13
1002
{
1000
HIER
1070
     0
1002
}
1002
{
1000
MANEDIT
1070
     0
1002
}
1002
{
1000
NOSEL
1070
     0
1002
}
1002
{
1000
BEHIND
1070
     0
1002
}
1002
{
1000
REACTOR
1002
}
1001
GENIUS_GENOBJ-N-FIL_13
1002
{
1000
OWNER
1000
GEN
1002
}
  0
LINE
  5
4A5D
  8
補強金具
 10
200.1533539900127
 20
773.78902229187179
 30
0.0
 11
636.55335399001274
 21
773.78902229187179
 31
0.0
  0
LINE
  5
4A5E
  8
補強金具
 10
199.15335399001259
 20
763.78902229187167
 30
0.0
 11
637.55335399001274
 21
763.78902229187167
 31
0.0
  0
LINE
  5
4A5F
  8
補強金具0
 10
200.35335399001249
 20
765.38902229187158
 30
0.0
 11
636.35335399001235
 21
765.38902229187158
 31
0.0
  0
LINE
  5
4A60
  8
補強金具
 10
200.1533539900127
 20
773.78902229187179
 30
0.0
 11
200.1533539900127
 21
763.78902229187167
 31
0.0
  0
LINE
  5
4A61
  8
補強金具
 10
637.55335399001274
 20
725.38902229187124
 30
0.0
 11
639.15335399001265
 21
725.38902229187124
 31
0.0
  0
LINE
  5
4A62
  8
補強金具
 10
197.55335399001251
 20
725.38902229187124
 30
0.0
 11
199.15335399001259
 21
725.38902229187124
 31
0.0
  0
LINE
  5
4A63
  8
補強金具
 10
199.15335399001259
 20
765.38902229187124
 30
0.0
 11
200.35335399001249
 21
765.38902229187124
 31
0.0
  0
LINE
  5
4A64
  8
補強金具
 10
199.15335399001259
 20
725.38902229187124
 30
0.0
 11
199.15335399001259
 21
763.78902229187167
 31
0.0
  0
LINE
  5
4A65
  8
補強金具
 10
637.55335399001274
 20
725.38902229187124
 30
0.0
 11
637.55335399001274
 21
763.78902229187167
 31
0.0
  0
LINE
  5
4A66
  8
補強金具
 10
639.15335399001265
 20
725.38902229187124
 30
0.0
 11
639.15335399001265
 21
763.78902229187167
 31
0.0
  0
LINE
  5
4A67
  8
補強金具
 10
197.55335399001251
 20
725.38902229187124
 30
0.0
 11
197.55335399001251
 21
763.78902229187167
 31
0.0
  0
LINE
  5
4A68
  8
左側板
 10
102.9695265900573
 20
646.78925180467013
 30
0.0
 11
62.96952659005732
 21
646.78925180467013
 31
0.0
  0
LINE
  5
4A69
  8
左側板
 10
60.969526590057328
 20
644.78925180467013
 30
0.0
 11
60.969526590057292
 21
396.78925180467007
 31
0.0
  0
ARC
  5
4A6A
  8
左側板
 10
62.96952659005732
 20
644.78925180467013
 30
0.0
 40
2.0
 50
90.0
 51
180.0
1001
GENIUS_GENOBJ-N-FIL_13
1002
{
1000
OWNER
1000
GEN
1002
}
1001
GENIUS_GENODEF_13
1002
{
1000
HIER
1070
     0
1002
}
1002
{
1000
MANEDIT
1070
     0
1002
}
1002
{
1000
NOSEL
1070
     0
1002
}
1002
{
1000
BEHIND
1070
     0
1002
}
1002
{
1000
OTHER
1070
     0
1002
}
1002
{
1000
REACTOR
1002
}
  0
LINE
  5
4A6B
  8
左側板
 10
60.969526590057292
 20
396.78925180467007
 30
0.0
 11
104.9695265900573
 21
396.78925180467007
 31
0.0
  0
LINE
  5
4A6C
  8
左側板
 10
104.9695265900573
 20
396.78925180467007
 30
0.0
 11
104.9695265900573
 21
644.78925180467013
 31
0.0
  0
ARC
  5
4A6D
  8
左側板
 10
102.9695265900573
 20
644.78925180467013
 30
0.0
 40
2.0
 50
0.0
 51
90.0
1001
GENIUS_GENODEF_13
1002
{
1000
HIER
1070
     0
1002
}
1002
{
1000
MANEDIT
1070
     0
1002
}
1002
{
1000
NOSEL
1070
     0
1002
}
1002
{
1000
BEHIND
1070
     0
1002
}
1002
{
1000
OTHER
1070
     0
1002
}
1002
{
1000
REACTOR
1002
}
1001
GENIUS_GENOBJ-N-FIL_13
1002
{
1000
OWNER
1000
GEN
1002
}
  0
LINE
  5
4A6E
  8
左側板
 10
104.9695265900573
 20
399.08925180467031
 30
0.0
 11
60.969526590057292
 21
399.08925180467031
 31
0.0
  0
CIRCLE
  5
4A6F
  8
左側板
 10
82.969526590057313
 20
622.68925180467022
 30
0.0
 40
1.7
  0
CIRCLE
  5
4A70
  8
左側板0
 10
82.969526590057313
 20
622.68925180467022
 30
0.0
 40
2.0
  0
CIRCLE
  5
4A71
  8
左側板
 10
82.969526590057299
 20
533.78925180467013
 30
0.0
 40
1.7
  0
CIRCLE
  5
4A72
  8
左側板0
 10
82.969526590057299
 20
533.78925180467013
 30
0.0
 40
2.0
  0
CIRCLE
  5
4A73
  8
左側板
 10
82.969526590057285
 20
435.38925180467021
 30
0.0
 40
1.7
  0
CIRCLE
  5
4A74
  8
左側板0
 10
82.969526590057285
 20
435.38925180467021
 30
0.0
 40
2.0
  0
LINE
  5
4A75
  8
左側板0
 10
102.1195265900574
 20
399.08925180467031
 30
0.0
 11
102.1195265900574
 21
396.78925180467007
 31
0.0
  0
LINE
  5
4A76
  8
左側板0
 10
95.619526590057376
 20
396.78925180467007
 30
0.0
 11
95.619526590057376
 21
399.08925180467031
 31
0.0
  0
LINE
  5
4A77
  8
左側板0
 10
63.819526590057187
 20
399.08925180467031
 30
0.0
 11
63.819526590057187
 21
396.78925180467007
 31
0.0
  0
LINE
  5
4A78
  8
左側板0
 10
70.319526590057194
 20
396.78925180467007
 30
0.0
 11
70.319526590057194
 21
399.08925180467031
 31
0.0
  0
LINE
  5
4A79
  8
左側板
 10
197.55335399001271
 20
646.78902229187167
 30
0.0
 11
199.85335399001269
 21
646.78902229187167
 31
0.0
  0
LINE
  5
4A7A
  8
左側板
 10
199.85335399001269
 20
646.78902229187167
 30
0.0
 11
199.85335399001261
 21
400.78902229187167
 31
0.0
  0
LINE
  5
4A7B
  8
左側板
 10
195.85335399001261
 20
396.7890222918719
 30
0.0
 11
177.0533539900126
 21
396.7890222918719
 31
0.0
  0
ARC
  5
4A7C
  8
左側板
 10
195.85335399001261
 20
400.78902229187179
 30
0.0
 40
4.0
 50
270.0
 51
0.0
1001
GENIUS_GENODEF_13
1002
{
1000
HIER
1070
     0
1002
}
1002
{
1000
MANEDIT
1070
     0
1002
}
1002
{
1000
NOSEL
1070
     0
1002
}
1002
{
1000
BEHIND
1070
     0
1002
}
1002
{
1000
OTHER
1070
     0
1002
}
1002
{
1000
REACTOR
1002
}
1001
GENIUS_GENOBJ-N-FIL_13
1002
{
1000
OWNER
1000
GEN
1002
}
  0
LINE
  5
4A7D
  8
左側板
 10
177.0533539900126
 20
396.78902229187179
 30
0.0
 11
177.0533539900126
 21
399.08902229187203
 31
0.0
  0
LINE
  5
4A7E
  8
左側板
 10
177.0533539900126
 20
399.08902229187203
 30
0.0
 11
195.25335399001261
 21
399.08902229187203
 31
0.0
  0
LINE
  5
4A7F
  8
左側板
 10
197.5533539900126
 20
401.38902229187192
 30
0.0
 11
197.55335399001271
 21
646.78902229187167
 31
0.0
  0
LINE
  5
4A80
  8
左側板0
 10
197.5533539900126
 20
437.38902229187192
 30
0.0
 11
199.85335399001261
 21
437.38902229187192
 31
0.0
  0
LINE
  5
4A81
  8
左側板0
 10
197.5533539900126
 20
437.08902229187203
 30
0.0
 11
199.85335399001261
 21
437.08902229187203
 31
0.0
  0
LINE
  5
4A82
  8
左側板0
 10
197.5533539900126
 20
433.68902229187182
 30
0.0
 11
199.85335399001261
 21
433.68902229187182
 31
0.0
  0
LINE
  5
4A83
  8
左側板0
 10
197.5533539900126
 20
433.38902229187192
 30
0.0
 11
199.85335399001261
 21
433.38902229187192
 31
0.0
  0
LINE
  5
4A84
  8
左側板0
 10
197.55335399001271
 20
535.78902229187179
 30
0.0
 11
199.85335399001261
 21
535.78902229187179
 31
0.0
  0
LINE
  5
4A85
  8
左側板0
 10
197.55335399001271
 20
535.48902229187183
 30
0.0
 11
199.85335399001261
 21
535.48902229187183
 31
0.0
  0
LINE
  5
4A86
  8
左側板0
 10
197.55335399001271
 20
532.08902229187186
 30
0.0
 11
199.85335399001261
 21
532.08902229187186
 31
0.0
  0
LINE
  5
4A87
  8
左側板0
 10
197.55335399001271
 20
531.78902229187179
 30
0.0
 11
199.85335399001261
 21
531.78902229187179
 31
0.0
  0
LINE
  5
4A88
  8
左側板0
 10
197.55335399001271
 20
624.68902229187177
 30
0.0
 11
199.85335399001269
 21
624.68902229187177
 31
0.0
  0
LINE
  5
4A89
  8
左側板0
 10
197.55335399001271
 20
624.38902229187192
 30
0.0
 11
199.85335399001269
 21
624.38902229187192
 31
0.0
  0
LINE
  5
4A8A
  8
左側板0
 10
197.55335399001271
 20
620.98902229187183
 30
0.0
 11
199.85335399001269
 21
620.98902229187183
 31
0.0
  0
LINE
  5
4A8B
  8
左側板0
 10
197.55335399001271
 20
620.68902229187177
 30
0.0
 11
199.85335399001269
 21
620.68902229187177
 31
0.0
  0
LINE
  5
4A8C
  8
左側板0
 10
179.35335399001261
 20
399.08902229187203
 30
0.0
 11
179.35335399001261
 21
396.78902229187179
 31
0.0
  0
LINE
  5
4A8D
  8
左側板0
 10
190.7533539900125
 20
399.08902229187203
 30
0.0
 11
190.7533539900125
 21
396.78902229187179
 31
0.0
  0
ARC
  5
4A8E
  8
左側板
 10
195.25335399001261
 20
401.38902229187192
 30
0.0
 40
2.2999999999999989
 50
270.0
 51
0.0
1001
GENIUS_GENOBJ-N-FIL_13
1002
{
1000
OWNER
1000
GEN
1002
}
1001
GENIUS_GENODEF_13
1002
{
1000
HIER
1070
     0
1002
}
1002
{
1000
MANEDIT
1070
     0
1002
}
1002
{
1000
NOSEL
1070
     0
1002
}
1002
{
1000
BEHIND
1070
     0
1002
}
1002
{
1000
OTHER
1070
     0
1002
}
1002
{
1000
REACTOR
1002
}
  0
LINE
  5
4A8F
  8
右側板
 10
639.15335399001265
 20
646.78902229187167
 30
0.0
 11
636.85335399001269
 21
646.78902229187167
 31
0.0
  0
LINE
  5
4A90
  8
右側板
 10
636.85335399001269
 20
646.78902229187167
 30
0.0
 11
636.85335399001269
 21
400.78902229187167
 31
0.0
  0
LINE
  5
4A91
  8
右側板
 10
640.85335399001258
 20
396.7890222918719
 30
0.0
 11
659.65335399001265
 21
396.7890222918719
 31
0.0
  0
ARC
  5
4A92
  8
右側板
 10
640.85335399001258
 20
400.78902229187179
 30
0.0
 40
4.0
 50
180.0
 51
270.0
1001
GENIUS_GENODEF_13
1002
{
1000
HIER
1070
     0
1002
}
1002
{
1000
MANEDIT
1070
     0
1002
}
1002
{
1000
NOSEL
1070
     0
1002
}
1002
{
1000
BEHIND
1070
     0
1002
}
1002
{
1000
OTHER
1070
     0
1002
}
1002
{
1000
REACTOR
1002
}
1001
GENIUS_GENOBJ-N-FIL_13
1002
{
1000
OWNER
1000
GEN
1002
}
  0
LINE
  5
4A93
  8
右側板
 10
659.65335399001265
 20
396.78902229187179
 30
0.0
 11
659.65335399001265
 21
399.08902229187203
 31
0.0
  0
LINE
  5
4A94
  8
右側板
 10
659.65335399001265
 20
399.08902229187203
 30
0.0
 11
641.45335399001249
 21
399.08902229187203
 31
0.0
  0
LINE
  5
4A95
  8
右側板
 10
639.15335399001265
 20
401.38902229187181
 30
0.0
 11
639.15335399001265
 21
646.78902229187167
 31
0.0
  0
LINE
  5
4A96
  8
右側板0
 10
639.15335399001265
 20
437.38902229187192
 30
0.0
 11
636.85335399001269
 21
437.38902229187192
 31
0.0
  0
LINE
  5
4A97
  8
右側板0
 10
639.15335399001265
 20
437.08902229187203
 30
0.0
 11
636.85335399001269
 21
437.08902229187203
 31
0.0
  0
LINE
  5
4A98
  8
右側板0
 10
639.15335399001265
 20
433.68902229187182
 30
0.0
 11
636.85335399001269
 21
433.68902229187182
 31
0.0
  0
LINE
  5
4A99
  8
右側板0
 10
639.15335399001265
 20
433.38902229187192
 30
0.0
 11
636.85335399001269
 21
433.38902229187192
 31
0.0
  0
LINE
  5
4A9A
  8
右側板0
 10
639.15335399001265
 20
535.78902229187179
 30
0.0
 11
636.85335399001269
 21
535.78902229187179
 31
0.0
  0
LINE
  5
4A9B
  8
右側板0
 10
639.15335399001265
 20
535.48902229187183
 30
0.0
 11
636.85335399001269
 21
535.48902229187183
 31
0.0
  0
LINE
  5
4A9C
  8
右側板0
 10
639.15335399001265
 20
532.08902229187186
 30
0.0
 11
636.85335399001269
 21
532.08902229187186
 31
0.0
  0
LINE
  5
4A9D
  8
右側板0
 10
639.15335399001265
 20
531.78902229187179
 30
0.0
 11
636.85335399001269
 21
531.78902229187179
 31
0.0
  0
LINE
  5
4A9E
  8
右側板0
 10
639.15335399001265
 20
624.68902229187177
 30
0.0
 11
636.85335399001269
 21
624.68902229187177
 31
0.0
  0
LINE
  5
4A9F
  8
右側板0
 10
639.15335399001265
 20
624.38902229187192
 30
0.0
 11
636.85335399001269
 21
624.38902229187192
 31
0.0
  0
LINE
  5
4AA0
  8
右側板0
 10
639.15335399001265
 20
620.98902229187195
 30
0.0
 11
636.85335399001269
 21
620.98902229187195
 31
0.0
  0
LINE
  5
4AA1
  8
右側板0
 10
639.15335399001265
 20
620.68902229187177
 30
0.0
 11
636.85335399001269
 21
620.68902229187177
 31
0.0
  0
LINE
  5
4AA2
  8
右側板0
 10
657.35335399001258
 20
399.08902229187203
 30
0.0
 11
657.35335399001258
 21
396.78902229187179
 31
0.0
  0
LINE
  5
4AA3
  8
右側板0
 10
645.95335399001283
 20
399.08902229187203
 30
0.0
 11
645.95335399001283
 21
396.78902229187179
 31
0.0
  0
ARC
  5
4AA4
  8
右側板
 10
641.45335399001249
 20
401.38902229187192
 30
0.0
 40
2.2999999999999989
 50
180.0
 51
270.0
1001
GENIUS_GENODEF_13
1002
{
1000
HIER
1070
     0
1002
}
1002
{
1000
MANEDIT
1070
     0
1002
}
1002
{
1000
NOSEL
1070
     0
1002
}
1002
{
1000
BEHIND
1070
     0
1002
}
1002
{
1000
OTHER
1070
     0
1002
}
1002
{
1000
REACTOR
1002
}
1001
GENIUS_GENOBJ-N-FIL_13
1002
{
1000
OWNER
1000
GEN
1002
}
  0
LINE
  5
4AA5
  8
右側板
 10
738.86738750304175
 20
646.78925180467013
 30
0.0
 11
778.86738750304175
 21
646.78925180467013
 31
0.0
  0
LINE
  5
4AA6
  8
右側板
 10
780.86738750304175
 20
644.78925180467013
 30
0.0
 11
780.86738750304175
 21
396.78925180467007
 31
0.0
  0
ARC
  5
4AA7
  8
右側板
 10
778.86738750304175
 20
644.78925180467013
 30
0.0
 40
2.0
 50
0.0
 51
90.0
1001
GENIUS_GENOBJ-N-FIL_13
1002
{
1000
OWNER
1000
GEN
1002
}
1001
GENIUS_GENODEF_13
1002
{
1000
HIER
1070
     0
1002
}
1002
{
1000
MANEDIT
1070
     0
1002
}
1002
{
1000
NOSEL
1070
     0
1002
}
1002
{
1000
BEHIND
1070
     0
1002
}
1002
{
1000
OTHER
1070
     0
1002
}
1002
{
1000
REACTOR
1002
}
  0
LINE
  5
4AA8
  8
右側板
 10
780.86738750304175
 20
396.78925180467007
 30
0.0
 11
736.86738750304175
 21
396.78925180467007
 31
0.0
  0
LINE
  5
4AA9
  8
右側板
 10
736.86738750304175
 20
396.78925180467007
 30
0.0
 11
736.86738750304175
 21
644.78925180467013
 31
0.0
  0
ARC
  5
4AAA
  8
右側板
 10
738.86738750304175
 20
644.78925180467013
 30
0.0
 40
2.0
 50
90.0
 51
180.0
1001
GENIUS_GENODEF_13
1002
{
1000
HIER
1070
     0
1002
}
1002
{
1000
MANEDIT
1070
     0
1002
}
1002
{
1000
NOSEL
1070
     0
1002
}
1002
{
1000
BEHIND
1070
     0
1002
}
1002
{
1000
OTHER
1070
     0
1002
}
1002
{
1000
REACTOR
1002
}
1001
GENIUS_GENOBJ-N-FIL_13
1002
{
1000
OWNER
1000
GEN
1002
}
  0
LINE
  5
4AAB
  8
右側板
 10
736.86738750304175
 20
399.08925180467031
 30
0.0
 11
780.86738750304175
 21
399.08925180467031
 31
0.0
  0
CIRCLE
  5
4AAC
  8
右側板
 10
758.86738750304175
 20
622.68925180467022
 30
0.0
 40
1.7
  0
CIRCLE
  5
4AAD
  8
右側板0
 10
758.86738750304175
 20
622.68925180467022
 30
0.0
 40
2.0
  0
CIRCLE
  5
4AAE
  8
右側板
 10
758.86738750304175
 20
533.78925180467013
 30
0.0
 40
1.7
  0
CIRCLE
  5
4AAF
  8
右側板0
 10
758.86738750304175
 20
533.78925180467013
 30
0.0
 40
2.0
  0
CIRCLE
  5
4AB0
  8
右側板
 10
758.86738750304175
 20
435.38925180467021
 30
0.0
 40
1.7
  0
CIRCLE
  5
4AB1
  8
右側板0
 10
758.86738750304175
 20
435.38925180467021
 30
0.0
 40
2.0
  0
LINE
  5
4AB2
  8
右側板0
 10
739.71738750304155
 20
399.08925180467031
 30
0.0
 11
739.71738750304155
 21
396.78925180467007
 31
0.0
  0
LINE
  5
4AB3
  8
右側板0
 10
746.21738750304155
 20
396.78925180467007
 30
0.0
 11
746.21738750304155
 21
399.08925180467031
 31
0.0
  0
LINE
  5
4AB4
  8
右側板0
 10
778.01738750304185
 20
399.08925180467031
 30
0.0
 11
778.01738750304185
 21
396.78925180467007
 31
0.0
  0
LINE
  5
4AB5
  8
右側板0
 10
771.51738750304162
 20
396.78925180467007
 30
0.0
 11
771.51738750304162
 21
399.08925180467031
 31
0.0
  0
LINE
  5
4AB6
  8
右側板
 10
659.65335399001265
 20
294.47699041611668
 30
0.0
 11
659.65335399001265
 21
254.47699041611671
 31
0.0
  0
LINE
  5
4AB7
  8
右側板
 10
657.65335399001265
 20
252.47699041611671
 30
0.0
 11
636.85335399001269
 21
252.47699041611671
 31
0.0
  0
ARC
  5
4AB8
  8
右側板
 10
657.65335399001265
 20
254.47699041611671
 30
0.0
 40
2.0
 50
270.0
 51
0.0
1001
GENIUS_GENODEF_13
1002
{
1000
HIER
1070
     0
1002
}
1002
{
1000
MANEDIT
1070
     0
1002
}
1002
{
1000
NOSEL
1070
     0
1002
}
1002
{
1000
BEHIND
1070
     0
1002
}
1002
{
1000
OTHER
1070
     0
1002
}
1002
{
1000
REACTOR
1002
}
1001
GENIUS_GENOBJ-N-FIL_13
1002
{
1000
OWNER
1000
GEN
1002
}
  0
LINE
  5
4AB9
  8
右側板
 10
636.85335399001269
 20
252.47699041611671
 30
0.0
 11
636.85335399001269
 21
296.47699041611668
 31
0.0
  0
LINE
  5
4ABA
  8
右側板
 10
636.85335399001269
 20
296.47699041611668
 30
0.0
 11
657.65335399001265
 21
296.47699041611668
 31
0.0
  0
ARC
  5
4ABB
  8
右側板
 10
657.65335399001265
 20
294.47699041611668
 30
0.0
 40
2.0
 50
0.0
 51
90.0
1001
GENIUS_GENOBJ-N-FIL_13
1002
{
1000
OWNER
1000
GEN
1002
}
1001
GENIUS_GENODEF_13
1002
{
1000
HIER
1070
     0
1002
}
1002
{
1000
MANEDIT
1070
     0
1002
}
1002
{
1000
NOSEL
1070
     0
1002
}
1002
{
1000
BEHIND
1070
     0
1002
}
1002
{
1000
OTHER
1070
     0
1002
}
1002
{
1000
REACTOR
1002
}
  0
LINE
  5
4ABC
  8
右側板0
 10
639.15335399001265
 20
296.47699041611668
 30
0.0
 11
639.15335399001265
 21
252.47699041611671
 31
0.0
  0
LINE
  5
4ABD
  8
右側板0
 10
639.15335399001265
 20
276.47699041611668
 30
0.0
 11
636.85335399001269
 21
276.47699041611668
 31
0.0
  0
LINE
  5
4ABE
  8
右側板0
 10
636.85335399001269
 20
276.17699041611672
 30
0.0
 11
639.15335399001265
 21
276.17699041611672
 31
0.0
  0
LINE
  5
4ABF
  8
右側板0
 10
639.15335399001265
 20
272.77699041611658
 30
0.0
 11
636.85335399001269
 21
272.77699041611658
 31
0.0
  0
LINE
  5
4AC0
  8
右側板0
 10
636.85335399001269
 20
272.47699041611668
 30
0.0
 11
639.15335399001265
 21
272.47699041611668
 31
0.0
  0
LINE
  5
4AC1
  8
右側板
 10
649.40335399001265
 20
287.12699041611683
 30
0.0
 11
653.90335399001265
 21
287.12699041611683
 31
0.0
1001
GENIUS_GENODEF_13
1002
{
1000
HIER
1070
     0
1002
}
1002
{
1000
MANEDIT
1070
     0
1002
}
1002
{
1000
NOSEL
1070
     0
1002
}
1002
{
1000
BEHIND
1070
     0
1002
}
1002
{
1000
OTHER
1070
     0
1002
}
1002
{
1000
REACTOR
1002
}
1001
GENIUS_GENOBJ-N-CEN_13
1002
{
1000
OWNER
1000
GEN
1002
}
1001
GENIUS_GENCEN_19
1002
{
1040
6.0
1002
}
  0
LINE
  5
4AC2
  8
右側板
 10
649.40335399001265
 20
293.62699041611683
 30
0.0
 11
653.90335399001265
 21
293.62699041611683
 31
0.0
1001
GENIUS_GENODEF_13
1002
{
1000
HIER
1070
     0
1002
}
1002
{
1000
MANEDIT
1070
     0
1002
}
1002
{
1000
NOSEL
1070
     0
1002
}
1002
{
1000
BEHIND
1070
     0
1002
}
1002
{
1000
OTHER
1070
     0
1002
}
1002
{
1000
REACTOR
1002
}
1001
GENIUS_GENOBJ-N-CEN_13
1002
{
1000
OWNER
1000
GEN
1002
}
1001
GENIUS_GENCEN_19
1002
{
1040
6.0
1002
}
  0
ARC
  5
4AC3
  8
右側板
 10
653.90335399001265
 20
290.37699041611683
 30
0.0
 40
3.25
 50
270.0
 51
90.0
  0
ARC
  5
4AC4
  8
右側板
 10
649.40335399001265
 20
290.37699041611683
 30
0.0
 40
3.25
 50
90.0
 51
270.0
  0
LINE
  5
4AC5
  8
右側板
 10
649.40335399001265
 20
255.32699041611679
 30
0.0
 11
653.90335399001265
 21
255.32699041611679
 31
0.0
1001
GENIUS_GENODEF_13
1002
{
1000
HIER
1070
     0
1002
}
1002
{
1000
MANEDIT
1070
     0
1002
}
1002
{
1000
NOSEL
1070
     0
1002
}
1002
{
1000
BEHIND
1070
     0
1002
}
1002
{
1000
OTHER
1070
     0
1002
}
1002
{
1000
REACTOR
1002
}
1001
GENIUS_GENOBJ-N-CEN_13
1002
{
1000
OWNER
1000
GEN
1002
}
1001
GENIUS_GENCEN_19
1002
{
1040
6.0
1002
}
  0
LINE
  5
4AC6
  8
右側板
 10
649.40335399001265
 20
261.82699041611681
 30
0.0
 11
653.90335399001265
 21
261.82699041611681
 31
0.0
1001
GENIUS_GENODEF_13
1002
{
1000
HIER
1070
     0
1002
}
1002
{
1000
MANEDIT
1070
     0
1002
}
1002
{
1000
NOSEL
1070
     0
1002
}
1002
{
1000
BEHIND
1070
     0
1002
}
1002
{
1000
OTHER
1070
     0
1002
}
1002
{
1000
REACTOR
1002
}
1001
GENIUS_GENOBJ-N-CEN_13
1002
{
1000
OWNER
1000
GEN
1002
}
1001
GENIUS_GENCEN_19
1002
{
1040
6.0
1002
}
  0
ARC
  5
4AC7
  8
右側板
 10
653.90335399001265
 20
258.57699041611681
 30
0.0
 40
3.25
 50
270.0
 51
90.0
  0
ARC
  5
4AC8
  8
右側板
 10
649.40335399001265
 20
258.57699041611681
 30
0.0
 40
3.25
 50
90.0
 51
270.0
  0
LINE
  5
4AD3
  8
左側板
 10
177.05335399001271
 20
294.47699041611668
 30
0.0
 11
177.05335399001271
 21
254.47699041611671
 31
0.0
  0
LINE
  5
4AD4
  8
左側板
 10
179.05335399001271
 20
252.47699041611671
 30
0.0
 11
199.85335399001269
 21
252.47699041611671
 31
0.0
  0
ARC
  5
4AD5
  8
左側板
 10
179.05335399001271
 20
254.47699041611671
 30
0.0
 40
2.0
 50
180.0
 51
270.0
1001
GENIUS_GENODEF_13
1002
{
1000
HIER
1070
     0
1002
}
1002
{
1000
MANEDIT
1070
     0
1002
}
1002
{
1000
NOSEL
1070
     0
1002
}
1002
{
1000
BEHIND
1070
     0
1002
}
1002
{
1000
OTHER
1070
     0
1002
}
1002
{
1000
REACTOR
1002
}
1001
GENIUS_GENOBJ-N-FIL_13
1002
{
1000
OWNER
1000
GEN
1002
}
  0
LINE
  5
4AD6
  8
左側板
 10
199.85335399001269
 20
252.47699041611671
 30
0.0
 11
199.85335399001269
 21
296.47699041611668
 31
0.0
  0
LINE
  5
4AD7
  8
左側板
 10
199.85335399001269
 20
296.47699041611668
 30
0.0
 11
179.05335399001271
 21
296.47699041611668
 31
0.0
  0
ARC
  5
4AD8
  8
左側板
 10
179.05335399001271
 20
294.47699041611668
 30
0.0
 40
2.0
 50
90.0
 51
180.0
1001
GENIUS_GENOBJ-N-FIL_13
1002
{
1000
OWNER
1000
GEN
1002
}
1001
GENIUS_GENODEF_13
1002
{
1000
HIER
1070
     0
1002
}
1002
{
1000
MANEDIT
1070
     0
1002
}
1002
{
1000
NOSEL
1070
     0
1002
}
1002
{
1000
BEHIND
1070
     0
1002
}
1002
{
1000
OTHER
1070
     0
1002
}
1002
{
1000
REACTOR
1002
}
  0
LINE
  5
4AD9
  8
左側板0
 10
197.55335399001271
 20
296.47699041611668
 30
0.0
 11
197.55335399001271
 21
252.47699041611671
 31
0.0
  0
LINE
  5
4ADA
  8
左側板0
 10
197.55335399001271
 20
276.47699041611668
 30
0.0
 11
199.85335399001269
 21
276.47699041611668
 31
0.0
  0
LINE
  5
4ADB
  8
左側板0
 10
199.85335399001269
 20
276.17699041611672
 30
0.0
 11
197.55335399001271
 21
276.17699041611672
 31
0.0
  0
LINE
  5
4ADC
  8
左側板0
 10
197.55335399001271
 20
272.77699041611658
 30
0.0
 11
199.85335399001269
 21
272.77699041611658
 31
0.0
  0
LINE
  5
4ADD
  8
左側板0
 10
199.85335399001269
 20
272.47699041611668
 30
0.0
 11
197.55335399001271
 21
272.47699041611668
 31
0.0
  0
LINE
  5
4ADE
  8
左側板
 10
182.80335399001271
 20
287.12699041611683
 30
0.0
 11
187.30335399001271
 21
287.12699041611683
 31
0.0
1001
GENIUS_GENODEF_13
1002
{
1000
HIER
1070
     0
1002
}
1002
{
1000
MANEDIT
1070
     0
1002
}
1002
{
1000
NOSEL
1070
     0
1002
}
1002
{
1000
BEHIND
1070
     0
1002
}
1002
{
1000
OTHER
1070
     0
1002
}
1002
{
1000
REACTOR
1002
}
1001
GENIUS_GENOBJ-N-CEN_13
1002
{
1000
OWNER
1000
GEN
1002
}
1001
GENIUS_GENCEN_19
1002
{
1040
6.0
1002
}
  0
LINE
  5
4ADF
  8
左側板
 10
182.80335399001271
 20
293.62699041611683
 30
0.0
 11
187.30335399001271
 21
293.62699041611683
 31
0.0
1001
GENIUS_GENODEF_13
1002
{
1000
HIER
1070
     0
1002
}
1002
{
1000
MANEDIT
1070
     0
1002
}
1002
{
1000
NOSEL
1070
     0
1002
}
1002
{
1000
BEHIND
1070
     0
1002
}
1002
{
1000
OTHER
1070
     0
1002
}
1002
{
1000
REACTOR
1002
}
1001
GENIUS_GENOBJ-N-CEN_13
1002
{
1000
OWNER
1000
GEN
1002
}
1001
GENIUS_GENCEN_19
1002
{
1040
6.0
1002
}
  0
ARC
  5
4AE0
  8
左側板
 10
187.30335399001271
 20
290.37699041611683
 30
0.0
 40
3.25
 50
270.0
 51
90.0
  0
ARC
  5
4AE1
  8
左側板
 10
182.80335399001271
 20
290.37699041611683
 30
0.0
 40
3.25
 50
90.0
 51
270.0
  0
LINE
  5
4AE2
  8
左側板
 10
182.80335399001271
 20
261.82699041611681
 30
0.0
 11
187.30335399001271
 21
261.82699041611681
 31
0.0
1001
GENIUS_GENODEF_13
1002
{
1000
HIER
1070
     0
1002
}
1002
{
1000
MANEDIT
1070
     0
1002
}
1002
{
1000
NOSEL
1070
     0
1002
}
1002
{
1000
BEHIND
1070
     0
1002
}
1002
{
1000
OTHER
1070
     0
1002
}
1002
{
1000
REACTOR
1002
}
1001
GENIUS_GENOBJ-N-CEN_13
1002
{
1000
OWNER
1000
GEN
1002
}
1001
GENIUS_GENCEN_19
1002
{
1040
6.0
1002
}
  0
LINE
  5
4AE3
  8
左側板
 10
182.80335399001271
 20
255.32699041611659
 30
0.0
 11
187.30335399001271
 21
255.32699041611679
 31
0.0
1001
GENIUS_GENODEF_13
1002
{
1000
HIER
1070
     0
1002
}
1002
{
1000
MANEDIT
1070
     0
1002
}
1002
{
1000
NOSEL
1070
     0
1002
}
1002
{
1000
BEHIND
1070
     0
1002
}
1002
{
1000
OTHER
1070
     0
1002
}
1002
{
1000
REACTOR
1002
}
1001
GENIUS_GENOBJ-N-CEN_13
1002
{
1000
OWNER
1000
GEN
1002
}
1001
GENIUS_GENCEN_19
1002
{
1040
6.0
1002
}
  0
ARC
  5
4AE4
  8
左側板
 10
187.30335399001271
 20
258.57699041611681
 30
0.0
 40
3.25
 50
270.0
 51
90.0
  0
ARC
  5
4AE5
  8
左側板
 10
182.80335399001271
 20
258.57699041611681
 30
0.0
 40
3.25
 50
90.0
 51
270.0
  0
LINE
  5
4B27
  8
ボ_ルスライド0
 10
777.01738750304173
 20
406.78902229187179
 30
0.0
 11
741.71738750304166
 21
406.78902229187179
 31
0.0
  0
LINE
  5
4B28
  8
ボ_ルスライド0
 10
741.71738750304166
 20
762.3890222918717
 30
0.0
 11
777.01738750304173
 21
762.3890222918717
 31
0.0
  0
LINE
  5
4B29
  8
ボ_ルスライド0
 10
741.71738750304166
 20
762.3890222918717
 30
0.0
 11
741.71738750304166
 21
406.78902229187179
 31
0.0
  0
LINE
  5
4B2A
  8
ボ_ルスライド0
 10
777.01738750304173
 20
762.3890222918717
 30
0.0
 11
777.01738750304173
 21
406.78902229187179
 31
0.0
  0
CIRCLE
  5
4B2B
  8
補強金具
 10
759.36738750304175
 20
735.08902229187186
 30
0.0
 40
1.6000000000000001
  0
CIRCLE
  5
4B2C
  8
補強金具
 10
759.36738750304175
 20
747.78902229187167
 30
0.0
 40
1.6000000000000001
  0
ARC
  5
4B2D
  8
補強金具
 10
777.36738750304153
 20
765.38902229187215
 30
0.0
 40
1.6000000000000001
 50
270.0
 51
0.0
1001
GENIUS_GENODEF_13
1002
{
1000
HIER
1070
     0
1002
}
1002
{
1000
MANEDIT
1070
     0
1002
}
1002
{
1000
NOSEL
1070
     0
1002
}
1002
{
1000
BEHIND
1070
     0
1002
}
1002
{
1000
REACTOR
1002
}
1001
GENIUS_GENOBJ-N-FIL_13
1002
{
1000
OWNER
1000
GEN
1002
}
  0
ARC
  5
4B2E
  8
補強金具
 10
741.36738750304187
 20
765.38902229187215
 30
0.0
 40
1.6000000000000001
 50
180.0
 51
270.0
1001
GENIUS_GENODEF_13
1002
{
1000
HIER
1070
     0
1002
}
1002
{
1000
MANEDIT
1070
     0
1002
}
1002
{
1000
NOSEL
1070
     0
1002
}
1002
{
1000
BEHIND
1070
     0
1002
}
1002
{
1000
REACTOR
1002
}
1001
GENIUS_GENOBJ-N-FIL_13
1002
{
1000
OWNER
1000
GEN
1002
}
  0
LINE
  5
4B2F
  8
補強金具
 10
777.36738750304175
 20
773.78902229187179
 30
0.0
 11
778.96738750304189
 21
773.78902229187179
 31
0.0
  0
LINE
  5
4B30
  8
補強金具
 10
739.76738750304162
 20
773.78902229187179
 30
0.0
 11
741.36738750304175
 21
773.78902229187179
 31
0.0
  0
LINE
  5
4B31
  8
補強金具
 10
741.36738750304175
 20
765.38902229187215
 30
0.0
 11
777.36738750304175
 21
765.38902229187215
 31
0.0
  0
LINE
  5
4B32
  8
補強金具0
 10
741.36738750304175
 20
763.88902229187215
 30
0.0
 11
777.36738750304175
 21
763.88902229187215
 31
0.0
  0
LINE
  5
4B33
  8
補強金具
 10
739.76738750304162
 20
773.78902229187179
 30
0.0
 11
739.76738750304162
 21
765.38902229187215
 31
0.0
  0
LINE
  5
4B34
  8
補強金具
 10
741.36738750304175
 20
773.78902229187179
 30
0.0
 11
741.36738750304175
 21
725.38902229187215
 31
0.0
  0
LINE
  5
4B35
  8
補強金具
 10
777.36738750304175
 20
773.78902229187179
 30
0.0
 11
777.36738750304175
 21
725.38902229187215
 31
0.0
  0
LINE
  5
4B36
  8
補強金具
 10
778.96738750304189
 20
773.78902229187179
 30
0.0
 11
778.96738750304189
 21
765.38902229187215
 31
0.0
  0
LINE
  5
4B37
  8
補強金具
 10
741.36738750304175
 20
725.38902229187215
 30
0.0
 11
777.36738750304175
 21
725.38902229187215
 31
0.0
  0
CIRCLE
  5
4B38
  8
補強金具0
 62
     5
 10
759.36738750304175
 20
735.08902229187186
 30
0.0
 40
2.0
  0
CIRCLE
  5
4B39
  8
補強金具0
 62
     5
 10
759.36738750304175
 20
747.78902229187167
 30
0.0
 40
2.0
  0
LINE
  5
4B3A
  8
補強金具
 10
952.12477783184045
 20
765.38902229187124
 30
0.0
 11
950.92477783184006
 21
765.38902229187124
 31
0.0
  0
ARC
  5
4B3B
  8
補強金具
 10
950.92477783184006
 20
763.78902229187167
 30
0.0
 40
1.6000000000000001
 50
90.0
 51
180.0
1001
GENIUS_GENODEF_13
1002
{
1000
HIER
1070
     0
1002
}
1002
{
1000
MANEDIT
1070
     0
1002
}
1002
{
1000
NOSEL
1070
     0
1002
}
1002
{
1000
BEHIND
1070
     0
1002
}
1002
{
1000
REACTOR
1002
}
1001
GENIUS_GENOBJ-N-FIL_13
1002
{
1000
OWNER
1000
GEN
1002
}
  0
LINE
  5
4B3C
  8
補強金具
 10
951.92477783184006
 20
773.78902229187179
 30
0.0
 11
951.92477783184006
 21
763.78902229187167
 31
0.0
  0
ARC
  5
4B3D
  8
補強金具
 10
1389.32477783184
 20
763.78902229187167
 30
0.0
 40
1.6000000000000001
 50
0.0
 51
90.0
1001
GENIUS_GENODEF_13
1002
{
1000
HIER
1070
     0
1002
}
1002
{
1000
MANEDIT
1070
     0
1002
}
1002
{
1000
NOSEL
1070
     0
1002
}
1002
{
1000
BEHIND
1070
     0
1002
}
1002
{
1000
REACTOR
1002
}
1001
GENIUS_GENOBJ-N-FIL_13
1002
{
1000
OWNER
1000
GEN
1002
}
  0
LINE
  5
4B3E
  8
補強金具
 10
1388.32477783184
 20
773.78902229187179
 30
0.0
 11
951.92477783184006
 21
773.78902229187179
 31
0.0
  0
LINE
  5
4B3F
  8
補強金具
 10
1389.32477783184
 20
763.78902229187167
 30
0.0
 11
950.92477783184006
 21
763.78902229187167
 31
0.0
  0
LINE
  5
4B40
  8
補強金具0
 10
1388.12477783184
 20
765.38902229187158
 30
0.0
 11
952.12477783184045
 21
765.38902229187158
 31
0.0
  0
LINE
  5
4B41
  8
補強金具
 10
1388.32477783184
 20
773.78902229187179
 30
0.0
 11
1388.32477783184
 21
763.78902229187167
 31
0.0
  0
LINE
  5
4B42
  8
補強金具
 10
950.92477783184006
 20
725.38902229187124
 30
0.0
 11
949.32477783184027
 21
725.38902229187124
 31
0.0
  0
LINE
  5
4B43
  8
補強金具
 10
1390.9247778318399
 20
725.38902229187124
 30
0.0
 11
1389.32477783184
 21
725.38902229187124
 31
0.0
  0
LINE
  5
4B44
  8
補強金具
 10
1389.32477783184
 20
765.38902229187124
 30
0.0
 11
1388.12477783184
 21
765.38902229187124
 31
0.0
  0
LINE
  5
4B45
  8
補強金具
 10
1389.32477783184
 20
725.38902229187124
 30
0.0
 11
1389.32477783184
 21
763.78902229187167
 31
0.0
  0
LINE
  5
4B46
  8
補強金具
 10
950.92477783184006
 20
725.38902229187124
 30
0.0
 11
950.92477783184006
 21
763.78902229187167
 31
0.0
  0
LINE
  5
4B47
  8
補強金具
 10
949.32477783184027
 20
725.38902229187124
 30
0.0
 11
949.32477783184027
 21
763.78902229187167
 31
0.0
  0
LINE
  5
4B48
  8
補強金具
 10
1390.9247778318399
 20
725.38902229187124
 30
0.0
 11
1390.9247778318399
 21
763.78902229187167
 31
0.0
  0
LINE
  5
4B49
  8
ボ_ルスライド0
 10
952.12477783184022
 20
406.78902229187179
 30
0.0
 11
952.12477783184022
 21
758.3890222918717
 31
0.0
  0
LINE
  5
4B4A
  8
ボ_ルスライド0
 10
961.12477783184022
 20
406.78902229187179
 30
0.0
 11
961.12477783184022
 21
758.3890222918717
 31
0.0
  0
LINE
  5
4B4B
  8
ボ_ルスライド0
 10
961.12477783184022
 20
406.78902229187179
 30
0.0
 11
952.12477783184022
 21
406.78902229187179
 31
0.0
  0
LINE
  5
4B4C
  8
ボ_ルスライド0
 10
952.12477783184022
 20
758.3890222918717
 30
0.0
 11
961.12477783184022
 21
758.3890222918717
 31
0.0
  0
LINE
  5
4B4D
  8
ボ_ルスライド0
 10
951.62477783184011
 20
762.3890222918717
 30
0.0
 11
951.62477783184011
 21
406.78902229187179
 31
0.0
  0
LINE
  5
4B4E
  8
ボ_ルスライド0
 10
959.62477783184011
 20
762.3890222918717
 30
0.0
 11
959.62477783184011
 21
406.78902229187179
 31
0.0
  0
LINE
  5
4B4F
  8
ボ_ルスライド0
 10
959.62477783184011
 20
762.3890222918717
 30
0.0
 11
951.62477783184033
 21
762.3890222918717
 31
0.0
  0
LINE
  5
4B50
  8
ボ_ルスライド0
 10
951.62477783184011
 20
406.78902229187179
 30
0.0
 11
959.62477783184011
 21
406.78902229187179
 31
0.0
  0
LINE
  5
4B51
  8
ボ_ルスライド0
 10
1388.62477783184
 20
762.3890222918717
 30
0.0
 11
1388.62477783184
 21
406.78902229187179
 31
0.0
  0
LINE
  5
4B52
  8
ボ_ルスライド0
 10
1380.62477783184
 20
762.3890222918717
 30
0.0
 11
1380.62477783184
 21
406.78902229187179
 31
0.0
  0
LINE
  5
4B53
  8
ボ_ルスライド0
 10
1380.62477783184
 20
762.3890222918717
 30
0.0
 11
1388.62477783184
 21
762.3890222918717
 31
0.0
  0
LINE
  5
4B54
  8
ボ_ルスライド0
 10
1388.62477783184
 20
406.78902229187179
 30
0.0
 11
1380.62477783184
 21
406.78902229187179
 31
0.0
  0
LINE
  5
4B55
  8
ボ_ルスライド0
 10
1388.12477783184
 20
406.78902229187179
 30
0.0
 11
1388.12477783184
 21
758.3890222918717
 31
0.0
  0
LINE
  5
4B56
  8
ボ_ルスライド0
 10
1379.12477783184
 20
406.78902229187179
 30
0.0
 11
1379.12477783184
 21
758.3890222918717
 31
0.0
  0
LINE
  5
4B57
  8
ボ_ルスライド0
 10
1379.12477783184
 20
406.78902229187179
 30
0.0
 11
1388.12477783184
 21
406.78902229187179
 31
0.0
  0
LINE
  5
4B58
  8
ボ_ルスライド0
 10
1388.12477783184
 20
758.3890222918717
 30
0.0
 11
1379.12477783184
 21
758.3890222918717
 31
0.0
  0
LINE
  5
4B59
  8
左側板
 10
1390.9247778318399
 20
646.78902229187167
 30
0.0
 11
1388.62477783184
 21
646.78902229187167
 31
0.0
  0
LINE
  5
4B5A
  8
左側板
 10
1388.62477783184
 20
646.78902229187167
 30
0.0
 11
1388.62477783184
 21
400.78902229187167
 31
0.0
  0
LINE
  5
4B5B
  8
左側板
 10
1392.62477783184
 20
396.7890222918719
 30
0.0
 11
1411.4247778318399
 21
396.7890222918719
 31
0.0
  0
ARC
  5
4B5C
  8
左側板
 10
1392.62477783184
 20
400.78902229187179
 30
0.0
 40
4.0
 50
180.0
 51
270.0
1001
GENIUS_GENODEF_13
1002
{
1000
HIER
1070
     0
1002
}
1002
{
1000
MANEDIT
1070
     0
1002
}
1002
{
1000
NOSEL
1070
     0
1002
}
1002
{
1000
BEHIND
1070
     0
1002
}
1002
{
1000
OTHER
1070
     0
1002
}
1002
{
1000
REACTOR
1002
}
1001
GENIUS_GENOBJ-N-FIL_13
1002
{
1000
OWNER
1000
GEN
1002
}
  0
LINE
  5
4B5D
  8
左側板
 10
1411.4247778318399
 20
396.78902229187179
 30
0.0
 11
1411.4247778318399
 21
399.08902229187203
 31
0.0
  0
LINE
  5
4B5E
  8
左側板
 10
1411.4247778318399
 20
399.08902229187203
 30
0.0
 11
1393.2247778318399
 21
399.08902229187203
 31
0.0
  0
LINE
  5
4B5F
  8
左側板
 10
1390.9247778318399
 20
401.38902229187192
 30
0.0
 11
1390.9247778318399
 21
646.78902229187167
 31
0.0
  0
LINE
  5
4B60
  8
左側板0
 10
1390.9247778318399
 20
437.38902229187192
 30
0.0
 11
1388.62477783184
 21
437.38902229187192
 31
0.0
  0
LINE
  5
4B61
  8
左側板0
 10
1390.9247778318399
 20
437.08902229187203
 30
0.0
 11
1388.62477783184
 21
437.08902229187203
 31
0.0
  0
LINE
  5
4B62
  8
左側板0
 10
1390.9247778318399
 20
433.68902229187182
 30
0.0
 11
1388.62477783184
 21
433.68902229187182
 31
0.0
  0
LINE
  5
4B63
  8
左側板0
 10
1390.9247778318399
 20
433.38902229187192
 30
0.0
 11
1388.62477783184
 21
433.38902229187192
 31
0.0
  0
LINE
  5
4B64
  8
左側板0
 10
1390.9247778318399
 20
535.78902229187179
 30
0.0
 11
1388.62477783184
 21
535.78902229187179
 31
0.0
  0
LINE
  5
4B65
  8
左側板0
 10
1390.9247778318399
 20
535.48902229187183
 30
0.0
 11
1388.62477783184
 21
535.48902229187183
 31
0.0
  0
LINE
  5
4B66
  8
左側板0
 10
1390.9247778318399
 20
532.08902229187186
 30
0.0
 11
1388.62477783184
 21
532.08902229187186
 31
0.0
  0
LINE
  5
4B67
  8
左側板0
 10
1390.9247778318399
 20
531.78902229187179
 30
0.0
 11
1388.62477783184
 21
531.78902229187179
 31
0.0
  0
LINE
  5
4B68
  8
左側板0
 10
1390.9247778318399
 20
624.68902229187177
 30
0.0
 11
1388.62477783184
 21
624.68902229187177
 31
0.0
  0
LINE
  5
4B69
  8
左側板0
 10
1390.9247778318399
 20
624.38902229187192
 30
0.0
 11
1388.62477783184
 21
624.38902229187192
 31
0.0
  0
LINE
  5
4B6A
  8
左側板0
 10
1390.9247778318399
 20
620.98902229187183
 30
0.0
 11
1388.62477783184
 21
620.98902229187183
 31
0.0
  0
LINE
  5
4B6B
  8
左側板0
 10
1390.9247778318399
 20
620.68902229187177
 30
0.0
 11
1388.62477783184
 21
620.68902229187177
 31
0.0
  0
LINE
  5
4B6C
  8
左側板0
 10
1409.12477783184
 20
399.08902229187203
 30
0.0
 11
1409.12477783184
 21
396.78902229187179
 31
0.0
  0
LINE
  5
4B6D
  8
左側板0
 10
1397.7247778318399
 20
399.08902229187203
 30
0.0
 11
1397.7247778318399
 21
396.78902229187179
 31
0.0
  0
ARC
  5
4B6E
  8
左側板
 10
1393.2247778318399
 20
401.38902229187192
 30
0.0
 40
2.2999999999999989
 50
180.0
 51
270.0
1001
GENIUS_GENOBJ-N-FIL_13
1002
{
1000
OWNER
1000
GEN
1002
}
1001
GENIUS_GENODEF_13
1002
{
1000
HIER
1070
     0
1002
}
1002
{
1000
MANEDIT
1070
     0
1002
}
1002
{
1000
NOSEL
1070
     0
1002
}
1002
{
1000
BEHIND
1070
     0
1002
}
1002
{
1000
OTHER
1070
     0
1002
}
1002
{
1000
REACTOR
1002
}
  0
LINE
  5
4B70
  8
右側板
 10
949.32477783184027
 20
646.78902229187167
 30
0.0
 11
951.62477783184011
 21
646.78902229187167
 31
0.0
  0
LINE
  5
4B71
  8
右側板
 10
951.62477783184011
 20
646.78902229187167
 30
0.0
 11
951.62477783184011
 21
400.78902229187167
 31
0.0
  0
LINE
  5
4B72
  8
右側板
 10
947.62477783184022
 20
396.7890222918719
 30
0.0
 11
928.82477783184027
 21
396.7890222918719
 31
0.0
  0
ARC
  5
4B73
  8
右側板
 10
947.62477783184022
 20
400.78902229187179
 30
0.0
 40
4.0
 50
270.0
 51
0.0
1001
GENIUS_GENODEF_13
1002
{
1000
HIER
1070
     0
1002
}
1002
{
1000
MANEDIT
1070
     0
1002
}
1002
{
1000
NOSEL
1070
     0
1002
}
1002
{
1000
BEHIND
1070
     0
1002
}
1002
{
1000
OTHER
1070
     0
1002
}
1002
{
1000
REACTOR
1002
}
1001
GENIUS_GENOBJ-N-FIL_13
1002
{
1000
OWNER
1000
GEN
1002
}
  0
LINE
  5
4B74
  8
右側板
 10
928.82477783184027
 20
396.78902229187179
 30
0.0
 11
928.82477783184027
 21
399.08902229187203
 31
0.0
  0
LINE
  5
4B75
  8
右側板
 10
928.82477783184027
 20
399.08902229187203
 30
0.0
 11
947.02477783184042
 21
399.08902229187203
 31
0.0
  0
LINE
  5
4B76
  8
右側板
 10
949.32477783184027
 20
401.38902229187181
 30
0.0
 11
949.32477783184027
 21
646.78902229187167
 31
0.0
  0
LINE
  5
4B77
  8
右側板0
 10
949.32477783184027
 20
437.38902229187192
 30
0.0
 11
951.62477783184011
 21
437.38902229187192
 31
0.0
  0
LINE
  5
4B78
  8
右側板0
 10
949.32477783184027
 20
437.08902229187203
 30
0.0
 11
951.62477783184011
 21
437.08902229187203
 31
0.0
  0
LINE
  5
4B79
  8
右側板0
 10
949.32477783184027
 20
433.68902229187182
 30
0.0
 11
951.62477783184011
 21
433.68902229187182
 31
0.0
  0
LINE
  5
4B7A
  8
右側板0
 10
949.32477783184027
 20
433.38902229187192
 30
0.0
 11
951.62477783184011
 21
433.38902229187192
 31
0.0
  0
LINE
  5
4B7B
  8
右側板0
 10
949.32477783184027
 20
535.78902229187179
 30
0.0
 11
951.62477783184011
 21
535.78902229187179
 31
0.0
  0
LINE
  5
4B7C
  8
右側板0
 10
949.32477783184027
 20
535.48902229187183
 30
0.0
 11
951.62477783184011
 21
535.48902229187183
 31
0.0
  0
LINE
  5
4B7D
  8
右側板0
 10
949.32477783184027
 20
532.08902229187186
 30
0.0
 11
951.62477783184011
 21
532.08902229187186
 31
0.0
  0
LINE
  5
4B7E
  8
右側板0
 10
949.32477783184027
 20
531.78902229187179
 30
0.0
 11
951.62477783184011
 21
531.78902229187179
 31
0.0
  0
LINE
  5
4B7F
  8
右側板0
 10
949.32477783184027
 20
624.68902229187177
 30
0.0
 11
951.62477783184011
 21
624.68902229187177
 31
0.0
  0
LINE
  5
4B80
  8
右側板0
 10
949.32477783184027
 20
624.38902229187192
 30
0.0
 11
951.62477783184011
 21
624.38902229187192
 31
0.0
  0
LINE
  5
4B81
  8
右側板0
 10
949.32477783184027
 20
620.98902229187195
 30
0.0
 11
951.62477783184011
 21
620.98902229187195
 31
0.0
  0
LINE
  5
4B82
  8
右側板0
 10
949.32477783184027
 20
620.68902229187177
 30
0.0
 11
951.62477783184011
 21
620.68902229187177
 31
0.0
  0
LINE
  5
4B83
  8
右側板0
 10
931.12477783184011
 20
399.08902229187203
 30
0.0
 11
931.12477783184011
 21
396.78902229187179
 31
0.0
  0
LINE
  5
4B84
  8
右側板0
 10
942.52477783183997
 20
399.08902229187203
 30
0.0
 11
942.52477783183997
 21
396.78902229187179
 31
0.0
  0
ARC
  5
4B85
  8
右側板
 10
947.02477783184042
 20
401.38902229187192
 30
0.0
 40
2.2999999999999989
 50
270.0
 51
0.0
1001
GENIUS_GENODEF_13
1002
{
1000
HIER
1070
     0
1002
}
1002
{
1000
MANEDIT
1070
     0
1002
}
1002
{
1000
NOSEL
1070
     0
1002
}
1002
{
1000
BEHIND
1070
     0
1002
}
1002
{
1000
OTHER
1070
     0
1002
}
1002
{
1000
REACTOR
1002
}
1001
GENIUS_GENOBJ-N-FIL_13
1002
{
1000
OWNER
1000
GEN
1002
}
  0
LINE
  5
4C7B
  8
ボ_ルスライド0
 10
636.85335399001269
 20
762.3890222918717
 30
0.0
 11
636.85335399001269
 21
406.78902229187179
 31
0.0
  0
LINE
  5
4C7C
  8
ボ_ルスライド0
 10
628.85335399001269
 20
762.3890222918717
 30
0.0
 11
628.85335399001269
 21
406.78902229187179
 31
0.0
  0
LINE
  5
4C7D
  8
ボ_ルスライド0
 10
628.85335399001269
 20
762.3890222918717
 30
0.0
 11
636.85335399001247
 21
762.3890222918717
 31
0.0
  0
LINE
  5
4C7E
  8
ボ_ルスライド0
 10
636.85335399001269
 20
406.78902229187179
 30
0.0
 11
628.85335399001269
 21
406.78902229187179
 31
0.0
  0
LINE
  5
4C7F
  8
ボ_ルスライド0
 10
636.35335399001258
 20
406.78902229187179
 30
0.0
 11
636.35335399001258
 21
758.3890222918717
 31
0.0
  0
LINE
  5
4C80
  8
ボ_ルスライド0
 10
627.35335399001258
 20
406.78902229187179
 30
0.0
 11
627.35335399001258
 21
758.3890222918717
 31
0.0
  0
LINE
  5
4C81
  8
ボ_ルスライド0
 10
627.35335399001258
 20
406.78902229187179
 30
0.0
 11
636.35335399001258
 21
406.78902229187179
 31
0.0
  0
LINE
  5
4C82
  8
ボ_ルスライド0
 10
636.35335399001258
 20
758.3890222918717
 30
0.0
 11
627.35335399001258
 21
758.3890222918717
 31
0.0
  0
LINE
  5
4C84
  8
ボ_ルスライド0
 10
200.35335399001249
 20
406.78902229187179
 30
0.0
 11
200.35335399001249
 21
758.3890222918717
 31
0.0
  0
LINE
  5
4C85
  8
ボ_ルスライド0
 10
209.35335399001241
 20
406.78902229187179
 30
0.0
 11
209.35335399001241
 21
758.3890222918717
 31
0.0
  0
LINE
  5
4C86
  8
ボ_ルスライド0
 10
209.35335399001241
 20
406.78902229187179
 30
0.0
 11
200.35335399001249
 21
406.78902229187179
 31
0.0
  0
LINE
  5
4C87
  8
ボ_ルスライド0
 10
200.35335399001249
 20
758.3890222918717
 30
0.0
 11
209.35335399001241
 21
758.3890222918717
 31
0.0
  0
LINE
  5
4C88
  8
ボ_ルスライド0
 10
199.85335399001269
 20
762.3890222918717
 30
0.0
 11
199.85335399001269
 21
406.78902229187179
 31
0.0
  0
LINE
  5
4C89
  8
ボ_ルスライド0
 10
207.85335399001269
 20
762.3890222918717
 30
0.0
 11
207.85335399001269
 21
406.78902229187179
 31
0.0
  0
LINE
  5
4C8A
  8
ボ_ルスライド0
 10
207.85335399001269
 20
762.3890222918717
 30
0.0
 11
199.85335399001281
 21
762.3890222918717
 31
0.0
  0
LINE
  5
4C8B
  8
ボ_ルスライド0
 10
199.85335399001269
 20
406.78902229187179
 30
0.0
 11
207.85335399001269
 21
406.78902229187179
 31
0.0
  0
VIEWPORT
  5
17C
 67
     1
  8
0
 10
133.34999084472651
 20
101.5999970436096
 30
0.0
 40
370.22669129365238
 41
228.4221935424805
 68
     1
 69
     1
1001
ACAD
1000
MVIEW
1002
{
1070
    16
1010
0.0
1020
0.0
1030
0.0
1010
0.0
1020
0.0
1030
1.0
1040
0.0
1040
228.4221935424805
1040
133.34999084472651
1040
101.5999970436096
1040
50.0
1040
0.0
1040
0.0
1070
     0
1070
   100
1070
     1
1070
     1
1070
     0
1070
     0
1070
     0
1070
     0
1040
0.0
1040
0.0
1040
0.0
1040
10.0
1040
10.0
1040
10.0
1040
10.0
1070
     0
1002
{
1002
}
1002
}
1001
GENIUS_GENODEF_13
1002
{
1000
HIER
1070
     0
1002
}
1002
{
1000
MANEDIT
1070
     0
1002
}
1002
{
1000
NOSEL
1070
     0
1002
}
1002
{
1000
BEHIND
1070
     0
1002
}
1002
{
1000
OTHER
1070
     0
1002
}
1002
{
1000
REACTOR
1002
}
1001
GENIUS_GENOBJ-N-SDF_13
1002
{
1000
OWNER
1000
GEN
1002
}
1001
GENIUS_GENSCREG_15
1000
PF
1040
1.0
1000
DF
1040
1.0
1000
MIN
1011
-51.763354802099627
1021
0.0
1031
0.0
1021
-12.6110997276306
1031
0.0
1000
MAX
1011
318.4633364915527
1021
0.0
1031
0.0
1021
215.8110938148499
1031
0.0
1000
FLAGS
1070
     4
  0
ENDSEC
  0
EOF
