  0
SECTION
  2
HEADER
  9
$ACADVER
  1
AC1009
  9
$INSBASE
 10
0.0
 20
0.0
 30
0.0
  9
$EXTMIN
 10
-0.0245555045512447
 20
-0.0170608964626808
 30
-374.3863144088449
  9
$EXTMAX
 10
1612.0246136836811
 20
1120.0171013186859
 30
0.0057164304887465
  9
$LIMMIN
 10
0.0
 20
0.0
  9
$LIMMAX
 10
1612.0
 20
1120.0
  9
$ORTHOMODE
 70
     1
  9
$REGENMODE
 70
     1
  9
$FILLMODE
 70
     1
  9
$QTEXTMODE
 70
     0
  9
$MIRRTEXT
 70
     1
  9
$DRAGMODE
 70
     2
  9
$LTSCALE
 40
4.0
  9
$OSMODE
 70
   431
  9
$ATTMODE
 70
     1
  9
$TEXTSIZE
 40
73.985717453579113
  9
$TRACEWID
 40
1.0
  9
$TEXTSTYLE
  7
STANDARD
  9
$CLAYER
  8
AM_6
  9
$CELTYPE
  6
BYLAYER
  9
$CECOLOR
 62
   256
  9
$DIMSCALE
 40
4.0
  9
$DIMASZ
 40
2.5
  9
$DIMEXO
 40
1.0
  9
$DIMDLI
 40
10.0
  9
$DIMRND
 40
0.0
  9
$DIMDLE
 40
0.0
  9
$DIMEXE
 40
1.0
  9
$DIMTP
 40
0.1
  9
$DIMTM
 40
0.1
  9
$DIMTXT
 40
3.5
  9
$DIMCEN
 40
0.0
  9
$DIMTSZ
 40
0.0
  9
$DIMTOL
 70
     0
  9
$DIMLIM
 70
     0
  9
$DIMTIH
 70
     0
  9
$DIMTOH
 70
     0
  9
$DIMSE1
 70
     0
  9
$DIMSE2
 70
     0
  9
$DIMTAD
 70
     1
  9
$DIMZIN
 70
     8
  9
$DIMBLK
  1
OPEN30
  9
$DIMASO
 70
     1
  9
$DIMSHO
 70
     1
  9
$DIMPOST
  1

  9
$DIMAPOST
  1
"
  9
$DIMALT
 70
     0
  9
$DIMALTD
 70
     2
  9
$DIMALTF
 40
0.0393701
  9
$DIMLFAC
 40
1.0
  9
$DIMTOFL
 70
     1
  9
$DIMTVP
 40
0.0
  9
$DIMTIX
 70
     0
  9
$DIMSOXD
 70
     0
  9
$DIMSAH
 70
     0
  9
$DIMBLK1
  1

  9
$DIMBLK2
  1

  9
$DIMSTYLE
  2
AM_ISO
  9
$DIMCLRD
 70
   256
  9
$DIMCLRE
 70
   256
  9
$DIMCLRT
 70
     2
  9
$DIMTFAC
 40
0.71
  9
$DIMGAP
 40
1.5
  9
$LUNITS
 70
     2
  9
$LUPREC
 70
     2
  9
$SKETCHINC
 40
1.0
  9
$FILLETRAD
 40
2.2999999999999989
  9
$AUNITS
 70
     0
  9
$AUPREC
 70
     0
  9
$MENU
  1
.
  9
$ELEVATION
 40
0.0
  9
$PELEVATION
 40
0.0
  9
$THICKNESS
 40
0.0
  9
$LIMCHECK
 70
     0
  9
$BLIPMODE
 70
     0
  9
$CHAMFERA
 40
10.0
  9
$CHAMFERB
 40
10.0
  9
$SKPOLY
 70
     0
  9
$TDCREATE
 40
2453509.7781942599
  9
$TDUPDATE
 40
2455077.552081157
  9
$TDINDWG
 40
0.4676143981
  9
$TDUSRTIMER
 40
0.4676143981
  9
$USRTIMER
 70
     1
  9
$ANGBASE
 50
0.0
  9
$ANGDIR
 70
     0
  9
$PDMODE
 70
     0
  9
$PDSIZE
 40
0.0
  9
$PLINEWID
 40
0.0
  9
$COORDS
 70
     0
  9
$SPLFRAME
 70
     0
  9
$SPLINETYPE
 70
     6
  9
$SPLINESEGS
 70
     8
  9
$ATTDIA
 70
     1
  9
$ATTREQ
 70
     1
  9
$HANDLING
 70
     1
  9
$HANDSEED
  5
56A3
  9
$SURFTAB1
 70
     6
  9
$SURFTAB2
 70
     6
  9
$SURFTYPE
 70
     6
  9
$SURFU
 70
     6
  9
$SURFV
 70
     6
  9
$UCSNAME
  2

  9
$UCSORG
 10
0.0
 20
0.0
 30
0.0
  9
$UCSXDIR
 10
1.0
 20
0.0
 30
0.0
  9
$UCSYDIR
 10
0.0
 20
1.0
 30
0.0
  9
$PUCSNAME
  2

  9
$PUCSORG
 10
0.0
 20
0.0
 30
0.0
  9
$PUCSXDIR
 10
1.0
 20
0.0
 30
0.0
  9
$PUCSYDIR
 10
0.0
 20
1.0
 30
0.0
  9
$USERI1
 70
     0
  9
$USERI2
 70
     0
  9
$USERI3
 70
     0
  9
$USERI4
 70
     0
  9
$USERI5
 70
     0
  9
$USERR1
 40
0.0
  9
$USERR2
 40
0.0
  9
$USERR3
 40
0.0
  9
$USERR4
 40
0.0
  9
$USERR5
 40
0.0
  9
$WORLDVIEW
 70
     1
  9
$SHADEDGE
 70
     3
  9
$SHADEDIF
 70
    70
  9
$TILEMODE
 70
     1
  9
$MAXACTVP
 70
    64
  9
$PLIMCHECK
 70
     0
  9
$PEXTMIN
 10
1.0000000000000000E+020
 20
1.0000000000000000E+020
 30
1.0000000000000000E+020
  9
$PEXTMAX
 10
-1.0000000000000000E+020
 20
-1.0000000000000000E+020
 30
-1.0000000000000000E+020
  9
$PLIMMIN
 10
-6.350006103515625
 20
-6.3499999046325684
  9
$PLIMMAX
 10
273.04998779296881
 20
209.54999399185181
  9
$UNITMODE
 70
     0
  9
$VISRETAIN
 70
     1
  9
$PLINEGEN
 70
     0
  9
$PSLTSCALE
 70
     1
  0
ENDSEC
  0
SECTION
  2
TABLES
  0
TABLE
  2
VPORT
 70
     3
  0
VPORT
  2
*ACTIVE
 70
     0
 10
0.0
 20
0.0
 11
1.0
 21
1.0
 12
806.00002908956515
 22
560.00002021111163
 13
0.0
 23
0.0
 14
10.0
 24
10.0
 15
40.0
 25
40.0
 16
0.0
 26
0.0
 36
1.0
 17
0.0
 27
0.0
 37
0.0
 40
1378.346151691559
 41
1.1773142112125159
 42
50.0
 43
0.0
 44
0.0
 50
0.0
 51
0.0
 71
     0
 72
   100
 73
     1
 74
     3
 75
     0
 76
     0
 77
     0
 78
     0
  0
ENDTAB
  0
TABLE
  2
LTYPE
 70
    20
  0
LTYPE
  2
CONTINUOUS
 70
     0
  3
Solid line
 72
    65
 73
     0
 40
0.0
  0
LTYPE
  2
AM_ISO02W050
 70
     0
  3
__ __ __ __ __ __ __ __ __ __ __ __ __ __ __
 72
    65
 73
     2
 40
7.5
 49
6.0
 49
-1.5
  0
LTYPE
  2
AM_ISO08W050
 70
     0
  3
____ . ____ . ____ . ____ . ____ . ____ . ____
 72
    65
 73
     4
 40
18.0
 49
12.0
 49
-1.5
 49
3.0
 49
-1.5
  0
LTYPE
  2
AM_ISO09W050
 70
     0
  3
_____ . . _____ . . _____ . . ____ .. ____
 72
    65
 73
     6
 40
22.5
 49
12.0
 49
-1.5
 49
3.0
 49
-1.5
 49
3.0
 49
-1.5
  0
LTYPE
  2
AMCONSTR
 70
     0
  3
_______________________
 72
    65
 73
     2
 40
9999.0
 49
9999.0
 49
0.0
  0
LTYPE
  2
AM_ISO08W050X2
 70
     0
  3
__ . __ . __ . __ . __ . __
 72
    65
 73
     4
 40
9.0
 49
6.0
 49
-0.75
 49
1.5
 49
-0.75
  0
LTYPE
  2
AM_ISO02W050X2
 70
     0
  3
 _ _ _ _ _ _ _ _ _ _ _ _
 72
    65
 73
     2
 40
3.75
 49
3.0
 49
-0.75
  0
LTYPE
  2
AMZIGZAG
 70
     0
  3
/\/-/\/-/\/-/\/-/\/-/\/
 72
    65
 73
     2
 40
11.0001
 49
0.0001
 49
-11.0
  0
LTYPE
  2
ACISOWELD
 70
     0
  3
_ _ _ _ _
 72
    65
 73
     2
 40
2.0
 49
2.0
 49
-1.0
  0
LTYPE
  2
ACISOTGB
 70
     0
  3
__ . . __ . .
 72
    65
 73
     6
 40
9.0
 49
4.0
 49
-1.0
 49
1.0
 49
-1.0
 49
1.0
 49
-1.0
  0
LTYPE
  2
ACISOTGL
 70
     0
  3
_ _ _ _ _
 72
    65
 73
     2
 40
3.0
 49
2.0
 49
-1.0
  0
LTYPE
  2
CENTER
 70
     0
  3
__ . __
 72
    65
 73
     4
 40
7.0
 49
4.0
 49
-1.0
 49
1.0
 49
-1.0
  0
LTYPE
  2
HIDDEN
 70
     0
  3
Hidden __ __ __ __ __ __ __ __ __ __ __ __ __ _
 72
    65
 73
     2
 40
9.5249999999999986
 49
6.3499999999999988
 49
-3.1749999999999989
  0
LTYPE
  2
PHANTOM2
 70
     0
  3
Phantom (.5x) ___ _ _ ___ _ _ ___ _ _ ___ _ _
 72
    65
 73
     6
 40
31.75
 49
15.875
 49
-3.1749999999999989
 49
3.1749999999999989
 49
-3.1749999999999989
 49
3.1749999999999989
 49
-3.1749999999999989
  0
LTYPE
  2
GEN3
 70
     0
  3
-- -- -- -- -- -- -- -- -- -- -- -- -- -- --
 72
    65
 73
     2
 40
6.25
 49
4.75
 49
-1.5
  0
LTYPE
  2
GEN7
 70
     0
  3
____ . ____ . ____ . ____ . ____ . ____ . ____
 72
    65
 73
     4
 40
13.75
 49
9.75
 49
-1.5
 49
1.0
 49
-1.5
  0
LTYPE
  2
GEN3A
 70
     0
  3
 - - - - -
 72
    65
 73
     2
 40
3.125
 49
2.25
 49
-0.875
  0
LTYPE
  2
GEN7A
 70
     0
  3
__ . __ . __
 72
    65
 73
     4
 40
6.875
 49
4.75
 49
-0.875
 49
0.375
 49
-0.875
  0
LTYPE
  2
GEN4A
 70
     0
  3
_____ . . _____ . . _____ . . ____ .. ____
 72
    65
 73
     6
 40
16.25
 49
9.75
 49
-1.5
 49
1.0
 49
-1.5
 49
1.0
 49
-1.5
  0
LTYPE
  2
GENZIGZAG
 70
     0
  3
/\/-/\/-/\/-/\/-/\/-/\/
 72
    65
 73
     2
 40
12.0001
 49
0.0001
 49
-12.0
  0
ENDTAB
  0
TABLE
  2
LAYER
 70
    32
  0
LAYER
  2
0
 70
     0
 62
     7
  6
CONTINUOUS
  0
LAYER
  2
DEFPOINTS
 70
     0
 62
     7
  6
CONTINUOUS
  0
LAYER
  2
ﾛｯｸ金具0
 70
     0
 62
     4
  6
AM_ISO02W050X2
  0
LAYER
  2
7A
 70
     0
 62
     4
  6
GEN7A
  0
LAYER
  2
RAHM2
 70
     0
 62
     1
  6
CONTINUOUS
  0
LAYER
  2
左側板
 70
     0
 62
     2
  6
CONTINUOUS
  0
LAYER
  2
補強金具
 70
     0
 62
     3
  6
CONTINUOUS
  0
LAYER
  2
ﾃ_ﾌ_ﾙ
 70
     0
 62
     7
  6
CONTINUOUS
  0
LAYER
  2
右側板
 70
     0
 62
     5
  6
CONTINUOUS
  0
LAYER
  2
AM_5
 70
     0
 62
     3
  6
CONTINUOUS
  0
LAYER
  2
AM_12
 70
     0
 62
     7
  6
CONTINUOUS
  0
LAYER
  2
AM_PAREF
 70
     0
 62
     4
  6
CONTINUOUS
  0
LAYER
  2
AM_7
 70
     0
 62
     4
  6
AM_ISO08W050
  0
LAYER
  2
ﾃ_ﾌ_ﾙ0
 70
     0
 62
     7
  6
AM_ISO02W050
  0
LAYER
  2
保護スポンジ
 70
     0
 62
     6
  6
CONTINUOUS
  0
LAYER
  2
AM_8
 70
     0
 62
     1
  6
CONTINUOUS
  0
LAYER
  2
補強金具0
 70
     0
 62
     3
  6
AM_ISO02W050
  0
LAYER
  2
左側板0
 70
     0
 62
     2
  6
AM_ISO02W050
  0
LAYER
  2
右側板0
 70
     0
 62
     5
  6
AM_ISO02W050
  0
LAYER
  2
AM_CL
 70
     0
 62
     1
  6
AMCONSTR
  0
LAYER
  2
ボ_ルスライド
 70
     0
 62
     8
  6
CONTINUOUS
  0
LAYER
  2
ボ_ルスライド0
 70
     0
 62
     8
  6
AM_ISO02W050
  0
LAYER
  2
ﾋ_ｽ
 70
     0
 62
     8
  6
CONTINUOUS
  0
LAYER
  2
ﾋ_ｽ0
 70
     0
 62
     8
  6
AM_ISO02W050X2
  0
LAYER
  2
AM_0
 70
     0
 62
     7
  6
CONTINUOUS
  0
LAYER
  2
AM_0N
 70
     0
 62
     7
  6
CONTINUOUS
  0
LAYER
  2
AM_4
 70
     0
 62
     3
  6
CONTINUOUS
  0
LAYER
  2
AM_3
 70
     0
 62
     6
  6
AM_ISO02W050
  0
LAYER
  2
AM_6
 70
     0
 62
     2
  6
CONTINUOUS
  0
LAYER
  2
AM_9
 70
     0
 62
   253
  6
CONTINUOUS
  0
LAYER
  2
AM_7N
 70
     0
 62
     4
  6
AM_ISO08W050
  0
LAYER
  2
ロック金具
 70
     0
 62
     7
  6
CONTINUOUS
  0
ENDTAB
  0
TABLE
  2
STYLE
 70
     5
  0
STYLE
  2
STANDARD
 70
     0
 40
0.0
 41
1.0
 50
0.0
 71
     0
 42
73.985717453579113
  3
ISOCP.SHX
  4
bigfont.shx
  0
STYLE
  2

 70
     1
 40
0.0
 41
1.0
 50
0.0
 71
     0
 42
2.5
  3
ltypeshp.shx
  4

  0
STYLE
  2
ACISOTS
 70
     0
 40
1.0
 41
1.0
 50
0.0
 71
     0
 42
2.5
  3
isocp.shx
  4
extfont.shx
  0
STYLE
  2
ACISOGDT
 70
     0
 40
0.0
 41
1.0
 50
0.0
 71
     0
 42
2.5
  3
amgdt.shx
  4

  0
STYLE
  2

 70
     1
 40
0.0
 41
1.0
 50
0.0
 71
     0
 42
3.0
  3
genltshp.shx
  4

  0
ENDTAB
  0
TABLE
  2
VIEW
 70
     6
  0
VIEW
  2
AM_VIEW1
 70
     0
 40
684.74336283185835
 10
403.0
 20
777.62831858407094
 41
806.0
 11
0.0
 21
0.0
 31
1.0
 12
0.0
 22
0.0
 32
0.0
 42
50.0
 43
0.0
 44
0.0
 50
0.0
 71
     0
  0
VIEW
  2
AM_VIEW2
 70
     0
 40
684.74336283185835
 10
1209.0
 20
777.62831858407094
 41
806.0
 11
0.0
 21
0.0
 31
1.0
 12
0.0
 22
0.0
 32
0.0
 42
50.0
 43
0.0
 44
0.0
 50
0.0
 71
     0
  0
VIEW
  2
AM_VIEW3
 70
     0
 40
684.74336283185835
 10
403.0
 20
342.37168141592917
 41
806.0
 11
0.0
 21
0.0
 31
1.0
 12
0.0
 22
0.0
 32
0.0
 42
50.0
 43
0.0
 44
0.0
 50
0.0
 71
     0
  0
VIEW
  2
AM_VIEW4
 70
     0
 40
684.74336283185835
 10
1209.0
 20
342.37168141592917
 41
806.0
 11
0.0
 21
0.0
 31
1.0
 12
0.0
 22
0.0
 32
0.0
 42
50.0
 43
0.0
 44
0.0
 50
0.0
 71
     0
  0
VIEW
  2
AM_VIEW5
 70
     0
 40
684.74336283185835
 10
806.0
 20
560.00000000000011
 41
806.0
 11
0.0
 21
0.0
 31
1.0
 12
0.0
 22
0.0
 32
0.0
 42
50.0
 43
0.0
 44
0.0
 50
0.0
 71
     0
  0
VIEW
  2
AM_VIEW6
 70
     0
 40
1369.4730307964601
 10
806.0
 20
560.00000000000011
 41
1611.9838799999991
 11
0.0
 21
0.0
 31
1.0
 12
0.0
 22
0.0
 32
0.0
 42
50.0
 43
0.0
 44
0.0
 50
0.0
 71
     0
  0
ENDTAB
  0
TABLE
  2
UCS
 70
     0
  0
ENDTAB
  0
TABLE
  2
APPID
 70
    50
  0
APPID
  2
ACAD
 70
     0
  0
APPID
  2
MCAD_NO_VIS
 70
     0
  0
APPID
  2
ACAD_TEMP_GRAPHIC
 70
     0
  0
APPID
  2
ACATTRIBSERVICES
 70
     0
  0
APPID
  2
AD_DRAW
 70
     0
  0
APPID
  2
DESIGNERASSEMBLIES
 70
     0
  0
APPID
  2
ACADM_DIM_EDIT
 70
     0
  0
APPID
  2
AMDT_DM_ADJ
 70
     0
  0
APPID
  2
GENIUS_GENREC_14
 70
     0
  0
APPID
  2
GENIUS_GENODEF_13
 70
     0
  0
APPID
  2
GENIUS_GENOBJ-N-REC_13
 70
     0
  0
APPID
  2
GENIUS_GENDIMSH_14
 70
     0
  0
APPID
  2
GENIUS_GENCFG_13
 70
     0
  0
APPID
  2
GENIUS_GENCFG0_13
 70
     0
  0
APPID
  2
GENIUS_GENCFG1_13
 70
     0
  0
APPID
  2
GENIUS_GENCFG2_13
 70
     0
  0
APPID
  2
GENIUS_GENCFG3_13
 70
     0
  0
APPID
  2
GENIUS_GENCFG4_13
 70
     0
  0
APPID
  2
GENIUS_GEVCFG0_13
 70
     0
  0
APPID
  2
GENIUS_GENOENT_13
 70
     0
  0
APPID
  2
GENIUS_GENOBJ-N-CRS_13
 70
     0
  0
APPID
  2
GENIUS_GENOREF_13
 70
     0
  0
APPID
  2
GENIUS_GENOLIS_13
 70
     0
  0
APPID
  2
GENIUS_GENOBJ-N-TIT_13
 70
     0
  0
APPID
  2
GENIUS_GENTITLE_13
 70
     0
  0
APPID
  2
GENIUS_GENSCREG_15
 70
     0
  0
APPID
  2
GENIUS_GENOBJ-N-SDF_13
 70
     0
  0
APPID
  2
GENIUS_GENOBJ-N-CEN_13
 70
     0
  0
APPID
  2
GENIUS_GENOBJ-N-HTC_13
 70
     0
  0
APPID
  2
GENIUS_GENHATCH_13
 70
     0
  0
APPID
  2
GENIUS_GENOBJ-N-ZOO_13
 70
     0
  0
APPID
  2
GENIUS_GENZOO_17
 70
     0
  0
APPID
  2
RAK
 70
     0
  0
APPID
  2
GENIUS_GENOBJ-N-FIL_13
 70
     0
  0
APPID
  2
GENIUS_GENCEN_19
 70
     0
  0
APPID
  2
ACAD_PSEXT
 70
     0
  0
APPID
  2
GENIUS_GENDTOL_13
 70
     0
  0
APPID
  2
ACAECLAYERSTANDARD
 70
     0
  0
APPID
  2
GEVID1250837798
 70
     0
  0
APPID
  2
GEVDC
 70
     0
  0
APPID
  2
GEVCON
 70
     0
  0
APPID
  2
GENIUS_GENOBJ-F-SCPASSM_13
 70
     0
  0
APPID
  2
AMG_2DHIDE
 70
     0
  0
APPID
  2
AMG_2DSTRUCT_BTR
 70
     0
  0
APPID
  2
ACADM_2DVIEW_IGN_NOTIFY
 70
     0
  0
APPID
  2
GEVID1250837800
 70
     0
  0
APPID
  2
GEVID1250837801
 70
     0
  0
APPID
  2
GEVID1250837802
 70
     0
  0
APPID
  2
GENIUS_GENSCREG_13
 70
     0
  0
APPID
  2
CONTENTBLOCKICON
 70
     0
  0
ENDTAB
  0
TABLE
  2
DIMSTYLE
 70
    24
  0
DIMSTYLE
  2
AM_ISO
 70
     0
  3

  4
"
  5
OPEN30
  6

  7

 40
1.0
 41
2.5
 42
1.0
 43
10.0
 44
1.0
 45
0.0
 46
0.0
 47
0.1
 48
0.1
140
3.5
141
0.0
142
0.0
143
0.0393701
144
1.0
145
0.0
146
0.71
147
1.5
 71
     0
 72
     0
 73
     0
 74
     0
 75
     0
 76
     0
 77
     1
 78
     8
170
     0
171
     2
172
     1
173
     0
174
     0
175
     0
176
   256
177
   256
178
     2
  0
DIMSTYLE
  2
AM_ISO$3
 70
     0
  3

  4
"
  5
OPEN30
  6

  7

 40
1.0
 41
2.5
 42
1.0
 43
10.0
 44
1.0
 45
0.0
 46
0.0
 47
0.1
 48
0.1
140
3.5
141
0.0
142
0.0
143
0.0393701
144
1.0
145
0.0
146
0.71
147
1.5
 71
     0
 72
     0
 73
     0
 74
     1
 75
     0
 76
     0
 77
     1
 78
     8
170
     0
171
     2
172
     0
173
     0
174
     0
175
     0
176
   256
177
   256
178
     2
  0
DIMSTYLE
  2
AM_ISO$4
 70
     0
  3

  4
"
  5
OPEN30
  6

  7

 40
1.0
 41
2.5
 42
1.0
 43
10.0
 44
1.0
 45
0.0
 46
0.0
 47
0.1
 48
0.1
140
3.5
141
0.0
142
0.0
143
0.0393701
144
1.0
145
0.0
146
0.71
147
1.5
 71
     0
 72
     0
 73
     0
 74
     1
 75
     0
 76
     0
 77
     1
 78
     8
170
     0
171
     2
172
     0
173
     0
174
     0
175
     0
176
   256
177
   256
178
     2
  0
DIMSTYLE
  2
AM_ISO$6
 70
     0
  3

  4
"
  5
OPEN30
  6

  7

 40
1.0
 41
2.5
 42
1.0
 43
10.0
 44
1.0
 45
0.0
 46
0.0
 47
0.1
 48
0.1
140
3.5
141
0.0
142
0.0
143
0.0393701
144
1.0
145
0.0
146
0.71
147
1.5
 71
     0
 72
     0
 73
     0
 74
     0
 75
     0
 76
     0
 77
     0
 78
     8
170
     0
171
     2
172
     1
173
     0
174
     0
175
     0
176
   256
177
   256
178
     2
  0
DIMSTYLE
  2
AM_ISO$7
 70
     0
  3

  4
"
  5
OPEN30
  6

  7

 40
1.0
 41
2.5
 42
1.0
 43
10.0
 44
1.0
 45
0.0
 46
0.0
 47
0.1
 48
0.1
140
5.0
141
0.0
142
0.0
143
0.0393701
144
1.0
145
0.0
146
0.71
147
1.5
 71
     0
 72
     0
 73
     0
 74
     0
 75
     0
 76
     0
 77
     1
 78
     8
170
     0
171
     2
172
     1
173
     0
174
     0
175
     0
176
   256
177
   256
178
     2
  0
DIMSTYLE
  2
AM_ISO$SF
 70
     0
  3

  4
"
  5
OPEN30
  6

  7

 40
1.0
 41
2.5
 42
1.0
 43
10.0
 44
1.0
 45
0.0
 46
0.0
 47
0.1
 48
0.1
140
3.5
141
0.0
142
0.0
143
0.0393701
144
1.0
145
0.0
146
0.71
147
1.5
 71
     0
 72
     0
 73
     0
 74
     0
 75
     1
 76
     1
 77
     1
 78
     8
170
     0
171
     2
172
     1
173
     0
174
     0
175
     0
176
   256
177
   256
178
     2
  0
DIMSTYLE
  2
AM_ISO$SH
 70
     0
  3

  4
"
  5

  6
GENAXEH
  7
OPEN30
 40
1.0
 41
2.5
 42
1.0
 43
10.0
 44
1.0
 45
0.0
 46
0.0
 47
0.1
 48
0.1
140
3.5
141
0.0
142
0.0
143
0.0393701
144
2.0
145
0.0
146
0.71
147
1.5
 71
     0
 72
     0
 73
     0
 74
     0
 75
     1
 76
     1
 77
     1
 78
     8
170
     0
171
     2
172
     1
173
     1
174
     0
175
     0
176
   256
177
   256
178
     2
  0
DIMSTYLE
  2
GEN-ISO
 70
     0
  3

  4
"
  5

  6

  7

 40
1.0
 41
2.5
 42
1.0
 43
10.0
 44
1.0
 45
0.0
 46
0.0
 47
0.1
 48
0.1
140
3.5
141
0.0
142
0.0
143
0.0393701
144
1.0
145
0.0
146
0.71
147
1.5
 71
     0
 72
     0
 73
     0
 74
     0
 75
     0
 76
     0
 77
     1
 78
     8
170
     0
171
     2
172
     1
173
     0
174
     0
175
     0
176
   256
177
   256
178
     2
  0
DIMSTYLE
  2
GEN-ISO$3
 70
     0
  3

  4
"
  5

  6

  7

 40
1.0
 41
2.5
 42
1.0
 43
10.0
 44
1.0
 45
0.0
 46
0.0
 47
0.1
 48
0.1
140
3.5
141
0.0
142
0.0
143
0.0393701
144
1.0
145
0.0
146
0.71
147
1.5
 71
     0
 72
     0
 73
     0
 74
     1
 75
     0
 76
     0
 77
     1
 78
     8
170
     0
171
     2
172
     0
173
     0
174
     0
175
     0
176
   256
177
   256
178
     2
  0
DIMSTYLE
  2
GEN-ISO$4
 70
     0
  3

  4
"
  5

  6

  7

 40
1.0
 41
2.5
 42
1.0
 43
10.0
 44
1.0
 45
0.0
 46
0.0
 47
0.1
 48
0.1
140
3.5
141
0.0
142
0.0
143
0.0393701
144
1.0
145
0.0
146
0.71
147
1.5
 71
     0
 72
     0
 73
     0
 74
     1
 75
     0
 76
     0
 77
     1
 78
     8
170
     0
171
     2
172
     0
173
     0
174
     0
175
     0
176
   256
177
   256
178
     2
  0
DIMSTYLE
  2
GEN-ISO$6
 70
     0
  3

  4
"
  5

  6

  7

 40
1.0
 41
2.5
 42
1.0
 43
10.0
 44
1.0
 45
0.0
 46
0.0
 47
0.1
 48
0.1
140
3.5
141
0.0
142
0.0
143
0.0393701
144
1.0
145
0.0
146
0.71
147
1.5
 71
     0
 72
     0
 73
     0
 74
     0
 75
     0
 76
     0
 77
     0
 78
     8
170
     0
171
     2
172
     0
173
     0
174
     0
175
     0
176
   256
177
   256
178
     2
  0
DIMSTYLE
  2
GEN-ISO-POS
 70
     0
  3

  4
"
  5

  6

  7

 40
1.0
 41
2.5
 42
1.0
 43
10.0
 44
1.0
 45
0.0
 46
0.0
 47
0.1
 48
0.1
140
5.0
141
0.0
142
0.0
143
0.0393701
144
1.0
145
0.0
146
0.71
147
1.5
 71
     0
 72
     0
 73
     0
 74
     0
 75
     0
 76
     0
 77
     0
 78
     8
170
     0
171
     2
172
     0
173
     0
174
     0
175
     0
176
   256
177
   256
178
     2
  0
DIMSTYLE
  2
GEN-ISO-AXE-F
 70
     0
  3

  4
"
  5

  6

  7

 40
1.0
 41
2.5
 42
1.0
 43
10.0
 44
1.0
 45
0.0
 46
0.0
 47
0.1
 48
0.1
140
3.5
141
0.0
142
0.0
143
0.0393701
144
1.0
145
0.0
146
0.71
147
1.5
 71
     0
 72
     0
 73
     0
 74
     0
 75
     1
 76
     1
 77
     1
 78
     8
170
     0
171
     2
172
     1
173
     0
174
     0
175
     0
176
   256
177
   256
178
     2
  0
DIMSTYLE
  2
GEN-ISO-AXE-H
 70
     0
  3

  4
"
  5

  6

  7

 40
1.0
 41
2.5
 42
1.0
 43
10.0
 44
1.0
 45
0.0
 46
0.0
 47
0.1
 48
0.1
140
3.5
141
0.0
142
0.0
143
0.0393701
144
2.0
145
0.0
146
0.71
147
1.5
 71
     0
 72
     0
 73
     0
 74
     0
 75
     1
 76
     1
 77
     1
 78
     8
170
     0
171
     2
172
     1
173
     1
174
     0
175
     0
176
   256
177
   256
178
     2
  0
DIMSTYLE
  2
ISO-25
 70
     0
  3

  4

  5

  6

  7

 40
1.0
 41
2.5
 42
0.625
 43
3.75
 44
1.25
 45
0.0
 46
0.0
 47
0.0
 48
0.0
140
2.5
141
2.5
142
0.0
143
0.03937007874016
144
1.0
145
0.0
146
1.0
147
0.625
 71
     0
 72
     0
 73
     0
 74
     0
 75
     0
 76
     0
 77
     1
 78
     8
170
     0
171
     3
172
     1
173
     0
174
     0
175
     0
176
     0
177
     0
178
     0
  0
DIMSTYLE
  2
AM_JIS
 70
     0
  3

  4
"
  5
OPEN30
  6

  7

 40
1.0
 41
2.5
 42
1.0
 43
10.0
 44
1.0
 45
0.0
 46
0.0
 47
0.1
 48
0.1
140
3.5
141
0.0
142
0.0
143
0.0393701
144
1.0
145
0.0
146
0.71
147
1.5
 71
     0
 72
     0
 73
     0
 74
     0
 75
     0
 76
     0
 77
     3
 78
     8
170
     0
171
     2
172
     1
173
     0
174
     0
175
     0
176
   256
177
   256
178
     2
  0
DIMSTYLE
  2
AM_ANSI
 70
     0
  3

  4
mm
  5

  6

  7

 40
1.0
 41
0.1
 42
0.05
 43
0.5
 44
0.1
 45
0.0
 46
0.0
 47
0.1
 48
0.1
140
0.12
141
0.0
142
0.0
143
25.399999999999999
144
1.0
145
0.0
146
0.71
147
0.06
 71
     0
 72
     0
 73
     1
 74
     1
 75
     0
 76
     0
 77
     0
 78
     7
170
     0
171
     2
172
     0
173
     0
174
     0
175
     0
176
   256
177
   256
178
     2
  0
DIMSTYLE
  2
AM_ISO$0
 70
     0
  3

  4
"
  5
OPEN30
  6

  7

 40
1.0
 41
2.5
 42
1.0
 43
10.0
 44
1.0
 45
0.0
 46
0.0
 47
0.1
 48
0.1
140
3.5
141
0.0
142
0.0
143
0.0393701
144
1.0
145
0.0
146
0.71
147
1.5
 71
     0
 72
     0
 73
     0
 74
     0
 75
     0
 76
     0
 77
     1
 78
     8
170
     0
171
     2
172
     1
173
     0
174
     0
175
     0
176
   256
177
   256
178
     2
  0
DIMSTYLE
  2
AM_JIS$3
 70
     0
  3

  4
"
  5
OPEN30
  6
OPEN30
  7
OPEN30
 40
1.0
 41
2.5
 42
1.0
 43
10.0
 44
1.0
 45
0.0
 46
0.0
 47
0.1
 48
0.1
140
3.5
141
0.0
142
0.0
143
0.0393701
144
1.0
145
0.0
146
0.71
147
1.5
 71
     0
 72
     0
 73
     0
 74
     1
 75
     0
 76
     0
 77
     3
 78
     8
170
     0
171
     2
172
     0
173
     0
174
     0
175
     0
176
   256
177
   256
178
     2
  0
DIMSTYLE
  2
AM_JIS$4
 70
     0
  3

  4
"
  5
OPEN30
  6
OPEN30
  7
OPEN30
 40
1.0
 41
2.5
 42
1.0
 43
10.0
 44
1.0
 45
0.0
 46
0.0
 47
0.1
 48
0.1
140
3.5
141
0.0
142
0.0
143
0.0393701
144
1.0
145
0.0
146
0.71
147
1.5
 71
     0
 72
     0
 73
     0
 74
     1
 75
     0
 76
     0
 77
     3
 78
     8
170
     0
171
     2
172
     0
173
     0
174
     0
175
     0
176
   256
177
   256
178
     2
  0
DIMSTYLE
  2
AM_JIS$6
 70
     0
  3

  4
"
  5
OPEN30
  6
OPEN30
  7
OPEN30
 40
1.0
 41
2.5
 42
1.0
 43
10.0
 44
1.0
 45
0.0
 46
0.0
 47
0.1
 48
0.1
140
3.5
141
0.0
142
0.0
143
0.0393701
144
1.0
145
0.0
146
0.71
147
1.5
 71
     0
 72
     0
 73
     0
 74
     0
 75
     0
 76
     0
 77
     0
 78
     8
170
     0
171
     2
172
     1
173
     0
174
     0
175
     0
176
   256
177
   256
178
     2
  0
DIMSTYLE
  2
AM_JIS$7
 70
     0
  3

  4
"
  5
OPEN30
  6
OPEN30
  7
OPEN30
 40
1.0
 41
2.5
 42
1.0
 43
10.0
 44
1.0
 45
0.0
 46
0.0
 47
0.1
 48
0.1
140
5.0
141
0.0
142
0.0
143
0.0393701
144
1.0
145
0.0
146
0.71
147
1.5
 71
     0
 72
     0
 73
     0
 74
     0
 75
     0
 76
     0
 77
     3
 78
     8
170
     0
171
     2
172
     1
173
     0
174
     0
175
     0
176
   256
177
   256
178
     2
  0
DIMSTYLE
  2
AM_JIS$SF
 70
     0
  3

  4
"
  5
OPEN30
  6
OPEN30
  7
OPEN30
 40
1.0
 41
2.5
 42
1.0
 43
10.0
 44
1.0
 45
0.0
 46
0.0
 47
0.1
 48
0.1
140
3.5
141
0.0
142
0.0
143
0.0393701
144
1.0
145
0.0
146
0.71
147
1.5
 71
     0
 72
     0
 73
     0
 74
     0
 75
     1
 76
     1
 77
     3
 78
     8
170
     0
171
     2
172
     1
173
     0
174
     0
175
     0
176
   256
177
   256
178
     2
  0
DIMSTYLE
  2
AM_JIS$SH
 70
     0
  3

  4
"
  5
OPEN30
  6
GENAXEH
  7
OPEN30
 40
1.0
 41
2.5
 42
1.0
 43
10.0
 44
1.0
 45
0.0
 46
0.0
 47
0.1
 48
0.1
140
3.5
141
0.0
142
0.0
143
0.0393701
144
2.0
145
0.0
146
0.71
147
1.5
 71
     0
 72
     0
 73
     0
 74
     0
 75
     1
 76
     1
 77
     3
 78
     8
170
     0
171
     2
172
     1
173
     1
174
     0
175
     0
176
   256
177
   256
178
     2
  0
ENDTAB
  0
ENDSEC
  0
SECTION
  2
BLOCKS
  0
BLOCK
  8
0
  2
$MODEL_SPACE
 70
     0
 10
0.0
 20
0.0
 30
0.0
  3
$MODEL_SPACE
  1

  0
ENDBLK
  5
21
  8
0
  0
BLOCK
 67
     1
  8
0
  2
$PAPER_SPACE
 70
     0
 10
0.0
 20
0.0
 30
0.0
  3
$PAPER_SPACE
  1

  0
ENDBLK
  5
25
 67
     1
  8
0
  0
BLOCK
  8
0
  2
GENAXEH
 70
     0
 10
0.0
 20
0.0
 30
0.0
  3
GENAXEH
  1

  0
LINE
  5
88
  8
0
 10
-1.0
 20
0.0
 30
0.0
 11
1.0
 21
0.0
 31
0.0
  0
ENDBLK
  5
8A
  8
0
  0
BLOCK
  8
0
  2
_OPEN30
 70
     0
 10
0.0
 20
0.0
 30
0.0
  3
_OPEN30
  1

  0
LINE
  5
408
  8
0
  6
BYBLOCK
 62
     0
 10
-1.0
 20
0.26794919
 30
0.0
 11
0.0
 21
0.0
 31
0.0
  0
LINE
  5
409
  8
0
  6
BYBLOCK
 62
     0
 10
0.0
 20
0.0
 30
0.0
 11
-1.0
 21
-0.26794919
 31
0.0
  0
LINE
  5
40A
  8
0
  6
BYBLOCK
 62
     0
 10
0.0
 20
0.0
 30
0.0
 11
-1.0
 21
0.0
 31
0.0
  0
ENDBLK
  5
40C
  8
0
  0
BLOCK
  8
0
  2
TAKACHI-A3
 70
     0
 10
0.0
 20
0.0
 30
0.0
  3
TAKACHI-A3
  1

  0
POLYLINE
  5
5B4
  8
0
 66
     1
 10
0.0
 20
0.0
 30
0.0
 70
     1
1001
GENIUS_GENREC_14
1002
{
1000
PYDIR
1011
10.000000000000011
1021
-0.0
1031
-0.0
1021
280.0
1031
0.0
1002
}
1002
{
1000
PXDIR
1011
410.0
1021
-0.0
1031
-0.0
1021
0.0
1031
0.0
1002
}
1002
{
1000
PORI
1011
10.0
1021
-0.0
1031
-0.0
1021
0.0
1031
0.0
1002
}
1002
{
1000
PINS
1011
210.0
1021
-0.0
1031
-0.0
1021
139.99999999999989
1031
0.0
1002
}
1002
{
1000
HVAL
1000
280
1002
}
1002
{
1000
H
1070
     2
1002
}
1002
{
1000
WVAL
1000
400
1002
}
1002
{
1000
W
1070
     2
1002
}
1002
{
1000
C
1070
     4
1002
}
1001
GENIUS_GENODEF_13
1002
{
1000
HIER
1070
     0
1002
}
1002
{
1000
MANEDIT
1070
     0
1002
}
1002
{
1000
NOSEL
1070
     0
1002
}
1002
{
1000
BEHIND
1070
     0
1002
}
1002
{
1000
REACTOR
1002
}
1001
GENIUS_GENOBJ-N-REC_13
1002
{
1000
OWNER
1000
GEN
1002
}
  0
VERTEX
  5
5371
  8
0
 10
10.0
 20
0.0
 30
0.0
  0
VERTEX
  5
5372
  8
0
 10
410.0
 20
0.0
 30
0.0
  0
VERTEX
  5
5373
  8
0
 10
410.0
 20
280.0
 30
0.0
  0
VERTEX
  5
5374
  8
0
 10
10.00000000000003
 20
280.0
 30
0.0
  0
SEQEND
  5
5375
  8
0
  0
TEXT
  5
5B5
  8
0
 10
15.00000000000003
 20
50.0
 30
0.0
 40
2.5
  1
!GENTITLE-LL
  0
TEXT
  5
5B6
  8
0
 10
410.0
 20
0.0
 30
0.0
 40
2.5
  1
!GENTITLE-INSERT
  0
TEXT
  5
5B7
  8
0
 10
405.0
 20
275.0
 30
0.0
 40
2.5
  1
!GENTITLE-RU
  0
TEXT
  5
5B8
  8
0
 10
410.0
 20
280.0
 30
0.0
 40
2.5
  1
!GENTITLE-MAX
  0
LINE
  5
5B9
  8
0
 10
366.0
 20
275.0
 30
0.0
 11
410.0
 21
275.0
 31
0.0
  0
INSERT
  5
5BA
  8
AM_6
  2
*U78
 10
0.0
 20
0.0
 30
0.0
  0
LINE
  5
5BB
  8
0
 10
366.0
 20
280.0
 30
0.0
 11
366.0
 21
275.0
 31
0.0
  0
ENDBLK
  5
5BE
  8
0
  0
BLOCK
  8
0
  2
TAKACHI-TITLE
 70
     2
 10
0.0
 20
0.0
 30
0.0
  3
TAKACHI-TITLE
  1

  0
LINE
  5
5D6
  8
RAHM2
 10
-195.0
 20
30.000000000000028
 30
0.0
 11
-94.0
 21
30.000000000000028
 31
0.0
  0
LINE
  5
5D7
  8
RAHM2
 10
-195.0
 20
35.000000000000028
 30
0.0
 11
-94.0
 21
35.000000000000028
 31
0.0
  0
LINE
  5
5D8
  8
RAHM2
 10
-195.0
 20
40.000000000000021
 30
0.0
 11
-94.0
 21
40.000000000000021
 31
0.0
  0
LINE
  5
5D9
  8
RAHM2
 10
-195.0
 20
45.000000000000021
 30
0.0
 11
-94.0
 21
45.000000000000021
 31
0.0
  0
LINE
  5
5DA
  8
0
 10
-195.0
 20
7.0
 30
0.0
 11
-94.0
 21
7.0
 31
0.0
  0
LINE
  5
5DB
  8
0
 10
-195.0
 20
19.999999999999972
 30
0.0
 11
-94.0
 21
19.999999999999972
 31
0.0
  0
ATTDEF
  5
5DC
  8
0
 10
-183.24385271456069
 20
8.9508505244280823
 30
0.0
 40
2.5
  1

 11
-183.24385271456069
 21
8.6175171910947483
 31
0.0
  3
サブタイトル
  2
GEN-TITLE-DES2
 70
     0
 74
     1
  0
ATTDEF
  5
5DD
  8
0
 10
-183.24385271456069
 20
2.0175171910947478
 30
0.0
 40
3.0
  1

 11
-183.24385271456069
 21
1.6175171910947479
 31
0.0
  3
図番
  2
GEN-TITLE-NR
 70
     0
 74
     1
  0
INSERT
  5
5DE
  8
AM_6
  2
*U79
 10
0.0
 20
0.0
 30
0.0
  0
ATTDEF
  5
5DF
  8
0
 10
-183.24385271456069
 20
14.40728619501834
 30
0.0
 40
4.0
  1

 11
-183.24385271456069
 21
13.873952861685011
 31
0.0
  3
品名
  2
GEN-TITLE-DES1
 70
     0
 74
     1
  0
LINE
  5
5E0
  8
RAHM2
 10
-187.57512886940361
 20
30.400000000000041
 30
0.0
 11
-190.0
 21
34.60000000000003
 31
0.0
  0
LINE
  5
5E1
  8
RAHM2
 10
-190.0
 20
34.60000000000003
 30
0.0
 11
-192.42487113059639
 21
30.400000000000041
 31
0.0
  0
LINE
  5
5E2
  8
RAHM2
 10
-185.0
 20
50.000000000000028
 30
0.0
 11
-185.0
 21
19.99999999999994
 31
0.0
  0
LINE
  5
5E3
  8
RAHM2
 10
-192.42487113059639
 20
30.400000000000041
 30
0.0
 11
-187.57512886940361
 21
30.400000000000041
 31
0.0
  0
INSERT
  5
5E4
  8
AM_6
  2
*U80
 10
0.0
 20
0.0
 30
0.0
  0
INSERT
  5
5E5
  8
AM_6
  2
*U81
 10
0.0
 20
0.0
 30
0.0
  0
LINE
  5
5E6
  8
RAHM2
 10
-192.42487113059639
 20
45.400000000000027
 30
0.0
 11
-187.57512886940361
 21
45.400000000000027
 31
0.0
  0
LINE
  5
5E7
  8
RAHM2
 10
-187.57512886940361
 20
45.400000000000027
 30
0.0
 11
-190.0
 21
49.600000000000023
 31
0.0
  0
LINE
  5
5E8
  8
RAHM2
 10
-192.42487113059639
 20
40.400000000000027
 30
0.0
 11
-187.57512886940361
 21
40.400000000000027
 31
0.0
  0
LINE
  5
5E9
  8
RAHM2
 10
-187.57512886940361
 20
40.400000000000027
 30
0.0
 11
-190.0
 21
44.600000000000023
 31
0.0
  0
LINE
  5
5EA
  8
RAHM2
 10
-192.42487113059639
 20
35.400000000000041
 30
0.0
 11
-187.57512886940361
 21
35.400000000000041
 31
0.0
  0
LINE
  5
5EB
  8
RAHM2
 10
-187.57512886940361
 20
35.400000000000041
 30
0.0
 11
-190.0
 21
39.600000000000023
 31
0.0
  0
LINE
  5
5EC
  8
RAHM2
 10
-190.0
 20
39.600000000000023
 30
0.0
 11
-192.42487113059639
 21
35.400000000000041
 31
0.0
  0
LINE
  5
5ED
  8
RAHM2
 10
-190.0
 20
44.600000000000023
 30
0.0
 11
-192.42487113059639
 21
40.400000000000027
 31
0.0
  0
LINE
  5
5EE
  8
RAHM2
 10
-190.0
 20
49.600000000000023
 30
0.0
 11
-192.42487113059639
 21
45.400000000000027
 31
0.0
  0
LINE
  5
5EF
  8
RAHM2
 10
-129.0
 20
50.000000000000028
 30
0.0
 11
-129.0
 21
19.99999999999994
 31
0.0
  0
INSERT
  5
5F0
  8
AM_6
  2
*U82
 10
0.0
 20
0.0
 30
0.0
  0
LINE
  5
5F1
  8
0
 10
-34.0
 20
50.0
 30
0.0
 11
-34.0
 21
0.0
 31
0.0
  0
LINE
  5
5F2
  8
0
 10
-94.0
 20
50.0
 30
0.0
 11
-94.0
 21
0.0
 31
0.0
  0
INSERT
  5
5F3
  8
AM_6
  2
*U83
 10
0.0
 20
0.0
 30
0.0
  0
LINE
  5
5F4
  8
0
 10
-94.0
 20
10.0
 30
0.0
 11
-34.0
 21
10.0
 31
0.0
  0
ATTDEF
  5
5F5
  8
0
 10
-58.014051197997453
 20
39.255005561783491
 30
0.0
 40
3.0
  1

 72
     2
 11
-58.014051197997453
 21
39.255005561783491
 31
0.0
  3
尺度
  2
GEN-TITLE-SCA
 70
     0
  0
ATTDEF
  5
5F6
  8
0
 10
-77.002849666490064
 20
31.02180787943475
 30
0.0
 40
3.0
  1

 11
-77.002849666490064
 21
30.621807879434751
 31
0.0
  3
材質
  2
GEN-TITLE-MAT1
 70
     0
 74
     1
  0
ATTDEF
  5
5F7
  8
0
 10
-77.002849666490064
 20
21.02180787943475
 30
0.0
 40
3.0
  1

 11
-77.002849666490064
 21
20.621807879434751
 31
0.0
  3
表面処理
  2
GEN-TITLE-MAT2
 70
     0
 74
     1
  0
ATTDEF
  5
5F8
  8
0
 10
-77.002849666490064
 20
12.01751719109475
 30
0.0
 40
3.0
  1

 11
-77.002849666490064
 21
11.61751719109475
 31
0.0
  3
日付
  2
GEN-TITLE-DAT
 70
     0
 74
     1
  0
LINE
  5
5F9
  8
0
 10
-94.0
 20
37.5
 30
0.0
 11
-34.0
 21
37.5
 31
0.0
  0
LINE
  5
5FA
  8
0
 10
-94.0
 20
27.5
 30
0.0
 11
-34.0
 21
27.5
 31
0.0
  0
LINE
  5
5FB
  8
0
 10
-94.0
 20
17.5
 30
0.0
 11
-34.0
 21
17.5
 31
0.0
  0
LINE
  5
5FC
  8
RAHM2
 10
-109.0
 20
50.000000000000028
 30
0.0
 11
-109.0
 21
19.99999999999994
 31
0.0
  0
INSERT
  5
5FD
  8
AM_6
  2
*U84
 10
0.0
 20
0.0
 30
0.0
  0
INSERT
  5
5FE
  8
AM_6
  2
*U85
 10
0.0
 20
0.0
 30
0.0
  0
INSERT
  5
5FF
  8
AM_6
  2
*U86
 10
0.0
 20
0.0
 30
0.0
  0
INSERT
  5
600
  8
AM_6
  2
*U87
 10
0.0
 20
0.0
 30
0.0
  0
INSERT
  5
601
  8
AM_6
  2
*U88
 10
0.0
 20
0.0
 30
0.0
  0
INSERT
  5
602
  8
AM_6
  2
*U89
 10
0.0
 20
0.0
 30
0.0
  0
INSERT
  5
603
  8
AM_6
  2
*U90
 10
0.0
 20
0.0
 30
0.0
  0
INSERT
  5
604
  8
AM_6
  2
*U91
 10
0.0
 20
0.0
 30
0.0
  0
LINE
  5
605
  8
7A
 10
-89.0
 20
43.75
 30
0.0
 11
-75.218691599714703
 21
43.75
 31
0.0
1001
GENIUS_GENOREF_13
1005
618
  0
LINE
  5
606
  8
0
 10
-84.0
 20
45.75
 30
0.0
 11
-76.0
 21
46.749999999999993
 31
0.0
  0
LINE
  5
607
  8
0
 10
-76.0
 20
40.75
 30
0.0
 11
-84.0
 21
41.749999999999993
 31
0.0
  0
LINE
  5
608
  8
7A
 10
-89.0
 20
43.75
 30
0.0
 11
-89.0
 21
47.324786644731482
 31
0.0
1001
GENIUS_GENOREF_13
1005
618
  0
CIRCLE
  5
609
  8
0
 10
-89.0
 20
43.75
 30
0.0
 40
2.0
  0
CIRCLE
  5
60A
  8
0
 10
-89.0
 20
43.75
 30
0.0
 40
3.0
  0
LINE
  5
60B
  8
0
 10
-84.0
 20
41.749999999999993
 30
0.0
 11
-84.0
 21
45.75
 31
0.0
  0
INSERT
  5
60C
  8
AM_6
  2
*U92
 10
0.0
 20
0.0
 30
0.0
  0
LINE
  5
60D
  8
7A
 10
-89.0
 20
43.75
 30
0.0
 11
-92.723037371251166
 21
43.75
 31
0.0
1001
GENIUS_GENOREF_13
1005
618
  0
LINE
  5
60E
  8
7A
 10
-89.0
 20
43.75
 30
0.0
 11
-89.0
 21
40.039917242284787
 31
0.0
1001
GENIUS_GENOREF_13
1005
618
  0
LINE
  5
60F
  8
0
 10
-76.0
 20
46.749999999999993
 30
0.0
 11
-76.0
 21
40.75
 31
0.0
  0
LINE
  5
610
  8
0
 10
-74.0
 20
50.0
 30
0.0
 11
-74.0
 21
37.5
 31
0.0
  0
INSERT
  5
611
  8
AM_6
  2
*U93
 10
0.0
 20
0.0
 30
0.0
  0
ATTDEF
  5
612
  8
0
 10
-37.76317379391503
 20
39.255005561783491
 30
0.0
 40
3.0
  1

 72
     2
 11
-37.76317379391503
 21
39.255005561783491
 31
0.0
  3
数量
  2
GEN-TITLE-QTY
 70
     0
  0
LINE
  5
613
  8
0
 10
-34.0
 20
25.0
 30
0.0
 11
0.0
 21
25.0
 31
0.0
  0
LINE
  5
614
  8
0
 10
-54.0
 20
50.0
 30
0.0
 11
-54.0
 21
37.5
 31
0.0
  0
INSERT
  5
615
  8
AM_6
  2
*U94
 10
0.0
 20
0.0
 30
0.0
  0
INSERT
  5
616
  8
AM_6
  2
*U95
 10
0.0
 20
0.0
 30
0.0
  0
INSERT
  5
617
  8
AM_6
  2
*U96
 10
0.0
 20
0.0
 30
0.0
  0
POINT
  5
618
  8
0
 10
-320.5355579819676
 20
-138.11048412682541
 30
0.0
1001
GENIUS_GENODEF_13
1002
{
1000
HIER
1070
    10
1002
}
1002
{
1000
MANEDIT
1070
     0
1002
}
1002
{
1000
NOSEL
1070
     0
1002
}
1002
{
1000
BEHIND
1070
     0
1002
}
1002
{
1000
REACTOR
1002
}
1001
GENIUS_GENOBJ-N-CRS_13
1002
{
1000
OWNER
1000
GEN
1002
}
1001
GENIUS_GENOENT_13
1002
{
1000
MYREF
1005
618
1002
}
1002
{
1000
GRP
1005
0
1002
}
1001
GENIUS_GENOLIS_13
1002
{
1000
ENT
1005
60E
1005
60D
1005
608
1005
605
1002
}
  0
LINE
  5
619
  8
RAHM2
 10
-190.0
 20
29.600000000000019
 30
0.0
 11
-192.42487113059639
 21
25.400000000000041
 31
0.0
  0
LINE
  5
61A
  8
RAHM2
 10
-187.57512886940361
 20
25.400000000000041
 30
0.0
 11
-190.0
 21
29.600000000000019
 31
0.0
  0
LINE
  5
61B
  8
RAHM2
 10
-192.42487113059639
 20
25.400000000000041
 30
0.0
 11
-187.57512886940361
 21
25.400000000000041
 31
0.0
  0
LINE
  5
61C
  8
RAHM2
 10
-195.0
 20
25.000000000000028
 30
0.0
 11
-94.0
 21
25.000000000000028
 31
0.0
  0
INSERT
  5
61D
  8
AM_6
  2
*U97
 10
0.0
 20
0.0
 30
0.0
  0
TEXT
  5
61E
  8
RAHM2
 10
-190.8155863565801
 20
25.98333333333337
 30
0.0
 40
2.5
  1
1
 72
     1
 11
-190.19058635658021
 21
25.650000000000031
 31
0.0
 73
     1
  0
TEXT
  5
61F
  8
RAHM2
 10
-190.9183316929134
 20
30.98333333333337
 30
0.0
 40
2.5
  1
2
 72
     1
 11
-190.0
 21
30.650000000000031
 31
0.0
 73
     1
  0
TEXT
  5
620
  8
RAHM2
 10
-190.92677669529661
 20
35.983333333333341
 30
0.0
 40
2.5
  1
3
 72
     1
 11
-190.0
 21
35.650000000000013
 31
0.0
 73
     1
  0
TEXT
  5
621
  8
RAHM2
 10
-191.0
 20
40.98333333333337
 30
0.0
 40
2.5
  1
4
 72
     1
 11
-190.0
 21
40.650000000000027
 31
0.0
 73
     1
  0
TEXT
  5
622
  8
RAHM2
 10
-190.92677669529661
 20
45.98333333333337
 30
0.0
 40
2.5
  1
5
 72
     1
 11
-190.0
 21
45.650000000000027
 31
0.0
 73
     1
  0
LINE
  5
623
  8
0
 10
-17.0
 20
50.0
 30
0.0
 11
-17.0
 21
0.0
 31
0.0
  0
LINE
  5
624
  8
0
 10
-195.0
 20
0.0
 30
0.0
 11
0.0
 21
0.0
 31
0.0
1001
GENIUS_GENREC_14
1002
{
1000
PYDIR
1011
-184.0
1021
-0.0
1031
-0.0
1021
50.0
1031
0.0
1002
}
1002
{
1000
PXDIR
1011
0.0
1021
-0.0
1031
-0.0
1021
0.0
1031
0.0
1002
}
1002
{
1000
PORI
1011
-184.0
1021
-0.0
1031
-0.0
1021
0.0
1031
0.0
1002
}
1002
{
1000
PINS
1011
-100.5
1021
-0.0
1031
-0.0
1021
25.0
1031
0.0
1002
}
1002
{
1000
HVAL
1000
50
1002
}
1002
{
1000
H
1070
     2
1002
}
1002
{
1000
WVAL
1000
167
1002
}
1002
{
1000
W
1070
     2
1002
}
1002
{
1000
C
1070
     4
1002
}
1001
GENIUS_GENODEF_13
1002
{
1000
HIER
1070
     0
1002
}
1002
{
1000
MANEDIT
1070
     0
1002
}
1002
{
1000
NOSEL
1070
     0
1002
}
1002
{
1000
BEHIND
1070
     0
1002
}
1002
{
1000
REACTOR
1002
}
1001
GENIUS_GENOBJ-N-REC_13
1002
{
1000
OWNER
1000
GEN
1002
}
  0
LINE
  5
625
  8
0
 10
0.0
 20
0.0
 30
0.0
 11
0.0
 21
50.0
 31
0.0
1001
GENIUS_GENREC_14
1002
{
1000
PYDIR
1011
-184.0
1021
-0.0
1031
-0.0
1021
50.0
1031
0.0
1002
}
1002
{
1000
PXDIR
1011
0.0
1021
-0.0
1031
-0.0
1021
0.0
1031
0.0
1002
}
1002
{
1000
PORI
1011
-184.0
1021
-0.0
1031
-0.0
1021
0.0
1031
0.0
1002
}
1002
{
1000
PINS
1011
-100.5
1021
-0.0
1031
-0.0
1021
25.0
1031
0.0
1002
}
1002
{
1000
HVAL
1000
50
1002
}
1002
{
1000
H
1070
     2
1002
}
1002
{
1000
WVAL
1000
167
1002
}
1002
{
1000
W
1070
     2
1002
}
1002
{
1000
C
1070
     4
1002
}
1001
GENIUS_GENODEF_13
1002
{
1000
HIER
1070
     0
1002
}
1002
{
1000
MANEDIT
1070
     0
1002
}
1002
{
1000
NOSEL
1070
     0
1002
}
1002
{
1000
BEHIND
1070
     0
1002
}
1002
{
1000
REACTOR
1002
}
1001
GENIUS_GENOBJ-N-REC_13
1002
{
1000
OWNER
1000
GEN
1002
}
  0
LINE
  5
626
  8
0
 10
0.0
 20
50.0
 30
0.0
 11
-195.0
 21
50.000000000000028
 31
0.0
1001
GENIUS_GENREC_14
1002
{
1000
PYDIR
1011
-184.0
1021
-0.0
1031
-0.0
1021
50.0
1031
0.0
1002
}
1002
{
1000
PXDIR
1011
0.0
1021
-0.0
1031
-0.0
1021
0.0
1031
0.0
1002
}
1002
{
1000
PORI
1011
-184.0
1021
-0.0
1031
-0.0
1021
0.0
1031
0.0
1002
}
1002
{
1000
PINS
1011
-100.5
1021
-0.0
1031
-0.0
1021
25.0
1031
0.0
1002
}
1002
{
1000
HVAL
1000
50
1002
}
1002
{
1000
H
1070
     2
1002
}
1002
{
1000
WVAL
1000
167
1002
}
1002
{
1000
W
1070
     2
1002
}
1002
{
1000
C
1070
     4
1002
}
1001
GENIUS_GENODEF_13
1002
{
1000
HIER
1070
     0
1002
}
1002
{
1000
MANEDIT
1070
     0
1002
}
1002
{
1000
NOSEL
1070
     0
1002
}
1002
{
1000
BEHIND
1070
     0
1002
}
1002
{
1000
REACTOR
1002
}
1001
GENIUS_GENOBJ-N-REC_13
1002
{
1000
OWNER
1000
GEN
1002
}
  0
LINE
  5
627
  8
0
 10
-195.0
 20
50.000000000000028
 30
0.0
 11
-195.0
 21
0.0
 31
0.0
1001
GENIUS_GENREC_14
1002
{
1000
PYDIR
1011
-195.0
1021
-0.0
1031
-0.0
1021
50.0
1031
0.0
1002
}
1002
{
1000
PXDIR
1011
-11.0
1021
-0.0
1031
-0.0
1021
0.0
1031
0.0
1002
}
1002
{
1000
PORI
1011
-195.0
1021
-0.0
1031
-0.0
1021
0.0
1031
0.0
1002
}
1002
{
1000
PINS
1011
-111.5
1021
-0.0
1031
-0.0
1021
25.0
1031
0.0
1002
}
1002
{
1000
HVAL
1000
50
1002
}
1002
{
1000
H
1070
     2
1002
}
1002
{
1000
WVAL
1000
167
1002
}
1002
{
1000
W
1070
     2
1002
}
1002
{
1000
C
1070
     4
1002
}
1001
GENIUS_GENODEF_13
1002
{
1000
HIER
1070
     0
1002
}
1002
{
1000
MANEDIT
1070
     0
1002
}
1002
{
1000
NOSEL
1070
     0
1002
}
1002
{
1000
BEHIND
1070
     0
1002
}
1002
{
1000
REACTOR
1002
}
1001
GENIUS_GENOBJ-N-REC_13
1002
{
1000
OWNER
1000
GEN
1002
}
  0
INSERT
  5
628
  8
AM_6
  2
*U98
 10
0.0
 20
0.0
 30
0.0
  0
INSERT
  5
629
  8
AM_6
  2
*U99
 10
0.0
 20
0.0
 30
0.0
  0
ENDBLK
  5
62C
  8
0
  0
BLOCK
  8
0
  2
TK-A3
 70
     0
 10
0.0
 20
0.0
 30
0.0
  3
TK-A3
  1

  0
TEXT
  5
CB2
  8
0
 10
403.0
 20
280.0
 30
0.0
 40
2.5
  1
!GENTITLE-MAX
  0
TEXT
  5
CB3
  8
0
 10
0.0
 20
0.0
 30
0.0
 40
2.5
  1
!GENTITLE-LL
  0
TEXT
  5
CB4
  8
0
 10
403.0
 20
0.0
 30
0.0
 40
2.5
  1
!GENTITLE-INSERT
  0
LINE
  5
CB5
  8
0
 10
359.0
 20
275.0
 30
0.0
 11
403.0
 21
275.0
 31
0.0
  0
TEXT
  8
0
  40
2.5
  5
5699
  72
0
  71
0
 10
402.359
 20
272.859
 30
0.000000
  1
(文書番号：TY-34)2008.02.08
  0
LINE
  5
CB7
  8
0
 10
359.0
 20
280.0
 30
0.0
 11
359.0
 21
275.0
 31
0.0
  0
ENDBLK
  5
CBA
  8
0
  0
BLOCK
  8
0
  2
TK-TITLE
 70
     2
 10
0.0
 20
0.0
 30
0.0
  3
TK-TITLE
  1

  0
ATTDEF
  5
CBF
  8
0
 10
-8.0023091895458265
 20
1.705189434395036
 30
0.0
 40
2.5
  1

  3
Rev.
  2
GEN-TITLE-NR2
 70
     0
  0
ATTDEF
  5
CC0
  8
0
 10
-84.142519015853296
 20
12.82790432564377
 30
0.0
 40
3.5
  1

  3
品名
  2
GEN-TITLE-DES1
 70
     0
  0
LINE
  5
CC1
  8
0
 10
0.0
 20
0.0
 30
0.0
 11
0.0
 21
50.0
 31
0.0
1001
GENIUS_GENREC_14
1002
{
1000
PYDIR
1011
-414.0
1021
-0.0
1031
-0.0
1021
291.0
1031
0.0
1002
}
1002
{
1000
PXDIR
1011
6.0
1021
-0.0
1031
-0.0
1021
-6.0
1031
0.0
1002
}
1002
{
1000
PORI
1011
-414.0
1021
-0.0
1031
-0.0
1021
-6.0
1031
0.0
1002
}
1002
{
1000
PINS
1011
-414.0
1021
-0.0
1031
-0.0
1021
-6.0
1031
0.0
1002
}
1002
{
1000
HVAL
1000
297
1002
}
1002
{
1000
H
1070
     2
1002
}
1002
{
1000
WVAL
1000
420
1002
}
1002
{
1000
W
1070
     2
1002
}
1002
{
1000
C
1070
     1
1002
}
1001
GENIUS_GENODEF_13
1002
{
1000
HIER
1070
     0
1002
}
1002
{
1000
MANEDIT
1070
     0
1002
}
1002
{
1000
NOSEL
1070
     0
1002
}
1002
{
1000
BEHIND
1070
     0
1002
}
1002
{
1000
OTHER
1070
     0
1002
}
1002
{
1000
REACTOR
1002
}
1001
GENIUS_GENOBJ-N-REC_13
1002
{
1000
OWNER
1000
GEN
1002
}
  0
ATTDEF
  5
CC2
  8
0
 10
-84.0
 20
9.1499999999999488
 30
0.0
 40
2.5
  1

  3
サブタイトル
  2
GEN-TITLE-DES2
 70
     0
  0
ATTDEF
  5
CC3
  8
0
 10
-84.0
 20
1.9999999999999569
 30
0.0
 40
3.0
  1

  3
図番
  2
GEN-TITLE-NR1
 70
     0
  0
LINE
  5
CC4
  8
0
 10
-96.0
 20
50.000000000000007
 30
0.0
 11
-96.0
 21
-0.0000000000000142
 31
0.0
1001
GENIUS_GENREC_14
1002
{
1000
PYDIR
1011
-96.0
1021
-0.0
1031
-0.0
1021
49.999999999999993
1031
0.0
1002
}
1002
{
1000
PXDIR
1011
88.0
1021
-0.0
1031
-0.0
1021
-0.0000000000000142
1031
0.0
1002
}
1002
{
1000
PORI
1011
-96.0
1021
-0.0
1031
-0.0
1021
-0.0000000000000142
1031
0.0
1002
}
1002
{
1000
PINS
1011
-12.5
1021
-0.0
1031
-0.0
1021
24.999999999999989
1031
0.0
1002
}
1002
{
1000
HVAL
1000
50
1002
}
1002
{
1000
H
1070
     2
1002
}
1002
{
1000
WVAL
1000
167
1002
}
1002
{
1000
W
1070
     2
1002
}
1002
{
1000
C
1070
     4
1002
}
1001
GENIUS_GENODEF_13
1002
{
1000
HIER
1070
     0
1002
}
1002
{
1000
MANEDIT
1070
     0
1002
}
1002
{
1000
NOSEL
1070
     0
1002
}
1002
{
1000
BEHIND
1070
     0
1002
}
1002
{
1000
REACTOR
1002
}
1001
GENIUS_GENOBJ-N-REC_13
1002
{
1000
OWNER
1000
GEN
1002
}
  0
LINE
  5
CC5
  8
0
 10
0.0
 20
50.0
 30
0.0
 11
-193.00000000000011
 21
50.000000000000021
 31
0.0
1001
GENIUS_GENREC_14
1002
{
1000
PYDIR
1011
-184.0
1021
-0.0
1031
-0.0
1021
50.0
1031
0.0
1002
}
1002
{
1000
PXDIR
1011
0.0
1021
-0.0
1031
-0.0
1021
0.0
1031
0.0
1002
}
1002
{
1000
PORI
1011
-184.0
1021
-0.0
1031
-0.0
1021
0.0
1031
0.0
1002
}
1002
{
1000
PINS
1011
-100.5
1021
-0.0
1031
-0.0
1021
25.0
1031
0.0
1002
}
1002
{
1000
HVAL
1000
50
1002
}
1002
{
1000
H
1070
     2
1002
}
1002
{
1000
WVAL
1000
167
1002
}
1002
{
1000
W
1070
     2
1002
}
1002
{
1000
C
1070
     4
1002
}
1001
GENIUS_GENODEF_13
1002
{
1000
HIER
1070
     0
1002
}
1002
{
1000
MANEDIT
1070
     0
1002
}
1002
{
1000
NOSEL
1070
     0
1002
}
1002
{
1000
BEHIND
1070
     0
1002
}
1002
{
1000
REACTOR
1002
}
1001
GENIUS_GENOBJ-N-REC_13
1002
{
1000
OWNER
1000
GEN
1002
}
  0
LINE
  5
CC6
  8
0
 10
-193.00000000000011
 20
0.0
 30
0.0
 11
0.0
 21
0.0
 31
0.0
1001
GENIUS_GENREC_14
1002
{
1000
PYDIR
1011
-184.0
1021
-0.0
1031
-0.0
1021
50.0
1031
0.0
1002
}
1002
{
1000
PXDIR
1011
0.0
1021
-0.0
1031
-0.0
1021
0.0
1031
0.0
1002
}
1002
{
1000
PORI
1011
-184.0
1021
-0.0
1031
-0.0
1021
0.0
1031
0.0
1002
}
1002
{
1000
PINS
1011
-100.5
1021
-0.0
1031
-0.0
1021
25.0
1031
0.0
1002
}
1002
{
1000
HVAL
1000
50
1002
}
1002
{
1000
H
1070
     2
1002
}
1002
{
1000
WVAL
1000
167
1002
}
1002
{
1000
W
1070
     2
1002
}
1002
{
1000
C
1070
     4
1002
}
1001
GENIUS_GENODEF_13
1002
{
1000
HIER
1070
     0
1002
}
1002
{
1000
MANEDIT
1070
     0
1002
}
1002
{
1000
NOSEL
1070
     0
1002
}
1002
{
1000
BEHIND
1070
     0
1002
}
1002
{
1000
REACTOR
1002
}
1001
GENIUS_GENOBJ-N-REC_13
1002
{
1000
OWNER
1000
GEN
1002
}
  0
TEXT
  5
CC7
  8
RAHM2
 10
-91.926776695296624
 20
45.983333333333348
 30
0.0
 40
2.5
  1
5
 72
     1
 11
-91.0
 21
45.65000000000002
 31
0.0
 73
     1
  0
TEXT
  5
CC8
  8
RAHM2
 10
-92.0
 20
40.983333333333348
 30
0.0
 40
2.5
  1
4
 72
     1
 11
-91.0
 21
40.65000000000002
 31
0.0
 73
     1
  0
TEXT
  5
CC9
  8
RAHM2
 10
-91.926776695296624
 20
35.983333333333327
 30
0.0
 40
2.5
  1
3
 72
     1
 11
-91.0
 21
35.649999999999991
 31
0.0
 73
     1
  0
TEXT
  5
CCA
  8
RAHM2
 10
-91.918331692913384
 20
30.983333333333348
 30
0.0
 40
2.5
  1
2
 72
     1
 11
-91.0
 21
30.65000000000002
 31
0.0
 73
     1
  0
TEXT
  5
CCB
  8
RAHM2
 10
-91.815586356580184
 20
25.983333333333348
 30
0.0
 40
2.5
  1
1
 72
     1
 11
-91.190586356580184
 21
25.65000000000002
 31
0.0
 73
     1
  0
INSERT
  5
CCC
  8
AM_6
  2
*U100
 10
0.0
 20
0.0
 30
0.0
  0
LINE
  5
CCD
  8
RAHM2
 10
-96.0
 20
25.0
 30
0.0
 11
0.0000000000001137
 21
25.000000000000028
 31
0.0
  0
LINE
  5
CCE
  8
RAHM2
 10
-93.424871130596443
 20
25.40000000000002
 30
0.0
 11
-88.575128869403557
 21
25.40000000000002
 31
0.0
  0
LINE
  5
CCF
  8
RAHM2
 10
-88.575128869403557
 20
25.40000000000002
 30
0.0
 11
-91.0
 21
29.600000000000009
 31
0.0
  0
LINE
  5
CD0
  8
RAHM2
 10
-91.0
 20
29.600000000000009
 30
0.0
 11
-93.424871130596443
 21
25.40000000000002
 31
0.0
  0
INSERT
  5
CD1
  8
AM_6
  2
*U101
 10
0.0
 20
0.0
 30
0.0
  0
INSERT
  5
CD2
  8
AM_6
  2
*U102
 10
0.0
 20
0.0
 30
0.0
  0
INSERT
  5
CD3
  8
AM_6
  2
*U103
 10
0.0
 20
0.0
 30
0.0
  0
INSERT
  5
CD4
  8
AM_6
  2
*U104
 10
0.0
 20
0.0
 30
0.0
  0
INSERT
  5
CD5
  8
AM_6
  2
*U105
 10
0.0
 20
0.0
 30
0.0
  0
INSERT
  5
CD6
  8
AM_6
  2
*U106
 10
0.0
 20
0.0
 30
0.0
  0
LINE
  5
CD7
  8
RAHM2
 10
-11.82081941068907
 20
50.000000000000028
 30
0.0
 11
-11.82081941068907
 21
19.99999999999994
 31
0.0
  0
INSERT
  5
CD8
  8
AM_6
  2
*U107
 10
0.0
 20
0.0
 30
0.0
  0
LINE
  5
CD9
  8
RAHM2
 10
-31.820819410689069
 20
50.000000000000028
 30
0.0
 11
-31.820819410689179
 21
19.99999999999994
 31
0.0
  0
LINE
  5
CDA
  8
RAHM2
 10
-91.0
 20
49.600000000000001
 30
0.0
 11
-93.424871130596443
 21
45.400000000000013
 31
0.0
  0
LINE
  5
CDB
  8
RAHM2
 10
-91.0
 20
44.600000000000001
 30
0.0
 11
-93.424871130596443
 21
40.400000000000013
 31
0.0
  0
LINE
  5
CDC
  8
RAHM2
 10
-91.0
 20
39.600000000000009
 30
0.0
 11
-93.424871130596443
 21
35.40000000000002
 31
0.0
  0
LINE
  5
CDD
  8
RAHM2
 10
-88.575128869403557
 20
35.40000000000002
 30
0.0
 11
-91.0
 21
39.600000000000009
 31
0.0
  0
LINE
  5
CDE
  8
RAHM2
 10
-93.424871130596443
 20
35.40000000000002
 30
0.0
 11
-88.575128869403557
 21
35.40000000000002
 31
0.0
  0
LINE
  5
CDF
  8
RAHM2
 10
-88.575128869403557
 20
40.400000000000013
 30
0.0
 11
-91.0
 21
44.600000000000001
 31
0.0
  0
LINE
  5
CE0
  8
RAHM2
 10
-93.424871130596443
 20
40.400000000000013
 30
0.0
 11
-88.575128869403557
 21
40.400000000000013
 31
0.0
  0
LINE
  5
CE1
  8
RAHM2
 10
-88.575128869403557
 20
45.400000000000013
 30
0.0
 11
-91.0
 21
49.600000000000001
 31
0.0
  0
LINE
  5
CE2
  8
RAHM2
 10
-93.424871130596443
 20
45.400000000000013
 30
0.0
 11
-88.575128869403557
 21
45.400000000000013
 31
0.0
  0
INSERT
  5
CE3
  8
AM_6
  2
*U108
 10
0.0
 20
0.0
 30
0.0
  0
INSERT
  5
CE4
  8
AM_6
  2
*U109
 10
0.0
 20
0.0
 30
0.0
  0
LINE
  5
CE5
  8
RAHM2
 10
-93.424871130596443
 20
30.40000000000002
 30
0.0
 11
-88.575128869403557
 21
30.40000000000002
 31
0.0
  0
LINE
  5
CE6
  8
RAHM2
 10
-86.0
 20
50.000000000000007
 30
0.0
 11
-86.0
 21
19.999999999999929
 31
0.0
  0
LINE
  5
CE7
  8
RAHM2
 10
-91.0
 20
34.600000000000009
 30
0.0
 11
-93.424871130596443
 21
30.40000000000002
 31
0.0
  0
LINE
  5
CE8
  8
RAHM2
 10
-88.575128869403557
 20
30.40000000000002
 30
0.0
 11
-91.0
 21
34.600000000000009
 31
0.0
  0
INSERT
  5
CE9
  8
AM_6
  2
*U110
 10
0.0
 20
0.0
 30
0.0
  0
LINE
  5
CEA
  8
0
 10
-96.0
 20
19.999999999999972
 30
0.0
 11
0.0000000000001137
 21
19.999999999999972
 31
0.0
  0
LINE
  5
CEB
  8
0
 10
-96.0
 20
7.0
 30
0.0
 11
0.0000000000001137
 21
7.0
 31
0.0
  0
LINE
  5
CEC
  8
RAHM2
 10
-96.0
 20
45.000000000000021
 30
0.0
 11
0.0000000000001137
 21
45.000000000000021
 31
0.0
  0
LINE
  5
CED
  8
RAHM2
 10
-96.0
 20
39.999999999999929
 30
0.0
 11
0.0000000000001137
 21
40.000000000000021
 31
0.0
  0
LINE
  5
CEE
  8
RAHM2
 10
-96.0
 20
35.000000000000028
 30
0.0
 11
0.0000000000001137
 21
35.000000000000028
 31
0.0
  0
LINE
  5
CEF
  8
RAHM2
 10
-96.0
 20
29.999999999999918
 30
0.0
 11
0.0000000000001137
 21
30.000000000000028
 31
0.0
  0
LINE
  5
CF0
  8
0
 10
-21.175419266257109
 20
0.0
 30
0.0
 11
-21.17541926625734
 21
7.0
 31
0.0
  0
INSERT
  5
CF1
  8
AM_6
  2
*U111
 10
0.0
 20
0.0
 30
0.0
  0
INSERT
  5
CF2
  8
AM_6
  2
*U112
 10
0.0
 20
0.0
 30
0.0
  0
LINE
  5
CF3
  8
0
 10
-167.0
 20
19.999999999999929
 30
0.0
 11
-96.0
 21
19.999999999999929
 31
0.0
  0
LINE
  5
CF4
  8
0
 10
-113.75
 20
19.999999999999929
 30
0.0
 11
-113.75
 21
-0.0000000000000533
 31
0.0
  0
LINE
  5
CF5
  8
0
 10
-131.50000000000011
 20
19.999999999999929
 30
0.0
 11
-131.50000000000011
 21
-0.0000000000000533
 31
0.0
  0
INSERT
  5
CF6
  8
AM_6
  2
*U113
 10
0.0
 20
0.0
 30
0.0
  0
LINE
  5
CF7
  8
0
 10
-167.0
 20
49.99999999999995
 30
0.0
 11
-167.0
 21
-0.0000000000000497
 31
0.0
  0
LINE
  5
CF8
  8
0
 10
-149.25000000000011
 20
19.999999999999929
 30
0.0
 11
-149.25000000000011
 21
-0.0000000000000462
 31
0.0
  0
INSERT
  5
CF9
  8
AM_6
  2
*U114
 10
0.0
 20
0.0
 30
0.0
  0
INSERT
  5
CFA
  8
AM_6
  2
*U115
 10
0.0
 20
0.0
 30
0.0
  0
LINE
  5
CFB
  8
0
 10
-167.0
 20
29.999999999999918
 30
0.0
 11
-96.0
 21
29.999999999999918
 31
0.0
  0
INSERT
  5
CFC
  8
AM_6
  2
*U116
 10
0.0
 20
0.0
 30
0.0
  0
ATTDEF
  5
CFD
  8
0
 10
-148.96186758352911
 20
43.299999999999912
 30
0.0
 40
3.0
  1

  3
材質
  2
GEN-TITLE-MAT1
 70
     0
  0
ATTDEF
  5
CFE
  8
0
 10
-148.96186758352911
 20
33.299999999999912
 30
0.0
 40
3.0
  1

  3
表面処理
  2
GEN-TITLE-MAT2
 70
     0
  0
INSERT
  5
CFF
  8
AM_6
  2
*U117
 10
0.0
 20
0.0
 30
0.0
  0
INSERT
  5
D00
  8
AM_6
  2
*U118
 10
0.0
 20
0.0
 30
0.0
  0
LINE
  5
D01
  8
0
 10
-167.0
 20
39.999999999999908
 30
0.0
 11
-96.0
 21
39.999999999999922
 31
0.0
  0
LINE
  5
D02
  8
0
 10
-167.0
 20
24.999999999999972
 30
0.0
 11
-193.00000000000011
 21
24.999999999999972
 31
0.0
  0
LINE
  5
D03
  8
0
 10
-171.71674187457961
 20
46.74999999999995
 30
0.0
 11
-171.71674187457961
 21
40.749999999999943
 31
0.0
  0
LINE
  5
D04
  8
7A
 10
-184.71674187457961
 20
43.74999999999995
 30
0.0
 11
-184.71674187457961
 21
40.03991724228473
 31
0.0
1001
GENIUS_GENOREF_13
1005
D16
  0
LINE
  5
D05
  8
7A
 10
-184.71674187457961
 20
43.74999999999995
 30
0.0
 11
-188.43977924583069
 21
43.74999999999995
 31
0.0
1001
GENIUS_GENOREF_13
1005
D16
  0
LINE
  5
D06
  8
0
 10
-179.71674187457961
 20
41.74999999999995
 30
0.0
 11
-179.71674187457961
 21
45.749999999999943
 31
0.0
  0
CIRCLE
  5
D07
  8
0
 10
-184.71674187457961
 20
43.74999999999995
 30
0.0
 40
3.0
  0
CIRCLE
  5
D08
  8
0
 10
-184.71674187457961
 20
43.74999999999995
 30
0.0
 40
2.0
  0
LINE
  5
D09
  8
7A
 10
-184.71674187457961
 20
43.74999999999995
 30
0.0
 11
-184.71674187457961
 21
47.324786644731439
 31
0.0
1001
GENIUS_GENOREF_13
1005
D16
  0
LINE
  5
D0A
  8
0
 10
-171.71674187457961
 20
40.749999999999943
 30
0.0
 11
-179.71674187457961
 21
41.74999999999995
 31
0.0
  0
LINE
  5
D0B
  8
0
 10
-179.71674187457961
 20
45.749999999999943
 30
0.0
 11
-171.71674187457961
 21
46.74999999999995
 31
0.0
  0
LINE
  5
D0C
  8
7A
 10
-184.71674187457961
 20
43.74999999999995
 30
0.0
 11
-170.93543347429431
 21
43.74999999999995
 31
0.0
1001
GENIUS_GENOREF_13
1005
D16
  0
LINE
  5
D0D
  8
0
 10
-193.00000000000011
 20
49.999999999999993
 30
0.0
 11
-193.00000000000011
 21
-0.0000000000000142
 31
0.0
  0
ATTDEF
  5
D0E
  8
0
 10
-175.6127409126095
 20
16.199999999999939
 30
0.0
 40
3.0
  1

 72
     2
 11
-175.6127409126095
 21
15.79999999999994
 31
0.0
  3
数量
  2
GEN-TITLE-QTY
 70
     0
 74
     1
  0
INSERT
  5
D0F
  8
AM_6
  2
*U119
 10
0.0
 20
0.0
 30
0.0
  0
INSERT
  5
D10
  8
AM_6
  2
*U120
 10
0.0
 20
0.0
 30
0.0
  0
ATTDEF
  5
D11
  8
0
 10
-177.824739614424
 20
28.699999999999971
 30
0.0
 40
3.0
  1

 72
     2
 11
-177.824739614424
 21
28.299999999999979
 31
0.0
  3
尺度
  2
GEN-TITLE-SCA
 70
     0
 74
     1
  0
INSERT
  5
D12
  8
AM_6
  2
*U121
 10
0.0
 20
0.0
 30
0.0
  0
ATTDEF
  5
D13
  8
0
 10
-180.2171951662138
 20
3.9883425376106638
 30
0.0
 40
3.0
  1

 72
     1
 11
-180.2171951662138
 21
3.5883425376106639
 31
0.0
  3
日付
  2
GEN-TITLE-DAT
 70
     0
 74
     1
  0
LINE
  5
D14
  8
0
 10
-167.0
 20
37.499999999999979
 30
0.0
 11
-193.00000000000011
 21
37.499999999999979
 31
0.0
  0
LINE
  5
D15
  8
0
 10
-167.0
 20
12.499999999999959
 30
0.0
 11
-193.00000000000011
 21
12.499999999999959
 31
0.0
  0
POINT
  5
D16
  8
0
 10
-418.53555798196749
 20
-138.11048412682541
 30
0.0
1001
GENIUS_GENODEF_13
1002
{
1000
HIER
1070
    10
1002
}
1002
{
1000
MANEDIT
1070
     0
1002
}
1002
{
1000
NOSEL
1070
     0
1002
}
1002
{
1000
BEHIND
1070
     0
1002
}
1002
{
1000
REACTOR
1002
}
1001
GENIUS_GENOBJ-N-CRS_13
1002
{
1000
OWNER
1000
GEN
1002
}
1001
GENIUS_GENOENT_13
1002
{
1000
MYREF
1005
D16
1002
}
1002
{
1000
GRP
1005
0
1002
}
1001
GENIUS_GENOLIS_13
1002
{
1000
ENT
1005
D04
1005
D05
1005
D09
1005
D0C
1002
}
  0
ENDBLK
  5
D19
  8
0
  0
BLOCK
  8
0
  2
取手正面
 70
     0
 10
0.0
 20
0.0
 30
0.0
  3
取手正面
  1

  0
ARC
  5
2E56
  8
0
  6
CONTINUOUS
 10
47.0
 20
-21.0
 30
0.0
 40
5.0
 50
270.0
 51
0.0
  0
LINE
  5
2E57
  8
0
  6
CONTINUOUS
 10
38.0
 20
3.0
 30
0.0
 11
-38.0
 21
3.0
 31
0.0
  0
LINE
  5
2E58
  8
0
  6
CONTINUOUS
 10
47.0
 20
0.0
 30
0.0
 11
-47.0
 21
0.0
 31
0.0
  0
LINE
  5
2E59
  8
0
  6
CONTINUOUS
 10
47.0
 20
-26.0
 30
0.0
 11
-47.0
 21
-26.0
 31
0.0
  0
LINE
  5
2E5A
  8
0
  6
CONTINUOUS
 10
-52.0
 20
-5.0
 30
0.0
 11
-52.0
 21
-21.0
 31
0.0
  0
LINE
  5
2E5B
  8
0
  6
CONTINUOUS
 10
-47.0
 20
-9.0
 30
0.0
 11
-47.0
 21
-18.658203999999841
 31
0.0
  0
LINE
  5
2E5C
  8
0
  6
CONTINUOUS
 10
41.0
 20
0.0
 30
0.0
 11
41.0
 21
0.0
 31
0.0
  0
LINE
  5
2E5D
  8
0
  6
CONTINUOUS
 10
-41.0
 20
0.0
 30
0.0
 11
-41.0
 21
0.0
 31
0.0
  0
ARC
  5
2E5E
  8
0
  6
CONTINUOUS
 10
-44.0
 20
-9.0
 30
0.0
 40
3.0
 50
90.0
 51
180.0
  0
LINE
  5
2E5F
  8
0
  6
CONTINUOUS
 10
44.0
 20
-21.658203999999841
 30
0.0
 11
-44.0
 21
-21.658203999999841
 31
0.0
  0
ARC
  5
2E60
  8
0
  6
CONTINUOUS
 10
-44.0
 20
-18.658203999999841
 30
0.0
 40
3.0
 50
180.0
 51
270.0
  0
ARC
  5
2E61
  8
0
  6
CONTINUOUS
 10
44.0
 20
-9.0
 30
0.0
 40
3.0
 50
0.0
 51
90.0
  0
LINE
  5
2E62
  8
0
  6
CONTINUOUS
 10
44.0
 20
-6.0
 30
0.0
 11
-44.0
 21
-6.0
 31
0.0
  0
ARC
  5
2E63
  8
0
  6
CONTINUOUS
 10
44.0
 20
-18.658203999999841
 30
0.0
 40
3.0
 50
270.0
 51
0.0
  0
ARC
  5
2E64
  8
0
  6
CONTINUOUS
 10
-47.0
 20
-5.0
 30
0.0
 40
5.0
 50
90.0
 51
180.0
  0
LINE
  5
2E65
  8
0
  6
CONTINUOUS
 10
47.0
 20
-9.0
 30
0.0
 11
47.0
 21
-18.658203999999841
 31
0.0
  0
ARC
  5
2E66
  8
0
  6
CONTINUOUS
 10
-47.0
 20
-21.0
 30
0.0
 40
5.0
 50
180.0
 51
270.0
  0
LINE
  5
2E67
  8
0
  6
CONTINUOUS
 10
52.0
 20
-5.0
 30
0.0
 11
52.0
 21
-21.0
 31
0.0
  0
ARC
  5
2E68
  8
0
  6
CONTINUOUS
 10
38.0
 20
0.0
 30
0.0
 40
3.0
 50
0.0
 51
90.0
  0
ARC
  5
2E69
  8
0
  6
CONTINUOUS
 10
-38.0
 20
0.0
 30
0.0
 40
3.0
 50
90.0
 51
180.0
  0
ARC
  5
2E6A
  8
0
  6
CONTINUOUS
 10
56.99999200000002
 20
-9.0698780000000152
 30
0.0
 40
16.0
 50
180.05762799999781
 51
223.67830199999821
  0
LINE
  5
2E6B
  8
0
  6
CONTINUOUS
 10
41.0
 20
-9.0859709999999723
 30
0.0
 11
41.0
 21
-6.0
 31
0.0
  0
ARC
  5
2E6C
  8
0
  6
CONTINUOUS
 10
-56.999991999999793
 20
-9.0698780000000152
 30
0.0
 40
16.0
 50
316.32169800000167
 51
359.94237200000219
  0
LINE
  5
2E6D
  8
0
  6
CONTINUOUS
 10
-41.0
 20
-9.0859709999999723
 30
0.0
 11
-41.0
 21
-6.0
 31
0.0
  0
ARC
  5
2E6E
  8
0
  6
CONTINUOUS
 10
47.0
 20
-5.0
 30
0.0
 40
5.0
 50
0.0
 51
90.0
  0
ENDBLK
  5
2E72
  8
0
  0
BLOCK
  8
0
  2
取手横
 70
     0
 10
0.0
 20
0.0
 30
0.0
  3
取手横
  1

  0
LINE
  5
2ED7
  8
0
  6
CONTINUOUS
 10
3.0000005198960471
 20
16.972393024514759
 30
0.0
 11
29.000000519896052
 21
16.972393024514759
 31
0.0
  0
LINE
  5
2ED8
  8
0
  6
CONTINUOUS
 10
3.0000005198960471
 20
17.265286024514801
 30
0.0
 11
3.0000005198960471
 21
16.972393024514759
 31
0.0
  0
LINE
  5
2ED9
  8
0
  6
CONTINUOUS
 10
29.000000519896052
 20
17.067405024514748
 30
0.0
 11
29.000000519896052
 21
16.972393024514759
 31
0.0
  0
LINE
  5
2EDA
  8
0
  6
HIDDEN
 10
0.000000519896048
 20
14.87239302451462
 30
0.0
 11
0.000000519896048
 21
3.3858070245146328
 31
0.0
  0
LINE
  5
2EDB
  8
0
  6
HIDDEN
 10
1.0000005198960471
 20
15.87239302451462
 30
0.0
 11
5.0000005198960471
 21
15.87239302451462
 31
0.0
  0
LINE
  5
2EDC
  8
0
  6
HIDDEN
 10
5.0000005198960471
 20
16.972393024514759
 30
0.0
 11
5.0000005198960471
 21
15.87239302451462
 31
0.0
  0
ARC
  5
2EDD
  8
0
  6
HIDDEN
 10
1.0000005198960471
 20
14.87239302451462
 30
0.0
 40
1.0
 50
90.0
 51
180.0
  0
ARC
  5
2EDE
  8
0
  6
HIDDEN
 10
6.7262805198959077
 20
19.972393024514759
 30
0.0
 40
20.0
 50
257.33836500000331
 51
351.37307300000481
  0
ARC
  5
2EDF
  8
0
  6
CONTINUOUS
 10
4.0000005198960471
 20
17.265286024514801
 30
0.0
 40
1.0
 50
109.47122099999559
 51
180.0
  0
ARC
  5
2EE0
  8
0
  6
CONTINUOUS
 10
28.000000519896052
 20
17.067405024514748
 30
0.0
 40
1.0
 50
0.0
 51
84.259468000003736
  0
ARC
  5
2EE1
  8
0
  6
CONTINUOUS
 10
9.0000005198960462
 20
17.972393024514759
 30
0.0
 40
2.0
 50
84.259468000003736
 51
109.47122099999559
  0
LINE
  5
2EE2
  8
0
  6
CONTINUOUS
 10
8.3333335198958594
 20
19.858011024514781
 30
0.0
 11
3.6666665198958981
 21
18.208095024514702
 31
0.0
  0
LINE
  5
2EE3
  8
0
  6
CONTINUOUS
 10
28.100023519896009
 20
18.062390024514801
 30
0.0
 11
9.2000475198960885
 21
19.962363024514609
 31
0.0
  0
LINE
  5
2EE4
  8
0
  6
HIDDEN
 10
7.0000005198960471
 20
16.972393024514759
 30
0.0
 11
7.0000005198960471
 21
1.97447402451462
 31
0.0
  0
ARC
  5
2EE5
  8
0
  6
HIDDEN
 10
3.0000005198960471
 20
3.3858070245146328
 30
0.0
 40
3.0
 50
180.0
 51
257.33836500000331
  0
ARC
  5
2EE6
  8
0
  6
HIDDEN
 10
17.991060519895878
 20
8.4913060245146426
 30
0.0
 40
10.991076
 50
129.4991610000107
 51
180.0
  0
ARC
  5
2EE7
  8
0
  6
HIDDEN
 10
23.100000519895961
 20
15.87239302451462
 30
0.0
 40
4.0
 50
303.15016600000399
 51
0.0
  0
LINE
  5
2EE8
  8
0
  6
HIDDEN
 10
26.301519519895919
 20
15.87239302451462
 30
0.0
 11
27.100000519895961
 21
15.87239302451462
 31
0.0
  0
ENDBLK
  5
2EEC
  8
0
  0
BLOCK
  8
0
  2
取手上
 70
     0
 10
0.0
 20
0.0
 30
0.0
  3
取手上
  1

  0
LINE
  5
2F33
  8
0
  6
HIDDEN
 10
7.4489594934836409
 20
79.999999831822151
 30
0.0
 11
4.0999984934834961
 21
79.999999831822151
 31
0.0
  0
LINE
  5
2F34
  8
0
  6
HIDDEN
 10
7.4489594934836409
 20
73.999999831822151
 30
0.0
 11
7.4489594934836409
 21
79.999999831822151
 31
0.0
  0
LINE
  5
2F35
  8
0
  6
HIDDEN
 10
4.0999984934834961
 20
73.999999831822151
 30
0.0
 11
7.4489594934836409
 21
73.999999831822151
 31
0.0
  0
LINE
  5
2F36
  8
0
  6
HIDDEN
 10
7.4489594934836978
 20
54.999999831822151
 30
0.0
 11
4.0999984934835529
 21
54.999999831822151
 31
0.0
  0
LINE
  5
2F37
  8
0
  6
HIDDEN
 10
7.4489594934836978
 20
48.999999831822151
 30
0.0
 11
7.4489594934836978
 21
54.999999831822151
 31
0.0
  0
LINE
  5
2F38
  8
0
  6
HIDDEN
 10
4.0999984934835529
 20
48.999999831822151
 30
0.0
 11
7.4489594934836978
 21
48.999999831822151
 31
0.0
  0
LINE
  5
2F39
  8
0
  6
CONTINUOUS
 62
     7
 10
7.4489594934836978
 20
29.999999831822151
 30
0.0
 11
4.0999984934835529
 21
29.999999831822151
 31
0.0
  0
LINE
  5
2F3A
  8
0
  6
CONTINUOUS
 62
     7
 10
7.4489594934836978
 20
23.999999831822151
 30
0.0
 11
7.4489594934836978
 21
29.999999831822151
 31
0.0
  0
LINE
  5
2F3B
  8
0
  6
CONTINUOUS
 62
     7
 10
4.0999984934835529
 20
23.999999831822151
 30
0.0
 11
7.4489594934836978
 21
23.999999831822151
 31
0.0
  0
LINE
  5
2F3C
  8
0
  6
HIDDEN
 10
4.0999984934835529
 20
21.999999831822151
 30
0.0
 11
2.9999984934836439
 21
21.999999831822151
 31
0.0
  0
LINE
  5
2F3D
  8
0
  6
HIDDEN
 10
4.0999984934834961
 20
81.999999831822137
 30
0.0
 11
4.0999984934835529
 21
21.999999831822151
 31
0.0
  0
LINE
  5
2F3E
  8
0
  6
HIDDEN
 10
2.999998493483587
 20
81.999999831822137
 30
0.0
 11
4.0999984934834961
 21
81.999999831822137
 31
0.0
  0
LINE
  5
2F3F
  8
0
  6
CONTINUOUS
 62
     7
 10
1.5480984934836211
 20
6.310933831822239
 30
0.0
 11
1.548098493483564
 21
97.68906583182229
 31
0.0
  0
ARC
  5
2F40
  8
0
  6
CONTINUOUS
 62
     7
 10
-1.4519015065164349
 20
97.68906583182229
 30
0.0
 40
3.0
 50
0.0
 51
25.911220000003901
  0
LINE
  5
2F41
  8
0
  6
CONTINUOUS
 62
     7
 10
-0.0000015065164121
 20
98.999999831822151
 30
0.0
 11
1.2465154934836269
 21
98.999999831822151
 31
0.0
  0
LINE
  5
2F42
  8
0
  6
CONTINUOUS
 62
     7
 10
-0.0000015065163552
 20
4.9999998318221506
 30
0.0
 11
1.246515493483684
 21
4.9999998318221506
 31
0.0
  0
ARC
  5
2F43
  8
0
  6
CONTINUOUS
 62
     7
 10
-1.4519015065163781
 20
6.310933831822239
 30
0.0
 40
3.0
 50
334.08877999999612
 51
0.0
  0
ARC
  5
2F44
  8
0
  6
HIDDEN
 10
16.999998493483581
 20
91.935245831822144
 30
0.0
 40
3.0
 50
0.0
 51
69.07549799999633
  0
ARC
  5
2F45
  8
0
  6
HIDDEN
 10
16.999998493483641
 20
12.064753831822371
 30
0.0
 40
3.0
 50
290.92450200000371
 51
0.0
  0
LINE
  5
2F46
  8
0
  6
HIDDEN
 10
18.071411493483531
 20
9.262598831822288
 30
0.0
 11
2.9999984934836439
 21
3.499999831822151
 31
0.0
  0
LINE
  5
2F47
  8
0
  6
HIDDEN
 10
19.999998493483591
 20
91.935245831822144
 30
0.0
 11
19.999998493483641
 21
12.064753831822371
 31
0.0
  0
LINE
  5
2F48
  8
0
  6
HIDDEN
 10
2.999998493483587
 20
100.49999983182209
 30
0.0
 11
18.071411493483481
 21
94.737400831822242
 31
0.0
  0
LINE
  5
2F49
  8
0
  6
CONTINUOUS
 62
     7
 10
0.9999984934835879
 20
93.999999831822151
 30
0.0
 11
0.9999984934836447
 21
9.9999998318221515
 31
0.0
  0
LINE
  5
2F4A
  8
0
  6
CONTINUOUS
 62
     7
 10
1.999998493483587
 20
102.0365718318223
 30
0.0
 11
1.9999984934836439
 21
1.963427831822173
 31
0.0
  0
ARC
  5
2F4B
  8
0
  6
CONTINUOUS
 62
     7
 10
-3.0000015065164121
 20
102.0365718318223
 30
0.0
 40
5.0
 50
0.0
 51
23.1217050000044
  0
LINE
  5
2F4C
  8
0
  6
CONTINUOUS
 62
     7
 10
-0.0000015065163552
 20
-0.0000001681778485
 30
0.0
 11
-0.0000015065164121
 21
103.99999983182209
 31
0.0
  0
LINE
  5
2F4D
  8
0
  6
CONTINUOUS
 62
     7
 10
2.9999984934836439
 20
-0.0000001681778485
 30
0.0
 11
-0.0000015065163552
 21
-0.0000001681778485
 31
0.0
  0
LINE
  5
2F4E
  8
0
  6
CONTINUOUS
 62
     7
 10
2.999998493483587
 20
103.99999983182209
 30
0.0
 11
2.9999984934836439
 21
-0.0000001681778485
 31
0.0
  0
LINE
  5
2F4F
  8
0
  6
CONTINUOUS
 62
     7
 10
-0.0000015065164121
 20
103.99999983182209
 30
0.0
 11
2.999998493483587
 21
103.99999983182209
 31
0.0
  0
ARC
  5
2F50
  8
0
  6
CONTINUOUS
 62
     7
 10
-3.0000015065163552
 20
1.963427831822173
 30
0.0
 40
5.0
 50
336.8782949999956
 51
0.0
  0
ENDBLK
  5
2F54
  8
0
  0
BLOCK
  8
0
  2
ロック金具凸
 70
     0
 10
0.0
 20
0.0
 30
0.0
  3
ロック金具凸
  1

  0
LINE
  5
2F95
  8
ロック金具
  6
CONTINUOUS
 10
35.999999288882471
 20
-0.0000016026747289
 30
0.0
 11
35.999999288882471
 21
71.999998397325271
 31
0.0
  0
LINE
  5
2F96
  8
ロック金具
  6
CONTINUOUS
 10
-0.0000007111175364
 20
32.549998397325233
 30
0.0
 11
-0.0000007111175364
 21
39.449998397325317
 31
0.0
  0
LINE
  5
2F97
  8
ロック金具
  6
CONTINUOUS
 10
26.99999928888246
 20
71.999998397325271
 30
0.0
 11
35.999999288882471
 21
71.999998397325271
 31
0.0
  0
LINE
  5
2F98
  8
ロック金具
  6
CONTINUOUS
 10
26.99999928888246
 20
-0.0000016026747289
 30
0.0
 11
35.999999288882471
 21
-0.0000016026747289
 31
0.0
  0
LINE
  5
2F99
  8
ロック金具
  6
CONTINUOUS
 10
26.99999928888246
 20
-0.0000016026747289
 30
0.0
 11
26.99999928888246
 21
20.249998397325271
 31
0.0
  0
LINE
  5
2F9A
  8
ロック金具
  6
CONTINUOUS
 10
5.672999288882238
 20
43.794898397325369
 30
0.0
 11
13.766999288882291
 21
41.612098397324871
 31
0.0
  0
LINE
  5
2F9B
  8
ロック金具
  6
CONTINUOUS
 10
5.672999288882238
 20
28.205098397324939
 30
0.0
 11
13.766999288882291
 21
30.38789839732522
 31
0.0
  0
LINE
  5
2F9C
  8
ロック金具
  6
CONTINUOUS
 10
26.99999928888246
 20
51.749998397325271
 30
0.0
 11
26.99999928888246
 21
71.999998397325271
 31
0.0
  0
ARC
  5
2F9D
  8
ロック金具
  6
CONTINUOUS
 10
16.499999288882009
 20
51.749998397325271
 30
0.0
 40
10.5
 50
254.9089999999928
 51
0.0
  0
ARC
  5
2F9E
  8
ロック金具
  6
CONTINUOUS
 10
4.4999992888824627
 20
39.449998397325317
 30
0.0
 40
4.5
 50
74.909299999996321
 51
180.0
  0
ARC
  5
2F9F
  8
ロック金具
  6
CONTINUOUS
 10
4.4999992888824627
 20
32.549998397325233
 30
0.0
 40
4.5
 50
180.0
 51
285.09100000000723
  0
ARC
  5
2FA0
  8
ロック金具
  6
CONTINUOUS
 10
16.499999288882009
 20
20.249998397325271
 30
0.0
 40
10.5
 50
0.0
 51
105.0910000000072
  0
ENDBLK
  5
2FA4
  8
0
  0
BLOCK
  8
0
  2
ロック金具凹
 70
     0
 10
0.0
 20
0.0
 30
0.0
  3
ロック金具凹
  1

  0
LINE
  5
3034
  8
ロック金具
  6
CONTINUOUS
 10
0.0
 20
14.0
 30
0.0
 11
0.0
 21
-14.0
 31
0.0
  0
LINE
  5
3035
  8
ロック金具
  6
CONTINUOUS
 10
11.99989999999991
 20
14.0
 30
0.0
 11
11.99989999999991
 21
3.2999999999999541
 31
0.0
  0
LINE
  5
3036
  8
ロック金具
  6
CONTINUOUS
 10
11.99989999999991
 20
14.0
 30
0.0
 11
0.0
 21
14.0
 31
0.0
  0
LINE
  5
3037
  8
ロック金具
  6
CONTINUOUS
 10
11.99989999999991
 20
-14.0
 30
0.0
 11
0.0
 21
-14.0
 31
0.0
  0
LINE
  5
3038
  8
ロック金具
  6
CONTINUOUS
 10
1.9999000000000251
 20
3.2999999999999541
 30
0.0
 11
1.9999000000000251
 21
-3.3000000000000682
 31
0.0
  0
LINE
  5
3039
  8
ロック金具
  6
CONTINUOUS
 10
11.99989999999991
 20
-3.3000000000000682
 30
0.0
 11
1.9999000000000251
 21
-3.3000000000000682
 31
0.0
  0
LINE
  5
303A
  8
ロック金具
  6
CONTINUOUS
 10
11.99989999999991
 20
3.2999999999999541
 30
0.0
 11
1.9999000000000251
 21
3.2999999999999541
 31
0.0
  0
LINE
  5
303B
  8
ロック金具
  6
CONTINUOUS
 10
11.99989999999991
 20
-3.3000000000000682
 30
0.0
 11
11.99989999999991
 21
-14.0
 31
0.0
  0
ARC
  5
303C
  8
ロック金具
  6
CONTINUOUS
 10
7.9999000000000251
 20
-4.27800000000002
 30
0.0
 40
2.7779999999999991
 50
20.61289999999881
 51
159.38700000000131
  0
ARC
  5
303D
  8
ロック金具
  6
CONTINUOUS
 10
7.9999000000000251
 20
4.2779999999999063
 30
0.0
 40
2.7779999999999991
 50
200.61299999999869
 51
339.38700000000131
  0
LINE
  5
303E
  8
ロック金具
  6
CONTINUOUS
 10
2.4999000000000251
 20
3.2999999999999541
 30
0.0
 11
1.9999000000000251
 21
2.7999999999999541
 31
0.0
  0
LINE
  5
303F
  8
ロック金具
  6
CONTINUOUS
 10
1.9999000000000251
 20
-2.8000000000000682
 30
0.0
 11
2.4999000000000251
 21
-3.3000000000000682
 31
0.0
  0
ENDBLK
  5
3043
  8
0
  0
BLOCK
  8
0
  2
保護スポンジ
 70
     0
 10
0.0
 20
0.0
 30
0.0
  3
保護スポンジ
  1

  0
LINE
  5
30D9
  8
保護スポンジ
 10
-0.0000034397589843
 20
9.9999977237393978
 30
0.0
 11
347.99999656024102
 21
9.9999977237393978
 31
0.0
  0
LINE
  5
30DA
  8
保護スポンジ
 10
-0.0000034397589843
 20
-0.0000022762606022
 30
0.0
 11
347.99999656024102
 21
-0.0000022762606022
 31
0.0
  0
LINE
  5
30DB
  8
保護スポンジ
 10
-0.0000034397589843
 20
-0.0000022762606022
 30
0.0
 11
-0.0000034397589843
 21
9.9999977237393978
 31
0.0
  0
LINE
  5
30DC
  8
保護スポンジ
 10
347.99999656024102
 20
-0.0000022762606022
 30
0.0
 11
347.99999656024102
 21
9.9999977237393978
 31
0.0
  0
INSERT
  5
30DD
  8
AM_8
  6
CONTINUOUS
 62
     8
  2
*X122
 10
0.0
 20
0.0
 30
0.0
1001
GENIUS_GENOBJ-N-HTC_13
1002
{
1000
OWNER
1000
GEN
1002
}
1001
GENIUS_GENODEF_13
1002
{
1000
HIER
1070
     0
1002
}
1002
{
1000
MANEDIT
1070
     0
1002
}
1002
{
1000
NOSEL
1070
     0
1002
}
1002
{
1000
BEHIND
1070
     0
1002
}
1002
{
1000
OTHER
1070
     0
1002
}
1002
{
1000
REACTOR
1002
}
1001
GENIUS_GENHATCH_13
1002
{
1000
DATA
1040
45.0
1042
2.5
1000
_U
1070
     0
1011
217.9852248648954
1021
-0.0
1031
-0.0
1021
5.4641508000011072
1031
0.0
1002
}
1002
{
1000
UCS
1010
0.0
1020
0.0
1030
0.0
1010
1.0
1020
0.0
1030
0.0
1010
0.0
1020
1.0
1030
0.0
1002
}
1001
ACAD
1000
HATCH
1002
{
1070
    19
1000
DOTS
1040
3.0
1040
0.0
1000
R14_HATCH_DATA
1000
30DD
1011
1.0
1021
-0.0
1031
-0.0
1021
0.0
1031
0.0
1011
0.0
1021
-0.0
1031
-0.0
1021
1.0
1031
0.0
1011
0.0
1021
-0.0
1031
-0.0
1021
0.0
1031
1.0
1040
0.0
1010
0.0
1020
0.0
1030
1.0
1000
DOTS
1070
     0
1070
     0
1071
        1
1071
        1
1071
        4
1070
     1
1040
-0.0000034397589843
1040
-0.0000022762606022
1040
347.99999656024102
1040
-0.0000022762606022
1070
     1
1040
347.99999656024102
1040
-0.0000022762606022
1040
347.99999656024102
1040
9.9999977237393978
1070
     1
1040
347.99999656024102
1040
9.9999977237393978
1040
-0.0000034397589843
1040
9.9999977237393978
1070
     1
1040
-0.0000034397589843
1040
9.9999977237393978
1040
-0.0000034397589843
1040
-0.0000022762606022
1071
        0
1070
     0
1070
     1
1040
0.0
1040
3.0
1070
     0
1070
     1
1040
0.0
1040
-34.656579965264662
1040
-328.89162205455273
1040
2.3812499999999992
1040
4.7624999999999993
1070
     2
1040
0.0
1040
-4.7624999999999993
1071
        1
1040
-34.656579965264662
1040
-328.89162205455273
1040
0.0
1002
}
  0
ENDBLK
  5
30E1
  8
0
  0
BLOCK
  8
0
  2
*D14
 70
     1
 10
0.0
 20
0.0
 30
0.0
  3
*D14
  1

  0
LINE
  5
4ACB
  8
AM_5
 10
601.17265151939898
 20
747.78902229187167
 30
0.0
 11
641.51978727070025
 21
747.78902229187167
 31
0.0
  0
LINE
  5
4ACC
  8
AM_5
 10
633.47265151939905
 20
396.78902229187179
 30
0.0
 11
641.51978727070025
 21
396.78902229187167
 31
0.0
  0
LINE
  5
4ACD
  8
AM_5
 10
637.51978727070025
 20
741.78902229187179
 30
0.0
 11
637.51978727070025
 21
402.78902229187179
 31
0.0
  0
INSERT
  5
4ACE
  8
AM_5
  2
_OPEN30
 10
637.51978727070025
 20
747.78902229187167
 30
0.0
 41
6.0
 42
6.0
 43
6.0
 50
90.0
  0
INSERT
  5
4ACF
  8
AM_5
  2
_OPEN30
 10
637.51978727070025
 20
396.78902229187179
 30
0.0
 41
6.0
 42
6.0
 43
6.0
 50
270.0
  0
INSERT
  5
4AD0
  8
AM_6
  2
*U127
 10
0.0
 20
0.0
 30
0.0
  0
POINT
  5
4AD1
  8
DEFPOINTS
 62
     0
 10
597.17265151939898
 20
747.78902229187167
 30
0.0
  0
POINT
  5
4AD2
  8
DEFPOINTS
 62
     0
 10
629.47265151939905
 20
396.78902229187179
 30
0.0
  0
POINT
  5
4AD3
  8
DEFPOINTS
 62
     0
 10
637.51978727070025
 20
396.78902229187179
 30
0.0
  0
ENDBLK
  5
3746
  8
0
  0
BLOCK
  8
0
  2
*D15
 70
     1
 10
0.0
 20
0.0
 30
0.0
  3
*D15
  1

  0
LINE
  5
4AB9
  8
AM_5
 10
146.87265151939911
 20
393.78902229187179
 30
0.0
 11
146.87265151939911
 21
354.500743896519
 31
0.0
  0
LINE
  5
4ABA
  8
AM_5
 10
629.47265151939905
 20
393.78902229187179
 30
0.0
 11
629.47265151939905
 21
354.500743896519
 31
0.0
  0
LINE
  5
4ABB
  8
AM_5
 10
154.37265151939911
 20
357.500743896519
 30
0.0
 11
621.97265151939905
 21
357.500743896519
 31
0.0
  0
INSERT
  5
4ABC
  8
AM_5
  2
_OPEN30
 10
146.87265151939911
 20
357.500743896519
 30
0.0
 41
7.5
 42
7.5
 43
7.5
 50
180.0
  0
INSERT
  5
4ABD
  8
AM_5
  2
_OPEN30
 10
629.47265151939905
 20
357.500743896519
 30
0.0
 41
7.5
 42
7.5
 43
7.5
  0
INSERT
  5
4ABE
  8
AM_6
  2
*U126
 10
0.0
 20
0.0
 30
0.0
  0
POINT
  5
4ABF
  8
DEFPOINTS
 62
     0
 10
146.87265151939911
 20
396.78902229187179
 30
0.0
  0
POINT
  5
4AC0
  8
DEFPOINTS
 62
     0
 10
629.47265151939905
 20
396.78902229187179
 30
0.0
  0
POINT
  5
4AC1
  8
DEFPOINTS
 62
     0
 10
629.47265151939905
 20
357.500743896519
 30
0.0
  0
ENDBLK
  5
3748
  8
0
  0
BLOCK
  8
0
  2
*D16
 70
     1
 10
0.0
 20
0.0
 30
0.0
  3
*D16
  1

  0
LINE
  5
54C8
  8
AM_5
 10
746.39237200464356
 20
118.7892518046701
 30
0.0
 11
746.39237200464356
 21
78.980244926926389
 31
0.0
  0
LINE
  5
54C9
  8
AM_5
 10
789.39237200464356
 20
118.7892518046701
 30
0.0
 11
789.39237200464356
 21
78.980244926926389
 31
0.0
  0
LINE
  5
54CA
  8
AM_5
 10
752.39237200464345
 20
82.980244926926375
 30
0.0
 11
783.39237200464368
 21
82.980244926926375
 31
0.0
  0
INSERT
  5
54CB
  8
AM_5
  2
_OPEN30
 10
746.39237200464356
 20
82.980244926926375
 30
0.0
 41
6.0
 42
6.0
 43
6.0
 50
180.0
  0
INSERT
  5
54CC
  8
AM_5
  2
_OPEN30
 10
789.39237200464356
 20
82.980244926926375
 30
0.0
 41
6.0
 42
6.0
 43
6.0
  0
TEXT
  8
AM_5
  40
12
  5
569A
  62
2
  72
0
  71
0
 10
767.892
 20
75.3802
 30
0.000000
  1
43
  0
POINT
  5
54CE
  8
DEFPOINTS
 62
     0
 10
746.39237200464356
 20
122.7892518046701
 30
0.0
  0
POINT
  5
54CF
  8
DEFPOINTS
 62
     0
 10
789.39237200464356
 20
122.7892518046701
 30
0.0
  0
POINT
  5
54D0
  8
DEFPOINTS
 62
     0
 10
789.39237200464356
 20
82.980244926926375
 30
0.0
  0
ENDBLK
  5
374A
  8
0
  0
BLOCK
  8
0
  2
*D17
 70
     1
 10
0.0
 20
0.0
 30
0.0
  3
*D17
  1

  0
LINE
  5
4AD4
  8
AM_5
 10
601.17265151939898
 20
747.78902229187167
 30
0.0
 11
641.5197872707007
 21
747.78902229187167
 31
0.0
  0
LINE
  5
4AD5
  8
AM_5
 10
610.37265151939914
 20
773.78902229187179
 30
0.0
 11
641.51978727070082
 21
773.78902229187179
 31
0.0
  0
LINE
  5
4AD6
  8
AM_5
 10
637.5197872707007
 20
753.78902229187179
 30
0.0
 11
637.5197872707007
 21
767.78902229187167
 31
0.0
  0
INSERT
  5
4AD7
  8
AM_5
  2
_OPEN30
 10
637.5197872707007
 20
747.78902229187167
 30
0.0
 41
6.0
 42
6.0
 43
6.0
 50
270.0
  0
INSERT
  5
4AD8
  8
AM_5
  2
_OPEN30
 10
637.5197872707007
 20
773.78902229187179
 30
0.0
 41
6.0
 42
6.0
 43
6.0
 50
90.0
  0
INSERT
  5
4AD9
  8
AM_6
  2
*U128
 10
0.0
 20
0.0
 30
0.0
  0
POINT
  5
4ADA
  8
DEFPOINTS
 62
     0
 10
597.17265151939898
 20
747.78902229187167
 30
0.0
  0
POINT
  5
4ADB
  8
DEFPOINTS
 62
     0
 10
606.37265151939914
 20
773.78902229187179
 30
0.0
  0
POINT
  5
4ADC
  8
DEFPOINTS
 62
     0
 10
637.5197872707007
 20
773.78902229187179
 30
0.0
  0
ENDBLK
  5
37E4
  8
0
  0
BLOCK
  8
0
  2
*D18
 70
     1
 10
0.0
 20
0.0
 30
0.0
  3
*D18
  1

  0
LINE
  5
54D1
  8
AM_5
 10
144.87265151939911
 20
252.47699041611671
 30
0.0
 11
129.4202238271487
 21
252.47699041611671
 31
0.0
  0
LINE
  5
54D2
  8
AM_5
 10
148.62265151939911
 20
258.37699041611683
 30
0.0
 11
129.4202238271487
 21
258.37699041611683
 31
0.0
  0
LINE
  5
54D3
  8
AM_5
 10
133.4202238271487
 20
246.47699041611671
 30
0.0
 11
133.4202238271487
 21
240.47699041611671
 31
0.0
  0
LINE
  5
54D4
  8
AM_5
 10
133.4202238271487
 20
264.37699041611671
 30
0.0
 11
133.4202238271487
 21
270.37699041611683
 31
0.0
  0
TEXT
  8
AM_5
  40
12
  5
569B
  62
2
  72
0
  71
0
 10
125.859
 20
225.975
 30
0.000000
  1
5.9
  0
LINE
  5
54D6
  8
AM_5
 10
133.4202238271487
 20
252.47699041611671
 30
0.0
 11
133.4202238271487
 21
258.37699041611683
 31
0.0
  0
INSERT
  5
54D7
  8
AM_5
  2
_OPEN30
 10
133.4202238271487
 20
252.47699041611671
 30
0.0
 41
6.0
 42
6.0
 43
6.0
 50
90.0
  0
INSERT
  5
54D8
  8
AM_5
  2
_OPEN30
 10
133.4202238271487
 20
258.37699041611683
 30
0.0
 41
6.0
 42
6.0
 43
6.0
 50
270.0
  0
POINT
  5
54D9
  8
DEFPOINTS
 62
     0
 10
148.87265151939911
 20
252.47699041611671
 30
0.0
  0
POINT
  5
54DA
  8
DEFPOINTS
 62
     0
 10
152.62265151939911
 20
258.37699041611683
 30
0.0
  0
POINT
  5
54DB
  8
DEFPOINTS
 62
     0
 10
133.4202238271487
 20
258.37699041611683
 30
0.0
  0
ENDBLK
  5
3AB5
  8
0
  0
BLOCK
  8
0
  2
*D19
 70
     1
 10
0.0
 20
0.0
 30
0.0
  3
*D19
  1

  0
LINE
  5
4AE8
  8
AM_5
 10
148.62265151939911
 20
334.57699041611681
 30
0.0
 11
129.42022382714859
 21
334.57699041611681
 31
0.0
  0
LINE
  5
4AE9
  8
AM_5
 10
148.62265151939911
 20
258.37699041611683
 30
0.0
 11
129.42022382714859
 21
258.37699041611683
 31
0.0
  0
LINE
  5
4AEA
  8
AM_5
 10
133.42022382714859
 20
328.57699041611681
 30
0.0
 11
133.42022382714859
 21
264.37699041611671
 31
0.0
  0
INSERT
  5
4AEB
  8
AM_5
  2
_OPEN30
 10
133.42022382714859
 20
334.57699041611681
 30
0.0
 41
6.0
 42
6.0
 43
6.0
 50
90.0
  0
INSERT
  5
4AEC
  8
AM_5
  2
_OPEN30
 10
133.42022382714859
 20
258.37699041611683
 30
0.0
 41
6.0
 42
6.0
 43
6.0
 50
270.0
  0
INSERT
  5
4AED
  8
AM_6
  2
*U129
 10
0.0
 20
0.0
 30
0.0
  0
POINT
  5
4AEE
  8
DEFPOINTS
 62
     0
 10
152.62265151939911
 20
334.57699041611681
 30
0.0
  0
POINT
  5
4AEF
  8
DEFPOINTS
 62
     0
 10
152.62265151939911
 20
258.37699041611683
 30
0.0
  0
POINT
  5
4AF0
  8
DEFPOINTS
 62
     0
 10
133.42022382714859
 20
258.37699041611683
 30
0.0
  0
ENDBLK
  5
3AB7
  8
0
  0
BLOCK
  8
0
  2
*D20
 70
     1
 10
0.0
 20
0.0
 30
0.0
  3
*D20
  1

  0
LINE
  5
54DC
  8
AM_5
 10
144.87265151939911
 20
340.47699041611662
 30
0.0
 11
129.4202238271487
 21
340.47699041611662
 31
0.0
  0
LINE
  5
54DD
  8
AM_5
 10
148.62265151939911
 20
334.57699041611681
 30
0.0
 11
129.4202238271487
 21
334.57699041611681
 31
0.0
  0
LINE
  5
54DE
  8
AM_5
 10
133.4202238271487
 20
346.47699041611662
 30
0.0
 11
133.4202238271487
 21
352.47699041611662
 31
0.0
  0
LINE
  5
54DF
  8
AM_5
 10
133.4202238271487
 20
328.57699041611681
 30
0.0
 11
133.4202238271487
 21
322.57699041611681
 31
0.0
  0
TEXT
  8
AM_5
  40
12
  5
569C
  62
2
  72
0
  71
0
 10
124.299
 20
336.862
 30
0.000000
  1
5.9
  0
LINE
  5
54E1
  8
AM_5
 10
133.4202238271487
 20
340.47699041611662
 30
0.0
 11
133.4202238271487
 21
334.57699041611681
 31
0.0
  0
INSERT
  5
54E2
  8
AM_5
  2
_OPEN30
 10
133.4202238271487
 20
340.47699041611662
 30
0.0
 41
6.0
 42
6.0
 43
6.0
 50
270.0
  0
INSERT
  5
54E3
  8
AM_5
  2
_OPEN30
 10
133.4202238271487
 20
334.57699041611681
 30
0.0
 41
6.0
 42
6.0
 43
6.0
 50
90.0
  0
POINT
  5
54E4
  8
DEFPOINTS
 62
     0
 10
148.87265151939911
 20
340.47699041611662
 30
0.0
  0
POINT
  5
54E5
  8
DEFPOINTS
 62
     0
 10
152.62265151939911
 20
334.57699041611681
 30
0.0
  0
POINT
  5
54E6
  8
DEFPOINTS
 62
     0
 10
133.4202238271487
 20
334.57699041611681
 30
0.0
  0
ENDBLK
  5
3AB9
  8
0
  0
BLOCK
  8
0
  2
*D21
 70
     1
 10
0.0
 20
0.0
 30
0.0
  3
*D21
  1

  0
LINE
  5
4AFC
  8
AM_5
 10
144.87265151939911
 20
252.47699041611671
 30
0.0
 11
108.34854874709031
 21
252.47699041611671
 31
0.0
  0
LINE
  5
4AFD
  8
AM_5
 10
144.87265151939911
 20
340.47699041611668
 30
0.0
 11
108.34854874709031
 21
340.47699041611679
 31
0.0
  0
LINE
  5
4AFE
  8
AM_5
 10
112.34854874709031
 20
258.47699041611668
 30
0.0
 11
112.34854874709031
 21
334.47699041611679
 31
0.0
  0
INSERT
  5
4AFF
  8
AM_5
  2
_OPEN30
 10
112.34854874709031
 20
252.47699041611671
 30
0.0
 41
6.0
 42
6.0
 43
6.0
 50
270.0
  0
INSERT
  5
4B00
  8
AM_5
  2
_OPEN30
 10
112.34854874709031
 20
340.47699041611679
 30
0.0
 41
6.0
 42
6.0
 43
6.0
 50
90.0
  0
INSERT
  5
4B01
  8
AM_6
  2
*U130
 10
0.0
 20
0.0
 30
0.0
  0
POINT
  5
4B02
  8
DEFPOINTS
 62
     0
 10
148.87265151939911
 20
252.47699041611671
 30
0.0
  0
POINT
  5
4B03
  8
DEFPOINTS
 62
     0
 10
148.87265151939911
 20
340.47699041611668
 30
0.0
  0
POINT
  5
4B04
  8
DEFPOINTS
 62
     0
 10
112.34854874709031
 20
340.47699041611679
 30
0.0
  0
ENDBLK
  5
3AE3
  8
0
  0
BLOCK
  8
0
  2
*D22
 70
     1
 10
0.0
 20
0.0
 30
0.0
  3
*D22
  1

  0
LINE
  5
54E7
  8
AM_5
 10
146.87265151939911
 20
250.47699041611671
 30
0.0
 11
146.87265151939911
 21
200.47699041611659
 31
0.0
  0
LINE
  5
54E8
  8
AM_5
 10
169.6726515193991
 20
248.47699041611671
 30
0.0
 11
169.6726515193991
 21
200.47699041611659
 31
0.0
  0
LINE
  5
54E9
  8
AM_5
 10
152.87265151939911
 20
204.47699041611659
 30
0.0
 11
163.6726515193991
 21
204.47699041611659
 31
0.0
  0
LINE
  5
54EA
  8
AM_5
 10
106.06587231738629
 20
204.47699041611659
 30
0.0
 11
146.87265151939911
 21
204.47699041611659
 31
0.0
  0
TEXT
  8
AM_5
  40
12
  5
569D
  62
2
  72
0
  71
0
 10
120.818
 20
196.878
 30
0.000000
  1
22.8
  0
INSERT
  5
54EC
  8
AM_5
  2
_OPEN30
 10
146.87265151939911
 20
204.47699041611659
 30
0.0
 41
6.0
 42
6.0
 43
6.0
 50
180.0
  0
INSERT
  5
54ED
  8
AM_5
  2
_OPEN30
 10
169.6726515193991
 20
204.47699041611659
 30
0.0
 41
6.0
 42
6.0
 43
6.0
  0
POINT
  5
54EE
  8
DEFPOINTS
 62
     0
 10
146.87265151939911
 20
254.47699041611671
 30
0.0
  0
POINT
  5
54EF
  8
DEFPOINTS
 62
     0
 10
169.6726515193991
 20
252.47699041611671
 30
0.0
  0
POINT
  5
54F0
  8
DEFPOINTS
 62
     0
 10
169.6726515193991
 20
204.47699041611659
 30
0.0
  0
ENDBLK
  5
3DA6
  8
0
  0
BLOCK
  8
0
  2
*D23
 70
     1
 10
0.0
 20
0.0
 30
0.0
  3
*D23
  1

  0
LINE
  5
54F1
  8
AM_5
 10
169.6726515193991
 20
248.47699041611671
 30
0.0
 11
169.6726515193991
 21
200.47699041611659
 31
0.0
  0
LINE
  5
54F2
  8
AM_5
 10
170.6726515193991
 20
248.97699041611671
 30
0.0
 11
170.6726515193991
 21
200.47699041611659
 31
0.0
  0
LINE
  5
54F3
  8
AM_5
 10
163.6726515193991
 20
204.47699041611659
 30
0.0
 11
157.6726515193991
 21
204.47699041611659
 31
0.0
  0
LINE
  5
54F4
  8
AM_5
 10
176.6726515193991
 20
204.47699041611659
 30
0.0
 11
182.6726515193991
 21
204.47699041611659
 31
0.0
  0
TEXT
  8
AM_5
  40
12
  5
569E
  62
2
  72
0
  71
0
 10
179.736
 20
196.635
 30
0.000000
  1
1
  0
LINE
  5
54F6
  8
AM_5
 10
169.6726515193991
 20
204.47699041611659
 30
0.0
 11
170.6726515193991
 21
204.47699041611659
 31
0.0
  0
INSERT
  5
54F7
  8
AM_5
  2
_OPEN30
 10
169.6726515193991
 20
204.47699041611659
 30
0.0
 41
6.0
 42
6.0
 43
6.0
  0
INSERT
  5
54F8
  8
AM_5
  2
_OPEN30
 10
170.6726515193991
 20
204.47699041611659
 30
0.0
 41
6.0
 42
6.0
 43
6.0
 50
180.0
  0
POINT
  5
54F9
  8
DEFPOINTS
 62
     0
 10
169.6726515193991
 20
252.47699041611671
 30
0.0
  0
POINT
  5
54FA
  8
DEFPOINTS
 62
     0
 10
170.6726515193991
 20
252.97699041611671
 30
0.0
  0
POINT
  5
54FB
  8
DEFPOINTS
 62
     0
 10
170.6726515193991
 20
204.47699041611659
 30
0.0
  0
ENDBLK
  5
3DA8
  8
0
  0
BLOCK
  8
0
  2
*D24
 70
     1
 10
0.0
 20
0.0
 30
0.0
  3
*D24
  1

  0
LINE
  5
54FC
  8
AM_5
 10
170.6726515193991
 20
248.97699041611671
 30
0.0
 11
170.6726515193991
 21
200.4769904161171
 31
0.0
  0
LINE
  5
54FD
  8
AM_5
 10
605.67265151939921
 20
248.97699041611671
 30
0.0
 11
605.67265151939921
 21
200.4769904161171
 31
0.0
  0
LINE
  5
54FE
  8
AM_5
 10
176.6726515193991
 20
204.4769904161171
 30
0.0
 11
599.67265151939921
 21
204.4769904161171
 31
0.0
  0
INSERT
  5
54FF
  8
AM_5
  2
_OPEN30
 10
170.6726515193991
 20
204.4769904161171
 30
0.0
 41
6.0
 42
6.0
 43
6.0
 50
180.0
  0
INSERT
  5
5500
  8
AM_5
  2
_OPEN30
 10
605.67265151939921
 20
204.4769904161171
 30
0.0
 41
6.0
 42
6.0
 43
6.0
  0
TEXT
  8
AM_5
  40
12
  5
569F
  62
2
  72
0
  71
0
 10
388.173
 20
196.877
 30
0.000000
  1
435
  0
POINT
  5
5502
  8
DEFPOINTS
 62
     0
 10
170.6726515193991
 20
252.97699041611671
 30
0.0
  0
POINT
  5
5503
  8
DEFPOINTS
 62
     0
 10
605.67265151939921
 20
252.97699041611671
 30
0.0
  0
POINT
  5
5504
  8
DEFPOINTS
 62
     0
 10
605.67265151939921
 20
204.4769904161171
 30
0.0
  0
ENDBLK
  5
3DAA
  8
0
  0
BLOCK
  8
0
  2
*D25
 70
     1
 10
0.0
 20
0.0
 30
0.0
  3
*D25
  1

  0
LINE
  5
5505
  8
AM_5
 10
605.67265151939898
 20
248.97699041611671
 30
0.0
 11
605.67265151939898
 21
200.4769904161177
 31
0.0
  0
LINE
  5
5506
  8
AM_5
 10
606.67265151939887
 20
248.47699041611671
 30
0.0
 11
606.67265151939887
 21
200.4769904161177
 31
0.0
  0
LINE
  5
5507
  8
AM_5
 10
599.6726515193991
 20
204.4769904161177
 30
0.0
 11
593.67265151939898
 21
204.4769904161177
 31
0.0
  0
LINE
  5
5508
  8
AM_5
 10
612.67265151939898
 20
204.4769904161177
 30
0.0
 11
618.67265151939887
 21
204.4769904161177
 31
0.0
  0
TEXT
  8
AM_5
  40
12
  5
56A0
  62
2
  72
0
  71
0
 10
595.334
 20
196.596
 30
0.000000
  1
1
  0
LINE
  5
550A
  8
AM_5
 10
605.67265151939898
 20
204.4769904161177
 30
0.0
 11
606.67265151939887
 21
204.4769904161177
 31
0.0
  0
INSERT
  5
550B
  8
AM_5
  2
_OPEN30
 10
605.67265151939898
 20
204.4769904161177
 30
0.0
 41
6.0
 42
6.0
 43
6.0
  0
INSERT
  5
550C
  8
AM_5
  2
_OPEN30
 10
606.67265151939887
 20
204.4769904161177
 30
0.0
 41
6.0
 42
6.0
 43
6.0
 50
180.0
  0
POINT
  5
550D
  8
DEFPOINTS
 62
     0
 10
605.67265151939898
 20
252.97699041611671
 30
0.0
  0
POINT
  5
550E
  8
DEFPOINTS
 62
     0
 10
606.67265151939887
 20
252.47699041611671
 30
0.0
  0
POINT
  5
550F
  8
DEFPOINTS
 62
     0
 10
606.67265151939887
 20
204.4769904161177
 30
0.0
  0
ENDBLK
  5
3DAC
  8
0
  0
BLOCK
  8
0
  2
*D26
 70
     1
 10
0.0
 20
0.0
 30
0.0
  3
*D26
  1

  0
LINE
  5
5510
  8
AM_5
 10
606.6726515193991
 20
248.47699041611671
 30
0.0
 11
606.6726515193991
 21
200.4769904161177
 31
0.0
  0
LINE
  5
5511
  8
AM_5
 10
629.47265151939905
 20
250.47699041611671
 30
0.0
 11
629.47265151939905
 21
200.4769904161177
 31
0.0
  0
LINE
  5
5512
  8
AM_5
 10
612.6726515193991
 20
204.4769904161177
 30
0.0
 11
623.47265151939905
 21
204.4769904161177
 31
0.0
  0
LINE
  5
5513
  8
AM_5
 10
670.62613751764366
 20
204.4769904161177
 30
0.0
 11
629.47265151939905
 21
204.4769904161177
 31
0.0
  0
TEXT
  8
AM_5
  40
12
  5
56A1
  62
2
  72
0
  71
0
 10
655.874
 20
196.878
 30
0.000000
  1
22.8
  0
INSERT
  5
5515
  8
AM_5
  2
_OPEN30
 10
606.6726515193991
 20
204.4769904161177
 30
0.0
 41
6.0
 42
6.0
 43
6.0
 50
180.0
  0
INSERT
  5
5516
  8
AM_5
  2
_OPEN30
 10
629.47265151939905
 20
204.4769904161177
 30
0.0
 41
6.0
 42
6.0
 43
6.0
  0
POINT
  5
5517
  8
DEFPOINTS
 62
     0
 10
606.6726515193991
 20
252.47699041611671
 30
0.0
  0
POINT
  5
5518
  8
DEFPOINTS
 62
     0
 10
629.47265151939905
 20
254.47699041611671
 30
0.0
  0
POINT
  5
5519
  8
DEFPOINTS
 62
     0
 10
629.47265151939905
 20
204.4769904161177
 30
0.0
  0
ENDBLK
  5
3DAE
  8
0
  0
BLOCK
  8
0
  2
*D27
 70
     1
 10
0.0
 20
0.0
 30
0.0
  3
*D27
  1

  0
LINE
  5
551A
  8
AM_5
 10
146.87265151939911
 20
250.47699041611671
 30
0.0
 11
146.87265151939911
 21
219.24265158205429
 31
0.0
  0
LINE
  5
551B
  8
AM_5
 10
154.87265151939911
 20
251.3269904161167
 30
0.0
 11
154.87265151939911
 21
219.24265158205429
 31
0.0
  0
LINE
  5
551C
  8
AM_5
 10
140.87265151939911
 20
223.24265158205429
 30
0.0
 11
134.87265151939911
 21
223.24265158205429
 31
0.0
  0
LINE
  5
551D
  8
AM_5
 10
160.87265151939911
 20
223.24265158205429
 30
0.0
 11
166.87265151939911
 21
223.24265158205429
 31
0.0
  0
TEXT
  8
AM_5
  40
12
  5
56A2
  62
2
  72
0
  71
0
 10
159.169
 20
215.436
 30
0.000000
  1
8
  0
LINE
  5
551F
  8
AM_5
 10
146.87265151939911
 20
223.24265158205429
 30
0.0
 11
154.87265151939911
 21
223.24265158205429
 31
0.0
  0
INSERT
  5
5520
  8
AM_5
  2
_OPEN30
 10
146.87265151939911
 20
223.24265158205429
 30
0.0
 41
6.0
 42
6.0
 43
6.0
  0
INSERT
  5
5521
  8
AM_5
  2
_OPEN30
 10
154.87265151939911
 20
223.24265158205429
 30
0.0
 41
6.0
 42
6.0
 43
6.0
 50
180.0
  0
POINT
  5
5522
  8
DEFPOINTS
 62
     0
 10
146.87265151939911
 20
254.47699041611671
 30
0.0
  0
POINT
  5
5523
  8
DEFPOINTS
 62
     0
 10
154.87265151939911
 20
255.3269904161167
 30
0.0
  0
POINT
  5
5524
  8
DEFPOINTS
 62
     0
 10
154.87265151939911
 20
223.24265158205429
 30
0.0
  0
ENDBLK
  5
3E4A
  8
0
  0
BLOCK
  8
0
  2
*D28
 70
     1
 10
0.0
 20
0.0
 30
0.0
  3
*D28
  1

  0
LINE
  5
4B43
  8
AM_5
 10
162.86167553561759
 20
250.16718142926689
 30
0.0
 11
193.2158100327741
 21
225.2358527520542
 31
0.0
  0
LINE
  5
4B44
  8
AM_5
 10
193.2158100327741
 20
225.2358527520542
 30
0.0
 11
287.01581003277408
 21
225.2358527520542
 31
0.0
  0
INSERT
  5
4B45
  8
AM_5
  2
_OPEN30
 10
155.13411024035821
 20
256.51420707971931
 30
0.0
 41
10.0
 42
10.0
 43
10.0
 50
140.60207223771829
  0
INSERT
  5
4B46
  8
AM_6
  2
*U131
 10
0.0
 20
0.0
 30
0.0
  0
POINT
  5
4B47
  8
DEFPOINTS
 62
     0
 10
155.13411024035821
 20
256.51420707971931
 30
0.0
  0
POINT
  5
4B48
  8
DEFPOINTS
 62
     0
 10
152.6226515193988
 20
258.57699041611642
 30
0.0
  0
ENDBLK
  5
3E8F
  8
0
  0
BLOCK
  8
0
  2
*D29
 70
     1
 10
0.0
 20
0.0
 30
0.0
  3
*D29
  1

  0
LINE
  5
4E8F
  8
AM_5
 10
737.44888519225799
 20
646.78925180467024
 30
0.0
 11
663.88835261117447
 21
646.78925180467024
 31
0.0
  0
LINE
  5
4E90
  8
AM_5
 10
697.89237200464356
 20
396.78925180467007
 30
0.0
 11
663.88835261117447
 21
396.78925180467007
 31
0.0
  0
LINE
  5
4E91
  8
AM_5
 10
667.88835261117447
 20
640.78925180467024
 30
0.0
 11
667.88835261117447
 21
402.78925180467007
 31
0.0
  0
INSERT
  5
4E92
  8
AM_5
  2
_OPEN30
 10
667.88835261117447
 20
646.78925180467024
 30
0.0
 41
6.0
 42
6.0
 43
6.0
 50
90.0
  0
INSERT
  5
4E93
  8
AM_5
  2
_OPEN30
 10
667.88835261117447
 20
396.78925180467007
 30
0.0
 41
6.0
 42
6.0
 43
6.0
 50
270.0
  0
INSERT
  5
4E94
  8
AM_6
  2
*U141
 10
0.0
 20
0.0
 30
0.0
  0
POINT
  5
4E95
  8
DEFPOINTS
 62
     0
 10
741.44888519225799
 20
646.78925180467024
 30
0.0
  0
POINT
  5
4E96
  8
DEFPOINTS
 62
     0
 10
701.89237200464356
 20
396.78925180467007
 30
0.0
  0
POINT
  5
4E97
  8
DEFPOINTS
 62
     0
 10
667.88835261117447
 20
396.78925180467007
 30
0.0
  0
ENDBLK
  5
3FFB
  8
0
  0
BLOCK
  8
0
  2
*D30
 70
     1
 10
0.0
 20
0.0
 30
0.0
  3
*D30
  1

  0
LINE
  5
4BB6
  8
AM_5
 10
793.89237200464356
 20
396.78925180467007
 30
0.0
 11
859.89237300464379
 21
396.78925180467007
 31
0.0
  0
LINE
  5
4BB7
  8
AM_5
 10
793.89237200468938
 20
747.78925180467002
 30
0.0
 11
859.89237300464379
 21
747.78925180467002
 31
0.0
  0
LINE
  5
4BB8
  8
AM_5
 10
855.8923730046439
 20
402.78925180467007
 30
0.0
 11
855.8923730046439
 21
741.7892518046699
 31
0.0
  0
INSERT
  5
4BB9
  8
AM_5
  2
_OPEN30
 10
855.8923730046439
 20
396.78925180467007
 30
0.0
 41
6.0
 42
6.0
 43
6.0
 50
270.0
  0
INSERT
  5
4BBA
  8
AM_5
  2
_OPEN30
 10
855.8923730046439
 20
747.78925180467002
 30
0.0
 41
6.0
 42
6.0
 43
6.0
 50
90.0
  0
INSERT
  5
4BBB
  8
AM_6
  2
*U132
 10
0.0
 20
0.0
 30
0.0
  0
POINT
  5
4BBC
  8
DEFPOINTS
 62
     0
 10
789.89237200464356
 20
396.78925180467007
 30
0.0
  0
POINT
  5
4BBD
  8
DEFPOINTS
 62
     0
 10
789.89237200468938
 20
747.78925180467002
 30
0.0
  0
POINT
  5
4BBE
  8
DEFPOINTS
 62
     0
 10
855.8923730046439
 20
747.78925180467002
 30
0.0
  0
ENDBLK
  5
40B9
  8
0
  0
BLOCK
  8
0
  2
*D31
 70
     1
 10
0.0
 20
0.0
 30
0.0
  3
*D31
  1

  0
LINE
  5
4BBF
  8
AM_5
 10
793.89237200468938
 20
747.78925180467002
 30
0.0
 11
829.89237300464356
 21
747.78925180467002
 31
0.0
  0
LINE
  5
4BC0
  8
AM_5
 10
791.39237200464379
 20
773.78925180467002
 30
0.0
 11
829.89237300464367
 21
773.78925180467002
 31
0.0
  0
LINE
  5
4BC1
  8
AM_5
 10
825.89237300464356
 20
753.78925180467002
 30
0.0
 11
825.89237300464356
 21
767.78925180467002
 31
0.0
  0
INSERT
  5
4BC2
  8
AM_5
  2
_OPEN30
 10
825.89237300464356
 20
747.78925180467002
 30
0.0
 41
6.0
 42
6.0
 43
6.0
 50
270.0
  0
INSERT
  5
4BC3
  8
AM_5
  2
_OPEN30
 10
825.89237300464379
 20
773.78925180467002
 30
0.0
 41
6.0
 42
6.0
 43
6.0
 50
90.0
  0
INSERT
  5
4BC4
  8
AM_6
  2
*U133
 10
0.0
 20
0.0
 30
0.0
  0
POINT
  5
4BC5
  8
DEFPOINTS
 62
     0
 10
789.89237200468938
 20
747.78925180467002
 30
0.0
  0
POINT
  5
4BC6
  8
DEFPOINTS
 62
     0
 10
787.39237200464379
 20
773.78925180467002
 30
0.0
  0
POINT
  5
4BC7
  8
DEFPOINTS
 62
     0
 10
825.89237300464379
 20
773.78925180467002
 30
0.0
  0
ENDBLK
  5
40BB
  8
0
  0
BLOCK
  8
0
  2
*D32
 70
     1
 10
0.0
 20
0.0
 30
0.0
  3
*D32
  1

  0
LINE
  5
4BC8
  8
AM_5
 10
793.89237200464356
 20
396.78925180467007
 30
0.0
 11
889.89237300464481
 21
396.78925180467007
 31
0.0
  0
LINE
  5
4BC9
  8
AM_5
 10
791.39237200464379
 20
773.78925180467002
 30
0.0
 11
889.89237300464492
 21
773.78925180467002
 31
0.0
  0
LINE
  5
4BCA
  8
AM_5
 10
885.89237300464481
 20
402.78925180467007
 30
0.0
 11
885.89237300464481
 21
767.78925180467002
 31
0.0
  0
INSERT
  5
4BCB
  8
AM_5
  2
_OPEN30
 10
885.89237300464481
 20
396.78925180467007
 30
0.0
 41
6.0
 42
6.0
 43
6.0
 50
270.0
  0
INSERT
  5
4BCC
  8
AM_5
  2
_OPEN30
 10
885.89237300464481
 20
773.78925180467002
 30
0.0
 41
6.0
 42
6.0
 43
6.0
 50
90.0
  0
INSERT
  5
4BCD
  8
AM_6
  2
*U134
 10
0.0
 20
0.0
 30
0.0
  0
POINT
  5
4BCE
  8
DEFPOINTS
 62
     0
 10
789.89237200464356
 20
396.78925180467007
 30
0.0
  0
POINT
  5
4BCF
  8
DEFPOINTS
 62
     0
 10
787.39237200464379
 20
773.78925180467002
 30
0.0
  0
POINT
  5
4BD0
  8
DEFPOINTS
 62
     0
 10
885.89237300464481
 20
773.78925180467002
 30
0.0
  0
ENDBLK
  5
40BD
  8
0
  0
BLOCK
  8
0
  2
*D33
 70
     1
 10
0.0
 20
0.0
 30
0.0
  3
*D33
  1

  0
LINE
  5
4BD1
  8
AM_5
 10
793.89237200464356
 20
396.78925180467007
 30
0.0
 11
829.89237300464515
 21
396.78925180467007
 31
0.0
  0
LINE
  5
4BD2
  8
AM_5
 10
771.89237200464356
 20
435.3892518046701
 30
0.0
 11
829.89237300464515
 21
435.3892518046701
 31
0.0
  0
LINE
  5
4BD3
  8
AM_5
 10
825.89237300464515
 20
402.78925180467007
 30
0.0
 11
825.89237300464515
 21
429.38925180467021
 31
0.0
  0
INSERT
  5
4BD4
  8
AM_5
  2
_OPEN30
 10
825.89237300464515
 20
396.78925180467007
 30
0.0
 41
6.0
 42
6.0
 43
6.0
 50
270.0
  0
INSERT
  5
4BD5
  8
AM_5
  2
_OPEN30
 10
825.89237300464515
 20
435.3892518046701
 30
0.0
 41
6.0
 42
6.0
 43
6.0
 50
90.0
  0
INSERT
  5
4BD6
  8
AM_6
  2
*U135
 10
0.0
 20
0.0
 30
0.0
  0
POINT
  5
4BD7
  8
DEFPOINTS
 62
     0
 10
789.89237200464356
 20
396.78925180467007
 30
0.0
  0
POINT
  5
4BD8
  8
DEFPOINTS
 62
     0
 10
767.89237200464356
 20
435.3892518046701
 30
0.0
  0
POINT
  5
4BD9
  8
DEFPOINTS
 62
     0
 10
825.89237300464515
 20
435.3892518046701
 30
0.0
  0
ENDBLK
  5
40BF
  8
0
  0
BLOCK
  8
0
  2
*D34
 70
     1
 10
0.0
 20
0.0
 30
0.0
  3
*D34
  1

  0
LINE
  5
4BDA
  8
AM_5
 10
771.89237200464356
 20
435.38925180467021
 30
0.0
 11
829.89237300464515
 21
435.38925180467021
 31
0.0
  0
LINE
  5
4BDB
  8
AM_5
 10
771.89237200464356
 20
533.7892518046699
 30
0.0
 11
829.89237300464515
 21
533.7892518046699
 31
0.0
  0
LINE
  5
4BDC
  8
AM_5
 10
825.89237300464515
 20
441.38925180467032
 30
0.0
 11
825.89237300464515
 21
527.78925180467002
 31
0.0
  0
INSERT
  5
4BDD
  8
AM_5
  2
_OPEN30
 10
825.89237300464515
 20
435.38925180467021
 30
0.0
 41
6.0
 42
6.0
 43
6.0
 50
270.0
  0
INSERT
  5
4BDE
  8
AM_5
  2
_OPEN30
 10
825.89237300464515
 20
533.7892518046699
 30
0.0
 41
6.0
 42
6.0
 43
6.0
 50
90.0
  0
INSERT
  5
4BDF
  8
AM_6
  2
*U136
 10
0.0
 20
0.0
 30
0.0
  0
POINT
  5
4BE0
  8
DEFPOINTS
 62
     0
 10
767.89237200464356
 20
435.38925180467021
 30
0.0
  0
POINT
  5
4BE1
  8
DEFPOINTS
 62
     0
 10
767.89237200464356
 20
533.78925180467013
 30
0.0
  0
POINT
  5
4BE2
  8
DEFPOINTS
 62
     0
 10
825.89237300464515
 20
533.7892518046699
 30
0.0
  0
ENDBLK
  5
40C1
  8
0
  0
BLOCK
  8
0
  2
*D35
 70
     1
 10
0.0
 20
0.0
 30
0.0
  3
*D35
  1

  0
LINE
  5
4BE3
  8
AM_5
 10
771.89237200464356
 20
533.7892518046699
 30
0.0
 11
829.89237300464504
 21
533.7892518046699
 31
0.0
  0
LINE
  5
4BE4
  8
AM_5
 10
771.89237200464356
 20
622.68925180466999
 30
0.0
 11
829.89237300464504
 21
622.68925180466999
 31
0.0
  0
LINE
  5
4BE5
  8
AM_5
 10
825.89237300464492
 20
539.78925180467002
 30
0.0
 11
825.89237300464492
 21
616.68925180467011
 31
0.0
  0
INSERT
  5
4BE6
  8
AM_5
  2
_OPEN30
 10
825.89237300464492
 20
533.7892518046699
 30
0.0
 41
6.0
 42
6.0
 43
6.0
 50
270.0
  0
INSERT
  5
4BE7
  8
AM_5
  2
_OPEN30
 10
825.89237300464492
 20
622.68925180466999
 30
0.0
 41
6.0
 42
6.0
 43
6.0
 50
90.0
  0
INSERT
  5
4BE8
  8
AM_6
  2
*U137
 10
0.0
 20
0.0
 30
0.0
  0
POINT
  5
4BE9
  8
DEFPOINTS
 62
     0
 10
767.89237200464356
 20
533.78925180467013
 30
0.0
  0
POINT
  5
4BEA
  8
DEFPOINTS
 62
     0
 10
767.89237200464356
 20
622.68925180467022
 30
0.0
  0
POINT
  5
4BEB
  8
DEFPOINTS
 62
     0
 10
825.89237300464492
 20
622.68925180466999
 30
0.0
  0
ENDBLK
  5
40C3
  8
0
  0
BLOCK
  8
0
  2
*D36
 70
     1
 10
0.0
 20
0.0
 30
0.0
  3
*D36
  1

  0
LINE
  5
4BEC
  8
AM_5
 10
771.89237200464356
 20
622.68925180466999
 30
0.0
 11
829.89237300464481
 21
622.68925180466999
 31
0.0
  0
LINE
  5
4BED
  8
AM_5
 10
793.89237200464356
 20
646.78925180467002
 30
0.0
 11
829.89237300464481
 21
646.78925180467002
 31
0.0
  0
LINE
  5
4BEE
  8
AM_5
 10
825.8923730046447
 20
628.68925180467011
 30
0.0
 11
825.8923730046447
 21
640.78925180467002
 31
0.0
  0
LINE
  5
4BEF
  8
AM_5
 10
825.8923730046447
 20
646.78925180467002
 30
0.0
 11
825.8923730046447
 21
681.09397621411881
 31
0.0
  0
INSERT
  5
4BF0
  8
AM_5
  2
_OPEN30
 10
825.8923730046447
 20
622.68925180466999
 30
0.0
 41
6.0
 42
6.0
 43
6.0
 50
270.0
  0
INSERT
  5
4BF1
  8
AM_5
  2
_OPEN30
 10
825.8923730046447
 20
646.78925180467002
 30
0.0
 41
6.0
 42
6.0
 43
6.0
 50
90.0
  0
INSERT
  5
4BF2
  8
AM_6
  2
*U138
 10
0.0
 20
0.0
 30
0.0
  0
POINT
  5
4BF3
  8
DEFPOINTS
 62
     0
 10
767.89237200464356
 20
622.68925180467022
 30
0.0
  0
POINT
  5
4BF4
  8
DEFPOINTS
 62
     0
 10
789.89237200464356
 20
646.78925180467002
 30
0.0
  0
POINT
  5
4BF5
  8
DEFPOINTS
 62
     0
 10
825.8923730046447
 20
646.78925180467002
 30
0.0
  0
ENDBLK
  5
40C5
  8
0
  0
BLOCK
  8
0
  2
*D37
 70
     1
 10
0.0
 20
0.0
 30
0.0
  3
*D37
  1

  0
LINE
  5
4BF6
  8
AM_5
 10
767.89237200464356
 20
626.68925180467022
 30
0.0
 11
767.89237200464356
 21
686.78925180467002
 31
0.0
  0
LINE
  5
4BF7
  8
AM_5
 10
789.89237200464356
 20
650.78925180467002
 30
0.0
 11
789.89237200464356
 21
686.78925180467002
 31
0.0
  0
LINE
  5
4BF8
  8
AM_5
 10
773.89237200464368
 20
682.78925180467002
 30
0.0
 11
783.89237200464368
 21
682.78925180467002
 31
0.0
  0
INSERT
  5
4BF9
  8
AM_5
  2
_OPEN30
 10
767.89237200464356
 20
682.78925180467002
 30
0.0
 41
6.0
 42
6.0
 43
6.0
 50
180.0
  0
INSERT
  5
4BFA
  8
AM_5
  2
_OPEN30
 10
789.89237200464356
 20
682.78925180467002
 30
0.0
 41
6.0
 42
6.0
 43
6.0
  0
INSERT
  5
4BFB
  8
AM_6
  2
*U139
 10
0.0
 20
0.0
 30
0.0
  0
POINT
  5
4BFC
  8
DEFPOINTS
 62
     0
 10
767.89237200464356
 20
622.68925180467022
 30
0.0
  0
POINT
  5
4BFD
  8
DEFPOINTS
 62
     0
 10
789.89237200464356
 20
646.78925180467002
 30
0.0
  0
POINT
  5
4BFE
  8
DEFPOINTS
 62
     0
 10
789.89237200464356
 20
682.78925180467002
 30
0.0
  0
ENDBLK
  5
40C7
  8
0
  0
BLOCK
  8
0
  2
*D38
 70
     1
 10
0.0
 20
0.0
 30
0.0
  3
*D38
  1

  0
LINE
  5
4BFF
  8
AM_5
 10
793.89237200464356
 20
396.78925180467007
 30
0.0
 11
829.89237200464402
 21
396.78925180467007
 31
0.0
  0
LINE
  5
4C00
  8
AM_5
 10
792.39237200464356
 20
121.78925180467
 30
0.0
 11
829.89237200464379
 21
121.78925180467
 31
0.0
  0
LINE
  5
4C01
  8
AM_5
 10
825.8923720046439
 20
390.78925180467007
 30
0.0
 11
825.8923720046439
 21
127.78925180467
 31
0.0
  0
INSERT
  5
4C02
  8
AM_5
  2
_OPEN30
 10
825.8923720046439
 20
396.78925180467007
 30
0.0
 41
6.0
 42
6.0
 43
6.0
 50
90.0
  0
INSERT
  5
4C03
  8
AM_5
  2
_OPEN30
 10
825.8923720046439
 20
121.78925180467
 30
0.0
 41
6.0
 42
6.0
 43
6.0
 50
270.0
  0
INSERT
  5
4C04
  8
AM_6
  2
*U140
 10
0.0
 20
0.0
 30
0.0
  0
POINT
  5
4C05
  8
DEFPOINTS
 62
     0
 10
789.89237200464356
 20
396.78925180467007
 30
0.0
  0
POINT
  5
4C06
  8
DEFPOINTS
 62
     0
 10
788.39237200464356
 20
121.78925180467
 30
0.0
  0
POINT
  5
4C07
  8
DEFPOINTS
 62
     0
 10
825.8923720046439
 20
121.78925180467
 30
0.0
  0
ENDBLK
  5
40C9
  8
0
  0
BLOCK
  8
0
  2
*U42
 70
     1
 10
0.0
 20
0.0
 30
0.0
  3
*U42
  1

  0
ENDBLK
  5
4605
  8
0
  0
BLOCK
  8
0
  2
*D45
 70
     1
 10
0.0
 20
0.0
 30
0.0
  3
*D45
  1

  0
LINE
  5
4FFA
  8
AM_5
 10
697.89237200464356
 20
396.78925180467041
 30
0.0
 11
685.00568839541438
 21
396.78925180467041
 31
0.0
  0
LINE
  5
4FFB
  8
AM_5
 10
697.89237200464356
 20
496.7892518046703
 30
0.0
 11
685.00568839541438
 21
496.7892518046703
 31
0.0
  0
LINE
  5
4FFC
  8
AM_5
 10
689.00568839541438
 20
402.7892518046703
 30
0.0
 11
689.00568839541438
 21
490.7892518046703
 31
0.0
  0
INSERT
  5
4FFD
  8
AM_5
  2
_OPEN30
 10
689.00568839541438
 20
396.78925180467041
 30
0.0
 41
6.0
 42
6.0
 43
6.0
 50
270.0
  0
INSERT
  5
4FFE
  8
AM_5
  2
_OPEN30
 10
689.00568839541438
 20
496.7892518046703
 30
0.0
 41
6.0
 42
6.0
 43
6.0
 50
90.0
  0
INSERT
  5
4FFF
  8
AM_6
  2
*U142
 10
0.0
 20
0.0
 30
0.0
  0
POINT
  5
5000
  8
DEFPOINTS
 62
     0
 10
701.89237200464356
 20
396.78925180467041
 30
0.0
  0
POINT
  5
5001
  8
DEFPOINTS
 62
     0
 10
701.89237200464356
 20
496.7892518046703
 30
0.0
  0
POINT
  5
5002
  8
DEFPOINTS
 62
     0
 10
689.00568839541438
 20
496.7892518046703
 30
0.0
  0
ENDBLK
  5
4E68
  8
0
  0
BLOCK
  8
0
  2
*D46
 70
     1
 10
0.0
 20
0.0
 30
0.0
  3
*D46
  1

  0
LINE
  5
5003
  8
AM_5
 10
737.44888519225788
 20
646.78925180467024
 30
0.0
 11
685.00568839541427
 21
646.78925180467024
 31
0.0
  0
LINE
  5
5004
  8
AM_5
 10
697.89237200464345
 20
496.7892518046703
 30
0.0
 11
685.00568839541427
 21
496.7892518046703
 31
0.0
  0
LINE
  5
5005
  8
AM_5
 10
689.00568839541427
 20
640.78925180467024
 30
0.0
 11
689.00568839541427
 21
502.7892518046703
 31
0.0
  0
INSERT
  5
5006
  8
AM_5
  2
_OPEN30
 10
689.00568839541427
 20
646.78925180467024
 30
0.0
 41
6.0
 42
6.0
 43
6.0
 50
90.0
  0
INSERT
  5
5007
  8
AM_5
  2
_OPEN30
 10
689.00568839541427
 20
496.7892518046703
 30
0.0
 41
6.0
 42
6.0
 43
6.0
 50
270.0
  0
INSERT
  5
5008
  8
AM_6
  2
*U143
 10
0.0
 20
0.0
 30
0.0
  0
POINT
  5
5009
  8
DEFPOINTS
 62
     0
 10
741.44888519225799
 20
646.78925180467024
 30
0.0
  0
POINT
  5
500A
  8
DEFPOINTS
 62
     0
 10
701.89237200464345
 20
496.7892518046703
 30
0.0
  0
POINT
  5
500B
  8
DEFPOINTS
 62
     0
 10
689.00568839541427
 20
496.7892518046703
 30
0.0
  0
ENDBLK
  5
4E6A
  8
0
  0
BLOCK
  8
0
  2
バインドM4_6
 70
     0
 10
0.0
 20
0.0
 30
0.0
  3
バインドM4_6
  1

  0
CIRCLE
  5
50EC
  8
ﾋ_ｽ
 10
0.0
 20
0.0
 30
0.0
 40
4.1500000000006247
  0
ARC
  5
50ED
  8
ﾋ_ｽ
 10
-1.8568181818181979
 20
-1.856818181818084
 30
0.0
 40
1.368181818181796
 50
0.0
 51
90.0
  0
LINE
  5
50EE
  8
ﾋ_ｽ
 10
-0.4886363636364877
 20
-2.1499999999998631
 30
0.0
 11
-0.4886363636364877
 21
-1.856818181818084
 31
0.0
  0
LINE
  5
50EF
  8
ﾋ_ｽ
 10
0.4886363636364877
 20
-2.1499999999998631
 30
0.0
 11
-0.4886363636364877
 21
-2.1499999999998631
 31
0.0
  0
LINE
  5
50F0
  8
ﾋ_ｽ
 10
-2.1500000000000901
 20
0.488636363636374
 30
0.0
 11
-1.8568181818181979
 21
0.488636363636374
 31
0.0
  0
LINE
  5
50F1
  8
ﾋ_ｽ
 10
-0.4886363636364877
 20
1.8568181818181979
 30
0.0
 11
-0.4886363636364877
 21
2.1500000000000901
 31
0.0
  0
LINE
  5
50F2
  8
ﾋ_ｽ
 10
-0.4886363636364877
 20
2.1500000000000901
 30
0.0
 11
0.4886363636362603
 21
2.1500000000000341
 31
0.0
  0
ARC
  5
50F3
  8
ﾋ_ｽ
 10
-1.8568181818181979
 20
1.8568181818181979
 30
0.0
 40
1.368181818181796
 50
270.0
 51
0.0
  0
LINE
  5
50F4
  8
ﾋ_ｽ
 10
-2.1500000000000901
 20
-0.4886363636362603
 30
0.0
 11
-2.1500000000000901
 21
0.488636363636374
 31
0.0
  0
LINE
  5
50F5
  8
ﾋ_ｽ
 10
-1.8568181818181979
 20
-0.4886363636362603
 30
0.0
 11
-2.1500000000000901
 21
-0.4886363636362603
 31
0.0
  0
ARC
  5
50F6
  8
ﾋ_ｽ
 10
1.8568181818181979
 20
-1.856818181818084
 30
0.0
 40
1.368181818181796
 50
90.0
 51
180.0
  0
LINE
  5
50F7
  8
ﾋ_ｽ
 10
0.4886363636364877
 20
-1.856818181818084
 30
0.0
 11
0.4886363636364877
 21
-2.1499999999999768
 31
0.0
  0
LINE
  5
50F8
  8
ﾋ_ｽ
 10
2.1500000000000901
 20
-0.4886363636362603
 30
0.0
 11
1.8568181818181979
 21
-0.4886363636362603
 31
0.0
  0
LINE
  5
50F9
  8
ﾋ_ｽ
 10
2.1500000000000901
 20
0.488636363636374
 30
0.0
 11
2.1500000000000901
 21
-0.4886363636362603
 31
0.0
  0
ARC
  5
50FA
  8
ﾋ_ｽ
 10
1.8568181818181979
 20
1.8568181818181979
 30
0.0
 40
1.368181818181796
 50
180.0
 51
270.0
  0
LINE
  5
50FB
  8
ﾋ_ｽ
 10
1.8568181818181979
 20
0.488636363636374
 30
0.0
 11
2.1500000000000901
 21
0.488636363636374
 31
0.0
  0
LINE
  5
50FC
  8
ﾋ_ｽ
 10
0.4886363636364877
 20
2.1500000000000901
 30
0.0
 11
0.4886363636364877
 21
1.856818181818312
 31
0.0
  0
ENDBLK
  5
50FD
  8
0
  0
BLOCK
  8
0
  2
バインドM4_6ヨコ
 70
     0
 10
0.0
 20
0.0
 30
0.0
  3
バインドM4_6ヨコ
  1

  0
LINE
  5
5102
  8
ﾋ_ｽ
 10
-6.0
 20
-4.1499999999999773
 30
0.0
 11
-6.0
 21
4.1499999999999773
 31
0.0
  0
ARC
  5
5103
  8
ﾋ_ｽ
 10
-5.7999999999999536
 20
-1.8508722636684061
 30
0.0
 40
0.2
 50
77.124998440386804
 51
179.9999999999967
1001
GENIUS_GENODEF_13
1002
{
1000
HIER
1070
     0
1002
}
1002
{
1000
MANEDIT
1070
     0
1002
}
1002
{
1000
NOSEL
1070
     0
1002
}
1002
{
1000
BEHIND
1070
     0
1002
}
1002
{
1000
OTHER
1070
     0
1002
}
1002
{
1000
REACTOR
1002
}
1001
GENIUS_GENOBJ-N-FIL_13
1002
{
1000
OWNER
1000
GEN
1002
}
  0
ARC
  5
5104
  8
ﾋ_ｽ
 10
-5.7999999999999536
 20
1.8508722636683499
 30
0.0
 40
0.2
 50
179.9999999999967
 51
282.87500155961322
1001
GENIUS_GENODEF_13
1002
{
1000
HIER
1070
     0
1002
}
1002
{
1000
MANEDIT
1070
     0
1002
}
1002
{
1000
NOSEL
1070
     0
1002
}
1002
{
1000
BEHIND
1070
     0
1002
}
1002
{
1000
OTHER
1070
     0
1002
}
1002
{
1000
REACTOR
1002
}
1001
GENIUS_GENOBJ-N-FIL_13
1002
{
1000
OWNER
1000
GEN
1002
}
  0
LINE
  5
5105
  8
ﾋ_ｽ
 10
0.0
 20
-1.999999999999545
 30
0.0
 11
0.0
 21
1.999999999999545
 31
0.0
  0
LINE
  5
5106
  8
ﾋ_ｽ
 10
-5.7554350396994769
 20
1.6559005623539631
 30
0.0
 11
-4.2500000000006821
 21
1.999999999999545
 31
0.0
  0
LINE
  5
5107
  8
ﾋ_ｽ
 10
-5.7554350396994769
 20
-1.655900562354077
 30
0.0
 11
-4.2500000000009086
 21
-1.999999999999545
 31
0.0
  0
LINE
  5
5108
  8
ﾋ_ｽ
 10
-4.2500000000009086
 20
-1.999999999999545
 30
0.0
 11
-4.2500000000006821
 21
1.999999999999545
 31
0.0
  0
LINE
  5
5109
  8
ﾋ_ｽ
 10
-4.2500000000009086
 20
-1.999999999999545
 30
0.0
 11
0.0
 21
-1.999999999999545
 31
0.0
  0
LINE
  5
510A
  8
ﾋ_ｽ
 10
0.0
 20
1.999999999999545
 30
0.0
 11
-4.2500000000006821
 21
1.999999999999545
 31
0.0
  0
LINE
  5
510B
  8
ﾋ_ｽ0
 10
-6.0
 20
-1.5999999999995671
 30
0.0
 11
0.0
 21
-1.5999999999995671
 31
0.0
  0
LINE
  5
510C
  8
ﾋ_ｽ0
 10
-5.9999999999997717
 20
1.5999999999995671
 30
0.0
 11
0.0
 21
1.5999999999995671
 31
0.0
  0
LINE
  5
510D
  8
ﾋ_ｽ
 10
-6.0
 20
4.1499999999999773
 30
0.0
 11
-7.6999999999998181
 21
4.0012692720059704
 31
0.0
  0
LINE
  5
510E
  8
ﾋ_ｽ
 10
-7.6999999999998181
 20
4.0012692720059704
 30
0.0
 11
-7.6999999999998181
 21
-4.0012692720058558
 31
0.0
  0
LINE
  5
510F
  8
ﾋ_ｽ
 10
-7.6999999999998181
 20
-4.0012692720058558
 30
0.0
 11
-6.0
 21
-4.1499999999999773
 31
0.0
  0
ARC
  5
5110
  8
ﾋ_ｽ
 10
1.9063473669366431
 20
0.0
 30
0.0
 40
10.40634736693659
 50
157.3871256045245
 51
202.6128743954755
  0
ENDBLK
  5
5111
  8
0
  0
BLOCK
  8
0
  2
サラM3_5
 70
     0
 10
0.0
 20
0.0
 30
0.0
  3
サラM3_5
  1

  0
CIRCLE
  5
5116
  8
ﾋ_ｽ
 10
0.0
 20
0.0
 30
0.0
 40
2.9999999999975859
  0
ARC
  5
5117
  8
ﾋ_ｽ
 10
-1.554545454545404
 20
1.5545454545454609
 30
0.0
 40
1.1454545454545391
 50
270.0
 51
0.0
  0
ARC
  5
5118
  8
ﾋ_ｽ
 10
-1.554545454545404
 20
-1.554545454545404
 30
0.0
 40
1.1454545454545391
 50
0.0
 51
90.0
  0
LINE
  5
5119
  8
ﾋ_ｽ
 10
-1.7999999999999541
 20
0.4090909090908781
 30
0.0
 11
-1.554545454545404
 21
0.4090909090908781
 31
0.0
  0
LINE
  5
511A
  8
ﾋ_ｽ
 10
-1.7999999999999541
 20
-0.4090909090908781
 30
0.0
 11
-1.7999999999999541
 21
0.4090909090908781
 31
0.0
  0
LINE
  5
511B
  8
ﾋ_ｽ
 10
-1.554545454545404
 20
-0.4090909090908781
 30
0.0
 11
-1.7999999999999541
 21
-0.4090909090908781
 31
0.0
  0
LINE
  5
511C
  8
ﾋ_ｽ
 10
-0.4090909090907644
 20
1.5545454545454609
 30
0.0
 11
-0.4090909090907644
 21
1.800000000000068
 31
0.0
  0
LINE
  5
511D
  8
ﾋ_ｽ
 10
-0.4090909090907644
 20
-1.7999999999999541
 30
0.0
 11
-0.4090909090907644
 21
-1.554545454545404
 31
0.0
  0
ARC
  5
511E
  8
ﾋ_ｽ
 10
1.5545454545456321
 20
-1.554545454545404
 30
0.0
 40
1.1454545454545391
 50
90.0
 51
180.0
  0
LINE
  5
511F
  8
ﾋ_ｽ
 10
0.4090909090909918
 20
-1.800000000000068
 30
0.0
 11
-0.4090909090907644
 21
-1.800000000000068
 31
0.0
  0
LINE
  5
5120
  8
ﾋ_ｽ
 10
0.4090909090909918
 20
-1.554545454545404
 30
0.0
 11
0.4090909090909918
 21
-1.800000000000068
 31
0.0
  0
LINE
  5
5121
  8
ﾋ_ｽ
 10
1.7999999999999541
 20
-0.4090909090908781
 30
0.0
 11
1.5545454545456321
 21
-0.4090909090908781
 31
0.0
  0
LINE
  5
5122
  8
ﾋ_ｽ
 10
1.7999999999999541
 20
0.409090909090935
 30
0.0
 11
1.7999999999999541
 21
-0.4090909090908781
 31
0.0
  0
ARC
  5
5123
  8
ﾋ_ｽ
 10
1.554545454545404
 20
1.5545454545454609
 30
0.0
 40
1.1454545454545391
 50
180.0
 51
270.0
  0
LINE
  5
5124
  8
ﾋ_ｽ
 10
1.554545454545404
 20
0.4090909090908781
 30
0.0
 11
1.7999999999999541
 21
0.4090909090908781
 31
0.0
  0
LINE
  5
5125
  8
ﾋ_ｽ
 10
0.4090909090909918
 20
1.800000000000068
 30
0.0
 11
0.4090909090909918
 21
1.554545454545518
 31
0.0
  0
LINE
  5
5126
  8
ﾋ_ｽ
 10
-0.4090909090907644
 20
1.800000000000068
 30
0.0
 11
0.4090909090909918
 21
1.800000000000068
 31
0.0
  0
ENDBLK
  5
5127
  8
0
  0
BLOCK
  8
0
  2
サラM3_5ヨコ
 70
     0
 10
0.0
 20
0.0
 30
0.0
  3
サラM3_5ヨコ
  1

  0
LINE
  5
512C
  8
ﾋ_ｽ
 10
2.7500000000002269
 20
-1.4999999999998861
 30
0.0
 11
4.9999999999997717
 21
-1.5
 31
0.0
  0
LINE
  5
512D
  8
ﾋ_ｽ
 10
4.9999999999997717
 20
1.5
 30
0.0
 11
2.75
 21
1.500000000000056
 31
0.0
  0
LINE
  5
512E
  8
ﾋ_ｽ0
 10
2.1242640687119092
 20
1.25
 30
0.0
 11
4.9999999999997717
 21
1.25
 31
0.0
  0
LINE
  5
512F
  8
ﾋ_ｽ0
 10
4.9999999999997717
 20
-1.2499999999999429
 30
0.0
 11
2.1242640687121361
 21
-1.2499999999998861
 31
0.0
  0
LINE
  5
5130
  8
ﾋ_ｽ
 10
1.912132034356091
 20
1.337867965644022
 30
0.0
 11
0.25
 21
3.0
 31
0.0
  0
LINE
  5
5131
  8
ﾋ_ｽ
 10
0.25
 20
-3.0
 30
0.0
 11
0.25
 21
3.0
 31
0.0
  0
LINE
  5
5132
  8
ﾋ_ｽ
 10
0.0
 20
3.0
 30
0.0
 11
0.0
 21
-3.0
 31
0.0
  0
LINE
  5
5133
  8
ﾋ_ｽ
 10
0.25
 20
-3.0
 30
0.0
 11
1.912132034356091
 21
-1.3378679656439649
 31
0.0
  0
LINE
  5
5134
  8
ﾋ_ｽ
 10
0.0
 20
-3.0
 30
0.0
 11
0.25
 21
-3.0
 31
0.0
  0
LINE
  5
5135
  8
ﾋ_ｽ0
 10
1.75
 20
-1.5
 30
0.0
 11
1.75
 21
1.5
 31
0.0
  0
LINE
  5
5136
  8
ﾋ_ｽ
 10
2.0380053120384209
 20
-1.2626684373460639
 30
0.0
 11
2.75
 21
-1.5
 31
0.0
  0
LINE
  5
5137
  8
ﾋ_ｽ
 10
2.75
 20
-1.5
 30
0.0
 11
2.75
 21
1.5
 31
0.0
  0
LINE
  5
5138
  8
ﾋ_ｽ
 10
2.75
 20
1.5
 30
0.0
 11
2.0380053120384209
 21
1.2626684373461781
 31
0.0
  0
LINE
  5
5139
  8
ﾋ_ｽ
 10
0.0
 20
3.0
 30
0.0
 11
0.2500000000002274
 21
3.0
 31
0.0
  0
LINE
  5
513A
  8
ﾋ_ｽ
 10
4.9999999999997717
 20
-1.5
 30
0.0
 11
4.9999999999997717
 21
1.5
 31
0.0
  0
ARC
  5
513B
  8
ﾋ_ｽ
 10
2.1242640687121361
 20
-1.5499999999999541
 30
0.0
 40
0.3
 50
90.0
 51
134.99999999999301
1001
GENIUS_GENOBJ-N-FIL_13
1002
{
1000
OWNER
1000
GEN
1002
}
1001
GENIUS_GENODEF_13
1002
{
1000
HIER
1070
     0
1002
}
1002
{
1000
MANEDIT
1070
     0
1002
}
1002
{
1000
NOSEL
1070
     0
1002
}
1002
{
1000
BEHIND
1070
     0
1002
}
1002
{
1000
OTHER
1070
     0
1002
}
1002
{
1000
REACTOR
1002
}
  0
ARC
  5
513C
  8
ﾋ_ｽ
 10
2.1242640687119092
 20
1.5500000000000109
 30
0.0
 40
0.3
 50
225.00000000000691
 51
270.0
1001
GENIUS_GENODEF_13
1002
{
1000
HIER
1070
     0
1002
}
1002
{
1000
MANEDIT
1070
     0
1002
}
1002
{
1000
NOSEL
1070
     0
1002
}
1002
{
1000
BEHIND
1070
     0
1002
}
1002
{
1000
OTHER
1070
     0
1002
}
1002
{
1000
REACTOR
1002
}
1001
GENIUS_GENOBJ-N-FIL_13
1002
{
1000
OWNER
1000
GEN
1002
}
  0
ENDBLK
  5
513D
  8
0
  0
BLOCK
  8
0
  2
バインドM3_5
 70
     0
 10
0.0
 20
0.0
 30
0.0
  3
バインドM3_5
  1

  0
CIRCLE
  5
5142
  8
ﾋ_ｽ
 10
0.0
 20
0.0
 30
0.0
 40
3.1499999999994519
  0
LINE
  5
5143
  8
ﾋ_ｽ
 10
0.4204545454545042
 20
-1.8500000000000221
 30
0.0
 11
-0.4204545454545042
 21
-1.8500000000000221
 31
0.0
  0
LINE
  5
5144
  8
ﾋ_ｽ
 10
-0.4204545454545042
 20
1.8500000000000221
 30
0.0
 11
0.4204545454545042
 21
1.8500000000000221
 31
0.0
  0
LINE
  5
5145
  8
ﾋ_ｽ
 10
-1.8499999999999091
 20
0.420454545454561
 30
0.0
 11
-1.5977272727272971
 21
0.420454545454561
 31
0.0
  0
LINE
  5
5146
  8
ﾋ_ｽ
 10
-0.4204545454545042
 20
1.5977272727272971
 30
0.0
 11
-0.4204545454545042
 21
1.8500000000000221
 31
0.0
  0
ARC
  5
5147
  8
ﾋ_ｽ
 10
-1.5977272727272971
 20
1.5977272727272971
 30
0.0
 40
1.177272727272711
 50
270.0
 51
0.0
  0
ARC
  5
5148
  8
ﾋ_ｽ
 10
-1.5977272727272971
 20
-1.597727272727183
 30
0.0
 40
1.177272727272711
 50
0.0
 51
90.0
  0
LINE
  5
5149
  8
ﾋ_ｽ
 10
-1.8499999999999091
 20
-0.4204545454545042
 30
0.0
 11
-1.8499999999999091
 21
0.4204545454546178
 31
0.0
  0
LINE
  5
514A
  8
ﾋ_ｽ
 10
-1.5977272727272971
 20
-0.4204545454545042
 30
0.0
 11
-1.8499999999999091
 21
-0.4204545454545042
 31
0.0
  0
LINE
  5
514B
  8
ﾋ_ｽ
 10
-0.4204545454545042
 20
-1.8499999999999091
 30
0.0
 11
-0.4204545454545042
 21
-1.597727272727183
 31
0.0
  0
ARC
  5
514C
  8
ﾋ_ｽ
 10
1.5977272727272971
 20
-1.597727272727183
 30
0.0
 40
1.177272727272711
 50
90.0
 51
180.0
  0
LINE
  5
514D
  8
ﾋ_ｽ
 10
0.4204545454545042
 20
-1.597727272727183
 30
0.0
 11
0.4204545454545042
 21
-1.8500000000000221
 31
0.0
  0
LINE
  5
514E
  8
ﾋ_ｽ
 10
1.8499999999999091
 20
-0.4204545454545042
 30
0.0
 11
1.5977272727272971
 21
-0.4204545454545042
 31
0.0
  0
LINE
  5
514F
  8
ﾋ_ｽ
 10
1.8499999999999091
 20
0.4204545454545042
 30
0.0
 11
1.8499999999999091
 21
-0.4204545454545042
 31
0.0
  0
ARC
  5
5150
  8
ﾋ_ｽ
 10
1.5977272727272971
 20
1.5977272727272971
 30
0.0
 40
1.177272727272711
 50
180.0
 51
270.0
  0
LINE
  5
5151
  8
ﾋ_ｽ
 10
1.5977272727272971
 20
0.420454545454561
 30
0.0
 11
1.8499999999999091
 21
0.420454545454561
 31
0.0
  0
LINE
  5
5152
  8
ﾋ_ｽ
 10
0.4204545454545042
 20
1.8500000000000221
 30
0.0
 11
0.4204545454545042
 21
1.597727272727411
 31
0.0
  0
ENDBLK
  5
5153
  8
0
  0
BLOCK
  8
0
  2
バインドM3_5ヨコ
 70
     0
 10
0.0
 20
0.0
 30
0.0
  3
バインドM3_5ヨコ
  1

  0
LINE
  5
5158
  8
ﾋ_ｽ
 10
-5.0
 20
-3.1499999999999768
 30
0.0
 11
-5.0
 21
3.1500000000000341
 31
0.0
  0
ARC
  5
5159
  8
ﾋ_ｽ
 10
-4.9000000000000901
 20
1.326839681057435
 30
0.0
 40
0.1
 50
179.9999999999967
 51
283.49573328080749
1001
GENIUS_GENODEF_13
1002
{
1000
HIER
1070
     0
1002
}
1002
{
1000
MANEDIT
1070
     0
1002
}
1002
{
1000
NOSEL
1070
     0
1002
}
1002
{
1000
BEHIND
1070
     0
1002
}
1002
{
1000
OTHER
1070
     0
1002
}
1002
{
1000
REACTOR
1002
}
1001
GENIUS_GENOBJ-N-FIL_13
1002
{
1000
OWNER
1000
GEN
1002
}
  0
ARC
  5
515A
  8
ﾋ_ｽ
 10
-4.9000000000003183
 20
-1.3268396810574921
 30
0.0
 40
0.1
 50
76.504266719192529
 51
179.9999999999967
1001
GENIUS_GENODEF_13
1002
{
1000
HIER
1070
     0
1002
}
1002
{
1000
MANEDIT
1070
     0
1002
}
1002
{
1000
NOSEL
1070
     0
1002
}
1002
{
1000
BEHIND
1070
     0
1002
}
1002
{
1000
OTHER
1070
     0
1002
}
1002
{
1000
REACTOR
1002
}
1001
GENIUS_GENOBJ-N-FIL_13
1002
{
1000
OWNER
1000
GEN
1002
}
  0
LINE
  5
515B
  8
ﾋ_ｽ
 10
0.0
 20
-1.5
 30
0.0
 11
0.0
 21
1.5
 31
0.0
  0
LINE
  5
515C
  8
ﾋ_ｽ
 10
-4.8766627047525608
 20
1.2296009508593211
 30
0.0
 11
-3.7500000000004539
 21
1.5
 31
0.0
  0
LINE
  5
515D
  8
ﾋ_ｽ
 10
-4.8766627047527891
 20
-1.229600950859435
 30
0.0
 11
-3.7500000000006821
 21
-1.5
 31
0.0
  0
LINE
  5
515E
  8
ﾋ_ｽ
 10
-3.7500000000006821
 20
-1.5
 30
0.0
 11
-3.7500000000004539
 21
1.5
 31
0.0
  0
LINE
  5
515F
  8
ﾋ_ｽ
 10
-3.7500000000006821
 20
-1.5
 30
0.0
 11
0.0
 21
-1.5
 31
0.0
  0
LINE
  5
5160
  8
ﾋ_ｽ
 10
0.0
 20
1.5
 30
0.0
 11
-3.7500000000004539
 21
1.5
 31
0.0
  0
LINE
  5
5161
  8
ﾋ_ｽ0
 10
-5.0000000000002274
 20
-1.199999999999988
 30
0.0
 11
0.0
 21
-1.199999999999988
 31
0.0
  0
LINE
  5
5162
  8
ﾋ_ｽ0
 10
-5.0000000000002274
 20
1.199999999999988
 30
0.0
 11
0.0
 21
1.199999999999988
 31
0.0
  0
LINE
  5
5163
  8
ﾋ_ｽ
 10
-5.0
 20
3.1500000000000341
 30
0.0
 11
-6.300000000000181
 21
3.0362647374163312
 31
0.0
  0
LINE
  5
5164
  8
ﾋ_ｽ
 10
-5.0
 20
-3.1499999999999768
 30
0.0
 11
-6.300000000000181
 21
-3.0362647374162739
 31
0.0
  0
LINE
  5
5165
  8
ﾋ_ｽ
 10
-6.300000000000181
 20
3.0362647374163312
 30
0.0
 11
-6.300000000000181
 21
-3.0362647374162739
 31
0.0
  0
ARC
  5
5166
  8
ﾋ_ｽ
 10
1.0824196297307931
 20
0.0000000000000568
 30
0.0
 40
7.9824196297310488
 50
157.64346058573031
 51
202.35653941427259
  0
ENDBLK
  5
5167
  8
0
  0
BLOCK
  8
0
  2
ナットM4
 70
     0
 10
0.0
 20
0.0
 30
0.0
  3
ナットM4
  1

  0
CIRCLE
  5
516C
  8
ﾋ_ｽ
 10
0.0
 20
0.0
 30
0.0
 40
3.25
  0
CIRCLE
  5
516D
  8
ﾋ_ｽ
 10
0.0
 20
0.0
 30
0.0
 40
1.6950000000000001
  0
LINE
  5
516E
  8
ﾋ_ｽ
 10
-3.475000000000136
 20
-2.0351596988933802
 30
0.0
 11
0.0000000000004547
 21
-4.0414518843274996
 31
0.0
  0
LINE
  5
516F
  8
ﾋ_ｽ
 10
0.0000000000004547
 20
-4.0414518843274996
 30
0.0
 11
3.5
 21
-2.0207259421637209
 31
0.0
  0
LINE
  5
5170
  8
ﾋ_ｽ
 10
3.5
 20
-2.0207259421637209
 30
0.0
 11
3.5
 21
2.021774057836466
 31
0.0
  0
LINE
  5
5171
  8
ﾋ_ｽ
 10
-3.4999999999997722
 20
2.0217740578363528
 30
0.0
 11
-3.5
 21
-1.9918584287041761
 31
0.0
  0
CIRCLE
  5
5172
  8
ﾋ_ｽ0
 10
0.0
 20
0.0
 30
0.0
 40
2.0
  0
LINE
  5
5173
  8
ﾋ_ｽ
 10
3.5
 20
2.021774057836466
 30
0.0
 11
-0.0000000000002274
 21
4.0425000000000182
 31
0.0
  0
LINE
  5
5174
  8
ﾋ_ｽ
 10
-0.0000000000002274
 20
4.0425000000000182
 30
0.0
 11
-3.4999999999997722
 21
2.0217740578363528
 31
0.0
  0
ENDBLK
  5
5175
  8
0
  0
BLOCK
  8
0
  2
ナットM4ヨコ
 70
     0
 10
0.0
 20
0.0
 30
0.0
  3
ナットM4ヨコ
  1

  0
ARC
  5
517A
  8
ﾋ_ｽ
 10
1.412930680013005
 20
3.0318749999999559
 30
0.0
 40
1.7870693199869589
 50
325.5615305952013
 51
25.561530595456212
  0
ARC
  5
517B
  8
ﾋ_ｽ
 10
1.7870693199872669
 20
3.0318750000000132
 30
0.0
 40
1.7870693199869589
 50
154.4384694045408
 51
214.4384694047987
  0
LINE
  5
517C
  8
ﾋ_ｽ
 10
3.200000000000045
 20
3.5
 30
0.0
 11
3.200000000000272
 21
-3.5
 31
0.0
  0
LINE
  5
517D
  8
ﾋ_ｽ
 10
0.0
 20
3.5
 30
0.0
 11
0.0
 21
-3.4999999999999432
 31
0.0
  0
ARC
  5
517E
  8
ﾋ_ｽ
 10
1.412930680009594
 20
-3.0318749999999559
 30
0.0
 40
1.7870693199904151
 50
334.43846940472741
 51
34.438469404733659
  0
ARC
  5
517F
  8
ﾋ_ｽ
 10
-3.4784584983865439
 20
0.0
 30
0.0
 40
6.6784584983865471
 50
342.3830311595533
 51
17.61696884044364
  0
ARC
  5
5180
  8
ﾋ_ｽ
 10
6.6784584983865889
 20
-0.0000000000000568
 30
0.0
 40
6.6784584983865649
 50
162.3830311595533
 51
197.6169688404436
  0
ARC
  5
5181
  8
ﾋ_ｽ
 10
1.78706931998704
 20
-3.0318749999989332
 30
0.0
 40
1.7870693199869589
 50
145.56153059523481
 51
205.56153059567771
  0
LINE
  5
5182
  8
ﾋ_ｽ
 10
2.886787478964834
 20
-4.0424999999999613
 30
0.0
 11
3.200000000000272
 21
-3.5
 31
0.0
  0
LINE
  5
5183
  8
ﾋ_ｽ
 10
0.3132125210354388
 20
2.0212500000000091
 30
0.0
 11
2.8867874789646062
 21
2.0212500000000091
 31
0.0
  0
LINE
  5
5184
  8
ﾋ_ｽ
 10
0.3132125210352115
 20
-4.0424999999999613
 30
0.0
 11
0.0
 21
-3.4999999999999432
 31
0.0
  0
LINE
  5
5185
  8
ﾋ_ｽ
 10
0.3132125210352115
 20
-4.0424999999999613
 30
0.0
 11
2.886787478964834
 21
-4.0424999999999613
 31
0.0
  0
LINE
  5
5186
  8
ﾋ_ｽ
 10
0.3132125210354388
 20
-2.0212499999999518
 30
0.0
 11
2.8867874789646062
 21
-2.0212500000000091
 31
0.0
  0
LINE
  5
5187
  8
ﾋ_ｽ
 10
2.886787478964834
 20
4.0424999999999613
 30
0.0
 11
3.200000000000045
 21
3.5
 31
0.0
  0
LINE
  5
5188
  8
ﾋ_ｽ
 10
0.3132125210354388
 20
4.0425000000000182
 30
0.0
 11
0.0
 21
3.5
 31
0.0
  0
LINE
  5
5189
  8
ﾋ_ｽ
 10
0.3132125210354388
 20
4.0425000000000182
 30
0.0
 11
2.886787478964834
 21
4.0424999999999613
 31
0.0
  0
ENDBLK
  5
518A
  8
0
  0
BLOCK
  8
0
  2
*S55
 70
     1
 10
0.0
 20
0.0
 30
0.0
  3
*S55
  1

  0
CIRCLE
  5
5236
  8
AM_12
 62
     4
 10
62.182337658809949
 20
632.90137751601878
 30
0.0
 40
5.25
  0
LINE
  5
5237
  8
AM_12
 62
     4
 10
56.932337658809963
 20
627.65137751601878
 30
0.0
 11
67.432337658809956
 21
638.15137751601867
 31
0.0
  0
LINE
  5
5238
  8
AM_12
 62
     4
 10
56.932337658809963
 20
638.15137751601867
 30
0.0
 11
67.432337658809956
 21
627.65137751601878
 31
0.0
  0
ENDBLK
  5
523A
  8
0
  0
BLOCK
  8
0
  2
*S56
 70
     1
 10
0.0
 20
0.0
 30
0.0
  3
*S56
  1

  0
CIRCLE
  5
523D
  8
AM_12
 62
     4
 10
524.91112550345065
 20
727.93509237144985
 30
0.0
 40
5.25
  0
LINE
  5
523E
  8
AM_12
 62
     4
 10
519.66112550345065
 20
722.68509237144985
 30
0.0
 11
530.16112550345065
 21
733.18509237144985
 31
0.0
  0
LINE
  5
523F
  8
AM_12
 62
     4
 10
519.66112550345065
 20
733.18509237144985
 30
0.0
 11
530.16112550345065
 21
722.68509237144985
 31
0.0
  0
ENDBLK
  5
5241
  8
0
  0
BLOCK
  8
0
  2
*S57
 70
     1
 10
0.0
 20
0.0
 30
0.0
  3
*S57
  1

  0
CIRCLE
  5
5244
  8
AM_12
 62
     4
 10
1370.6099551949119
 20
650.74823588413062
 30
0.0
 40
5.25
  0
LINE
  5
5245
  8
AM_12
 62
     4
 10
1365.3599551949119
 20
645.49823588413062
 30
0.0
 11
1375.8599551949119
 21
655.99823588413062
 31
0.0
  0
LINE
  5
5246
  8
AM_12
 62
     4
 10
1365.3599551949119
 20
655.99823588413062
 30
0.0
 11
1375.8599551949119
 21
645.49823588413062
 31
0.0
  0
ENDBLK
  5
5248
  8
0
  0
BLOCK
  8
0
  2
*S58
 70
     1
 10
0.0
 20
0.0
 30
0.0
  3
*S58
  1

  0
CIRCLE
  5
524B
  8
AM_12
 62
     4
 10
403.40514661590538
 20
272.51439576766347
 30
0.0
 40
5.25
  0
LINE
  5
524C
  8
AM_12
 62
     4
 10
398.15514661590538
 20
267.26439576766347
 30
0.0
 11
408.65514661590538
 21
277.76439576766347
 31
0.0
  0
LINE
  5
524D
  8
AM_12
 62
     4
 10
398.15514661590538
 20
277.76439576766347
 30
0.0
 11
408.65514661590538
 21
267.26439576766347
 31
0.0
  0
ENDBLK
  5
524F
  8
0
  0
BLOCK
  8
0
  2
*S59
 70
     1
 10
0.0
 20
0.0
 30
0.0
  3
*S59
  1

  0
CIRCLE
  5
5252
  8
AM_12
 62
     4
 10
380.00488880545009
 20
755.3326102650251
 30
0.0
 40
5.25
  0
LINE
  5
5253
  8
AM_12
 62
     4
 10
374.75488880544998
 20
750.08261026502498
 30
0.0
 11
385.25488880544998
 21
760.5826102650251
 31
0.0
  0
LINE
  5
5254
  8
AM_12
 62
     4
 10
374.75488880544998
 20
760.5826102650251
 30
0.0
 11
385.25488880544998
 21
750.08261026502498
 31
0.0
  0
ENDBLK
  5
5256
  8
0
  0
BLOCK
  8
0
  2
*S60
 70
     1
 10
0.0
 20
0.0
 30
0.0
  3
*S60
  1

  0
CIRCLE
  5
5259
  8
AM_12
 62
     4
 10
439.41887780730872
 20
770.2765943787997
 30
0.0
 40
5.25
  0
LINE
  5
525A
  8
AM_12
 62
     4
 10
434.16887780730872
 20
765.0265943787997
 30
0.0
 11
444.66887780730872
 21
775.5265943787997
 31
0.0
  0
LINE
  5
525B
  8
AM_12
 62
     4
 10
434.16887780730872
 20
775.5265943787997
 30
0.0
 11
444.66887780730872
 21
765.0265943787997
 31
0.0
  0
ENDBLK
  5
525D
  8
0
  0
BLOCK
  8
0
  2
*S61
 70
     1
 10
0.0
 20
0.0
 30
0.0
  3
*S61
  1

  0
CIRCLE
  5
5260
  8
AM_12
 62
     4
 10
600.6927201951703
 20
753.13240821652994
 30
0.0
 40
5.25
  0
LINE
  5
5261
  8
AM_12
 62
     4
 10
595.4427201951703
 20
747.88240821652994
 30
0.0
 11
605.94272019517018
 21
758.38240821652994
 31
0.0
  0
LINE
  5
5262
  8
AM_12
 62
     4
 10
595.4427201951703
 20
758.38240821652994
 30
0.0
 11
605.94272019517018
 21
747.88240821652994
 31
0.0
  0
ENDBLK
  5
5264
  8
0
  0
BLOCK
  8
0
  2
*S62
 70
     1
 10
0.0
 20
0.0
 30
0.0
  3
*S62
  1

  0
LINE
  5
5267
  8
AM_5
 10
605.25541864947354
 20
838.91137146814663
 30
0.0
 11
533.12033880066804
 21
738.12878137683879
 31
0.0
  0
TRACE
  5
5268
  8
AM_5
 10
531.62155648981673
 20
739.20153393828105
 30
0.0
 11
534.61912111151935
 21
737.05602881539653
 31
0.0
 12
524.97197408380089
 22
726.7443994243165
 32
0.0
 13
524.97197408380089
 23
726.7443994243165
 33
0.0
  0
INSERT
  5
5269
  8
AM_6
  2
*U144
 10
0.0
 20
0.0
 30
0.0
  0
CIRCLE
  5
526A
  8
AM_5
 62
     3
 10
619.51505690399108
 20
858.83403988506041
 30
0.0
 40
24.5
  0
ENDBLK
  5
526C
  8
0
  0
BLOCK
  8
0
  2
*S63
 70
     1
 10
0.0
 20
0.0
 30
0.0
  3
*S63
  1

  0
LINE
  5
526F
  8
AM_5
 10
102.2267828731644
 20
665.02874378334843
 30
0.0
 11
73.043997204911335
 21
641.7427683364092
 31
0.0
  0
TRACE
  5
5270
  8
AM_5
 10
71.894414604759177
 20
643.18346480646426
 30
0.0
 11
74.193579805063507
 21
640.30207186635414
 31
0.0
 12
62.100821018476829
 22
633.01082153442655
 32
0.0
 13
62.100821018476829
 23
633.01082153442655
 33
0.0
  0
INSERT
  5
5271
  8
AM_6
  2
*U145
 10
0.0
 20
0.0
 30
0.0
  0
CIRCLE
  5
5272
  8
AM_5
 62
     3
 10
121.37734119942481
 20
680.3096506868178
 30
0.0
 40
24.5
  0
ENDBLK
  5
5274
  8
0
  0
BLOCK
  8
0
  2
*S64
 70
     1
 10
0.0
 20
0.0
 30
0.0
  3
*S64
  1

  0
LINE
  5
5277
  8
AM_5
 10
641.84623496723884
 20
797.23106447413988
 30
0.0
 11
611.86430562577414
 21
762.80091574672201
 31
0.0
  0
TRACE
  5
5278
  8
AM_5
 10
610.47431912113154
 20
764.01132228599431
 30
0.0
 11
613.25429213041673
 21
761.59050920744971
 31
0.0
 12
602.67035513600638
 22
752.24291999034381
 32
0.0
 13
602.67035513600638
 23
752.24291999034381
 33
0.0
  0
INSERT
  5
5279
  8
AM_6
  2
*U146
 10
0.0
 20
0.0
 30
0.0
  0
CIRCLE
  5
527A
  8
AM_5
 62
     3
 10
657.93564832433231
 20
815.70755704780186
 30
0.0
 40
24.5
  0
ENDBLK
  5
527C
  8
0
  0
BLOCK
  8
0
  2
*S65
 70
     1
 10
0.0
 20
0.0
 30
0.0
  3
*S65
  1

  0
LINE
  5
527F
  8
AM_5
 10
340.52426888554209
 20
816.83716668175816
 30
0.0
 11
373.93442781888092
 21
766.87083910016395
 31
0.0
  0
TRACE
  5
5280
  8
AM_5
 10
372.40225327417028
 20
765.84634525540798
 30
0.0
 11
375.46660236359139
 21
767.8953329449198
 31
0.0
 12
381.71623118836669
 22
755.23281794884019
 32
0.0
 13
381.71623118836669
 23
755.23281794884019
 33
0.0
  0
INSERT
  5
5281
  8
AM_6
  2
*U147
 10
0.0
 20
0.0
 30
0.0
  0
CIRCLE
  5
5282
  8
AM_5
 62
     3
 10
326.90611298894191
 20
837.20370369657485
 30
0.0
 40
24.5
  0
ENDBLK
  5
5284
  8
0
  0
BLOCK
  8
0
  2
*S66
 70
     1
 10
0.0
 20
0.0
 30
0.0
  3
*S66
  1

  0
LINE
  5
5287
  8
AM_5
 10
471.51436873376298
 20
824.1328884991899
 30
0.0
 11
445.959660297357
 21
781.44870693861117
 31
0.0
  0
TRACE
  5
5288
  8
AM_5
 10
444.37827378474958
 20
782.39547151924626
 30
0.0
 11
447.54104680996448
 21
780.50194235797642
 31
0.0
 12
438.76826930813053
 22
769.43688377807189
 32
0.0
 13
438.76826930813053
 23
769.43688377807189
 33
0.0
  0
INSERT
  5
5289
  8
AM_6
  2
*U148
 10
0.0
 20
0.0
 30
0.0
  0
CIRCLE
  5
528A
  8
AM_5
 62
     3
 10
484.09930296490933
 20
845.15357903013398
 30
0.0
 40
24.5
  0
ENDBLK
  5
528C
  8
0
  0
BLOCK
  8
0
  2
*S67
 70
     1
 10
0.0
 20
0.0
 30
0.0
  3
*S67
  1

  0
LINE
  5
528F
  8
AM_5
 10
495.40787039838648
 20
179.3890810768053
 30
0.0
 11
413.49709493947802
 21
262.76372916874948
 31
0.0
  0
TRACE
  5
5290
  8
AM_5
 10
414.81187939424387
 20
264.05542894459052
 30
0.0
 11
412.18231048471222
 21
261.47202939290838
 31
0.0
 12
403.68566101095161
 22
272.75050864294229
 32
0.0
 13
403.68566101095161
 23
272.75050864294229
 33
0.0
  0
INSERT
  5
5291
  8
AM_6
  2
*U149
 10
0.0
 20
0.0
 30
0.0
  0
CIRCLE
  5
5292
  8
AM_5
 62
     3
 10
512.57787977330781
 20
161.9122169969678
 30
0.0
 40
24.5
  0
ENDBLK
  5
5294
  8
0
  0
BLOCK
  8
0
  2
*S68
 70
     1
 10
0.0
 20
0.0
 30
0.0
  3
*S68
  1

  0
LINE
  5
5297
  8
AM_5
 10
1432.428077847439
 20
696.46942002972025
 30
0.0
 11
1385.931949670992
 21
656.82750981773916
 31
0.0
  0
TRACE
  5
5298
  8
AM_5
 10
1384.736142547762
 20
658.23007596499747
 30
0.0
 11
1387.1277567942211
 21
655.42494367048073
 31
0.0
 12
1375.2784020420511
 22
647.74445290291715
 32
0.0
 13
1375.2784020420511
 23
647.74445290291715
 33
0.0
  0
INSERT
  5
5299
  8
AM_6
  2
*U150
 10
0.0
 20
0.0
 30
0.0
  0
CIRCLE
  5
529A
  8
AM_5
 62
     3
 10
1451.071786198085
 20
712.36476963065888
 30
0.0
 40
24.5
  0
ENDBLK
  5
529C
  8
0
  0
BLOCK
  8
0
  2
*S69
 70
     1
 10
0.0
 20
0.0
 30
0.0
  3
*S69
  1

  0
CIRCLE
  5
529F
  8
AM_12
 62
     4
 10
1051.612283896395
 20
268.9012187324351
 30
-374.380611490229
 40
7.0
  0
LINE
  5
52A0
  8
AM_12
 62
     4
 10
1044.6122838963961
 20
261.90121873243498
 30
-374.380611490229
 11
1058.6122838963961
 21
275.90121873243498
 31
-374.380611490229
  0
LINE
  5
52A1
  8
AM_12
 62
     4
 10
1044.6122838963961
 20
275.90121873243498
 30
-374.380611490229
 11
1058.6122838963961
 21
261.90121873243498
 31
-374.380611490229
  0
ENDBLK
  5
52A3
  8
0
  0
BLOCK
  8
0
  2
*S70
 70
     1
 10
0.0
 20
0.0
 30
0.0
  3
*S70
  1

  0
CIRCLE
  5
52A6
  8
AM_12
 62
     4
 10
1193.0724154331299
 20
268.41116838828651
 30
-374.380611490229
 40
7.0
  0
LINE
  5
52A7
  8
AM_12
 62
     4
 10
1186.072415433129
 20
261.4111683882864
 30
-374.380611490229
 11
1200.072415433129
 21
275.4111683882864
 31
-374.380611490229
  0
LINE
  5
52A8
  8
AM_12
 62
     4
 10
1186.072415433129
 20
275.4111683882864
 30
-374.380611490229
 11
1200.072415433129
 21
261.4111683882864
 31
-374.380611490229
  0
ENDBLK
  5
52AA
  8
0
  0
BLOCK
  8
0
  2
*S71
 70
     1
 10
0.0
 20
0.0
 30
0.0
  3
*S71
  1

  0
CIRCLE
  5
52AD
  8
AM_12
 62
     4
 10
1432.4562105192581
 20
269.14307337774881
 30
-374.380611490229
 40
7.0
  0
LINE
  5
52AE
  8
AM_12
 62
     4
 10
1425.456210519257
 20
262.14307337774881
 30
-374.380611490229
 11
1439.4562105192581
 21
276.14307337774881
 31
-374.380611490229
  0
LINE
  5
52AF
  8
AM_12
 62
     4
 10
1425.456210519257
 20
276.14307337774881
 30
-374.380611490229
 11
1439.4562105192581
 21
262.14307337774881
 31
-374.380611490229
  0
ENDBLK
  5
52B1
  8
0
  0
BLOCK
  8
0
  2
*S72
 70
     1
 10
0.0
 20
0.0
 30
0.0
  3
*S72
  1

  0
LINE
  5
52B4
  8
0
 62
     1
 10
840.0
 20
1045.9000000000001
 30
0.0
 11
1612.0
 21
1045.9000000000001
 31
0.0
  0
LINE
  5
52B5
  8
0
 62
     1
 10
840.0
 20
1021.2
 30
0.0
 11
1612.0
 21
1021.2
 31
0.0
  0
LINE
  5
52B6
  8
0
 62
     1
 10
840.0
 20
996.49999999999989
 30
0.0
 11
1612.0
 21
996.49999999999989
 31
0.0
  0
LINE
  5
52B7
  8
0
 62
     1
 10
840.0
 20
971.79999999999995
 30
0.0
 11
1612.0
 21
971.79999999999995
 31
0.0
  0
LINE
  5
52B8
  8
0
 62
     1
 10
840.0
 20
947.10000000000002
 30
0.0
 11
1612.0
 21
947.10000000000002
 31
0.0
  0
LINE
  5
52B9
  8
0
 62
     1
 10
840.0
 20
922.39999999999998
 30
0.0
 11
1612.0
 21
922.39999999999998
 31
0.0
  0
LINE
  5
52BA
  8
0
 62
     1
 10
840.0
 20
897.70000000000005
 30
0.0
 11
1612.0
 21
897.70000000000005
 31
0.0
  0
LINE
  5
52BB
  8
0
 62
     1
 10
840.0
 20
873.0
 30
0.0
 11
1612.0
 21
873.0
 31
0.0
  0
LINE
  5
52BC
  8
0
 62
     1
 10
840.0
 20
848.29999999999995
 30
0.0
 11
1612.0
 21
848.29999999999995
 31
0.0
  0
LINE
  5
52BD
  8
0
 62
     1
 10
840.0
 20
823.60000000000002
 30
0.0
 11
1612.0
 21
823.60000000000002
 31
0.0
  0
INSERT
  5
52BE
  8
AM_6
  2
*U151
 10
0.0
 20
0.0
 30
0.0
  0
LINE
  5
52BF
  8
0
 62
     1
 10
900.0
 20
1070.5999999999999
 30
0.0
 11
900.0
 21
1045.9000000000001
 31
0.0
  0
INSERT
  5
52C0
  8
AM_6
  2
*U152
 10
0.0
 20
0.0
 30
0.0
  0
LINE
  5
52C1
  8
0
 62
     1
 10
1080.0
 20
1070.5999999999999
 30
0.0
 11
1080.0
 21
1045.9000000000001
 31
0.0
  0
INSERT
  5
52C2
  8
AM_6
  2
*U153
 10
0.0
 20
0.0
 30
0.0
  0
LINE
  5
52C3
  8
0
 62
     1
 10
1160.0
 20
1070.5999999999999
 30
0.0
 11
1160.0
 21
1045.9000000000001
 31
0.0
  0
INSERT
  5
52C4
  8
AM_6
  2
*U154
 10
0.0
 20
0.0
 30
0.0
  0
LINE
  5
52C5
  8
0
 62
     1
 10
1360.0
 20
1070.5999999999999
 30
0.0
 11
1360.0
 21
1045.9000000000001
 31
0.0
  0
INSERT
  5
52C6
  8
AM_6
  2
*U155
 10
0.0
 20
0.0
 30
0.0
  0
INSERT
  5
52C7
  8
AM_6
  2
*U156
 10
0.0
 20
0.0
 30
0.0
  0
LINE
  5
52C8
  8
0
 62
     1
 10
900.0
 20
1045.9000000000001
 30
0.0
 11
900.0
 21
1021.2
 31
0.0
  0
INSERT
  5
52C9
  8
AM_6
  2
*U157
 10
0.0
 20
0.0
 30
0.0
  0
LINE
  5
52CA
  8
0
 62
     1
 10
1080.0
 20
1045.9000000000001
 30
0.0
 11
1080.0
 21
1021.2
 31
0.0
  0
INSERT
  5
52CB
  8
AM_6
  2
*U158
 10
0.0
 20
0.0
 30
0.0
  0
LINE
  5
52CC
  8
0
 62
     1
 10
1160.0
 20
1045.9000000000001
 30
0.0
 11
1160.0
 21
1021.2
 31
0.0
  0
INSERT
  5
52CD
  8
AM_6
  2
*U159
 10
0.0
 20
0.0
 30
0.0
  0
LINE
  5
52CE
  8
0
 62
     1
 10
1360.0
 20
1045.9000000000001
 30
0.0
 11
1360.0
 21
1021.2
 31
0.0
  0
INSERT
  5
52CF
  8
AM_6
  2
*U160
 10
0.0
 20
0.0
 30
0.0
  0
INSERT
  5
52D0
  8
AM_6
  2
*U161
 10
0.0
 20
0.0
 30
0.0
  0
LINE
  5
52D1
  8
0
 62
     1
 10
900.0
 20
1021.2
 30
0.0
 11
900.0
 21
996.49999999999989
 31
0.0
  0
INSERT
  5
52D2
  8
AM_6
  2
*U162
 10
0.0
 20
0.0
 30
0.0
  0
LINE
  5
52D3
  8
0
 62
     1
 10
1080.0
 20
1021.2
 30
0.0
 11
1080.0
 21
996.49999999999989
 31
0.0
  0
INSERT
  5
52D4
  8
AM_6
  2
*U163
 10
0.0
 20
0.0
 30
0.0
  0
LINE
  5
52D5
  8
0
 62
     1
 10
1160.0
 20
1021.2
 30
0.0
 11
1160.0
 21
996.49999999999989
 31
0.0
  0
INSERT
  5
52D6
  8
AM_6
  2
*U164
 10
0.0
 20
0.0
 30
0.0
  0
LINE
  5
52D7
  8
0
 62
     1
 10
1360.0
 20
1021.2
 30
0.0
 11
1360.0
 21
996.49999999999989
 31
0.0
  0
INSERT
  5
52D8
  8
AM_6
  2
*U165
 10
0.0
 20
0.0
 30
0.0
  0
INSERT
  5
52D9
  8
AM_6
  2
*U166
 10
0.0
 20
0.0
 30
0.0
  0
LINE
  5
52DA
  8
0
 62
     1
 10
900.0
 20
996.49999999999989
 30
0.0
 11
900.0
 21
971.79999999999995
 31
0.0
  0
INSERT
  5
52DB
  8
AM_6
  2
*U167
 10
0.0
 20
0.0
 30
0.0
  0
LINE
  5
52DC
  8
0
 62
     1
 10
1080.0
 20
996.49999999999989
 30
0.0
 11
1080.0
 21
971.79999999999995
 31
0.0
  0
INSERT
  5
52DD
  8
AM_6
  2
*U168
 10
0.0
 20
0.0
 30
0.0
  0
LINE
  5
52DE
  8
0
 62
     1
 10
1160.0
 20
996.49999999999989
 30
0.0
 11
1160.0
 21
971.79999999999995
 31
0.0
  0
INSERT
  5
52DF
  8
AM_6
  2
*U169
 10
0.0
 20
0.0
 30
0.0
  0
LINE
  5
52E0
  8
0
 62
     1
 10
1360.0
 20
996.49999999999989
 30
0.0
 11
1360.0
 21
971.79999999999995
 31
0.0
  0
INSERT
  5
52E1
  8
AM_6
  2
*U170
 10
0.0
 20
0.0
 30
0.0
  0
INSERT
  5
52E2
  8
AM_6
  2
*U171
 10
0.0
 20
0.0
 30
0.0
  0
LINE
  5
52E3
  8
0
 62
     1
 10
900.0
 20
971.79999999999995
 30
0.0
 11
900.0
 21
947.10000000000002
 31
0.0
  0
INSERT
  5
52E4
  8
AM_6
  2
*U172
 10
0.0
 20
0.0
 30
0.0
  0
LINE
  5
52E5
  8
0
 62
     1
 10
1080.0
 20
971.79999999999995
 30
0.0
 11
1080.0
 21
947.10000000000002
 31
0.0
  0
INSERT
  5
52E6
  8
AM_6
  2
*U173
 10
0.0
 20
0.0
 30
0.0
  0
LINE
  5
52E7
  8
0
 62
     1
 10
1160.0
 20
971.79999999999995
 30
0.0
 11
1160.0
 21
947.10000000000002
 31
0.0
  0
INSERT
  5
52E8
  8
AM_6
  2
*U174
 10
0.0
 20
0.0
 30
0.0
  0
LINE
  5
52E9
  8
0
 62
     1
 10
1360.0
 20
971.79999999999995
 30
0.0
 11
1360.0
 21
947.10000000000002
 31
0.0
  0
INSERT
  5
52EA
  8
AM_6
  2
*U175
 10
0.0
 20
0.0
 30
0.0
  0
INSERT
  5
52EB
  8
AM_6
  2
*U176
 10
0.0
 20
0.0
 30
0.0
  0
LINE
  5
52EC
  8
0
 62
     1
 10
900.0
 20
947.10000000000002
 30
0.0
 11
900.0
 21
922.39999999999998
 31
0.0
  0
INSERT
  5
52ED
  8
AM_6
  2
*U177
 10
0.0
 20
0.0
 30
0.0
  0
LINE
  5
52EE
  8
0
 62
     1
 10
1080.0
 20
947.10000000000002
 30
0.0
 11
1080.0
 21
922.39999999999998
 31
0.0
  0
INSERT
  5
52EF
  8
AM_6
  2
*U178
 10
0.0
 20
0.0
 30
0.0
  0
LINE
  5
52F0
  8
0
 62
     1
 10
1160.0
 20
947.10000000000002
 30
0.0
 11
1160.0
 21
922.39999999999998
 31
0.0
  0
INSERT
  5
52F1
  8
AM_6
  2
*U179
 10
0.0
 20
0.0
 30
0.0
  0
LINE
  5
52F2
  8
0
 62
     1
 10
1360.0
 20
947.10000000000002
 30
0.0
 11
1360.0
 21
922.39999999999998
 31
0.0
  0
INSERT
  5
52F3
  8
AM_6
  2
*U180
 10
0.0
 20
0.0
 30
0.0
  0
INSERT
  5
52F4
  8
AM_6
  2
*U181
 10
0.0
 20
0.0
 30
0.0
  0
LINE
  5
52F5
  8
0
 62
     1
 10
900.0
 20
922.39999999999998
 30
0.0
 11
900.0
 21
897.70000000000005
 31
0.0
  0
INSERT
  5
52F6
  8
AM_6
  2
*U182
 10
0.0
 20
0.0
 30
0.0
  0
LINE
  5
52F7
  8
0
 62
     1
 10
1080.0
 20
922.39999999999998
 30
0.0
 11
1080.0
 21
897.70000000000005
 31
0.0
  0
INSERT
  5
52F8
  8
AM_6
  2
*U183
 10
0.0
 20
0.0
 30
0.0
  0
LINE
  5
52F9
  8
0
 62
     1
 10
1160.0
 20
922.39999999999998
 30
0.0
 11
1160.0
 21
897.70000000000005
 31
0.0
  0
INSERT
  5
52FA
  8
AM_6
  2
*U184
 10
0.0
 20
0.0
 30
0.0
  0
LINE
  5
52FB
  8
0
 62
     1
 10
1360.0
 20
922.39999999999998
 30
0.0
 11
1360.0
 21
897.70000000000005
 31
0.0
  0
INSERT
  5
52FC
  8
AM_6
  2
*U185
 10
0.0
 20
0.0
 30
0.0
  0
INSERT
  5
52FD
  8
AM_6
  2
*U186
 10
0.0
 20
0.0
 30
0.0
  0
LINE
  5
52FE
  8
0
 62
     1
 10
900.0
 20
897.70000000000005
 30
0.0
 11
900.0
 21
873.0
 31
0.0
  0
INSERT
  5
52FF
  8
AM_6
  2
*U187
 10
0.0
 20
0.0
 30
0.0
  0
LINE
  5
5300
  8
0
 62
     1
 10
1080.0
 20
897.70000000000005
 30
0.0
 11
1080.0
 21
873.0
 31
0.0
  0
INSERT
  5
5301
  8
AM_6
  2
*U188
 10
0.0
 20
0.0
 30
0.0
  0
LINE
  5
5302
  8
0
 62
     1
 10
1160.0
 20
897.70000000000005
 30
0.0
 11
1160.0
 21
873.0
 31
0.0
  0
INSERT
  5
5303
  8
AM_6
  2
*U189
 10
0.0
 20
0.0
 30
0.0
  0
LINE
  5
5304
  8
0
 62
     1
 10
1360.0
 20
897.70000000000005
 30
0.0
 11
1360.0
 21
873.0
 31
0.0
  0
INSERT
  5
5305
  8
AM_6
  2
*U190
 10
0.0
 20
0.0
 30
0.0
  0
INSERT
  5
5306
  8
AM_6
  2
*U191
 10
0.0
 20
0.0
 30
0.0
  0
LINE
  5
5307
  8
0
 62
     1
 10
900.0
 20
873.0
 30
0.0
 11
900.0
 21
848.29999999999995
 31
0.0
  0
INSERT
  5
5308
  8
AM_6
  2
*U192
 10
0.0
 20
0.0
 30
0.0
  0
LINE
  5
5309
  8
0
 62
     1
 10
1080.0
 20
873.0
 30
0.0
 11
1080.0
 21
848.29999999999995
 31
0.0
  0
INSERT
  5
530A
  8
AM_6
  2
*U193
 10
0.0
 20
0.0
 30
0.0
  0
LINE
  5
530B
  8
0
 62
     1
 10
1160.0
 20
873.0
 30
0.0
 11
1160.0
 21
848.29999999999995
 31
0.0
  0
INSERT
  5
530C
  8
AM_6
  2
*U194
 10
0.0
 20
0.0
 30
0.0
  0
LINE
  5
530D
  8
0
 62
     1
 10
1360.0
 20
873.0
 30
0.0
 11
1360.0
 21
848.29999999999995
 31
0.0
  0
INSERT
  5
530E
  8
AM_6
  2
*U195
 10
0.0
 20
0.0
 30
0.0
  0
INSERT
  5
530F
  8
AM_6
  2
*U196
 10
0.0
 20
0.0
 30
0.0
  0
LINE
  5
5310
  8
0
 62
     1
 10
900.0
 20
848.29999999999995
 30
0.0
 11
900.0
 21
823.60000000000002
 31
0.0
  0
INSERT
  5
5311
  8
AM_6
  2
*U197
 10
0.0
 20
0.0
 30
0.0
  0
LINE
  5
5312
  8
0
 62
     1
 10
1080.0
 20
848.29999999999995
 30
0.0
 11
1080.0
 21
823.60000000000002
 31
0.0
  0
INSERT
  5
5313
  8
AM_6
  2
*U198
 10
0.0
 20
0.0
 30
0.0
  0
LINE
  5
5314
  8
0
 62
     1
 10
1160.0
 20
848.29999999999995
 30
0.0
 11
1160.0
 21
823.60000000000002
 31
0.0
  0
INSERT
  5
5315
  8
AM_6
  2
*U199
 10
0.0
 20
0.0
 30
0.0
  0
LINE
  5
5316
  8
0
 62
     1
 10
1360.0
 20
848.29999999999995
 30
0.0
 11
1360.0
 21
823.60000000000002
 31
0.0
  0
INSERT
  5
5317
  8
AM_6
  2
*U200
 10
0.0
 20
0.0
 30
0.0
  0
INSERT
  5
5318
  8
AM_6
  2
*U201
 10
0.0
 20
0.0
 30
0.0
  0
LINE
  5
5319
  8
0
 62
     1
 10
900.0
 20
823.60000000000002
 30
0.0
 11
900.0
 21
798.89999999999998
 31
0.0
  0
INSERT
  5
531A
  8
AM_6
  2
*U202
 10
0.0
 20
0.0
 30
0.0
  0
LINE
  5
531B
  8
0
 62
     1
 10
1080.0
 20
823.60000000000002
 30
0.0
 11
1080.0
 21
798.89999999999998
 31
0.0
  0
INSERT
  5
531C
  8
AM_6
  2
*U203
 10
0.0
 20
0.0
 30
0.0
  0
LINE
  5
531D
  8
0
 62
     1
 10
1160.0
 20
823.60000000000002
 30
0.0
 11
1160.0
 21
798.89999999999998
 31
0.0
  0
INSERT
  5
531E
  8
AM_6
  2
*U204
 10
0.0
 20
0.0
 30
0.0
  0
LINE
  5
531F
  8
0
 62
     1
 10
1360.0
 20
823.60000000000002
 30
0.0
 11
1360.0
 21
798.89999999999998
 31
0.0
  0
INSERT
  5
5320
  8
AM_6
  2
*U205
 10
0.0
 20
0.0
 30
0.0
  0
LINE
  5
5321
  8
0
 62
     1
 10
840.0
 20
1070.5999999999999
 30
0.0
 11
1612.0
 21
1070.5999999999999
 31
0.0
  0
INSERT
  5
5322
  8
AM_6
  2
*U206
 10
0.0
 20
0.0
 30
0.0
  0
LINE
  5
5323
  8
0
 62
     1
 10
900.0
 20
1095.3
 30
0.0
 11
900.0
 21
1070.5999999999999
 31
0.0
  0
INSERT
  5
5324
  8
AM_6
  2
*U207
 10
0.0
 20
0.0
 30
0.0
  0
LINE
  5
5325
  8
0
 62
     1
 10
1080.0
 20
1095.3
 30
0.0
 11
1080.0
 21
1070.5999999999999
 31
0.0
  0
INSERT
  5
5326
  8
AM_6
  2
*U208
 10
0.0
 20
0.0
 30
0.0
  0
LINE
  5
5327
  8
0
 62
     1
 10
1160.0
 20
1095.3
 30
0.0
 11
1160.0
 21
1070.5999999999999
 31
0.0
  0
INSERT
  5
5328
  8
AM_6
  2
*U209
 10
0.0
 20
0.0
 30
0.0
  0
LINE
  5
5329
  8
0
 62
     1
 10
1360.0
 20
1095.3
 30
0.0
 11
1360.0
 21
1070.5999999999999
 31
0.0
  0
INSERT
  5
532A
  8
AM_6
  2
*U210
 10
0.0
 20
0.0
 30
0.0
  0
INSERT
  5
532B
  8
AM_6
  2
*U211
 10
0.0
 20
0.0
 30
0.0
  0
LINE
  5
532C
  8
0
 62
     1
 10
840.0
 20
1095.3
 30
0.0
 11
1612.0
 21
1095.3
 31
0.0
  0
LINE
  5
532D
  8
0
 62
     7
 10
840.0
 20
1120.0
 30
0.0
 11
1612.0
 21
1120.0
 31
0.0
  0
LINE
  5
532E
  8
0
 62
     7
 10
1612.0
 20
1120.0
 30
0.0
 11
1612.0
 21
798.89999999999998
 31
0.0
  0
LINE
  5
532F
  8
0
 62
     7
 10
1612.0
 20
798.89999999999998
 30
0.0
 11
840.0
 21
798.89999999999998
 31
0.0
  0
LINE
  5
5330
  8
0
 62
     7
 10
840.0
 20
798.89999999999998
 30
0.0
 11
840.0
 21
1120.0
 31
0.0
  0
ENDBLK
  5
5332
  8
0
  0
BLOCK
  8
0
  2
*S73
 70
     1
 10
0.0
 20
0.0
 30
0.0
  3
*S73
  1

  0
CIRCLE
  5
5335
  8
AM_12
 62
     4
 10
1317.1364081290881
 20
268.80512492633352
 30
0.0
 40
7.0
  0
LINE
  5
5336
  8
AM_12
 62
     4
 10
1310.1364081290881
 20
261.80512492633352
 30
0.0
 11
1324.1364081290881
 21
275.80512492633352
 31
0.0
  0
LINE
  5
5337
  8
AM_12
 62
     4
 10
1310.1364081290881
 20
275.80512492633352
 30
0.0
 11
1324.1364081290881
 21
261.80512492633352
 31
0.0
  0
ENDBLK
  5
5339
  8
0
  0
BLOCK
  8
0
  2
*S74
 70
     1
 10
0.0
 20
0.0
 30
0.0
  3
*S74
  1

  0
LINE
  5
533C
  8
AM_5
 10
1077.6754710196719
 20
304.34875626185311
 30
0.0
 11
1061.391869461645
 21
282.96140462215692
 31
0.0
  0
TRACE
  5
533D
  8
AM_5
 10
1059.925400640682
 20
284.0779240669255
 30
0.0
 11
1062.8583382826071
 21
281.84488517738828
 31
0.0
 12
1052.9110622592671
 22
271.8224679944488
 32
0.0
 13
1052.9110622592671
 23
271.8224679944488
 33
0.0
  0
INSERT
  5
533E
  8
AM_6
  2
*U212
 10
0.0
 20
0.0
 30
0.0
  0
CIRCLE
  5
533F
  8
AM_5
 62
     3
 10
1092.5168836238331
 20
323.84189536034228
 30
0.0
 40
24.5
  0
ENDBLK
  5
5341
  8
0
  0
BLOCK
  8
0
  2
*S75
 70
     1
 10
0.0
 20
0.0
 30
0.0
  3
*S75
  1

  0
LINE
  5
5344
  8
AM_5
 10
1205.5034158077231
 20
305.98375268710453
 30
0.0
 11
1191.4413047104399
 21
285.77343058992523
 31
0.0
  0
TRACE
  5
5345
  8
AM_5
 10
1189.928362380916
 20
286.82611856883273
 30
0.0
 11
1192.9542470399631
 21
284.72074261101773
 31
0.0
 12
1183.445345629561
 22
274.28149261685388
 32
0.0
 13
1183.445345629561
 23
274.28149261685388
 33
0.0
  0
INSERT
  5
5346
  8
AM_6
  2
*U213
 10
0.0
 20
0.0
 30
0.0
  0
CIRCLE
  5
5347
  8
AM_5
 62
     3
 10
1219.49634419926
 20
326.09464413997921
 30
0.0
 40
24.5
  0
ENDBLK
  5
5349
  8
0
  0
BLOCK
  8
0
  2
*S76
 70
     1
 10
0.0
 20
0.0
 30
0.0
  3
*S76
  1

  0
LINE
  5
534C
  8
AM_5
 10
1329.225177591921
 20
303.80126466816819
 30
0.0
 11
1310.8957772072849
 21
279.7796044738605
 31
0.0
  0
TRACE
  5
534D
  8
AM_5
 10
1309.4304889015341
 20
280.89767274298862
 30
0.0
 11
1312.361065513036
 21
278.66153620473239
 31
0.0
 12
1302.4032055158571
 22
268.6496347494658
 32
0.0
 13
1302.4032055158571
 23
268.6496347494658
 33
0.0
  0
INSERT
  5
534E
  8
AM_6
  2
*U214
 10
0.0
 20
0.0
 30
0.0
  0
CIRCLE
  5
534F
  8
AM_5
 62
     3
 10
1344.087178051921
 20
323.27871168585898
 30
0.0
 40
24.5
  0
ENDBLK
  5
5351
  8
0
  0
BLOCK
  8
0
  2
*S77
 70
     1
 10
0.0
 20
0.0
 30
0.0
  3
*S77
  1

  0
LINE
  5
5354
  8
AM_5
 10
1449.8754142681009
 20
301.6998776995153
 30
0.0
 11
1429.9943626297199
 21
279.9822486235829
 31
0.0
  0
TRACE
  5
5355
  8
AM_5
 10
1428.634853483145
 20
281.22678924316062
 30
0.0
 11
1431.353871776296
 21
278.73770800400513
 31
0.0
 12
1420.5411380579319
 22
269.65575138611979
 32
0.0
 13
1420.5411380579319
 23
269.65575138611979
 33
0.0
  0
INSERT
  5
5356
  8
AM_6
  2
*U215
 10
0.0
 20
0.0
 30
0.0
  0
CIRCLE
  5
5357
  8
AM_5
 62
     3
 10
1466.4185572687311
 20
319.77124786507562
 30
0.0
 40
24.5
  0
ENDBLK
  5
5359
  8
0
  0
BLOCK
  8
0
  2
*U78
 70
     1
 10
0.0
 20
0.0
 30
0.0
  3
*U78
  1

  0
TEXT
  5
5377
  8
0
 10
367.55531168523049
 20
276.233542987227
 30
0.0
 40
2.5
  1
(文書番号：TY-34)2004.10.29
  0
ENDBLK
  5
5379
  8
0
  0
BLOCK
  8
0
  2
*U79
 70
     1
 10
0.0
 20
0.0
 30
0.0
  3
*U79
  1

  0
TEXT
  5
537C
  8
RAHM2
 10
-193.80025513713139
 20
3.3010354072796408
 30
0.0
 40
2.5
  1
図番
  0
ENDBLK
  5
537E
  8
0
  0
BLOCK
  8
0
  2
*U80
 70
     1
 10
0.0
 20
0.0
 30
0.0
  3
*U80
  1

  0
TEXT
  5
5380
  8
RAHM2
 10
-193.0
 20
21.249999999999972
 30
0.0
 40
2.5
  1
符号
  0
ENDBLK
  5
5382
  8
0
  0
BLOCK
  8
0
  2
*U81
 70
     1
 10
0.0
 20
0.0
 30
0.0
  3
*U81
  1

  0
TEXT
  5
5384
  8
RAHM2
 10
-193.80025513713139
 20
16.30103540727961
 30
0.0
 40
2.5
  1
品名
  0
ENDBLK
  5
5386
  8
0
  0
BLOCK
  8
0
  2
*U82
 70
     1
 10
0.0
 20
0.0
 30
0.0
  3
*U82
  1

  0
TEXT
  5
5388
  8
RAHM2
 10
-163.1448171868856
 20
21.249999999999972
 30
0.0
 40
2.5
  1
変更記事
  0
ENDBLK
  5
538A
  8
0
  0
BLOCK
  8
0
  2
*U83
 70
     1
 10
0.0
 20
0.0
 30
0.0
  3
*U83
  1

  0
TEXT
  5
538C
  8
0
 10
-88.85532994923858
 20
3.4187817258883251
 30
0.0
 40
3.5
  1
株式会社タカチ電機工業
  0
ENDBLK
  5
538E
  8
0
  0
BLOCK
  8
0
  2
*U84
 70
     1
 10
0.0
 20
0.0
 30
0.0
  3
*U84
  1

  0
TEXT
  5
5390
  8
RAHM2
 10
-123.3541228057275
 20
31.250000000000028
 30
0.0
 40
2.5
  1
・  ・   
  0
ENDBLK
  5
5392
  8
0
  0
BLOCK
  8
0
  2
*U85
 70
     1
 10
0.0
 20
0.0
 30
0.0
  3
*U85
  1

  0
TEXT
  5
5394
  8
RAHM2
 10
-126.238119805002
 20
21.249999999999972
 30
0.0
 40
2.5
  1
年・月・日
  0
ENDBLK
  5
5396
  8
0
  0
BLOCK
  8
0
  2
*U86
 70
     1
 10
0.0
 20
0.0
 30
0.0
  3
*U86
  1

  0
TEXT
  5
5398
  8
RAHM2
 10
-104.5
 20
21.249999999999972
 30
0.0
 40
2.5
  1
担当
  0
ENDBLK
  5
539A
  8
0
  0
BLOCK
  8
0
  2
*U87
 70
     1
 10
0.0
 20
0.0
 30
0.0
  3
*U87
  1

  0
TEXT
  5
539C
  8
RAHM2
 10
-123.3541228057275
 20
41.250000000000021
 30
0.0
 40
2.5
  1
・  ・   
  0
ENDBLK
  5
539E
  8
0
  0
BLOCK
  8
0
  2
*U88
 70
     1
 10
0.0
 20
0.0
 30
0.0
  3
*U88
  1

  0
TEXT
  5
53A0
  8
RAHM2
 10
-123.3541228057275
 20
36.250000000000028
 30
0.0
 40
2.5
  1
・  ・   
  0
ENDBLK
  5
53A2
  8
0
  0
BLOCK
  8
0
  2
*U89
 70
     1
 10
0.0
 20
0.0
 30
0.0
  3
*U89
  1

  0
TEXT
  5
53A4
  8
RAHM2
 10
-123.3541228057275
 20
46.250000000000021
 30
0.0
 40
2.5
  1
・  ・   
  0
ENDBLK
  5
53A6
  8
0
  0
BLOCK
  8
0
  2
*U90
 70
     1
 10
0.0
 20
0.0
 30
0.0
  3
*U90
  1

  0
TEXT
  5
53A8
  8
RAHM2
 10
-92.800255137131444
 20
13.80103540727964
 30
0.0
 40
2.5
  1
日付
  0
ENDBLK
  5
53AA
  8
0
  0
BLOCK
  8
0
  2
*U91
 70
     1
 10
0.0
 20
0.0
 30
0.0
  3
*U91
  1

  0
TEXT
  5
53AC
  8
RAHM2
 10
-92.800255137131444
 20
23.801035407279642
 30
0.0
 40
2.5
  1
表面処理
  0
ENDBLK
  5
53AE
  8
0
  0
BLOCK
  8
0
  2
*U92
 70
     1
 10
0.0
 20
0.0
 30
0.0
  3
*U92
  1

  0
TEXT
  5
53B0
  8
RAHM2
 10
-92.800255137131444
 20
33.801035407279642
 30
0.0
 40
2.5
  1
材質
  0
ENDBLK
  5
53B2
  8
0
  0
BLOCK
  8
0
  2
*U93
 70
     1
 10
0.0
 20
0.0
 30
0.0
  3
*U93
  1

  0
TEXT
  5
53B4
  8
RAHM2
 10
-72.800255137131444
 20
46.301035407279642
 30
0.0
 40
2.5
  1
尺度
  0
ENDBLK
  5
53B6
  8
0
  0
BLOCK
  8
0
  2
*U94
 70
     1
 10
0.0
 20
0.0
 30
0.0
  3
*U94
  1

  0
TEXT
  5
53B8
  8
RAHM2
 10
-52.800255137131451
 20
46.301035407279642
 30
0.0
 40
2.5
  1
数量
  0
ENDBLK
  5
53BA
  8
0
  0
BLOCK
  8
0
  2
*U95
 70
     1
 10
0.0
 20
0.0
 30
0.0
  3
*U95
  1

  0
TEXT
  5
53BC
  8
RAHM2
 10
-28.3125
 20
21.301035407279642
 30
0.0
 40
2.5
  1
承認
  0
ENDBLK
  5
53BE
  8
0
  0
BLOCK
  8
0
  2
*U96
 70
     1
 10
0.0
 20
0.0
 30
0.0
  3
*U96
  1

  0
TEXT
  5
53C0
  8
RAHM2
 10
-28.3125
 20
46.301035407279642
 30
0.0
 40
2.5
  1
承認
  0
ENDBLK
  5
53C2
  8
0
  0
BLOCK
  8
0
  2
*U97
 70
     1
 10
0.0
 20
0.0
 30
0.0
  3
*U97
  1

  0
TEXT
  5
53C4
  8
RAHM2
 10
-123.3541228057275
 20
26.250000000000028
 30
0.0
 40
2.5
  1
・  ・   
  0
ENDBLK
  5
53C6
  8
0
  0
BLOCK
  8
0
  2
*U98
 70
     1
 10
0.0
 20
0.0
 30
0.0
  3
*U98
  1

  0
TEXT
  5
53C8
  8
RAHM2
 10
-11.3125
 20
46.301035407279642
 30
0.0
 40
2.5
  1
検図
  0
ENDBLK
  5
53CA
  8
0
  0
BLOCK
  8
0
  2
*U99
 70
     1
 10
0.0
 20
0.0
 30
0.0
  3
*U99
  1

  0
TEXT
  5
53CC
  8
RAHM2
 10
-11.3125
 20
21.301035407279642
 30
0.0
 40
2.5
  1
製図
  0
ENDBLK
  5
53CE
  8
0
  0
BLOCK
  8
0
  2
*U100
 70
     1
 10
0.0
 20
0.0
 30
0.0
  3
*U100
  1

  0
TEXT
  5
53D6
  8
RAHM2
 10
-26.1749422164166
 20
26.250000000000028
 30
0.0
 40
2.5
  1
・  ・   
  0
ENDBLK
  5
53D8
  8
0
  0
BLOCK
  8
0
  2
*U101
 70
     1
 10
0.0
 20
0.0
 30
0.0
  3
*U101
  1

  0
TEXT
  5
53DA
  8
RAHM2
 10
-26.1749422164166
 20
46.250000000000021
 30
0.0
 40
2.5
  1
・  ・   
  0
ENDBLK
  5
53DC
  8
0
  0
BLOCK
  8
0
  2
*U102
 70
     1
 10
0.0
 20
0.0
 30
0.0
  3
*U102
  1

  0
TEXT
  5
53DE
  8
RAHM2
 10
-26.1749422164166
 20
36.250000000000028
 30
0.0
 40
2.5
  1
・  ・   
  0
ENDBLK
  5
53E0
  8
0
  0
BLOCK
  8
0
  2
*U103
 70
     1
 10
0.0
 20
0.0
 30
0.0
  3
*U103
  1

  0
TEXT
  5
53E2
  8
RAHM2
 10
-26.1749422164166
 20
41.250000000000021
 30
0.0
 40
2.5
  1
・  ・   
  0
ENDBLK
  5
53E4
  8
0
  0
BLOCK
  8
0
  2
*U104
 70
     1
 10
0.0
 20
0.0
 30
0.0
  3
*U104
  1

  0
TEXT
  5
53E6
  8
RAHM2
 10
-8.9104097053444775
 20
21.249999999999972
 30
0.0
 40
2.5
  1
担当
  0
ENDBLK
  5
53E8
  8
0
  0
BLOCK
  8
0
  2
*U105
 70
     1
 10
0.0
 20
0.0
 30
0.0
  3
*U105
  1

  0
TEXT
  5
53EA
  8
RAHM2
 10
-29.058939215691112
 20
21.249999999999972
 30
0.0
 40
2.5
  1
年・月・日
  0
ENDBLK
  5
53EC
  8
0
  0
BLOCK
  8
0
  2
*U106
 70
     1
 10
0.0
 20
0.0
 30
0.0
  3
*U106
  1

  0
TEXT
  5
53EE
  8
RAHM2
 10
-26.1749422164166
 20
31.250000000000028
 30
0.0
 40
2.5
  1
・  ・   
  0
ENDBLK
  5
53F0
  8
0
  0
BLOCK
  8
0
  2
*U107
 70
     1
 10
0.0
 20
0.0
 30
0.0
  3
*U107
  1

  0
TEXT
  5
53F2
  8
RAHM2
 10
-65.0
 20
21.249999999999961
 30
0.0
 40
2.5
  1
変更記事
  0
ENDBLK
  5
53F4
  8
0
  0
BLOCK
  8
0
  2
*U108
 70
     1
 10
0.0
 20
0.0
 30
0.0
  3
*U108
  1

  0
TEXT
  5
53F6
  8
RAHM2
 10
-94.800255137131444
 20
16.301035407279599
 30
0.0
 40
2.5
  1
品名
  0
ENDBLK
  5
53F8
  8
0
  0
BLOCK
  8
0
  2
*U109
 70
     1
 10
0.0
 20
0.0
 30
0.0
  3
*U109
  1

  0
TEXT
  5
53FA
  8
RAHM2
 10
-94.0
 20
21.249999999999961
 30
0.0
 40
2.5
  1
符号
  0
ENDBLK
  5
53FC
  8
0
  0
BLOCK
  8
0
  2
*U110
 70
     1
 10
0.0
 20
0.0
 30
0.0
  3
*U110
  1

  0
TEXT
  5
53FE
  8
RAHM2
 10
-94.800255137131444
 20
3.3010354072796271
 30
0.0
 40
2.5
  1
図番
  0
ENDBLK
  5
5400
  8
0
  0
BLOCK
  8
0
  2
*U111
 70
     1
 10
0.0
 20
0.0
 30
0.0
  3
*U111
  1

  0
TEXT
  5
5402
  8
RAHM2
 10
-19.982425929334909
 20
2.1847624665659851
 30
0.0
 40
2.5
  1
Rev.
  0
ENDBLK
  5
5404
  8
0
  0
BLOCK
  8
0
  2
*U112
 70
     1
 10
0.0
 20
0.0
 30
0.0
  3
*U112
  1

  0
TEXT
  5
5406
  8
RAHM2
 10
-107.6875
 20
16.301035407279571
 30
0.0
 40
2.5
  1
製図
  0
ENDBLK
  5
5408
  8
0
  0
BLOCK
  8
0
  2
*U113
 70
     1
 10
0.0
 20
0.0
 30
0.0
  3
*U113
  1

  0
TEXT
  5
540A
  8
RAHM2
 10
-125.4375000000001
 20
16.301035407279581
 30
0.0
 40
2.5
  1
検図
  0
ENDBLK
  5
540C
  8
0
  0
BLOCK
  8
0
  2
*U114
 70
     1
 10
0.0
 20
0.0
 30
0.0
  3
*U114
  1

  0
TEXT
  5
540E
  8
RAHM2
 10
-143.18750000000011
 20
16.301035407279581
 30
0.0
 40
2.5
  1
承認
  0
ENDBLK
  5
5410
  8
0
  0
BLOCK
  8
0
  2
*U115
 70
     1
 10
0.0
 20
0.0
 30
0.0
  3
*U115
  1

  0
TEXT
  5
5412
  8
RAHM2
 10
-160.93750000000011
 20
16.30103540727956
 30
0.0
 40
2.5
  1
承認
  0
ENDBLK
  5
5414
  8
0
  0
BLOCK
  8
0
  2
*U116
 70
     1
 10
0.0
 20
0.0
 30
0.0
  3
*U116
  1

  0
TEXT
  5
5416
  8
0
 10
-156.35532994923869
 20
23.418781725888241
 30
0.0
 40
3.5
  1
株式会社タカチ電機工業
  0
ENDBLK
  5
5418
  8
0
  0
BLOCK
  8
0
  2
*U117
 70
     1
 10
0.0
 20
0.0
 30
0.0
  3
*U117
  1

  0
TEXT
  5
541A
  8
RAHM2
 10
-165.80025513713139
 20
46.301035407279549
 30
0.0
 40
2.5
  1
材質
  0
ENDBLK
  5
541C
  8
0
  0
BLOCK
  8
0
  2
*U118
 70
     1
 10
0.0
 20
0.0
 30
0.0
  3
*U118
  1

  0
TEXT
  5
541E
  8
RAHM2
 10
-165.80025513713139
 20
36.301035407279556
 30
0.0
 40
2.5
  1
表面処理
  0
ENDBLK
  5
5420
  8
0
  0
BLOCK
  8
0
  2
*U119
 70
     1
 10
0.0
 20
0.0
 30
0.0
  3
*U119
  1

  0
TEXT
  5
5422
  8
RAHM2
 10
-191.8002551371315
 20
21.301035407279631
 30
0.0
 40
2.5
  1
数量
  0
ENDBLK
  5
5424
  8
0
  0
BLOCK
  8
0
  2
*U120
 70
     1
 10
0.0
 20
0.0
 30
0.0
  3
*U120
  1

  0
TEXT
  5
5426
  8
RAHM2
 10
-191.8002551371315
 20
33.801035407279663
 30
0.0
 40
2.5
  1
尺度
  0
ENDBLK
  5
5428
  8
0
  0
BLOCK
  8
0
  2
*U121
 70
     1
 10
0.0
 20
0.0
 30
0.0
  3
*U121
  1

  0
TEXT
  5
542A
  8
RAHM2
 10
-191.8002551371315
 20
8.8010354072796062
 30
0.0
 40
2.5
  1
日付
  0
ENDBLK
  5
542C
  8
0
  0
BLOCK
  8
0
  2
*X122
 70
     1
 10
0.0
 20
0.0
 30
0.0
  3
*X122
  1

  0
LINE
  5
5434
  8
0
 62
     0
 10
346.34342003473489
 20
4.4833779454472156
 30
0.0
 11
346.34342003473489
 21
4.4833779454472156
 31
0.0
  0
LINE
  5
5435
  8
0
 62
     0
 10
341.5809200347349
 20
4.4833779454472156
 30
0.0
 11
341.5809200347349
 21
4.4833779454472156
 31
0.0
  0
LINE
  5
5436
  8
0
 62
     0
 10
336.81842003473491
 20
4.4833779454472156
 30
0.0
 11
336.81842003473491
 21
4.4833779454472156
 31
0.0
  0
LINE
  5
5437
  8
0
 62
     0
 10
332.05592003473492
 20
4.4833779454472156
 30
0.0
 11
332.05592003473492
 21
4.4833779454472156
 31
0.0
  0
LINE
  5
5438
  8
0
 62
     0
 10
327.29342003473499
 20
4.4833779454472156
 30
0.0
 11
327.29342003473499
 21
4.4833779454472156
 31
0.0
  0
LINE
  5
5439
  8
0
 62
     0
 10
322.530920034735
 20
4.4833779454472156
 30
0.0
 11
322.530920034735
 21
4.4833779454472156
 31
0.0
  0
LINE
  5
543A
  8
0
 62
     0
 10
317.7684200347349
 20
4.4833779454472156
 30
0.0
 11
317.7684200347349
 21
4.4833779454472156
 31
0.0
  0
LINE
  5
543B
  8
0
 62
     0
 10
313.00592003473503
 20
4.4833779454472156
 30
0.0
 11
313.00592003473503
 21
4.4833779454472156
 31
0.0
  0
LINE
  5
543C
  8
0
 62
     0
 10
308.24342003473498
 20
4.4833779454472156
 30
0.0
 11
308.24342003473498
 21
4.4833779454472156
 31
0.0
  0
LINE
  5
543D
  8
0
 62
     0
 10
303.48092003473499
 20
4.4833779454472156
 30
0.0
 11
303.48092003473499
 21
4.4833779454472156
 31
0.0
  0
LINE
  5
543E
  8
0
 62
     0
 10
298.718420034735
 20
4.4833779454472156
 30
0.0
 11
298.718420034735
 21
4.4833779454472156
 31
0.0
  0
LINE
  5
543F
  8
0
 62
     0
 10
293.95592003473502
 20
4.4833779454472156
 30
0.0
 11
293.95592003473502
 21
4.4833779454472156
 31
0.0
  0
LINE
  5
5440
  8
0
 62
     0
 10
289.19342003473503
 20
4.4833779454472156
 30
0.0
 11
289.19342003473503
 21
4.4833779454472156
 31
0.0
  0
LINE
  5
5441
  8
0
 62
     0
 10
284.43092003473498
 20
4.4833779454472156
 30
0.0
 11
284.43092003473498
 21
4.4833779454472156
 31
0.0
  0
LINE
  5
5442
  8
0
 62
     0
 10
279.66842003473511
 20
4.4833779454472156
 30
0.0
 11
279.66842003473511
 21
4.4833779454472156
 31
0.0
  0
LINE
  5
5443
  8
0
 62
     0
 10
274.90592003473512
 20
4.4833779454472156
 30
0.0
 11
274.90592003473512
 21
4.4833779454472156
 31
0.0
  0
LINE
  5
5444
  8
0
 62
     0
 10
270.14342003473507
 20
4.4833779454472156
 30
0.0
 11
270.14342003473507
 21
4.4833779454472156
 31
0.0
  0
LINE
  5
5445
  8
0
 62
     0
 10
265.38092003473508
 20
4.4833779454472156
 30
0.0
 11
265.38092003473508
 21
4.4833779454472156
 31
0.0
  0
LINE
  5
5446
  8
0
 62
     0
 10
260.6184200347351
 20
4.4833779454472156
 30
0.0
 11
260.6184200347351
 21
4.4833779454472156
 31
0.0
  0
LINE
  5
5447
  8
0
 62
     0
 10
255.85592003473511
 20
4.4833779454472156
 30
0.0
 11
255.85592003473511
 21
4.4833779454472156
 31
0.0
  0
LINE
  5
5448
  8
0
 62
     0
 10
251.09342003473509
 20
4.4833779454472156
 30
0.0
 11
251.09342003473509
 21
4.4833779454472156
 31
0.0
  0
LINE
  5
5449
  8
0
 62
     0
 10
246.3309200347351
 20
4.4833779454472156
 30
0.0
 11
246.3309200347351
 21
4.4833779454472156
 31
0.0
  0
LINE
  5
544A
  8
0
 62
     0
 10
241.56842003473511
 20
4.4833779454472156
 30
0.0
 11
241.56842003473511
 21
4.4833779454472156
 31
0.0
  0
LINE
  5
544B
  8
0
 62
     0
 10
236.80592003473521
 20
4.4833779454472156
 30
0.0
 11
236.80592003473521
 21
4.4833779454472156
 31
0.0
  0
LINE
  5
544C
  8
0
 62
     0
 10
232.04342003473519
 20
4.4833779454472156
 30
0.0
 11
232.04342003473519
 21
4.4833779454472156
 31
0.0
  0
LINE
  5
544D
  8
0
 62
     0
 10
227.2809200347352
 20
4.4833779454472156
 30
0.0
 11
227.2809200347352
 21
4.4833779454472156
 31
0.0
  0
LINE
  5
544E
  8
0
 62
     0
 10
222.51842003473519
 20
4.4833779454472156
 30
0.0
 11
222.51842003473519
 21
4.4833779454472156
 31
0.0
  0
LINE
  5
544F
  8
0
 62
     0
 10
217.7559200347352
 20
4.4833779454472156
 30
0.0
 11
217.7559200347352
 21
4.4833779454472156
 31
0.0
  0
LINE
  5
5450
  8
0
 62
     0
 10
212.99342003473521
 20
4.4833779454472156
 30
0.0
 11
212.99342003473521
 21
4.4833779454472156
 31
0.0
  0
LINE
  5
5451
  8
0
 62
     0
 10
208.23092003473519
 20
4.4833779454472156
 30
0.0
 11
208.23092003473519
 21
4.4833779454472156
 31
0.0
  0
LINE
  5
5452
  8
0
 62
     0
 10
203.4684200347352
 20
4.4833779454472156
 30
0.0
 11
203.4684200347352
 21
4.4833779454472156
 31
0.0
  0
LINE
  5
5453
  8
0
 62
     0
 10
198.70592003473519
 20
4.4833779454472156
 30
0.0
 11
198.70592003473519
 21
4.4833779454472156
 31
0.0
  0
LINE
  5
5454
  8
0
 62
     0
 10
193.9434200347352
 20
4.4833779454472156
 30
0.0
 11
193.9434200347352
 21
4.4833779454472156
 31
0.0
  0
LINE
  5
5455
  8
0
 62
     0
 10
189.18092003473529
 20
4.4833779454472156
 30
0.0
 11
189.18092003473529
 21
4.4833779454472156
 31
0.0
  0
LINE
  5
5456
  8
0
 62
     0
 10
184.41842003473531
 20
4.4833779454472156
 30
0.0
 11
184.41842003473531
 21
4.4833779454472156
 31
0.0
  0
LINE
  5
5457
  8
0
 62
     0
 10
179.65592003473529
 20
4.4833779454472156
 30
0.0
 11
179.65592003473529
 21
4.4833779454472156
 31
0.0
  0
LINE
  5
5458
  8
0
 62
     0
 10
174.8934200347353
 20
4.4833779454472156
 30
0.0
 11
174.8934200347353
 21
4.4833779454472156
 31
0.0
  0
LINE
  5
5459
  8
0
 62
     0
 10
170.13092003473531
 20
4.4833779454472156
 30
0.0
 11
170.13092003473531
 21
4.4833779454472156
 31
0.0
  0
LINE
  5
545A
  8
0
 62
     0
 10
165.36842003473529
 20
4.4833779454472156
 30
0.0
 11
165.36842003473529
 21
4.4833779454472156
 31
0.0
  0
LINE
  5
545B
  8
0
 62
     0
 10
160.60592003473531
 20
4.4833779454472156
 30
0.0
 11
160.60592003473531
 21
4.4833779454472156
 31
0.0
  0
LINE
  5
545C
  8
0
 62
     0
 10
155.84342003473529
 20
4.4833779454472156
 30
0.0
 11
155.84342003473529
 21
4.4833779454472156
 31
0.0
  0
LINE
  5
545D
  8
0
 62
     0
 10
151.0809200347353
 20
4.4833779454472156
 30
0.0
 11
151.0809200347353
 21
4.4833779454472156
 31
0.0
  0
LINE
  5
545E
  8
0
 62
     0
 10
146.31842003473531
 20
4.4833779454472156
 30
0.0
 11
146.31842003473531
 21
4.4833779454472156
 31
0.0
  0
LINE
  5
545F
  8
0
 62
     0
 10
141.55592003473541
 20
4.4833779454472156
 30
0.0
 11
141.55592003473541
 21
4.4833779454472156
 31
0.0
  0
LINE
  5
5460
  8
0
 62
     0
 10
136.79342003473539
 20
4.4833779454472156
 30
0.0
 11
136.79342003473539
 21
4.4833779454472156
 31
0.0
  0
LINE
  5
5461
  8
0
 62
     0
 10
132.0309200347354
 20
4.4833779454472156
 30
0.0
 11
132.0309200347354
 21
4.4833779454472156
 31
0.0
  0
LINE
  5
5462
  8
0
 62
     0
 10
127.2684200347354
 20
4.4833779454472156
 30
0.0
 11
127.2684200347354
 21
4.4833779454472156
 31
0.0
  0
LINE
  5
5463
  8
0
 62
     0
 10
122.5059200347354
 20
4.4833779454472156
 30
0.0
 11
122.5059200347354
 21
4.4833779454472156
 31
0.0
  0
LINE
  5
5464
  8
0
 62
     0
 10
117.74342003473539
 20
4.4833779454472156
 30
0.0
 11
117.74342003473539
 21
4.4833779454472156
 31
0.0
  0
LINE
  5
5465
  8
0
 62
     0
 10
112.98092003473541
 20
4.4833779454472156
 30
0.0
 11
112.98092003473541
 21
4.4833779454472156
 31
0.0
  0
LINE
  5
5466
  8
0
 62
     0
 10
108.2184200347354
 20
4.4833779454472156
 30
0.0
 11
108.2184200347354
 21
4.4833779454472156
 31
0.0
  0
LINE
  5
5467
  8
0
 62
     0
 10
103.4559200347354
 20
4.4833779454472156
 30
0.0
 11
103.4559200347354
 21
4.4833779454472156
 31
0.0
  0
LINE
  5
5468
  8
0
 62
     0
 10
98.693420034735396
 20
4.4833779454472156
 30
0.0
 11
98.693420034735396
 21
4.4833779454472156
 31
0.0
  0
LINE
  5
5469
  8
0
 62
     0
 10
93.930920034735394
 20
4.4833779454472156
 30
0.0
 11
93.930920034735394
 21
4.4833779454472156
 31
0.0
  0
LINE
  5
546A
  8
0
 62
     0
 10
89.168420034735377
 20
4.4833779454472156
 30
0.0
 11
89.168420034735377
 21
4.4833779454472156
 31
0.0
  0
LINE
  5
546B
  8
0
 62
     0
 10
84.405920034735374
 20
4.4833779454472156
 30
0.0
 11
84.405920034735374
 21
4.4833779454472156
 31
0.0
  0
LINE
  5
546C
  8
0
 62
     0
 10
79.643420034735371
 20
4.4833779454472156
 30
0.0
 11
79.643420034735371
 21
4.4833779454472156
 31
0.0
  0
LINE
  5
546D
  8
0
 62
     0
 10
74.880920034735354
 20
4.4833779454472156
 30
0.0
 11
74.880920034735354
 21
4.4833779454472156
 31
0.0
  0
LINE
  5
546E
  8
0
 62
     0
 10
70.118420034735365
 20
4.4833779454472156
 30
0.0
 11
70.118420034735365
 21
4.4833779454472156
 31
0.0
  0
LINE
  5
546F
  8
0
 62
     0
 10
65.355920034735362
 20
4.4833779454472156
 30
0.0
 11
65.355920034735362
 21
4.4833779454472156
 31
0.0
  0
LINE
  5
5470
  8
0
 62
     0
 10
60.59342003473536
 20
4.4833779454472156
 30
0.0
 11
60.59342003473536
 21
4.4833779454472156
 31
0.0
  0
LINE
  5
5471
  8
0
 62
     0
 10
55.83092003473535
 20
4.4833779454472156
 30
0.0
 11
55.83092003473535
 21
4.4833779454472156
 31
0.0
  0
LINE
  5
5472
  8
0
 62
     0
 10
51.068420034735347
 20
4.4833779454472156
 30
0.0
 11
51.068420034735347
 21
4.4833779454472156
 31
0.0
  0
LINE
  5
5473
  8
0
 62
     0
 10
46.305920034735351
 20
4.4833779454472156
 30
0.0
 11
46.305920034735351
 21
4.4833779454472156
 31
0.0
  0
LINE
  5
5474
  8
0
 62
     0
 10
41.543420034735341
 20
4.4833779454472156
 30
0.0
 11
41.543420034735341
 21
4.4833779454472156
 31
0.0
  0
LINE
  5
5475
  8
0
 62
     0
 10
36.780920034735352
 20
4.4833779454472156
 30
0.0
 11
36.780920034735352
 21
4.4833779454472156
 31
0.0
  0
LINE
  5
5476
  8
0
 62
     0
 10
32.018420034735342
 20
4.4833779454472156
 30
0.0
 11
32.018420034735342
 21
4.4833779454472156
 31
0.0
  0
LINE
  5
5477
  8
0
 62
     0
 10
27.25592003473535
 20
4.4833779454472156
 30
0.0
 11
27.25592003473535
 21
4.4833779454472156
 31
0.0
  0
LINE
  5
5478
  8
0
 62
     0
 10
22.493420034735351
 20
4.4833779454472156
 30
0.0
 11
22.493420034735351
 21
4.4833779454472156
 31
0.0
  0
LINE
  5
5479
  8
0
 62
     0
 10
17.730920034735352
 20
4.4833779454472156
 30
0.0
 11
17.730920034735352
 21
4.4833779454472156
 31
0.0
  0
LINE
  5
547A
  8
0
 62
     0
 10
12.968420034735351
 20
4.4833779454472156
 30
0.0
 11
12.968420034735351
 21
4.4833779454472156
 31
0.0
  0
LINE
  5
547B
  8
0
 62
     0
 10
8.2059200347353496
 20
4.4833779454472156
 30
0.0
 11
8.2059200347353496
 21
4.4833779454472156
 31
0.0
  0
LINE
  5
547C
  8
0
 62
     0
 10
3.4434200347353499
 20
4.4833779454472156
 30
0.0
 11
3.4434200347353499
 21
4.4833779454472156
 31
0.0
  0
LINE
  5
547D
  8
0
 62
     0
 10
343.96217003473492
 20
9.2458779454472051
 30
0.0
 11
343.96217003473492
 21
9.2458779454472051
 31
0.0
  0
LINE
  5
547E
  8
0
 62
     0
 10
339.19967003473488
 20
9.2458779454472051
 30
0.0
 11
339.19967003473488
 21
9.2458779454472051
 31
0.0
  0
LINE
  5
547F
  8
0
 62
     0
 10
334.43717003473489
 20
9.2458779454472051
 30
0.0
 11
334.43717003473489
 21
9.2458779454472051
 31
0.0
  0
LINE
  5
5480
  8
0
 62
     0
 10
329.6746700347349
 20
9.2458779454472051
 30
0.0
 11
329.6746700347349
 21
9.2458779454472051
 31
0.0
  0
LINE
  5
5481
  8
0
 62
     0
 10
324.91217003473491
 20
9.2458779454472051
 30
0.0
 11
324.91217003473491
 21
9.2458779454472051
 31
0.0
  0
LINE
  5
5482
  8
0
 62
     0
 10
320.14967003473492
 20
9.2458779454472051
 30
0.0
 11
320.14967003473492
 21
9.2458779454472051
 31
0.0
  0
LINE
  5
5483
  8
0
 62
     0
 10
315.38717003473488
 20
9.2458779454472051
 30
0.0
 11
315.38717003473488
 21
9.2458779454472051
 31
0.0
  0
LINE
  5
5484
  8
0
 62
     0
 10
310.62467003473489
 20
9.2458779454472051
 30
0.0
 11
310.62467003473489
 21
9.2458779454472051
 31
0.0
  0
LINE
  5
5485
  8
0
 62
     0
 10
305.8621700347349
 20
9.2458779454472051
 30
0.0
 11
305.8621700347349
 21
9.2458779454472051
 31
0.0
  0
LINE
  5
5486
  8
0
 62
     0
 10
301.09967003473503
 20
9.2458779454472051
 30
0.0
 11
301.09967003473503
 21
9.2458779454472051
 31
0.0
  0
LINE
  5
5487
  8
0
 62
     0
 10
296.33717003473498
 20
9.2458779454472051
 30
0.0
 11
296.33717003473498
 21
9.2458779454472051
 31
0.0
  0
LINE
  5
5488
  8
0
 62
     0
 10
291.57467003473499
 20
9.2458779454472051
 30
0.0
 11
291.57467003473499
 21
9.2458779454472051
 31
0.0
  0
LINE
  5
5489
  8
0
 62
     0
 10
286.812170034735
 20
9.2458779454472051
 30
0.0
 11
286.812170034735
 21
9.2458779454472051
 31
0.0
  0
LINE
  5
548A
  8
0
 62
     0
 10
282.04967003473502
 20
9.2458779454472051
 30
0.0
 11
282.04967003473502
 21
9.2458779454472051
 31
0.0
  0
LINE
  5
548B
  8
0
 62
     0
 10
277.28717003473503
 20
9.2458779454472051
 30
0.0
 11
277.28717003473503
 21
9.2458779454472051
 31
0.0
  0
LINE
  5
548C
  8
0
 62
     0
 10
272.5246700347351
 20
9.2458779454472051
 30
0.0
 11
272.5246700347351
 21
9.2458779454472051
 31
0.0
  0
LINE
  5
548D
  8
0
 62
     0
 10
267.76217003473511
 20
9.2458779454472051
 30
0.0
 11
267.76217003473511
 21
9.2458779454472051
 31
0.0
  0
LINE
  5
548E
  8
0
 62
     0
 10
262.99967003473512
 20
9.2458779454472051
 30
0.0
 11
262.99967003473512
 21
9.2458779454472051
 31
0.0
  0
LINE
  5
548F
  8
0
 62
     0
 10
258.23717003473507
 20
9.2458779454472051
 30
0.0
 11
258.23717003473507
 21
9.2458779454472051
 31
0.0
  0
LINE
  5
5490
  8
0
 62
     0
 10
253.47467003473511
 20
9.2458779454472051
 30
0.0
 11
253.47467003473511
 21
9.2458779454472051
 31
0.0
  0
LINE
  5
5491
  8
0
 62
     0
 10
248.7121700347351
 20
9.2458779454472051
 30
0.0
 11
248.7121700347351
 21
9.2458779454472051
 31
0.0
  0
LINE
  5
5492
  8
0
 62
     0
 10
243.94967003473511
 20
9.2458779454472051
 30
0.0
 11
243.94967003473511
 21
9.2458779454472051
 31
0.0
  0
LINE
  5
5493
  8
0
 62
     0
 10
239.18717003473509
 20
9.2458779454472051
 30
0.0
 11
239.18717003473509
 21
9.2458779454472051
 31
0.0
  0
LINE
  5
5494
  8
0
 62
     0
 10
234.4246700347351
 20
9.2458779454472051
 30
0.0
 11
234.4246700347351
 21
9.2458779454472051
 31
0.0
  0
LINE
  5
5495
  8
0
 62
     0
 10
229.66217003473511
 20
9.2458779454472051
 30
0.0
 11
229.66217003473511
 21
9.2458779454472051
 31
0.0
  0
LINE
  5
5496
  8
0
 62
     0
 10
224.89967003473521
 20
9.2458779454472051
 30
0.0
 11
224.89967003473521
 21
9.2458779454472051
 31
0.0
  0
LINE
  5
5497
  8
0
 62
     0
 10
220.13717003473519
 20
9.2458779454472051
 30
0.0
 11
220.13717003473519
 21
9.2458779454472051
 31
0.0
  0
LINE
  5
5498
  8
0
 62
     0
 10
215.3746700347352
 20
9.2458779454472051
 30
0.0
 11
215.3746700347352
 21
9.2458779454472051
 31
0.0
  0
LINE
  5
5499
  8
0
 62
     0
 10
210.61217003473519
 20
9.2458779454472051
 30
0.0
 11
210.61217003473519
 21
9.2458779454472051
 31
0.0
  0
LINE
  5
549A
  8
0
 62
     0
 10
205.8496700347352
 20
9.2458779454472051
 30
0.0
 11
205.8496700347352
 21
9.2458779454472051
 31
0.0
  0
LINE
  5
549B
  8
0
 62
     0
 10
201.08717003473521
 20
9.2458779454472051
 30
0.0
 11
201.08717003473521
 21
9.2458779454472051
 31
0.0
  0
LINE
  5
549C
  8
0
 62
     0
 10
196.32467003473519
 20
9.2458779454472051
 30
0.0
 11
196.32467003473519
 21
9.2458779454472051
 31
0.0
  0
LINE
  5
549D
  8
0
 62
     0
 10
191.5621700347352
 20
9.2458779454472051
 30
0.0
 11
191.5621700347352
 21
9.2458779454472051
 31
0.0
  0
LINE
  5
549E
  8
0
 62
     0
 10
186.79967003473519
 20
9.2458779454472051
 30
0.0
 11
186.79967003473519
 21
9.2458779454472051
 31
0.0
  0
LINE
  5
549F
  8
0
 62
     0
 10
182.0371700347352
 20
9.2458779454472051
 30
0.0
 11
182.0371700347352
 21
9.2458779454472051
 31
0.0
  0
LINE
  5
54A0
  8
0
 62
     0
 10
177.27467003473521
 20
9.2458779454472051
 30
0.0
 11
177.27467003473521
 21
9.2458779454472051
 31
0.0
  0
LINE
  5
54A1
  8
0
 62
     0
 10
172.51217003473531
 20
9.2458779454472051
 30
0.0
 11
172.51217003473531
 21
9.2458779454472051
 31
0.0
  0
LINE
  5
54A2
  8
0
 62
     0
 10
167.74967003473529
 20
9.2458779454472051
 30
0.0
 11
167.74967003473529
 21
9.2458779454472051
 31
0.0
  0
LINE
  5
54A3
  8
0
 62
     0
 10
162.9871700347353
 20
9.2458779454472051
 30
0.0
 11
162.9871700347353
 21
9.2458779454472051
 31
0.0
  0
LINE
  5
54A4
  8
0
 62
     0
 10
158.22467003473531
 20
9.2458779454472051
 30
0.0
 11
158.22467003473531
 21
9.2458779454472051
 31
0.0
  0
LINE
  5
54A5
  8
0
 62
     0
 10
153.46217003473529
 20
9.2458779454472051
 30
0.0
 11
153.46217003473529
 21
9.2458779454472051
 31
0.0
  0
LINE
  5
54A6
  8
0
 62
     0
 10
148.69967003473531
 20
9.2458779454472051
 30
0.0
 11
148.69967003473531
 21
9.2458779454472051
 31
0.0
  0
LINE
  5
54A7
  8
0
 62
     0
 10
143.93717003473529
 20
9.2458779454472051
 30
0.0
 11
143.93717003473529
 21
9.2458779454472051
 31
0.0
  0
LINE
  5
54A8
  8
0
 62
     0
 10
139.1746700347353
 20
9.2458779454472051
 30
0.0
 11
139.1746700347353
 21
9.2458779454472051
 31
0.0
  0
LINE
  5
54A9
  8
0
 62
     0
 10
134.4121700347354
 20
9.2458779454472051
 30
0.0
 11
134.4121700347354
 21
9.2458779454472051
 31
0.0
  0
LINE
  5
54AA
  8
0
 62
     0
 10
129.64967003473529
 20
9.2458779454472051
 30
0.0
 11
129.64967003473529
 21
9.2458779454472051
 31
0.0
  0
LINE
  5
54AB
  8
0
 62
     0
 10
124.88717003473531
 20
9.2458779454472051
 30
0.0
 11
124.88717003473531
 21
9.2458779454472051
 31
0.0
  0
LINE
  5
54AC
  8
0
 62
     0
 10
120.1246700347353
 20
9.2458779454472051
 30
0.0
 11
120.1246700347353
 21
9.2458779454472051
 31
0.0
  0
LINE
  5
54AD
  8
0
 62
     0
 10
115.3621700347353
 20
9.2458779454472051
 30
0.0
 11
115.3621700347353
 21
9.2458779454472051
 31
0.0
  0
LINE
  5
54AE
  8
0
 62
     0
 10
110.5996700347353
 20
9.2458779454472051
 30
0.0
 11
110.5996700347353
 21
9.2458779454472051
 31
0.0
  0
LINE
  5
54AF
  8
0
 62
     0
 10
105.83717003473529
 20
9.2458779454472051
 30
0.0
 11
105.83717003473529
 21
9.2458779454472051
 31
0.0
  0
LINE
  5
54B0
  8
0
 62
     0
 10
101.07467003473531
 20
9.2458779454472051
 30
0.0
 11
101.07467003473531
 21
9.2458779454472051
 31
0.0
  0
LINE
  5
54B1
  8
0
 62
     0
 10
96.312170034735374
 20
9.2458779454472051
 30
0.0
 11
96.312170034735374
 21
9.2458779454472051
 31
0.0
  0
LINE
  5
54B2
  8
0
 62
     0
 10
91.549670034735357
 20
9.2458779454472051
 30
0.0
 11
91.549670034735357
 21
9.2458779454472051
 31
0.0
  0
LINE
  5
54B3
  8
0
 62
     0
 10
86.787170034735354
 20
9.2458779454472051
 30
0.0
 11
86.787170034735354
 21
9.2458779454472051
 31
0.0
  0
LINE
  5
54B4
  8
0
 62
     0
 10
82.024670034735337
 20
9.2458779454472051
 30
0.0
 11
82.024670034735337
 21
9.2458779454472051
 31
0.0
  0
LINE
  5
54B5
  8
0
 62
     0
 10
77.262170034735348
 20
9.2458779454472051
 30
0.0
 11
77.262170034735348
 21
9.2458779454472051
 31
0.0
  0
LINE
  5
54B6
  8
0
 62
     0
 10
72.499670034735345
 20
9.2458779454472051
 30
0.0
 11
72.499670034735345
 21
9.2458779454472051
 31
0.0
  0
LINE
  5
54B7
  8
0
 62
     0
 10
67.737170034735342
 20
9.2458779454472051
 30
0.0
 11
67.737170034735342
 21
9.2458779454472051
 31
0.0
  0
LINE
  5
54B8
  8
0
 62
     0
 10
62.97467003473534
 20
9.2458779454472051
 30
0.0
 11
62.97467003473534
 21
9.2458779454472051
 31
0.0
  0
LINE
  5
54B9
  8
0
 62
     0
 10
58.212170034735337
 20
9.2458779454472051
 30
0.0
 11
58.212170034735337
 21
9.2458779454472051
 31
0.0
  0
LINE
  5
54BA
  8
0
 62
     0
 10
53.449670034735327
 20
9.2458779454472051
 30
0.0
 11
53.449670034735327
 21
9.2458779454472051
 31
0.0
  0
LINE
  5
54BB
  8
0
 62
     0
 10
48.687170034735331
 20
9.2458779454472051
 30
0.0
 11
48.687170034735331
 21
9.2458779454472051
 31
0.0
  0
LINE
  5
54BC
  8
0
 62
     0
 10
43.924670034735328
 20
9.2458779454472051
 30
0.0
 11
43.924670034735328
 21
9.2458779454472051
 31
0.0
  0
LINE
  5
54BD
  8
0
 62
     0
 10
39.162170034735333
 20
9.2458779454472051
 30
0.0
 11
39.162170034735333
 21
9.2458779454472051
 31
0.0
  0
LINE
  5
54BE
  8
0
 62
     0
 10
34.399670034735323
 20
9.2458779454472051
 30
0.0
 11
34.399670034735323
 21
9.2458779454472051
 31
0.0
  0
LINE
  5
54BF
  8
0
 62
     0
 10
29.63717003473533
 20
9.2458779454472051
 30
0.0
 11
29.63717003473533
 21
9.2458779454472051
 31
0.0
  0
LINE
  5
54C0
  8
0
 62
     0
 10
24.874670034735331
 20
9.2458779454472051
 30
0.0
 11
24.874670034735331
 21
9.2458779454472051
 31
0.0
  0
LINE
  5
54C1
  8
0
 62
     0
 10
20.112170034735321
 20
9.2458779454472051
 30
0.0
 11
20.112170034735321
 21
9.2458779454472051
 31
0.0
  0
LINE
  5
54C2
  8
0
 62
     0
 10
15.34967003473532
 20
9.2458779454472051
 30
0.0
 11
15.34967003473532
 21
9.2458779454472051
 31
0.0
  0
LINE
  5
54C3
  8
0
 62
     0
 10
10.587170034735321
 20
9.2458779454472051
 30
0.0
 11
10.587170034735321
 21
9.2458779454472051
 31
0.0
  0
LINE
  5
54C4
  8
0
 62
     0
 10
5.824670034735326
 20
9.2458779454472051
 30
0.0
 11
5.824670034735326
 21
9.2458779454472051
 31
0.0
  0
LINE
  5
54C5
  8
0
 62
     0
 10
1.0621700347353269
 20
9.2458779454472051
 30
0.0
 11
1.0621700347353269
 21
9.2458779454472051
 31
0.0
  0
ENDBLK
  5
54C7
  8
0
  0
BLOCK
  8
0
  2
*U123
 70
     1
 10
0.0
 20
0.0
 30
0.0
  3
*U123
  1

  0
TEXT
  5
5526
  8
0
 10
1140.840805416399
 20
366.11663561889691
 30
0.0
 40
12.0
  1
引出し面
  0
ENDBLK
  5
5528
  8
0
  0
BLOCK
  8
0
  2
*U124
 70
     1
 10
0.0
 20
0.0
 30
0.0
  3
*U124
  1

  0
TEXT
  5
552A
  8
0
 10
352.03973002322971
 20
377.94372365472742
 30
0.0
 40
12.0
  1
テーブル面
  0
ENDBLK
  5
552C
  8
0
  0
BLOCK
  8
0
  2
*U125
 70
     1
 10
0.0
 20
0.0
 30
0.0
  3
*U125
  1

  0
TEXT
  5
552E
  8
0
 10
244.03973002322979
 20
99.909109411861223
 30
0.0
 40
12.0
  1
※取手の向きは使う面によって変えられます
  0
ENDBLK
  5
5530
  8
0
  0
BLOCK
  8
0
  2
*U126
 70
     1
 10
0.0
 20
0.0
 30
0.0
  3
*U126
  1

  0
TEXT
  5
5532
  8
AM_5
 62
     2
 10
371.11221844853299
 20
362.000743896519
 30
0.0
 40
10.5
  1
482.6
  0
ENDBLK
  5
5534
  8
0
  0
BLOCK
  8
0
  2
*U127
 70
     1
 10
0.0
 20
0.0
 30
0.0
  3
*U127
  1

  0
TEXT
  5
5536
  8
AM_5
 62
     2
 10
635.51978727070025
 20
560.88902229187192
 30
0.0
 40
12.0
  1
351
 50
90.0
  0
ENDBLK
  5
5538
  8
0
  0
BLOCK
  8
0
  2
*U128
 70
     1
 10
0.0
 20
0.0
 30
0.0
  3
*U128
  1

  0
TEXT
  5
553A
  8
AM_5
 62
     2
 10
635.51978727070048
 20
752.24374670132067
 30
0.0
 40
12.0
  1
26
 50
90.0
  0
ENDBLK
  5
553C
  8
0
  0
BLOCK
  8
0
  2
*U129
 70
     1
 10
0.0
 20
0.0
 30
0.0
  3
*U129
  1

  0
TEXT
  5
553E
  8
AM_5
 62
     2
 10
131.4202238271485
 20
281.7166360854082
 30
0.0
 40
12.0
  1
76.2
 50
90.0
  0
ENDBLK
  5
5540
  8
0
  0
BLOCK
  8
0
  2
*U130
 70
     1
 10
0.0
 20
0.0
 30
0.0
  3
*U130
  1

  0
TEXT
  5
5542
  8
AM_5
 62
     2
 10
110.34854874709021
 20
288.0769904161167
 30
0.0
 40
12.0
  1
88
 50
90.0
  0
ENDBLK
  5
5544
  8
0
  0
BLOCK
  8
0
  2
*U131
 70
     1
 10
0.0
 20
0.0
 30
0.0
  3
*U131
  1

  0
TEXT
  5
5546
  8
AM_5
 62
     2
 10
193.4158100327742
 20
227.2358527520544
 30
0.0
 40
12.0
  1
4-6.5×11長穴
  0
ENDBLK
  5
5548
  8
0
  0
BLOCK
  8
0
  2
*U132
 70
     1
 10
0.0
 20
0.0
 30
0.0
  3
*U132
  1

  0
TEXT
  5
554A
  8
AM_5
 62
     2
 10
853.89237300464379
 20
560.88925180467015
 30
0.0
 40
12.0
  1
351
 50
90.0
  0
ENDBLK
  5
554C
  8
0
  0
BLOCK
  8
0
  2
*U133
 70
     1
 10
0.0
 20
0.0
 30
0.0
  3
*U133
  1

  0
TEXT
  5
554E
  8
AM_5
 62
     2
 10
823.89237300464345
 20
752.24397621411913
 30
0.0
 40
12.0
  1
26
 50
90.0
  0
ENDBLK
  5
5550
  8
0
  0
BLOCK
  8
0
  2
*U134
 70
     1
 10
0.0
 20
0.0
 30
0.0
  3
*U134
  1

  0
TEXT
  5
5552
  8
AM_5
 62
     2
 10
883.8923730046447
 20
572.68925180467033
 30
0.0
 40
12.0
  1
377
 50
90.0
  0
ENDBLK
  5
5554
  8
0
  0
BLOCK
  8
0
  2
*U135
 70
     1
 10
0.0
 20
0.0
 30
0.0
  3
*U135
  1

  0
TEXT
  5
5556
  8
AM_5
 62
     2
 10
823.89237300464515
 20
401.39161400939457
 30
0.0
 40
12.0
  1
38.6
 50
90.0
  0
ENDBLK
  5
5558
  8
0
  0
BLOCK
  8
0
  2
*U136
 70
     1
 10
0.0
 20
0.0
 30
0.0
  3
*U136
  1

  0
TEXT
  5
555A
  8
AM_5
 62
     2
 10
823.89237300464492
 20
469.7958479761628
 30
0.0
 40
12.0
  1
98.4
 50
90.0
  0
ENDBLK
  5
555C
  8
0
  0
BLOCK
  8
0
  2
*U137
 70
     1
 10
0.0
 20
0.0
 30
0.0
  3
*U137
  1

  0
TEXT
  5
555E
  8
AM_5
 62
     2
 10
823.8923730046447
 20
563.40969093065974
 30
0.0
 40
12.0
  1
88.9
 50
90.0
  0
ENDBLK
  5
5560
  8
0
  0
BLOCK
  8
0
  2
*U138
 70
     1
 10
0.0
 20
0.0
 30
0.0
  3
*U138
  1

  0
TEXT
  5
5562
  8
AM_5
 62
     2
 10
823.8923730046447
 20
653.29397621411897
 30
0.0
 40
12.0
  1
24.1
 50
90.0
  0
ENDBLK
  5
5564
  8
0
  0
BLOCK
  8
0
  2
*U139
 70
     1
 10
0.0
 20
0.0
 30
0.0
  3
*U139
  1

  0
TEXT
  5
5566
  8
AM_5
 62
     2
 10
769.72716590259699
 20
684.78925180467002
 30
0.0
 40
12.0
  1
22
  0
ENDBLK
  5
5568
  8
0
  0
BLOCK
  8
0
  2
*U140
 70
     1
 10
0.0
 20
0.0
 30
0.0
  3
*U140
  1

  0
TEXT
  5
556A
  8
AM_5
 62
     2
 10
823.89237200464402
 20
220.14072366724631
 30
0.0
 40
12.0
  1
トラベル275
 50
90.0
  0
ENDBLK
  5
556C
  8
0
  0
BLOCK
  8
0
  2
*U141
 70
     1
 10
0.0
 20
0.0
 30
0.0
  3
*U141
  1

  0
TEXT
  5
556E
  8
AM_5
 62
     2
 10
665.88835261117435
 20
509.33688959994589
 30
0.0
 40
12.0
  1
250
 50
90.0
  0
ENDBLK
  5
5570
  8
0
  0
BLOCK
  8
0
  2
*U142
 70
     1
 10
0.0
 20
0.0
 30
0.0
  3
*U142
  1

  0
TEXT
  5
5572
  8
AM_5
 62
     2
 10
687.00568839541415
 20
435.3845273952216
 30
0.0
 40
12.0
  1
100
 50
90.0
  0
ENDBLK
  5
5574
  8
0
  0
BLOCK
  8
0
  2
*U143
 70
     1
 10
0.0
 20
0.0
 30
0.0
  3
*U143
  1

  0
TEXT
  5
5576
  8
AM_5
 62
     2
 10
687.00568839541415
 20
560.38452739522165
 30
0.0
 40
12.0
  1
150
 50
90.0
  0
ENDBLK
  5
5578
  8
0
  0
BLOCK
  8
0
  2
*U144
 70
     1
 10
0.0
 20
0.0
 30
0.0
  3
*U144
  1

  0
TEXT
  5
557A
  8
AM_5
 62
     7
 10
616.01505690399097
 20
851.83403988506063
 30
0.0
 40
14.0
  1
1
  7
ACISOTS
  0
ENDBLK
  5
557C
  8
0
  0
BLOCK
  8
0
  2
*U145
 70
     1
 10
0.0
 20
0.0
 30
0.0
  3
*U145
  1

  0
TEXT
  5
557E
  8
AM_5
 62
     7
 10
116.2346837191098
 20
673.30827273406192
 30
0.0
 40
14.0
  1
2
  7
ACISOTS
  0
ENDBLK
  5
5580
  8
0
  0
BLOCK
  8
0
  2
*U146
 70
     1
 10
0.0
 20
0.0
 30
0.0
  3
*U146
  1

  0
TEXT
  5
5582
  8
AM_5
 62
     7
 10
652.74569883067113
 20
808.70755704780186
 30
0.0
 40
14.0
  1
3
  7
ACISOTS
  0
ENDBLK
  5
5584
  8
0
  0
BLOCK
  8
0
  2
*U147
 70
     1
 10
0.0
 20
0.0
 30
0.0
  3
*U147
  1

  0
TEXT
  5
5586
  8
AM_5
 62
     7
 10
321.7161634952808
 20
830.20370369657485
 30
0.0
 40
14.0
  1
5
  7
ACISOTS
  0
ENDBLK
  5
5588
  8
0
  0
BLOCK
  8
0
  2
*U148
 70
     1
 10
0.0
 20
0.0
 30
0.0
  3
*U148
  1

  0
TEXT
  5
558A
  8
AM_5
 62
     7
 10
478.4993029649093
 20
838.15357903013398
 30
0.0
 40
14.0
  1
4
  7
ACISOTS
  0
ENDBLK
  5
558C
  8
0
  0
BLOCK
  8
0
  2
*U149
 70
     1
 10
0.0
 20
0.0
 30
0.0
  3
*U149
  1

  0
TEXT
  5
558E
  8
AM_5
 62
     7
 10
507.74953331661482
 20
154.9122169969678
 30
0.0
 40
14.0
  1
6
  7
ACISOTS
  0
ENDBLK
  5
5590
  8
0
  0
BLOCK
  8
0
  2
*U150
 70
     1
 10
0.0
 20
0.0
 30
0.0
  3
*U150
  1

  0
TEXT
  5
5592
  8
AM_5
 62
     7
 10
1446.1717861980851
 20
705.36476963065888
 30
0.0
 40
14.0
  1
7
  7
ACISOTS
  0
ENDBLK
  5
5594
  8
0
  0
BLOCK
  8
0
  2
*U151
 70
     1
 10
0.0
 20
0.0
 30
0.0
  3
*U151
  1

  0
TEXT
  5
5596
  8
0
 62
     2
 10
866.5
 20
1051.2
 30
0.0
 40
14.0
  1
1
  7
ACISOTS
  0
ENDBLK
  5
5598
  8
0
  0
BLOCK
  8
0
  2
*U152
 70
     1
 10
0.0
 20
0.0
 30
0.0
  3
*U152
  1

  0
TEXT
  5
559A
  8
0
 62
     2
 10
903.59999999999991
 20
1051.2
 30
0.0
 40
14.0
  1
テーブル
  7
ACISOTS
  0
ENDBLK
  5
559C
  8
0
  0
BLOCK
  8
0
  2
*U153
 70
     1
 10
0.0
 20
0.0
 30
0.0
  3
*U153
  1

  0
TEXT
  5
559E
  8
0
 62
     2
 10
1116.5
 20
1051.2
 30
0.0
 40
14.0
  1
1
  7
ACISOTS
  0
ENDBLK
  5
55A0
  8
0
  0
BLOCK
  8
0
  2
*U154
 70
     1
 10
0.0
 20
0.0
 30
0.0
  3
*U154
  1

  0
TEXT
  5
55A2
  8
0
 62
     2
 10
1162.0544881889759
 20
1051.2
 30
0.0
 40
14.0
  1
SPCC t1.0
  7
ACISOTS
  0
ENDBLK
  5
55A4
  8
0
  0
BLOCK
  8
0
  2
*U155
 70
     1
 10
0.0
 20
0.0
 30
0.0
  3
*U155
  1

  0
TEXT
  5
55A6
  8
0
 62
     2
 10
1363.5999999999999
 20
1051.2
 30
0.0
 40
14.0
  1
黒半つや塗装・ベージュ塗装
  7
ACISOTS
  0
ENDBLK
  5
55A8
  8
0
  0
BLOCK
  8
0
  2
*U156
 70
     1
 10
0.0
 20
0.0
 30
0.0
  3
*U156
  1

  0
TEXT
  5
55AA
  8
0
 62
     2
 10
864.85734251968495
 20
1026.497244094488
 30
0.0
 40
14.0
  1
2
  7
ACISOTS
  0
ENDBLK
  5
55AC
  8
0
  0
BLOCK
  8
0
  2
*U157
 70
     1
 10
0.0
 20
0.0
 30
0.0
  3
*U157
  1

  0
TEXT
  5
55AE
  8
0
 62
     2
 10
903.59999999999991
 20
1026.5
 30
0.0
 40
14.0
  1
側板
  7
ACISOTS
  0
ENDBLK
  5
55B0
  8
0
  0
BLOCK
  8
0
  2
*U158
 70
     1
 10
0.0
 20
0.0
 30
0.0
  3
*U158
  1

  0
TEXT
  5
55B2
  8
0
 62
     2
 10
1092.3499999999999
 20
1026.5
 30
0.0
 40
14.0
  1
左右各1
  7
ACISOTS
  0
ENDBLK
  5
55B4
  8
0
  0
BLOCK
  8
0
  2
*U159
 70
     1
 10
0.0
 20
0.0
 30
0.0
  3
*U159
  1

  0
TEXT
  5
55B6
  8
0
 62
     2
 10
1162.0544881889759
 20
1026.497244094488
 30
0.0
 40
14.0
  1
SPCC t2.3
  7
ACISOTS
  0
ENDBLK
  5
55B8
  8
0
  0
BLOCK
  8
0
  2
*U160
 70
     1
 10
0.0
 20
0.0
 30
0.0
  3
*U160
  1

  0
TEXT
  5
55BA
  8
0
 62
     2
 10
1363.5999999999999
 20
1026.5
 30
0.0
 40
14.0
  1
黒半つや塗装・ベージュ塗装
  7
ACISOTS
  0
ENDBLK
  5
55BC
  8
0
  0
BLOCK
  8
0
  2
*U161
 70
     1
 10
0.0
 20
0.0
 30
0.0
  3
*U161
  1

  0
TEXT
  5
55BE
  8
0
 62
     2
 10
864.81005050633871
 20
1001.8
 30
0.0
 40
14.0
  1
3
  7
ACISOTS
  0
ENDBLK
  5
55C0
  8
0
  0
BLOCK
  8
0
  2
*U162
 70
     1
 10
0.0
 20
0.0
 30
0.0
  3
*U162
  1

  0
TEXT
  5
55C2
  8
0
 62
     2
 10
903.59999999999991
 20
1001.8
 30
0.0
 40
14.0
  1
ボールスライド
  7
ACISOTS
  0
ENDBLK
  5
55C4
  8
0
  0
BLOCK
  8
0
  2
*U163
 70
     1
 10
0.0
 20
0.0
 30
0.0
  3
*U163
  1

  0
TEXT
  5
55C6
  8
0
 62
     2
 10
1114.8573425196851
 20
1001.797244094488
 30
0.0
 40
14.0
  1
2
  7
ACISOTS
  0
ENDBLK
  5
55C8
  8
0
  0
BLOCK
  8
0
  2
*U164
 70
     1
 10
0.0
 20
0.0
 30
0.0
  3
*U164
  1

  0
TEXT
  5
55CA
  8
0
 62
     2
 10
1162.0544881889759
 20
1001.8
 30
0.0
 40
14.0
  1
SPCC t1.6
  7
ACISOTS
  0
ENDBLK
  5
55CC
  8
0
  0
BLOCK
  8
0
  2
*U165
 70
     1
 10
0.0
 20
0.0
 30
0.0
  3
*U165
  1

  0
TEXT
  5
55CE
  8
0
 62
     2
 10
1363.5999999999999
 20
1001.1
 30
0.0
 40
14.0
  1
光沢クローメイトメッキ(白色)
  7
ACISOTS
  0
ENDBLK
  5
55D0
  8
0
  0
BLOCK
  8
0
  2
*U166
 70
     1
 10
0.0
 20
0.0
 30
0.0
  3
*U166
  1

  0
TEXT
  5
55D2
  8
0
 62
     2
 10
864.39999999999998
 20
977.10000000000002
 30
0.0
 40
14.0
  1
4
  7
ACISOTS
  0
ENDBLK
  5
55D4
  8
0
  0
BLOCK
  8
0
  2
*U167
 70
     1
 10
0.0
 20
0.0
 30
0.0
  3
*U167
  1

  0
TEXT
  5
55D6
  8
0
 62
     2
 10
903.59999999999991
 20
977.10000000000002
 30
0.0
 40
14.0
  1
補強金具
  7
ACISOTS
  0
ENDBLK
  5
55D8
  8
0
  0
BLOCK
  8
0
  2
*U168
 70
     1
 10
0.0
 20
0.0
 30
0.0
  3
*U168
  1

  0
TEXT
  5
55DA
  8
0
 62
     2
 10
1116.5
 20
977.10000000000002
 30
0.0
 40
14.0
  1
1
  7
ACISOTS
  0
ENDBLK
  5
55DC
  8
0
  0
BLOCK
  8
0
  2
*U169
 70
     1
 10
0.0
 20
0.0
 30
0.0
  3
*U169
  1

  0
TEXT
  5
55DE
  8
0
 62
     2
 10
1162.0544881889759
 20
977.10000000000002
 30
0.0
 40
14.0
  1
SPCC t1.6
  7
ACISOTS
  0
ENDBLK
  5
55E0
  8
0
  0
BLOCK
  8
0
  2
*U170
 70
     1
 10
0.0
 20
0.0
 30
0.0
  3
*U170
  1

  0
TEXT
  5
55E2
  8
0
 62
     2
 10
1363.5999999999999
 20
977.10000000000002
 30
0.0
 40
14.0
  1
黒半つや塗装・ベージュ塗装
  7
ACISOTS
  0
ENDBLK
  5
55E4
  8
0
  0
BLOCK
  8
0
  2
*U171
 70
     1
 10
0.0
 20
0.0
 30
0.0
  3
*U171
  1

  0
TEXT
  5
55E6
  8
0
 62
     2
 10
864.81005050633871
 20
952.39999999999986
 30
0.0
 40
14.0
  1
5
  7
ACISOTS
  0
ENDBLK
  5
55E8
  8
0
  0
BLOCK
  8
0
  2
*U172
 70
     1
 10
0.0
 20
0.0
 30
0.0
  3
*U172
  1

  0
TEXT
  5
55EA
  8
0
 62
     2
 10
903.59999999999991
 20
952.39999999999986
 30
0.0
 40
14.0
  1
ロック金具
  7
ACISOTS
  0
ENDBLK
  5
55EC
  8
0
  0
BLOCK
  8
0
  2
*U173
 70
     1
 10
0.0
 20
0.0
 30
0.0
  3
*U173
  1

  0
TEXT
  5
55EE
  8
0
 62
     2
 10
1116.5
 20
952.39999999999986
 30
0.0
 40
14.0
  1
1
  7
ACISOTS
  0
ENDBLK
  5
55F0
  8
0
  0
BLOCK
  8
0
  2
*U174
 70
     1
 10
0.0
 20
0.0
 30
0.0
  3
*U174
  1

  0
TEXT
  5
55F2
  8
0
 62
     2
 10
1161.5
 20
952.30263889243179
 30
0.0
 40
14.0
  1
ZDC
  7
ACISOTS
  0
ENDBLK
  5
55F4
  8
0
  0
BLOCK
  8
0
  2
*U175
 70
     1
 10
0.0
 20
0.0
 30
0.0
  3
*U175
  1

  0
TEXT
  5
55F6
  8
0
 62
     2
 10
1363.5999999999999
 20
952.39999999999986
 30
0.0
 40
14.0
  1
クロームメッキ
  7
ACISOTS
  0
ENDBLK
  5
55F8
  8
0
  0
BLOCK
  8
0
  2
*U176
 70
     1
 10
0.0
 20
0.0
 30
0.0
  3
*U176
  1

  0
TEXT
  5
55FA
  8
0
 62
     2
 10
865.171653543307
 20
927.70000000000005
 30
0.0
 40
14.0
  1
6
  7
ACISOTS
  0
ENDBLK
  5
55FC
  8
0
  0
BLOCK
  8
0
  2
*U177
 70
     1
 10
0.0
 20
0.0
 30
0.0
  3
*U177
  1

  0
TEXT
  5
55FE
  8
0
 62
     2
 10
903.59999999999991
 20
927.70000000000005
 30
0.0
 40
14.0
  1
取手
  7
ACISOTS
  0
ENDBLK
  5
5600
  8
0
  0
BLOCK
  8
0
  2
*U178
 70
     1
 10
0.0
 20
0.0
 30
0.0
  3
*U178
  1

  0
TEXT
  5
5602
  8
0
 62
     2
 10
1116.5
 20
927.70000000000005
 30
0.0
 40
14.0
  1
1
  7
ACISOTS
  0
ENDBLK
  5
5604
  8
0
  0
BLOCK
  8
0
  2
*U179
 70
     1
 10
0.0
 20
0.0
 30
0.0
  3
*U179
  1

  0
TEXT
  5
5606
  8
0
 62
     2
 10
1161.5
 20
927.70000000000005
 30
0.0
 40
14.0
  1
ABS
  7
ACISOTS
  0
ENDBLK
  5
5608
  8
0
  0
BLOCK
  8
0
  2
*U180
 70
     1
 10
0.0
 20
0.0
 30
0.0
  3
*U180
  1

  0
TEXT
  5
560A
  8
0
 62
     2
 10
1363.5999999999999
 20
927.70000000000005
 30
0.0
 40
14.0
  1
黒
  7
ACISOTS
  0
ENDBLK
  5
560C
  8
0
  0
BLOCK
  8
0
  2
*U181
 70
     1
 10
0.0
 20
0.0
 30
0.0
  3
*U181
  1

  0
TEXT
  5
560E
  8
0
 62
     2
 10
865.09999999999991
 20
903.0
 30
0.0
 40
14.0
  1
7
  7
ACISOTS
  0
ENDBLK
  5
5610
  8
0
  0
BLOCK
  8
0
  2
*U182
 70
     1
 10
0.0
 20
0.0
 30
0.0
  3
*U182
  1

  0
TEXT
  5
5612
  8
0
 62
     2
 10
903.59999999999991
 20
903.0
 30
0.0
 40
14.0
  1
保護スポンジ
  7
ACISOTS
  0
ENDBLK
  5
5614
  8
0
  0
BLOCK
  8
0
  2
*U183
 70
     1
 10
0.0
 20
0.0
 30
0.0
  3
*U183
  1

  0
TEXT
  5
5616
  8
0
 62
     2
 10
1114.8573425196851
 20
902.99724409448834
 30
0.0
 40
14.0
  1
2
  7
ACISOTS
  0
ENDBLK
  5
5618
  8
0
  0
BLOCK
  8
0
  2
*U184
 70
     1
 10
0.0
 20
0.0
 30
0.0
  3
*U184
  1

  0
TEXT
  5
561A
  8
0
 62
     2
 10
1163.5999999999999
 20
903.0
 30
0.0
 40
14.0
  1
ネオプレーン t10
  7
ACISOTS
  0
ENDBLK
  5
561C
  8
0
  0
BLOCK
  8
0
  2
*U185
 70
     1
 10
0.0
 20
0.0
 30
0.0
  3
*U185
  1

  0
TEXT
  5
561E
  8
0
 62
     2
 10
1363.5999999999999
 20
903.0
 30
0.0
 40
14.0
  1
黒
  7
ACISOTS
  0
ENDBLK
  5
5620
  8
0
  0
BLOCK
  8
0
  2
*U186
 70
     1
 10
0.0
 20
0.0
 30
0.0
  3
*U186
  1

  0
TEXT
  5
5622
  8
0
 62
     2
 10
864.86433482718894
 20
878.29999999999995
 30
0.0
 40
14.0
  1
9
  7
ACISOTS
  0
ENDBLK
  5
5624
  8
0
  0
BLOCK
  8
0
  2
*U187
 70
     1
 10
0.0
 20
0.0
 30
0.0
  3
*U187
  1

  0
TEXT
  5
5626
  8
0
 62
     2
 10
903.59999999999991
 20
877.59999999999991
 30
0.0
 40
14.0
  1
取付ビス(ﾊﾞｲﾝﾄﾞM4×6)
  7
ACISOTS
  0
ENDBLK
  5
5628
  8
0
  0
BLOCK
  8
0
  2
*U188
 70
     1
 10
0.0
 20
0.0
 30
0.0
  3
*U188
  1

  0
TEXT
  5
562A
  8
0
 62
     2
 10
1111.5999999999999
 20
878.29999999999995
 30
0.0
 40
14.0
  1
18
  7
ACISOTS
  0
ENDBLK
  5
562C
  8
0
  0
BLOCK
  8
0
  2
*U189
 70
     1
 10
0.0
 20
0.0
 30
0.0
  3
*U189
  1

  0
TEXT
  5
562E
  8
0
 62
     2
 10
1163.5999999999999
 20
878.29999999999995
 30
0.0
 40
14.0
  1
鉄
  7
ACISOTS
  0
ENDBLK
  5
5630
  8
0
  0
BLOCK
  8
0
  2
*U190
 70
     1
 10
0.0
 20
0.0
 30
0.0
  3
*U190
  1

  0
TEXT
  5
5632
  8
0
 62
     2
 10
1363.5999999999999
 20
878.29999999999995
 30
0.0
 40
14.0
  1
三価黒ｸﾛｰﾒｲﾄ
  7
ACISOTS
  0
ENDBLK
  5
5634
  8
0
  0
BLOCK
  8
0
  2
*U191
 70
     1
 10
0.0
 20
0.0
 30
0.0
  3
*U191
  1

  0
TEXT
  5
5636
  8
0
 62
     2
 10
861.59448818897636
 20
853.59999999999991
 30
0.0
 40
14.0
  1
10
  7
ACISOTS
  0
ENDBLK
  5
5638
  8
0
  0
BLOCK
  8
0
  2
*U192
 70
     1
 10
0.0
 20
0.0
 30
0.0
  3
*U192
  1

  0
TEXT
  5
563A
  8
0
 62
     2
 10
903.59999999999991
 20
852.89999999999986
 30
0.0
 40
14.0
  1
取付ビス(ナットM4)
  7
ACISOTS
  0
ENDBLK
  5
563C
  8
0
  0
BLOCK
  8
0
  2
*U193
 70
     1
 10
0.0
 20
0.0
 30
0.0
  3
*U193
  1

  0
TEXT
  5
563E
  8
0
 62
     2
 10
1115.171653543307
 20
853.59999999999991
 30
0.0
 40
14.0
  1
6
  7
ACISOTS
  0
ENDBLK
  5
5640
  8
0
  0
BLOCK
  8
0
  2
*U194
 70
     1
 10
0.0
 20
0.0
 30
0.0
  3
*U194
  1

  0
TEXT
  5
5642
  8
0
 62
     2
 10
1163.5999999999999
 20
853.59999999999991
 30
0.0
 40
14.0
  1
鉄
  7
ACISOTS
  0
ENDBLK
  5
5644
  8
0
  0
BLOCK
  8
0
  2
*U195
 70
     1
 10
0.0
 20
0.0
 30
0.0
  3
*U195
  1

  0
TEXT
  5
5646
  8
0
 62
     2
 10
1363.5999999999999
 20
853.59999999999991
 30
0.0
 40
14.0
  1
三価黒ｸﾛｰﾒｲﾄ
  7
ACISOTS
  0
ENDBLK
  5
5648
  8
0
  0
BLOCK
  8
0
  2
*U196
 70
     1
 10
0.0
 20
0.0
 30
0.0
  3
*U196
  1

  0
TEXT
  5
564A
  8
0
 62
     2
 10
863.0
 20
828.90000000000009
 30
0.0
 40
14.0
  1
11
  7
ACISOTS
  0
ENDBLK
  5
564C
  8
0
  0
BLOCK
  8
0
  2
*U197
 70
     1
 10
0.0
 20
0.0
 30
0.0
  3
*U197
  1

  0
TEXT
  5
564E
  8
0
 62
     2
 10
903.59999999999991
 20
828.20000000000005
 30
0.0
 40
14.0
  1
取付ビス(ﾊﾞｲﾝﾄﾞM3×5)
  7
ACISOTS
  0
ENDBLK
  5
5650
  8
0
  0
BLOCK
  8
0
  2
*U198
 70
     1
 10
0.0
 20
0.0
 30
0.0
  3
*U198
  1

  0
TEXT
  5
5652
  8
0
 62
     2
 10
1114.8573425196851
 20
828.89724409448831
 30
0.0
 40
14.0
  1
2
  7
ACISOTS
  0
ENDBLK
  5
5654
  8
0
  0
BLOCK
  8
0
  2
*U199
 70
     1
 10
0.0
 20
0.0
 30
0.0
  3
*U199
  1

  0
TEXT
  5
5656
  8
0
 62
     2
 10
1163.5999999999999
 20
828.90000000000009
 30
0.0
 40
14.0
  1
鉄
  7
ACISOTS
  0
ENDBLK
  5
5658
  8
0
  0
BLOCK
  8
0
  2
*U200
 70
     1
 10
0.0
 20
0.0
 30
0.0
  3
*U200
  1

  0
TEXT
  5
565A
  8
0
 62
     2
 10
1363.5999999999999
 20
828.90000000000009
 30
0.0
 40
14.0
  1
三価黒ｸﾛｰﾒｲﾄ
  7
ACISOTS
  0
ENDBLK
  5
565C
  8
0
  0
BLOCK
  8
0
  2
*U201
 70
     1
 10
0.0
 20
0.0
 30
0.0
  3
*U201
  1

  0
TEXT
  5
565E
  8
0
 62
     2
 10
861.1795866141731
 20
804.19724409448827
 30
0.0
 40
14.0
  1
12
  7
ACISOTS
  0
ENDBLK
  5
5660
  8
0
  0
BLOCK
  8
0
  2
*U202
 70
     1
 10
0.0
 20
0.0
 30
0.0
  3
*U202
  1

  0
TEXT
  5
5662
  8
0
 62
     2
 10
903.59999999999991
 20
803.5
 30
0.0
 40
14.0
  1
取付ビス(サラM3×5)
  7
ACISOTS
  0
ENDBLK
  5
5664
  8
0
  0
BLOCK
  8
0
  2
*U203
 70
     1
 10
0.0
 20
0.0
 30
0.0
  3
*U203
  1

  0
TEXT
  5
5666
  8
0
 62
     2
 10
1114.8573425196851
 20
804.19724409448827
 30
0.0
 40
14.0
  1
2
  7
ACISOTS
  0
ENDBLK
  5
5668
  8
0
  0
BLOCK
  8
0
  2
*U204
 70
     1
 10
0.0
 20
0.0
 30
0.0
  3
*U204
  1

  0
TEXT
  5
566A
  8
0
 62
     2
 10
1163.5999999999999
 20
804.19999999999993
 30
0.0
 40
14.0
  1
鉄
  7
ACISOTS
  0
ENDBLK
  5
566C
  8
0
  0
BLOCK
  8
0
  2
*U205
 70
     1
 10
0.0
 20
0.0
 30
0.0
  3
*U205
  1

  0
TEXT
  5
566E
  8
0
 62
     2
 10
1363.5999999999999
 20
804.19999999999993
 30
0.0
 40
14.0
  1
三価黒ｸﾛｰﾒｲﾄ
  7
ACISOTS
  0
ENDBLK
  5
5670
  8
0
  0
BLOCK
  8
0
  2
*U206
 70
     1
 10
0.0
 20
0.0
 30
0.0
  3
*U206
  1

  0
TEXT
  5
5672
  8
0
 62
     2
 10
854.60000000000014
 20
1075.9000000000001
 30
0.0
 40
14.0
  1
照番
  7
ACISOTS
  0
ENDBLK
  5
5674
  8
0
  0
BLOCK
  8
0
  2
*U207
 70
     1
 10
0.0
 20
0.0
 30
0.0
  3
*U207
  1

  0
TEXT
  5
5676
  8
0
 62
     2
 10
974.60000000000002
 20
1075.9000000000001
 30
0.0
 40
14.0
  1
名称
  7
ACISOTS
  0
ENDBLK
  5
5678
  8
0
  0
BLOCK
  8
0
  2
*U208
 70
     1
 10
0.0
 20
0.0
 30
0.0
  3
*U208
  1

  0
TEXT
  5
567A
  8
0
 62
     2
 10
1103.2
 20
1075.9000000000001
 30
0.0
 40
14.0
  1
個数
  7
ACISOTS
  0
ENDBLK
  5
567C
  8
0
  0
BLOCK
  8
0
  2
*U209
 70
     1
 10
0.0
 20
0.0
 30
0.0
  3
*U209
  1

  0
TEXT
  5
567E
  8
0
 62
     2
 10
1244.5999999999999
 20
1075.9000000000001
 30
0.0
 40
14.0
  1
材質
  7
ACISOTS
  0
ENDBLK
  5
5680
  8
0
  0
BLOCK
  8
0
  2
*U210
 70
     1
 10
0.0
 20
0.0
 30
0.0
  3
*U210
  1

  0
TEXT
  5
5682
  8
0
 62
     2
 10
1435.5999999999999
 20
1075.9000000000001
 30
0.0
 40
14.0
  1
色・表面処理
  7
ACISOTS
  0
ENDBLK
  5
5684
  8
0
  0
BLOCK
  8
0
  2
*U211
 70
     1
 10
0.0
 20
0.0
 30
0.0
  3
*U211
  1

  0
TEXT
  5
5686
  8
0
 62
     2
 10
1193.45
 20
1100.6500000000001
 30
0.0
 40
14.0
  1
構成内容
  7
ACISOTS
  0
ENDBLK
  5
5688
  8
0
  0
BLOCK
  8
0
  2
*U212
 70
     1
 10
0.0
 20
0.0
 30
0.0
  3
*U212
  1

  0
TEXT
  5
568A
  8
AM_5
 62
     7
 10
1087.3812184510221
 20
316.84189536034228
 30
0.0
 40
14.0
  1
9
  7
ACISOTS
  0
ENDBLK
  5
568C
  8
0
  0
BLOCK
  8
0
  2
*U213
 70
     1
 10
0.0
 20
0.0
 30
0.0
  3
*U213
  1

  0
TEXT
  5
568E
  8
AM_5
 62
     7
 10
1211.090832388237
 20
319.09464413997921
 30
0.0
 40
14.0
  1
10
  7
ACISOTS
  0
ENDBLK
  5
5690
  8
0
  0
BLOCK
  8
0
  2
*U214
 70
     1
 10
0.0
 20
0.0
 30
0.0
  3
*U214
  1

  0
TEXT
  5
5692
  8
AM_5
 62
     7
 10
1337.087178051921
 20
316.27871168585898
 30
0.0
 40
14.0
  1
11
  7
ACISOTS
  0
ENDBLK
  5
5694
  8
0
  0
BLOCK
  8
0
  2
*U215
 70
     1
 10
0.0
 20
0.0
 30
0.0
  3
*U215
  1

  0
TEXT
  5
5696
  8
AM_5
 62
     7
 10
1457.598143882904
 20
312.76986991231968
 30
0.0
 40
14.0
  1
12
  7
ACISOTS
  0
ENDBLK
  5
5698
  8
0
  0
ENDSEC
  0
SECTION
  2
ENTITIES
  0
INSERT
  5
5CF
  8
0
  2
TK-A3
 10
0.0
 20
0.0
 30
0.0
 41
4.0
 42
4.0
 43
4.0
1001
GENIUS_GENOREF_13
1005
638
1001
GENIUS_GENOBJ-N-SDF_13
1002
{
1000
OWNER
1000
GEN
1002
}
1001
GENIUS_GENODEF_13
1002
{
1000
HIER
1070
     0
1002
}
1002
{
1000
MANEDIT
1070
     0
1002
}
1002
{
1000
NOSEL
1070
     0
1002
}
1002
{
1000
BEHIND
1070
     0
1002
}
1002
{
1000
OTHER
1070
     0
1002
}
1002
{
1000
REACTOR
1002
}
1001
GENIUS_GENSCREG_13
1040
4.0
1040
1.0
1011
0.0
1021
-0.0
1031
-0.0
1021
0.0
1031
0.0
1011
1612.0
1021
-0.0
1031
-0.0
1021
1120.0
1031
0.0
1070
     3
  0
INSERT
  5
62E
  8
0
 66
     1
  2
TK-TITLE
 10
1612.0
 20
0.0
 30
0.0
 41
4.0
 42
4.0
 43
4.0
1001
GENIUS_GENOREF_13
1005
638
  0
ATTRIB
  5
34C2
  8
0
 10
1579.9907632418169
 20
6.820757737580144
 30
0.0
 40
10.0
  1

  2
GEN-TITLE-NR2
 70
     0
  0
ATTRIB
  5
34C3
  8
0
 10
1275.4299239365871
 20
51.311617302575087
 30
0.0
 40
14.0
  1
NST-88
  2
GEN-TITLE-DES1
 70
     0
  0
ATTRIB
  5
34C4
  8
0
 10
1276.0
 20
36.599999999999802
 30
0.0
 40
10.0
  1
NST型EIAラックスライドテーブル
  2
GEN-TITLE-DES2
 70
     0
  0
ATTRIB
  5
34C5
  8
0
 10
1276.0
 20
7.9999999999998286
 30
0.0
 40
12.0
  1

  2
GEN-TITLE-NR1
 70
     0
  0
ATTRIB
  5
34C6
  8
0
 10
1016.152529665883
 20
173.19999999999959
 30
0.0
 40
12.0
  1

  2
GEN-TITLE-MAT1
 70
     0
  0
ATTRIB
  5
34C7
  8
0
 10
1016.152529665883
 20
133.19999999999959
 30
0.0
 40
12.0
  1

  2
GEN-TITLE-MAT2
 70
     0
  0
ATTRIB
  5
34C8
  8
0
 10
909.5490363495619
 20
64.799999999999756
 30
0.0
 40
12.0
  1

 72
     2
 11
909.5490363495619
 21
63.199999999999761
 31
0.0
  2
GEN-TITLE-QTY
 70
     0
 74
     1
  0
ATTRIB
  5
34C9
  8
0
 10
883.30104154230366
 20
114.7999999999999
 30
0.0
 40
12.0
  1
1:4
 72
     2
 11
900.70104154230376
 21
113.1999999999999
 31
0.0
  2
GEN-TITLE-SCA
 70
     0
 74
     1
  0
ATTRIB
  5
34CA
  8
0
 10
849.26261555690337
 20
15.953370150442661
 30
0.0
 40
12.0
  1
2009/08/27
 72
     1
 11
891.13121933514446
 21
14.353370150442659
 31
0.0
  2
GEN-TITLE-DAT
 70
     0
 74
     1
  0
SEQEND
  5
34C1
  8
0
  0
POINT
  5
638
  8
0
 10
0.0
 20
0.0
 30
0.0
1001
GENIUS_GENOENT_13
1002
{
1000
MYREF
1005
638
1002
}
1002
{
1000
GRP
1005
0
1002
}
1001
GENIUS_GENOBJ-N-TIT_13
1002
{
1000
OWNER
1000
GEN
1002
}
1001
GENIUS_GENODEF_13
1002
{
1000
HIER
1070
     1
1002
}
1002
{
1000
MANEDIT
1070
     0
1002
}
1002
{
1000
NOSEL
1070
     0
1002
}
1002
{
1000
BEHIND
1070
     0
1002
}
1002
{
1000
OTHER
1070
     0
1002
}
1002
{
1000
REACTOR
1002
}
1001
GENIUS_GENOLIS_13
1002
{
1000
ENT
1005
62E
1005
5CF
1005
34C0
1002
}
1001
GENIUS_GENTITLE_13
1002
{
1000
BORDER
1000
TK-A3
1002
}
1002
{
1000
TITLE
1000
TK-TITLE
1002
}
1002
{
1000
SCALE
1000
1:4
1002
}
1002
{
1000
TITLESTD
1000
ISO
1002
}
1002
{
1000
HRA
1005
5CF
1002
}
1002
{
1000
HTIT
1005
62E
1002
}
1002
{
1000
GENIUSID
1005
638
1002
}
1002
{
1000
INVTXTID
1005
0
1002
}
1002
{
1000
UNCHG
1002
{
1000
GEN-TITLE-SIZ
1000
GEN-TITLE-SCA
1002
}
1002
}
  0
INSERT
  5
8FB
  8
AM_12
  2
*S55
 10
0.0
 20
0.0
 30
0.0
  0
INSERT
  5
901
  8
AM_12
  2
*S56
 10
0.0
 20
0.0
 30
0.0
  0
INSERT
  5
902
  8
AM_12
  2
*S57
 10
0.0
 20
0.0
 30
0.0
  0
INSERT
  5
903
  8
AM_12
  2
*S58
 10
0.0
 20
0.0
 30
0.0
  0
INSERT
  5
904
  8
AM_12
  2
*S59
 10
0.0
 20
0.0
 30
0.0
  0
INSERT
  5
905
  8
AM_12
  2
*S60
 10
0.0
 20
0.0
 30
0.0
  0
INSERT
  5
906
  8
AM_12
  2
*S61
 10
0.0
 20
0.0
 30
0.0
  0
INSERT
  5
FC1
  8
AM_5
  2
*S62
 10
0.0
 20
0.0
 30
0.0
  0
INSERT
  5
FC3
  8
AM_5
  2
*S63
 10
0.0
 20
0.0
 30
0.0
  0
INSERT
  5
FC4
  8
AM_5
  2
*S64
 10
0.0
 20
0.0
 30
0.0
  0
INSERT
  5
FC6
  8
AM_5
  2
*S65
 10
0.0
 20
0.0
 30
0.0
  0
INSERT
  5
FCA
  8
AM_5
  2
*S66
 10
0.0
 20
0.0
 30
0.0
  0
INSERT
  5
16D8
  8
AM_5
  2
*S67
 10
0.0
 20
0.0
 30
0.0
  0
LINE
  5
3637
  8
ﾃ_ﾌ_ﾙ
 10
605.67265151939898
 20
295.97699041611668
 30
0.0
 11
170.6726515193991
 21
295.97699041611668
 31
0.0
  0
LINE
  5
3638
  8
ﾃ_ﾌ_ﾙ
 10
605.67265151939898
 20
295.97699041611668
 30
0.0
 11
605.67265151939898
 21
252.97699041611671
 31
0.0
  0
LINE
  5
3639
  8
ﾃ_ﾌ_ﾙ0
 10
436.92265151939898
 20
284.7769904161168
 30
0.0
 11
436.92265151939898
 21
264.1769904161165
 31
0.0
  0
ARC
  5
363A
  8
ﾃ_ﾌ_ﾙ0
 10
436.42265151939898
 20
284.7769904161168
 30
0.0
 40
0.5
 50
0.0
 51
90.0
1001
GENIUS_GENODEF_13
1002
{
1000
HIER
1070
     0
1002
}
1002
{
1000
MANEDIT
1070
     0
1002
}
1002
{
1000
NOSEL
1070
     0
1002
}
1002
{
1000
BEHIND
1070
     0
1002
}
1002
{
1000
OTHER
1070
     0
1002
}
1002
{
1000
REACTOR
1002
}
1001
GENIUS_GENOBJ-N-FIL_13
1002
{
1000
OWNER
1000
GEN
1002
}
  0
LINE
  5
363B
  8
ﾃ_ﾌ_ﾙ0
 10
436.42265151939898
 20
263.6769904161165
 30
0.0
 11
339.9226515193991
 21
263.6769904161165
 31
0.0
  0
ARC
  5
363C
  8
ﾃ_ﾌ_ﾙ0
 10
436.42265151939898
 20
264.1769904161165
 30
0.0
 40
0.5
 50
270.0
 51
0.0
1001
GENIUS_GENOBJ-N-FIL_13
1002
{
1000
OWNER
1000
GEN
1002
}
1001
GENIUS_GENODEF_13
1002
{
1000
HIER
1070
     0
1002
}
1002
{
1000
MANEDIT
1070
     0
1002
}
1002
{
1000
NOSEL
1070
     0
1002
}
1002
{
1000
BEHIND
1070
     0
1002
}
1002
{
1000
OTHER
1070
     0
1002
}
1002
{
1000
REACTOR
1002
}
  0
LINE
  5
363D
  8
ﾃ_ﾌ_ﾙ0
 10
436.42265151939898
 20
285.27699041611692
 30
0.0
 11
339.9226515193991
 21
285.27699041611692
 31
0.0
  0
ARC
  5
363E
  8
ﾃ_ﾌ_ﾙ0
 10
339.9226515193991
 20
284.7769904161168
 30
0.0
 40
0.5
 50
90.0
 51
180.0
1001
GENIUS_GENODEF_13
1002
{
1000
HIER
1070
     0
1002
}
1002
{
1000
MANEDIT
1070
     0
1002
}
1002
{
1000
NOSEL
1070
     0
1002
}
1002
{
1000
BEHIND
1070
     0
1002
}
1002
{
1000
OTHER
1070
     0
1002
}
1002
{
1000
REACTOR
1002
}
1001
GENIUS_GENOBJ-N-FIL_13
1002
{
1000
OWNER
1000
GEN
1002
}
  0
LINE
  5
363F
  8
ﾃ_ﾌ_ﾙ0
 10
339.4226515193991
 20
264.1769904161165
 30
0.0
 11
339.4226515193991
 21
284.7769904161168
 31
0.0
  0
ARC
  5
3640
  8
ﾃ_ﾌ_ﾙ0
 10
339.9226515193991
 20
264.1769904161165
 30
0.0
 40
0.5
 50
180.0
 51
270.0
1001
GENIUS_GENOBJ-N-FIL_13
1002
{
1000
OWNER
1000
GEN
1002
}
1001
GENIUS_GENODEF_13
1002
{
1000
HIER
1070
     0
1002
}
1002
{
1000
MANEDIT
1070
     0
1002
}
1002
{
1000
NOSEL
1070
     0
1002
}
1002
{
1000
BEHIND
1070
     0
1002
}
1002
{
1000
OTHER
1070
     0
1002
}
1002
{
1000
REACTOR
1002
}
  0
LINE
  5
3641
  8
ﾃ_ﾌ_ﾙ
 10
604.6726515193991
 20
396.78902229187179
 30
0.0
 11
171.6726515193991
 21
396.78902229187179
 31
0.0
  0
LINE
  5
3642
  8
ﾃ_ﾌ_ﾙ
 10
597.17265151939898
 20
747.78902229187167
 30
0.0
 11
179.1726515193991
 21
747.78902229187167
 31
0.0
  0
LINE
  5
3643
  8
ﾃ_ﾌ_ﾙ
 10
605.67265151939898
 20
746.78902229187167
 30
0.0
 11
605.67265151939898
 21
397.78902229187179
 31
0.0
  0
LINE
  5
3644
  8
ﾃ_ﾌ_ﾙ
 10
170.6726515193991
 20
397.78902229187179
 30
0.0
 11
170.6726515193991
 21
746.78902229187167
 31
0.0
  0
LINE
  5
3645
  8
ﾃ_ﾌ_ﾙ
 10
170.6726515193991
 20
746.68902229187131
 30
0.0
 11
170.6726515193991
 21
407.38902229187158
 31
0.0
  0
ARC
  5
3646
  8
ﾃ_ﾌ_ﾙ
 10
604.6726515193991
 20
397.78902229187179
 30
0.0
 40
1.0
 50
270.0
 51
0.0
1001
GENIUS_GENODEF_13
1002
{
1000
HIER
1070
     0
1002
}
1002
{
1000
MANEDIT
1070
     0
1002
}
1002
{
1000
NOSEL
1070
     0
1002
}
1002
{
1000
BEHIND
1070
     0
1002
}
1002
{
1000
REACTOR
1002
}
1001
GENIUS_GENOBJ-N-FIL_13
1002
{
1000
OWNER
1000
GEN
1002
}
  0
ARC
  5
3647
  8
ﾃ_ﾌ_ﾙ
 10
171.6726515193991
 20
397.78902229187179
 30
0.0
 40
1.0
 50
180.0
 51
270.0
1001
GENIUS_GENODEF_13
1002
{
1000
HIER
1070
     0
1002
}
1002
{
1000
MANEDIT
1070
     0
1002
}
1002
{
1000
NOSEL
1070
     0
1002
}
1002
{
1000
BEHIND
1070
     0
1002
}
1002
{
1000
REACTOR
1002
}
1001
GENIUS_GENOBJ-N-FIL_13
1002
{
1000
OWNER
1000
GEN
1002
}
  0
LINE
  5
3648
  8
ﾃ_ﾌ_ﾙ
 10
605.67265151939898
 20
746.68902229187131
 30
0.0
 11
605.67265151939898
 21
407.38902229187158
 31
0.0
  0
LINE
  5
3649
  8
ﾃ_ﾌ_ﾙ
 10
179.1726515193991
 20
747.78902229187167
 30
0.0
 11
179.1726515193991
 21
746.78902229187167
 31
0.0
  0
LINE
  5
364A
  8
ﾃ_ﾌ_ﾙ
 10
179.27265151939901
 20
746.78902229187167
 30
0.0
 11
170.6726515193991
 21
746.78902229187167
 31
0.0
  0
LINE
  5
364B
  8
ﾃ_ﾌ_ﾙ
 10
597.17265151939898
 20
747.78902229187167
 30
0.0
 11
597.17265151939898
 21
746.78902229187167
 31
0.0
  0
LINE
  5
364C
  8
ﾃ_ﾌ_ﾙ
 10
597.07265151939896
 20
746.78902229187167
 30
0.0
 11
605.67265151939898
 21
746.78902229187167
 31
0.0
  0
LINE
  5
364D
  8
ﾃ_ﾌ_ﾙ0
 10
597.07265151939885
 20
746.78902229187167
 30
0.0
 11
179.27265151939901
 21
746.78902229187167
 31
0.0
  0
LINE
  5
364E
  8
ﾃ_ﾌ_ﾙ0
 10
170.6726515193991
 20
406.78902229187179
 30
0.0
 11
605.67265151939898
 21
406.78902229187179
 31
0.0
  0
LINE
  5
364F
  8
ﾃ_ﾌ_ﾙ0
 10
597.17265151939898
 20
397.78902229187179
 30
0.0
 11
597.17265151939898
 21
746.78902229187167
 31
0.0
  0
LINE
  5
3650
  8
ﾃ_ﾌ_ﾙ0
 10
596.1726515193991
 20
746.78902229187167
 30
0.0
 11
596.1726515193991
 21
397.78902229187179
 31
0.0
  0
LINE
  5
3651
  8
ﾃ_ﾌ_ﾙ0
 10
171.6726515193991
 20
397.78902229187179
 30
0.0
 11
604.6726515193991
 21
397.78902229187179
 31
0.0
  0
LINE
  5
3652
  8
ﾃ_ﾌ_ﾙ0
 10
604.6726515193991
 20
406.78902229187179
 30
0.0
 11
604.6726515193991
 21
397.78902229187179
 31
0.0
  0
LINE
  5
3653
  8
ﾃ_ﾌ_ﾙ0
 10
577.07265151939907
 20
746.78902229187167
 30
0.0
 11
577.07265151939919
 21
397.78902229187179
 31
0.0
  0
LINE
  5
3654
  8
ﾃ_ﾌ_ﾙ0
 10
179.1726515193991
 20
397.78902229187179
 30
0.0
 11
179.1726515193991
 21
746.78902229187167
 31
0.0
  0
LINE
  5
3655
  8
ﾃ_ﾌ_ﾙ0
 10
180.1726515193991
 20
746.78902229187167
 30
0.0
 11
180.1726515193991
 21
397.78902229187179
 31
0.0
  0
LINE
  5
3656
  8
ﾃ_ﾌ_ﾙ0
 10
171.6726515193991
 20
406.78902229187179
 30
0.0
 11
171.6726515193991
 21
397.78902229187179
 31
0.0
  0
LINE
  5
3657
  8
ﾃ_ﾌ_ﾙ0
 10
199.27265151939901
 20
746.78902229187167
 30
0.0
 11
199.27265151939901
 21
397.78902229187179
 31
0.0
  0
LINE
  5
3658
  8
ﾃ_ﾌ_ﾙ0
 10
596.1726515193991
 20
434.28902229187167
 30
0.0
 11
597.17265151939898
 21
434.28902229187167
 31
0.0
  0
LINE
  5
3659
  8
ﾃ_ﾌ_ﾙ0
 10
596.1726515193991
 20
430.08902229187169
 30
0.0
 11
597.17265151939898
 21
430.08902229187169
 31
0.0
  0
LINE
  5
365A
  8
ﾃ_ﾌ_ﾙ0
 10
596.1726515193991
 20
535.88902229187158
 30
0.0
 11
597.17265151939898
 21
535.88902229187158
 31
0.0
  0
LINE
  5
365B
  8
ﾃ_ﾌ_ﾙ0
 10
596.1726515193991
 20
531.68902229187177
 30
0.0
 11
597.17265151939898
 21
531.68902229187177
 31
0.0
  0
LINE
  5
365C
  8
ﾃ_ﾌ_ﾙ0
 10
596.1726515193991
 20
637.48902229187183
 30
0.0
 11
597.17265151939898
 21
637.48902229187183
 31
0.0
  0
LINE
  5
365D
  8
ﾃ_ﾌ_ﾙ0
 10
596.1726515193991
 20
633.28902229187179
 30
0.0
 11
597.17265151939898
 21
633.28902229187179
 31
0.0
  0
LINE
  5
365E
  8
ﾃ_ﾌ_ﾙ0
 10
180.1726515193991
 20
434.28902229187167
 30
0.0
 11
179.1726515193991
 21
434.28902229187167
 31
0.0
  0
LINE
  5
365F
  8
ﾃ_ﾌ_ﾙ0
 10
180.1726515193991
 20
430.08902229187169
 30
0.0
 11
179.1726515193991
 21
430.08902229187169
 31
0.0
  0
LINE
  5
3660
  8
ﾃ_ﾌ_ﾙ0
 10
180.1726515193991
 20
535.88902229187158
 30
0.0
 11
179.1726515193991
 21
535.88902229187158
 31
0.0
  0
LINE
  5
3661
  8
ﾃ_ﾌ_ﾙ0
 10
180.1726515193991
 20
531.68902229187177
 30
0.0
 11
179.1726515193991
 21
531.68902229187177
 31
0.0
  0
LINE
  5
3662
  8
ﾃ_ﾌ_ﾙ0
 10
180.1726515193991
 20
637.48902229187183
 30
0.0
 11
179.1726515193991
 21
637.48902229187183
 31
0.0
  0
LINE
  5
3663
  8
ﾃ_ﾌ_ﾙ0
 10
180.1726515193991
 20
633.28902229187179
 30
0.0
 11
179.1726515193991
 21
633.28902229187179
 31
0.0
  0
LINE
  5
3664
  8
ﾃ_ﾌ_ﾙ0
 10
376.4226515193991
 20
747.78902229187167
 30
0.0
 11
376.4226515193991
 21
746.78902229187167
 31
0.0
  0
LINE
  5
3665
  8
ﾃ_ﾌ_ﾙ0
 10
379.9226515193991
 20
747.78902229187167
 30
0.0
 11
379.9226515193991
 21
746.78902229187167
 31
0.0
  0
LINE
  5
3666
  8
ﾃ_ﾌ_ﾙ0
 10
396.4226515193991
 20
747.78902229187167
 30
0.0
 11
396.4226515193991
 21
746.78902229187167
 31
0.0
  0
LINE
  5
3667
  8
ﾃ_ﾌ_ﾙ0
 10
399.9226515193991
 20
747.78902229187167
 30
0.0
 11
399.9226515193991
 21
746.78902229187167
 31
0.0
  0
LINE
  5
3668
  8
ﾃ_ﾌ_ﾙ0
 10
339.4226515193991
 20
397.78902229187179
 30
0.0
 11
339.4226515193991
 21
396.78902229187179
 31
0.0
  0
LINE
  5
3669
  8
ﾃ_ﾌ_ﾙ0
 10
436.92265151939898
 20
396.78902229187179
 30
0.0
 11
436.92265151939898
 21
397.78902229187179
 31
0.0
  0
LINE
  5
366A
  8
ﾃ_ﾌ_ﾙ0
 10
170.6726515193991
 20
294.97699041611668
 30
0.0
 11
605.67265151939898
 21
294.97699041611668
 31
0.0
  0
LINE
  5
366B
  8
ﾃ_ﾌ_ﾙ0
 10
605.67265151939898
 20
253.97699041611671
 30
0.0
 11
170.6726515193991
 21
253.97699041611671
 31
0.0
  0
LINE
  5
366C
  8
ﾃ_ﾌ_ﾙ0
 10
597.17265151939898
 20
253.97699041611671
 30
0.0
 11
597.17265151939898
 21
293.97699041611668
 31
0.0
  0
ARC
  5
366D
  8
ﾃ_ﾌ_ﾙ0
 10
596.1726515193991
 20
293.97699041611668
 30
0.0
 40
1.0
 50
0.0
 51
90.0
1001
GENIUS_GENOBJ-N-FIL_13
1002
{
1000
OWNER
1000
GEN
1002
}
1001
GENIUS_GENODEF_13
1002
{
1000
HIER
1070
     0
1002
}
1002
{
1000
MANEDIT
1070
     0
1002
}
1002
{
1000
NOSEL
1070
     0
1002
}
1002
{
1000
BEHIND
1070
     0
1002
}
1002
{
1000
OTHER
1070
     0
1002
}
1002
{
1000
REACTOR
1002
}
  0
LINE
  5
366E
  8
ﾃ_ﾌ_ﾙ0
 10
577.0726515193993
 20
294.97699041611668
 30
0.0
 11
577.0726515193993
 21
293.97699041611668
 31
0.0
  0
LINE
  5
366F
  8
ﾃ_ﾌ_ﾙ0
 10
577.0726515193993
 20
293.97699041611668
 30
0.0
 11
596.1726515193991
 21
293.97699041611668
 31
0.0
  0
LINE
  5
3670
  8
ﾃ_ﾌ_ﾙ0
 10
596.1726515193991
 20
293.97699041611668
 30
0.0
 11
596.17265151939955
 21
253.97699041611671
 31
0.0
  0
LINE
  5
3671
  8
ﾃ_ﾌ_ﾙ
 10
170.6726515193991
 20
252.97699041611671
 30
0.0
 11
605.67265151939898
 21
252.97699041611671
 31
0.0
  0
ARC
  5
3672
  8
ﾃ_ﾌ_ﾙ0
 10
597.17265151939955
 20
253.97699041611671
 30
0.0
 40
1.0
 50
180.0
 51
270.0
1001
GENIUS_GENOBJ-N-FIL_13
1002
{
1000
OWNER
1000
GEN
1002
}
1001
GENIUS_GENODEF_13
1002
{
1000
HIER
1070
     0
1002
}
1002
{
1000
MANEDIT
1070
     0
1002
}
1002
{
1000
NOSEL
1070
     0
1002
}
1002
{
1000
BEHIND
1070
     0
1002
}
1002
{
1000
OTHER
1070
     0
1002
}
1002
{
1000
REACTOR
1002
}
  0
LINE
  5
3673
  8
ﾃ_ﾌ_ﾙ0
 10
604.6726515193991
 20
294.97699041611668
 30
0.0
 11
604.6726515193991
 21
253.97699041611671
 31
0.0
  0
LINE
  5
3674
  8
ﾃ_ﾌ_ﾙ
 10
170.6726515193991
 20
295.97699041611668
 30
0.0
 11
170.6726515193991
 21
252.97699041611671
 31
0.0
  0
ARC
  5
3675
  8
ﾃ_ﾌ_ﾙ0
 10
180.1726515193991
 20
293.97699041611668
 30
0.0
 40
1.0
 50
90.0
 51
180.0
1001
GENIUS_GENOBJ-N-FIL_13
1002
{
1000
OWNER
1000
GEN
1002
}
1001
GENIUS_GENODEF_13
1002
{
1000
HIER
1070
     0
1002
}
1002
{
1000
MANEDIT
1070
     0
1002
}
1002
{
1000
NOSEL
1070
     0
1002
}
1002
{
1000
BEHIND
1070
     0
1002
}
1002
{
1000
OTHER
1070
     0
1002
}
1002
{
1000
REACTOR
1002
}
  0
LINE
  5
3676
  8
ﾃ_ﾌ_ﾙ0
 10
199.27265151939901
 20
294.97699041611668
 30
0.0
 11
199.27265151939901
 21
293.97699041611668
 31
0.0
  0
LINE
  5
3677
  8
ﾃ_ﾌ_ﾙ0
 10
199.27265151939901
 20
293.97699041611668
 30
0.0
 11
180.1726515193991
 21
293.97699041611668
 31
0.0
  0
ARC
  5
3678
  8
ﾃ_ﾌ_ﾙ0
 10
179.17265151939861
 20
253.97699041611671
 30
0.0
 40
1.0
 50
270.0
 51
0.0
1001
GENIUS_GENOBJ-N-FIL_13
1002
{
1000
OWNER
1000
GEN
1002
}
1001
GENIUS_GENODEF_13
1002
{
1000
HIER
1070
     0
1002
}
1002
{
1000
MANEDIT
1070
     0
1002
}
1002
{
1000
NOSEL
1070
     0
1002
}
1002
{
1000
BEHIND
1070
     0
1002
}
1002
{
1000
OTHER
1070
     0
1002
}
1002
{
1000
REACTOR
1002
}
  0
LINE
  5
3679
  8
ﾃ_ﾌ_ﾙ0
 10
171.6726515193991
 20
294.97699041611668
 30
0.0
 11
171.6726515193991
 21
253.97699041611671
 31
0.0
  0
LINE
  5
367A
  8
ﾃ_ﾌ_ﾙ0
 10
596.17265151939932
 20
276.57699041611659
 30
0.0
 11
597.17265151939898
 21
276.57699041611659
 31
0.0
  0
LINE
  5
367B
  8
ﾃ_ﾌ_ﾙ0
 10
596.17265151939932
 20
272.37699041611683
 30
0.0
 11
597.17265151939898
 21
272.37699041611683
 31
0.0
  0
LINE
  5
367C
  8
ﾃ_ﾌ_ﾙ0
 10
180.1726515193989
 20
276.57699041611659
 30
0.0
 11
179.1726515193991
 21
276.57699041611659
 31
0.0
  0
LINE
  5
367D
  8
ﾃ_ﾌ_ﾙ0
 10
180.1726515193989
 20
272.37699041611683
 30
0.0
 11
179.1726515193991
 21
272.37699041611683
 31
0.0
  0
LINE
  5
367E
  8
ﾃ_ﾌ_ﾙ0
 10
180.17265151939861
 20
253.97699041611671
 30
0.0
 11
180.1726515193991
 21
293.97699041611668
 31
0.0
  0
LINE
  5
367F
  8
ﾃ_ﾌ_ﾙ0
 10
179.1726515193991
 20
293.97699041611668
 30
0.0
 11
179.1726515193991
 21
253.97699041611671
 31
0.0
  0
LINE
  5
3680
  8
ﾃ_ﾌ_ﾙ0
 10
789.39237200464356
 20
396.78925180467041
 30
0.0
 11
789.39237200464356
 21
122.7892518046701
 31
0.0
  0
LINE
  5
3681
  8
ﾃ_ﾌ_ﾙ0
 10
788.39237200464356
 20
121.7892518046701
 30
0.0
 11
747.39237200464345
 21
121.7892518046701
 31
0.0
  0
ARC
  5
3682
  8
ﾃ_ﾌ_ﾙ0
 10
788.39237200464356
 20
122.7892518046701
 30
0.0
 40
1.0
 50
270.0
 51
0.0
1001
GENIUS_GENOBJ-N-FIL_13
1002
{
1000
OWNER
1000
GEN
1002
}
1001
GENIUS_GENODEF_13
1002
{
1000
HIER
1070
     0
1002
}
1002
{
1000
MANEDIT
1070
     0
1002
}
1002
{
1000
NOSEL
1070
     0
1002
}
1002
{
1000
BEHIND
1070
     0
1002
}
1002
{
1000
OTHER
1070
     0
1002
}
1002
{
1000
REACTOR
1002
}
  0
ARC
  5
3683
  8
ﾃ_ﾌ_ﾙ0
 10
747.39237200464345
 20
122.7892518046701
 30
0.0
 40
1.0
 50
180.0
 51
270.0
1001
GENIUS_GENOBJ-N-FIL_13
1002
{
1000
OWNER
1000
GEN
1002
}
1001
GENIUS_GENODEF_13
1002
{
1000
HIER
1070
     0
1002
}
1002
{
1000
MANEDIT
1070
     0
1002
}
1002
{
1000
NOSEL
1070
     0
1002
}
1002
{
1000
BEHIND
1070
     0
1002
}
1002
{
1000
OTHER
1070
     0
1002
}
1002
{
1000
REACTOR
1002
}
  0
LINE
  5
3684
  8
ﾃ_ﾌ_ﾙ0
 10
746.39237200464356
 20
122.7892518046701
 30
0.0
 11
746.39237200464356
 21
396.78925180467041
 31
0.0
  0
LINE
  5
3685
  8
ﾃ_ﾌ_ﾙ0
 10
747.39237200464356
 20
396.78925180467007
 30
0.0
 11
747.39237200464356
 21
121.7892518046701
 31
0.0
  0
LINE
  5
3686
  8
ﾃ_ﾌ_ﾙ0
 10
747.39237200464356
 20
131.78902229187179
 30
0.0
 11
788.39237200464356
 21
131.78902229187179
 31
0.0
  0
LINE
  5
3687
  8
ﾃ_ﾌ_ﾙ0
 10
788.39237200464356
 20
121.7892518046701
 30
0.0
 11
788.39237200464356
 21
396.78925180467007
 31
0.0
  0
LINE
  5
3688
  8
ﾃ_ﾌ_ﾙ0
 10
788.39237200464356
 20
131.78902229187179
 30
0.0
 11
789.39237200464356
 21
131.78902229187179
 31
0.0
  0
LINE
  5
3689
  8
ﾃ_ﾌ_ﾙ0
 10
748.39237200464356
 20
396.78925180467007
 30
0.0
 11
748.39237200464356
 21
122.7892518046701
 31
0.0
  0
LINE
  5
368A
  8
ﾃ_ﾌ_ﾙ0
 10
747.39237200464356
 20
122.7892518046701
 30
0.0
 11
788.39237200464356
 21
122.7892518046701
 31
0.0
  0
CIRCLE
  5
368B
  8
ﾃ_ﾌ_ﾙ
 10
767.89237200464356
 20
360.3890222918717
 30
0.0
 40
2.1000000000000001
  0
CIRCLE
  5
368C
  8
ﾃ_ﾌ_ﾙ
 10
767.89237200464356
 20
258.78902229187179
 30
0.0
 40
2.1000000000000001
  0
CIRCLE
  5
368D
  8
ﾃ_ﾌ_ﾙ
 10
767.89237200464356
 20
157.18902229187191
 30
0.0
 40
2.1000000000000001
  0
DIMENSION
  5
368E
  8
AM_5
  2
*D15
 10
629.47265151939905
 20
357.500743896519
 30
0.0
 11
388.1726515193991
 21
367.25177736108589
 31
0.0
 70
     0
 13
146.87265151939911
 23
396.78902229187179
 33
0.0
 14
629.47265151939905
 24
396.78902229187179
 34
0.0
1001
ACAD
1000
DSTYLE
1002
{
1070
    40
1040
3.0
1002
}
  0
DIMENSION
  5
3691
  8
AM_5
  2
*D16
 10
789.39237200464356
 20
82.980244926926375
 30
0.0
 11
767.89237200464356
 21
90.980244926926389
 31
0.0
 70
     0
 13
746.39237200464356
 23
122.7892518046701
 33
0.0
 14
789.39237200464356
 24
122.7892518046701
 34
0.0
1001
ACAD
1000
DSTYLE
1002
{
1070
   287
1070
     4
1070
    40
1040
4.0
1070
    41
1040
1.5
1070
   140
1040
3.0
1070
   147
1040
0.5
1070
   279
1070
     1
1002
}
  0
DIMENSION
  5
3697
  8
AM_5
  2
*D14
 10
637.51978727070025
 20
396.78902229187179
 30
0.0
 11
629.51978727070025
 21
572.2890222918719
 31
0.0
 70
     0
 13
597.17265151939898
 23
747.78902229187167
 33
0.0
 14
629.47265151939905
 24
396.78902229187179
 34
0.0
 50
90.0
1001
ACAD
1000
DSTYLE
1002
{
1070
    40
1040
4.0
1070
    41
1040
1.5
1070
   140
1040
3.0
1070
   147
1040
0.5
1002
}
  0
LINE
  5
369A
  8
ﾃ_ﾌ_ﾙ0
 10
180.1726515193991
 20
434.28902229187167
 30
0.0
 11
179.1726515193991
 21
434.28902229187167
 31
0.0
  0
LINE
  5
369B
  8
ﾃ_ﾌ_ﾙ0
 10
180.1726515193991
 20
430.08902229187169
 30
0.0
 11
179.1726515193991
 21
430.08902229187169
 31
0.0
  0
LINE
  5
369C
  8
ﾃ_ﾌ_ﾙ0
 10
180.1726515193991
 20
535.88902229187158
 30
0.0
 11
179.1726515193991
 21
535.88902229187158
 31
0.0
  0
LINE
  5
369D
  8
ﾃ_ﾌ_ﾙ0
 10
180.1726515193991
 20
531.68902229187177
 30
0.0
 11
179.1726515193991
 21
531.68902229187177
 31
0.0
  0
LINE
  5
369E
  8
ﾃ_ﾌ_ﾙ0
 10
180.1726515193991
 20
637.48902229187183
 30
0.0
 11
179.1726515193991
 21
637.48902229187183
 31
0.0
  0
LINE
  5
369F
  8
ﾃ_ﾌ_ﾙ0
 10
180.1726515193991
 20
633.28902229187179
 30
0.0
 11
179.1726515193991
 21
633.28902229187179
 31
0.0
  0
LINE
  5
36A5
  8
ﾃ_ﾌ_ﾙ
 10
747.39237200464356
 20
747.78902229187167
 30
0.0
 11
750.39237200464368
 21
747.78902229187202
 31
0.0
  0
LINE
  5
36A6
  8
ﾃ_ﾌ_ﾙ
 10
786.39237200464368
 20
747.78902229187202
 30
0.0
 11
789.39237200464356
 21
747.78902229187167
 31
0.0
  0
ARC
  5
36A7
  8
ﾃ_ﾌ_ﾙ
 10
747.39237200464356
 20
746.78902229187167
 30
0.0
 40
1.0
 50
90.0
 51
180.0
1001
GENIUS_GENOBJ-N-FIL_13
1002
{
1000
OWNER
1000
GEN
1002
}
1001
GENIUS_GENODEF_13
1002
{
1000
HIER
1070
     0
1002
}
1002
{
1000
MANEDIT
1070
     0
1002
}
1002
{
1000
NOSEL
1070
     0
1002
}
1002
{
1000
BEHIND
1070
     0
1002
}
1002
{
1000
OTHER
1070
     0
1002
}
1002
{
1000
REACTOR
1002
}
  0
LINE
  5
36A8
  8
ﾃ_ﾌ_ﾙ
 10
789.39237200464356
 20
747.78902229187167
 30
0.0
 11
789.39237200464345
 21
646.11212746020249
 31
0.0
  0
LINE
  5
36A9
  8
ﾃ_ﾌ_ﾙ
 10
746.39237200464368
 20
646.78925180467024
 30
0.0
 11
746.39237200464368
 21
746.78902229187167
 31
0.0
  0
LINE
  5
36AA
  8
ﾃ_ﾌ_ﾙ
 10
789.39237200464356
 20
746.68902229187131
 30
0.0
 11
786.39237200464368
 21
746.68902229187165
 31
0.0
  0
LINE
  5
36AB
  8
ﾃ_ﾌ_ﾙ
 10
750.39237200464368
 20
746.68902229187165
 30
0.0
 11
747.39237200464356
 21
746.68902229187131
 31
0.0
  0
LINE
  5
36AC
  8
ﾃ_ﾌ_ﾙ
 10
747.39237200464356
 20
746.68902229187131
 30
0.0
 11
747.39237200464356
 21
646.78925180467024
 31
0.0
  0
LINE
  5
36AD
  8
ﾃ_ﾌ_ﾙ
 10
788.39237200464356
 20
646.78925180467024
 30
0.0
 11
788.39237200464356
 21
746.68902229187131
 31
0.0
  0
LINE
  5
36AE
  8
ﾃ_ﾌ_ﾙ0
 10
748.39237200464356
 20
746.68902229187131
 30
0.0
 11
748.39237200464356
 21
646.78925180467024
 31
0.0
  0
LINE
  5
36B3
  8
ﾃ_ﾌ_ﾙ0
 10
31.288824119443689
 20
396.78925180467041
 30
0.0
 11
31.288824119443689
 21
122.7892518046701
 31
0.0
  0
LINE
  5
36B4
  8
ﾃ_ﾌ_ﾙ0
 10
32.288824119443689
 20
121.7892518046701
 30
0.0
 11
73.288824119443689
 21
121.7892518046701
 31
0.0
  0
ARC
  5
36B5
  8
ﾃ_ﾌ_ﾙ0
 10
32.288824119443689
 20
122.7892518046701
 30
0.0
 40
1.0
 50
180.0
 51
270.0
1001
GENIUS_GENOBJ-N-FIL_13
1002
{
1000
OWNER
1000
GEN
1002
}
1001
GENIUS_GENODEF_13
1002
{
1000
HIER
1070
     0
1002
}
1002
{
1000
MANEDIT
1070
     0
1002
}
1002
{
1000
NOSEL
1070
     0
1002
}
1002
{
1000
BEHIND
1070
     0
1002
}
1002
{
1000
OTHER
1070
     0
1002
}
1002
{
1000
REACTOR
1002
}
  0
ARC
  5
36B6
  8
ﾃ_ﾌ_ﾙ0
 10
73.288824119443689
 20
122.7892518046701
 30
0.0
 40
1.0
 50
270.0
 51
0.0
1001
GENIUS_GENOBJ-N-FIL_13
1002
{
1000
OWNER
1000
GEN
1002
}
1001
GENIUS_GENODEF_13
1002
{
1000
HIER
1070
     0
1002
}
1002
{
1000
MANEDIT
1070
     0
1002
}
1002
{
1000
NOSEL
1070
     0
1002
}
1002
{
1000
BEHIND
1070
     0
1002
}
1002
{
1000
OTHER
1070
     0
1002
}
1002
{
1000
REACTOR
1002
}
  0
LINE
  5
36B7
  8
ﾃ_ﾌ_ﾙ0
 10
74.288824119443689
 20
122.7892518046701
 30
0.0
 11
74.288824119443689
 21
396.78925180467041
 31
0.0
  0
LINE
  5
36B8
  8
ﾃ_ﾌ_ﾙ0
 10
73.288824119443689
 20
396.78925180467007
 30
0.0
 11
73.288824119443689
 21
121.7892518046701
 31
0.0
  0
LINE
  5
36B9
  8
ﾃ_ﾌ_ﾙ0
 10
73.288824119443689
 20
131.78902229187179
 30
0.0
 11
32.288824119443689
 21
131.78902229187179
 31
0.0
  0
LINE
  5
36BA
  8
ﾃ_ﾌ_ﾙ0
 10
32.288824119443689
 20
121.7892518046701
 30
0.0
 11
32.288824119443689
 21
396.78925180467007
 31
0.0
  0
LINE
  5
36BB
  8
ﾃ_ﾌ_ﾙ0
 10
32.288824119443689
 20
131.78902229187179
 30
0.0
 11
31.288824119443689
 21
131.78902229187179
 31
0.0
  0
LINE
  5
36BC
  8
ﾃ_ﾌ_ﾙ0
 10
72.288824119443674
 20
396.78925180467007
 30
0.0
 11
72.288824119443674
 21
122.7892518046701
 31
0.0
  0
LINE
  5
36BD
  8
ﾃ_ﾌ_ﾙ0
 10
73.288824119443689
 20
122.7892518046701
 30
0.0
 11
32.288824119443689
 21
122.7892518046701
 31
0.0
  0
CIRCLE
  5
36BE
  8
ﾃ_ﾌ_ﾙ0
 10
52.788824119443689
 20
360.3890222918717
 30
0.0
 40
2.1000000000000001
  0
CIRCLE
  5
36BF
  8
ﾃ_ﾌ_ﾙ0
 10
52.788824119443689
 20
258.78902229187179
 30
0.0
 40
2.1000000000000001
  0
CIRCLE
  5
36C0
  8
ﾃ_ﾌ_ﾙ0
 10
52.788824119443689
 20
157.18902229187191
 30
0.0
 40
2.1000000000000001
  0
LINE
  5
36C1
  8
ボ_ルスライド0
 10
34.638824119443598
 20
406.78902229187179
 30
0.0
 11
69.93882411944378
 21
406.78902229187179
 31
0.0
  0
LINE
  5
36C2
  8
ボ_ルスライド0
 10
69.93882411944378
 20
762.3890222918717
 30
0.0
 11
34.638824119443598
 21
762.3890222918717
 31
0.0
  0
LINE
  5
36C3
  8
ﾃ_ﾌ_ﾙ
 10
73.288824119443689
 20
747.78902229187167
 30
0.0
 11
70.288824119443689
 21
747.78902229187202
 31
0.0
  0
LINE
  5
36C4
  8
ﾃ_ﾌ_ﾙ
 10
34.288824119443689
 20
747.78902229187202
 30
0.0
 11
31.288824119443689
 21
747.78902229187167
 31
0.0
  0
ARC
  5
36C5
  8
ﾃ_ﾌ_ﾙ
 10
73.288824119443689
 20
746.78902229187167
 30
0.0
 40
1.0
 50
0.0
 51
90.0
1001
GENIUS_GENOBJ-N-FIL_13
1002
{
1000
OWNER
1000
GEN
1002
}
1001
GENIUS_GENODEF_13
1002
{
1000
HIER
1070
     0
1002
}
1002
{
1000
MANEDIT
1070
     0
1002
}
1002
{
1000
NOSEL
1070
     0
1002
}
1002
{
1000
BEHIND
1070
     0
1002
}
1002
{
1000
OTHER
1070
     0
1002
}
1002
{
1000
REACTOR
1002
}
  0
LINE
  5
36C6
  8
ﾃ_ﾌ_ﾙ
 10
31.288824119443689
 20
747.78902229187167
 30
0.0
 11
31.288824119443689
 21
646.11212746020249
 31
0.0
  0
LINE
  5
36C7
  8
ﾃ_ﾌ_ﾙ
 10
74.288824119443689
 20
646.11212746020249
 30
0.0
 11
74.288824119443689
 21
746.78902229187167
 31
0.0
  0
LINE
  5
36C8
  8
ﾃ_ﾌ_ﾙ
 10
31.288824119443689
 20
746.68902229187131
 30
0.0
 11
34.288824119443689
 21
746.68902229187165
 31
0.0
  0
LINE
  5
36C9
  8
ﾃ_ﾌ_ﾙ
 10
70.288824119443689
 20
746.68902229187165
 30
0.0
 11
73.288824119443689
 21
746.68902229187131
 31
0.0
  0
LINE
  5
36CA
  8
ﾃ_ﾌ_ﾙ
 10
73.288824119443689
 20
746.68902229187131
 30
0.0
 11
73.288824119443689
 21
646.78925180467024
 31
0.0
  0
LINE
  5
36CB
  8
ﾃ_ﾌ_ﾙ
 10
32.288824119443689
 20
646.78925180467024
 30
0.0
 11
32.288824119443689
 21
746.68902229187131
 31
0.0
  0
LINE
  5
36CC
  8
ﾃ_ﾌ_ﾙ0
 10
72.288824119443674
 20
746.68902229187131
 30
0.0
 11
72.288824119443674
 21
646.78925180467024
 31
0.0
  0
LINE
  5
36CE
  8
ボ_ルスライド0
 10
69.93882411944378
 20
762.3890222918717
 30
0.0
 11
69.93882411944378
 21
406.78902229187179
 31
0.0
  0
LINE
  5
36CF
  8
ボ_ルスライド0
 10
34.638824119443598
 20
762.3890222918717
 30
0.0
 11
34.638824119443598
 21
406.78902229187179
 31
0.0
  0
INSERT
  5
36D4
  8
0
  2
取手正面
 10
388.1726515193991
 20
287.47699041611668
 30
0.0
  0
INSERT
  5
36D5
  8
0
  2
取手横
 10
751.89237148474763
 20
138.76164482918489
 30
0.0
 41
-1.0
 50
180.0
  0
INSERT
  5
36D6
  8
0
  2
取手上
 10
440.17265135122119
 20
393.79905367734767
 30
0.0
 50
90.0
  0
INSERT
  5
36D7
  8
ロック金具
  2
ロック金具凸
 10
400.17265098517407
 20
751.78902252891078
 30
0.0
 41
0.3333333333332575
 42
0.3333333333332575
 43
0.3333333333333333
 50
90.0
  0
INSERT
  5
36D8
  8
ロック金具
  2
ロック金具凹
 10
388.1726515193991
 20
747.78902229187167
 30
0.0
 50
90.0
  0
LINE
  5
36D9
  8
ﾃ_ﾌ_ﾙ
 10
953.62477783184022
 20
396.78902229187179
 30
0.0
 11
1386.62477783184
 21
396.78902229187179
 31
0.0
  0
LINE
  5
36DA
  8
ﾃ_ﾌ_ﾙ
 10
961.12477783184022
 20
747.78902229187167
 30
0.0
 11
1379.12477783184
 21
747.78902229187167
 31
0.0
  0
LINE
  5
36DB
  8
ﾃ_ﾌ_ﾙ
 10
952.62477783184033
 20
746.78902229187167
 30
0.0
 11
952.62477783184033
 21
397.78902229187179
 31
0.0
  0
LINE
  5
36DC
  8
ﾃ_ﾌ_ﾙ
 10
1387.62477783184
 20
397.78902229187179
 30
0.0
 11
1387.62477783184
 21
746.78902229187167
 31
0.0
  0
LINE
  5
36DD
  8
ﾃ_ﾌ_ﾙ
 10
1387.62477783184
 20
746.68902229187131
 30
0.0
 11
1387.62477783184
 21
407.38902229187158
 31
0.0
  0
ARC
  5
36DE
  8
ﾃ_ﾌ_ﾙ
 10
953.62477783184022
 20
397.78902229187179
 30
0.0
 40
1.0
 50
180.0
 51
270.0
1001
GENIUS_GENODEF_13
1002
{
1000
HIER
1070
     0
1002
}
1002
{
1000
MANEDIT
1070
     0
1002
}
1002
{
1000
NOSEL
1070
     0
1002
}
1002
{
1000
BEHIND
1070
     0
1002
}
1002
{
1000
REACTOR
1002
}
1001
GENIUS_GENOBJ-N-FIL_13
1002
{
1000
OWNER
1000
GEN
1002
}
  0
ARC
  5
36DF
  8
ﾃ_ﾌ_ﾙ
 10
1386.62477783184
 20
397.78902229187179
 30
0.0
 40
1.0
 50
270.0
 51
0.0
1001
GENIUS_GENODEF_13
1002
{
1000
HIER
1070
     0
1002
}
1002
{
1000
MANEDIT
1070
     0
1002
}
1002
{
1000
NOSEL
1070
     0
1002
}
1002
{
1000
BEHIND
1070
     0
1002
}
1002
{
1000
REACTOR
1002
}
1001
GENIUS_GENOBJ-N-FIL_13
1002
{
1000
OWNER
1000
GEN
1002
}
  0
LINE
  5
36E0
  8
ﾃ_ﾌ_ﾙ
 10
952.62477783184033
 20
746.68902229187131
 30
0.0
 11
952.62477783184033
 21
407.38902229187158
 31
0.0
  0
LINE
  5
36E1
  8
ﾃ_ﾌ_ﾙ
 10
1379.12477783184
 20
747.78902229187167
 30
0.0
 11
1379.12477783184
 21
746.78902229187167
 31
0.0
  0
LINE
  5
36E2
  8
ﾃ_ﾌ_ﾙ
 10
1379.0247778318401
 20
746.78902229187167
 30
0.0
 11
1387.62477783184
 21
746.78902229187167
 31
0.0
  0
LINE
  5
36E3
  8
ﾃ_ﾌ_ﾙ
 10
961.12477783184022
 20
747.78902229187167
 30
0.0
 11
961.12477783184022
 21
746.78902229187167
 31
0.0
  0
LINE
  5
36E4
  8
ﾃ_ﾌ_ﾙ
 10
961.22477783184013
 20
746.78902229187167
 30
0.0
 11
952.62477783184033
 21
746.78902229187167
 31
0.0
  0
LINE
  5
36E5
  8
ﾃ_ﾌ_ﾙ
 10
961.22477783184036
 20
746.78902229187167
 30
0.0
 11
1379.0247778318401
 21
746.78902229187167
 31
0.0
  0
LINE
  5
36E6
  8
ﾃ_ﾌ_ﾙ
 10
1387.62477783184
 20
406.78902229187179
 30
0.0
 11
952.62477783184033
 21
406.78902229187179
 31
0.0
  0
LINE
  5
36E7
  8
ﾃ_ﾌ_ﾙ0
 10
961.12477783184022
 20
397.78902229187179
 30
0.0
 11
961.12477783184022
 21
406.78902229187179
 31
0.0
  0
LINE
  5
36E8
  8
ﾃ_ﾌ_ﾙ0
 10
961.12477783184022
 20
406.78902229187202
 30
0.0
 11
961.12477783184022
 21
746.78902229187167
 31
0.0
  0
LINE
  5
36E9
  8
ﾃ_ﾌ_ﾙ
 10
962.12477783184022
 20
746.78902229187167
 30
0.0
 11
962.12477783184022
 21
406.78902229187219
 31
0.0
  0
LINE
  5
36EA
  8
ﾃ_ﾌ_ﾙ0
 10
962.12477783184022
 20
406.78902229187179
 30
0.0
 11
962.12477783184022
 21
397.78902229187179
 31
0.0
  0
LINE
  5
36EB
  8
ﾃ_ﾌ_ﾙ0
 10
1386.62477783184
 20
397.78902229187179
 30
0.0
 11
953.62477783184022
 21
397.78902229187179
 31
0.0
  0
LINE
  5
36EC
  8
ﾃ_ﾌ_ﾙ0
 10
953.62477783184022
 20
406.78902229187179
 30
0.0
 11
953.62477783184022
 21
397.78902229187179
 31
0.0
  0
LINE
  5
36ED
  8
ﾃ_ﾌ_ﾙ
 10
981.22477783184013
 20
746.78902229187167
 30
0.0
 11
981.22477783184013
 21
406.7890222918715
 31
0.0
  0
LINE
  5
36EE
  8
ﾃ_ﾌ_ﾙ0
 10
1379.12477783184
 20
397.78902229187179
 30
0.0
 11
1379.12477783184
 21
406.78902229187179
 31
0.0
  0
LINE
  5
36EF
  8
ﾃ_ﾌ_ﾙ0
 10
1379.12477783184
 20
406.78902229187202
 30
0.0
 11
1379.12477783184
 21
746.78902229187167
 31
0.0
  0
LINE
  5
36F0
  8
ﾃ_ﾌ_ﾙ
 10
1378.12477783184
 20
746.78902229187167
 30
0.0
 11
1378.12477783184
 21
406.78902229187202
 31
0.0
  0
LINE
  5
36F1
  8
ﾃ_ﾌ_ﾙ0
 10
1378.1247778318409
 20
406.78902229187179
 30
0.0
 11
1378.12477783184
 21
397.78902229187179
 31
0.0
  0
LINE
  5
36F2
  8
ﾃ_ﾌ_ﾙ0
 10
1386.62477783184
 20
406.78902229187179
 30
0.0
 11
1386.62477783184
 21
397.78902229187179
 31
0.0
  0
LINE
  5
36F3
  8
ﾃ_ﾌ_ﾙ
 10
1359.0247778318401
 20
746.78902229187167
 30
0.0
 11
1359.0247778318401
 21
406.7890222918715
 31
0.0
  0
LINE
  5
36F4
  8
ﾃ_ﾌ_ﾙ0
 10
962.12477783184022
 20
434.28902229187167
 30
0.0
 11
961.12477783184022
 21
434.28902229187167
 31
0.0
  0
LINE
  5
36F5
  8
ﾃ_ﾌ_ﾙ0
 10
962.12477783184022
 20
430.08902229187169
 30
0.0
 11
961.12477783184022
 21
430.08902229187169
 31
0.0
  0
LINE
  5
36F6
  8
ﾃ_ﾌ_ﾙ0
 10
962.12477783184022
 20
535.88902229187158
 30
0.0
 11
961.12477783184022
 21
535.88902229187158
 31
0.0
  0
LINE
  5
36F7
  8
ﾃ_ﾌ_ﾙ0
 10
962.12477783184022
 20
531.68902229187177
 30
0.0
 11
961.12477783184022
 21
531.68902229187177
 31
0.0
  0
LINE
  5
36F8
  8
ﾃ_ﾌ_ﾙ0
 10
962.12477783184022
 20
637.48902229187183
 30
0.0
 11
961.12477783184022
 21
637.48902229187183
 31
0.0
  0
LINE
  5
36F9
  8
ﾃ_ﾌ_ﾙ0
 10
962.12477783184022
 20
633.28902229187179
 30
0.0
 11
961.12477783184022
 21
633.28902229187179
 31
0.0
  0
LINE
  5
36FA
  8
ﾃ_ﾌ_ﾙ0
 10
1378.12477783184
 20
434.28902229187167
 30
0.0
 11
1379.12477783184
 21
434.28902229187167
 31
0.0
  0
LINE
  5
36FB
  8
ﾃ_ﾌ_ﾙ0
 10
1378.12477783184
 20
430.08902229187169
 30
0.0
 11
1379.12477783184
 21
430.08902229187169
 31
0.0
  0
LINE
  5
36FC
  8
ﾃ_ﾌ_ﾙ0
 10
1378.12477783184
 20
535.88902229187158
 30
0.0
 11
1379.12477783184
 21
535.88902229187158
 31
0.0
  0
LINE
  5
36FD
  8
ﾃ_ﾌ_ﾙ0
 10
1378.12477783184
 20
531.68902229187177
 30
0.0
 11
1379.12477783184
 21
531.68902229187177
 31
0.0
  0
LINE
  5
36FE
  8
ﾃ_ﾌ_ﾙ0
 10
1378.12477783184
 20
637.48902229187183
 30
0.0
 11
1379.12477783184
 21
637.48902229187183
 31
0.0
  0
LINE
  5
36FF
  8
ﾃ_ﾌ_ﾙ0
 10
1378.12477783184
 20
633.28902229187179
 30
0.0
 11
1379.12477783184
 21
633.28902229187179
 31
0.0
  0
LINE
  5
3700
  8
ﾃ_ﾌ_ﾙ0
 10
1181.87477783184
 20
747.78902229187167
 30
0.0
 11
1181.87477783184
 21
746.78902229187167
 31
0.0
  0
LINE
  5
3701
  8
ﾃ_ﾌ_ﾙ0
 10
1178.37477783184
 20
747.78902229187167
 30
0.0
 11
1178.37477783184
 21
746.78902229187167
 31
0.0
  0
LINE
  5
3702
  8
ﾃ_ﾌ_ﾙ0
 10
1161.87477783184
 20
747.78902229187167
 30
0.0
 11
1161.87477783184
 21
746.78902229187167
 31
0.0
  0
LINE
  5
3703
  8
ﾃ_ﾌ_ﾙ0
 10
1158.37477783184
 20
747.78902229187167
 30
0.0
 11
1158.37477783184
 21
746.78902229187167
 31
0.0
  0
LINE
  5
3704
  8
ﾃ_ﾌ_ﾙ0
 10
1218.87477783184
 20
397.78902229187179
 30
0.0
 11
1218.87477783184
 21
396.78902229187179
 31
0.0
  0
LINE
  5
3705
  8
ﾃ_ﾌ_ﾙ0
 10
1121.37477783184
 20
396.78902229187179
 30
0.0
 11
1121.37477783184
 21
397.78902229187179
 31
0.0
  0
LINE
  5
3706
  8
ﾃ_ﾌ_ﾙ0
 10
1378.12477783184
 20
434.28902229187167
 30
0.0
 11
1379.12477783184
 21
434.28902229187167
 31
0.0
  0
LINE
  5
3707
  8
ﾃ_ﾌ_ﾙ0
 10
1378.12477783184
 20
430.08902229187169
 30
0.0
 11
1379.12477783184
 21
430.08902229187169
 31
0.0
  0
LINE
  5
3708
  8
ﾃ_ﾌ_ﾙ0
 10
1378.12477783184
 20
535.88902229187158
 30
0.0
 11
1379.12477783184
 21
535.88902229187158
 31
0.0
  0
LINE
  5
3709
  8
ﾃ_ﾌ_ﾙ0
 10
1378.12477783184
 20
531.68902229187177
 30
0.0
 11
1379.12477783184
 21
531.68902229187177
 31
0.0
  0
LINE
  5
370A
  8
ﾃ_ﾌ_ﾙ0
 10
1378.12477783184
 20
637.48902229187183
 30
0.0
 11
1379.12477783184
 21
637.48902229187183
 31
0.0
  0
LINE
  5
370B
  8
ﾃ_ﾌ_ﾙ0
 10
1378.12477783184
 20
633.28902229187179
 30
0.0
 11
1379.12477783184
 21
633.28902229187179
 31
0.0
  0
INSERT
  5
3713
  8
0
  2
取手上
 10
1118.1247780000181
 20
393.79905367734767
 30
0.0
 41
-1.0
 50
270.0
  0
INSERT
  5
3714
  8
ロック金具
  2
ロック金具凸
 10
1158.1247783660649
 20
751.78902252891078
 30
0.0
 41
-0.3333333333332575
 42
0.3333333333332575
 43
0.3333333333333333
 50
270.0
  0
INSERT
  5
3715
  8
ロック金具
  2
ロック金具凹
 10
1170.12477783184
 20
747.78902229187167
 30
0.0
 41
-1.0
 50
270.0
  0
INSERT
  5
3716
  8
保護スポンジ
  2
保護スポンジ
 10
1378.1247755555789
 20
398.28902573163077
 30
0.0
 50
90.0
  0
INSERT
  5
3717
  8
保護スポンジ
  2
保護スポンジ
 10
962.12478010810082
 20
398.28902573163077
 30
0.0
 41
-1.0
 50
270.0
  0
INSERT
  5
3718
  8
0
  2
取手横
 10
68.788824639339509
 20
138.76164482918489
 30
0.0
 50
180.0
  0
INSERT
  5
3787
  8
AM_5
  2
*S68
 10
0.0
 20
0.0
 30
0.0
  0
DIMENSION
  5
37C6
  8
AM_5
  2
*D17
 10
637.5197872707007
 20
773.78902229187179
 30
0.0
 11
629.51860616833835
 21
760.7890222918719
 31
0.0
 70
     0
 13
597.17265151939898
 23
747.78902229187167
 33
0.0
 14
606.37265151939914
 24
773.78902229187179
 34
0.0
 50
90.0
1001
ACAD
1000
DSTYLE
1002
{
1070
   140
1040
3.0
1070
    41
1040
1.5
1070
    40
1040
4.0
1070
   147
1040
0.5
1002
}
  0
DIMENSION
  5
3A1D
  8
AM_5
  2
*D18
 10
133.4202238271487
 20
258.37699041611683
 30
0.0
 11
133.8586808739833
 21
241.57450008125721
 31
0.0
 70
   128
 13
148.87265151939911
 23
252.47699041611671
 33
0.0
 14
152.62265151939911
 24
258.37699041611683
 34
0.0
 50
90.0
1001
ACAD
1000
DSTYLE
1002
{
1070
   287
1070
     4
1070
   279
1070
     1
1070
    40
1040
4.0
1070
    41
1040
1.5
1070
   140
1040
3.0
1070
   147
1040
0.5
1002
}
  0
DIMENSION
  5
3A4B
  8
AM_5
  2
*D19
 10
133.42022382714859
 20
258.37699041611683
 30
0.0
 11
125.41904272478629
 21
296.47699041611691
 31
0.0
 70
     0
 13
152.62265151939911
 23
334.57699041611681
 33
0.0
 14
152.62265151939911
 24
258.37699041611683
 34
0.0
 50
90.0
1001
ACAD
1000
DSTYLE
1002
{
1070
    40
1040
4.0
1070
    41
1040
1.5
1070
   140
1040
3.0
1070
   147
1040
0.5
1002
}
  0
DIMENSION
  5
3A81
  8
AM_5
  2
*D20
 10
133.4202238271487
 20
334.57699041611681
 30
0.0
 11
132.2993298628698
 21
352.46189899424098
 31
0.0
 70
   128
 13
148.87265151939911
 23
340.47699041611662
 33
0.0
 14
152.62265151939911
 24
334.57699041611681
 34
0.0
 50
90.0
1001
ACAD
1000
DSTYLE
1002
{
1070
   287
1070
     4
1070
    40
1040
4.0
1070
    41
1040
1.5
1070
   140
1040
3.0
1070
   147
1040
0.5
1070
   279
1070
     1
1002
}
  0
DIMENSION
  5
3AC9
  8
AM_5
  2
*D21
 10
112.34854874709031
 20
340.47699041611679
 30
0.0
 11
104.34854874709021
 21
296.47699041611668
 31
0.0
 70
     0
 13
148.87265151939911
 23
252.47699041611671
 33
0.0
 14
148.87265151939911
 24
340.47699041611668
 34
0.0
 50
90.0
1001
ACAD
1000
DSTYLE
1002
{
1070
    40
1040
4.0
1070
    41
1040
1.5
1070
   140
1040
3.0
1070
   147
1040
0.5
1002
}
  0
DIMENSION
  5
3CD2
  8
AM_5
  2
*D22
 10
169.6726515193991
 20
204.47699041611659
 30
0.0
 11
120.8182345221107
 21
199.4533307536912
 31
0.0
 70
   128
 13
146.87265151939911
 23
254.47699041611671
 33
0.0
 14
169.6726515193991
 24
252.47699041611671
 34
0.0
1001
ACAD
1000
DSTYLE
1002
{
1070
   287
1070
     4
1070
    40
1040
4.0
1070
    41
1040
1.5
1070
   140
1040
3.0
1070
   147
1040
0.5
1070
   279
1070
     1
1002
}
  0
DIMENSION
  5
3D00
  8
AM_5
  2
*D23
 10
170.6726515193991
 20
204.47699041611659
 30
0.0
 11
179.73605890332919
 21
204.2346776758213
 31
0.0
 70
   128
 13
169.6726515193991
 23
252.47699041611671
 33
0.0
 14
170.6726515193991
 24
252.97699041611671
 34
0.0
1001
ACAD
1000
DSTYLE
1002
{
1070
   287
1070
     4
1070
    40
1040
4.0
1070
    41
1040
1.5
1070
   140
1040
3.0
1070
   147
1040
0.5
1070
   279
1070
     1
1002
}
  0
DIMENSION
  5
3D36
  8
AM_5
  2
*D24
 10
605.67265151939921
 20
204.4769904161171
 30
0.0
 11
388.1726515193991
 21
212.4769904161171
 31
0.0
 70
     0
 13
170.6726515193991
 23
252.97699041611671
 33
0.0
 14
605.67265151939921
 24
252.97699041611671
 34
0.0
1001
ACAD
1000
DSTYLE
1002
{
1070
   287
1070
     4
1070
    40
1040
4.0
1070
    41
1040
1.5
1070
   140
1040
3.0
1070
   147
1040
0.5
1070
   279
1070
     1
1002
}
  0
DIMENSION
  5
3D52
  8
AM_5
  2
*D25
 10
606.67265151939887
 20
204.4769904161177
 30
0.0
 11
595.33417690098793
 21
204.19564987973899
 31
0.0
 70
   128
 13
605.67265151939898
 23
252.97699041611671
 33
0.0
 14
606.67265151939887
 24
252.47699041611671
 34
0.0
1001
ACAD
1000
DSTYLE
1002
{
1070
   287
1070
     4
1070
    40
1040
4.0
1070
    41
1040
1.5
1070
   140
1040
3.0
1070
   147
1040
0.5
1070
   279
1070
     1
1002
}
  0
DIMENSION
  5
3D72
  8
AM_5
  2
*D26
 10
629.47265151939905
 20
204.4769904161177
 30
0.0
 11
655.87377531291941
 21
202.6824616920749
 31
0.0
 70
   128
 13
606.6726515193991
 23
252.47699041611671
 33
0.0
 14
629.47265151939905
 24
254.47699041611671
 34
0.0
1001
ACAD
1000
DSTYLE
1002
{
1070
   287
1070
     4
1070
    40
1040
4.0
1070
    41
1040
1.5
1070
   140
1040
3.0
1070
   147
1040
0.5
1070
   279
1070
     1
1002
}
  0
DIMENSION
  5
3E2C
  8
AM_5
  2
*D27
 10
154.87265151939911
 20
223.24265158205429
 30
0.0
 11
159.1691600543549
 21
223.03601488901859
 31
0.0
 70
   128
 13
146.87265151939911
 23
254.47699041611671
 33
0.0
 14
154.87265151939911
 24
255.3269904161167
 34
0.0
1001
ACAD
1000
DSTYLE
1002
{
1070
   287
1070
     4
1070
    40
1040
4.0
1070
    41
1040
1.5
1070
   140
1040
3.0
1070
   147
1040
0.5
1070
   279
1070
     1
1002
}
  0
DIMENSION
  5
3E73
  8
AM_5
  2
*D28
 10
152.6226515193988
 20
258.57699041611642
 30
0.0
 11
241.11581003277419
 21
225.2358527520544
 31
0.0
 70
   132
  1
4-6.5×11長穴
 15
155.13411024035821
 25
256.51420707971931
 35
0.0
 40
0.0
1001
ACAD
1000
DSTYLE
1002
{
1070
   140
1040
3.0
1070
    40
1040
4.0
1070
   147
1040
0.5
1002
}
  0
DIMENSION
  5
3FE1
  8
AM_5
  2
*D29
 10
667.88835261117447
 20
396.78925180467007
 30
0.0
 11
659.88717150881212
 21
521.78925180467024
 31
0.0
 70
     0
 13
741.44888519225799
 23
646.78925180467024
 33
0.0
 14
701.89237200464356
 24
396.78925180467007
 34
0.0
 50
90.0
1001
ACAD
1000
DSTYLE
1002
{
1070
    40
1040
4.0
1070
    41
1040
1.5
1070
   140
1040
3.0
1070
   147
1040
0.5
1002
}
  0
DIMENSION
  5
3FFC
  8
AM_5
  2
*D30
 10
855.8923730046439
 20
747.78925180467002
 30
0.0
 11
847.89237300464367
 21
572.28925180467024
 31
0.0
 70
     0
 13
789.89237200464356
 23
396.78925180467007
 33
0.0
 14
789.89237200468938
 24
747.78925180467002
 34
0.0
 50
90.0
1001
ACAD
1000
DSTYLE
1002
{
1070
    40
1040
4.0
1070
    41
1040
1.5
1070
   140
1040
3.0
1070
   147
1040
0.5
1002
}
  0
DIMENSION
  5
3FFD
  8
AM_5
  2
*D31
 10
825.89237300464379
 20
773.78925180467002
 30
0.0
 11
817.89119190228121
 21
760.78925180467024
 31
0.0
 70
     0
 13
789.89237200468938
 23
747.78925180467002
 33
0.0
 14
787.39237200464379
 24
773.78925180467002
 34
0.0
 50
90.0
1001
ACAD
1000
DSTYLE
1002
{
1070
    40
1040
4.0
1070
    41
1040
1.5
1070
   140
1040
3.0
1070
   147
1040
0.5
1002
}
  0
DIMENSION
  5
3FFE
  8
AM_5
  2
*D32
 10
885.89237300464481
 20
773.78925180467002
 30
0.0
 11
877.8923730046447
 21
585.28925180467024
 31
0.0
 70
     0
 13
789.89237200464356
 23
396.78925180467007
 33
0.0
 14
787.39237200464379
 24
773.78925180467002
 34
0.0
 50
90.0
1001
ACAD
1000
DSTYLE
1002
{
1070
    40
1040
4.0
1070
    41
1040
1.5
1070
   140
1040
3.0
1070
   147
1040
0.5
1002
}
  0
DIMENSION
  5
3FFF
  8
AM_5
  2
*D33
 10
825.89237300464515
 20
435.3892518046701
 30
0.0
 11
817.89237300464515
 21
416.0892518046702
 31
0.0
 70
     0
 13
789.89237200464356
 23
396.78925180467007
 33
0.0
 14
767.89237200464356
 24
435.3892518046701
 34
0.0
 50
90.0
1001
ACAD
1000
DSTYLE
1002
{
1070
    40
1040
4.0
1070
    41
1040
1.5
1070
   140
1040
3.0
1070
   147
1040
0.5
1002
}
  0
DIMENSION
  5
4000
  8
AM_5
  2
*D34
 10
825.89237300464515
 20
533.7892518046699
 30
0.0
 11
817.89237300464515
 21
484.5892518046702
 31
0.0
 70
     0
 13
767.89237200464356
 23
435.38925180467021
 33
0.0
 14
767.89237200464356
 24
533.78925180467013
 34
0.0
 50
90.0
1001
ACAD
1000
DSTYLE
1002
{
1070
    40
1040
4.0
1070
    41
1040
1.5
1070
   140
1040
3.0
1070
   147
1040
0.5
1002
}
  0
DIMENSION
  5
4001
  8
AM_5
  2
*D35
 10
825.89237300464492
 20
622.68925180466999
 30
0.0
 11
817.8923730046447
 21
578.23925180467029
 31
0.0
 70
     0
 13
767.89237200464356
 23
533.78925180467013
 33
0.0
 14
767.89237200464356
 24
622.68925180467022
 34
0.0
 50
90.0
1001
ACAD
1000
DSTYLE
1002
{
1070
    40
1040
4.0
1070
    41
1040
1.5
1070
   140
1040
3.0
1070
   147
1040
0.5
1002
}
  0
DIMENSION
  5
4002
  8
AM_5
  2
*D36
 10
825.8923730046447
 20
646.78925180467002
 30
0.0
 11
817.89119190228246
 21
666.9416140093947
 31
0.0
 70
     0
 13
767.89237200464356
 23
622.68925180467022
 33
0.0
 14
789.89237200464356
 24
646.78925180467002
 34
0.0
 50
90.0
1001
ACAD
1000
DSTYLE
1002
{
1070
    40
1040
4.0
1070
    41
1040
1.5
1070
   140
1040
3.0
1070
   147
1040
0.5
1002
}
  0
DIMENSION
  5
4003
  8
AM_5
  2
*D37
 10
789.89237200464356
 20
682.78925180467002
 30
0.0
 11
778.33515802858108
 21
682.78925180467002
 31
0.0
 70
   128
 13
767.89237200464356
 23
622.68925180467022
 33
0.0
 14
789.89237200464356
 24
646.78925180467002
 34
0.0
 50
180.0
1001
ACAD
1000
DSTYLE
1002
{
1070
    40
1040
4.0
1070
    41
1040
1.5
1070
   140
1040
3.0
1070
   147
1040
0.5
1002
}
  0
DIMENSION
  5
4004
  8
AM_5
  2
*D38
 10
825.8923720046439
 20
121.78925180467
 30
0.0
 11
817.89119090228166
 21
259.28925180467019
 31
0.0
 70
     0
  1
トラベル<>
 13
789.89237200464356
 23
396.78925180467007
 33
0.0
 14
788.39237200464356
 24
121.78925180467
 34
0.0
 50
90.0
1001
ACAD
1000
DSTYLE
1002
{
1070
    40
1040
4.0
1070
    41
1040
1.5
1070
   140
1040
3.0
1070
   147
1040
0.5
1002
}
  0
INSERT
  5
4194
  8
AM_12
  2
*S69
 10
0.0
 20
0.0
 30
0.0
  0
INSERT
  5
4195
  8
AM_12
  2
*S70
 10
0.0
 20
0.0
 30
0.0
  0
INSERT
  5
4196
  8
AM_12
  2
*S71
 10
0.0
 20
0.0
 30
0.0
  0
INSERT
  5
419E
  8
0
  2
*S72
 10
0.0
 20
0.0
 30
0.0
  0
INSERT
  5
44E8
  8
AM_12
  2
*S73
 10
0.0
 20
0.0
 30
0.0
  0
INSERT
  5
4768
  8
AM_5
  2
*S74
 10
0.0
 20
0.0
 30
0.0
  0
INSERT
  5
4769
  8
AM_5
  2
*S75
 10
0.0
 20
0.0
 30
0.0
  0
INSERT
  5
476A
  8
AM_5
  2
*S76
 10
0.0
 20
0.0
 30
0.0
  0
INSERT
  5
476B
  8
AM_5
  2
*S77
 10
0.0
 20
0.0
 30
0.0
  0
INSERT
  5
4782
  8
AM_6
  2
*U123
 10
0.0
 20
0.0
 30
0.0
  0
INSERT
  5
4784
  8
AM_6
  2
*U124
 10
0.0
 20
0.0
 30
0.0
  0
INSERT
  5
478F
  8
AM_6
  2
*U125
 10
0.0
 20
0.0
 30
0.0
  0
LINE
  5
4D67
  8
ﾃ_ﾌ_ﾙ
 10
605.67265151939898
 20
949.13799868621118
 30
0.0
 11
170.6726515193991
 21
949.13799868621118
 31
0.0
  0
LINE
  5
4D68
  8
ﾃ_ﾌ_ﾙ
 10
605.67265151939898
 20
949.13799868621118
 30
0.0
 11
605.67265151939898
 21
951.53799868621115
 31
0.0
  0
LINE
  5
4D69
  8
ﾃ_ﾌ_ﾙ
 10
605.67265151939898
 20
990.7379986862112
 30
0.0
 11
605.67265151939898
 21
992.13799868621106
 31
0.0
  0
LINE
  5
4D6A
  8
ﾃ_ﾌ_ﾙ0
 10
170.6726515193991
 20
950.13799868621118
 30
0.0
 11
597.17265151939898
 21
950.13799868621118
 31
0.0
  0
LINE
  5
4D6B
  8
ﾃ_ﾌ_ﾙ
 10
597.17265151939898
 20
991.13799868621118
 30
0.0
 11
597.17265151939898
 21
990.73799868621165
 31
0.0
  0
LINE
  5
4D6C
  8
ﾃ_ﾌ_ﾙ
 10
597.17265151939898
 20
951.53799868621115
 30
0.0
 11
597.17265151939898
 21
950.13799868621129
 31
0.0
  0
ARC
  5
4D6D
  8
ﾃ_ﾌ_ﾙ0
 10
596.1726515193991
 20
951.13799868621106
 30
0.0
 40
1.0
 50
270.0
 51
0.0
1001
GENIUS_GENOBJ-N-FIL_13
1002
{
1000
OWNER
1000
GEN
1002
}
1001
GENIUS_GENODEF_13
1002
{
1000
HIER
1070
     0
1002
}
1002
{
1000
MANEDIT
1070
     0
1002
}
1002
{
1000
NOSEL
1070
     0
1002
}
1002
{
1000
BEHIND
1070
     0
1002
}
1002
{
1000
OTHER
1070
     0
1002
}
1002
{
1000
REACTOR
1002
}
  0
LINE
  5
4D6E
  8
ﾃ_ﾌ_ﾙ0
 10
577.0726515193993
 20
950.13799868621118
 30
0.0
 11
577.0726515193993
 21
951.13799868621106
 31
0.0
  0
LINE
  5
4D6F
  8
ﾃ_ﾌ_ﾙ0
 10
577.0726515193993
 20
951.13799868621106
 30
0.0
 11
596.1726515193991
 21
951.13799868621106
 31
0.0
  0
LINE
  5
4D70
  8
ﾃ_ﾌ_ﾙ0
 10
596.1726515193991
 20
951.13799868621106
 30
0.0
 11
596.1726515193991
 21
951.53799868621115
 31
0.0
  0
LINE
  5
4D71
  8
ﾃ_ﾌ_ﾙ0
 10
596.17265151939955
 20
990.73799868621165
 30
0.0
 11
596.17265151939955
 21
991.13799868621118
 31
0.0
  0
LINE
  5
4D72
  8
ﾃ_ﾌ_ﾙ
 10
170.6726515193991
 20
992.13799868621106
 30
0.0
 11
605.67265151939898
 21
992.13799868621106
 31
0.0
  0
ARC
  5
4D73
  8
ﾃ_ﾌ_ﾙ0
 10
597.17265151939955
 20
991.13799868621118
 30
0.0
 40
1.0
 50
90.0
 51
180.0
1001
GENIUS_GENOBJ-N-FIL_13
1002
{
1000
OWNER
1000
GEN
1002
}
1001
GENIUS_GENODEF_13
1002
{
1000
HIER
1070
     0
1002
}
1002
{
1000
MANEDIT
1070
     0
1002
}
1002
{
1000
NOSEL
1070
     0
1002
}
1002
{
1000
BEHIND
1070
     0
1002
}
1002
{
1000
OTHER
1070
     0
1002
}
1002
{
1000
REACTOR
1002
}
  0
LINE
  5
4D74
  8
ﾃ_ﾌ_ﾙ
 10
604.6726515193991
 20
950.13799868621118
 30
0.0
 11
604.67265151939898
 21
951.53799868621115
 31
0.0
  0
LINE
  5
4D75
  8
ﾃ_ﾌ_ﾙ
 10
604.67265151939898
 20
990.73799868621143
 30
0.0
 11
604.6726515193991
 21
991.13799868621118
 31
0.0
  0
LINE
  5
4D76
  8
ﾃ_ﾌ_ﾙ
 10
597.17265151939955
 20
991.13799868621118
 30
0.0
 11
605.67265151939921
 21
991.13799868621129
 31
0.0
  0
LINE
  5
4D77
  8
ﾃ_ﾌ_ﾙ
 10
597.17265151939898
 20
950.13799868621118
 30
0.0
 11
605.67265151939921
 21
950.13799868621129
 31
0.0
  0
LINE
  5
4D78
  8
ﾃ_ﾌ_ﾙ
 10
170.6726515193991
 20
949.13799868621118
 30
0.0
 11
170.6726515193991
 21
951.53799868621115
 31
0.0
  0
LINE
  5
4D79
  8
ﾃ_ﾌ_ﾙ
 10
170.6726515193991
 20
990.7379986862112
 30
0.0
 11
170.6726515193991
 21
992.13799868621106
 31
0.0
  0
LINE
  5
4D7A
  8
ﾃ_ﾌ_ﾙ
 10
179.1726515193991
 20
991.13799868621118
 30
0.0
 11
179.1726515193991
 21
990.73799868621165
 31
0.0
  0
LINE
  5
4D7B
  8
ﾃ_ﾌ_ﾙ
 10
179.1726515193991
 20
951.53799868621115
 30
0.0
 11
179.1726515193991
 21
950.13799868621129
 31
0.0
  0
ARC
  5
4D7C
  8
ﾃ_ﾌ_ﾙ0
 10
180.1726515193991
 20
951.13799868621106
 30
0.0
 40
1.0
 50
180.0
 51
270.0
1001
GENIUS_GENOBJ-N-FIL_13
1002
{
1000
OWNER
1000
GEN
1002
}
1001
GENIUS_GENODEF_13
1002
{
1000
HIER
1070
     0
1002
}
1002
{
1000
MANEDIT
1070
     0
1002
}
1002
{
1000
NOSEL
1070
     0
1002
}
1002
{
1000
BEHIND
1070
     0
1002
}
1002
{
1000
OTHER
1070
     0
1002
}
1002
{
1000
REACTOR
1002
}
  0
LINE
  5
4D7D
  8
ﾃ_ﾌ_ﾙ0
 10
199.27265151939889
 20
950.13799868621118
 30
0.0
 11
199.27265151939889
 21
951.13799868621106
 31
0.0
  0
LINE
  5
4D7E
  8
ﾃ_ﾌ_ﾙ0
 10
199.27265151939889
 20
951.13799868621106
 30
0.0
 11
180.17265151939901
 21
951.13799868621106
 31
0.0
  0
LINE
  5
4D7F
  8
ﾃ_ﾌ_ﾙ0
 10
180.17265151939901
 20
951.13799868621106
 30
0.0
 11
180.17265151939901
 21
951.53799868621115
 31
0.0
  0
LINE
  5
4D80
  8
ﾃ_ﾌ_ﾙ0
 10
180.17265151939861
 20
990.73799868621165
 30
0.0
 11
180.17265151939861
 21
991.13799868621118
 31
0.0
  0
ARC
  5
4D81
  8
ﾃ_ﾌ_ﾙ0
 10
179.17265151939861
 20
991.13799868621118
 30
0.0
 40
1.0
 50
0.0
 51
90.0
1001
GENIUS_GENOBJ-N-FIL_13
1002
{
1000
OWNER
1000
GEN
1002
}
1001
GENIUS_GENODEF_13
1002
{
1000
HIER
1070
     0
1002
}
1002
{
1000
MANEDIT
1070
     0
1002
}
1002
{
1000
NOSEL
1070
     0
1002
}
1002
{
1000
BEHIND
1070
     0
1002
}
1002
{
1000
OTHER
1070
     0
1002
}
1002
{
1000
REACTOR
1002
}
  0
LINE
  5
4D82
  8
ﾃ_ﾌ_ﾙ
 10
171.6726515193991
 20
950.13799868621118
 30
0.0
 11
171.6726515193991
 21
951.53799868621115
 31
0.0
  0
LINE
  5
4D83
  8
ﾃ_ﾌ_ﾙ
 10
171.6726515193991
 20
990.73799868621143
 30
0.0
 11
171.6726515193991
 21
991.13799868621118
 31
0.0
  0
LINE
  5
4D84
  8
ﾃ_ﾌ_ﾙ
 10
179.17265151939861
 20
991.13799868621118
 30
0.0
 11
170.67265151939901
 21
991.13799868621129
 31
0.0
  0
LINE
  5
4D85
  8
ﾃ_ﾌ_ﾙ
 10
179.1726515193991
 20
950.13799868621118
 30
0.0
 11
170.67265151939901
 21
950.13799868621129
 31
0.0
  0
LINE
  5
4D86
  8
補強金具
 10
608.97265151939916
 20
953.13799868621106
 30
0.0
 11
608.97265151939916
 21
989.13799868621118
 31
0.0
  0
LINE
  5
4D87
  8
補強金具
 10
608.97265151939916
 20
953.13799868621106
 30
0.0
 11
606.17265151939898
 21
953.13799868621106
 31
0.0
  0
LINE
  5
4D88
  8
補強金具
 10
606.17265151939898
 20
953.13799868621106
 30
0.0
 11
170.1726515193991
 21
953.13799868621106
 31
0.0
  0
LINE
  5
4D89
  8
補強金具
 10
170.1726515193991
 20
953.13799868621106
 30
0.0
 11
167.37265151939911
 21
953.13799868621106
 31
0.0
  0
LINE
  5
4D8A
  8
補強金具
 10
608.97265151939916
 20
989.13799868621118
 30
0.0
 11
606.17265151939898
 21
989.13799868621118
 31
0.0
  0
LINE
  5
4D8B
  8
補強金具
 10
606.17265151939898
 20
989.13799868621118
 30
0.0
 11
170.1726515193991
 21
989.13799868621118
 31
0.0
  0
LINE
  5
4D8C
  8
補強金具
 10
170.1726515193991
 20
989.13799868621118
 30
0.0
 11
167.37265151939911
 21
989.13799868621118
 31
0.0
  0
LINE
  5
4D8D
  8
補強金具
 10
606.17265151939898
 20
990.7379986862112
 30
0.0
 11
170.1726515193991
 21
990.7379986862112
 31
0.0
  0
LINE
  5
4D8E
  8
補強金具
 10
606.17265151939898
 20
951.53799868621115
 30
0.0
 11
170.1726515193991
 21
951.53799868621115
 31
0.0
  0
LINE
  5
4D8F
  8
補強金具
 10
167.37265151939911
 20
989.13799868621118
 30
0.0
 11
167.37265151939911
 21
953.13799868621106
 31
0.0
  0
LINE
  5
4D90
  8
補強金具0
 10
168.97265151939931
 20
989.13799868621118
 30
0.0
 11
168.97265151939931
 21
953.13799868621106
 31
0.0
  0
LINE
  5
4D91
  8
補強金具
 10
170.1726515193991
 20
990.7379986862112
 30
0.0
 11
170.1726515193991
 21
989.13799868621118
 31
0.0
  0
LINE
  5
4D92
  8
補強金具
 10
170.1726515193991
 20
953.13799868621106
 30
0.0
 11
170.1726515193991
 21
951.53799868621115
 31
0.0
  0
LINE
  5
4D93
  8
補強金具0
 10
607.37265151939926
 20
953.13799868621106
 30
0.0
 11
607.37265151939926
 21
989.13799868621118
 31
0.0
  0
LINE
  5
4D94
  8
補強金具
 10
606.17265151939898
 20
951.53799868621115
 30
0.0
 11
606.17265151939898
 21
953.13799868621106
 31
0.0
  0
LINE
  5
4D95
  8
補強金具
 10
606.17265151939898
 20
989.13799868621118
 30
0.0
 11
606.17265151939898
 21
990.7379986862112
 31
0.0
  0
CIRCLE
  5
4D96
  8
補強金具0
 10
380.1726515193991
 20
971.13799868621106
 30
0.0
 40
1.5
  0
CIRCLE
  5
4D97
  8
補強金具
 10
380.1726515193991
 20
971.13799868621106
 30
0.0
 40
1.3
  0
CIRCLE
  5
4D98
  8
補強金具0
 10
396.1726515193991
 20
971.13799868621106
 30
0.0
 40
1.5
  0
CIRCLE
  5
4D99
  8
補強金具
 10
396.1726515193991
 20
971.13799868621106
 30
0.0
 40
1.3
  0
LINE
  5
4DC1
  8
左側板
 10
146.872651519399
 20
906.63799868621106
 30
0.0
 11
146.87265151939911
 21
990.63799868621106
 31
0.0
  0
LINE
  5
4DC2
  8
左側板
 10
148.87265151939911
 20
992.63799868621118
 30
0.0
 11
169.6726515193991
 21
992.63799868621118
 31
0.0
  0
ARC
  5
4DC3
  8
左側板
 10
148.87265151939911
 20
990.63799868621106
 30
0.0
 40
2.0
 50
90.0
 51
180.0
1001
GENIUS_GENODEF_13
1002
{
1000
HIER
1070
     0
1002
}
1002
{
1000
MANEDIT
1070
     0
1002
}
1002
{
1000
NOSEL
1070
     0
1002
}
1002
{
1000
BEHIND
1070
     0
1002
}
1002
{
1000
OTHER
1070
     0
1002
}
1002
{
1000
REACTOR
1002
}
1001
GENIUS_GENOBJ-N-FIL_13
1002
{
1000
OWNER
1000
GEN
1002
}
  0
LINE
  5
4DC4
  8
左側板
 10
169.6726515193991
 20
992.63799868621118
 30
0.0
 11
169.6726515193991
 21
989.13799868621118
 31
0.0
  0
LINE
  5
4DC5
  8
左側板
 10
169.6726515193991
 20
904.63799868621106
 30
0.0
 11
148.87265151939911
 21
904.63799868621106
 31
0.0
  0
ARC
  5
4DC6
  8
左側板
 10
148.87265151939911
 20
906.63799868621106
 30
0.0
 40
2.0
 50
180.0
 51
270.0
1001
GENIUS_GENOBJ-N-FIL_13
1002
{
1000
OWNER
1000
GEN
1002
}
1001
GENIUS_GENODEF_13
1002
{
1000
HIER
1070
     0
1002
}
1002
{
1000
MANEDIT
1070
     0
1002
}
1002
{
1000
NOSEL
1070
     0
1002
}
1002
{
1000
BEHIND
1070
     0
1002
}
1002
{
1000
OTHER
1070
     0
1002
}
1002
{
1000
REACTOR
1002
}
  0
LINE
  5
4DC7
  8
左側板
 10
167.37265151939911
 20
904.63799868621106
 30
0.0
 11
167.37265151939911
 21
992.63799868621118
 31
0.0
  0
LINE
  5
4DCC
  8
左側板
 10
152.62265151939911
 20
907.28799868621115
 30
0.0
 11
157.12265151939911
 21
907.28799868621104
 31
0.0
1001
GENIUS_GENODEF_13
1002
{
1000
HIER
1070
     0
1002
}
1002
{
1000
MANEDIT
1070
     0
1002
}
1002
{
1000
NOSEL
1070
     0
1002
}
1002
{
1000
BEHIND
1070
     0
1002
}
1002
{
1000
OTHER
1070
     0
1002
}
1002
{
1000
REACTOR
1002
}
1001
GENIUS_GENOBJ-N-CEN_13
1002
{
1000
OWNER
1000
GEN
1002
}
1001
GENIUS_GENCEN_19
1002
{
1040
6.0
1002
}
  0
LINE
  5
4DCD
  8
左側板
 10
152.62265151939911
 20
913.78799868621104
 30
0.0
 11
157.12265151939911
 21
913.78799868621104
 31
0.0
1001
GENIUS_GENODEF_13
1002
{
1000
HIER
1070
     0
1002
}
1002
{
1000
MANEDIT
1070
     0
1002
}
1002
{
1000
NOSEL
1070
     0
1002
}
1002
{
1000
BEHIND
1070
     0
1002
}
1002
{
1000
OTHER
1070
     0
1002
}
1002
{
1000
REACTOR
1002
}
1001
GENIUS_GENOBJ-N-CEN_13
1002
{
1000
OWNER
1000
GEN
1002
}
1001
GENIUS_GENCEN_19
1002
{
1040
6.0
1002
}
  0
ARC
  5
4DCE
  8
左側板
 10
157.12265151939911
 20
910.53799868621115
 30
0.0
 40
3.2499999999999432
 50
270.0
 51
90.0
  0
ARC
  5
4DCF
  8
左側板
 10
152.62265151939911
 20
910.53799868621115
 30
0.0
 40
3.2499999999999432
 50
90.0
 51
270.0
  0
LINE
  5
4DD0
  8
左側板
 10
152.62265151939911
 20
989.98799868621097
 30
0.0
 11
157.12265151939911
 21
989.98799868621097
 31
0.0
1001
GENIUS_GENODEF_13
1002
{
1000
HIER
1070
     0
1002
}
1002
{
1000
MANEDIT
1070
     0
1002
}
1002
{
1000
NOSEL
1070
     0
1002
}
1002
{
1000
BEHIND
1070
     0
1002
}
1002
{
1000
OTHER
1070
     0
1002
}
1002
{
1000
REACTOR
1002
}
1001
GENIUS_GENOBJ-N-CEN_13
1002
{
1000
OWNER
1000
GEN
1002
}
1001
GENIUS_GENCEN_19
1002
{
1040
6.0
1002
}
  0
LINE
  5
4DD1
  8
左側板
 10
152.62265151939911
 20
983.48799868621109
 30
0.0
 11
157.12265151939911
 21
983.48799868621109
 31
0.0
1001
GENIUS_GENODEF_13
1002
{
1000
HIER
1070
     0
1002
}
1002
{
1000
MANEDIT
1070
     0
1002
}
1002
{
1000
NOSEL
1070
     0
1002
}
1002
{
1000
BEHIND
1070
     0
1002
}
1002
{
1000
OTHER
1070
     0
1002
}
1002
{
1000
REACTOR
1002
}
1001
GENIUS_GENOBJ-N-CEN_13
1002
{
1000
OWNER
1000
GEN
1002
}
1001
GENIUS_GENCEN_19
1002
{
1040
6.0
1002
}
  0
ARC
  5
4DD2
  8
左側板
 10
157.12265151939911
 20
986.73799868621109
 30
0.0
 40
3.2499999999999432
 50
270.0
 51
90.0
  0
ARC
  5
4DD3
  8
左側板
 10
152.62265151939911
 20
986.73799868621109
 30
0.0
 40
3.2499999999999432
 50
90.0
 51
270.0
  0
LINE
  5
4DD4
  8
右側板
 10
629.47265151939905
 20
906.63799868621106
 30
0.0
 11
629.47265151939905
 21
990.63799868621106
 31
0.0
  0
LINE
  5
4DD5
  8
右側板
 10
627.47265151939905
 20
992.63799868621118
 30
0.0
 11
606.6726515193991
 21
992.63799868621118
 31
0.0
  0
ARC
  5
4DD6
  8
右側板
 10
627.47265151939905
 20
990.63799868621106
 30
0.0
 40
2.0
 50
0.0
 51
90.0
1001
GENIUS_GENODEF_13
1002
{
1000
HIER
1070
     0
1002
}
1002
{
1000
MANEDIT
1070
     0
1002
}
1002
{
1000
NOSEL
1070
     0
1002
}
1002
{
1000
BEHIND
1070
     0
1002
}
1002
{
1000
OTHER
1070
     0
1002
}
1002
{
1000
REACTOR
1002
}
1001
GENIUS_GENOBJ-N-FIL_13
1002
{
1000
OWNER
1000
GEN
1002
}
  0
LINE
  5
4DD7
  8
右側板
 10
606.6726515193991
 20
992.63799868621118
 30
0.0
 11
606.6726515193991
 21
989.13799868621095
 31
0.0
  0
LINE
  5
4DD8
  8
右側板
 10
606.6726515193991
 20
904.63799868621106
 30
0.0
 11
627.47265151939905
 21
904.63799868621106
 31
0.0
  0
ARC
  5
4DD9
  8
右側板
 10
627.47265151939905
 20
906.63799868621106
 30
0.0
 40
2.0
 50
270.0
 51
0.0
1001
GENIUS_GENOBJ-N-FIL_13
1002
{
1000
OWNER
1000
GEN
1002
}
1001
GENIUS_GENODEF_13
1002
{
1000
HIER
1070
     0
1002
}
1002
{
1000
MANEDIT
1070
     0
1002
}
1002
{
1000
NOSEL
1070
     0
1002
}
1002
{
1000
BEHIND
1070
     0
1002
}
1002
{
1000
OTHER
1070
     0
1002
}
1002
{
1000
REACTOR
1002
}
  0
LINE
  5
4DDA
  8
右側板
 10
608.97265151939905
 20
904.63799868621106
 30
0.0
 11
608.97265151939905
 21
992.63799868621118
 31
0.0
  0
LINE
  5
4DDF
  8
右側板
 10
619.22265151939905
 20
907.28799868621115
 30
0.0
 11
623.72265151939905
 21
907.28799868621104
 31
0.0
1001
GENIUS_GENODEF_13
1002
{
1000
HIER
1070
     0
1002
}
1002
{
1000
MANEDIT
1070
     0
1002
}
1002
{
1000
NOSEL
1070
     0
1002
}
1002
{
1000
BEHIND
1070
     0
1002
}
1002
{
1000
OTHER
1070
     0
1002
}
1002
{
1000
REACTOR
1002
}
1001
GENIUS_GENOBJ-N-CEN_13
1002
{
1000
OWNER
1000
GEN
1002
}
1001
GENIUS_GENCEN_19
1002
{
1040
6.0
1002
}
  0
LINE
  5
4DE0
  8
右側板
 10
619.22265151939905
 20
913.78799868621104
 30
0.0
 11
623.72265151939905
 21
913.78799868621104
 31
0.0
1001
GENIUS_GENODEF_13
1002
{
1000
HIER
1070
     0
1002
}
1002
{
1000
MANEDIT
1070
     0
1002
}
1002
{
1000
NOSEL
1070
     0
1002
}
1002
{
1000
BEHIND
1070
     0
1002
}
1002
{
1000
OTHER
1070
     0
1002
}
1002
{
1000
REACTOR
1002
}
1001
GENIUS_GENOBJ-N-CEN_13
1002
{
1000
OWNER
1000
GEN
1002
}
1001
GENIUS_GENCEN_19
1002
{
1040
6.0
1002
}
  0
ARC
  5
4DE1
  8
右側板
 10
623.72265151939905
 20
910.53799868621115
 30
0.0
 40
3.2499999999999432
 50
270.0
 51
90.0
  0
ARC
  5
4DE2
  8
右側板
 10
619.22265151939905
 20
910.53799868621115
 30
0.0
 40
3.2499999999999432
 50
90.0
 51
270.0
  0
LINE
  5
4DE3
  8
右側板
 10
619.22265151939905
 20
983.4879986862112
 30
0.0
 11
623.72265151939916
 21
983.4879986862112
 31
0.0
1001
GENIUS_GENODEF_13
1002
{
1000
HIER
1070
     0
1002
}
1002
{
1000
MANEDIT
1070
     0
1002
}
1002
{
1000
NOSEL
1070
     0
1002
}
1002
{
1000
BEHIND
1070
     0
1002
}
1002
{
1000
OTHER
1070
     0
1002
}
1002
{
1000
REACTOR
1002
}
1001
GENIUS_GENOBJ-N-CEN_13
1002
{
1000
OWNER
1000
GEN
1002
}
1001
GENIUS_GENCEN_19
1002
{
1040
6.0
1002
}
  0
LINE
  5
4DE4
  8
右側板
 10
619.22265151939905
 20
989.98799868621143
 30
0.0
 11
623.72265151939916
 21
989.98799868621143
 31
0.0
1001
GENIUS_GENODEF_13
1002
{
1000
HIER
1070
     0
1002
}
1002
{
1000
MANEDIT
1070
     0
1002
}
1002
{
1000
NOSEL
1070
     0
1002
}
1002
{
1000
BEHIND
1070
     0
1002
}
1002
{
1000
OTHER
1070
     0
1002
}
1002
{
1000
REACTOR
1002
}
1001
GENIUS_GENOBJ-N-CEN_13
1002
{
1000
OWNER
1000
GEN
1002
}
1001
GENIUS_GENCEN_19
1002
{
1040
6.0
1002
}
  0
ARC
  5
4DE5
  8
右側板
 10
623.72265151939916
 20
986.73799868621131
 30
0.0
 40
3.2499999999999432
 50
270.0
 51
90.0
  0
ARC
  5
4DE6
  8
右側板
 10
619.22265151939905
 20
986.73799868621131
 30
0.0
 40
3.2499999999999432
 50
90.0
 51
270.0
  0
LINE
  5
4DE7
  8
右側板
 10
606.6726515193991
 20
953.13799868621106
 30
0.0
 11
606.6726515193991
 21
904.63799868621106
 31
0.0
  0
LINE
  5
4DE8
  8
左側板
 10
169.6726515193991
 20
953.13799868621106
 30
0.0
 11
169.6726515193991
 21
904.63799868621106
 31
0.0
  0
DIMENSION
  5
4E26
  8
AM_5
  2
*D45
 10
689.00568839541438
 20
496.7892518046703
 30
0.0
 11
681.00568839541427
 21
446.78925180467053
 31
0.0
 70
     0
 13
701.89237200464356
 23
396.78925180467041
 33
0.0
 14
701.89237200464356
 24
496.7892518046703
 34
0.0
 50
90.000000000000028
1001
ACAD
1000
DSTYLE
1002
{
1070
    40
1040
4.0
1070
    41
1040
1.5
1070
   140
1040
3.0
1070
   147
1040
0.5
1002
}
  0
DIMENSION
  5
4E4E
  8
AM_5
  2
*D46
 10
689.00568839541427
 20
496.7892518046703
 30
0.0
 11
681.00568839541415
 21
571.78925180467047
 31
0.0
 70
     0
 13
741.44888519225799
 23
646.78925180467024
 33
0.0
 14
701.89237200464345
 24
496.7892518046703
 34
0.0
 50
90.0
1001
ACAD
1000
DSTYLE
1002
{
1070
    40
1040
4.0
1070
    41
1040
1.5
1070
   140
1040
3.0
1070
   147
1040
0.5
1002
}
  0
CIRCLE
  5
4EBD
  8
補強金具
 10
52.288824119443682
 20
735.08902229187186
 30
0.0
 40
1.6000000000000001
  0
CIRCLE
  5
4EBE
  8
補強金具
 10
52.288824119443682
 20
747.78902229187167
 30
0.0
 40
1.6000000000000001
  0
ARC
  5
4EBF
  8
補強金具
 10
34.28882411944393
 20
765.38902229187215
 30
0.0
 40
1.6000000000000001
 50
180.0
 51
270.0
1001
GENIUS_GENODEF_13
1002
{
1000
HIER
1070
     0
1002
}
1002
{
1000
MANEDIT
1070
     0
1002
}
1002
{
1000
NOSEL
1070
     0
1002
}
1002
{
1000
BEHIND
1070
     0
1002
}
1002
{
1000
REACTOR
1002
}
1001
GENIUS_GENOBJ-N-FIL_13
1002
{
1000
OWNER
1000
GEN
1002
}
  0
ARC
  5
4EC0
  8
補強金具
 10
70.288824119443461
 20
765.38902229187215
 30
0.0
 40
1.6000000000000001
 50
270.0
 51
0.0
1001
GENIUS_GENODEF_13
1002
{
1000
HIER
1070
     0
1002
}
1002
{
1000
MANEDIT
1070
     0
1002
}
1002
{
1000
NOSEL
1070
     0
1002
}
1002
{
1000
BEHIND
1070
     0
1002
}
1002
{
1000
REACTOR
1002
}
1001
GENIUS_GENOBJ-N-FIL_13
1002
{
1000
OWNER
1000
GEN
1002
}
  0
LINE
  5
4EC1
  8
補強金具
 10
34.288824119443703
 20
773.78902229187179
 30
0.0
 11
32.688824119443566
 21
773.78902229187179
 31
0.0
  0
LINE
  5
4EC2
  8
補強金具
 10
71.888824119443825
 20
773.78902229187179
 30
0.0
 11
70.288824119443703
 21
773.78902229187179
 31
0.0
  0
LINE
  5
4EC3
  8
補強金具
 10
70.288824119443689
 20
765.38902229187215
 30
0.0
 11
34.288824119443703
 21
765.38902229187215
 31
0.0
  0
LINE
  5
4EC4
  8
補強金具0
 10
70.288824119443689
 20
763.88902229187215
 30
0.0
 11
34.288824119443703
 21
763.88902229187215
 31
0.0
  0
LINE
  5
4EC5
  8
補強金具
 10
71.888824119443825
 20
773.78902229187179
 30
0.0
 11
71.888824119443825
 21
765.38902229187215
 31
0.0
  0
LINE
  5
4EC6
  8
補強金具
 10
70.288824119443703
 20
773.78902229187179
 30
0.0
 11
70.288824119443689
 21
725.38902229187215
 31
0.0
  0
LINE
  5
4EC7
  8
補強金具
 10
34.288824119443703
 20
773.78902229187179
 30
0.0
 11
34.288824119443689
 21
725.38902229187215
 31
0.0
  0
LINE
  5
4EC8
  8
補強金具
 10
32.688824119443566
 20
773.78902229187179
 30
0.0
 11
32.688824119443559
 21
765.38902229187215
 31
0.0
  0
LINE
  5
4EC9
  8
補強金具
 10
70.288824119443689
 20
725.38902229187215
 30
0.0
 11
34.288824119443689
 21
725.38902229187215
 31
0.0
  0
CIRCLE
  5
4ECA
  8
補強金具0
 62
     5
 10
52.288824119443682
 20
735.08902229187186
 30
0.0
 40
2.0
  0
CIRCLE
  5
4ECB
  8
補強金具0
 62
     5
 10
52.288824119443682
 20
747.78902229187167
 30
0.0
 40
2.0
  0
LINE
  5
4ECC
  8
左側板
 10
79.232310931829304
 20
646.78925180467024
 30
0.0
 11
32.788824119443731
 21
646.78925180467024
 31
0.0
  0
ARC
  5
4ECD
  8
左側板
 10
79.232310931829304
 20
644.78925180467024
 30
0.0
 40
2.0
 50
14.21585347367686
 51
90.0
1001
GENIUS_GENODEF_13
1002
{
1000
HIER
1070
     0
1002
}
1002
{
1000
MANEDIT
1070
     0
1002
}
1002
{
1000
NOSEL
1070
     0
1002
}
1002
{
1000
BEHIND
1070
     0
1002
}
1002
{
1000
OTHER
1070
     0
1002
}
1002
{
1000
REACTOR
1002
}
1001
GENIUS_GENOBJ-N-FIL_13
1002
{
1000
OWNER
1000
GEN
1002
}
  0
LINE
  5
4ECE
  8
左側板
 10
30.788824119443731
 20
644.78925180467024
 30
0.0
 11
30.788824119443689
 21
396.78925180467019
 31
0.0
  0
ARC
  5
4ECF
  8
左側板
 10
32.788824119443731
 20
644.78925180467024
 30
0.0
 40
2.0
 50
90.0
 51
180.0
1001
GENIUS_GENOBJ-N-FIL_13
1002
{
1000
OWNER
1000
GEN
1002
}
1001
GENIUS_GENODEF_13
1002
{
1000
HIER
1070
     0
1002
}
1002
{
1000
MANEDIT
1070
     0
1002
}
1002
{
1000
NOSEL
1070
     0
1002
}
1002
{
1000
BEHIND
1070
     0
1002
}
1002
{
1000
OTHER
1070
     0
1002
}
1002
{
1000
REACTOR
1002
}
  0
LINE
  5
4ED0
  8
左側板
 10
30.788824119443689
 20
396.78925180467019
 30
0.0
 11
118.7888241194437
 21
396.78925180467019
 31
0.0
  0
LINE
  5
4ED1
  8
左側板0
 10
118.7888241194437
 20
399.08925180467031
 30
0.0
 11
30.788824119443689
 21
399.08925180467031
 31
0.0
  0
CIRCLE
  5
4ED2
  8
左側板
 10
52.788824119443731
 20
622.68925180467022
 30
0.0
 40
1.7
  0
CIRCLE
  5
4ED3
  8
左側板0
 10
52.788824119443731
 20
622.68925180467022
 30
0.0
 40
2.0
  0
CIRCLE
  5
4ED4
  8
左側板
 10
52.788824119443717
 20
533.78925180467024
 30
0.0
 40
1.7
  0
CIRCLE
  5
4ED5
  8
左側板0
 10
52.788824119443717
 20
533.78925180467024
 30
0.0
 40
2.0
  0
CIRCLE
  5
4ED6
  8
左側板
 10
52.788824119443689
 20
435.38925180467021
 30
0.0
 40
1.7
  0
CIRCLE
  5
4ED7
  8
左側板0
 10
52.788824119443689
 20
435.38925180467021
 30
0.0
 40
2.0
  0
LINE
  5
4ED8
  8
左側板0
 10
116.0888241194436
 20
399.08925180467031
 30
0.0
 11
116.0888241194436
 21
396.78925180467019
 31
0.0
  0
LINE
  5
4ED9
  8
左側板0
 10
109.68882411944379
 20
396.78925180467019
 30
0.0
 11
109.68882411944379
 21
399.0892518046702
 31
0.0
  0
LINE
  5
4EDA
  8
左側板0
 10
40.088824119443643
 20
399.08925180467031
 30
0.0
 11
40.088824119443643
 21
396.78925180467019
 31
0.0
  0
LINE
  5
4EDB
  8
左側板0
 10
33.68882411944378
 20
396.78925180467019
 30
0.0
 11
33.68882411944378
 21
399.0892518046702
 31
0.0
  0
LINE
  5
4EDC
  8
左側板
 10
118.7888241194437
 20
396.78925180467019
 30
0.0
 11
118.7888241194437
 21
496.78925180467019
 31
0.0
  0
LINE
  5
4EDD
  8
左側板
 10
118.7888241194437
 20
496.78925180467019
 30
0.0
 11
81.171065806592225
 21
645.28040303961018
 31
0.0
  0
LINE
  5
4F87
  8
補強金具
 10
952.12477783184045
 20
765.38902229187124
 30
0.0
 11
950.92477783184006
 21
765.38902229187124
 31
0.0
  0
ARC
  5
4F88
  8
補強金具
 10
950.92477783184006
 20
763.78902229187167
 30
0.0
 40
1.6000000000000001
 50
90.0
 51
180.0
1001
GENIUS_GENODEF_13
1002
{
1000
HIER
1070
     0
1002
}
1002
{
1000
MANEDIT
1070
     0
1002
}
1002
{
1000
NOSEL
1070
     0
1002
}
1002
{
1000
BEHIND
1070
     0
1002
}
1002
{
1000
REACTOR
1002
}
1001
GENIUS_GENOBJ-N-FIL_13
1002
{
1000
OWNER
1000
GEN
1002
}
  0
LINE
  5
4F89
  8
補強金具
 10
951.92477783184006
 20
773.78902229187179
 30
0.0
 11
951.92477783184006
 21
763.78902229187167
 31
0.0
  0
ARC
  5
4F8A
  8
補強金具
 10
1389.32477783184
 20
763.78902229187167
 30
0.0
 40
1.6000000000000001
 50
0.0
 51
90.0
1001
GENIUS_GENODEF_13
1002
{
1000
HIER
1070
     0
1002
}
1002
{
1000
MANEDIT
1070
     0
1002
}
1002
{
1000
NOSEL
1070
     0
1002
}
1002
{
1000
BEHIND
1070
     0
1002
}
1002
{
1000
REACTOR
1002
}
1001
GENIUS_GENOBJ-N-FIL_13
1002
{
1000
OWNER
1000
GEN
1002
}
  0
LINE
  5
4F8B
  8
補強金具
 10
1388.32477783184
 20
773.78902229187179
 30
0.0
 11
951.92477783184006
 21
773.78902229187179
 31
0.0
  0
LINE
  5
4F8C
  8
補強金具
 10
1389.32477783184
 20
763.78902229187167
 30
0.0
 11
950.92477783184006
 21
763.78902229187167
 31
0.0
  0
LINE
  5
4F8D
  8
補強金具0
 10
1388.12477783184
 20
765.38902229187158
 30
0.0
 11
952.12477783184045
 21
765.38902229187158
 31
0.0
  0
LINE
  5
4F8E
  8
補強金具
 10
1388.32477783184
 20
773.78902229187179
 30
0.0
 11
1388.32477783184
 21
763.78902229187167
 31
0.0
  0
LINE
  5
4F8F
  8
補強金具
 10
950.92477783184006
 20
725.38902229187124
 30
0.0
 11
949.32477783184027
 21
725.38902229187124
 31
0.0
  0
LINE
  5
4F90
  8
補強金具
 10
1390.9247778318399
 20
725.38902229187124
 30
0.0
 11
1389.32477783184
 21
725.38902229187124
 31
0.0
  0
LINE
  5
4F91
  8
補強金具
 10
1389.32477783184
 20
765.38902229187124
 30
0.0
 11
1388.12477783184
 21
765.38902229187124
 31
0.0
  0
LINE
  5
4F92
  8
補強金具
 10
1389.32477783184
 20
725.38902229187124
 30
0.0
 11
1389.32477783184
 21
763.78902229187167
 31
0.0
  0
LINE
  5
4F93
  8
補強金具
 10
950.92477783184006
 20
725.38902229187124
 30
0.0
 11
950.92477783184006
 21
763.78902229187167
 31
0.0
  0
LINE
  5
4F94
  8
補強金具
 10
949.32477783184027
 20
725.38902229187124
 30
0.0
 11
949.32477783184027
 21
763.78902229187167
 31
0.0
  0
LINE
  5
4F95
  8
補強金具
 10
1390.9247778318399
 20
725.38902229187124
 30
0.0
 11
1390.9247778318399
 21
763.78902229187167
 31
0.0
  0
LINE
  5
4F96
  8
右側板
 10
949.32477783184027
 20
646.78902229187167
 30
0.0
 11
951.62477783184011
 21
646.78902229187167
 31
0.0
  0
LINE
  5
4F97
  8
右側板
 10
951.62477783184011
 20
646.78902229187167
 30
0.0
 11
951.62477783184011
 21
400.78902229187167
 31
0.0
  0
LINE
  5
4F98
  8
右側板
 10
947.62477783184022
 20
396.78902229187179
 30
0.0
 11
928.82477783184027
 21
396.78902229187179
 31
0.0
  0
ARC
  5
4F99
  8
右側板
 10
947.62477783184022
 20
400.78902229187167
 30
0.0
 40
4.0
 50
270.0
 51
0.0
1001
GENIUS_GENODEF_13
1002
{
1000
HIER
1070
     0
1002
}
1002
{
1000
MANEDIT
1070
     0
1002
}
1002
{
1000
NOSEL
1070
     0
1002
}
1002
{
1000
BEHIND
1070
     0
1002
}
1002
{
1000
OTHER
1070
     0
1002
}
1002
{
1000
REACTOR
1002
}
1001
GENIUS_GENOBJ-N-FIL_13
1002
{
1000
OWNER
1000
GEN
1002
}
  0
LINE
  5
4F9A
  8
右側板
 10
928.82477783184027
 20
396.78902229187179
 30
0.0
 11
928.82477783184027
 21
399.08902229187203
 31
0.0
  0
LINE
  5
4F9B
  8
右側板
 10
928.82477783184027
 20
399.08902229187203
 30
0.0
 11
947.02477783184042
 21
399.08902229187191
 31
0.0
  0
LINE
  5
4F9C
  8
右側板
 10
949.32477783184027
 20
401.38902229187181
 30
0.0
 11
949.32477783184027
 21
646.78902229187167
 31
0.0
  0
LINE
  5
4F9D
  8
右側板0
 10
949.32477783184027
 20
437.38902229187192
 30
0.0
 11
951.62477783184011
 21
437.38902229187192
 31
0.0
  0
LINE
  5
4F9E
  8
右側板0
 10
949.32477783184027
 20
437.08902229187203
 30
0.0
 11
951.62477783184011
 21
437.08902229187203
 31
0.0
  0
LINE
  5
4F9F
  8
右側板0
 10
949.32477783184027
 20
433.68902229187182
 30
0.0
 11
951.62477783184011
 21
433.68902229187182
 31
0.0
  0
LINE
  5
4FA0
  8
右側板0
 10
949.32477783184027
 20
433.38902229187192
 30
0.0
 11
951.62477783184011
 21
433.38902229187192
 31
0.0
  0
LINE
  5
4FA1
  8
右側板0
 10
949.32477783184027
 20
535.78902229187179
 30
0.0
 11
951.62477783184011
 21
535.78902229187179
 31
0.0
  0
LINE
  5
4FA2
  8
右側板0
 10
949.32477783184027
 20
535.48902229187183
 30
0.0
 11
951.62477783184011
 21
535.48902229187183
 31
0.0
  0
LINE
  5
4FA3
  8
右側板0
 10
949.32477783184027
 20
532.08902229187186
 30
0.0
 11
951.62477783184011
 21
532.08902229187186
 31
0.0
  0
LINE
  5
4FA4
  8
右側板0
 10
949.32477783184027
 20
531.78902229187179
 30
0.0
 11
951.62477783184011
 21
531.78902229187179
 31
0.0
  0
LINE
  5
4FA5
  8
右側板0
 10
949.32477783184027
 20
624.68902229187177
 30
0.0
 11
951.62477783184011
 21
624.68902229187177
 31
0.0
  0
LINE
  5
4FA6
  8
右側板0
 10
949.32477783184027
 20
624.38902229187192
 30
0.0
 11
951.62477783184011
 21
624.38902229187192
 31
0.0
  0
LINE
  5
4FA7
  8
右側板0
 10
949.32477783184027
 20
620.98902229187195
 30
0.0
 11
951.62477783184011
 21
620.98902229187195
 31
0.0
  0
LINE
  5
4FA8
  8
右側板0
 10
949.32477783184027
 20
620.68902229187177
 30
0.0
 11
951.62477783184011
 21
620.68902229187177
 31
0.0
  0
LINE
  5
4FA9
  8
右側板0
 10
931.12477783184011
 20
399.08902229187203
 30
0.0
 11
931.12477783184011
 21
396.78902229187179
 31
0.0
  0
LINE
  5
4FAA
  8
右側板0
 10
942.52477783183997
 20
399.08902229187203
 30
0.0
 11
942.52477783183997
 21
396.78902229187179
 31
0.0
  0
ARC
  5
4FAB
  8
右側板
 10
947.02477783184042
 20
401.38902229187181
 30
0.0
 40
2.2999999999999989
 50
270.0
 51
0.0
1001
GENIUS_GENOBJ-N-FIL_13
1002
{
1000
OWNER
1000
GEN
1002
}
1001
GENIUS_GENODEF_13
1002
{
1000
HIER
1070
     0
1002
}
1002
{
1000
MANEDIT
1070
     0
1002
}
1002
{
1000
NOSEL
1070
     0
1002
}
1002
{
1000
BEHIND
1070
     0
1002
}
1002
{
1000
OTHER
1070
     0
1002
}
1002
{
1000
REACTOR
1002
}
  0
LINE
  5
4FAC
  8
ボ_ルスライド0
 10
1388.62477783184
 20
762.3890222918717
 30
0.0
 11
1388.62477783184
 21
406.78902229187179
 31
0.0
  0
LINE
  5
4FAD
  8
ボ_ルスライド0
 10
1380.62477783184
 20
762.3890222918717
 30
0.0
 11
1380.62477783184
 21
406.78902229187179
 31
0.0
  0
LINE
  5
4FAE
  8
ボ_ルスライド0
 10
1380.62477783184
 20
762.3890222918717
 30
0.0
 11
1388.62477783184
 21
762.3890222918717
 31
0.0
  0
LINE
  5
4FAF
  8
ボ_ルスライド0
 10
1388.62477783184
 20
406.78902229187179
 30
0.0
 11
1380.62477783184
 21
406.78902229187179
 31
0.0
  0
LINE
  5
4FB0
  8
左側板
 10
1390.9247778318399
 20
646.78902229187167
 30
0.0
 11
1388.62477783184
 21
646.78902229187167
 31
0.0
  0
LINE
  5
4FB1
  8
左側板
 10
1388.62477783184
 20
646.78902229187167
 30
0.0
 11
1388.62477783184
 21
400.78902229187167
 31
0.0
  0
LINE
  5
4FB2
  8
左側板
 10
1392.62477783184
 20
396.78902229187179
 30
0.0
 11
1411.4247778318399
 21
396.78902229187179
 31
0.0
  0
ARC
  5
4FB3
  8
左側板
 10
1392.62477783184
 20
400.78902229187167
 30
0.0
 40
4.0
 50
180.0
 51
270.0
1001
GENIUS_GENODEF_13
1002
{
1000
HIER
1070
     0
1002
}
1002
{
1000
MANEDIT
1070
     0
1002
}
1002
{
1000
NOSEL
1070
     0
1002
}
1002
{
1000
BEHIND
1070
     0
1002
}
1002
{
1000
OTHER
1070
     0
1002
}
1002
{
1000
REACTOR
1002
}
1001
GENIUS_GENOBJ-N-FIL_13
1002
{
1000
OWNER
1000
GEN
1002
}
  0
LINE
  5
4FB4
  8
左側板
 10
1411.4247778318399
 20
396.78902229187179
 30
0.0
 11
1411.4247778318399
 21
399.08902229187203
 31
0.0
  0
LINE
  5
4FB5
  8
左側板
 10
1411.4247778318399
 20
399.08902229187203
 30
0.0
 11
1393.2247778318399
 21
399.08902229187203
 31
0.0
  0
LINE
  5
4FB6
  8
左側板
 10
1390.9247778318399
 20
401.38902229187192
 30
0.0
 11
1390.9247778318399
 21
646.78902229187167
 31
0.0
  0
LINE
  5
4FB7
  8
左側板0
 10
1390.9247778318399
 20
437.38902229187192
 30
0.0
 11
1388.62477783184
 21
437.38902229187192
 31
0.0
  0
LINE
  5
4FB8
  8
左側板0
 10
1390.9247778318399
 20
437.08902229187203
 30
0.0
 11
1388.62477783184
 21
437.08902229187203
 31
0.0
  0
LINE
  5
4FB9
  8
左側板0
 10
1390.9247778318399
 20
433.68902229187182
 30
0.0
 11
1388.62477783184
 21
433.68902229187182
 31
0.0
  0
LINE
  5
4FBA
  8
左側板0
 10
1390.9247778318399
 20
433.38902229187192
 30
0.0
 11
1388.62477783184
 21
433.38902229187192
 31
0.0
  0
LINE
  5
4FBB
  8
左側板0
 10
1390.9247778318399
 20
535.78902229187179
 30
0.0
 11
1388.62477783184
 21
535.78902229187179
 31
0.0
  0
LINE
  5
4FBC
  8
左側板0
 10
1390.9247778318399
 20
535.48902229187183
 30
0.0
 11
1388.62477783184
 21
535.48902229187183
 31
0.0
  0
LINE
  5
4FBD
  8
左側板0
 10
1390.9247778318399
 20
532.08902229187186
 30
0.0
 11
1388.62477783184
 21
532.08902229187186
 31
0.0
  0
LINE
  5
4FBE
  8
左側板0
 10
1390.9247778318399
 20
531.78902229187179
 30
0.0
 11
1388.62477783184
 21
531.78902229187179
 31
0.0
  0
LINE
  5
4FBF
  8
左側板0
 10
1390.9247778318399
 20
624.68902229187177
 30
0.0
 11
1388.62477783184
 21
624.68902229187177
 31
0.0
  0
LINE
  5
4FC0
  8
左側板0
 10
1390.9247778318399
 20
624.38902229187192
 30
0.0
 11
1388.62477783184
 21
624.38902229187192
 31
0.0
  0
LINE
  5
4FC1
  8
左側板0
 10
1390.9247778318399
 20
620.98902229187183
 30
0.0
 11
1388.62477783184
 21
620.98902229187183
 31
0.0
  0
LINE
  5
4FC2
  8
左側板0
 10
1390.9247778318399
 20
620.68902229187177
 30
0.0
 11
1388.62477783184
 21
620.68902229187177
 31
0.0
  0
LINE
  5
4FC3
  8
左側板0
 10
1409.12477783184
 20
399.08902229187203
 30
0.0
 11
1409.12477783184
 21
396.78902229187179
 31
0.0
  0
LINE
  5
4FC4
  8
左側板0
 10
1397.7247778318399
 20
399.08902229187203
 30
0.0
 11
1397.7247778318399
 21
396.78902229187179
 31
0.0
  0
ARC
  5
4FC5
  8
左側板
 10
1393.2247778318399
 20
401.38902229187192
 30
0.0
 40
2.2999999999999989
 50
180.0
 51
270.0
1001
GENIUS_GENOBJ-N-FIL_13
1002
{
1000
OWNER
1000
GEN
1002
}
1001
GENIUS_GENODEF_13
1002
{
1000
HIER
1070
     0
1002
}
1002
{
1000
MANEDIT
1070
     0
1002
}
1002
{
1000
NOSEL
1070
     0
1002
}
1002
{
1000
BEHIND
1070
     0
1002
}
1002
{
1000
OTHER
1070
     0
1002
}
1002
{
1000
REACTOR
1002
}
  0
LINE
  5
4FC6
  8
ボ_ルスライド0
 10
952.12477783184022
 20
406.78902229187179
 30
0.0
 11
952.12477783184022
 21
758.3890222918717
 31
0.0
  0
LINE
  5
4FC7
  8
ボ_ルスライド0
 10
961.12477783184022
 20
406.78902229187179
 30
0.0
 11
961.12477783184022
 21
758.3890222918717
 31
0.0
  0
LINE
  5
4FC8
  8
ボ_ルスライド0
 10
961.12477783184022
 20
406.78902229187179
 30
0.0
 11
952.12477783184022
 21
406.78902229187179
 31
0.0
  0
LINE
  5
4FC9
  8
ボ_ルスライド0
 10
952.12477783184022
 20
758.3890222918717
 30
0.0
 11
961.12477783184022
 21
758.3890222918717
 31
0.0
  0
LINE
  5
4FCA
  8
ボ_ルスライド0
 10
951.62477783184011
 20
762.3890222918717
 30
0.0
 11
951.62477783184011
 21
406.78902229187179
 31
0.0
  0
LINE
  5
4FCB
  8
ボ_ルスライド0
 10
959.62477783184011
 20
762.3890222918717
 30
0.0
 11
959.62477783184011
 21
406.78902229187179
 31
0.0
  0
LINE
  5
4FCC
  8
ボ_ルスライド0
 10
959.62477783184011
 20
762.3890222918717
 30
0.0
 11
951.62477783184033
 21
762.3890222918717
 31
0.0
  0
LINE
  5
4FCD
  8
ボ_ルスライド0
 10
951.62477783184011
 20
406.78902229187179
 30
0.0
 11
959.62477783184011
 21
406.78902229187179
 31
0.0
  0
LINE
  5
4FCE
  8
ボ_ルスライド0
 10
1388.12477783184
 20
406.78902229187179
 30
0.0
 11
1388.12477783184
 21
758.3890222918717
 31
0.0
  0
LINE
  5
4FCF
  8
ボ_ルスライド0
 10
1379.12477783184
 20
406.78902229187179
 30
0.0
 11
1379.12477783184
 21
758.3890222918717
 31
0.0
  0
LINE
  5
4FD0
  8
ボ_ルスライド0
 10
1379.12477783184
 20
406.78902229187179
 30
0.0
 11
1388.12477783184
 21
406.78902229187179
 31
0.0
  0
LINE
  5
4FD1
  8
ボ_ルスライド0
 10
1388.12477783184
 20
758.3890222918717
 30
0.0
 11
1379.12477783184
 21
758.3890222918717
 31
0.0
  0
CIRCLE
  5
4FD3
  8
補強金具
 10
768.39237200464356
 20
735.08902229187186
 30
0.0
 40
1.6000000000000001
  0
CIRCLE
  5
4FD4
  8
補強金具
 10
768.39237200464356
 20
747.78902229187167
 30
0.0
 40
1.6000000000000001
  0
ARC
  5
4FD5
  8
補強金具
 10
786.39237200464345
 20
765.38902229187215
 30
0.0
 40
1.6000000000000001
 50
270.0
 51
0.0
1001
GENIUS_GENODEF_13
1002
{
1000
HIER
1070
     0
1002
}
1002
{
1000
MANEDIT
1070
     0
1002
}
1002
{
1000
NOSEL
1070
     0
1002
}
1002
{
1000
BEHIND
1070
     0
1002
}
1002
{
1000
REACTOR
1002
}
1001
GENIUS_GENOBJ-N-FIL_13
1002
{
1000
OWNER
1000
GEN
1002
}
  0
ARC
  5
4FD6
  8
補強金具
 10
750.39237200464379
 20
765.38902229187215
 30
0.0
 40
1.6000000000000001
 50
180.0
 51
270.0
1001
GENIUS_GENODEF_13
1002
{
1000
HIER
1070
     0
1002
}
1002
{
1000
MANEDIT
1070
     0
1002
}
1002
{
1000
NOSEL
1070
     0
1002
}
1002
{
1000
BEHIND
1070
     0
1002
}
1002
{
1000
REACTOR
1002
}
1001
GENIUS_GENOBJ-N-FIL_13
1002
{
1000
OWNER
1000
GEN
1002
}
  0
LINE
  5
4FD7
  8
補強金具
 10
786.39237200464368
 20
773.78902229187179
 30
0.0
 11
787.99237200464381
 21
773.78902229187179
 31
0.0
  0
LINE
  5
4FD8
  8
補強金具
 10
748.79237200464354
 20
773.78902229187179
 30
0.0
 11
750.39237200464368
 21
773.78902229187179
 31
0.0
  0
LINE
  5
4FD9
  8
補強金具
 10
750.39237200464368
 20
765.38902229187215
 30
0.0
 11
786.39237200464368
 21
765.38902229187215
 31
0.0
  0
LINE
  5
4FDA
  8
補強金具0
 10
750.39237200464368
 20
763.88902229187215
 30
0.0
 11
786.39237200464368
 21
763.88902229187215
 31
0.0
  0
LINE
  5
4FDB
  8
補強金具
 10
748.79237200464354
 20
773.78902229187179
 30
0.0
 11
748.79237200464354
 21
765.38902229187215
 31
0.0
  0
LINE
  5
4FDC
  8
補強金具
 10
750.39237200464368
 20
773.78902229187179
 30
0.0
 11
750.39237200464368
 21
725.38902229187215
 31
0.0
  0
LINE
  5
4FDD
  8
補強金具
 10
786.39237200464368
 20
773.78902229187179
 30
0.0
 11
786.39237200464368
 21
725.38902229187215
 31
0.0
  0
LINE
  5
4FDE
  8
補強金具
 10
787.99237200464381
 20
773.78902229187179
 30
0.0
 11
787.99237200464381
 21
765.38902229187215
 31
0.0
  0
LINE
  5
4FDF
  8
補強金具
 10
750.39237200464368
 20
725.38902229187215
 30
0.0
 11
786.39237200464368
 21
725.38902229187215
 31
0.0
  0
CIRCLE
  5
4FE0
  8
補強金具0
 62
     5
 10
768.39237200464356
 20
735.08902229187186
 30
0.0
 40
2.0
  0
CIRCLE
  5
4FE1
  8
補強金具0
 62
     5
 10
768.39237200464356
 20
747.78902229187167
 30
0.0
 40
2.0
  0
LINE
  5
4FE4
  8
ボ_ルスライド0
 10
786.04237200464365
 20
406.78902229187179
 30
0.0
 11
750.74237200464358
 21
406.78902229187179
 31
0.0
  0
LINE
  5
4FE5
  8
ボ_ルスライド0
 10
750.74237200464358
 20
762.3890222918717
 30
0.0
 11
786.04237200464365
 21
762.3890222918717
 31
0.0
  0
LINE
  5
4FE6
  8
ボ_ルスライド0
 10
750.74237200464358
 20
762.3890222918717
 30
0.0
 11
750.74237200464358
 21
406.78902229187179
 31
0.0
  0
LINE
  5
4FE7
  8
ボ_ルスライド0
 10
786.04237200464365
 20
762.3890222918717
 30
0.0
 11
786.04237200464365
 21
406.78902229187179
 31
0.0
  0
LINE
  5
4FE8
  8
右側板
 10
741.44888519225799
 20
646.78925180467024
 30
0.0
 11
787.89237200464368
 21
646.78925180467024
 31
0.0
  0
ARC
  5
4FE9
  8
右側板
 10
741.44888519225799
 20
644.78925180467024
 30
0.0
 40
2.0
 50
90.0
 51
165.78414652632671
1001
GENIUS_GENODEF_13
1002
{
1000
HIER
1070
     0
1002
}
1002
{
1000
MANEDIT
1070
     0
1002
}
1002
{
1000
NOSEL
1070
     0
1002
}
1002
{
1000
BEHIND
1070
     0
1002
}
1002
{
1000
OTHER
1070
     0
1002
}
1002
{
1000
REACTOR
1002
}
1001
GENIUS_GENOBJ-N-FIL_13
1002
{
1000
OWNER
1000
GEN
1002
}
  0
LINE
  5
4FEA
  8
右側板
 10
789.89237200464356
 20
644.78925180467024
 30
0.0
 11
789.89237200464356
 21
396.78925180467041
 31
0.0
  0
ARC
  5
4FEB
  8
右側板
 10
787.89237200464368
 20
644.78925180467024
 30
0.0
 40
2.0
 50
0.0
 51
90.0
1001
GENIUS_GENOBJ-N-FIL_13
1002
{
1000
OWNER
1000
GEN
1002
}
1001
GENIUS_GENODEF_13
1002
{
1000
HIER
1070
     0
1002
}
1002
{
1000
MANEDIT
1070
     0
1002
}
1002
{
1000
NOSEL
1070
     0
1002
}
1002
{
1000
BEHIND
1070
     0
1002
}
1002
{
1000
OTHER
1070
     0
1002
}
1002
{
1000
REACTOR
1002
}
  0
LINE
  5
4FEC
  8
右側板
 10
789.89237200464356
 20
396.78925180467041
 30
0.0
 11
701.89237200464356
 21
396.78925180467041
 31
0.0
  0
LINE
  5
4FED
  8
右側板
 10
701.89237200464356
 20
399.08925180467043
 30
0.0
 11
789.89237200464356
 21
399.08925180467043
 31
0.0
  0
CIRCLE
  5
4FEE
  8
右側板
 10
767.89237200464356
 20
622.68925180467033
 30
0.0
 40
1.7
  0
CIRCLE
  5
4FEF
  8
右側板0
 10
767.89237200464356
 20
622.68925180467033
 30
0.0
 40
2.0
  0
CIRCLE
  5
4FF0
  8
右側板
 10
767.89237200464356
 20
533.78925180467024
 30
0.0
 40
1.7
  0
CIRCLE
  5
4FF1
  8
右側板0
 10
767.89237200464356
 20
533.78925180467024
 30
0.0
 40
2.0
  0
CIRCLE
  5
4FF2
  8
右側板
 10
767.89237200464356
 20
435.38925180467038
 30
0.0
 40
1.7
  0
CIRCLE
  5
4FF3
  8
右側板0
 10
767.89237200464356
 20
435.38925180467038
 30
0.0
 40
2.0
  0
LINE
  5
4FF4
  8
右側板
 10
704.59237200464372
 20
399.08925180467043
 30
0.0
 11
704.59237200464372
 21
396.78925180467041
 31
0.0
  0
LINE
  5
4FF5
  8
右側板
 10
710.99237200464358
 20
396.78925180467041
 30
0.0
 11
710.99237200464358
 21
399.08925180467031
 31
0.0
  0
LINE
  5
4FF6
  8
右側板
 10
780.59237200464372
 20
399.08925180467043
 30
0.0
 11
780.59237200464372
 21
396.78925180467041
 31
0.0
  0
LINE
  5
4FF7
  8
右側板
 10
786.99237200464347
 20
396.78925180467041
 30
0.0
 11
786.99237200464347
 21
399.08925180467031
 31
0.0
  0
LINE
  5
4FF8
  8
右側板
 10
701.89237200464356
 20
396.78925180467041
 30
0.0
 11
701.89237200464356
 21
496.7892518046703
 31
0.0
  0
LINE
  5
4FF9
  8
右側板
 10
701.89237200464356
 20
496.7892518046703
 30
0.0
 11
739.51013031749517
 21
645.28040303961018
 31
0.0
  0
LINE
  5
500C
  8
右側板
 10
629.47265151939905
 20
338.47699041611668
 30
0.0
 11
629.47265151939905
 21
254.47699041611671
 31
0.0
  0
LINE
  5
500D
  8
右側板
 10
627.47265151939905
 20
252.47699041611671
 30
0.0
 11
606.6726515193991
 21
252.47699041611671
 31
0.0
  0
ARC
  5
500E
  8
右側板
 10
627.47265151939905
 20
254.47699041611671
 30
0.0
 40
2.0
 50
270.0
 51
0.0
1001
GENIUS_GENODEF_13
1002
{
1000
HIER
1070
     0
1002
}
1002
{
1000
MANEDIT
1070
     0
1002
}
1002
{
1000
NOSEL
1070
     0
1002
}
1002
{
1000
BEHIND
1070
     0
1002
}
1002
{
1000
OTHER
1070
     0
1002
}
1002
{
1000
REACTOR
1002
}
1001
GENIUS_GENOBJ-N-FIL_13
1002
{
1000
OWNER
1000
GEN
1002
}
  0
LINE
  5
500F
  8
右側板
 10
606.6726515193991
 20
252.47699041611671
 30
0.0
 11
606.6726515193991
 21
340.47699041611668
 31
0.0
  0
LINE
  5
5010
  8
右側板
 10
606.6726515193991
 20
340.47699041611668
 30
0.0
 11
627.47265151939905
 21
340.47699041611668
 31
0.0
  0
ARC
  5
5011
  8
右側板
 10
627.47265151939905
 20
338.47699041611668
 30
0.0
 40
2.0
 50
0.0
 51
90.0
1001
GENIUS_GENOBJ-N-FIL_13
1002
{
1000
OWNER
1000
GEN
1002
}
1001
GENIUS_GENODEF_13
1002
{
1000
HIER
1070
     0
1002
}
1002
{
1000
MANEDIT
1070
     0
1002
}
1002
{
1000
NOSEL
1070
     0
1002
}
1002
{
1000
BEHIND
1070
     0
1002
}
1002
{
1000
OTHER
1070
     0
1002
}
1002
{
1000
REACTOR
1002
}
  0
LINE
  5
5012
  8
右側板0
 10
608.97265151939905
 20
340.47699041611668
 30
0.0
 11
608.97265151939905
 21
252.47699041611671
 31
0.0
  0
LINE
  5
5013
  8
右側板0
 10
608.97265151939905
 20
276.47699041611668
 30
0.0
 11
606.6726515193991
 21
276.47699041611668
 31
0.0
  0
LINE
  5
5014
  8
右側板0
 10
606.6726515193991
 20
276.17699041611672
 30
0.0
 11
608.97265151939905
 21
276.17699041611672
 31
0.0
  0
LINE
  5
5015
  8
右側板0
 10
608.97265151939905
 20
272.77699041611658
 30
0.0
 11
606.6726515193991
 21
272.77699041611658
 31
0.0
  0
LINE
  5
5016
  8
右側板0
 10
606.6726515193991
 20
272.47699041611668
 30
0.0
 11
608.97265151939905
 21
272.47699041611668
 31
0.0
  0
LINE
  5
5017
  8
右側板
 10
619.22265151939905
 20
337.82699041611659
 30
0.0
 11
623.72265151939905
 21
337.82699041611681
 31
0.0
1001
GENIUS_GENODEF_13
1002
{
1000
HIER
1070
     0
1002
}
1002
{
1000
MANEDIT
1070
     0
1002
}
1002
{
1000
NOSEL
1070
     0
1002
}
1002
{
1000
BEHIND
1070
     0
1002
}
1002
{
1000
OTHER
1070
     0
1002
}
1002
{
1000
REACTOR
1002
}
1001
GENIUS_GENOBJ-N-CEN_13
1002
{
1000
OWNER
1000
GEN
1002
}
1001
GENIUS_GENCEN_19
1002
{
1040
6.0
1002
}
  0
LINE
  5
5018
  8
右側板
 10
619.22265151939905
 20
331.32699041611681
 30
0.0
 11
623.72265151939905
 21
331.32699041611681
 31
0.0
1001
GENIUS_GENODEF_13
1002
{
1000
HIER
1070
     0
1002
}
1002
{
1000
MANEDIT
1070
     0
1002
}
1002
{
1000
NOSEL
1070
     0
1002
}
1002
{
1000
BEHIND
1070
     0
1002
}
1002
{
1000
OTHER
1070
     0
1002
}
1002
{
1000
REACTOR
1002
}
1001
GENIUS_GENOBJ-N-CEN_13
1002
{
1000
OWNER
1000
GEN
1002
}
1001
GENIUS_GENCEN_19
1002
{
1040
6.0
1002
}
  0
ARC
  5
5019
  8
右側板
 10
623.72265151939905
 20
334.57699041611681
 30
0.0
 40
3.2499999999999432
 50
270.0
 51
90.0
  0
ARC
  5
501A
  8
右側板
 10
619.22265151939905
 20
334.57699041611681
 30
0.0
 40
3.2499999999999432
 50
90.0
 51
270.0
  0
LINE
  5
501B
  8
右側板
 10
619.22265151939905
 20
261.62699041611648
 30
0.0
 11
623.72265151939905
 21
261.62699041611648
 31
0.0
1001
GENIUS_GENODEF_13
1002
{
1000
HIER
1070
     0
1002
}
1002
{
1000
MANEDIT
1070
     0
1002
}
1002
{
1000
NOSEL
1070
     0
1002
}
1002
{
1000
BEHIND
1070
     0
1002
}
1002
{
1000
OTHER
1070
     0
1002
}
1002
{
1000
REACTOR
1002
}
1001
GENIUS_GENOBJ-N-CEN_13
1002
{
1000
OWNER
1000
GEN
1002
}
1001
GENIUS_GENCEN_19
1002
{
1040
6.0
1002
}
  0
LINE
  5
501C
  8
右側板
 10
619.22265151939905
 20
255.12699041611651
 30
0.0
 11
623.72265151939905
 21
255.12699041611651
 31
0.0
1001
GENIUS_GENODEF_13
1002
{
1000
HIER
1070
     0
1002
}
1002
{
1000
MANEDIT
1070
     0
1002
}
1002
{
1000
NOSEL
1070
     0
1002
}
1002
{
1000
BEHIND
1070
     0
1002
}
1002
{
1000
OTHER
1070
     0
1002
}
1002
{
1000
REACTOR
1002
}
1001
GENIUS_GENOBJ-N-CEN_13
1002
{
1000
OWNER
1000
GEN
1002
}
1001
GENIUS_GENCEN_19
1002
{
1040
6.0
1002
}
  0
ARC
  5
501D
  8
右側板
 10
623.72265151939905
 20
258.37699041611648
 30
0.0
 40
3.2499999999999432
 50
270.0
 51
90.0
  0
ARC
  5
501E
  8
右側板
 10
619.22265151939905
 20
258.37699041611648
 30
0.0
 40
3.2499999999999432
 50
90.0
 51
270.0
  0
LINE
  5
501F
  8
左側板
 10
146.872651519399
 20
338.47699041611668
 30
0.0
 11
146.87265151939911
 21
254.47699041611671
 31
0.0
  0
LINE
  5
5020
  8
左側板
 10
148.87265151939911
 20
252.47699041611671
 30
0.0
 11
169.6726515193991
 21
252.47699041611671
 31
0.0
  0
ARC
  5
5021
  8
左側板
 10
148.87265151939911
 20
254.47699041611671
 30
0.0
 40
2.0
 50
180.0
 51
270.0
1001
GENIUS_GENODEF_13
1002
{
1000
HIER
1070
     0
1002
}
1002
{
1000
MANEDIT
1070
     0
1002
}
1002
{
1000
NOSEL
1070
     0
1002
}
1002
{
1000
BEHIND
1070
     0
1002
}
1002
{
1000
OTHER
1070
     0
1002
}
1002
{
1000
REACTOR
1002
}
1001
GENIUS_GENOBJ-N-FIL_13
1002
{
1000
OWNER
1000
GEN
1002
}
  0
LINE
  5
5022
  8
左側板
 10
169.6726515193991
 20
252.47699041611671
 30
0.0
 11
169.6726515193991
 21
340.47699041611668
 31
0.0
  0
LINE
  5
5023
  8
左側板
 10
169.6726515193991
 20
340.47699041611668
 30
0.0
 11
148.87265151939911
 21
340.47699041611668
 31
0.0
  0
ARC
  5
5024
  8
左側板
 10
148.87265151939911
 20
338.47699041611668
 30
0.0
 40
2.0
 50
90.0
 51
180.0
1001
GENIUS_GENOBJ-N-FIL_13
1002
{
1000
OWNER
1000
GEN
1002
}
1001
GENIUS_GENODEF_13
1002
{
1000
HIER
1070
     0
1002
}
1002
{
1000
MANEDIT
1070
     0
1002
}
1002
{
1000
NOSEL
1070
     0
1002
}
1002
{
1000
BEHIND
1070
     0
1002
}
1002
{
1000
OTHER
1070
     0
1002
}
1002
{
1000
REACTOR
1002
}
  0
LINE
  5
5025
  8
左側板0
 10
167.37265151939911
 20
340.47699041611668
 30
0.0
 11
167.37265151939911
 21
252.47699041611671
 31
0.0
  0
LINE
  5
5026
  8
左側板0
 10
167.37265151939911
 20
276.47699041611668
 30
0.0
 11
169.6726515193991
 21
276.47699041611668
 31
0.0
  0
LINE
  5
5027
  8
左側板0
 10
169.6726515193991
 20
276.17699041611672
 30
0.0
 11
167.37265151939911
 21
276.17699041611672
 31
0.0
  0
LINE
  5
5028
  8
左側板0
 10
167.37265151939911
 20
272.77699041611658
 30
0.0
 11
169.6726515193991
 21
272.77699041611658
 31
0.0
  0
LINE
  5
5029
  8
左側板0
 10
169.6726515193991
 20
272.47699041611668
 30
0.0
 11
167.37265151939911
 21
272.47699041611668
 31
0.0
  0
LINE
  5
502A
  8
左側板
 10
152.62265151939911
 20
337.82699041611659
 30
0.0
 11
157.12265151939911
 21
337.82699041611681
 31
0.0
1001
GENIUS_GENODEF_13
1002
{
1000
HIER
1070
     0
1002
}
1002
{
1000
MANEDIT
1070
     0
1002
}
1002
{
1000
NOSEL
1070
     0
1002
}
1002
{
1000
BEHIND
1070
     0
1002
}
1002
{
1000
OTHER
1070
     0
1002
}
1002
{
1000
REACTOR
1002
}
1001
GENIUS_GENOBJ-N-CEN_13
1002
{
1000
OWNER
1000
GEN
1002
}
1001
GENIUS_GENCEN_19
1002
{
1040
6.0
1002
}
  0
LINE
  5
502B
  8
左側板
 10
152.62265151939911
 20
331.32699041611681
 30
0.0
 11
157.12265151939911
 21
331.32699041611681
 31
0.0
1001
GENIUS_GENODEF_13
1002
{
1000
HIER
1070
     0
1002
}
1002
{
1000
MANEDIT
1070
     0
1002
}
1002
{
1000
NOSEL
1070
     0
1002
}
1002
{
1000
BEHIND
1070
     0
1002
}
1002
{
1000
OTHER
1070
     0
1002
}
1002
{
1000
REACTOR
1002
}
1001
GENIUS_GENOBJ-N-CEN_13
1002
{
1000
OWNER
1000
GEN
1002
}
1001
GENIUS_GENCEN_19
1002
{
1040
6.0
1002
}
  0
ARC
  5
502C
  8
左側板
 10
157.12265151939911
 20
334.57699041611681
 30
0.0
 40
3.2499999999999432
 50
270.0
 51
90.0
  0
ARC
  5
502D
  8
左側板
 10
152.62265151939911
 20
334.57699041611681
 30
0.0
 40
3.2499999999999432
 50
90.0
 51
270.0
  0
LINE
  5
502E
  8
左側板
 10
152.62265151939911
 20
255.1269904161168
 30
0.0
 11
157.12265151939911
 21
255.1269904161168
 31
0.0
1001
GENIUS_GENODEF_13
1002
{
1000
HIER
1070
     0
1002
}
1002
{
1000
MANEDIT
1070
     0
1002
}
1002
{
1000
NOSEL
1070
     0
1002
}
1002
{
1000
BEHIND
1070
     0
1002
}
1002
{
1000
OTHER
1070
     0
1002
}
1002
{
1000
REACTOR
1002
}
1001
GENIUS_GENOBJ-N-CEN_13
1002
{
1000
OWNER
1000
GEN
1002
}
1001
GENIUS_GENCEN_19
1002
{
1040
6.0
1002
}
  0
LINE
  5
502F
  8
左側板
 10
152.62265151939911
 20
261.62699041611683
 30
0.0
 11
157.12265151939911
 21
261.62699041611683
 31
0.0
1001
GENIUS_GENODEF_13
1002
{
1000
HIER
1070
     0
1002
}
1002
{
1000
MANEDIT
1070
     0
1002
}
1002
{
1000
NOSEL
1070
     0
1002
}
1002
{
1000
BEHIND
1070
     0
1002
}
1002
{
1000
OTHER
1070
     0
1002
}
1002
{
1000
REACTOR
1002
}
1001
GENIUS_GENOBJ-N-CEN_13
1002
{
1000
OWNER
1000
GEN
1002
}
1001
GENIUS_GENCEN_19
1002
{
1040
6.0
1002
}
  0
ARC
  5
5030
  8
左側板
 10
157.12265151939911
 20
258.37699041611683
 30
0.0
 40
3.2499999999999432
 50
270.0
 51
90.0
  0
ARC
  5
5031
  8
左側板
 10
152.62265151939911
 20
258.37699041611683
 30
0.0
 40
3.2499999999999432
 50
90.0
 51
270.0
  0
LINE
  5
5032
  8
左側板
 10
167.37265151939911
 20
646.78902229187167
 30
0.0
 11
169.6726515193991
 21
646.78902229187167
 31
0.0
  0
LINE
  5
5033
  8
左側板
 10
169.6726515193991
 20
646.78902229187167
 30
0.0
 11
169.67265151939901
 21
400.78902229187167
 31
0.0
  0
LINE
  5
5034
  8
左側板
 10
165.67265151939901
 20
396.78902229187179
 30
0.0
 11
146.872651519399
 21
396.78902229187179
 31
0.0
  0
ARC
  5
5035
  8
左側板
 10
165.67265151939901
 20
400.78902229187167
 30
0.0
 40
4.0
 50
270.0
 51
0.0
1001
GENIUS_GENODEF_13
1002
{
1000
HIER
1070
     0
1002
}
1002
{
1000
MANEDIT
1070
     0
1002
}
1002
{
1000
NOSEL
1070
     0
1002
}
1002
{
1000
BEHIND
1070
     0
1002
}
1002
{
1000
OTHER
1070
     0
1002
}
1002
{
1000
REACTOR
1002
}
1001
GENIUS_GENOBJ-N-FIL_13
1002
{
1000
OWNER
1000
GEN
1002
}
  0
LINE
  5
5036
  8
左側板
 10
146.872651519399
 20
396.78902229187179
 30
0.0
 11
146.872651519399
 21
399.08902229187203
 31
0.0
  0
LINE
  5
5037
  8
左側板
 10
146.872651519399
 20
399.08902229187203
 30
0.0
 11
165.07265151939899
 21
399.08902229187203
 31
0.0
  0
LINE
  5
5038
  8
左側板
 10
167.37265151939911
 20
401.38902229187192
 30
0.0
 11
167.37265151939911
 21
646.78902229187167
 31
0.0
  0
LINE
  5
5039
  8
左側板0
 10
167.37265151939911
 20
437.38902229187192
 30
0.0
 11
169.67265151939901
 21
437.38902229187192
 31
0.0
  0
LINE
  5
503A
  8
左側板0
 10
167.37265151939911
 20
437.08902229187203
 30
0.0
 11
169.67265151939901
 21
437.08902229187203
 31
0.0
  0
LINE
  5
503B
  8
左側板0
 10
167.37265151939911
 20
433.68902229187182
 30
0.0
 11
169.67265151939901
 21
433.68902229187182
 31
0.0
  0
LINE
  5
503C
  8
左側板0
 10
167.37265151939911
 20
433.38902229187192
 30
0.0
 11
169.67265151939901
 21
433.38902229187192
 31
0.0
  0
LINE
  5
503D
  8
左側板0
 10
167.37265151939911
 20
535.78902229187179
 30
0.0
 11
169.67265151939901
 21
535.78902229187179
 31
0.0
  0
LINE
  5
503E
  8
左側板0
 10
167.37265151939911
 20
535.48902229187183
 30
0.0
 11
169.67265151939901
 21
535.48902229187183
 31
0.0
  0
LINE
  5
503F
  8
左側板0
 10
167.37265151939911
 20
532.08902229187186
 30
0.0
 11
169.67265151939901
 21
532.08902229187186
 31
0.0
  0
LINE
  5
5040
  8
左側板0
 10
167.37265151939911
 20
531.78902229187179
 30
0.0
 11
169.67265151939901
 21
531.78902229187179
 31
0.0
  0
LINE
  5
5041
  8
左側板0
 10
167.37265151939911
 20
624.68902229187177
 30
0.0
 11
169.6726515193991
 21
624.68902229187177
 31
0.0
  0
LINE
  5
5042
  8
左側板0
 10
167.37265151939911
 20
624.38902229187192
 30
0.0
 11
169.6726515193991
 21
624.38902229187192
 31
0.0
  0
LINE
  5
5043
  8
左側板0
 10
167.37265151939911
 20
620.98902229187183
 30
0.0
 11
169.6726515193991
 21
620.98902229187183
 31
0.0
  0
LINE
  5
5044
  8
左側板0
 10
167.37265151939911
 20
620.68902229187177
 30
0.0
 11
169.6726515193991
 21
620.68902229187177
 31
0.0
  0
LINE
  5
5045
  8
左側板0
 10
149.17265151939901
 20
399.08902229187203
 30
0.0
 11
149.17265151939901
 21
396.78902229187179
 31
0.0
  0
LINE
  5
5046
  8
左側板0
 10
160.5726515193989
 20
399.08902229187203
 30
0.0
 11
160.5726515193989
 21
396.78902229187179
 31
0.0
  0
ARC
  5
5047
  8
左側板
 10
165.07265151939899
 20
401.38902229187192
 30
0.0
 40
2.2999999999999989
 50
270.0
 51
0.0
1001
GENIUS_GENOBJ-N-FIL_13
1002
{
1000
OWNER
1000
GEN
1002
}
1001
GENIUS_GENODEF_13
1002
{
1000
HIER
1070
     0
1002
}
1002
{
1000
MANEDIT
1070
     0
1002
}
1002
{
1000
NOSEL
1070
     0
1002
}
1002
{
1000
BEHIND
1070
     0
1002
}
1002
{
1000
OTHER
1070
     0
1002
}
1002
{
1000
REACTOR
1002
}
  0
LINE
  5
5048
  8
右側板
 10
608.97265151939905
 20
646.78902229187167
 30
0.0
 11
606.6726515193991
 21
646.78902229187167
 31
0.0
  0
LINE
  5
5049
  8
右側板
 10
606.6726515193991
 20
646.78902229187167
 30
0.0
 11
606.6726515193991
 21
400.78902229187167
 31
0.0
  0
LINE
  5
504A
  8
右側板
 10
610.67265151939898
 20
396.78902229187179
 30
0.0
 11
629.47265151939905
 21
396.78902229187179
 31
0.0
  0
ARC
  5
504B
  8
右側板
 10
610.67265151939898
 20
400.78902229187167
 30
0.0
 40
4.0
 50
180.0
 51
270.0
1001
GENIUS_GENODEF_13
1002
{
1000
HIER
1070
     0
1002
}
1002
{
1000
MANEDIT
1070
     0
1002
}
1002
{
1000
NOSEL
1070
     0
1002
}
1002
{
1000
BEHIND
1070
     0
1002
}
1002
{
1000
OTHER
1070
     0
1002
}
1002
{
1000
REACTOR
1002
}
1001
GENIUS_GENOBJ-N-FIL_13
1002
{
1000
OWNER
1000
GEN
1002
}
  0
LINE
  5
504C
  8
右側板
 10
629.47265151939905
 20
396.78902229187179
 30
0.0
 11
629.47265151939905
 21
399.08902229187203
 31
0.0
  0
LINE
  5
504D
  8
右側板
 10
629.47265151939905
 20
399.08902229187203
 30
0.0
 11
611.27265151939901
 21
399.08902229187191
 31
0.0
  0
LINE
  5
504E
  8
右側板
 10
608.97265151939905
 20
401.38902229187181
 30
0.0
 11
608.97265151939905
 21
646.78902229187167
 31
0.0
  0
LINE
  5
504F
  8
右側板0
 10
608.97265151939905
 20
437.38902229187192
 30
0.0
 11
606.6726515193991
 21
437.38902229187192
 31
0.0
  0
LINE
  5
5050
  8
右側板0
 10
608.97265151939905
 20
437.08902229187203
 30
0.0
 11
606.6726515193991
 21
437.08902229187203
 31
0.0
  0
LINE
  5
5051
  8
右側板0
 10
608.97265151939905
 20
433.68902229187182
 30
0.0
 11
606.6726515193991
 21
433.68902229187182
 31
0.0
  0
LINE
  5
5052
  8
右側板0
 10
608.97265151939905
 20
433.38902229187192
 30
0.0
 11
606.6726515193991
 21
433.38902229187192
 31
0.0
  0
LINE
  5
5053
  8
右側板0
 10
608.97265151939905
 20
535.78902229187179
 30
0.0
 11
606.6726515193991
 21
535.78902229187179
 31
0.0
  0
LINE
  5
5054
  8
右側板0
 10
608.97265151939905
 20
535.48902229187183
 30
0.0
 11
606.6726515193991
 21
535.48902229187183
 31
0.0
  0
LINE
  5
5055
  8
右側板0
 10
608.97265151939905
 20
532.08902229187186
 30
0.0
 11
606.6726515193991
 21
532.08902229187186
 31
0.0
  0
LINE
  5
5056
  8
右側板0
 10
608.97265151939905
 20
531.78902229187179
 30
0.0
 11
606.6726515193991
 21
531.78902229187179
 31
0.0
  0
LINE
  5
5057
  8
右側板0
 10
608.97265151939905
 20
624.68902229187177
 30
0.0
 11
606.6726515193991
 21
624.68902229187177
 31
0.0
  0
LINE
  5
5058
  8
右側板0
 10
608.97265151939905
 20
624.38902229187192
 30
0.0
 11
606.6726515193991
 21
624.38902229187192
 31
0.0
  0
LINE
  5
5059
  8
右側板0
 10
608.97265151939905
 20
620.98902229187195
 30
0.0
 11
606.6726515193991
 21
620.98902229187195
 31
0.0
  0
LINE
  5
505A
  8
右側板0
 10
608.97265151939905
 20
620.68902229187177
 30
0.0
 11
606.6726515193991
 21
620.68902229187177
 31
0.0
  0
LINE
  5
505B
  8
右側板0
 10
627.17265151939898
 20
399.08902229187203
 30
0.0
 11
627.17265151939898
 21
396.78902229187179
 31
0.0
  0
LINE
  5
505C
  8
右側板0
 10
615.77265151939923
 20
399.08902229187203
 30
0.0
 11
615.77265151939923
 21
396.78902229187179
 31
0.0
  0
ARC
  5
505D
  8
右側板
 10
611.27265151939901
 20
401.38902229187181
 30
0.0
 40
2.2999999999999989
 50
180.0
 51
270.0
1001
GENIUS_GENOBJ-N-FIL_13
1002
{
1000
OWNER
1000
GEN
1002
}
1001
GENIUS_GENODEF_13
1002
{
1000
HIER
1070
     0
1002
}
1002
{
1000
MANEDIT
1070
     0
1002
}
1002
{
1000
NOSEL
1070
     0
1002
}
1002
{
1000
BEHIND
1070
     0
1002
}
1002
{
1000
OTHER
1070
     0
1002
}
1002
{
1000
REACTOR
1002
}
  0
INSERT
  5
519A
  8
ﾋ_ｽ
  2
バインドM4_6
 10
1052.1726132535321
 20
269.54065950522772
 30
0.0
  0
INSERT
  5
519B
  8
ﾋ_ｽ
  2
バインドM4_6ヨコ
 10
1087.3861154333031
 20
269.54065950522772
 30
0.0
  0
INSERT
  5
519C
  8
ﾋ_ｽ
  2
サラM3_5
 10
1420.4695193646589
 20
269.54065950522772
 30
0.0
  0
INSERT
  5
519D
  8
ﾋ_ｽ
  2
サラM3_5ヨコ
 10
1441.5815237818799
 20
269.54065950522772
 30
0.0
  0
INSERT
  5
519E
  8
ﾋ_ｽ
  2
バインドM3_5
 10
1300.9667604059021
 20
269.54065950522772
 30
0.0
  0
INSERT
  5
519F
  8
ﾋ_ｽ
  2
バインドM3_5ヨコ
 10
1335.1802625856731
 20
269.54065950522772
 30
0.0
  0
INSERT
  5
51A0
  8
ﾋ_ｽ
  2
ナットM4
 10
1181.571921352059
 20
269.54065950522772
 30
0.0
  0
INSERT
  5
51A1
  8
ﾋ_ｽ
  2
ナットM4ヨコ
 10
1204.8004795559129
 20
269.54065950522761
 30
0.0
  0
LINE
  5
51A3
  8
補強金具
 10
606.17265151939876
 20
765.38902229187124
 30
0.0
 11
607.37265151939914
 21
765.38902229187124
 31
0.0
  0
ARC
  5
51A4
  8
補強金具
 10
607.37265151939914
 20
763.78902229187167
 30
0.0
 40
1.6000000000000001
 50
0.0
 51
90.0
1001
GENIUS_GENODEF_13
1002
{
1000
HIER
1070
     0
1002
}
1002
{
1000
MANEDIT
1070
     0
1002
}
1002
{
1000
NOSEL
1070
     0
1002
}
1002
{
1000
BEHIND
1070
     0
1002
}
1002
{
1000
REACTOR
1002
}
1001
GENIUS_GENOBJ-N-FIL_13
1002
{
1000
OWNER
1000
GEN
1002
}
  0
LINE
  5
51A5
  8
補強金具
 10
606.37265151939914
 20
773.78902229187179
 30
0.0
 11
606.37265151939914
 21
763.78902229187167
 31
0.0
  0
ARC
  5
51A6
  8
補強金具
 10
168.97265151939899
 20
763.78902229187167
 30
0.0
 40
1.6000000000000001
 50
90.0
 51
180.0
1001
GENIUS_GENODEF_13
1002
{
1000
HIER
1070
     0
1002
}
1002
{
1000
MANEDIT
1070
     0
1002
}
1002
{
1000
NOSEL
1070
     0
1002
}
1002
{
1000
BEHIND
1070
     0
1002
}
1002
{
1000
REACTOR
1002
}
1001
GENIUS_GENOBJ-N-FIL_13
1002
{
1000
OWNER
1000
GEN
1002
}
  0
LINE
  5
51A7
  8
補強金具
 10
169.97265151939899
 20
773.78902229187179
 30
0.0
 11
606.37265151939914
 21
773.78902229187179
 31
0.0
  0
LINE
  5
51A8
  8
補強金具
 10
168.97265151939899
 20
763.78902229187167
 30
0.0
 11
607.37265151939914
 21
763.78902229187167
 31
0.0
  0
LINE
  5
51A9
  8
補強金具0
 10
170.17265151939881
 20
765.38902229187158
 30
0.0
 11
606.17265151939876
 21
765.38902229187158
 31
0.0
  0
LINE
  5
51AA
  8
補強金具
 10
169.97265151939899
 20
773.78902229187179
 30
0.0
 11
169.97265151939899
 21
763.78902229187167
 31
0.0
  0
LINE
  5
51AB
  8
補強金具
 10
607.37265151939914
 20
725.38902229187124
 30
0.0
 11
608.97265151939905
 21
725.38902229187124
 31
0.0
  0
LINE
  5
51AC
  8
補強金具
 10
167.37265151939889
 20
725.38902229187124
 30
0.0
 11
168.97265151939899
 21
725.38902229187124
 31
0.0
  0
LINE
  5
51AD
  8
補強金具
 10
168.97265151939899
 20
765.38902229187124
 30
0.0
 11
170.17265151939881
 21
765.38902229187124
 31
0.0
  0
LINE
  5
51AE
  8
補強金具
 10
168.97265151939899
 20
725.38902229187124
 30
0.0
 11
168.97265151939899
 21
763.78902229187167
 31
0.0
  0
LINE
  5
51AF
  8
補強金具
 10
607.37265151939914
 20
725.38902229187124
 30
0.0
 11
607.37265151939914
 21
763.78902229187167
 31
0.0
  0
LINE
  5
51B0
  8
補強金具
 10
608.97265151939905
 20
725.38902229187124
 30
0.0
 11
608.97265151939905
 21
763.78902229187167
 31
0.0
  0
LINE
  5
51B1
  8
補強金具
 10
167.37265151939889
 20
725.38902229187124
 30
0.0
 11
167.37265151939889
 21
763.78902229187167
 31
0.0
  0
LINE
  5
51B3
  8
ボ_ルスライド0
 10
170.17265151939881
 20
406.78902229187179
 30
0.0
 11
170.17265151939881
 21
758.3890222918717
 31
0.0
  0
LINE
  5
51B4
  8
ボ_ルスライド0
 10
179.17265151939881
 20
406.78902229187179
 30
0.0
 11
179.17265151939881
 21
758.3890222918717
 31
0.0
  0
LINE
  5
51B5
  8
ボ_ルスライド0
 10
179.17265151939881
 20
406.78902229187179
 30
0.0
 11
170.17265151939881
 21
406.78902229187179
 31
0.0
  0
LINE
  5
51B6
  8
ボ_ルスライド0
 10
170.17265151939881
 20
758.3890222918717
 30
0.0
 11
179.17265151939881
 21
758.3890222918717
 31
0.0
  0
LINE
  5
51B7
  8
ボ_ルスライド0
 10
169.6726515193991
 20
762.3890222918717
 30
0.0
 11
169.6726515193991
 21
406.78902229187179
 31
0.0
  0
LINE
  5
51B8
  8
ボ_ルスライド0
 10
177.6726515193991
 20
762.3890222918717
 30
0.0
 11
177.6726515193991
 21
406.78902229187179
 31
0.0
  0
LINE
  5
51B9
  8
ボ_ルスライド0
 10
177.6726515193991
 20
762.3890222918717
 30
0.0
 11
169.67265151939921
 21
762.3890222918717
 31
0.0
  0
LINE
  5
51BA
  8
ボ_ルスライド0
 10
169.6726515193991
 20
406.78902229187179
 30
0.0
 11
177.6726515193991
 21
406.78902229187179
 31
0.0
  0
LINE
  5
51BB
  8
ボ_ルスライド0
 10
606.6726515193991
 20
762.3890222918717
 30
0.0
 11
606.6726515193991
 21
406.78902229187179
 31
0.0
  0
LINE
  5
51BC
  8
ボ_ルスライド0
 10
598.6726515193991
 20
762.3890222918717
 30
0.0
 11
598.6726515193991
 21
406.78902229187179
 31
0.0
  0
LINE
  5
51BD
  8
ボ_ルスライド0
 10
598.6726515193991
 20
762.3890222918717
 30
0.0
 11
606.67265151939887
 21
762.3890222918717
 31
0.0
  0
LINE
  5
51BE
  8
ボ_ルスライド0
 10
606.6726515193991
 20
406.78902229187179
 30
0.0
 11
598.6726515193991
 21
406.78902229187179
 31
0.0
  0
LINE
  5
51BF
  8
ボ_ルスライド0
 10
606.17265151939898
 20
406.78902229187179
 30
0.0
 11
606.17265151939898
 21
758.3890222918717
 31
0.0
  0
LINE
  5
51C0
  8
ボ_ルスライド0
 10
597.17265151939898
 20
406.78902229187179
 30
0.0
 11
597.17265151939898
 21
758.3890222918717
 31
0.0
  0
LINE
  5
51C1
  8
ボ_ルスライド0
 10
597.17265151939898
 20
406.78902229187179
 30
0.0
 11
606.17265151939898
 21
406.78902229187179
 31
0.0
  0
LINE
  5
51C2
  8
ボ_ルスライド0
 10
606.17265151939898
 20
758.3890222918717
 30
0.0
 11
597.17265151939898
 21
758.3890222918717
 31
0.0
  0
VIEWPORT
  5
17C
 67
     1
  8
0
 10
133.34999084472651
 20
101.5999970436096
 30
0.0
 40
370.22669129365238
 41
228.4221935424805
 68
     1
 69
     1
1001
ACAD
1000
MVIEW
1002
{
1070
    16
1010
0.0
1020
0.0
1030
0.0
1010
0.0
1020
0.0
1030
1.0
1040
0.0
1040
228.4221935424805
1040
133.34999084472651
1040
101.5999970436096
1040
50.0
1040
0.0
1040
0.0
1070
     0
1070
   100
1070
     1
1070
     1
1070
     0
1070
     0
1070
     0
1070
     0
1040
0.0
1040
0.0
1040
0.0
1040
10.0
1040
10.0
1040
10.0
1040
10.0
1070
     0
1002
{
1002
}
1002
}
1001
GENIUS_GENOBJ-N-SDF_13
1002
{
1000
OWNER
1000
GEN
1002
}
1001
GENIUS_GENODEF_13
1002
{
1000
HIER
1070
     0
1002
}
1002
{
1000
MANEDIT
1070
     0
1002
}
1002
{
1000
NOSEL
1070
     0
1002
}
1002
{
1000
BEHIND
1070
     0
1002
}
1002
{
1000
OTHER
1070
     0
1002
}
1002
{
1000
REACTOR
1002
}
1001
GENIUS_GENSCREG_15
1000
PF
1040
1.0
1000
DF
1040
1.0
1000
MIN
1011
-51.763354802099627
1021
-0.0
1031
-0.0
1021
-12.6110997276306
1031
0.0
1000
MAX
1011
318.4633364915527
1021
-0.0
1031
-0.0
1021
215.8110938148499
1031
0.0
1000
FLAGS
1070
     4
  0
ENDSEC
  0
EOF
