  0
SECTION
  2
HEADER
  9
$ACADVER
  1
AC1015
  9
$ACADMAINTVER
 70
    20
  9
$DWGCODEPAGE
  3
ANSI_932
  9
$INSBASE
 10
0.0
 20
0.0
 30
0.0
  9
$EXTMIN
 10
-0.0000000000002842
 20
-0.0000000000001332
 30
0.0
  9
$EXTMAX
 10
482.5000000000002
 20
700.0
 30
0.0
  9
$LIMMIN
 10
0.0
 20
0.0
  9
$LIMMAX
 10
482.5
 20
700.0
  9
$ORTHOMODE
 70
     0
  9
$REGENMODE
 70
     1
  9
$FILLMODE
 70
     1
  9
$QTEXTMODE
 70
     0
  9
$MIRRTEXT
 70
     1
  9
$LTSCALE
 40
2.5
  9
$ATTMODE
 70
     1
  9
$TEXTSIZE
 40
73.98571745357912
  9
$TRACEWID
 40
1.0
  9
$TEXTSTYLE
  7
STANDARD
  9
$CLAYER
  8
0
  9
$CELTYPE
  6
ByLayer
  9
$CECOLOR
 62
   256
  9
$CELTSCALE
 40
1.0
  9
$DISPSILH
 70
     0
  9
$DIMSCALE
 40
2.5
  9
$DIMASZ
 40
2.5
  9
$DIMEXO
 40
1.0
  9
$DIMDLI
 40
10.0
  9
$DIMRND
 40
0.0
  9
$DIMDLE
 40
0.0
  9
$DIMEXE
 40
1.0
  9
$DIMTP
 40
0.1
  9
$DIMTM
 40
0.1
  9
$DIMTXT
 40
3.5
  9
$DIMCEN
 40
0.0
  9
$DIMTSZ
 40
0.0
  9
$DIMTOL
 70
     0
  9
$DIMLIM
 70
     0
  9
$DIMTIH
 70
     0
  9
$DIMTOH
 70
     0
  9
$DIMSE1
 70
     0
  9
$DIMSE2
 70
     0
  9
$DIMTAD
 70
     1
  9
$DIMZIN
 70
     8
  9
$DIMBLK
  1
Open30
  9
$DIMASO
 70
     1
  9
$DIMSHO
 70
     1
  9
$DIMPOST
  1

  9
$DIMAPOST
  1
"
  9
$DIMALT
 70
     0
  9
$DIMALTD
 70
     2
  9
$DIMALTF
 40
0.0393701
  9
$DIMLFAC
 40
1.0
  9
$DIMTOFL
 70
     1
  9
$DIMTVP
 40
0.0
  9
$DIMTIX
 70
     0
  9
$DIMSOXD
 70
     0
  9
$DIMSAH
 70
     0
  9
$DIMBLK1
  1

  9
$DIMBLK2
  1

  9
$DIMSTYLE
  2
AM_ISO
  9
$DIMCLRD
 70
   256
  9
$DIMCLRE
 70
   256
  9
$DIMCLRT
 70
     2
  9
$DIMTFAC
 40
0.71
  9
$DIMGAP
 40
1.5
  9
$DIMJUST
 70
     0
  9
$DIMSD1
 70
     0
  9
$DIMSD2
 70
     0
  9
$DIMTOLJ
 70
     0
  9
$DIMTZIN
 70
     8
  9
$DIMALTZ
 70
     0
  9
$DIMALTTZ
 70
     0
  9
$DIMUPT
 70
     0
  9
$DIMDEC
 70
     1
  9
$DIMTDEC
 70
     2
  9
$DIMALTU
 70
     2
  9
$DIMALTTD
 70
     2
  9
$DIMTXSTY
  7
STANDARD
  9
$DIMAUNIT
 70
     0
  9
$DIMADEC
 70
     0
  9
$DIMALTRND
 40
0.0
  9
$DIMAZIN
 70
     2
  9
$DIMDSEP
 70
    46
  9
$DIMATFIT
 70
     3
  9
$DIMFRAC
 70
     0
  9
$DIMLDRBLK
  1
Open30
  9
$DIMLUNIT
 70
     2
  9
$DIMLWD
 70
    -1
  9
$DIMLWE
 70
    -1
  9
$DIMTMOVE
 70
     0
  9
$LUNITS
 70
     2
  9
$LUPREC
 70
     2
  9
$SKETCHINC
 40
1.0
  9
$FILLETRAD
 40
17.5
  9
$AUNITS
 70
     0
  9
$AUPREC
 70
     0
  9
$MENU
  1
.
  9
$ELEVATION
 40
0.0
  9
$PELEVATION
 40
0.0
  9
$THICKNESS
 40
0.0
  9
$LIMCHECK
 70
     0
  9
$CHAMFERA
 40
6.25
  9
$CHAMFERB
 40
6.25
  9
$CHAMFERC
 40
20.0
  9
$CHAMFERD
 40
0.0
  9
$SKPOLY
 70
     0
  9
$TDCREATE
 40
2453259.384138090
  9
$TDUCREATE
 40
2453259.009138090
  9
$TDUPDATE
 40
2455675.496725255
  9
$TDUUPDATE
 40
2455675.121725255
  9
$TDINDWG
 40
0.2817660995
  9
$TDUSRTIMER
 40
0.2817660995
  9
$USRTIMER
 70
     1
  9
$ANGBASE
 50
0.0
  9
$ANGDIR
 70
     0
  9
$PDMODE
 70
     0
  9
$PDSIZE
 40
0.0
  9
$PLINEWID
 40
0.0
  9
$SPLFRAME
 70
     0
  9
$SPLINETYPE
 70
     6
  9
$SPLINESEGS
 70
     8
  9
$HANDSEED
  5
3DA1
  9
$SURFTAB1
 70
     6
  9
$SURFTAB2
 70
     6
  9
$SURFTYPE
 70
     6
  9
$SURFU
 70
     6
  9
$SURFV
 70
     6
  9
$UCSBASE
  2

  9
$UCSNAME
  2

  9
$UCSORG
 10
0.0
 20
0.0
 30
0.0
  9
$UCSXDIR
 10
1.0
 20
0.0
 30
0.0
  9
$UCSYDIR
 10
0.0
 20
1.0
 30
0.0
  9
$UCSORTHOREF
  2

  9
$UCSORTHOVIEW
 70
     0
  9
$UCSORGTOP
 10
0.0
 20
0.0
 30
0.0
  9
$UCSORGBOTTOM
 10
0.0
 20
0.0
 30
0.0
  9
$UCSORGLEFT
 10
0.0
 20
0.0
 30
0.0
  9
$UCSORGRIGHT
 10
0.0
 20
0.0
 30
0.0
  9
$UCSORGFRONT
 10
0.0
 20
0.0
 30
0.0
  9
$UCSORGBACK
 10
0.0
 20
0.0
 30
0.0
  9
$PUCSBASE
  2

  9
$PUCSNAME
  2

  9
$PUCSORG
 10
0.0
 20
0.0
 30
0.0
  9
$PUCSXDIR
 10
1.0
 20
0.0
 30
0.0
  9
$PUCSYDIR
 10
0.0
 20
1.0
 30
0.0
  9
$PUCSORTHOREF
  2

  9
$PUCSORTHOVIEW
 70
     0
  9
$PUCSORGTOP
 10
0.0
 20
0.0
 30
0.0
  9
$PUCSORGBOTTOM
 10
0.0
 20
0.0
 30
0.0
  9
$PUCSORGLEFT
 10
0.0
 20
0.0
 30
0.0
  9
$PUCSORGRIGHT
 10
0.0
 20
0.0
 30
0.0
  9
$PUCSORGFRONT
 10
0.0
 20
0.0
 30
0.0
  9
$PUCSORGBACK
 10
0.0
 20
0.0
 30
0.0
  9
$USERI1
 70
     0
  9
$USERI2
 70
     0
  9
$USERI3
 70
     0
  9
$USERI4
 70
     0
  9
$USERI5
 70
     0
  9
$USERR1
 40
0.0
  9
$USERR2
 40
0.0
  9
$USERR3
 40
0.0
  9
$USERR4
 40
0.0
  9
$USERR5
 40
0.0
  9
$WORLDVIEW
 70
     1
  9
$SHADEDGE
 70
     3
  9
$SHADEDIF
 70
    70
  9
$TILEMODE
 70
     1
  9
$MAXACTVP
 70
    64
  9
$PINSBASE
 10
0.0
 20
0.0
 30
0.0
  9
$PLIMCHECK
 70
     0
  9
$PEXTMIN
 10
1.000000000000000E+20
 20
1.000000000000000E+20
 30
1.000000000000000E+20
  9
$PEXTMAX
 10
-1.000000000000000E+20
 20
-1.000000000000000E+20
 30
-1.000000000000000E+20
  9
$PLIMMIN
 10
-6.350006103515625
 20
-6.349999904632568
  9
$PLIMMAX
 10
273.0499877929688
 20
209.5499939918518
  9
$UNITMODE
 70
     0
  9
$VISRETAIN
 70
     1
  9
$PLINEGEN
 70
     0
  9
$PSLTSCALE
 70
     1
  9
$TREEDEPTH
 70
  3020
  9
$CMLSTYLE
  2
Standard
  9
$CMLJUST
 70
     0
  9
$CMLSCALE
 40
20.0
  9
$PROXYGRAPHICS
 70
     1
  9
$MEASUREMENT
 70
     1
  9
$CELWEIGHT
370
    -1
  9
$ENDCAPS
280
     0
  9
$JOINSTYLE
280
     0
  9
$LWDISPLAY
290
     0
  9
$INSUNITS
 70
     4
  9
$HYPERLINKBASE
  1

  9
$STYLESHEET
  1
takachi-1.ctb
  9
$XEDIT
290
     1
  9
$CEPSNTYPE
380
     0
  9
$PSTYLEMODE
290
     1
  9
$FINGERPRINTGUID
  2
{FDEAD578-A652-11D2-9A35-0060089B3A3F}
  9
$VERSIONGUID
  2
{DBB77481-AD13-4C0F-890C-A3E07344F5EC}
  9
$EXTNAMES
290
     1
  9
$PSVPSCALE
 40
0.0
  9
$OLESTARTUP
290
     0
  0
ENDSEC
  0
SECTION
  2
CLASSES
  0
CLASS
  1
ACDBDICTIONARYWDFLT
  2
AcDbDictionaryWithDefault
  3
ObjectDBX Classes
 90
        0
280
     0
281
     0
  0
CLASS
  1
ACDBPLACEHOLDER
  2
AcDbPlaceHolder
  3
ObjectDBX Classes
 90
        0
280
     0
281
     0
  0
CLASS
  1
LAYOUT
  2
AcDbLayout
  3
ObjectDBX Classes
 90
        0
280
     0
281
     0
  0
CLASS
  1
ACME_DOCUMENT
  2
AcMeDbDoc
  3
AcMeServices
 90
        0
280
     0
281
     0
  0
CLASS
  1
AMGSETTINGSOBJ
  2
AmgSettingsObj
  3
"AcadM|Product Description: AutoCAD Mechanical 2000|Company: Autodesk"
 90
        0
280
     0
281
     0
  0
CLASS
  1
ACMESCOPE
  2
AcMeScope
  3
AcMeServices
 90
        0
280
     0
281
     0
  0
CLASS
  1
ACMECOMMANDHISTORY
  2
AcMeCommandHistory
  3
AcMeServices
 90
        0
280
     0
281
     0
  0
CLASS
  1
ACIMSYSVARMAN
  2
AcImSysVarManager
  3
AcMeServices
 90
        0
280
     0
281
     0
  0
CLASS
  1
ACIMREALSYSVAR
  2
AcImRealSysVar
  3
AcMeServices
 90
        0
280
     0
281
     0
  0
CLASS
  1
ACIMINTSYSVAR
  2
AcImIntSysVar
  3
AcMeServices
 90
        0
280
     0
281
     0
  0
CLASS
  1
ACMEDRAWINGMAN
  2
AcMeDrawingMan
  3
AcMeServices
 90
        0
280
     0
281
     0
  0
CLASS
  1
ACMEVIEW
  2
AcMeView
  3
AcMeServices
 90
        0
280
     0
281
     0
  0
CLASS
  1
ACDBENTITYCACHE
  2
AcMeEntityCache
  3
AcMeServices
 90
        0
280
     0
281
     0
  0
CLASS
  1
GSMANAGER
  2
AcMeGSManager
  3
AcMeServices
 90
        0
280
     0
281
     0
  0
CLASS
  1
AMDTINTERNALREACTOR
  2
AmdtInternalReactor
  3
AcMeServices
 90
        0
280
     0
281
     0
  0
CLASS
  1
ACMESTATEMGR
  2
AcMeStateMgr
  3
AcMeServices
 90
        0
280
     0
281
     0
  0
CLASS
  1
ACGREFMASTER
  2
AcGrefMaster
  3
AcAttribServices
 90
        0
280
     0
281
     0
  0
CLASS
  1
ACME_DATABASE
  2
AcMeDbDatabase
  3
AcMeServices
 90
        0
280
     0
281
     0
  0
CLASS
  1
ACRFINSADJUSTERMGR
  2
AcRfInsAdjusterMgr
  3
AcMeServices
 90
        0
280
     0
281
     0
  0
CLASS
  1
ACGREFACADMASTER
  2
AcGrefacadMaster
  3
AcGrefServices
 90
        0
280
     0
281
     0
  0
CLASS
  1
AMIMASTER
  2
AmiMaster
  3
AmiServices
 90
        0
280
     0
281
     0
  0
CLASS
  1
ACMDATADICTIONARY
  2
AcmDataDictionary
  3
"AcmSymBB|Product Description: AutoCAD Mechanical 2004 DX|Company: Autodesk"
 90
        0
280
     0
281
     0
  0
CLASS
  1
ACMDATAENTRYBLOCK
  2
AcmDataEntryBlock
  3
"AcmSymBB|Product Description: AutoCAD Mechanical 2004 DX|Company: Autodesk"
 90
        0
280
     0
281
     0
  0
CLASS
  1
ACIMSTRSYSVAR
  2
AcImStrSysVar
  3
AcMeServices
 90
        0
280
     0
281
     0
  0
CLASS
  1
ACMSTANDARDISO
  2
AcmStandardISO
  3
"Amdt_StdImp|Product Description: AutoCAD Mechanical 2004 DX|Company: Autodesk"
 90
        0
280
     0
281
     0
  0
CLASS
  1
AMGOBJPROPCFG
  2
AmgObjPropCfg
  3
"AmgLay|Product Description: AutoCAD Mechanical 2000|Company: Autodesk"
 90
        1
280
     0
281
     0
  0
CLASS
  1
AMDTEDGESTANDARDISO
  2
AmdtEdgeStdISO
  3
"Amdt_StdImp|Product Description: AutoCAD Mechanical 2004 DX|Company: Autodesk"
 90
        0
280
     0
281
     0
  0
CLASS
  1
ACMSURFSTANDARDISO
  2
AcmSurfTextStdISO
  3
"Amdt_StdImp|Product Description: AutoCAD Mechanical 2004 DX|Company: Autodesk"
 90
        0
280
     0
281
     0
  0
CLASS
  1
ACMFCFSTANDARDISO
  2
AcmFCFStdISO
  3
"Amdt_StdImp|Product Description: AutoCAD Mechanical 2004 DX|Company: Autodesk"
 90
        0
280
     0
281
     0
  0
CLASS
  1
ACMWELDSTANDARDISO
  2
AcmWeldingStdISO
  3
"Amdt_StdImp|Product Description: AutoCAD Mechanical 2004 DX|Company: Autodesk"
 90
        0
280
     0
281
     0
  0
CLASS
  1
ACMIDSTANDARDISO
  2
AcmIdStdISO
  3
"Amdt_StdImp|Product Description: AutoCAD Mechanical 2004 DX|Company: Autodesk"
 90
        0
280
     0
281
     0
  0
CLASS
  1
ACMDATUMSTANDARDISO
  2
AcmDatumStdISO
  3
"Amdt_StdImp|Product Description: AutoCAD Mechanical 2004 DX|Company: Autodesk"
 90
        0
280
     0
281
     0
  0
CLASS
  1
ACMBOMSTANDARDISO
  2
AcmBOMStdISO
  3
"Amdt_StdImp|Product Description: AutoCAD Mechanical 2004 DX|Company: Autodesk"
 90
        0
280
     0
281
     0
  0
CLASS
  1
ACMDETAILSTANDARDISO
  2
AmdtDetailSymStdISO
  3
"Amdt_StdImp|Product Description: AutoCAD Mechanical 2004 DX|Company: Autodesk"
 90
        0
280
     0
281
     0
  0
CLASS
  1
ACMSECTIONSTANDARDISO
  2
AmdtSectionSymStdISO
  3
"Amdt_StdImp|Product Description: AutoCAD Mechanical 2004 DX|Company: Autodesk"
 90
        0
280
     0
281
     0
  0
CLASS
  1
ACMCENTERLINESTANDARDISO
  2
AmdtCenterLineStdISO
  3
"Amdt_StdImp|Product Description: AutoCAD Mechanical 2004 DX|Company: Autodesk"
 90
        0
280
     0
281
     0
  0
CLASS
  1
ACMNOTESTANDARDISO
  2
AmdtNoteStdISO
  3
"Amdt_StdImp|Product Description: AutoCAD Mechanical 2004 DX|Company: Autodesk"
 90
        0
280
     0
281
     0
  0
CLASS
  1
ACAMGLAYSTD
  2
AcAmgLayStd
  3
"AcAmgLayStd|Product Description: AutoCAD Mechanical 2000|Company: Autodesk"
 90
        0
280
     0
281
     0
  0
CLASS
  1
ACAMGDIMSTD
  2
AcAmgDimStd
  3
"AcAmgDimStd|Product Description: AutoCAD Mechanical 2000|Company: Autodesk"
 90
        0
280
     0
281
     0
  0
CLASS
  1
ACAMGHOLECHARTSTDISO
  2
AcAmgHoleChartStdISO
  3
ACMSYMBB_MODULE_NAME
 90
        0
280
     0
281
     0
  0
CLASS
  1
ACAMGTITLESTD
  2
AcAmgTitleStd
  3
"TITLEAPP"
 90
        0
280
     0
281
     0
  0
CLASS
  1
LAYER_INDEX
  2
AcDbLayerIndex
  3
ObjectDBX Classes
 90
    32768
280
     0
281
     0
  0
CLASS
  1
IDBUFFER
  2
AcDbIdBuffer
  3
ObjectDBX Classes
 90
    32768
280
     0
281
     0
  0
CLASS
  1
DICTIONARYVAR
  2
AcDbDictionaryVar
  3
ObjectDBX Classes
 90
        0
280
     0
281
     0
  0
CLASS
  1
AM_DRAWING_MGR
  2
AcDmDwgMgr
  3
AcMechDwgViewMgmt
 90
        0
280
     0
281
     0
  0
CLASS
  1
AM_DWG_DOCUMENT
  2
AcDmDwgDocument
  3
AcMechDwgViewMgmt
 90
        0
280
     0
281
     0
  0
CLASS
  1
AM_DWG_SHEET
  2
AcDmSheet
  3
AcMechDwgViewMgmt
 90
        0
280
     0
281
     0
  0
CLASS
  1
AM_VIEWDIMPARMAP
  2
AcDmViewDimParMap
  3
AcMechDwgViewMgmt
 90
        0
280
     0
281
     0
  0
CLASS
  1
AM_DWGMGR_NAME
  2
AcDmDwgMgrName
  3
AcMechDwgViewMgmt
 90
        0
280
     0
281
     0
  0
CLASS
  1
AMDTMENUSTATEMGR
  2
AmdtMenuStateMgr
  3
McadcomServices
 90
        0
280
     0
281
     0
  0
CLASS
  1
AMDTMCOMMENUSTATE
  2
AmdtMcomMenuState
  3
McadcomServices
 90
        0
280
     0
281
     0
  0
CLASS
  1
MAPIAMMOUDLE
  2
MApiAmModule
  3
MApiAmServices
 90
        0
280
     0
281
     0
  0
CLASS
  1
AMDTADMENUSTATE
  2
AmdtAdMenuState
  3
DesignerServices
 90
        0
280
     0
281
     0
  0
CLASS
  1
ADAPPL
  2
AcAdAppl
  3
DesignerServices
 90
        0
280
     0
281
     0
  0
CLASS
  1
DEPMGR
  2
AcAdDepMgr
  3
DesignerServices
 90
        0
280
     0
281
     0
  0
CLASS
  1
PARAMMGR
  2
AcAdParamMgr
  3
DesignerServices
 90
        0
280
     0
281
     0
  0
CLASS
  1
PARAMSCOPE
  2
AcAdParamScope
  3
DesignerServices
 90
        0
280
     0
281
     0
  0
CLASS
  1
NAMEDAPPL
  2
AcAdNamedAppl
  3
DesignerServices
 90
        0
280
     0
281
     0
  0
CLASS
  1
AMDTDMMENUSTATE
  2
AmdtDmMenuState
  3
AcMechDwgViewMgmt
 90
        0
280
     0
281
     0
  0
CLASS
  1
AMDTAMMENUSTATE
  2
AmdtAmMenuState
  3
DesignerAssemblies
 90
        0
280
     0
281
     0
  0
CLASS
  1
ACAMPROJECT
  2
AcAmProject
  3
DesignerAssemblies
 90
        0
280
     0
281
     0
  0
CLASS
  1
ACAMGRCOMPDEF
  2
AcAmGrCompDef
  3
DesignerAssemblies
 90
        0
280
     0
281
     0
  0
CLASS
  1
ACCMCONTEXT
  2
AcCmContext
  3
DesignerAssemblies
 90
        0
280
     0
281
     0
  0
CLASS
  1
ACAMCOMPDEF
  2
AcAmCompDef
  3
DesignerAssemblies
 90
        0
280
     0
281
     0
  0
CLASS
  1
ACAMCOMPDEFMGR
  2
AcAmCompDefMgr
  3
DesignerAssemblies
 90
        0
280
     0
281
     0
  0
CLASS
  1
AMCONTEXTMGR
  2
AcAmContextMgr
  3
DesignerAssemblies
 90
        0
280
     0
281
     0
  0
CLASS
  1
ACAMCONTEXTMODELER
  2
AcAmContextModeler
  3
DesignerAssemblies
 90
        0
280
     0
281
     0
  0
CLASS
  1
ACMTHREADLINESTANDARDISO
  2
AmdtThreadLineStdISO
  3
"Amdt_StdImp|Product Description: AutoCAD Mechanical 2004 DX|Company: Autodesk"
 90
        0
280
     0
281
     0
  0
CLASS
  1
CATALOGSTATE
  2
AcAmCatalogState
  3
DesignerAssemblies
 90
        0
280
     0
281
     0
  0
CLASS
  1
ACAMGRCOMPDEFSET
  2
AcAmGrCompDefSet
  3
DesignerAssemblies
 90
        0
280
     0
281
     0
  0
CLASS
  1
AMDTBROWSERDBTAB
  2
AmdtBrowserDbTab
  3
McadcomServices
 90
        0
280
     0
281
     0
  0
CLASS
  1
CBROWSERAPPOBJECT
  2
CBrowserAppObject
  3
McadcomServices
 90
        0
280
     0
281
     0
  0
CLASS
  1
DM_PLACEHOLDER
  2
AcDmSelsetPlaceholder
  3
AcMechDwgViewMgmt
 90
        0
280
     0
281
     0
  0
CLASS
  1
AMDTNOTETEMPLATEDB
  2
AmdtNoteTemplateDB
  3
AMDT_STDIMP_MODULE_NAME
 90
        0
280
     0
281
     0
  0
CLASS
  1
ACAMGFILTERDAT
  2
AcAmgFilterDat
  3
"AcadM|Product Description: AutoCAD Mechanical 2000|Company: Autodesk"
 90
        0
280
     0
281
     0
  0
CLASS
  1
AMDTNOTE
  2
AmdtNote
  3
"AcmSymBB|Product Description: AutoCAD Mechanical 2004 DX|Company: Autodesk"
 90
    33791
280
     0
281
     1
  0
CLASS
  1
AMDTFORMULAUPDATEDISPATCHER
  2
AmdtFormulaUpdateDispatcher
  3
AcMeServices
 90
        0
280
     0
281
     0
  0
CLASS
  1
AMDTSECTIONSYM
  2
AmdtSectionSym
  3
"AcmSymBB|Product Description: AutoCAD Mechanical 2004 DX|Company: Autodesk"
 90
    33791
280
     0
281
     1
  0
CLASS
  1
AMDTSECTIONSYMLABEL
  2
AmdtSectionSymLabel
  3
"AcmSymBB|Product Description: AutoCAD Mechanical 2004 DX|Company: Autodesk"
 90
    33791
280
     0
281
     1
  0
CLASS
  1
AMDTDETAILSYM
  2
AmdtDetailSym
  3
"AcmSymBB|Product Description: AutoCAD Mechanical 2004 DX|Company: Autodesk"
 90
    33791
280
     0
281
     1
  0
CLASS
  1
AMDTDETAILSYMLABEL
  2
AmdtDetailSymLabel
  3
"AcmSymBB|Product Description: AutoCAD Mechanical 2004 DX|Company: Autodesk"
 90
    33791
280
     0
281
     1
  0
CLASS
  1
ACMBOM
  2
AcmBom
  3
"AcmSymBB|Product Description: AutoCAD Mechanical 2004 DX|Company: Autodesk"
 90
        0
280
     0
281
     0
  0
CLASS
  1
ACMPARTLIST
  2
AcmPartList
  3
"AcmSymBB|Product Description: AutoCAD Mechanical 2004 DX|Company: Autodesk"
 90
     1023
280
     0
281
     1
  0
CLASS
  1
ACDBLINERES
  2
AcDbLineRes
  3
AcGrefServices
 90
    32768
280
     0
281
     0
  0
CLASS
  1
ACRFINSADJ
  2
AcRfInsAdjuster
  3
AcMeServices
 90
    32768
280
     0
281
     0
  0
CLASS
  1
DIMASSOC
  2
AcDbDimAssoc
  3
"AcDbDimAssoc|Product Desc:     AcDim ARX App For Dimension|Company:          Autodesk, Inc.|WEB Address:      www.autodesk.com"
 90
        0
280
     0
281
     0
  0
CLASS
  1
TABLESTYLE
  2
AcDbTableStyle
  3
ObjectDBX Classes
 90
     2047
280
     0
281
     0
  0
CLASS
  1
VAACXREFPANELOBJECT
  2
VaAcXREFPanelObject
  3
VAAC_ADDIN
 90
    32768
280
     0
281
     0
  0
CLASS
  1
VAACIMAGEINVENTORY
  2
VaAcImageInventory
  3
VAAC_ADDIN
 90
    32768
280
     0
281
     0
  0
CLASS
  1
ACMDATAENTRYPART
  2
AcmDataEntryPart
  3
"AcmSymBB|Product Description: AutoCAD Mechanical 2004 DX|Company: Autodesk"
 90
        0
280
     0
281
     0
  0
CLASS
  1
ACMPARTREF
  2
AcmPartRef
  3
"AcmSymBB|Product Description: AutoCAD Mechanical 2004 DX|Company: Autodesk"
 90
     1023
280
     0
281
     1
  0
CLASS
  1
ACMBOMROW
  2
AcmBomRow
  3
"AcmSymBB|Product Description: AutoCAD Mechanical 2004 DX|Company: Autodesk"
 90
        0
280
     0
281
     0
  0
CLASS
  1
ACMDATAENTRY
  2
AcmDataEntry
  3
"AcmSymBB|Product Description: AutoCAD Mechanical 2004 DX|Company: Autodesk"
 90
        0
280
     0
281
     0
  0
CLASS
  1
ACDBOPPOLYLINERES
  2
AcDbOpPolylineRes
  3
AcGrefServices
 90
    32768
280
     0
281
     0
  0
CLASS
  1
SORTENTSTABLE
  2
AcDbSortentsTable
  3
ObjectDBX Classes
 90
        0
280
     0
281
     0
  0
CLASS
  1
ACMBALLOON
  2
AcmBalloon
  3
"AcmSymBB|Product Description: AutoCAD Mechanical 2004 DX|Company: Autodesk"
 90
     1023
280
     0
281
     1
  0
CLASS
  1
ACDBDIMENSIONRES
  2
AcDbDimensionRes
  3
"AcDbDimensionRes|Product Description: AutoCAD Mechanical 2000|Company: Autodesk"
 90
        0
280
     0
281
     0
  0
CLASS
  1
ACRFATTGENMGR
  2
AcRfAttGeneralMgr
  3
AcAttribServices
 90
        0
280
     0
281
     0
  0
ENDSEC
  0
SECTION
  2
TABLES
  0
TABLE
  2
VPORT
  5
8
330
0
100
AcDbSymbolTable
 70
     3
  0
VPORT
  5
3D94
330
8
100
AcDbSymbolTableRecord
100
AcDbViewportTableRecord
  2
*Active
 70
     0
 10
0.0
 20
0.0
 11
1.0
 21
1.0
 12
355.4968843673295
 22
350.0159890191619
 13
0.0
 23
0.0
 14
6.25
 24
6.25
 15
25.0
 25
25.0
 16
0.0
 26
0.0
 36
1.0
 17
0.0
 27
0.0
 37
0.0
 40
705.6995788025473
 41
1.16516129032258
 42
50.0
 43
0.0
 44
0.0
 50
0.0
 51
0.0
 71
     0
 72
   100
 73
     1
 74
     3
 75
     0
 76
     0
 77
     0
 78
     0
281
     0
 65
     1
110
0.0
120
0.0
130
0.0
111
1.0
121
0.0
131
0.0
112
0.0
122
1.0
132
0.0
 79
     0
146
0.0
  0
ENDTAB
  0
TABLE
  2
LTYPE
  5
5
330
0
100
AcDbSymbolTable
 70
    20
  0
LTYPE
  5
14
330
5
100
AcDbSymbolTableRecord
100
AcDbLinetypeTableRecord
  2
ByBlock
 70
     0
  3

 72
    65
 73
     0
 40
0.0
  0
LTYPE
  5
15
330
5
100
AcDbSymbolTableRecord
100
AcDbLinetypeTableRecord
  2
ByLayer
 70
     0
  3

 72
    65
 73
     0
 40
0.0
  0
LTYPE
  5
16
330
5
100
AcDbSymbolTableRecord
100
AcDbLinetypeTableRecord
  2
Continuous
 70
     0
  3
Solid line
 72
    65
 73
     0
 40
0.0
  0
LTYPE
  5
64
330
5
100
AcDbSymbolTableRecord
100
AcDbLinetypeTableRecord
  2
AM_ISO02W050
 70
     0
  3
__ __ __ __ __ __ __ __ __ __ __ __ __ __ __
 72
    65
 73
     2
 40
7.5
 49
6.0
 74
     0
 49
-1.5
 74
     0
  0
LTYPE
  5
65
330
5
100
AcDbSymbolTableRecord
100
AcDbLinetypeTableRecord
  2
AM_ISO08W050
 70
     0
  3
____ . ____ . ____ . ____ . ____ . ____ . ____
 72
    65
 73
     4
 40
18.0
 49
12.0
 74
     0
 49
-1.5
 74
     0
 49
3.0
 74
     0
 49
-1.5
 74
     0
  0
LTYPE
  5
66
330
5
100
AcDbSymbolTableRecord
100
AcDbLinetypeTableRecord
  2
AM_ISO09W050
 70
     0
  3
_____ . . _____ . . _____ . . ____ .. ____
 72
    65
 73
     6
 40
22.5
 49
12.0
 74
     0
 49
-1.5
 74
     0
 49
3.0
 74
     0
 49
-1.5
 74
     0
 49
3.0
 74
     0
 49
-1.5
 74
     0
  0
LTYPE
  5
67
330
5
100
AcDbSymbolTableRecord
100
AcDbLinetypeTableRecord
  2
Amconstr
 70
     0
  3
_______________________
 72
    65
 73
     2
 40
9999.0
 49
9999.0
 74
     0
 49
0.0
 74
     0
  0
LTYPE
  5
68
330
5
100
AcDbSymbolTableRecord
100
AcDbLinetypeTableRecord
  2
AM_ISO08W050x2
 70
     0
  3
__ . __ . __ . __ . __ . __
 72
    65
 73
     4
 40
9.0
 49
6.0
 74
     0
 49
-0.75
 74
     0
 49
1.5
 74
     0
 49
-0.75
 74
     0
  0
LTYPE
  5
69
330
5
100
AcDbSymbolTableRecord
100
AcDbLinetypeTableRecord
  2
AM_ISO02W050x2
 70
     0
  3
 _ _ _ _ _ _ _ _ _ _ _ _
 72
    65
 73
     2
 40
3.75
 49
3.0
 74
     0
 49
-0.75
 74
     0
  0
LTYPE
  5
6C
330
5
100
AcDbSymbolTableRecord
100
AcDbLinetypeTableRecord
  2
Amzigzag
 70
     0
  3
/\/-/\/-/\/-/\/-/\/-/\/
 72
    65
 73
     2
 40
11.0001
 49
0.0001
 74
     4
 75
   135
340
6B
 46
0.04
 50
0.0
 44
0.0
 45
0.0
 49
-11.0
 74
     0
  0
LTYPE
  5
7A
330
5
100
AcDbSymbolTableRecord
100
AcDbLinetypeTableRecord
  2
ACISOWELD
 70
     0
  3
_ _ _ _ _
 72
    65
 73
     2
 40
2.0
 49
2.0
 74
     0
 49
-1.0
 74
     0
  0
LTYPE
  5
7B
330
5
100
AcDbSymbolTableRecord
100
AcDbLinetypeTableRecord
  2
ACISOTGB
 70
     0
  3
__ . . __ . .
 72
    65
 73
     6
 40
9.0
 49
4.0
 74
     0
 49
-1.0
 74
     0
 49
1.0
 74
     0
 49
-1.0
 74
     0
 49
1.0
 74
     0
 49
-1.0
 74
     0
  0
LTYPE
  5
7C
330
5
100
AcDbSymbolTableRecord
100
AcDbLinetypeTableRecord
  2
ACISOTGL
 70
     0
  3
_ _ _ _ _
 72
    65
 73
     2
 40
3.0
 49
2.0
 74
     0
 49
-1.0
 74
     0
  0
LTYPE
  5
7E
330
5
100
AcDbSymbolTableRecord
100
AcDbLinetypeTableRecord
  2
CENTER
 70
     0
  3
__ . __
 72
    65
 73
     4
 40
7.0
 49
4.0
 74
     0
 49
-1.0
 74
     0
 49
1.0
 74
     0
 49
-1.0
 74
     0
  0
LTYPE
  5
D8
330
5
100
AcDbSymbolTableRecord
100
AcDbLinetypeTableRecord
  2
HIDDEN
 70
     0
  3
Hidden __ __ __ __ __ __ __ __ __ __ __ __ __ _
 72
    65
 73
     2
 40
9.524999999999998
 49
6.349999999999999
 74
     0
 49
-3.174999999999999
 74
     0
  0
LTYPE
  5
D9
330
5
100
AcDbSymbolTableRecord
100
AcDbLinetypeTableRecord
  2
PHANTOM2
 70
     0
  3
Phantom (.5x) ___ _ _ ___ _ _ ___ _ _ ___ _ _
 72
    65
 73
     6
 40
31.75
 49
15.875
 74
     0
 49
-3.174999999999999
 74
     0
 49
3.174999999999999
 74
     0
 49
-3.174999999999999
 74
     0
 49
3.174999999999999
 74
     0
 49
-3.174999999999999
 74
     0
  0
LTYPE
  5
200
330
5
100
AcDbSymbolTableRecord
100
AcDbLinetypeTableRecord
  2
gen3
 70
     0
  3
-- -- -- -- -- -- -- -- -- -- -- -- -- -- --
 72
    65
 73
     2
 40
6.25
 49
4.75
 74
     0
 49
-1.5
 74
     0
  0
LTYPE
  5
201
330
5
100
AcDbSymbolTableRecord
100
AcDbLinetypeTableRecord
  2
gen7
 70
     0
  3
____ . ____ . ____ . ____ . ____ . ____ . ____
 72
    65
 73
     4
 40
13.75
 49
9.75
 74
     0
 49
-1.5
 74
     0
 49
1.0
 74
     0
 49
-1.5
 74
     0
  0
LTYPE
  5
202
330
5
100
AcDbSymbolTableRecord
100
AcDbLinetypeTableRecord
  2
gen3a
 70
     0
  3
 - - - - -
 72
    65
 73
     2
 40
3.125
 49
2.25
 74
     0
 49
-0.875
 74
     0
  0
LTYPE
  5
203
330
5
100
AcDbSymbolTableRecord
100
AcDbLinetypeTableRecord
  2
gen7a
 70
     0
  3
__ . __ . __
 72
    65
 73
     4
 40
6.875
 49
4.75
 74
     0
 49
-0.875
 74
     0
 49
0.375
 74
     0
 49
-0.875
 74
     0
  0
LTYPE
  5
204
330
5
100
AcDbSymbolTableRecord
100
AcDbLinetypeTableRecord
  2
gen4a
 70
     0
  3
_____ . . _____ . . _____ . . ____ .. ____
 72
    65
 73
     6
 40
16.25
 49
9.75
 74
     0
 49
-1.5
 74
     0
 49
1.0
 74
     0
 49
-1.5
 74
     0
 49
1.0
 74
     0
 49
-1.5
 74
     0
  0
LTYPE
  5
205
330
5
100
AcDbSymbolTableRecord
100
AcDbLinetypeTableRecord
  2
genzigzag
 70
     0
  3
/\/-/\/-/\/-/\/-/\/-/\/
 72
    65
 73
     2
 40
12.0001
 49
0.0001
 74
     4
 75
   135
340
208
 46
2.0
 50
0.0
 44
0.0
 45
0.0
 49
-12.0
 74
     0
  0
ENDTAB
  0
TABLE
  2
LAYER
  5
2
102
{ACAD_XDICTIONARY
360
35D
102
}
330
0
100
AcDbSymbolTable
 70
    12
  0
LAYER
  5
10
330
2
100
AcDbSymbolTableRecord
100
AcDbLayerTableRecord
  2
0
 70
     0
 62
     7
  6
Continuous
370
    -3
390
F
  0
LAYER
  5
1E1
330
2
100
AcDbSymbolTableRecord
100
AcDbLayerTableRecord
  2
Defpoints
 70
     0
 62
     7
  6
Continuous
290
     0
370
    -3
390
F
  0
LAYER
  5
1FA
330
2
100
AcDbSymbolTableRecord
100
AcDbLayerTableRecord
  2
ﾌﾞﾗｹｯﾄ
 70
     0
 62
     7
  6
Continuous
370
    25
390
F
  0
LAYER
  5
206
330
2
100
AcDbSymbolTableRecord
100
AcDbLayerTableRecord
  2
RAHM2
 70
     0
 62
     1
  6
Continuous
370
    -3
390
F
  0
LAYER
  5
22C
330
2
100
AcDbSymbolTableRecord
100
AcDbLayerTableRecord
  2
7A
 70
     0
 62
     4
  6
gen7a
370
    -3
390
F
  0
LAYER
  5
302
330
2
100
AcDbSymbolTableRecord
100
AcDbLayerTableRecord
  2
ｽﾍﾟｰｻｰ
 70
     0
 62
     5
  6
Continuous
370
    25
390
F
  0
LAYER
  5
307
330
2
100
AcDbSymbolTableRecord
100
AcDbLayerTableRecord
  2
AM_5
 70
     0
 62
     3
  6
Continuous
370
    18
390
F
  0
LAYER
  5
277A
330
2
100
AcDbSymbolTableRecord
100
AcDbLayerTableRecord
  2
ｷｬｯﾌﾟ
 70
     0
 62
     3
  6
Continuous
370
    25
390
F
1001
AcAecLayerStandard
1000

1000

  0
LAYER
  5
2780
330
2
100
AcDbSymbolTableRecord
100
AcDbLayerTableRecord
  2
ｽﾃｰﾀｰ
 70
     0
 62
     6
  6
Continuous
370
    25
390
F
1001
AcAecLayerStandard
1000

1000

  0
LAYER
  5
2788
330
2
100
AcDbSymbolTableRecord
100
AcDbLayerTableRecord
  2
AM_12
 70
     0
 62
     7
  6
Continuous
290
     0
370
    50
390
F
  0
LAYER
  5
2789
330
2
100
AcDbSymbolTableRecord
100
AcDbLayerTableRecord
  2
AM_PAREF
 70
     0
 62
     4
  6
Continuous
290
     0
370
    25
390
F
  0
LAYER
  5
2F74
330
2
100
AcDbSymbolTableRecord
100
AcDbLayerTableRecord
  2
TK1
 70
     0
 62
     7
  6
Continuous
370
    25
390
F
  0
ENDTAB
  0
TABLE
  2
STYLE
  5
3
330
0
100
AcDbSymbolTable
 70
    10
  0
STYLE
  5
11
330
3
100
AcDbSymbolTableRecord
100
AcDbTextStyleTableRecord
  2
STANDARD
 70
     0
 40
0.0
 41
1.0
 50
0.0
 71
     0
 42
73.98571745357912
  3
ISOCP.SHX
  4
bigfont.shx
  0
STYLE
  5
6B
330
3
100
AcDbSymbolTableRecord
100
AcDbTextStyleTableRecord
  2

 70
     1
 40
0.0
 41
1.0
 50
0.0
 71
     0
 42
2.5
  3
ltypeshp.shx
  4

  0
STYLE
  5
6D
330
3
100
AcDbSymbolTableRecord
100
AcDbTextStyleTableRecord
  2
ACISOTS
 70
     0
 40
1.0
 41
1.0
 50
0.0
 71
     0
 42
2.5
  3
isocp.shx
  4
extfont.shx
  0
STYLE
  5
79
330
3
100
AcDbSymbolTableRecord
100
AcDbTextStyleTableRecord
  2
ACISOGDT
 70
     0
 40
0.0
 41
1.0
 50
0.0
 71
     0
 42
2.5
  3
amgdt.shx
  4

  0
STYLE
  5
133
330
3
100
AcDbSymbolTableRecord
100
AcDbTextStyleTableRecord
  2
USER1
 70
     0
 40
0.0
 41
1.0
 50
0.0
 71
     0
 42
2.5
  3
TXT.SHX
  4

  0
STYLE
  5
134
330
3
100
AcDbSymbolTableRecord
100
AcDbTextStyleTableRecord
  2
USER2
 70
     0
 40
0.0
 41
1.0
 50
0.0
 71
     0
 42
2.5
  3
SIMPLEX.SHX
  4

  0
STYLE
  5
135
330
3
100
AcDbSymbolTableRecord
100
AcDbTextStyleTableRecord
  2
USER3
 70
     0
 40
0.0
 41
1.0
 50
0.0
 71
     0
 42
2.5
  3
ITALIC.SHX
  4

  0
STYLE
  5
1F8
330
3
100
AcDbSymbolTableRecord
100
AcDbTextStyleTableRecord
  2
ACJISTS
 70
     0
 40
1.0
 41
1.0
 50
0.0
 71
     0
 42
2.5
  3
isocp.shx
  4
bigfont.shx
  0
STYLE
  5
1F9
330
3
100
AcDbSymbolTableRecord
100
AcDbTextStyleTableRecord
  2
ACJISGDT
 70
     0
 40
0.0
 41
1.0
 50
0.0
 71
     0
 42
2.5
  3
amgdt.shx
  4

  0
STYLE
  5
208
330
3
100
AcDbSymbolTableRecord
100
AcDbTextStyleTableRecord
  2

 70
     1
 40
0.0
 41
1.0
 50
0.0
 71
     0
 42
2.5
  3
genltshp.shx
  4

  0
ENDTAB
  0
TABLE
  2
VIEW
  5
6
330
0
100
AcDbSymbolTable
 70
     6
  0
VIEW
  5
291
330
6
100
AcDbSymbolTableRecord
100
AcDbViewTableRecord
  2
AM_VIEW1
 70
     0
 40
350.0
 10
203.8659793814433
 20
525.0
 41
407.7319587628866
 11
0.0
 21
0.0
 31
1.0
 12
0.0
 22
0.0
 32
0.0
 42
50.0
 43
0.0
 44
0.0
 50
0.0
 71
     0
281
     0
 72
     0
  0
VIEW
  5
292
330
6
100
AcDbSymbolTableRecord
100
AcDbViewTableRecord
  2
AM_VIEW2
 70
     0
 40
350.0
 10
278.6340206185566
 20
525.0
 41
407.7319587628866
 11
0.0
 21
0.0
 31
1.0
 12
0.0
 22
0.0
 32
0.0
 42
50.0
 43
0.0
 44
0.0
 50
0.0
 71
     0
281
     0
 72
     0
  0
VIEW
  5
293
330
6
100
AcDbSymbolTableRecord
100
AcDbViewTableRecord
  2
AM_VIEW3
 70
     0
 40
350.0
 10
203.8659793814433
 20
175.0
 41
407.7319587628866
 11
0.0
 21
0.0
 31
1.0
 12
0.0
 22
0.0
 32
0.0
 42
50.0
 43
0.0
 44
0.0
 50
0.0
 71
     0
281
     0
 72
     0
  0
VIEW
  5
294
330
6
100
AcDbSymbolTableRecord
100
AcDbViewTableRecord
  2
AM_VIEW4
 70
     0
 40
350.0
 10
278.6340206185566
 20
175.0
 41
407.7319587628866
 11
0.0
 21
0.0
 31
1.0
 12
0.0
 22
0.0
 32
0.0
 42
50.0
 43
0.0
 44
0.0
 50
0.0
 71
     0
281
     0
 72
     0
  0
VIEW
  5
295
330
6
100
AcDbSymbolTableRecord
100
AcDbViewTableRecord
  2
AM_VIEW5
 70
     0
 40
350.0000000000001
 10
241.25
 20
350.0
 41
407.7319587628867
 11
0.0
 21
0.0
 31
1.0
 12
0.0
 22
0.0
 32
0.0
 42
50.0
 43
0.0
 44
0.0
 50
0.0
 71
     0
281
     0
 72
     0
  0
VIEW
  5
296
330
6
100
AcDbSymbolTableRecord
100
AcDbViewTableRecord
  2
AM_VIEW6
 70
     0
 40
699.9930000000001
 10
241.25
 20
350.0000000000001
 41
815.4557628865982
 11
0.0
 21
0.0
 31
1.0
 12
0.0
 22
0.0
 32
0.0
 42
50.0
 43
0.0
 44
0.0
 50
0.0
 71
     0
281
     0
 72
     0
  0
ENDTAB
  0
TABLE
  2
UCS
  5
7
330
0
100
AcDbSymbolTable
 70
     0
  0
ENDTAB
  0
TABLE
  2
APPID
  5
9
330
0
100
AcDbSymbolTable
 70
    37
  0
APPID
  5
12
330
9
100
AcDbSymbolTableRecord
100
AcDbRegAppTableRecord
  2
ACAD
 70
     0
  0
APPID
  5
46
330
9
100
AcDbSymbolTableRecord
100
AcDbRegAppTableRecord
  2
MCAD_NO_VIS
 70
     0
  0
APPID
  5
47
330
9
100
AcDbSymbolTableRecord
100
AcDbRegAppTableRecord
  2
ACAD_TEMP_GRAPHIC
 70
     0
  0
APPID
  5
58
330
9
100
AcDbSymbolTableRecord
100
AcDbRegAppTableRecord
  2
ACATTRIBSERVICES
 70
     0
  0
APPID
  5
EE
330
9
100
AcDbSymbolTableRecord
100
AcDbRegAppTableRecord
  2
AD_DRAW
 70
     0
  0
APPID
  5
10C
330
9
100
AcDbSymbolTableRecord
100
AcDbRegAppTableRecord
  2
DESIGNERASSEMBLIES
 70
     0
  0
APPID
  5
111
330
9
100
AcDbSymbolTableRecord
100
AcDbRegAppTableRecord
  2
ACADM_DIM_EDIT
 70
     0
  0
APPID
  5
112
330
9
100
AcDbSymbolTableRecord
100
AcDbRegAppTableRecord
  2
AMDT_DM_ADJ
 70
     0
  0
APPID
  5
1E2
330
9
100
AcDbSymbolTableRecord
100
AcDbRegAppTableRecord
  2
GENIUS_GENREC_14
 70
     0
  0
APPID
  5
1E3
330
9
100
AcDbSymbolTableRecord
100
AcDbRegAppTableRecord
  2
GENIUS_GENODEF_13
 70
     0
  0
APPID
  5
1E4
330
9
100
AcDbSymbolTableRecord
100
AcDbRegAppTableRecord
  2
GENIUS_GENOBJ-N-REC_13
 70
     0
  0
APPID
  5
1E5
330
9
100
AcDbSymbolTableRecord
100
AcDbRegAppTableRecord
  2
GENIUS_GENDIMSH_14
 70
     0
  0
APPID
  5
1E6
330
9
100
AcDbSymbolTableRecord
100
AcDbRegAppTableRecord
  2
GENIUS_GENCFG_13
 70
     0
  0
APPID
  5
1E7
330
9
100
AcDbSymbolTableRecord
100
AcDbRegAppTableRecord
  2
GENIUS_GENCFG0_13
 70
     0
  0
APPID
  5
1E8
330
9
100
AcDbSymbolTableRecord
100
AcDbRegAppTableRecord
  2
GENIUS_GENCFG1_13
 70
     0
  0
APPID
  5
1E9
330
9
100
AcDbSymbolTableRecord
100
AcDbRegAppTableRecord
  2
GENIUS_GENCFG2_13
 70
     0
  0
APPID
  5
1EA
330
9
100
AcDbSymbolTableRecord
100
AcDbRegAppTableRecord
  2
GENIUS_GENCFG3_13
 70
     0
  0
APPID
  5
1EB
330
9
100
AcDbSymbolTableRecord
100
AcDbRegAppTableRecord
  2
GENIUS_GENCFG4_13
 70
     0
  0
APPID
  5
1EC
330
9
100
AcDbSymbolTableRecord
100
AcDbRegAppTableRecord
  2
GENIUS_GEVCFG0_13
 70
     0
  0
APPID
  5
1ED
330
9
100
AcDbSymbolTableRecord
100
AcDbRegAppTableRecord
  2
GENIUS_GENOENT_13
 70
     0
  0
APPID
  5
1EE
330
9
100
AcDbSymbolTableRecord
100
AcDbRegAppTableRecord
  2
GENIUS_GENOBJ-N-CRS_13
 70
     0
  0
APPID
  5
1EF
330
9
100
AcDbSymbolTableRecord
100
AcDbRegAppTableRecord
  2
GENIUS_GENOREF_13
 70
     0
  0
APPID
  5
1F0
330
9
100
AcDbSymbolTableRecord
100
AcDbRegAppTableRecord
  2
GENIUS_GENOLIS_13
 70
     0
  0
APPID
  5
1F1
330
9
100
AcDbSymbolTableRecord
100
AcDbRegAppTableRecord
  2
GENIUS_GENOBJ-N-TIT_13
 70
     0
  0
APPID
  5
1F2
330
9
100
AcDbSymbolTableRecord
100
AcDbRegAppTableRecord
  2
GENIUS_GENTITLE_13
 70
     0
  0
APPID
  5
1F3
330
9
100
AcDbSymbolTableRecord
100
AcDbRegAppTableRecord
  2
GENIUS_GENSCREG_15
 70
     0
  0
APPID
  5
1F4
330
9
100
AcDbSymbolTableRecord
100
AcDbRegAppTableRecord
  2
GENIUS_GENOBJ-N-SDF_13
 70
     0
  0
APPID
  5
1F5
330
9
100
AcDbSymbolTableRecord
100
AcDbRegAppTableRecord
  2
GENIUS_GENOBJ-N-CEN_13
 70
     0
  0
APPID
  5
1F6
330
9
100
AcDbSymbolTableRecord
100
AcDbRegAppTableRecord
  2
GENIUS_GENOBJ-N-HTC_13
 70
     0
  0
APPID
  5
1F7
330
9
100
AcDbSymbolTableRecord
100
AcDbRegAppTableRecord
  2
GENIUS_GENHATCH_13
 70
     0
  0
APPID
  5
484
330
9
100
AcDbSymbolTableRecord
100
AcDbRegAppTableRecord
  2
GENIUS_GENOBJ-N-ZOO_13
 70
     0
  0
APPID
  5
485
330
9
100
AcDbSymbolTableRecord
100
AcDbRegAppTableRecord
  2
GENIUS_GENZOO_17
 70
     0
  0
APPID
  5
898
330
9
100
AcDbSymbolTableRecord
100
AcDbRegAppTableRecord
  2
RAK
 70
     0
  0
APPID
  5
899
330
9
100
AcDbSymbolTableRecord
100
AcDbRegAppTableRecord
  2
GENIUS_GENOBJ-N-FIL_13
 70
     0
  0
APPID
  5
2778
330
9
100
AcDbSymbolTableRecord
100
AcDbRegAppTableRecord
  2
GENIUS_GENCEN_19
 70
     0
  0
APPID
  5
277B
330
9
100
AcDbSymbolTableRecord
100
AcDbRegAppTableRecord
  2
AcAecLayerStandard
 70
     0
  0
APPID
  5
3B9A
330
9
100
AcDbSymbolTableRecord
100
AcDbRegAppTableRecord
  2
GENIUS_GENDTOL_13
 70
     0
  0
ENDTAB
  0
TABLE
  2
DIMSTYLE
  5
A
330
0
100
AcDbSymbolTable
 70
    24
100
AcDbDimStyleTable
 71
     6
340
81
340
27
340
20D
340
20F
340
20E
340
209
  0
DIMSTYLE
105
27
330
A
100
AcDbSymbolTableRecord
100
AcDbDimStyleTableRecord
  2
ISO-25
 70
     0
 41
2.5
 42
0.625
 43
3.75
 44
1.25
 73
     0
 74
     0
 77
     1
 78
     8
140
2.5
141
2.5
143
0.03937007874016
147
0.625
171
     3
172
     1
271
     2
272
     2
274
     3
278
    44
283
     0
284
     8
340
11
341
407
342
407
  0
DIMSTYLE
105
81
330
A
100
AcDbSymbolTableRecord
100
AcDbDimStyleTableRecord
  2
AM_ISO
 70
     0
  4
"
 41
2.5
 42
1.0
 43
10.0
 44
1.0
 47
0.1
 48
0.1
 73
     0
 74
     0
 77
     1
 78
     8
 79
     2
140
3.5
141
0.0
143
0.0393701
146
0.71
147
1.5
172
     1
176
   256
177
   256
178
     2
271
     2
272
     2
283
     0
284
     8
340
11
341
407
342
407
371
    -1
372
    -1
  0
DIMSTYLE
105
82
330
A
100
AcDbSymbolTableRecord
100
AcDbDimStyleTableRecord
  2
AM_ISO$3
 70
     0
  4
"
 41
2.5
 42
1.0
 43
10.0
 44
1.0
 47
0.1
 48
0.1
 73
     0
 77
     1
 78
     8
 79
     2
140
3.5
141
0.0
143
0.0393701
146
0.71
147
1.5
176
   256
177
   256
178
     2
271
     2
272
     2
283
     0
284
     8
288
     1
289
     0
340
11
341
407
342
407
371
    -1
372
    -1
  0
DIMSTYLE
105
83
330
A
100
AcDbSymbolTableRecord
100
AcDbDimStyleTableRecord
  2
AM_ISO$4
 70
     0
  4
"
 41
2.5
 42
1.0
 43
10.0
 44
1.0
 47
0.1
 48
0.1
 73
     0
 77
     1
 78
     8
 79
     2
140
3.5
141
0.0
143
0.0393701
146
0.71
147
1.5
176
   256
177
   256
178
     2
271
     2
272
     2
283
     0
284
     8
288
     1
289
     0
340
11
341
407
342
407
371
    -1
372
    -1
  0
DIMSTYLE
105
84
330
A
100
AcDbSymbolTableRecord
100
AcDbDimStyleTableRecord
  2
AM_ISO$6
 70
     0
  4
"
 41
2.5
 42
1.0
 43
10.0
 44
1.0
 47
0.1
 48
0.1
 73
     0
 74
     0
 78
     8
 79
     2
140
3.5
141
0.0
143
0.0393701
146
0.71
147
1.5
172
     1
176
   256
177
   256
178
     2
271
     2
272
     2
283
     0
284
     8
340
11
341
407
342
407
371
    -1
372
    -1
  0
DIMSTYLE
105
85
330
A
100
AcDbSymbolTableRecord
100
AcDbDimStyleTableRecord
  2
AM_ISO$7
 70
     0
  4
"
 41
2.5
 42
1.0
 43
10.0
 44
1.0
 47
0.1
 48
0.1
 73
     0
 74
     0
 77
     1
 78
     8
 79
     2
140
5.0
141
0.0
143
0.0393701
146
0.71
147
1.5
172
     1
176
   256
177
   256
178
     2
271
     2
272
     2
283
     0
284
     8
340
11
341
407
342
407
371
    -1
372
    -1
  0
DIMSTYLE
105
86
330
A
100
AcDbSymbolTableRecord
100
AcDbDimStyleTableRecord
  2
AM_ISO$SF
 70
     0
  4
"
 41
2.5
 42
1.0
 43
10.0
 44
1.0
 47
0.1
 48
0.1
 73
     0
 74
     0
 75
     1
 76
     1
 77
     1
 78
     8
 79
     2
140
3.5
141
0.0
143
0.0393701
146
0.71
147
1.5
172
     1
176
   256
177
   256
178
     2
271
     2
272
     2
283
     0
284
     8
340
11
341
407
342
407
371
    -1
372
    -1
  0
DIMSTYLE
105
8B
330
A
100
AcDbSymbolTableRecord
100
AcDbDimStyleTableRecord
  2
AM_ISO$SH
 70
     0
  4
"
 41
2.5
 42
1.0
 43
10.0
 44
1.0
 47
0.1
 48
0.1
 73
     0
 74
     0
 75
     1
 76
     1
 77
     1
 78
     8
 79
     2
140
3.5
141
0.0
143
0.0393701
144
2.0
146
0.71
147
1.5
172
     1
173
     1
176
   256
177
   256
178
     2
271
     2
272
     2
283
     0
284
     8
340
11
341
407
343
87
344
407
371
    -1
372
    -1
  0
DIMSTYLE
105
209
330
A
100
AcDbSymbolTableRecord
100
AcDbDimStyleTableRecord
  2
GEN-ISO
 70
     0
  4
"
 41
2.5
 42
1.0
 43
10.0
 44
1.0
 47
0.1
 48
0.1
 73
     0
 74
     0
 77
     1
 78
     8
140
3.5
141
0.0
143
0.0393701
146
0.71
147
1.5
172
     1
176
   256
177
   256
178
     2
271
     2
272
     2
283
     0
340
11
341
407
342
407
  0
DIMSTYLE
105
20A
330
A
100
AcDbSymbolTableRecord
100
AcDbDimStyleTableRecord
  2
GEN-ISO$3
 70
     0
  4
"
 41
2.5
 42
1.0
 43
10.0
 44
1.0
 47
0.1
 48
0.1
 73
     0
 77
     1
 78
     8
140
3.5
141
0.0
143
0.0393701
146
0.71
147
1.5
176
   256
177
   256
178
     2
271
     2
272
     2
283
     0
288
     1
289
     0
340
11
341
407
342
407
  0
DIMSTYLE
105
20B
330
A
100
AcDbSymbolTableRecord
100
AcDbDimStyleTableRecord
  2
GEN-ISO$4
 70
     0
  4
"
 41
2.5
 42
1.0
 43
10.0
 44
1.0
 47
0.1
 48
0.1
 73
     0
 77
     1
 78
     8
140
3.5
141
0.0
143
0.0393701
146
0.71
147
1.5
176
   256
177
   256
178
     2
271
     2
272
     2
283
     0
288
     1
289
     0
340
11
341
407
342
407
  0
DIMSTYLE
105
20C
330
A
100
AcDbSymbolTableRecord
100
AcDbDimStyleTableRecord
  2
GEN-ISO$6
 70
     0
  4
"
 41
2.5
 42
1.0
 43
10.0
 44
1.0
 47
0.1
 48
0.1
 73
     0
 74
     0
 78
     8
140
3.5
141
0.0
143
0.0393701
146
0.71
147
1.5
176
   256
177
   256
178
     2
271
     2
272
     2
283
     0
340
11
341
407
342
407
  0
DIMSTYLE
105
20D
330
A
100
AcDbSymbolTableRecord
100
AcDbDimStyleTableRecord
  2
GEN-ISO-POS
 70
     0
  4
"
 41
2.5
 42
1.0
 43
10.0
 44
1.0
 47
0.1
 48
0.1
 73
     0
 74
     0
 78
     8
140
5.0
141
0.0
143
0.0393701
146
0.71
147
1.5
176
   256
177
   256
178
     2
271
     2
272
     2
283
     0
340
11
341
407
342
407
  0
DIMSTYLE
105
20E
330
A
100
AcDbSymbolTableRecord
100
AcDbDimStyleTableRecord
  2
GEN-ISO-AXE-F
 70
     0
  4
"
 41
2.5
 42
1.0
 43
10.0
 44
1.0
 47
0.1
 48
0.1
 73
     0
 74
     0
 75
     1
 76
     1
 77
     1
 78
     8
140
3.5
141
0.0
143
0.0393701
146
0.71
147
1.5
172
     1
176
   256
177
   256
178
     2
271
     2
272
     2
283
     0
340
11
341
407
342
407
  0
DIMSTYLE
105
20F
330
A
100
AcDbSymbolTableRecord
100
AcDbDimStyleTableRecord
  2
GEN-ISO-AXE-H
 70
     0
  4
"
 41
2.5
 42
1.0
 43
10.0
 44
1.0
 47
0.1
 48
0.1
 73
     0
 74
     0
 75
     1
 76
     1
 77
     1
 78
     8
140
3.5
141
0.0
143
0.0393701
144
2.0
146
0.71
147
1.5
172
     1
176
   256
177
   256
178
     2
271
     2
272
     2
283
     0
340
11
341
407
342
407
  0
DIMSTYLE
105
891
330
A
100
AcDbSymbolTableRecord
100
AcDbDimStyleTableRecord
  2
AM_JIS
 70
     0
  4
"
 41
2.5
 42
1.0
 43
10.0
 44
1.0
 47
0.1
 48
0.1
 73
     0
 74
     0
 77
     3
 78
     8
 79
     2
140
3.5
141
0.0
143
0.0393701
146
0.71
147
1.5
172
     1
176
   256
177
   256
178
     2
271
     2
272
     3
274
     4
283
     0
340
11
341
407
342
407
343
407
344
407
371
    -1
372
    -1
  0
DIMSTYLE
105
892
330
A
100
AcDbSymbolTableRecord
100
AcDbDimStyleTableRecord
  2
AM_JIS$3
 70
     0
  4
"
 41
2.5
 42
1.0
 43
10.0
 44
1.0
 47
0.1
 48
0.1
 73
     0
 77
     3
 78
     8
 79
     2
140
3.5
141
0.0
143
0.0393701
146
0.71
147
1.5
176
   256
177
   256
178
     2
271
     2
272
     3
274
     4
283
     0
288
     1
289
     0
340
11
341
407
342
407
343
407
344
407
371
    -1
372
    -1
  0
DIMSTYLE
105
893
330
A
100
AcDbSymbolTableRecord
100
AcDbDimStyleTableRecord
  2
AM_JIS$4
 70
     0
  4
"
 41
2.5
 42
1.0
 43
10.0
 44
1.0
 47
0.1
 48
0.1
 73
     0
 77
     3
 78
     8
 79
     2
140
3.5
141
0.0
143
0.0393701
146
0.71
147
1.5
176
   256
177
   256
178
     2
271
     2
272
     3
274
     4
283
     0
288
     1
289
     0
340
11
341
407
342
407
343
407
344
407
371
    -1
372
    -1
  0
DIMSTYLE
105
894
330
A
100
AcDbSymbolTableRecord
100
AcDbDimStyleTableRecord
  2
AM_JIS$6
 70
     0
  4
"
 41
2.5
 42
1.0
 43
10.0
 44
1.0
 47
0.1
 48
0.1
 73
     0
 74
     0
 78
     8
 79
     2
140
3.5
141
0.0
143
0.0393701
146
0.71
147
1.5
172
     1
176
   256
177
   256
178
     2
271
     2
272
     3
274
     4
283
     0
340
11
341
407
342
407
343
407
344
407
371
    -1
372
    -1
  0
DIMSTYLE
105
895
330
A
100
AcDbSymbolTableRecord
100
AcDbDimStyleTableRecord
  2
AM_JIS$7
 70
     0
  4
"
 41
2.5
 42
1.0
 43
10.0
 44
1.0
 47
0.1
 48
0.1
 73
     0
 74
     0
 77
     3
 78
     8
 79
     2
140
5.0
141
0.0
143
0.0393701
146
0.71
147
1.5
172
     1
176
   256
177
   256
178
     2
271
     2
272
     3
274
     4
283
     0
340
11
341
407
342
407
343
407
344
407
371
    -1
372
    -1
  0
DIMSTYLE
105
896
330
A
100
AcDbSymbolTableRecord
100
AcDbDimStyleTableRecord
  2
AM_JIS$SF
 70
     0
  4
"
 41
2.5
 42
1.0
 43
10.0
 44
1.0
 47
0.1
 48
0.1
 73
     0
 74
     0
 75
     1
 76
     1
 77
     3
 78
     8
 79
     2
140
3.5
141
0.0
143
0.0393701
146
0.71
147
1.5
172
     1
176
   256
177
   256
178
     2
271
     2
272
     3
274
     4
283
     0
340
11
341
407
342
407
343
407
344
407
371
    -1
372
    -1
  0
DIMSTYLE
105
897
330
A
100
AcDbSymbolTableRecord
100
AcDbDimStyleTableRecord
  2
AM_JIS$SH
 70
     0
  4
"
 41
2.5
 42
1.0
 43
10.0
 44
1.0
 47
0.1
 48
0.1
 73
     0
 74
     0
 75
     1
 76
     1
 77
     3
 78
     8
 79
     2
140
3.5
141
0.0
143
0.0393701
144
2.0
146
0.71
147
1.5
172
     1
173
     1
176
   256
177
   256
178
     2
271
     2
272
     3
274
     4
283
     0
340
11
341
407
342
407
343
87
344
407
371
    -1
372
    -1
  0
DIMSTYLE
105
26C7
330
A
100
AcDbSymbolTableRecord
100
AcDbDimStyleTableRecord
  2
AM_ANSI
 70
     0
  4
mm
 41
0.1
 42
0.05
 43
0.5
 44
0.1
 47
0.1
 48
0.1
 78
     7
 79
     2
140
0.12
141
0.0
146
0.71
147
0.06
176
   256
177
   256
178
     2
274
     4
284
     7
340
11
371
    -1
372
    -1
  0
DIMSTYLE
105
27D5
102
{ACAD_REACTORS
330
3B40
330
3BBC
102
}
330
A
100
AcDbSymbolTableRecord
100
AcDbDimStyleTableRecord
  2
AM_ISO$0
 70
     0
  4
"
 41
2.5
 42
1.0
 43
10.0
 44
1.0
 47
0.1
 48
0.1
 73
     0
 74
     0
 77
     1
 78
     8
 79
     2
140
3.5
141
0.0
143
0.0393701
146
0.71
147
1.5
172
     1
176
   256
177
   256
178
     2
271
     2
272
     2
283
     0
284
     8
340
11
341
407
342
407
371
    -1
372
    -1
  0
ENDTAB
  0
TABLE
  2
BLOCK_RECORD
  5
1
330
0
100
AcDbSymbolTable
 70
    24
  0
BLOCK_RECORD
  5
1F
102
{ACAD_XDICTIONARY
360
8F
102
}
330
1
100
AcDbSymbolTableRecord
100
AcDbBlockTableRecord
  2
*Model_Space
340
22
  0
BLOCK_RECORD
  5
23
330
1
100
AcDbSymbolTableRecord
100
AcDbBlockTableRecord
  2
*Paper_Space
340
26
  0
BLOCK_RECORD
  5
1B
330
1
100
AcDbSymbolTableRecord
100
AcDbBlockTableRecord
  2
*Paper_Space0
340
1E
  0
BLOCK_RECORD
  5
87
330
1
100
AcDbSymbolTableRecord
100
AcDbBlockTableRecord
  2
GENAXEH
340
0
  0
BLOCK_RECORD
  5
210
102
{ACAD_XDICTIONARY
360
219
102
}
330
1
100
AcDbSymbolTableRecord
100
AcDbBlockTableRecord
  2
TAKACHI-A3
340
0
  0
BLOCK_RECORD
  5
22D
102
{ACAD_XDICTIONARY
360
282
102
}
330
1
100
AcDbSymbolTableRecord
100
AcDbBlockTableRecord
  2
TAKACHI-TITLE
340
0
  0
BLOCK_RECORD
  5
407
330
1
100
AcDbSymbolTableRecord
100
AcDbBlockTableRecord
  2
_Open30
340
0
102
{BLKREFS
331
3BA6
331
3BA7
331
3BCC
331
3BCD
102
}
  0
BLOCK_RECORD
  5
26C8
102
{ACAD_XDICTIONARY
360
26D0
102
}
330
1
100
AcDbSymbolTableRecord
100
AcDbBlockTableRecord
  2
TK-A3
340
0
102
{BLKREFS
331
26DA
102
}
  0
BLOCK_RECORD
  5
26DC
102
{ACAD_XDICTIONARY
360
2735
102
}
330
1
100
AcDbSymbolTableRecord
100
AcDbBlockTableRecord
  2
TK-TITLE
340
0
102
{BLKREFS
331
273A
102
}
  0
BLOCK_RECORD
  5
2DDD
102
{ACAD_XDICTIONARY
360
2DE5
102
}
330
1
100
AcDbSymbolTableRecord
100
AcDbBlockTableRecord
  2
TK-A4
340
0
102
{BLKREFS
331
26DA
102
}
  0
BLOCK_RECORD
  5
3B41
330
1
100
AcDbSymbolTableRecord
100
AcDbBlockTableRecord
  2
*D9
340
0
  0
BLOCK_RECORD
  5
3BBD
330
1
100
AcDbSymbolTableRecord
100
AcDbBlockTableRecord
  2
*D10
340
0
  0
BLOCK_RECORD
  5
3CD7
330
1
100
AcDbSymbolTableRecord
100
AcDbBlockTableRecord
  2
*S11
340
0
  0
BLOCK_RECORD
  5
3CDE
330
1
100
AcDbSymbolTableRecord
100
AcDbBlockTableRecord
  2
*S12
340
0
  0
BLOCK_RECORD
  5
3CE5
330
1
100
AcDbSymbolTableRecord
100
AcDbBlockTableRecord
  2
*S13
340
0
  0
BLOCK_RECORD
  5
3CEC
330
1
100
AcDbSymbolTableRecord
100
AcDbBlockTableRecord
  2
*S14
340
0
  0
BLOCK_RECORD
  5
3CF3
330
1
100
AcDbSymbolTableRecord
100
AcDbBlockTableRecord
  2
*S15
340
0
  0
BLOCK_RECORD
  5
3CFA
330
1
100
AcDbSymbolTableRecord
100
AcDbBlockTableRecord
  2
*S16
340
0
  0
BLOCK_RECORD
  5
3D01
330
1
100
AcDbSymbolTableRecord
100
AcDbBlockTableRecord
  2
*S17
340
0
  0
BLOCK_RECORD
  5
3D08
330
1
100
AcDbSymbolTableRecord
100
AcDbBlockTableRecord
  2
*S18
340
0
  0
BLOCK_RECORD
  5
3D0F
330
1
100
AcDbSymbolTableRecord
100
AcDbBlockTableRecord
  2
*S19
340
0
  0
BLOCK_RECORD
  5
3D17
330
1
100
AcDbSymbolTableRecord
100
AcDbBlockTableRecord
  2
*S20
340
0
  0
BLOCK_RECORD
  5
3D1F
330
1
100
AcDbSymbolTableRecord
100
AcDbBlockTableRecord
  2
*S21
340
0
  0
BLOCK_RECORD
  5
3D27
330
1
100
AcDbSymbolTableRecord
100
AcDbBlockTableRecord
  2
*S22
340
0
  0
BLOCK_RECORD
  5
3D2F
330
1
100
AcDbSymbolTableRecord
100
AcDbBlockTableRecord
  2
*S23
340
0
  0
ENDTAB
  0
ENDSEC
  0
SECTION
  2
BLOCKS
  0
BLOCK
  5
20
330
1F
100
AcDbEntity
  8
0
100
AcDbBlockBegin
  2
*Model_Space
 70
     0
 10
0.0
 20
0.0
 30
0.0
  3
*Model_Space
  1

  0
ENDBLK
  5
21
330
1F
100
AcDbEntity
  8
0
100
AcDbBlockEnd
  0
BLOCK
  5
24
330
23
100
AcDbEntity
 67
     1
  8
0
100
AcDbBlockBegin
  2
*Paper_Space
 70
     0
 10
0.0
 20
0.0
 30
0.0
  3
*Paper_Space
  1

  0
ENDBLK
  5
25
330
23
100
AcDbEntity
 67
     1
  8
0
100
AcDbBlockEnd
  0
BLOCK
  5
1C
330
1B
100
AcDbEntity
  8
0
100
AcDbBlockBegin
  2
*Paper_Space0
 70
     0
 10
0.0
 20
0.0
 30
0.0
  3
*Paper_Space0
  1

  0
VIEWPORT
  5
178
102
{ACAD_XDICTIONARY
360
3D9D
102
}
330
1B
100
AcDbEntity
  8
0
100
AcDbViewport
 10
133.3499908447265
 20
101.5999970436096
 30
0.0
 40
370.2266912936524
 41
228.4221935424805
 69
     0
 12
133.3499908447265
 22
101.5999970436096
 13
0.0
 23
0.0
 14
10.0
 24
10.0
 15
10.0
 25
10.0
 16
0.0
 26
0.0
 36
1.0
 17
0.0
 27
0.0
 37
0.0
 42
50.0
 43
0.0
 44
0.0
 45
228.4221935424805
 50
0.0
 51
0.0
 72
   100
 90
    32800
  1

281
     0
 71
     1
 74
     0
110
0.0
120
0.0
130
0.0
111
1.0
121
0.0
131
0.0
112
0.0
122
1.0
132
0.0
 79
     0
146
0.0
  0
ENDBLK
  5
1D
330
1B
100
AcDbEntity
  8
0
100
AcDbBlockEnd
  0
BLOCK
  5
89
330
87
100
AcDbEntity
  8
0
100
AcDbBlockBegin
  2
GENAXEH
 70
     0
 10
0.0
 20
0.0
 30
0.0
  3
GENAXEH
  1

  0
LINE
  5
88
330
87
100
AcDbEntity
  8
0
100
AcDbLine
 10
-1.0
 20
0.0
 30
0.0
 11
1.0
 21
0.0
 31
0.0
  0
ENDBLK
  5
8A
330
87
100
AcDbEntity
  8
0
100
AcDbBlockEnd
  0
BLOCK
  5
21A
330
210
100
AcDbEntity
  8
0
100
AcDbBlockBegin
  2
TAKACHI-A3
 70
     0
 10
0.0
 20
0.0
 30
0.0
  3
TAKACHI-A3
  1

  0
LWPOLYLINE
  5
211
330
210
100
AcDbEntity
  8
0
100
AcDbPolyline
 90
        4
 70
     1
 43
0.0
 10
10.0
 20
0.0
 10
410.0
 20
0.0
 10
410.0
 20
280.0
 10
10.00000000000003
 20
280.0
1001
GENIUS_GENREC_14
1002
{
1000
PYDIR
1011
10.00000000000001
1021
280.0
1031
0.0
1002
}
1002
{
1000
PXDIR
1011
410.0
1021
0.0
1031
0.0
1002
}
1002
{
1000
PORI
1011
10.0
1021
0.0
1031
0.0
1002
}
1002
{
1000
PINS
1011
210.0
1021
139.9999999999999
1031
0.0
1002
}
1002
{
1000
HVAL
1000
280
1002
}
1002
{
1000
H
1070
     2
1002
}
1002
{
1000
WVAL
1000
400
1002
}
1002
{
1000
W
1070
     2
1002
}
1002
{
1000
C
1070
     4
1002
}
1001
GENIUS_GENODEF_13
1002
{
1000
HIER
1070
     0
1002
}
1002
{
1000
MANEDIT
1070
     0
1002
}
1002
{
1000
NOSEL
1070
     0
1002
}
1002
{
1000
BEHIND
1070
     0
1002
}
1002
{
1000
REACTOR
1002
}
1001
GENIUS_GENOBJ-N-REC_13
1002
{
1000
OWNER
1000
GEN
1002
}
  0
TEXT
  5
212
330
210
100
AcDbEntity
  8
0
 60
     1
100
AcDbText
 10
15.00000000000003
 20
50.0
 30
0.0
 40
2.5
  1
!GENTITLE-LL
100
AcDbText
  0
TEXT
  5
213
330
210
100
AcDbEntity
  8
0
 60
     1
100
AcDbText
 10
410.0
 20
0.0
 30
0.0
 40
2.5
  1
!GENTITLE-INSERT
100
AcDbText
  0
TEXT
  5
214
330
210
100
AcDbEntity
  8
0
 60
     1
100
AcDbText
 10
405.0
 20
275.0
 30
0.0
 40
2.5
  1
!GENTITLE-RU
100
AcDbText
  0
TEXT
  5
215
330
210
100
AcDbEntity
  8
0
 60
     1
100
AcDbText
 10
410.0
 20
280.0
 30
0.0
 40
2.5
  1
!GENTITLE-MAX
100
AcDbText
  0
LINE
  5
216
330
210
100
AcDbEntity
  8
0
100
AcDbLine
 10
375.0
 20
280.0
 30
0.0
 11
375.0
 21
275.0
 31
0.0
  0
LINE
  5
217
330
210
100
AcDbEntity
  8
0
100
AcDbLine
 10
375.0
 20
275.0
 30
0.0
 11
410.0
 21
275.0
 31
0.0
  0
MTEXT
  5
218
330
210
100
AcDbEntity
  8
0
100
AcDbMText
 10
409.3592953827348
 20
276.108542987227
 30
0.0
 40
2.5
 41
33.41
 71
     9
 72
     5
  1
(文書番号：TY-5)2000.9
 73
     1
 44
1.0
1001
ACAD
1000
MTEXTBEGIN
1070
    73
1070
     1
1070
    44
1040
1.0
1070
    74
1070
     0
1000
MTEXTEND
  0
ENDBLK
  5
21B
330
210
100
AcDbEntity
  8
0
100
AcDbBlockEnd
  0
BLOCK
  5
283
330
22D
100
AcDbEntity
  8
0
100
AcDbBlockBegin
  2
TAKACHI-TITLE
 70
     2
 10
0.0
 20
0.0
 30
0.0
  3
TAKACHI-TITLE
  1

  0
LINE
  5
22E
330
22D
100
AcDbEntity
  8
RAHM2
100
AcDbLine
 10
-195.0
 20
30.00000000000003
 30
0.0
 11
-94.0
 21
30.00000000000003
 31
0.0
  0
LINE
  5
22F
330
22D
100
AcDbEntity
  8
RAHM2
100
AcDbLine
 10
-195.0
 20
35.00000000000003
 30
0.0
 11
-94.0
 21
35.00000000000003
 31
0.0
  0
LINE
  5
230
330
22D
100
AcDbEntity
  8
RAHM2
100
AcDbLine
 10
-195.0
 20
40.00000000000002
 30
0.0
 11
-94.0
 21
40.00000000000002
 31
0.0
  0
LINE
  5
231
330
22D
100
AcDbEntity
  8
RAHM2
100
AcDbLine
 10
-195.0
 20
45.00000000000002
 30
0.0
 11
-94.0
 21
45.00000000000002
 31
0.0
  0
LINE
  5
232
330
22D
100
AcDbEntity
  8
0
100
AcDbLine
 10
-195.0
 20
7.0
 30
0.0
 11
-94.0
 21
7.0
 31
0.0
  0
LINE
  5
233
330
22D
100
AcDbEntity
  8
0
100
AcDbLine
 10
-195.0
 20
19.99999999999997
 30
0.0
 11
-94.0
 21
19.99999999999997
 31
0.0
  0
ATTDEF
  5
234
330
22D
100
AcDbEntity
  8
0
100
AcDbText
 10
-183.2438527145607
 20
8.950850524428082
 30
0.0
 40
2.5
  1

 11
-183.2438527145607
 21
8.617517191094748
 31
0.0
100
AcDbAttributeDefinition
  3
サブタイトル
  2
GEN-TITLE-DES2
 70
     0
 74
     1
  0
ATTDEF
  5
235
330
22D
100
AcDbEntity
  8
0
100
AcDbText
 10
-183.2438527145607
 20
2.017517191094748
 30
0.0
 40
3.0
  1

 11
-183.2438527145607
 21
1.617517191094748
 31
0.0
100
AcDbAttributeDefinition
  3
図番
  2
GEN-TITLE-NR
 70
     0
 74
     1
  0
MTEXT
  5
236
330
22D
100
AcDbEntity
  8
RAHM2
100
AcDbMText
 10
-193.8002551371314
 20
5.801035407279641
 30
0.0
 40
2.5
 41
90.0
 71
     1
 72
     5
  1
図番
 73
     1
 44
1.0
1001
ACAD
1000
MTEXTBEGIN
1070
    73
1070
     1
1070
    44
1040
1.0
1070
    74
1070
     0
1000
MTEXTEND
  0
ATTDEF
  5
237
330
22D
100
AcDbEntity
  8
0
100
AcDbText
 10
-183.2438527145607
 20
14.40728619501834
 30
0.0
 40
4.0
  1

 11
-183.2438527145607
 21
13.87395286168501
 31
0.0
100
AcDbAttributeDefinition
  3
品名
  2
GEN-TITLE-DES1
 70
     0
 74
     1
  0
LINE
  5
238
330
22D
100
AcDbEntity
  8
RAHM2
100
AcDbLine
 10
-187.5751288694036
 20
30.40000000000004
 30
0.0
 11
-190.0
 21
34.60000000000003
 31
0.0
  0
LINE
  5
239
330
22D
100
AcDbEntity
  8
RAHM2
100
AcDbLine
 10
-190.0
 20
34.60000000000003
 30
0.0
 11
-192.4248711305964
 21
30.40000000000004
 31
0.0
  0
LINE
  5
23A
330
22D
100
AcDbEntity
  8
RAHM2
100
AcDbLine
 10
-185.0
 20
50.00000000000003
 30
0.0
 11
-185.0
 21
19.99999999999994
 31
0.0
  0
LINE
  5
23B
330
22D
100
AcDbEntity
  8
RAHM2
100
AcDbLine
 10
-192.4248711305964
 20
30.40000000000004
 30
0.0
 11
-187.5751288694036
 21
30.40000000000004
 31
0.0
  0
MTEXT
  5
23C
330
22D
100
AcDbEntity
  8
RAHM2
100
AcDbMText
 10
-190.0
 20
22.49999999999997
 30
0.0
 40
2.5
 41
10.0
 71
     5
 72
     5
  1
符号
 73
     1
 44
1.0
1001
ACAD
1000
MTEXTBEGIN
1070
    73
1070
     1
1070
    44
1040
1.0
1070
    74
1070
     0
1000
MTEXTEND
  0
MTEXT
  5
23D
330
22D
100
AcDbEntity
  8
RAHM2
100
AcDbMText
 10
-193.8002551371314
 20
18.80103540727961
 30
0.0
 40
2.5
 41
90.0
 71
     1
 72
     5
  1
品名
 73
     1
 44
1.0
1001
ACAD
1000
MTEXTBEGIN
1070
    73
1070
     1
1070
    44
1040
1.0
1070
    74
1070
     0
1000
MTEXTEND
  0
LINE
  5
23E
330
22D
100
AcDbEntity
  8
RAHM2
100
AcDbLine
 10
-192.4248711305964
 20
45.40000000000003
 30
0.0
 11
-187.5751288694036
 21
45.40000000000003
 31
0.0
  0
LINE
  5
23F
330
22D
100
AcDbEntity
  8
RAHM2
100
AcDbLine
 10
-187.5751288694036
 20
45.40000000000003
 30
0.0
 11
-190.0
 21
49.60000000000002
 31
0.0
  0
LINE
  5
240
330
22D
100
AcDbEntity
  8
RAHM2
100
AcDbLine
 10
-192.4248711305964
 20
40.40000000000003
 30
0.0
 11
-187.5751288694036
 21
40.40000000000003
 31
0.0
  0
LINE
  5
241
330
22D
100
AcDbEntity
  8
RAHM2
100
AcDbLine
 10
-187.5751288694036
 20
40.40000000000003
 30
0.0
 11
-190.0
 21
44.60000000000002
 31
0.0
  0
LINE
  5
242
330
22D
100
AcDbEntity
  8
RAHM2
100
AcDbLine
 10
-192.4248711305964
 20
35.40000000000004
 30
0.0
 11
-187.5751288694036
 21
35.40000000000004
 31
0.0
  0
LINE
  5
243
330
22D
100
AcDbEntity
  8
RAHM2
100
AcDbLine
 10
-187.5751288694036
 20
35.40000000000004
 30
0.0
 11
-190.0
 21
39.60000000000002
 31
0.0
  0
LINE
  5
244
330
22D
100
AcDbEntity
  8
RAHM2
100
AcDbLine
 10
-190.0
 20
39.60000000000002
 30
0.0
 11
-192.4248711305964
 21
35.40000000000004
 31
0.0
  0
LINE
  5
245
330
22D
100
AcDbEntity
  8
RAHM2
100
AcDbLine
 10
-190.0
 20
44.60000000000002
 30
0.0
 11
-192.4248711305964
 21
40.40000000000003
 31
0.0
  0
LINE
  5
246
330
22D
100
AcDbEntity
  8
RAHM2
100
AcDbLine
 10
-190.0
 20
49.60000000000002
 30
0.0
 11
-192.4248711305964
 21
45.40000000000003
 31
0.0
  0
LINE
  5
247
330
22D
100
AcDbEntity
  8
RAHM2
100
AcDbLine
 10
-129.0
 20
50.00000000000003
 30
0.0
 11
-129.0
 21
19.99999999999994
 31
0.0
  0
MTEXT
  5
248
330
22D
100
AcDbEntity
  8
RAHM2
100
AcDbMText
 10
-157.1448171868856
 20
22.49999999999997
 30
0.0
 40
2.5
 41
45.0
 71
     5
 72
     5
  1
変更記事
 73
     1
 44
1.0
1001
ACAD
1000
MTEXTBEGIN
1070
    73
1070
     1
1070
    44
1040
1.0
1070
    74
1070
     0
1000
MTEXTEND
  0
LINE
  5
249
330
22D
100
AcDbEntity
  8
0
100
AcDbLine
 10
-34.0
 20
50.0
 30
0.0
 11
-34.0
 21
0.0
 31
0.0
  0
LINE
  5
24A
330
22D
100
AcDbEntity
  8
0
100
AcDbLine
 10
-94.0
 20
50.0
 30
0.0
 11
-94.0
 21
0.0
 31
0.0
  0
MTEXT
  5
24B
330
22D
100
AcDbEntity
  8
0
100
AcDbMText
 10
-64.0
 20
5.0
 30
0.0
 40
3.5
 41
60.0
 71
     5
 72
     5
  1
\fＭＳ ゴシック|b0|i0|c128|p49;株式会社タカチ電機工業
 73
     1
 44
1.0
1001
ACAD
1000
MTEXTBEGIN
1070
    73
1070
     1
1070
    44
1040
1.0
1070
    74
1070
     0
1000
MTEXTEND
  0
LINE
  5
24C
330
22D
100
AcDbEntity
  8
0
100
AcDbLine
 10
-94.0
 20
10.0
 30
0.0
 11
-34.0
 21
10.0
 31
0.0
  0
ATTDEF
  5
24D
330
22D
100
AcDbEntity
  8
0
100
AcDbText
 10
-58.01405119799745
 20
39.25500556178349
 30
0.0
 40
3.0
  1

 72
     2
 11
-58.01405119799745
 21
39.25500556178349
 31
0.0
100
AcDbAttributeDefinition
  3
尺度
  2
GEN-TITLE-SCA
 70
     0
  0
ATTDEF
  5
24E
330
22D
100
AcDbEntity
  8
0
100
AcDbText
 10
-77.00284966649007
 20
31.02180787943475
 30
0.0
 40
3.0
  1

 11
-77.00284966649007
 21
30.62180787943475
 31
0.0
100
AcDbAttributeDefinition
  3
材質
  2
GEN-TITLE-MAT1
 70
     0
 74
     1
  0
ATTDEF
  5
24F
330
22D
100
AcDbEntity
  8
0
100
AcDbText
 10
-77.00284966649007
 20
21.02180787943475
 30
0.0
 40
3.0
  1

 11
-77.00284966649007
 21
20.62180787943475
 31
0.0
100
AcDbAttributeDefinition
  3
表面処理
  2
GEN-TITLE-MAT2
 70
     0
 74
     1
  0
ATTDEF
  5
250
330
22D
100
AcDbEntity
  8
0
100
AcDbText
 10
-77.00284966649007
 20
12.01751719109475
 30
0.0
 40
3.0
  1

 11
-77.00284966649007
 21
11.61751719109475
 31
0.0
100
AcDbAttributeDefinition
  3
日付
  2
GEN-TITLE-DAT
 70
     0
 74
     1
  0
LINE
  5
251
330
22D
100
AcDbEntity
  8
0
100
AcDbLine
 10
-94.0
 20
37.5
 30
0.0
 11
-34.0
 21
37.5
 31
0.0
  0
LINE
  5
252
330
22D
100
AcDbEntity
  8
0
100
AcDbLine
 10
-94.0
 20
27.5
 30
0.0
 11
-34.0
 21
27.5
 31
0.0
  0
LINE
  5
253
330
22D
100
AcDbEntity
  8
0
100
AcDbLine
 10
-94.0
 20
17.5
 30
0.0
 11
-34.0
 21
17.5
 31
0.0
  0
LINE
  5
254
330
22D
100
AcDbEntity
  8
RAHM2
100
AcDbLine
 10
-109.0
 20
50.00000000000003
 30
0.0
 11
-109.0
 21
19.99999999999994
 31
0.0
  0
MTEXT
  5
255
330
22D
100
AcDbEntity
  8
RAHM2
100
AcDbMText
 10
-119.4582894723942
 20
32.50000000000003
 30
0.0
 40
2.5
 41
20.0
 71
     5
 72
     5
  1
・  ・   
 73
     1
 44
1.0
1001
ACAD
1000
MTEXTBEGIN
1070
    73
1070
     1
1070
    44
1040
1.0
1070
    74
1070
     0
1000
MTEXTEND
  0
MTEXT
  5
256
330
22D
100
AcDbEntity
  8
RAHM2
100
AcDbMText
 10
-118.738119805002
 20
22.49999999999997
 30
0.0
 40
2.5
 41
20.0
 71
     5
 72
     5
  1
年・月・日
 73
     1
 44
1.0
1001
ACAD
1000
MTEXTBEGIN
1070
    73
1070
     1
1070
    44
1040
1.0
1070
    74
1070
     0
1000
MTEXTEND
  0
MTEXT
  5
257
330
22D
100
AcDbEntity
  8
RAHM2
100
AcDbMText
 10
-101.5
 20
22.49999999999997
 30
0.0
 40
2.5
 41
15.0
 71
     5
 72
     5
  1
担当
 73
     1
 44
1.0
1001
ACAD
1000
MTEXTBEGIN
1070
    73
1070
     1
1070
    44
1040
1.0
1070
    74
1070
     0
1000
MTEXTEND
  0
MTEXT
  5
258
330
22D
100
AcDbEntity
  8
RAHM2
100
AcDbMText
 10
-119.4582894723942
 20
42.50000000000002
 30
0.0
 40
2.5
 41
20.0
 71
     5
 72
     5
  1
・  ・   
 73
     1
 44
1.0
1001
ACAD
1000
MTEXTBEGIN
1070
    73
1070
     1
1070
    44
1040
1.0
1070
    74
1070
     0
1000
MTEXTEND
  0
MTEXT
  5
259
330
22D
100
AcDbEntity
  8
RAHM2
100
AcDbMText
 10
-119.4582894723942
 20
37.50000000000003
 30
0.0
 40
2.5
 41
20.0
 71
     5
 72
     5
  1
・  ・   
 73
     1
 44
1.0
1001
ACAD
1000
MTEXTBEGIN
1070
    73
1070
     1
1070
    44
1040
1.0
1070
    74
1070
     0
1000
MTEXTEND
  0
MTEXT
  5
25A
330
22D
100
AcDbEntity
  8
RAHM2
100
AcDbMText
 10
-119.4582894723942
 20
47.50000000000002
 30
0.0
 40
2.5
 41
20.0
 71
     5
 72
     5
  1
・  ・   
 73
     1
 44
1.0
1001
ACAD
1000
MTEXTBEGIN
1070
    73
1070
     1
1070
    44
1040
1.0
1070
    74
1070
     0
1000
MTEXTEND
  0
MTEXT
  5
25B
330
22D
100
AcDbEntity
  8
RAHM2
100
AcDbMText
 10
-92.80025513713145
 20
16.30103540727964
 30
0.0
 40
2.5
 41
60.0
 71
     1
 72
     5
  1
日付
 73
     1
 44
1.0
1001
ACAD
1000
MTEXTBEGIN
1070
    73
1070
     1
1070
    44
1040
1.0
1070
    74
1070
     0
1000
MTEXTEND
  0
MTEXT
  5
25C
330
22D
100
AcDbEntity
  8
RAHM2
100
AcDbMText
 10
-92.80025513713145
 20
26.30103540727964
 30
0.0
 40
2.5
 41
60.0
 71
     1
 72
     5
  1
表面処理
 73
     1
 44
1.0
1001
ACAD
1000
MTEXTBEGIN
1070
    73
1070
     1
1070
    44
1040
1.0
1070
    74
1070
     0
1000
MTEXTEND
  0
LINE
  5
25D
330
22D
100
AcDbEntity
  8
7A
100
AcDbLine
 10
-89.0
 20
43.75
 30
0.0
 11
-75.2186915997147
 21
43.75
 31
0.0
1001
GENIUS_GENOREF_13
1005
270
  0
LINE
  5
25E
330
22D
100
AcDbEntity
  8
0
100
AcDbLine
 10
-84.0
 20
45.75
 30
0.0
 11
-76.0
 21
46.74999999999999
 31
0.0
  0
LINE
  5
25F
330
22D
100
AcDbEntity
  8
0
100
AcDbLine
 10
-76.0
 20
40.75
 30
0.0
 11
-84.0
 21
41.74999999999999
 31
0.0
  0
LINE
  5
260
330
22D
100
AcDbEntity
  8
7A
100
AcDbLine
 10
-89.0
 20
43.75
 30
0.0
 11
-89.0
 21
47.32478664473148
 31
0.0
1001
GENIUS_GENOREF_13
1005
270
  0
CIRCLE
  5
261
330
22D
100
AcDbEntity
  8
0
100
AcDbCircle
 10
-89.0
 20
43.75
 30
0.0
 40
2.0
  0
CIRCLE
  5
262
330
22D
100
AcDbEntity
  8
0
100
AcDbCircle
 10
-89.0
 20
43.75
 30
0.0
 40
3.0
  0
LINE
  5
263
330
22D
100
AcDbEntity
  8
0
100
AcDbLine
 10
-84.0
 20
41.74999999999999
 30
0.0
 11
-84.0
 21
45.75
 31
0.0
  0
MTEXT
  5
264
330
22D
100
AcDbEntity
  8
RAHM2
100
AcDbMText
 10
-92.80025513713145
 20
36.30103540727964
 30
0.0
 40
2.5
 41
60.0
 71
     1
 72
     5
  1
材質
 73
     1
 44
1.0
1001
ACAD
1000
MTEXTBEGIN
1070
    73
1070
     1
1070
    44
1040
1.0
1070
    74
1070
     0
1000
MTEXTEND
  0
LINE
  5
265
330
22D
100
AcDbEntity
  8
7A
100
AcDbLine
 10
-89.0
 20
43.75
 30
0.0
 11
-92.72303737125117
 21
43.75
 31
0.0
1001
GENIUS_GENOREF_13
1005
270
  0
LINE
  5
266
330
22D
100
AcDbEntity
  8
7A
100
AcDbLine
 10
-89.0
 20
43.75
 30
0.0
 11
-89.0
 21
40.03991724228479
 31
0.0
1001
GENIUS_GENOREF_13
1005
270
  0
LINE
  5
267
330
22D
100
AcDbEntity
  8
0
100
AcDbLine
 10
-76.0
 20
46.74999999999999
 30
0.0
 11
-76.0
 21
40.75
 31
0.0
  0
LINE
  5
268
330
22D
100
AcDbEntity
  8
0
100
AcDbLine
 10
-74.0
 20
50.0
 30
0.0
 11
-74.0
 21
37.5
 31
0.0
  0
MTEXT
  5
269
330
22D
100
AcDbEntity
  8
RAHM2
100
AcDbMText
 10
-72.80025513713145
 20
48.80103540727964
 30
0.0
 40
2.5
 41
20.0
 71
     1
 72
     5
  1
尺度
 73
     1
 44
1.0
1001
ACAD
1000
MTEXTBEGIN
1070
    73
1070
     1
1070
    44
1040
1.0
1070
    74
1070
     0
1000
MTEXTEND
  0
ATTDEF
  5
26A
330
22D
100
AcDbEntity
  8
0
100
AcDbText
 10
-37.76317379391503
 20
39.25500556178349
 30
0.0
 40
3.0
  1

 72
     2
 11
-37.76317379391503
 21
39.25500556178349
 31
0.0
100
AcDbAttributeDefinition
  3
数量
  2
GEN-TITLE-QTY
 70
     0
  0
LINE
  5
26B
330
22D
100
AcDbEntity
  8
0
100
AcDbLine
 10
-34.0
 20
25.0
 30
0.0
 11
0.0
 21
25.0
 31
0.0
  0
LINE
  5
26C
330
22D
100
AcDbEntity
  8
0
100
AcDbLine
 10
-54.0
 20
50.0
 30
0.0
 11
-54.0
 21
37.5
 31
0.0
  0
MTEXT
  5
26D
330
22D
100
AcDbEntity
  8
RAHM2
100
AcDbMText
 10
-52.80025513713145
 20
48.80103540727964
 30
0.0
 40
2.5
 41
20.0
 71
     1
 72
     5
  1
数量
 73
     1
 44
1.0
1001
ACAD
1000
MTEXTBEGIN
1070
    73
1070
     1
1070
    44
1040
1.0
1070
    74
1070
     0
1000
MTEXTEND
  0
MTEXT
  5
26E
330
22D
100
AcDbEntity
  8
RAHM2
100
AcDbMText
 10
-25.5
 20
23.80103540727964
 30
0.0
 40
2.5
 41
17.0
 71
     2
 72
     5
  1
承認
 73
     1
 44
1.0
1001
ACAD
1000
MTEXTBEGIN
1070
    73
1070
     1
1070
    44
1040
1.0
1070
    74
1070
     0
1000
MTEXTEND
  0
MTEXT
  5
26F
330
22D
100
AcDbEntity
  8
RAHM2
100
AcDbMText
 10
-25.5
 20
48.80103540727964
 30
0.0
 40
2.5
 41
17.0
 71
     2
 72
     5
  1
承認
 73
     1
 44
1.0
1001
ACAD
1000
MTEXTBEGIN
1070
    73
1070
     1
1070
    44
1040
1.0
1070
    74
1070
     0
1000
MTEXTEND
  0
POINT
  5
270
330
22D
100
AcDbEntity
  8
0
 60
     1
100
AcDbPoint
 10
-320.5355579819676
 20
-138.1104841268254
 30
0.0
1001
GENIUS_GENODEF_13
1002
{
1000
HIER
1070
    10
1002
}
1002
{
1000
MANEDIT
1070
     0
1002
}
1002
{
1000
NOSEL
1070
     0
1002
}
1002
{
1000
BEHIND
1070
     0
1002
}
1002
{
1000
REACTOR
1002
}
1001
GENIUS_GENOBJ-N-CRS_13
1002
{
1000
OWNER
1000
GEN
1002
}
1001
GENIUS_GENOENT_13
1002
{
1000
MYREF
1005
270
1002
}
1002
{
1000
GRP
1005
0
1002
}
1001
GENIUS_GENOLIS_13
1002
{
1000
ENT
1005
266
1005
265
1005
260
1005
25D
1002
}
  0
LINE
  5
271
330
22D
100
AcDbEntity
  8
RAHM2
100
AcDbLine
 10
-190.0
 20
29.60000000000002
 30
0.0
 11
-192.4248711305964
 21
25.40000000000004
 31
0.0
  0
LINE
  5
272
330
22D
100
AcDbEntity
  8
RAHM2
100
AcDbLine
 10
-187.5751288694036
 20
25.40000000000004
 30
0.0
 11
-190.0
 21
29.60000000000002
 31
0.0
  0
LINE
  5
273
330
22D
100
AcDbEntity
  8
RAHM2
100
AcDbLine
 10
-192.4248711305964
 20
25.40000000000004
 30
0.0
 11
-187.5751288694036
 21
25.40000000000004
 31
0.0
  0
LINE
  5
274
330
22D
100
AcDbEntity
  8
RAHM2
100
AcDbLine
 10
-195.0
 20
25.00000000000003
 30
0.0
 11
-94.0
 21
25.00000000000003
 31
0.0
  0
MTEXT
  5
275
330
22D
100
AcDbEntity
  8
RAHM2
100
AcDbMText
 10
-119.4582894723942
 20
27.50000000000003
 30
0.0
 40
2.5
 41
20.0
 71
     5
 72
     5
  1
・  ・   
 73
     1
 44
1.0
1001
ACAD
1000
MTEXTBEGIN
1070
    73
1070
     1
1070
    44
1040
1.0
1070
    74
1070
     0
1000
MTEXTEND
  0
TEXT
  5
276
330
22D
100
AcDbEntity
  8
RAHM2
100
AcDbText
 10
-190.8155863565801
 20
25.98333333333337
 30
0.0
 40
2.5
  1
1
 72
     1
 11
-190.1905863565802
 21
25.65000000000003
 31
0.0
100
AcDbText
 73
     1
  0
TEXT
  5
277
330
22D
100
AcDbEntity
  8
RAHM2
100
AcDbText
 10
-190.9183316929134
 20
30.98333333333337
 30
0.0
 40
2.5
  1
2
 72
     1
 11
-190.0
 21
30.65000000000003
 31
0.0
100
AcDbText
 73
     1
  0
TEXT
  5
278
330
22D
100
AcDbEntity
  8
RAHM2
100
AcDbText
 10
-190.9267766952966
 20
35.98333333333334
 30
0.0
 40
2.5
  1
3
 72
     1
 11
-190.0
 21
35.65000000000001
 31
0.0
100
AcDbText
 73
     1
  0
TEXT
  5
279
330
22D
100
AcDbEntity
  8
RAHM2
100
AcDbText
 10
-191.0
 20
40.98333333333337
 30
0.0
 40
2.5
  1
4
 72
     1
 11
-190.0
 21
40.65000000000003
 31
0.0
100
AcDbText
 73
     1
  0
TEXT
  5
27A
330
22D
100
AcDbEntity
  8
RAHM2
100
AcDbText
 10
-190.9267766952966
 20
45.98333333333337
 30
0.0
 40
2.5
  1
5
 72
     1
 11
-190.0
 21
45.65000000000003
 31
0.0
100
AcDbText
 73
     1
  0
LINE
  5
27B
330
22D
100
AcDbEntity
  8
0
100
AcDbLine
 10
-17.0
 20
50.0
 30
0.0
 11
-17.0
 21
0.0
 31
0.0
  0
LINE
  5
27C
330
22D
100
AcDbEntity
  8
0
100
AcDbLine
 10
-195.0
 20
0.0
 30
0.0
 11
0.0
 21
0.0
 31
0.0
1001
GENIUS_GENREC_14
1002
{
1000
PYDIR
1011
-184.0
1021
50.0
1031
0.0
1002
}
1002
{
1000
PXDIR
1011
0.0
1021
0.0
1031
0.0
1002
}
1002
{
1000
PORI
1011
-184.0
1021
0.0
1031
0.0
1002
}
1002
{
1000
PINS
1011
-100.5
1021
25.0
1031
0.0
1002
}
1002
{
1000
HVAL
1000
50
1002
}
1002
{
1000
H
1070
     2
1002
}
1002
{
1000
WVAL
1000
167
1002
}
1002
{
1000
W
1070
     2
1002
}
1002
{
1000
C
1070
     4
1002
}
1001
GENIUS_GENODEF_13
1002
{
1000
HIER
1070
     0
1002
}
1002
{
1000
MANEDIT
1070
     0
1002
}
1002
{
1000
NOSEL
1070
     0
1002
}
1002
{
1000
BEHIND
1070
     0
1002
}
1002
{
1000
REACTOR
1002
}
1001
GENIUS_GENOBJ-N-REC_13
1002
{
1000
OWNER
1000
GEN
1002
}
  0
LINE
  5
27D
330
22D
100
AcDbEntity
  8
0
100
AcDbLine
 10
0.0
 20
0.0
 30
0.0
 11
0.0
 21
50.0
 31
0.0
1001
GENIUS_GENREC_14
1002
{
1000
PYDIR
1011
-184.0
1021
50.0
1031
0.0
1002
}
1002
{
1000
PXDIR
1011
0.0
1021
0.0
1031
0.0
1002
}
1002
{
1000
PORI
1011
-184.0
1021
0.0
1031
0.0
1002
}
1002
{
1000
PINS
1011
-100.5
1021
25.0
1031
0.0
1002
}
1002
{
1000
HVAL
1000
50
1002
}
1002
{
1000
H
1070
     2
1002
}
1002
{
1000
WVAL
1000
167
1002
}
1002
{
1000
W
1070
     2
1002
}
1002
{
1000
C
1070
     4
1002
}
1001
GENIUS_GENODEF_13
1002
{
1000
HIER
1070
     0
1002
}
1002
{
1000
MANEDIT
1070
     0
1002
}
1002
{
1000
NOSEL
1070
     0
1002
}
1002
{
1000
BEHIND
1070
     0
1002
}
1002
{
1000
REACTOR
1002
}
1001
GENIUS_GENOBJ-N-REC_13
1002
{
1000
OWNER
1000
GEN
1002
}
  0
LINE
  5
27E
330
22D
100
AcDbEntity
  8
0
100
AcDbLine
 10
0.0
 20
50.0
 30
0.0
 11
-195.0
 21
50.00000000000003
 31
0.0
1001
GENIUS_GENREC_14
1002
{
1000
PYDIR
1011
-184.0
1021
50.0
1031
0.0
1002
}
1002
{
1000
PXDIR
1011
0.0
1021
0.0
1031
0.0
1002
}
1002
{
1000
PORI
1011
-184.0
1021
0.0
1031
0.0
1002
}
1002
{
1000
PINS
1011
-100.5
1021
25.0
1031
0.0
1002
}
1002
{
1000
HVAL
1000
50
1002
}
1002
{
1000
H
1070
     2
1002
}
1002
{
1000
WVAL
1000
167
1002
}
1002
{
1000
W
1070
     2
1002
}
1002
{
1000
C
1070
     4
1002
}
1001
GENIUS_GENODEF_13
1002
{
1000
HIER
1070
     0
1002
}
1002
{
1000
MANEDIT
1070
     0
1002
}
1002
{
1000
NOSEL
1070
     0
1002
}
1002
{
1000
BEHIND
1070
     0
1002
}
1002
{
1000
REACTOR
1002
}
1001
GENIUS_GENOBJ-N-REC_13
1002
{
1000
OWNER
1000
GEN
1002
}
  0
LINE
  5
27F
330
22D
100
AcDbEntity
  8
0
100
AcDbLine
 10
-195.0
 20
50.00000000000003
 30
0.0
 11
-195.0
 21
0.0
 31
0.0
1001
GENIUS_GENREC_14
1002
{
1000
PYDIR
1011
-195.0
1021
50.0
1031
0.0
1002
}
1002
{
1000
PXDIR
1011
-11.0
1021
0.0
1031
0.0
1002
}
1002
{
1000
PORI
1011
-195.0
1021
0.0
1031
0.0
1002
}
1002
{
1000
PINS
1011
-111.5
1021
25.0
1031
0.0
1002
}
1002
{
1000
HVAL
1000
50
1002
}
1002
{
1000
H
1070
     2
1002
}
1002
{
1000
WVAL
1000
167
1002
}
1002
{
1000
W
1070
     2
1002
}
1002
{
1000
C
1070
     4
1002
}
1001
GENIUS_GENODEF_13
1002
{
1000
HIER
1070
     0
1002
}
1002
{
1000
MANEDIT
1070
     0
1002
}
1002
{
1000
NOSEL
1070
     0
1002
}
1002
{
1000
BEHIND
1070
     0
1002
}
1002
{
1000
REACTOR
1002
}
1001
GENIUS_GENOBJ-N-REC_13
1002
{
1000
OWNER
1000
GEN
1002
}
  0
MTEXT
  5
280
330
22D
100
AcDbEntity
  8
RAHM2
100
AcDbMText
 10
-8.5
 20
48.80103540727964
 30
0.0
 40
2.5
 41
17.0
 71
     2
 72
     5
  1
検図
 73
     1
 44
1.0
1001
ACAD
1000
MTEXTBEGIN
1070
    73
1070
     1
1070
    44
1040
1.0
1070
    74
1070
     0
1000
MTEXTEND
  0
MTEXT
  5
281
330
22D
100
AcDbEntity
  8
RAHM2
100
AcDbMText
 10
-8.5
 20
23.80103540727964
 30
0.0
 40
2.5
 41
17.0
 71
     2
 72
     5
  1
製図
 73
     1
 44
1.0
1001
ACAD
1000
MTEXTBEGIN
1070
    73
1070
     1
1070
    44
1040
1.0
1070
    74
1070
     0
1000
MTEXTEND
  0
ENDBLK
  5
284
330
22D
100
AcDbEntity
  8
0
100
AcDbBlockEnd
  0
BLOCK
  5
40B
330
407
100
AcDbEntity
  8
0
100
AcDbBlockBegin
  2
_Open30
 70
     0
 10
0.0
 20
0.0
 30
0.0
  3
_Open30
  1

  0
LINE
  5
408
330
407
100
AcDbEntity
  8
0
  6
ByBlock
 62
     0
370
    -2
100
AcDbLine
 10
-1.0
 20
0.26794919
 30
0.0
 11
0.0
 21
0.0
 31
0.0
  0
LINE
  5
409
330
407
100
AcDbEntity
  8
0
  6
ByBlock
 62
     0
370
    -2
100
AcDbLine
 10
0.0
 20
0.0
 30
0.0
 11
-1.0
 21
-0.26794919
 31
0.0
  0
LINE
  5
40A
330
407
100
AcDbEntity
  8
0
  6
ByBlock
 62
     0
370
    -2
100
AcDbLine
 10
0.0
 20
0.0
 30
0.0
 11
-1.0
 21
0.0
 31
0.0
  0
ENDBLK
  5
40C
330
407
100
AcDbEntity
  8
0
100
AcDbBlockEnd
  0
BLOCK
  5
26D1
330
26C8
100
AcDbEntity
  8
0
100
AcDbBlockBegin
  2
TK-A3
 70
     0
 10
0.0
 20
0.0
 30
0.0
  3
TK-A3
  1

  0
LINE
  5
26C9
330
26C8
100
AcDbEntity
  8
0
100
AcDbLine
 10
359.0
 20
280.0
 30
0.0
 11
359.0
 21
275.0
 31
0.0
  0
MTEXT
  5
26CA
330
26C8
100
AcDbEntity
  8
0
100
AcDbMText
 10
402.3592953827349
 20
276.108542987227
 30
0.0
 40
2.5
 41
43.07840397728298
 71
     9
 72
     5
  1
(文書番号：TY-34)2008.02.08
 73
     1
 44
1.0
1001
ACAD
1000
MTEXTBEGIN
1070
    73
1070
     1
1070
    44
1040
1.0
1070
    74
1070
     0
1000
MTEXTEND
  0
LINE
  5
26CB
330
26C8
100
AcDbEntity
  8
0
100
AcDbLine
 10
359.0
 20
275.0
 30
0.0
 11
403.0
 21
275.0
 31
0.0
  0
TEXT
  5
26CC
330
26C8
100
AcDbEntity
  8
0
 60
     1
100
AcDbText
 10
403.0
 20
0.0
 30
0.0
 40
2.5
  1
!GENTITLE-INSERT
100
AcDbText
  0
TEXT
  5
26CD
330
26C8
100
AcDbEntity
  8
0
 60
     1
100
AcDbText
 10
0.0
 20
0.0
 30
0.0
 40
2.5
  1
!GENTITLE-LL
100
AcDbText
  0
TEXT
  5
26CE
330
26C8
100
AcDbEntity
  8
0
 60
     1
100
AcDbText
 10
403.0
 20
280.0
 30
0.0
 40
2.5
  1
!GENTITLE-MAX
100
AcDbText
  0
LWPOLYLINE
  5
26CF
330
26C8
100
AcDbEntity
  8
0
100
AcDbPolyline
 90
        4
 70
     1
 43
0.0
 10
0.0
 20
0.0
 10
403.0
 20
0.0
 10
403.0
 20
280.0
 10
0.0
 20
280.0000000000001
1001
GENIUS_GENREC_14
1002
{
1000
PYDIR
1011
0.0000000000000178
1021
280.0
1031
0.0
1002
}
1002
{
1000
PXDIR
1011
403.0
1021
0.0
1031
0.0
1002
}
1002
{
1000
PORI
1011
0.0
1021
0.0
1031
0.0
1002
}
1002
{
1000
PINS
1011
0.0
1021
0.0
1031
0.0
1002
}
1002
{
1000
PINS2
1011
403.0
1021
280.0
1031
0.0
1002
}
1002
{
1000
C
1070
     1
1002
}
1001
GENIUS_GENODEF_13
1002
{
1000
HIER
1070
     0
1002
}
1002
{
1000
MANEDIT
1070
     0
1002
}
1002
{
1000
NOSEL
1070
     0
1002
}
1002
{
1000
BEHIND
1070
     0
1002
}
1002
{
1000
OTHER
1070
     0
1002
}
1002
{
1000
REACTOR
1002
}
1001
GENIUS_GENOBJ-N-REC_13
1002
{
1000
OWNER
1000
GEN
1002
}
  0
ENDBLK
  5
26D2
330
26C8
100
AcDbEntity
  8
0
100
AcDbBlockEnd
  0
BLOCK
  5
2736
330
26DC
100
AcDbEntity
  8
0
100
AcDbBlockBegin
  2
TK-TITLE
 70
     2
 10
0.0
 20
0.0
 30
0.0
  3
TK-TITLE
  1

  0
LINE
  5
26DD
330
26DC
100
AcDbEntity
  8
0
100
AcDbLine
 10
-167.0
 20
12.49999999999996
 30
0.0
 11
-193.0000000000001
 21
12.49999999999996
 31
0.0
  0
LINE
  5
26DE
330
26DC
100
AcDbEntity
  8
0
100
AcDbLine
 10
-167.0
 20
37.49999999999998
 30
0.0
 11
-193.0000000000001
 21
37.49999999999998
 31
0.0
  0
ATTDEF
  5
26DF
330
26DC
100
AcDbEntity
  8
0
100
AcDbText
 10
-180.2171951662138
 20
3.988342537610664
 30
0.0
 40
3.0
  1

 72
     1
 11
-180.2171951662138
 21
3.588342537610664
 31
0.0
100
AcDbAttributeDefinition
  3
日付
  2
GEN-TITLE-DAT
 70
     0
 74
     1
  0
MTEXT
  5
26E0
330
26DC
100
AcDbEntity
  8
RAHM2
100
AcDbMText
 10
-191.8002551371315
 20
11.3010354072796
 30
0.0
 40
2.5
 41
60.0
 71
     1
 72
     5
  1
日付
 73
     1
 44
1.0
1001
ACAD
1000
MTEXTBEGIN
1070
    73
1070
     1
1070
    44
1040
1.0
1070
    74
1070
     0
1000
MTEXTEND
  0
ATTDEF
  5
26E1
330
26DC
100
AcDbEntity
  8
0
100
AcDbText
 10
-177.824739614424
 20
28.69999999999997
 30
0.0
 40
3.0
  1

 72
     2
 11
-177.824739614424
 21
28.29999999999998
 31
0.0
100
AcDbAttributeDefinition
  3
尺度
  2
GEN-TITLE-SCA
 70
     0
 74
     1
  0
MTEXT
  5
26E2
330
26DC
100
AcDbEntity
  8
RAHM2
100
AcDbMText
 10
-191.8002551371315
 20
36.30103540727966
 30
0.0
 40
2.5
 41
20.0
 71
     1
 72
     5
  1
尺度
 73
     1
 44
1.0
1001
ACAD
1000
MTEXTBEGIN
1070
    73
1070
     1
1070
    44
1040
1.0
1070
    74
1070
     0
1000
MTEXTEND
  0
MTEXT
  5
26E3
330
26DC
100
AcDbEntity
  8
RAHM2
100
AcDbMText
 10
-191.8002551371315
 20
23.80103540727963
 30
0.0
 40
2.5
 41
20.0
 71
     1
 72
     5
  1
数量
 73
     1
 44
1.0
1001
ACAD
1000
MTEXTBEGIN
1070
    73
1070
     1
1070
    44
1040
1.0
1070
    74
1070
     0
1000
MTEXTEND
  0
ATTDEF
  5
26E4
330
26DC
100
AcDbEntity
  8
0
100
AcDbText
 10
-175.6127409126095
 20
16.19999999999994
 30
0.0
 40
3.0
  1

 72
     2
 11
-175.6127409126095
 21
15.79999999999994
 31
0.0
100
AcDbAttributeDefinition
  3
数量
  2
GEN-TITLE-QTY
 70
     0
 74
     1
  0
LINE
  5
26E5
330
26DC
100
AcDbEntity
  8
0
100
AcDbLine
 10
-193.0000000000001
 20
49.99999999999999
 30
0.0
 11
-193.0000000000001
 21
-0.0000000000000142
 31
0.0
  0
LINE
  5
26E6
330
26DC
100
AcDbEntity
  8
7A
100
AcDbLine
 10
-184.7167418745796
 20
43.74999999999995
 30
0.0
 11
-170.9354334742943
 21
43.74999999999995
 31
0.0
1001
GENIUS_GENOREF_13
1005
2734
  0
LINE
  5
26E7
330
26DC
100
AcDbEntity
  8
0
100
AcDbLine
 10
-179.7167418745796
 20
45.74999999999994
 30
0.0
 11
-171.7167418745796
 21
46.74999999999995
 31
0.0
  0
LINE
  5
26E8
330
26DC
100
AcDbEntity
  8
0
100
AcDbLine
 10
-171.7167418745796
 20
40.74999999999994
 30
0.0
 11
-179.7167418745796
 21
41.74999999999995
 31
0.0
  0
LINE
  5
26E9
330
26DC
100
AcDbEntity
  8
7A
100
AcDbLine
 10
-184.7167418745796
 20
43.74999999999995
 30
0.0
 11
-184.7167418745796
 21
47.32478664473144
 31
0.0
1001
GENIUS_GENOREF_13
1005
2734
  0
CIRCLE
  5
26EA
330
26DC
100
AcDbEntity
  8
0
100
AcDbCircle
 10
-184.7167418745796
 20
43.74999999999995
 30
0.0
 40
2.0
  0
CIRCLE
  5
26EB
330
26DC
100
AcDbEntity
  8
0
100
AcDbCircle
 10
-184.7167418745796
 20
43.74999999999995
 30
0.0
 40
3.0
  0
LINE
  5
26EC
330
26DC
100
AcDbEntity
  8
0
100
AcDbLine
 10
-179.7167418745796
 20
41.74999999999995
 30
0.0
 11
-179.7167418745796
 21
45.74999999999994
 31
0.0
  0
LINE
  5
26ED
330
26DC
100
AcDbEntity
  8
7A
100
AcDbLine
 10
-184.7167418745796
 20
43.74999999999995
 30
0.0
 11
-188.4397792458307
 21
43.74999999999995
 31
0.0
1001
GENIUS_GENOREF_13
1005
2734
  0
LINE
  5
26EE
330
26DC
100
AcDbEntity
  8
7A
100
AcDbLine
 10
-184.7167418745796
 20
43.74999999999995
 30
0.0
 11
-184.7167418745796
 21
40.03991724228473
 31
0.0
1001
GENIUS_GENOREF_13
1005
2734
  0
LINE
  5
26EF
330
26DC
100
AcDbEntity
  8
0
100
AcDbLine
 10
-171.7167418745796
 20
46.74999999999995
 30
0.0
 11
-171.7167418745796
 21
40.74999999999994
 31
0.0
  0
LINE
  5
26F0
330
26DC
100
AcDbEntity
  8
0
100
AcDbLine
 10
-167.0
 20
24.99999999999997
 30
0.0
 11
-193.0000000000001
 21
24.99999999999997
 31
0.0
  0
LINE
  5
26F1
330
26DC
100
AcDbEntity
  8
0
100
AcDbLine
 10
-167.0
 20
39.99999999999991
 30
0.0
 11
-96.0
 21
39.99999999999992
 31
0.0
  0
MTEXT
  5
26F2
330
26DC
100
AcDbEntity
  8
RAHM2
100
AcDbMText
 10
-165.8002551371314
 20
38.80103540727956
 30
0.0
 40
2.5
 41
60.0
 71
     1
 72
     5
  1
表面処理
 73
     1
 44
1.0
1001
ACAD
1000
MTEXTBEGIN
1070
    73
1070
     1
1070
    44
1040
1.0
1070
    74
1070
     0
1000
MTEXTEND
  0
MTEXT
  5
26F3
330
26DC
100
AcDbEntity
  8
RAHM2
100
AcDbMText
 10
-165.8002551371314
 20
48.80103540727955
 30
0.0
 40
2.5
 41
60.0
 71
     1
 72
     5
  1
材質
 73
     1
 44
1.0
1001
ACAD
1000
MTEXTBEGIN
1070
    73
1070
     1
1070
    44
1040
1.0
1070
    74
1070
     0
1000
MTEXTEND
  0
ATTDEF
  5
26F4
330
26DC
100
AcDbEntity
  8
0
100
AcDbText
 10
-148.9618675835291
 20
33.29999999999991
 30
0.0
 40
3.0
  1

100
AcDbAttributeDefinition
  3
表面処理
  2
GEN-TITLE-MAT2
 70
     0
  0
ATTDEF
  5
26F5
330
26DC
100
AcDbEntity
  8
0
100
AcDbText
 10
-148.9618675835291
 20
43.29999999999991
 30
0.0
 40
3.0
  1

100
AcDbAttributeDefinition
  3
材質
  2
GEN-TITLE-MAT1
 70
     0
  0
MTEXT
  5
26F6
330
26DC
100
AcDbEntity
  8
0
100
AcDbMText
 10
-131.5000000000001
 20
24.99999999999992
 30
0.0
 40
3.5
 41
60.0
 71
     5
 72
     5
  1
\fＭＳ ゴシック|b0|i0|c128|p49;株式会社タカチ電機工業
 73
     1
 44
1.0
1001
ACAD
1000
MTEXTBEGIN
1070
    73
1070
     1
1070
    44
1040
1.0
1070
    74
1070
     0
1000
MTEXTEND
  0
LINE
  5
26F7
330
26DC
100
AcDbEntity
  8
0
100
AcDbLine
 10
-167.0
 20
29.99999999999992
 30
0.0
 11
-96.0
 21
29.99999999999992
 31
0.0
  0
MTEXT
  5
26F8
330
26DC
100
AcDbEntity
  8
RAHM2
100
AcDbMText
 10
-158.1250000000001
 20
18.80103540727956
 30
0.0
 40
2.5
 41
17.0
 71
     2
 72
     5
  1
承認
 73
     1
 44
1.0
1001
ACAD
1000
MTEXTBEGIN
1070
    73
1070
     1
1070
    44
1040
1.0
1070
    74
1070
     0
1000
MTEXTEND
  0
MTEXT
  5
26F9
330
26DC
100
AcDbEntity
  8
RAHM2
100
AcDbMText
 10
-140.3750000000001
 20
18.80103540727958
 30
0.0
 40
2.5
 41
17.0
 71
     2
 72
     5
  1
承認
 73
     1
 44
1.0
1001
ACAD
1000
MTEXTBEGIN
1070
    73
1070
     1
1070
    44
1040
1.0
1070
    74
1070
     0
1000
MTEXTEND
  0
LINE
  5
26FA
330
26DC
100
AcDbEntity
  8
0
100
AcDbLine
 10
-149.2500000000001
 20
19.99999999999993
 30
0.0
 11
-149.2500000000001
 21
-0.0000000000000462
 31
0.0
  0
LINE
  5
26FB
330
26DC
100
AcDbEntity
  8
0
100
AcDbLine
 10
-167.0
 20
49.99999999999995
 30
0.0
 11
-167.0
 21
-0.0000000000000497
 31
0.0
  0
MTEXT
  5
26FC
330
26DC
100
AcDbEntity
  8
RAHM2
100
AcDbMText
 10
-122.6250000000001
 20
18.80103540727958
 30
0.0
 40
2.5
 41
17.0
 71
     2
 72
     5
  1
検図
 73
     1
 44
1.0
1001
ACAD
1000
MTEXTBEGIN
1070
    73
1070
     1
1070
    44
1040
1.0
1070
    74
1070
     0
1000
MTEXTEND
  0
LINE
  5
26FD
330
26DC
100
AcDbEntity
  8
0
100
AcDbLine
 10
-131.5000000000001
 20
19.99999999999993
 30
0.0
 11
-131.5000000000001
 21
-0.0000000000000533
 31
0.0
  0
LINE
  5
26FE
330
26DC
100
AcDbEntity
  8
0
100
AcDbLine
 10
-113.75
 20
19.99999999999993
 30
0.0
 11
-113.75
 21
-0.0000000000000533
 31
0.0
  0
LINE
  5
26FF
330
26DC
100
AcDbEntity
  8
0
100
AcDbLine
 10
-167.0
 20
19.99999999999993
 30
0.0
 11
-96.0
 21
19.99999999999993
 31
0.0
  0
MTEXT
  5
2700
330
26DC
100
AcDbEntity
  8
RAHM2
100
AcDbMText
 10
-104.875
 20
18.80103540727957
 30
0.0
 40
2.5
 41
17.0
 71
     2
 72
     5
  1
製図
 73
     1
 44
1.0
1001
ACAD
1000
MTEXTBEGIN
1070
    73
1070
     1
1070
    44
1040
1.0
1070
    74
1070
     0
1000
MTEXTEND
  0
MTEXT
  5
2701
330
26DC
100
AcDbEntity
  8
RAHM2
100
AcDbMText
 10
-16.85742592933491
 20
3.434762466565985
 30
0.0
 40
2.5
 41
7.936478436748416
 71
     5
 72
     5
  1
Rev.
 73
     1
 44
1.0
1001
ACAD
1000
MTEXTBEGIN
1070
    73
1070
     1
1070
    44
1040
1.0
1070
    74
1070
     0
1000
MTEXTEND
  0
LINE
  5
2702
330
26DC
100
AcDbEntity
  8
0
100
AcDbLine
 10
-21.17541926625711
 20
0.0
 30
0.0
 11
-21.17541926625734
 21
7.0
 31
0.0
  0
LINE
  5
2703
330
26DC
100
AcDbEntity
  8
RAHM2
100
AcDbLine
 10
-96.0
 20
29.99999999999992
 30
0.0
 11
0.0000000000001137
 21
30.00000000000003
 31
0.0
  0
LINE
  5
2704
330
26DC
100
AcDbEntity
  8
RAHM2
100
AcDbLine
 10
-96.0
 20
35.00000000000003
 30
0.0
 11
0.0000000000001137
 21
35.00000000000003
 31
0.0
  0
LINE
  5
2705
330
26DC
100
AcDbEntity
  8
RAHM2
100
AcDbLine
 10
-96.0
 20
39.99999999999993
 30
0.0
 11
0.0000000000001137
 21
40.00000000000002
 31
0.0
  0
LINE
  5
2706
330
26DC
100
AcDbEntity
  8
RAHM2
100
AcDbLine
 10
-96.0
 20
45.00000000000002
 30
0.0
 11
0.0000000000001137
 21
45.00000000000002
 31
0.0
  0
LINE
  5
2707
330
26DC
100
AcDbEntity
  8
0
100
AcDbLine
 10
-96.0
 20
7.0
 30
0.0
 11
0.0000000000001137
 21
7.0
 31
0.0
  0
LINE
  5
2708
330
26DC
100
AcDbEntity
  8
0
100
AcDbLine
 10
-96.0
 20
19.99999999999997
 30
0.0
 11
0.0000000000001137
 21
19.99999999999997
 31
0.0
  0
MTEXT
  5
2709
330
26DC
100
AcDbEntity
  8
RAHM2
100
AcDbMText
 10
-94.80025513713144
 20
5.801035407279627
 30
0.0
 40
2.5
 41
90.0
 71
     1
 72
     5
  1
図番
 73
     1
 44
1.0
1001
ACAD
1000
MTEXTBEGIN
1070
    73
1070
     1
1070
    44
1040
1.0
1070
    74
1070
     0
1000
MTEXTEND
  0
LINE
  5
270A
330
26DC
100
AcDbEntity
  8
RAHM2
100
AcDbLine
 10
-88.57512886940355
 20
30.40000000000002
 30
0.0
 11
-91.0
 21
34.60000000000001
 31
0.0
  0
LINE
  5
270B
330
26DC
100
AcDbEntity
  8
RAHM2
100
AcDbLine
 10
-91.0
 20
34.60000000000001
 30
0.0
 11
-93.42487113059645
 21
30.40000000000002
 31
0.0
  0
LINE
  5
270C
330
26DC
100
AcDbEntity
  8
RAHM2
100
AcDbLine
 10
-86.0
 20
50.00000000000001
 30
0.0
 11
-86.0
 21
19.99999999999993
 31
0.0
  0
LINE
  5
270D
330
26DC
100
AcDbEntity
  8
RAHM2
100
AcDbLine
 10
-93.42487113059645
 20
30.40000000000002
 30
0.0
 11
-88.57512886940355
 21
30.40000000000002
 31
0.0
  0
MTEXT
  5
270E
330
26DC
100
AcDbEntity
  8
RAHM2
100
AcDbMText
 10
-91.0
 20
22.49999999999996
 30
0.0
 40
2.5
 41
10.0
 71
     5
 72
     5
  1
符号
 73
     1
 44
1.0
1001
ACAD
1000
MTEXTBEGIN
1070
    73
1070
     1
1070
    44
1040
1.0
1070
    74
1070
     0
1000
MTEXTEND
  0
MTEXT
  5
270F
330
26DC
100
AcDbEntity
  8
RAHM2
100
AcDbMText
 10
-94.80025513713144
 20
18.8010354072796
 30
0.0
 40
2.5
 41
90.0
 71
     1
 72
     5
  1
品名
 73
     1
 44
1.0
1001
ACAD
1000
MTEXTBEGIN
1070
    73
1070
     1
1070
    44
1040
1.0
1070
    74
1070
     0
1000
MTEXTEND
  0
LINE
  5
2710
330
26DC
100
AcDbEntity
  8
RAHM2
100
AcDbLine
 10
-93.42487113059645
 20
45.40000000000001
 30
0.0
 11
-88.57512886940355
 21
45.40000000000001
 31
0.0
  0
LINE
  5
2711
330
26DC
100
AcDbEntity
  8
RAHM2
100
AcDbLine
 10
-88.57512886940355
 20
45.40000000000001
 30
0.0
 11
-91.0
 21
49.6
 31
0.0
  0
LINE
  5
2712
330
26DC
100
AcDbEntity
  8
RAHM2
100
AcDbLine
 10
-93.42487113059645
 20
40.40000000000001
 30
0.0
 11
-88.57512886940355
 21
40.40000000000001
 31
0.0
  0
LINE
  5
2713
330
26DC
100
AcDbEntity
  8
RAHM2
100
AcDbLine
 10
-88.57512886940355
 20
40.40000000000001
 30
0.0
 11
-91.0
 21
44.6
 31
0.0
  0
LINE
  5
2714
330
26DC
100
AcDbEntity
  8
RAHM2
100
AcDbLine
 10
-93.42487113059645
 20
35.40000000000002
 30
0.0
 11
-88.57512886940355
 21
35.40000000000002
 31
0.0
  0
LINE
  5
2715
330
26DC
100
AcDbEntity
  8
RAHM2
100
AcDbLine
 10
-88.57512886940355
 20
35.40000000000002
 30
0.0
 11
-91.0
 21
39.60000000000001
 31
0.0
  0
LINE
  5
2716
330
26DC
100
AcDbEntity
  8
RAHM2
100
AcDbLine
 10
-91.0
 20
39.60000000000001
 30
0.0
 11
-93.42487113059645
 21
35.40000000000002
 31
0.0
  0
LINE
  5
2717
330
26DC
100
AcDbEntity
  8
RAHM2
100
AcDbLine
 10
-91.0
 20
44.6
 30
0.0
 11
-93.42487113059645
 21
40.40000000000001
 31
0.0
  0
LINE
  5
2718
330
26DC
100
AcDbEntity
  8
RAHM2
100
AcDbLine
 10
-91.0
 20
49.6
 30
0.0
 11
-93.42487113059645
 21
45.40000000000001
 31
0.0
  0
LINE
  5
2719
330
26DC
100
AcDbEntity
  8
RAHM2
100
AcDbLine
 10
-31.82081941068907
 20
50.00000000000003
 30
0.0
 11
-31.82081941068918
 21
19.99999999999994
 31
0.0
  0
MTEXT
  5
271A
330
26DC
100
AcDbEntity
  8
RAHM2
100
AcDbMText
 10
-59.0
 20
22.49999999999996
 30
0.0
 40
2.5
 41
45.0
 71
     5
 72
     5
  1
変更記事
 73
     1
 44
1.0
1001
ACAD
1000
MTEXTBEGIN
1070
    73
1070
     1
1070
    44
1040
1.0
1070
    74
1070
     0
1000
MTEXTEND
  0
LINE
  5
271B
330
26DC
100
AcDbEntity
  8
RAHM2
100
AcDbLine
 10
-11.82081941068907
 20
50.00000000000003
 30
0.0
 11
-11.82081941068907
 21
19.99999999999994
 31
0.0
  0
MTEXT
  5
271C
330
26DC
100
AcDbEntity
  8
RAHM2
100
AcDbMText
 10
-22.27910888308327
 20
32.50000000000003
 30
0.0
 40
2.5
 41
20.0
 71
     5
 72
     5
  1
・  ・   
 73
     1
 44
1.0
1001
ACAD
1000
MTEXTBEGIN
1070
    73
1070
     1
1070
    44
1040
1.0
1070
    74
1070
     0
1000
MTEXTEND
  0
MTEXT
  5
271D
330
26DC
100
AcDbEntity
  8
RAHM2
100
AcDbMText
 10
-21.55893921569111
 20
22.49999999999997
 30
0.0
 40
2.5
 41
20.0
 71
     5
 72
     5
  1
年・月・日
 73
     1
 44
1.0
1001
ACAD
1000
MTEXTBEGIN
1070
    73
1070
     1
1070
    44
1040
1.0
1070
    74
1070
     0
1000
MTEXTEND
  0
MTEXT
  5
271E
330
26DC
100
AcDbEntity
  8
RAHM2
100
AcDbMText
 10
-5.910409705344477
 20
22.49999999999997
 30
0.0
 40
2.5
 41
15.0
 71
     5
 72
     5
  1
担当
 73
     1
 44
1.0
1001
ACAD
1000
MTEXTBEGIN
1070
    73
1070
     1
1070
    44
1040
1.0
1070
    74
1070
     0
1000
MTEXTEND
  0
MTEXT
  5
271F
330
26DC
100
AcDbEntity
  8
RAHM2
100
AcDbMText
 10
-22.27910888308327
 20
42.50000000000002
 30
0.0
 40
2.5
 41
20.0
 71
     5
 72
     5
  1
・  ・   
 73
     1
 44
1.0
1001
ACAD
1000
MTEXTBEGIN
1070
    73
1070
     1
1070
    44
1040
1.0
1070
    74
1070
     0
1000
MTEXTEND
  0
MTEXT
  5
2720
330
26DC
100
AcDbEntity
  8
RAHM2
100
AcDbMText
 10
-22.27910888308327
 20
37.50000000000003
 30
0.0
 40
2.5
 41
20.0
 71
     5
 72
     5
  1
・  ・   
 73
     1
 44
1.0
1001
ACAD
1000
MTEXTBEGIN
1070
    73
1070
     1
1070
    44
1040
1.0
1070
    74
1070
     0
1000
MTEXTEND
  0
MTEXT
  5
2721
330
26DC
100
AcDbEntity
  8
RAHM2
100
AcDbMText
 10
-22.27910888308327
 20
47.50000000000002
 30
0.0
 40
2.5
 41
20.0
 71
     5
 72
     5
  1
・  ・   
 73
     1
 44
1.0
1001
ACAD
1000
MTEXTBEGIN
1070
    73
1070
     1
1070
    44
1040
1.0
1070
    74
1070
     0
1000
MTEXTEND
  0
LINE
  5
2722
330
26DC
100
AcDbEntity
  8
RAHM2
100
AcDbLine
 10
-91.0
 20
29.60000000000001
 30
0.0
 11
-93.42487113059645
 21
25.40000000000002
 31
0.0
  0
LINE
  5
2723
330
26DC
100
AcDbEntity
  8
RAHM2
100
AcDbLine
 10
-88.57512886940355
 20
25.40000000000002
 30
0.0
 11
-91.0
 21
29.60000000000001
 31
0.0
  0
LINE
  5
2724
330
26DC
100
AcDbEntity
  8
RAHM2
100
AcDbLine
 10
-93.42487113059645
 20
25.40000000000002
 30
0.0
 11
-88.57512886940355
 21
25.40000000000002
 31
0.0
  0
LINE
  5
2725
330
26DC
100
AcDbEntity
  8
RAHM2
100
AcDbLine
 10
-96.0
 20
25.0
 30
0.0
 11
0.0000000000001137
 21
25.00000000000003
 31
0.0
  0
MTEXT
  5
2726
330
26DC
100
AcDbEntity
  8
RAHM2
100
AcDbMText
 10
-22.27910888308327
 20
27.50000000000003
 30
0.0
 40
2.5
 41
20.0
 71
     5
 72
     5
  1
・  ・   
 73
     1
 44
1.0
1001
ACAD
1000
MTEXTBEGIN
1070
    73
1070
     1
1070
    44
1040
1.0
1070
    74
1070
     0
1000
MTEXTEND
  0
TEXT
  5
2727
330
26DC
100
AcDbEntity
  8
RAHM2
100
AcDbText
 10
-91.81558635658019
 20
25.98333333333335
 30
0.0
 40
2.5
  1
1
 72
     1
 11
-91.19058635658019
 21
25.65000000000002
 31
0.0
100
AcDbText
 73
     1
  0
TEXT
  5
2728
330
26DC
100
AcDbEntity
  8
RAHM2
100
AcDbText
 10
-91.91833169291339
 20
30.98333333333335
 30
0.0
 40
2.5
  1
2
 72
     1
 11
-91.0
 21
30.65000000000002
 31
0.0
100
AcDbText
 73
     1
  0
TEXT
  5
2729
330
26DC
100
AcDbEntity
  8
RAHM2
100
AcDbText
 10
-91.92677669529663
 20
35.98333333333333
 30
0.0
 40
2.5
  1
3
 72
     1
 11
-91.0
 21
35.64999999999999
 31
0.0
100
AcDbText
 73
     1
  0
TEXT
  5
272A
330
26DC
100
AcDbEntity
  8
RAHM2
100
AcDbText
 10
-92.0
 20
40.98333333333335
 30
0.0
 40
2.5
  1
4
 72
     1
 11
-91.0
 21
40.65000000000002
 31
0.0
100
AcDbText
 73
     1
  0
TEXT
  5
272B
330
26DC
100
AcDbEntity
  8
RAHM2
100
AcDbText
 10
-91.92677669529663
 20
45.98333333333335
 30
0.0
 40
2.5
  1
5
 72
     1
 11
-91.0
 21
45.65000000000002
 31
0.0
100
AcDbText
 73
     1
  0
LINE
  5
272C
330
26DC
100
AcDbEntity
  8
0
100
AcDbLine
 10
-193.0000000000001
 20
0.0
 30
0.0
 11
0.0
 21
0.0
 31
0.0
1001
GENIUS_GENREC_14
1002
{
1000
PYDIR
1011
-184.0
1021
50.0
1031
0.0
1002
}
1002
{
1000
PXDIR
1011
0.0
1021
0.0
1031
0.0
1002
}
1002
{
1000
PORI
1011
-184.0
1021
0.0
1031
0.0
1002
}
1002
{
1000
PINS
1011
-100.5
1021
25.0
1031
0.0
1002
}
1002
{
1000
HVAL
1000
50
1002
}
1002
{
1000
H
1070
     2
1002
}
1002
{
1000
WVAL
1000
167
1002
}
1002
{
1000
W
1070
     2
1002
}
1002
{
1000
C
1070
     4
1002
}
1001
GENIUS_GENODEF_13
1002
{
1000
HIER
1070
     0
1002
}
1002
{
1000
MANEDIT
1070
     0
1002
}
1002
{
1000
NOSEL
1070
     0
1002
}
1002
{
1000
BEHIND
1070
     0
1002
}
1002
{
1000
REACTOR
1002
}
1001
GENIUS_GENOBJ-N-REC_13
1002
{
1000
OWNER
1000
GEN
1002
}
  0
LINE
  5
272D
330
26DC
100
AcDbEntity
  8
0
100
AcDbLine
 10
0.0
 20
50.0
 30
0.0
 11
-193.0000000000001
 21
50.00000000000002
 31
0.0
1001
GENIUS_GENREC_14
1002
{
1000
PYDIR
1011
-184.0
1021
50.0
1031
0.0
1002
}
1002
{
1000
PXDIR
1011
0.0
1021
0.0
1031
0.0
1002
}
1002
{
1000
PORI
1011
-184.0
1021
0.0
1031
0.0
1002
}
1002
{
1000
PINS
1011
-100.5
1021
25.0
1031
0.0
1002
}
1002
{
1000
HVAL
1000
50
1002
}
1002
{
1000
H
1070
     2
1002
}
1002
{
1000
WVAL
1000
167
1002
}
1002
{
1000
W
1070
     2
1002
}
1002
{
1000
C
1070
     4
1002
}
1001
GENIUS_GENODEF_13
1002
{
1000
HIER
1070
     0
1002
}
1002
{
1000
MANEDIT
1070
     0
1002
}
1002
{
1000
NOSEL
1070
     0
1002
}
1002
{
1000
BEHIND
1070
     0
1002
}
1002
{
1000
REACTOR
1002
}
1001
GENIUS_GENOBJ-N-REC_13
1002
{
1000
OWNER
1000
GEN
1002
}
  0
LINE
  5
272E
330
26DC
100
AcDbEntity
  8
0
100
AcDbLine
 10
-96.0
 20
50.00000000000001
 30
0.0
 11
-96.0
 21
-0.0000000000000142
 31
0.0
1001
GENIUS_GENREC_14
1002
{
1000
PYDIR
1011
-96.0
1021
49.99999999999999
1031
0.0
1002
}
1002
{
1000
PXDIR
1011
88.0
1021
-0.0000000000000142
1031
0.0
1002
}
1002
{
1000
PORI
1011
-96.0
1021
-0.0000000000000142
1031
0.0
1002
}
1002
{
1000
PINS
1011
-12.5
1021
24.99999999999999
1031
0.0
1002
}
1002
{
1000
HVAL
1000
50
1002
}
1002
{
1000
H
1070
     2
1002
}
1002
{
1000
WVAL
1000
167
1002
}
1002
{
1000
W
1070
     2
1002
}
1002
{
1000
C
1070
     4
1002
}
1001
GENIUS_GENODEF_13
1002
{
1000
HIER
1070
     0
1002
}
1002
{
1000
MANEDIT
1070
     0
1002
}
1002
{
1000
NOSEL
1070
     0
1002
}
1002
{
1000
BEHIND
1070
     0
1002
}
1002
{
1000
REACTOR
1002
}
1001
GENIUS_GENOBJ-N-REC_13
1002
{
1000
OWNER
1000
GEN
1002
}
  0
ATTDEF
  5
272F
330
26DC
100
AcDbEntity
  8
0
100
AcDbText
 10
-84.0
 20
1.999999999999957
 30
0.0
 40
3.0
  1

100
AcDbAttributeDefinition
  3
図番
  2
GEN-TITLE-NR1
 70
     0
  0
ATTDEF
  5
2730
330
26DC
100
AcDbEntity
  8
0
100
AcDbText
 10
-84.0
 20
9.149999999999948
 30
0.0
 40
2.5
  1

100
AcDbAttributeDefinition
  3
サブタイトル
  2
GEN-TITLE-DES2
 70
     0
  0
LINE
  5
2731
330
26DC
100
AcDbEntity
  8
0
100
AcDbLine
 10
0.0
 20
0.0
 30
0.0
 11
0.0
 21
50.0
 31
0.0
1001
GENIUS_GENREC_14
1002
{
1000
PYDIR
1011
-414.0
1021
291.0
1031
0.0
1002
}
1002
{
1000
PXDIR
1011
6.0
1021
-6.0
1031
0.0
1002
}
1002
{
1000
PORI
1011
-414.0
1021
-6.0
1031
0.0
1002
}
1002
{
1000
PINS
1011
-414.0
1021
-6.0
1031
0.0
1002
}
1002
{
1000
HVAL
1000
297
1002
}
1002
{
1000
H
1070
     2
1002
}
1002
{
1000
WVAL
1000
420
1002
}
1002
{
1000
W
1070
     2
1002
}
1002
{
1000
C
1070
     1
1002
}
1001
GENIUS_GENODEF_13
1002
{
1000
HIER
1070
     0
1002
}
1002
{
1000
MANEDIT
1070
     0
1002
}
1002
{
1000
NOSEL
1070
     0
1002
}
1002
{
1000
BEHIND
1070
     0
1002
}
1002
{
1000
OTHER
1070
     0
1002
}
1002
{
1000
REACTOR
1002
}
1001
GENIUS_GENOBJ-N-REC_13
1002
{
1000
OWNER
1000
GEN
1002
}
  0
ATTDEF
  5
2732
330
26DC
100
AcDbEntity
  8
0
100
AcDbText
 10
-84.14251901585329
 20
12.82790432564377
 30
0.0
 40
3.5
  1

100
AcDbAttributeDefinition
  3
品名
  2
GEN-TITLE-DES1
 70
     0
  0
ATTDEF
  5
2733
330
26DC
100
AcDbEntity
  8
0
100
AcDbText
 10
-8.002309189545826
 20
1.705189434395036
 30
0.0
 40
2.5
  1

100
AcDbAttributeDefinition
  3
Rev.
  2
GEN-TITLE-NR2
 70
     0
  0
POINT
  5
2734
330
26DC
100
AcDbEntity
  8
0
 60
     1
100
AcDbPoint
 10
-418.5355579819675
 20
-138.1104841268254
 30
0.0
1001
GENIUS_GENODEF_13
1002
{
1000
HIER
1070
    10
1002
}
1002
{
1000
MANEDIT
1070
     0
1002
}
1002
{
1000
NOSEL
1070
     0
1002
}
1002
{
1000
BEHIND
1070
     0
1002
}
1002
{
1000
REACTOR
1002
}
1001
GENIUS_GENOBJ-N-CRS_13
1002
{
1000
OWNER
1000
GEN
1002
}
1001
GENIUS_GENOENT_13
1002
{
1000
MYREF
1005
2734
1002
}
1002
{
1000
GRP
1005
0
1002
}
1001
GENIUS_GENOLIS_13
1002
{
1000
ENT
1005
26EE
1005
26ED
1005
26E9
1005
26E6
1002
}
  0
ENDBLK
  5
2737
330
26DC
100
AcDbEntity
  8
0
100
AcDbBlockEnd
  0
BLOCK
  5
2DE6
330
2DDD
100
AcDbEntity
  8
0
100
AcDbBlockBegin
  2
TK-A4
 70
     0
 10
0.0
 20
0.0
 30
0.0
  3
TK-A4
  1

  0
TEXT
  5
2DDE
330
2DDD
100
AcDbEntity
  8
0
 60
     1
100
AcDbText
 10
0.0
 20
0.0
 30
0.0
 40
2.5
  1
!GENTITLE-LL
100
AcDbText
  0
TEXT
  5
2DDF
330
2DDD
100
AcDbEntity
  8
0
 60
     1
100
AcDbText
 10
193.0
 20
280.0
 30
0.0
 40
2.5
  1
!GENTITLE-MAX
100
AcDbText
  0
TEXT
  5
2DE0
330
2DDD
100
AcDbEntity
  8
0
 60
     1
100
AcDbText
 10
193.0
 20
0.0
 30
0.0
 40
2.5
  1
!GENTITLE-INSERT
100
AcDbText
  0
LWPOLYLINE
  5
2DE1
330
2DDD
100
AcDbEntity
  8
0
100
AcDbPolyline
 90
        4
 70
     1
 43
0.0
 10
0.0
 20
0.0
 10
193.0
 20
0.0
 10
193.0
 20
280.0
 10
0.0
 20
280.0
1001
GENIUS_GENREC_14
1002
{
1000
PYDIR
1011
-8.5
1021
288.5
1031
0.0
1002
}
1002
{
1000
PXDIR
1011
201.5
1021
-8.5
1031
0.0
1002
}
1002
{
1000
PORI
1011
-8.5
1021
-8.5
1031
0.0
1002
}
1002
{
1000
PINS
1011
-8.5
1021
-8.5
1031
0.0
1002
}
1002
{
1000
HVAL
1000
297
1002
}
1002
{
1000
H
1070
     2
1002
}
1002
{
1000
WVAL
1000
210
1002
}
1002
{
1000
W
1070
     2
1002
}
1002
{
1000
C
1070
     1
1002
}
1001
GENIUS_GENOBJ-N-REC_13
1002
{
1000
OWNER
1000
GEN
1002
}
1001
GENIUS_GENODEF_13
1002
{
1000
HIER
1070
     0
1002
}
1002
{
1000
MANEDIT
1070
     0
1002
}
1002
{
1000
NOSEL
1070
     0
1002
}
1002
{
1000
BEHIND
1070
     0
1002
}
1002
{
1000
OTHER
1070
     0
1002
}
1002
{
1000
REACTOR
1002
}
  0
LINE
  5
2DE2
330
2DDD
100
AcDbEntity
  8
0
100
AcDbLine
 10
149.0
 20
280.0000000000001
 30
0.0
 11
149.0
 21
275.0
 31
0.0
  0
MTEXT
  5
2DE3
330
2DDD
100
AcDbEntity
  8
0
100
AcDbMText
 10
192.3592953827349
 20
276.1085429872271
 30
0.0
 40
2.5
 41
43.07840397728298
 71
     9
 72
     5
  1
(文書番号：TY-34)2008.02.08
 73
     1
 44
1.0
1001
ACAD
1000
MTEXTBEGIN
1070
    73
1070
     1
1070
    44
1040
1.0
1070
    74
1070
     0
1000
MTEXTEND
  0
LINE
  5
2DE4
330
2DDD
100
AcDbEntity
  8
0
100
AcDbLine
 10
149.0
 20
275.0
 30
0.0
 11
193.0
 21
275.0
 31
0.0
  0
ENDBLK
  5
2DE7
330
2DDD
100
AcDbEntity
  8
0
100
AcDbBlockEnd
  0
BLOCK
  5
3B59
330
3B41
100
AcDbEntity
  8
0
100
AcDbBlockBegin
  2
*D9
 70
     1
 10
0.0
 20
0.0
 30
0.0
  3
*D9
  1

  0
LINE
  5
3BA3
330
3B41
100
AcDbEntity
  8
AM_5
100
AcDbLine
 10
140.741583665394
 20
441.1687315242653
 30
0.0
 11
97.25113950462903
 21
441.1687315242653
 31
0.0
  0
LINE
  5
3BA4
330
3B41
100
AcDbEntity
  8
AM_5
100
AcDbLine
 10
136.251140514629
 20
280.1687322388016
 30
0.0
 11
97.25113950462898
 21
280.1687322388016
 31
0.0
  0
LINE
  5
3BA5
330
3B41
100
AcDbEntity
  8
AM_5
100
AcDbLine
 10
99.75113950462903
 20
434.9187315242653
 30
0.0
 11
99.75113950462898
 21
286.4187322388016
 31
0.0
  0
INSERT
  5
3BA6
330
3B41
100
AcDbEntity
  8
AM_5
100
AcDbBlockReference
  2
_Open30
 10
99.75113950462903
 20
441.1687315242653
 30
0.0
 41
6.25
 42
6.25
 43
6.25
 50
90.0
  0
INSERT
  5
3BA7
330
3B41
100
AcDbEntity
  8
AM_5
100
AcDbBlockReference
  2
_Open30
 10
99.75113950462898
 20
280.1687322388016
 30
0.0
 41
6.25
 42
6.25
 43
6.25
 50
270.0
  0
MTEXT
  5
3BA8
330
3B41
100
AcDbEntity
  8
AM_5
 62
     2
100
AcDbMText
 10
91.62613950462896
 20
360.6687318815335
 30
0.0
 40
8.75
 41
0.0
 71
     5
 72
     1
  1
160
 11
0.0000000000000001
 21
1.0
 31
0.0
 73
     1
 44
1.0
1001
ACAD
1000
MTEXTBEGIN
1070
    73
1070
     1
1070
    44
1040
1.0
1070
    74
1070
     0
1000
MTEXTEND
  0
POINT
  5
3BA9
330
3B41
100
AcDbEntity
  8
Defpoints
 62
     0
100
AcDbPoint
 10
143.241583665394
 20
441.1687315242653
 30
0.0
  0
POINT
  5
3BAA
330
3B41
100
AcDbEntity
  8
Defpoints
 62
     0
100
AcDbPoint
 10
138.751140514629
 20
280.1687322388016
 30
0.0
  0
POINT
  5
3BAB
330
3B41
100
AcDbEntity
  8
Defpoints
 62
     0
100
AcDbPoint
 10
99.75113950462898
 20
280.1687322388016
 30
0.0
  0
ENDBLK
  5
3B5A
330
3B41
100
AcDbEntity
  8
0
100
AcDbBlockEnd
  0
BLOCK
  5
3BD5
330
3BBD
100
AcDbEntity
  8
0
100
AcDbBlockBegin
  2
*D10
 70
     1
 10
0.0
 20
0.0
 30
0.0
  3
*D10
  1

  0
LINE
  5
3BC9
330
3BBD
100
AcDbEntity
  8
AM_5
100
AcDbLine
 10
130.7469962420251
 20
286.6687322388015
 30
0.0
 11
130.7469962420251
 21
247.6687312288015
 31
0.0
  0
LINE
  5
3BCA
330
3BBD
100
AcDbEntity
  8
AM_5
100
AcDbLine
 10
155.746996242025
 20
286.6687322388015
 30
0.0
 11
155.746996242025
 21
247.6687312288015
 31
0.0
  0
LINE
  5
3BCB
330
3BBD
100
AcDbEntity
  8
AM_5
100
AcDbLine
 10
136.9969962420251
 20
250.1687312288015
 30
0.0
 11
149.496996242025
 21
250.1687312288015
 31
0.0
  0
INSERT
  5
3BCC
330
3BBD
100
AcDbEntity
  8
AM_5
100
AcDbBlockReference
  2
_Open30
 10
130.7469962420251
 20
250.1687312288015
 30
0.0
 41
6.25
 42
6.25
 43
6.25
 50
180.0
  0
INSERT
  5
3BCD
330
3BBD
100
AcDbEntity
  8
AM_5
100
AcDbBlockReference
  2
_Open30
 10
155.746996242025
 20
250.1687312288015
 30
0.0
 41
6.25
 42
6.25
 43
6.25
  0
MTEXT
  5
3BCE
330
3BBD
100
AcDbEntity
  8
AM_5
 62
     2
100
AcDbMText
 10
143.246996242025
 20
258.294592449274
 30
0.0
 40
8.75
 41
0.0
 71
     5
 72
     1
  1
25
 73
     1
 44
1.0
1001
ACAD
1000
MTEXTBEGIN
1070
    73
1070
     1
1070
    44
1040
1.0
1070
    74
1070
     0
1000
MTEXTEND
  0
POINT
  5
3BCF
330
3BBD
100
AcDbEntity
  8
Defpoints
 62
     0
100
AcDbPoint
 10
130.7469962420251
 20
289.1687322388015
 30
0.0
  0
POINT
  5
3BD0
330
3BBD
100
AcDbEntity
  8
Defpoints
 62
     0
100
AcDbPoint
 10
155.746996242025
 20
289.1687322388015
 30
0.0
  0
POINT
  5
3BD1
330
3BBD
100
AcDbEntity
  8
Defpoints
 62
     0
100
AcDbPoint
 10
155.746996242025
 20
250.1687312288015
 30
0.0
  0
ENDBLK
  5
3BD6
330
3BBD
100
AcDbEntity
  8
0
100
AcDbBlockEnd
  0
BLOCK
  5
3CDB
330
3CD7
100
AcDbEntity
  8
0
100
AcDbBlockBegin
  2
*S11
 70
     1
 10
0.0
 20
0.0
 30
0.0
  3
*S11
  1

  0
CIRCLE
  5
3CD8
330
3CD7
100
AcDbEntity
  8
AM_12
 62
     4
100
AcDbCircle
 10
145.8382263426132
 20
306.4331922664992
 30
0.0
 40
4.375
  0
LINE
  5
3CD9
330
3CD7
100
AcDbEntity
  8
AM_12
 62
     4
100
AcDbLine
 10
141.4632263426133
 20
302.0581922664992
 30
0.0
 11
150.2132263426132
 21
310.8081922664993
 31
0.0
  0
LINE
  5
3CDA
330
3CD7
100
AcDbEntity
  8
AM_12
 62
     4
100
AcDbLine
 10
141.4632263426133
 20
310.8081922664993
 30
0.0
 11
150.2132263426132
 21
302.0581922664992
 31
0.0
  0
ENDBLK
  5
3CDC
330
3CD7
100
AcDbEntity
  8
0
100
AcDbBlockEnd
  0
BLOCK
  5
3CE2
330
3CDE
100
AcDbEntity
  8
0
100
AcDbBlockBegin
  2
*S12
 70
     1
 10
0.0
 20
0.0
 30
0.0
  3
*S12
  1

  0
CIRCLE
  5
3CDF
330
3CDE
100
AcDbEntity
  8
AM_12
 62
     4
100
AcDbCircle
 10
144.1625729902043
 20
422.5464155404484
 30
0.0
 40
4.375
  0
LINE
  5
3CE0
330
3CDE
100
AcDbEntity
  8
AM_12
 62
     4
100
AcDbLine
 10
139.7875729902043
 20
418.1714155404484
 30
0.0
 11
148.5375729902043
 21
426.9214155404484
 31
0.0
  0
LINE
  5
3CE1
330
3CDE
100
AcDbEntity
  8
AM_12
 62
     4
100
AcDbLine
 10
139.7875729902043
 20
426.9214155404484
 30
0.0
 11
148.5375729902043
 21
418.1714155404484
 31
0.0
  0
ENDBLK
  5
3CE3
330
3CDE
100
AcDbEntity
  8
0
100
AcDbBlockEnd
  0
BLOCK
  5
3CE9
330
3CE5
100
AcDbEntity
  8
0
100
AcDbBlockBegin
  2
*S13
 70
     1
 10
0.0
 20
0.0
 30
0.0
  3
*S13
  1

  0
CIRCLE
  5
3CE6
330
3CE5
100
AcDbEntity
  8
AM_12
 62
     4
100
AcDbCircle
 10
343.1279277558683
 20
419.8212199536847
 30
0.0
 40
4.375
  0
LINE
  5
3CE7
330
3CE5
100
AcDbEntity
  8
AM_12
 62
     4
100
AcDbLine
 10
338.7529277558682
 20
415.4462199536848
 30
0.0
 11
347.5029277558683
 21
424.1962199536847
 31
0.0
  0
LINE
  5
3CE8
330
3CE5
100
AcDbEntity
  8
AM_12
 62
     4
100
AcDbLine
 10
338.7529277558682
 20
424.1962199536847
 30
0.0
 11
347.5029277558683
 21
415.4462199536848
 31
0.0
  0
ENDBLK
  5
3CEA
330
3CE5
100
AcDbEntity
  8
0
100
AcDbBlockEnd
  0
BLOCK
  5
3CF0
330
3CEC
100
AcDbEntity
  8
0
100
AcDbBlockBegin
  2
*S14
 70
     1
 10
0.0
 20
0.0
 30
0.0
  3
*S14
  1

  0
CIRCLE
  5
3CED
330
3CEC
100
AcDbEntity
  8
AM_12
 62
     4
100
AcDbCircle
 10
325.1041435265622
 20
199.1879040191089
 30
0.0
 40
4.375
  0
LINE
  5
3CEE
330
3CEC
100
AcDbEntity
  8
AM_12
 62
     4
100
AcDbLine
 10
329.4791435265622
 20
194.8129040191089
 30
0.0
 11
320.7291435265621
 21
203.5629040191089
 31
0.0
  0
LINE
  5
3CEF
330
3CEC
100
AcDbEntity
  8
AM_12
 62
     4
100
AcDbLine
 10
320.7291435265621
 20
194.8129040191089
 30
0.0
 11
329.4791435265622
 21
203.5629040191089
 31
0.0
  0
ENDBLK
  5
3CF1
330
3CEC
100
AcDbEntity
  8
0
100
AcDbBlockEnd
  0
BLOCK
  5
3CF7
330
3CF3
100
AcDbEntity
  8
0
100
AcDbBlockBegin
  2
*S15
 70
     1
 10
0.0
 20
0.0
 30
0.0
  3
*S15
  1

  0
CIRCLE
  5
3CF4
330
3CF3
100
AcDbEntity
  8
AM_12
 62
     4
100
AcDbCircle
 10
473.6050641166279
 20
599.65625
 30
0.0
 40
4.375
  0
LINE
  5
3CF5
330
3CF3
100
AcDbEntity
  8
AM_12
 62
     4
100
AcDbLine
 10
469.230064116628
 20
595.28125
 30
0.0
 11
477.9800641166279
 21
604.0312499999999
 31
0.0
  0
LINE
  5
3CF6
330
3CF3
100
AcDbEntity
  8
AM_12
 62
     4
100
AcDbLine
 10
469.230064116628
 20
604.0312499999999
 30
0.0
 11
477.9800641166279
 21
595.28125
 31
0.0
  0
ENDBLK
  5
3CF8
330
3CF3
100
AcDbEntity
  8
0
100
AcDbBlockEnd
  0
BLOCK
  5
3CFE
330
3CFA
100
AcDbEntity
  8
0
100
AcDbBlockBegin
  2
*S16
 70
     1
 10
0.0
 20
0.0
 30
0.0
  3
*S16
  1

  0
CIRCLE
  5
3CFB
330
3CFA
100
AcDbEntity
  8
AM_12
 62
     4
100
AcDbCircle
 10
473.6050641166279
 20
584.21875
 30
0.0
 40
4.375
  0
LINE
  5
3CFC
330
3CFA
100
AcDbEntity
  8
AM_12
 62
     4
100
AcDbLine
 10
469.230064116628
 20
579.84375
 30
0.0
 11
477.9800641166279
 21
588.5937499999999
 31
0.0
  0
LINE
  5
3CFD
330
3CFA
100
AcDbEntity
  8
AM_12
 62
     4
100
AcDbLine
 10
469.230064116628
 20
588.5937499999999
 30
0.0
 11
477.9800641166279
 21
579.84375
 31
0.0
  0
ENDBLK
  5
3CFF
330
3CFA
100
AcDbEntity
  8
0
100
AcDbBlockEnd
  0
BLOCK
  5
3D05
330
3D01
100
AcDbEntity
  8
0
100
AcDbBlockBegin
  2
*S17
 70
     1
 10
0.0
 20
0.0
 30
0.0
  3
*S17
  1

  0
CIRCLE
  5
3D02
330
3D01
100
AcDbEntity
  8
AM_12
 62
     4
100
AcDbCircle
 10
473.6050641166279
 20
569.3872410509184
 30
0.0
 40
4.375
  0
LINE
  5
3D03
330
3D01
100
AcDbEntity
  8
AM_12
 62
     4
100
AcDbLine
 10
469.230064116628
 20
565.0122410509184
 30
0.0
 11
477.9800641166279
 21
573.7622410509183
 31
0.0
  0
LINE
  5
3D04
330
3D01
100
AcDbEntity
  8
AM_12
 62
     4
100
AcDbLine
 10
469.230064116628
 20
573.7622410509183
 30
0.0
 11
477.9800641166279
 21
565.0122410509184
 31
0.0
  0
ENDBLK
  5
3D06
330
3D01
100
AcDbEntity
  8
0
100
AcDbBlockEnd
  0
BLOCK
  5
3D0C
330
3D08
100
AcDbEntity
  8
0
100
AcDbBlockBegin
  2
*S18
 70
     1
 10
0.0
 20
0.0
 30
0.0
  3
*S18
  1

  0
CIRCLE
  5
3D09
330
3D08
100
AcDbEntity
  8
AM_12
 62
     4
100
AcDbCircle
 10
473.6050641166279
 20
552.5137071756071
 30
0.0
 40
4.375
  0
LINE
  5
3D0A
330
3D08
100
AcDbEntity
  8
AM_12
 62
     4
100
AcDbLine
 10
469.230064116628
 20
548.1387071756071
 30
0.0
 11
477.9800641166279
 21
556.8887071756071
 31
0.0
  0
LINE
  5
3D0B
330
3D08
100
AcDbEntity
  8
AM_12
 62
     4
100
AcDbLine
 10
469.230064116628
 20
556.8887071756071
 30
0.0
 11
477.9800641166279
 21
548.1387071756071
 31
0.0
  0
ENDBLK
  5
3D0D
330
3D08
100
AcDbEntity
  8
0
100
AcDbBlockEnd
  0
BLOCK
  5
3D14
330
3D0F
100
AcDbEntity
  8
0
100
AcDbBlockBegin
  2
*S19
 70
     1
 10
0.0
 20
0.0
 30
0.0
  3
*S19
  1

  0
LINE
  5
3D10
330
3D0F
100
AcDbEntity
  8
AM_5
100
AcDbLine
 10
187.4211948736203
 20
262.5663408020236
 30
0.0
 11
151.8578912918678
 21
300.0829061391883
 31
0.0
  0
TRACE
  5
3D11
330
3D0F
100
AcDbEntity
  8
AM_5
100
AcDbTrace
 10
152.6939223171927
 20
300.8754100608611
 30
0.0
 11
151.0218602665428
 21
299.2904022175157
 31
0.0
 12
145.8382263426132
 22
306.4331922664992
 32
0.0
 13
145.8382263426132
 23
306.4331922664992
 33
0.0
  0
MTEXT
  5
3D12
330
3D0F
100
AcDbEntity
  8
AM_5
 62
     7
100
AcDbMText
 10
204.620237585776
 20
244.422666152564
 30
0.0
 40
12.5
 41
0.0
 71
     5
 72
     5
  1
1
  7
ACISOTS
 73
     1
 44
1.0
1001
ACAD
1000
MTEXTBEGIN
1070
    73
1070
     1
1070
    44
1040
1.0
1070
    74
1070
     0
1000
MTEXTEND
  0
CIRCLE
  5
3D13
330
3D0F
100
AcDbEntity
  8
AM_5
 62
     3
100
AcDbCircle
 10
204.620237585776
 20
244.422666152564
 30
0.0
 40
25.0
  0
ENDBLK
  5
3D15
330
3D0F
100
AcDbEntity
  8
0
100
AcDbBlockEnd
  0
BLOCK
  5
3D1C
330
3D17
100
AcDbEntity
  8
0
100
AcDbBlockBegin
  2
*S20
 70
     1
 10
0.0
 20
0.0
 30
0.0
  3
*S20
  1

  0
LINE
  5
3D18
330
3D17
100
AcDbEntity
  8
AM_5
100
AcDbLine
 10
167.0356553091004
 20
449.9306798715441
 30
0.0
 11
149.7718334948445
 21
429.2619718533002
 31
0.0
  0
TRACE
  5
3D19
330
3D17
100
AcDbEntity
  8
AM_5
100
AcDbTrace
 10
148.8877137375134
 20
430.0004450050596
 30
0.0
 11
150.6559532521755
 21
428.5234987015408
 31
0.0
 12
144.1625729902043
 22
422.5464155404484
 32
0.0
 13
144.1625729902043
 23
422.5464155404484
 33
0.0
  0
MTEXT
  5
3D1A
330
3D17
100
AcDbEntity
  8
AM_5
 62
     7
100
AcDbMText
 10
183.0621138937867
 20
469.1179836225492
 30
0.0
 40
12.5
 41
0.0
 71
     5
 72
     5
  1
2
  7
ACISOTS
 73
     1
 44
1.0
1001
ACAD
1000
MTEXTBEGIN
1070
    73
1070
     1
1070
    44
1040
1.0
1070
    74
1070
     0
1000
MTEXTEND
  0
CIRCLE
  5
3D1B
330
3D17
100
AcDbEntity
  8
AM_5
 62
     3
100
AcDbCircle
 10
183.0621138937867
 20
469.1179836225492
 30
0.0
 40
25.0
  0
ENDBLK
  5
3D1D
330
3D17
100
AcDbEntity
  8
0
100
AcDbBlockEnd
  0
BLOCK
  5
3D24
330
3D1F
100
AcDbEntity
  8
0
100
AcDbBlockBegin
  2
*S21
 70
     1
 10
0.0
 20
0.0
 30
0.0
  3
*S21
  1

  0
LINE
  5
3D20
330
3D1F
100
AcDbEntity
  8
AM_5
100
AcDbLine
 10
300.9826107081214
 20
175.1809669348145
 30
0.0
 11
318.9022448481185
 21
193.0154691039139
 31
0.0
  0
TRACE
  5
3D21
330
3D1F
100
AcDbEntity
  8
AM_5
100
AcDbTrace
 10
319.7148613172739
 20
192.1989736567558
 30
0.0
 11
318.0896283789631
 21
193.831964551072
 31
0.0
 12
325.1041435265622
 22
199.1879040191089
 32
0.0
 13
325.1041435265622
 23
199.1879040191089
 33
0.0
  0
MTEXT
  5
3D22
330
3D1F
100
AcDbEntity
  8
AM_5
 62
     7
100
AcDbMText
 10
283.2629001982823
 20
157.5454386056859
 30
0.0
 40
12.5
 41
0.0
 71
     5
 72
     5
  1
4
  7
ACISOTS
 73
     1
 44
1.0
1001
ACAD
1000
MTEXTBEGIN
1070
    73
1070
     1
1070
    44
1040
1.0
1070
    74
1070
     0
1000
MTEXTEND
  0
CIRCLE
  5
3D23
330
3D1F
100
AcDbEntity
  8
AM_5
 62
     3
100
AcDbCircle
 10
283.2629001982823
 20
157.5454386056859
 30
0.0
 40
25.0
  0
ENDBLK
  5
3D25
330
3D1F
100
AcDbEntity
  8
0
100
AcDbBlockEnd
  0
BLOCK
  5
3D2C
330
3D27
100
AcDbEntity
  8
0
100
AcDbBlockBegin
  2
*S22
 70
     1
 10
0.0
 20
0.0
 30
0.0
  3
*S22
  1

  0
LINE
  5
3D28
330
3D27
100
AcDbEntity
  8
AM_5
100
AcDbLine
 10
376.5906130397109
 20
388.2569772473213
 30
0.0
 11
349.4930331579393
 21
413.8172268473824
 31
0.0
  0
TRACE
  5
3D29
330
3D27
100
AcDbEntity
  8
AM_5
100
AcDbTrace
 10
350.2834738423548
 20
414.6552088672333
 30
0.0
 11
348.7025924735238
 21
412.9792448275315
 31
0.0
 12
343.1279277558683
 22
419.8212199536847
 32
0.0
 13
343.1279277558683
 23
419.8212199536847
 33
0.0
  0
MTEXT
  5
3D2A
330
3D27
100
AcDbEntity
  8
AM_5
 62
     7
100
AcDbMText
 10
394.7766284741996
 20
371.1027112293146
 30
0.0
 40
12.5
 41
0.0
 71
     5
 72
     5
  1
3
  7
ACISOTS
 73
     1
 44
1.0
1001
ACAD
1000
MTEXTBEGIN
1070
    73
1070
     1
1070
    44
1040
1.0
1070
    74
1070
     0
1000
MTEXTEND
  0
CIRCLE
  5
3D2B
330
3D27
100
AcDbEntity
  8
AM_5
 62
     3
100
AcDbCircle
 10
394.7766284741996
 20
371.1027112293146
 30
0.0
 40
25.0
  0
ENDBLK
  5
3D2D
330
3D27
100
AcDbEntity
  8
0
100
AcDbBlockEnd
  0
BLOCK
  5
3D8F
330
3D2F
100
AcDbEntity
  8
0
100
AcDbBlockBegin
  2
*S23
 70
     1
 10
0.0
 20
0.0
 30
0.0
  3
*S23
  1

  0
LINE
  5
3D30
330
3D2F
100
AcDbEntity
  8
ﾌﾞﾗｹｯﾄ
 62
     1
100
AcDbLine
 10
0.0
 20
653.6875
 30
0.0
 11
482.5
 21
653.6875
 31
0.0
  0
LINE
  5
3D31
330
3D2F
100
AcDbEntity
  8
ﾌﾞﾗｹｯﾄ
 62
     1
100
AcDbLine
 10
0.0
 20
638.25
 30
0.0
 11
482.5
 21
638.25
 31
0.0
  0
LINE
  5
3D32
330
3D2F
100
AcDbEntity
  8
ﾌﾞﾗｹｯﾄ
 62
     1
100
AcDbLine
 10
0.0
 20
622.8125
 30
0.0
 11
482.5
 21
622.8125
 31
0.0
  0
LINE
  5
3D33
330
3D2F
100
AcDbEntity
  8
ﾌﾞﾗｹｯﾄ
 62
     1
100
AcDbLine
 10
0.0
 20
607.375
 30
0.0
 11
482.5
 21
607.375
 31
0.0
  0
LINE
  5
3D34
330
3D2F
100
AcDbEntity
  8
ﾌﾞﾗｹｯﾄ
 62
     1
100
AcDbLine
 10
0.0
 20
591.9375
 30
0.0
 11
482.5
 21
591.9375
 31
0.0
  0
LINE
  5
3D35
330
3D2F
100
AcDbEntity
  8
ﾌﾞﾗｹｯﾄ
 62
     1
100
AcDbLine
 10
0.0
 20
576.4999999999999
 30
0.0
 11
482.5
 21
576.4999999999999
 31
0.0
  0
LINE
  5
3D36
330
3D2F
100
AcDbEntity
  8
ﾌﾞﾗｹｯﾄ
 62
     1
100
AcDbLine
 10
0.0
 20
561.0624999999999
 30
0.0
 11
482.5
 21
561.0624999999999
 31
0.0
  0
MTEXT
  5
3D37
330
3D2F
100
AcDbEntity
  8
ﾌﾞﾗｹｯﾄ
 62
     2
100
AcDbMText
 10
18.75
 20
665.7499999999999
 30
0.0
 40
8.75
 41
33.0
 71
     2
 72
     5
  1
1
  7
ACISOTS
 73
     1
 44
1.0
1001
ACAD
1000
MTEXTBEGIN
1070
    73
1070
     1
1070
    44
1040
1.0
1070
    74
1070
     0
1000
MTEXTEND
  0
LINE
  5
3D38
330
3D2F
100
AcDbEntity
  8
ﾌﾞﾗｹｯﾄ
 62
     1
100
AcDbLine
 10
37.5
 20
669.125
 30
0.0
 11
37.5
 21
653.6875
 31
0.0
  0
MTEXT
  5
3D39
330
3D2F
100
AcDbEntity
  8
ﾌﾞﾗｹｯﾄ
 62
     2
100
AcDbMText
 10
62.5
 20
665.7499999999999
 30
0.0
 40
8.75
 41
45.49999999999999
 71
     2
 72
     5
  1
2
  7
ACISOTS
 73
     1
 44
1.0
1001
ACAD
1000
MTEXTBEGIN
1070
    73
1070
     1
1070
    44
1040
1.0
1070
    74
1070
     0
1000
MTEXTEND
  0
LINE
  5
3D3A
330
3D2F
100
AcDbEntity
  8
ﾌﾞﾗｹｯﾄ
 62
     1
100
AcDbLine
 10
87.5
 20
669.125
 30
0.0
 11
87.5
 21
653.6875
 31
0.0
  0
MTEXT
  5
3D3B
330
3D2F
100
AcDbEntity
  8
ﾌﾞﾗｹｯﾄ
 62
     2
100
AcDbMText
 10
89.74999999999999
 20
665.7499999999999
 30
0.0
 40
8.75
 41
145.5
 71
     1
 72
     5
  1
ブラケット
  7
ACISOTS
 73
     1
 44
1.0
1001
ACAD
1000
MTEXTBEGIN
1070
    73
1070
     1
1070
    44
1040
1.0
1070
    74
1070
     0
1000
MTEXTEND
  0
LINE
  5
3D3C
330
3D2F
100
AcDbEntity
  8
ﾌﾞﾗｹｯﾄ
 62
     1
100
AcDbLine
 10
237.5
 20
669.125
 30
0.0
 11
237.5
 21
653.6875
 31
0.0
  0
MTEXT
  5
3D3D
330
3D2F
100
AcDbEntity
  8
ﾌﾞﾗｹｯﾄ
 62
     2
100
AcDbMText
 10
239.75
 20
665.7499999999999
 30
0.0
 40
8.75
 41
95.5
 71
     1
 72
     5
  1
ABS
  7
ACISOTS
 73
     1
 44
1.0
1001
ACAD
1000
MTEXTBEGIN
1070
    73
1070
     1
1070
    44
1040
1.0
1070
    74
1070
     0
1000
MTEXTEND
  0
LINE
  5
3D3E
330
3D2F
100
AcDbEntity
  8
ﾌﾞﾗｹｯﾄ
 62
     1
100
AcDbLine
 10
337.5
 20
669.125
 30
0.0
 11
337.5
 21
653.6875
 31
0.0
  0
MTEXT
  5
3D3F
330
3D2F
100
AcDbEntity
  8
ﾌﾞﾗｹｯﾄ
 62
     2
100
AcDbMText
 10
339.75
 20
665.7499999999999
 30
0.0
 40
8.75
 41
140.5
 71
     1
 72
     5
  1
ﾗｲﾄｸﾞﾚｰ/ﾌﾞﾗｯｸ
  7
ACISOTS
 73
     1
 44
1.0
1001
ACAD
1000
MTEXTBEGIN
1070
    73
1070
     1
1070
    44
1040
1.0
1070
    74
1070
     0
1000
MTEXTEND
  0
MTEXT
  5
3D40
330
3D2F
100
AcDbEntity
  8
ﾌﾞﾗｹｯﾄ
 62
     2
100
AcDbMText
 10
18.75
 20
650.3124999999999
 30
0.0
 40
8.75
 41
33.0
 71
     2
 72
     5
  1
2
  7
ACISOTS
 73
     1
 44
1.0
1001
ACAD
1000
MTEXTBEGIN
1070
    73
1070
     1
1070
    44
1040
1.0
1070
    74
1070
     0
1000
MTEXTEND
  0
LINE
  5
3D41
330
3D2F
100
AcDbEntity
  8
ﾌﾞﾗｹｯﾄ
 62
     1
100
AcDbLine
 10
37.5
 20
653.6875
 30
0.0
 11
37.5
 21
638.25
 31
0.0
  0
MTEXT
  5
3D42
330
3D2F
100
AcDbEntity
  8
ﾌﾞﾗｹｯﾄ
 62
     2
100
AcDbMText
 10
62.5
 20
650.3124999999999
 30
0.0
 40
8.75
 41
45.49999999999999
 71
     2
 72
     5
  1
2
  7
ACISOTS
 73
     1
 44
1.0
1001
ACAD
1000
MTEXTBEGIN
1070
    73
1070
     1
1070
    44
1040
1.0
1070
    74
1070
     0
1000
MTEXTEND
  0
LINE
  5
3D43
330
3D2F
100
AcDbEntity
  8
ﾌﾞﾗｹｯﾄ
 62
     1
100
AcDbLine
 10
87.5
 20
653.6875
 30
0.0
 11
87.5
 21
638.25
 31
0.0
  0
MTEXT
  5
3D44
330
3D2F
100
AcDbEntity
  8
ﾌﾞﾗｹｯﾄ
 62
     2
100
AcDbMText
 10
89.74999999999999
 20
650.3124999999999
 30
0.0
 40
8.75
 41
145.5
 71
     1
 72
     5
  1
キャップ
  7
ACISOTS
 73
     1
 44
1.0
1001
ACAD
1000
MTEXTBEGIN
1070
    73
1070
     1
1070
    44
1040
1.0
1070
    74
1070
     0
1000
MTEXTEND
  0
LINE
  5
3D45
330
3D2F
100
AcDbEntity
  8
ﾌﾞﾗｹｯﾄ
 62
     1
100
AcDbLine
 10
237.5
 20
653.6875
 30
0.0
 11
237.5
 21
638.25
 31
0.0
  0
MTEXT
  5
3D46
330
3D2F
100
AcDbEntity
  8
ﾌﾞﾗｹｯﾄ
 62
     2
100
AcDbMText
 10
239.75
 20
650.3124999999999
 30
0.0
 40
8.75
 41
95.5
 71
     1
 72
     5
  1
ポリエチレン
  7
ACISOTS
 73
     1
 44
1.0
1001
ACAD
1000
MTEXTBEGIN
1070
    73
1070
     1
1070
    44
1040
1.0
1070
    74
1070
     0
1000
MTEXTEND
  0
LINE
  5
3D47
330
3D2F
100
AcDbEntity
  8
ﾌﾞﾗｹｯﾄ
 62
     1
100
AcDbLine
 10
337.5
 20
653.6875
 30
0.0
 11
337.5
 21
638.25
 31
0.0
  0
MTEXT
  5
3D48
330
3D2F
100
AcDbEntity
  8
ﾌﾞﾗｹｯﾄ
 62
     2
100
AcDbMText
 10
339.75
 20
650.3124999999999
 30
0.0
 40
8.75
 41
140.5
 71
     1
 72
     5
  1
ﾗｲﾄｸﾞﾚｰ/ﾌﾞﾗｯｸ
  7
ACISOTS
 73
     1
 44
1.0
1001
ACAD
1000
MTEXTBEGIN
1070
    73
1070
     1
1070
    44
1040
1.0
1070
    74
1070
     0
1000
MTEXTEND
  0
MTEXT
  5
3D49
330
3D2F
100
AcDbEntity
  8
ﾌﾞﾗｹｯﾄ
 62
     2
100
AcDbMText
 10
18.75
 20
634.8749999999999
 30
0.0
 40
8.75
 41
33.0
 71
     2
 72
     5
  1
3
  7
ACISOTS
 73
     1
 44
1.0
1001
ACAD
1000
MTEXTBEGIN
1070
    73
1070
     1
1070
    44
1040
1.0
1070
    74
1070
     0
1000
MTEXTEND
  0
LINE
  5
3D4A
330
3D2F
100
AcDbEntity
  8
ﾌﾞﾗｹｯﾄ
 62
     1
100
AcDbLine
 10
37.5
 20
638.25
 30
0.0
 11
37.5
 21
622.8125
 31
0.0
  0
MTEXT
  5
3D4B
330
3D2F
100
AcDbEntity
  8
ﾌﾞﾗｹｯﾄ
 62
     2
100
AcDbMText
 10
62.5
 20
634.8749999999999
 30
0.0
 40
8.75
 41
45.49999999999999
 71
     2
 72
     5
  1
2
  7
ACISOTS
 73
     1
 44
1.0
1001
ACAD
1000
MTEXTBEGIN
1070
    73
1070
     1
1070
    44
1040
1.0
1070
    74
1070
     0
1000
MTEXTEND
  0
LINE
  5
3D4C
330
3D2F
100
AcDbEntity
  8
ﾌﾞﾗｹｯﾄ
 62
     1
100
AcDbLine
 10
87.5
 20
638.25
 30
0.0
 11
87.5
 21
622.8125
 31
0.0
  0
MTEXT
  5
3D4D
330
3D2F
100
AcDbEntity
  8
ﾌﾞﾗｹｯﾄ
 62
     2
100
AcDbMText
 10
89.74999999999999
 20
634.8749999999999
 30
0.0
 40
8.75
 41
145.5
 71
     1
 72
     5
  1
ステーター
  7
ACISOTS
 73
     1
 44
1.0
1001
ACAD
1000
MTEXTBEGIN
1070
    73
1070
     1
1070
    44
1040
1.0
1070
    74
1070
     0
1000
MTEXTEND
  0
LINE
  5
3D4E
330
3D2F
100
AcDbEntity
  8
ﾌﾞﾗｹｯﾄ
 62
     1
100
AcDbLine
 10
237.5
 20
638.25
 30
0.0
 11
237.5
 21
622.8125
 31
0.0
  0
MTEXT
  5
3D4F
330
3D2F
100
AcDbEntity
  8
ﾌﾞﾗｹｯﾄ
 62
     2
100
AcDbMText
 10
239.75
 20
634.8749999999999
 30
0.0
 40
8.75
 41
95.5
 71
     1
 72
     5
  1
ADC12
  7
ACISOTS
 73
     1
 44
1.0
1001
ACAD
1000
MTEXTBEGIN
1070
    73
1070
     1
1070
    44
1040
1.0
1070
    74
1070
     0
1000
MTEXTEND
  0
LINE
  5
3D50
330
3D2F
100
AcDbEntity
  8
ﾌﾞﾗｹｯﾄ
 62
     1
100
AcDbLine
 10
337.5
 20
638.25
 30
0.0
 11
337.5
 21
622.8125
 31
0.0
  0
MTEXT
  5
3D51
330
3D2F
100
AcDbEntity
  8
ﾌﾞﾗｹｯﾄ
 62
     2
100
AcDbMText
 10
339.75
 20
634.8749999999999
 30
0.0
 40
8.75
 41
140.5
 71
     1
 72
     5
  1
ﾗｲﾄｸﾞﾚｰ塗装/ﾌﾞﾗｯｸ塗装
  7
ACISOTS
 73
     1
 44
1.0
1001
ACAD
1000
MTEXTBEGIN
1070
    73
1070
     1
1070
    44
1040
1.0
1070
    74
1070
     0
1000
MTEXTEND
  0
MTEXT
  5
3D52
330
3D2F
100
AcDbEntity
  8
ﾌﾞﾗｹｯﾄ
 62
     2
100
AcDbMText
 10
18.75
 20
619.4374999999999
 30
0.0
 40
8.75
 41
33.0
 71
     2
 72
     5
  1
4
  7
ACISOTS
 73
     1
 44
1.0
1001
ACAD
1000
MTEXTBEGIN
1070
    73
1070
     1
1070
    44
1040
1.0
1070
    74
1070
     0
1000
MTEXTEND
  0
LINE
  5
3D53
330
3D2F
100
AcDbEntity
  8
ﾌﾞﾗｹｯﾄ
 62
     1
100
AcDbLine
 10
37.5
 20
622.8125
 30
0.0
 11
37.5
 21
607.375
 31
0.0
  0
MTEXT
  5
3D54
330
3D2F
100
AcDbEntity
  8
ﾌﾞﾗｹｯﾄ
 62
     2
100
AcDbMText
 10
62.5
 20
619.4374999999999
 30
0.0
 40
8.75
 41
45.49999999999999
 71
     2
 72
     5
  1
2
  7
ACISOTS
 73
     1
 44
1.0
1001
ACAD
1000
MTEXTBEGIN
1070
    73
1070
     1
1070
    44
1040
1.0
1070
    74
1070
     0
1000
MTEXTEND
  0
LINE
  5
3D55
330
3D2F
100
AcDbEntity
  8
ﾌﾞﾗｹｯﾄ
 62
     1
100
AcDbLine
 10
87.5
 20
622.8125
 30
0.0
 11
87.5
 21
607.375
 31
0.0
  0
MTEXT
  5
3D56
330
3D2F
100
AcDbEntity
  8
ﾌﾞﾗｹｯﾄ
 62
     2
100
AcDbMText
 10
89.74999999999999
 20
619.4374999999999
 30
0.0
 40
8.75
 41
145.5
 71
     1
 72
     5
  1
スペーサー
  7
ACISOTS
 73
     1
 44
1.0
1001
ACAD
1000
MTEXTBEGIN
1070
    73
1070
     1
1070
    44
1040
1.0
1070
    74
1070
     0
1000
MTEXTEND
  0
LINE
  5
3D57
330
3D2F
100
AcDbEntity
  8
ﾌﾞﾗｹｯﾄ
 62
     1
100
AcDbLine
 10
237.5
 20
622.8125
 30
0.0
 11
237.5
 21
607.375
 31
0.0
  0
MTEXT
  5
3D58
330
3D2F
100
AcDbEntity
  8
ﾌﾞﾗｹｯﾄ
 62
     2
100
AcDbMText
 10
239.75
 20
619.4374999999999
 30
0.0
 40
8.75
 41
95.5
 71
     1
 72
     5
  1
ポリエチレン
  7
ACISOTS
 73
     1
 44
1.0
1001
ACAD
1000
MTEXTBEGIN
1070
    73
1070
     1
1070
    44
1040
1.0
1070
    74
1070
     0
1000
MTEXTEND
  0
LINE
  5
3D59
330
3D2F
100
AcDbEntity
  8
ﾌﾞﾗｹｯﾄ
 62
     1
100
AcDbLine
 10
337.5
 20
622.8125
 30
0.0
 11
337.5
 21
607.375
 31
0.0
  0
MTEXT
  5
3D5A
330
3D2F
100
AcDbEntity
  8
ﾌﾞﾗｹｯﾄ
 62
     2
100
AcDbMText
 10
339.75
 20
619.4374999999999
 30
0.0
 40
8.75
 41
140.5
 71
     1
 72
     5
  1
ﾗｲﾄｸﾞﾚｰ/ﾌﾞﾗｯｸ
  7
ACISOTS
 73
     1
 44
1.0
1001
ACAD
1000
MTEXTBEGIN
1070
    73
1070
     1
1070
    44
1040
1.0
1070
    74
1070
     0
1000
MTEXTEND
  0
MTEXT
  5
3D5B
330
3D2F
100
AcDbEntity
  8
ﾌﾞﾗｹｯﾄ
 62
     2
100
AcDbMText
 10
18.75
 20
604.0
 30
0.0
 40
8.75
 41
33.0
 71
     2
 72
     5
  1
5
  7
ACISOTS
 73
     1
 44
1.0
1001
ACAD
1000
MTEXTBEGIN
1070
    73
1070
     1
1070
    44
1040
1.0
1070
    74
1070
     0
1000
MTEXTEND
  0
LINE
  5
3D5C
330
3D2F
100
AcDbEntity
  8
ﾌﾞﾗｹｯﾄ
 62
     1
100
AcDbLine
 10
37.5
 20
607.375
 30
0.0
 11
37.5
 21
591.9375
 31
0.0
  0
MTEXT
  5
3D5D
330
3D2F
100
AcDbEntity
  8
ﾌﾞﾗｹｯﾄ
 62
     2
100
AcDbMText
 10
62.5
 20
604.0
 30
0.0
 40
8.75
 41
45.49999999999999
 71
     2
 72
     5
  1
2
  7
ACISOTS
 73
     1
 44
1.0
1001
ACAD
1000
MTEXTBEGIN
1070
    73
1070
     1
1070
    44
1040
1.0
1070
    74
1070
     0
1000
MTEXTEND
  0
LINE
  5
3D5E
330
3D2F
100
AcDbEntity
  8
ﾌﾞﾗｹｯﾄ
 62
     1
100
AcDbLine
 10
87.5
 20
607.375
 30
0.0
 11
87.5
 21
591.9375
 31
0.0
  0
MTEXT
  5
3D5F
330
3D2F
100
AcDbEntity
  8
ﾌﾞﾗｹｯﾄ
 62
     2
100
AcDbMText
 10
89.74999999999999
 20
604.0
 30
0.0
 40
8.75
 41
145.5
 71
     1
 72
     5
  1
ナット(M5)
  7
ACISOTS
 73
     1
 44
1.0
1001
ACAD
1000
MTEXTBEGIN
1070
    73
1070
     1
1070
    44
1040
1.0
1070
    74
1070
     0
1000
MTEXTEND
  0
LINE
  5
3D60
330
3D2F
100
AcDbEntity
  8
ﾌﾞﾗｹｯﾄ
 62
     1
100
AcDbLine
 10
237.5
 20
607.375
 30
0.0
 11
237.5
 21
591.9375
 31
0.0
  0
MTEXT
  5
3D61
330
3D2F
100
AcDbEntity
  8
ﾌﾞﾗｹｯﾄ
 62
     2
100
AcDbMText
 10
239.75
 20
604.0
 30
0.0
 40
8.75
 41
95.5
 71
     1
 72
     5
  1
鉄
  7
ACISOTS
 73
     1
 44
1.0
1001
ACAD
1000
MTEXTBEGIN
1070
    73
1070
     1
1070
    44
1040
1.0
1070
    74
1070
     0
1000
MTEXTEND
  0
LINE
  5
3D62
330
3D2F
100
AcDbEntity
  8
ﾌﾞﾗｹｯﾄ
 62
     1
100
AcDbLine
 10
337.5
 20
607.375
 30
0.0
 11
337.5
 21
591.9375
 31
0.0
  0
MTEXT
  5
3D63
330
3D2F
100
AcDbEntity
  8
ﾌﾞﾗｹｯﾄ
 62
     2
100
AcDbMText
 10
339.75
 20
604.0
 30
0.0
 40
8.75
 41
140.5
 71
     1
 72
     5
  1
三価ｸﾛｰﾒｲﾄ
  7
ACISOTS
 73
     1
 44
1.0
1001
ACAD
1000
MTEXTBEGIN
1070
    73
1070
     1
1070
    44
1040
1.0
1070
    74
1070
     0
1000
MTEXTEND
  0
MTEXT
  5
3D64
330
3D2F
100
AcDbEntity
  8
ﾌﾞﾗｹｯﾄ
 62
     2
100
AcDbMText
 10
18.75
 20
588.5625
 30
0.0
 40
8.75
 41
33.0
 71
     2
 72
     5
  1
6
  7
ACISOTS
 73
     1
 44
1.0
1001
ACAD
1000
MTEXTBEGIN
1070
    73
1070
     1
1070
    44
1040
1.0
1070
    74
1070
     0
1000
MTEXTEND
  0
LINE
  5
3D65
330
3D2F
100
AcDbEntity
  8
ﾌﾞﾗｹｯﾄ
 62
     1
100
AcDbLine
 10
37.5
 20
591.9375
 30
0.0
 11
37.5
 21
576.4999999999999
 31
0.0
  0
MTEXT
  5
3D66
330
3D2F
100
AcDbEntity
  8
ﾌﾞﾗｹｯﾄ
 62
     2
100
AcDbMText
 10
62.5
 20
588.5625
 30
0.0
 40
8.75
 41
45.49999999999999
 71
     2
 72
     5
  1
2
  7
ACISOTS
 73
     1
 44
1.0
1001
ACAD
1000
MTEXTBEGIN
1070
    73
1070
     1
1070
    44
1040
1.0
1070
    74
1070
     0
1000
MTEXTEND
  0
LINE
  5
3D67
330
3D2F
100
AcDbEntity
  8
ﾌﾞﾗｹｯﾄ
 62
     1
100
AcDbLine
 10
87.5
 20
591.9375
 30
0.0
 11
87.5
 21
576.4999999999999
 31
0.0
  0
MTEXT
  5
3D68
330
3D2F
100
AcDbEntity
  8
ﾌﾞﾗｹｯﾄ
 62
     2
100
AcDbMText
 10
89.74999999999999
 20
588.5625
 30
0.0
 40
8.75
 41
145.5
 71
     1
 72
     5
  1
取付ビス(ﾅﾍﾞSW付 M5×16)
  7
ACISOTS
 73
     1
 44
1.0
1001
ACAD
1000
MTEXTBEGIN
1070
    73
1070
     1
1070
    44
1040
1.0
1070
    74
1070
     0
1000
MTEXTEND
  0
LINE
  5
3D69
330
3D2F
100
AcDbEntity
  8
ﾌﾞﾗｹｯﾄ
 62
     1
100
AcDbLine
 10
237.5
 20
591.9375
 30
0.0
 11
237.5
 21
576.4999999999999
 31
0.0
  0
MTEXT
  5
3D6A
330
3D2F
100
AcDbEntity
  8
ﾌﾞﾗｹｯﾄ
 62
     2
100
AcDbMText
 10
239.75
 20
588.5625
 30
0.0
 40
8.75
 41
95.5
 71
     1
 72
     5
  1
鉄
  7
ACISOTS
 73
     1
 44
1.0
1001
ACAD
1000
MTEXTBEGIN
1070
    73
1070
     1
1070
    44
1040
1.0
1070
    74
1070
     0
1000
MTEXTEND
  0
LINE
  5
3D6B
330
3D2F
100
AcDbEntity
  8
ﾌﾞﾗｹｯﾄ
 62
     1
100
AcDbLine
 10
337.5
 20
591.9375
 30
0.0
 11
337.5
 21
576.4999999999999
 31
0.0
  0
MTEXT
  5
3D6C
330
3D2F
100
AcDbEntity
  8
ﾌﾞﾗｹｯﾄ
 62
     2
100
AcDbMText
 10
339.75
 20
588.5625
 30
0.0
 40
8.75
 41
140.5
 71
     1
 72
     5
  1
三価ｸﾛｰﾒｲﾄ
  7
ACISOTS
 73
     1
 44
1.0
1001
ACAD
1000
MTEXTBEGIN
1070
    73
1070
     1
1070
    44
1040
1.0
1070
    74
1070
     0
1000
MTEXTEND
  0
MTEXT
  5
3D6D
330
3D2F
100
AcDbEntity
  8
ﾌﾞﾗｹｯﾄ
 62
     2
100
AcDbMText
 10
18.75
 20
573.125
 30
0.0
 40
8.75
 41
33.0
 71
     2
 72
     5
  1
7
  7
ACISOTS
 73
     1
 44
1.0
1001
ACAD
1000
MTEXTBEGIN
1070
    73
1070
     1
1070
    44
1040
1.0
1070
    74
1070
     0
1000
MTEXTEND
  0
LINE
  5
3D6E
330
3D2F
100
AcDbEntity
  8
ﾌﾞﾗｹｯﾄ
 62
     1
100
AcDbLine
 10
37.5
 20
576.4999999999999
 30
0.0
 11
37.5
 21
561.0624999999999
 31
0.0
  0
MTEXT
  5
3D6F
330
3D2F
100
AcDbEntity
  8
ﾌﾞﾗｹｯﾄ
 62
     2
100
AcDbMText
 10
62.5
 20
573.125
 30
0.0
 40
8.75
 41
45.49999999999999
 71
     2
 72
     5
  1
2
  7
ACISOTS
 73
     1
 44
1.0
1001
ACAD
1000
MTEXTBEGIN
1070
    73
1070
     1
1070
    44
1040
1.0
1070
    74
1070
     0
1000
MTEXTEND
  0
LINE
  5
3D70
330
3D2F
100
AcDbEntity
  8
ﾌﾞﾗｹｯﾄ
 62
     1
100
AcDbLine
 10
87.5
 20
576.4999999999999
 30
0.0
 11
87.5
 21
561.0624999999999
 31
0.0
  0
MTEXT
  5
3D71
330
3D2F
100
AcDbEntity
  8
ﾌﾞﾗｹｯﾄ
 62
     2
100
AcDbMText
 10
89.74999999999999
 20
573.125
 30
0.0
 40
8.75
 41
145.5
 71
     1
 72
     5
  1
スプリング
  7
ACISOTS
 73
     1
 44
1.0
1001
ACAD
1000
MTEXTBEGIN
1070
    73
1070
     1
1070
    44
1040
1.0
1070
    74
1070
     0
1000
MTEXTEND
  0
LINE
  5
3D72
330
3D2F
100
AcDbEntity
  8
ﾌﾞﾗｹｯﾄ
 62
     1
100
AcDbLine
 10
237.5
 20
576.4999999999999
 30
0.0
 11
237.5
 21
561.0624999999999
 31
0.0
  0
MTEXT
  5
3D73
330
3D2F
100
AcDbEntity
  8
ﾌﾞﾗｹｯﾄ
 62
     2
100
AcDbMText
 10
239.75
 20
573.125
 30
0.0
 40
8.75
 41
95.5
 71
     1
 72
     5
  1
ステンレス
  7
ACISOTS
 73
     1
 44
1.0
1001
ACAD
1000
MTEXTBEGIN
1070
    73
1070
     1
1070
    44
1040
1.0
1070
    74
1070
     0
1000
MTEXTEND
  0
LINE
  5
3D74
330
3D2F
100
AcDbEntity
  8
ﾌﾞﾗｹｯﾄ
 62
     1
100
AcDbLine
 10
337.5
 20
576.4999999999999
 30
0.0
 11
337.5
 21
561.0624999999999
 31
0.0
  0
MTEXT
  5
3D75
330
3D2F
100
AcDbEntity
  8
ﾌﾞﾗｹｯﾄ
 62
     2
100
AcDbMText
 10
339.75
 20
573.125
 30
0.0
 40
8.75
 41
140.5
 71
     1
 72
     5
  1
無処理
  7
ACISOTS
 73
     1
 44
1.0
1001
ACAD
1000
MTEXTBEGIN
1070
    73
1070
     1
1070
    44
1040
1.0
1070
    74
1070
     0
1000
MTEXTEND
  0
MTEXT
  5
3D76
330
3D2F
100
AcDbEntity
  8
ﾌﾞﾗｹｯﾄ
 62
     2
100
AcDbMText
 10
18.75
 20
557.6875
 30
0.0
 40
8.75
 41
33.0
 71
     2
 72
     5
  1
8
  7
ACISOTS
 73
     1
 44
1.0
1001
ACAD
1000
MTEXTBEGIN
1070
    73
1070
     1
1070
    44
1040
1.0
1070
    74
1070
     0
1000
MTEXTEND
  0
LINE
  5
3D77
330
3D2F
100
AcDbEntity
  8
ﾌﾞﾗｹｯﾄ
 62
     1
100
AcDbLine
 10
37.5
 20
561.0624999999999
 30
0.0
 11
37.5
 21
545.6249999999999
 31
0.0
  0
MTEXT
  5
3D78
330
3D2F
100
AcDbEntity
  8
ﾌﾞﾗｹｯﾄ
 62
     2
100
AcDbMText
 10
62.5
 20
557.6875
 30
0.0
 40
8.75
 41
45.49999999999999
 71
     2
 72
     5
  1
2
  7
ACISOTS
 73
     1
 44
1.0
1001
ACAD
1000
MTEXTBEGIN
1070
    73
1070
     1
1070
    44
1040
1.0
1070
    74
1070
     0
1000
MTEXTEND
  0
LINE
  5
3D79
330
3D2F
100
AcDbEntity
  8
ﾌﾞﾗｹｯﾄ
 62
     1
100
AcDbLine
 10
87.5
 20
561.0624999999999
 30
0.0
 11
87.5
 21
545.6249999999999
 31
0.0
  0
MTEXT
  5
3D7A
330
3D2F
100
AcDbEntity
  8
ﾌﾞﾗｹｯﾄ
 62
     2
100
AcDbMText
 10
89.74999999999999
 20
557.6875
 30
0.0
 40
8.75
 41
145.5
 71
     1
 72
     5
  1
ローター
  7
ACISOTS
 73
     1
 44
1.0
1001
ACAD
1000
MTEXTBEGIN
1070
    73
1070
     1
1070
    44
1040
1.0
1070
    74
1070
     0
1000
MTEXTEND
  0
LINE
  5
3D7B
330
3D2F
100
AcDbEntity
  8
ﾌﾞﾗｹｯﾄ
 62
     1
100
AcDbLine
 10
237.5
 20
561.0624999999999
 30
0.0
 11
237.5
 21
545.6249999999999
 31
0.0
  0
MTEXT
  5
3D7C
330
3D2F
100
AcDbEntity
  8
ﾌﾞﾗｹｯﾄ
 62
     2
100
AcDbMText
 10
239.75
 20
557.6875
 30
0.0
 40
8.75
 41
95.5
 71
     1
 72
     5
  1
ABS
  7
ACISOTS
 73
     1
 44
1.0
1001
ACAD
1000
MTEXTBEGIN
1070
    73
1070
     1
1070
    44
1040
1.0
1070
    74
1070
     0
1000
MTEXTEND
  0
LINE
  5
3D7D
330
3D2F
100
AcDbEntity
  8
ﾌﾞﾗｹｯﾄ
 62
     1
100
AcDbLine
 10
337.5
 20
561.0624999999999
 30
0.0
 11
337.5
 21
545.6249999999999
 31
0.0
  0
MTEXT
  5
3D7E
330
3D2F
100
AcDbEntity
  8
ﾌﾞﾗｹｯﾄ
 62
     2
100
AcDbMText
 10
339.75
 20
557.6875
 30
0.0
 40
8.75
 41
140.5
 71
     1
 72
     5
  1
ﾗｲﾄｸﾞﾚｰ/ﾌﾞﾗｯｸ
  7
ACISOTS
 73
     1
 44
1.0
1001
ACAD
1000
MTEXTBEGIN
1070
    73
1070
     1
1070
    44
1040
1.0
1070
    74
1070
     0
1000
MTEXTEND
  0
LINE
  5
3D7F
330
3D2F
100
AcDbEntity
  8
ﾌﾞﾗｹｯﾄ
 62
     1
100
AcDbLine
 10
0.0
 20
669.125
 30
0.0
 11
482.5
 21
669.125
 31
0.0
  0
MTEXT
  5
3D80
330
3D2F
100
AcDbEntity
  8
ﾌﾞﾗｹｯﾄ
 62
     2
100
AcDbMText
 10
18.75
 20
681.1875
 30
0.0
 40
8.75
 41
33.0
 71
     2
 72
     5
  1
照番
  7
ACISOTS
 73
     1
 44
1.0
1001
ACAD
1000
MTEXTBEGIN
1070
    73
1070
     1
1070
    44
1040
1.0
1070
    74
1070
     0
1000
MTEXTEND
  0
LINE
  5
3D81
330
3D2F
100
AcDbEntity
  8
ﾌﾞﾗｹｯﾄ
 62
     1
100
AcDbLine
 10
37.5
 20
684.5625
 30
0.0
 11
37.5
 21
669.125
 31
0.0
  0
MTEXT
  5
3D82
330
3D2F
100
AcDbEntity
  8
ﾌﾞﾗｹｯﾄ
 62
     2
100
AcDbMText
 10
62.5
 20
681.1875
 30
0.0
 40
8.75
 41
45.49999999999999
 71
     2
 72
     5
  1
数量
  7
ACISOTS
 73
     1
 44
1.0
1001
ACAD
1000
MTEXTBEGIN
1070
    73
1070
     1
1070
    44
1040
1.0
1070
    74
1070
     0
1000
MTEXTEND
  0
LINE
  5
3D83
330
3D2F
100
AcDbEntity
  8
ﾌﾞﾗｹｯﾄ
 62
     1
100
AcDbLine
 10
87.5
 20
684.5625
 30
0.0
 11
87.5
 21
669.125
 31
0.0
  0
MTEXT
  5
3D84
330
3D2F
100
AcDbEntity
  8
ﾌﾞﾗｹｯﾄ
 62
     2
100
AcDbMText
 10
162.5
 20
681.1875
 30
0.0
 40
8.75
 41
145.5
 71
     2
 72
     5
  1
名前
  7
ACISOTS
 73
     1
 44
1.0
1001
ACAD
1000
MTEXTBEGIN
1070
    73
1070
     1
1070
    44
1040
1.0
1070
    74
1070
     0
1000
MTEXTEND
  0
LINE
  5
3D85
330
3D2F
100
AcDbEntity
  8
ﾌﾞﾗｹｯﾄ
 62
     1
100
AcDbLine
 10
237.5
 20
684.5625
 30
0.0
 11
237.5
 21
669.125
 31
0.0
  0
MTEXT
  5
3D86
330
3D2F
100
AcDbEntity
  8
ﾌﾞﾗｹｯﾄ
 62
     2
100
AcDbMText
 10
287.5
 20
681.1875
 30
0.0
 40
8.75
 41
95.5
 71
     2
 72
     5
  1
材質
  7
ACISOTS
 73
     1
 44
1.0
1001
ACAD
1000
MTEXTBEGIN
1070
    73
1070
     1
1070
    44
1040
1.0
1070
    74
1070
     0
1000
MTEXTEND
  0
LINE
  5
3D87
330
3D2F
100
AcDbEntity
  8
ﾌﾞﾗｹｯﾄ
 62
     1
100
AcDbLine
 10
337.5
 20
684.5625
 30
0.0
 11
337.5
 21
669.125
 31
0.0
  0
MTEXT
  5
3D88
330
3D2F
100
AcDbEntity
  8
ﾌﾞﾗｹｯﾄ
 62
     2
100
AcDbMText
 10
410.0
 20
681.1875
 30
0.0
 40
8.75
 41
140.5
 71
     2
 72
     5
  1
色・表面処理
  7
ACISOTS
 73
     1
 44
1.0
1001
ACAD
1000
MTEXTBEGIN
1070
    73
1070
     1
1070
    44
1040
1.0
1070
    74
1070
     0
1000
MTEXTEND
  0
MTEXT
  5
3D89
330
3D2F
100
AcDbEntity
  8
ﾌﾞﾗｹｯﾄ
 62
     2
100
AcDbMText
 10
241.25
 20
692.28125
 30
0.0
 40
8.75
 41
0.0
 71
     5
 72
     5
  1
構成内容
  7
ACISOTS
 73
     1
 44
1.0
1001
ACAD
1000
MTEXTBEGIN
1070
    73
1070
     1
1070
    44
1040
1.0
1070
    74
1070
     0
1000
MTEXTEND
  0
LINE
  5
3D8A
330
3D2F
100
AcDbEntity
  8
ﾌﾞﾗｹｯﾄ
 62
     1
100
AcDbLine
 10
0.0
 20
684.5625
 30
0.0
 11
482.5
 21
684.5625
 31
0.0
  0
LINE
  5
3D8B
330
3D2F
100
AcDbEntity
  8
ﾌﾞﾗｹｯﾄ
 62
     7
100
AcDbLine
 10
0.0
 20
700.0
 30
0.0
 11
482.5
 21
700.0
 31
0.0
  0
LINE
  5
3D8C
330
3D2F
100
AcDbEntity
  8
ﾌﾞﾗｹｯﾄ
 62
     7
100
AcDbLine
 10
482.5
 20
700.0
 30
0.0
 11
482.5
 21
545.6249999999999
 31
0.0
  0
LINE
  5
3D8D
330
3D2F
100
AcDbEntity
  8
ﾌﾞﾗｹｯﾄ
 62
     7
100
AcDbLine
 10
482.5
 20
545.6249999999999
 30
0.0
 11
0.0
 21
545.6249999999999
 31
0.0
  0
LINE
  5
3D8E
330
3D2F
100
AcDbEntity
  8
ﾌﾞﾗｹｯﾄ
 62
     7
100
AcDbLine
 10
0.0
 20
545.6249999999999
 30
0.0
 11
0.0
 21
700.0
 31
0.0
  0
ENDBLK
  5
3D90
330
3D2F
100
AcDbEntity
  8
0
100
AcDbBlockEnd
  0
ENDSEC
  0
SECTION
  2
ENTITIES
  0
INSERT
  5
26DA
330
1F
100
AcDbEntity
  8
ﾌﾞﾗｹｯﾄ
370
     0
100
AcDbBlockReference
  2
TK-A4
 10
0.0
 20
0.0
 30
0.0
 41
2.5
 42
2.5
 43
2.5
1001
GENIUS_GENOREF_13
1005
2748
1001
GENIUS_GENODEF_13
1002
{
1000
HIER
1070
     0
1002
}
1002
{
1000
MANEDIT
1070
     0
1002
}
1002
{
1000
NOSEL
1070
     0
1002
}
1002
{
1000
BEHIND
1070
     0
1002
}
1002
{
1000
OTHER
1070
     0
1002
}
1002
{
1000
REACTOR
1002
}
1001
GENIUS_GENOBJ-N-SDF_13
1002
{
1000
OWNER
1000
GEN
1002
}
1001
GENIUS_GENSCREG_15
1040
2.5
1040
1.0
1011
0.0
1021
0.0
1031
0.0
1011
482.5
1021
700.0
1031
0.0
1070
     3
  0
INSERT
  5
273A
330
1F
100
AcDbEntity
  8
0
370
     0
100
AcDbBlockReference
 66
     1
  2
TK-TITLE
 10
482.5
 20
0.0
 30
0.0
 41
2.5
 42
2.5
 43
2.5
1001
GENIUS_GENOREF_13
1005
2748
  0
ATTRIB
  5
273C
330
273A
100
AcDbEntity
  8
0
100
AcDbText
 10
6.702017005725146
 20
9.97085634402666
 30
0.0
 40
7.5
  1
2011/04/22
 72
     1
 11
31.95701208446531
 21
8.97085634402666
 31
0.0
100
AcDbAttribute
  2
GEN-TITLE-DAT
 70
     0
 74
     1
  0
ATTRIB
  5
273D
330
273A
100
AcDbEntity
  8
0
100
AcDbText
 10
20.00249079216002
 20
71.74999999999994
 30
0.0
 40
7.5
  1
1:2.5
 72
     2
 11
37.93815096393985
 21
70.74999999999994
 31
0.0
100
AcDbAttribute
  2
GEN-TITLE-SCA
 70
     0
 74
     1
  0
ATTRIB
  5
273E
330
273A
100
AcDbEntity
  8
0
100
AcDbText
 10
43.46814771847618
 20
40.49999999999985
 30
0.0
 40
7.5
  1

 72
     2
 11
43.46814771847618
 21
39.49999999999985
 31
0.0
100
AcDbAttribute
  2
GEN-TITLE-QTY
 70
     0
 74
     1
  0
ATTRIB
  5
273F
330
273A
100
AcDbEntity
  8
0
100
AcDbText
 10
110.0953310411771
 20
83.24999999999977
 30
0.0
 40
7.5
  1

100
AcDbAttribute
  2
GEN-TITLE-MAT2
 70
     0
  0
ATTRIB
  5
2740
330
273A
100
AcDbEntity
  8
0
100
AcDbText
 10
110.0953310411771
 20
108.2499999999998
 30
0.0
 40
7.5
  1

100
AcDbAttribute
  2
GEN-TITLE-MAT1
 70
     0
  0
ATTRIB
  5
2741
330
273A
100
AcDbEntity
  8
0
100
AcDbText
 10
272.5
 20
4.999999999999893
 30
0.0
 40
7.5
  1

100
AcDbAttribute
  2
GEN-TITLE-NR1
 70
     0
  0
ATTRIB
  5
2742
330
273A
100
AcDbEntity
  8
0
100
AcDbText
 10
272.5
 20
22.87499999999987
 30
0.0
 40
6.25
  1
SHB型携帯用ﾊﾝﾄﾞﾙﾌﾞﾗｹｯﾄ
100
AcDbAttribute
  2
GEN-TITLE-DES2
 70
     0
  0
ATTRIB
  5
2743
330
273A
100
AcDbEntity
  8
0
100
AcDbText
 10
272.1437024603667
 20
32.06976081410943
 30
0.0
 40
8.75
  1
SHB-160
100
AcDbAttribute
  2
GEN-TITLE-DES1
 70
     0
  0
ATTRIB
  5
2744
330
273A
100
AcDbEntity
  8
0
100
AcDbText
 10
462.4942270261353
 20
4.26297358598759
 30
0.0
 40
6.25
  1

100
AcDbAttribute
  2
GEN-TITLE-NR2
 70
     0
  0
SEQEND
  5
273B
330
273A
100
AcDbEntity
  8
0
370
     0
  0
POINT
  5
2748
330
1F
100
AcDbEntity
  8
0
 60
     1
100
AcDbPoint
 10
0.0
 20
0.0
 30
0.0
1001
GENIUS_GENOBJ-N-TIT_13
1002
{
1000
OWNER
1000
GEN
1002
}
1001
GENIUS_GENODEF_13
1002
{
1000
HIER
1070
     1
1002
}
1002
{
1000
MANEDIT
1070
     0
1002
}
1002
{
1000
NOSEL
1070
     0
1002
}
1002
{
1000
BEHIND
1070
     0
1002
}
1002
{
1000
OTHER
1070
     0
1002
}
1002
{
1000
REACTOR
1002
}
1001
GENIUS_GENOENT_13
1002
{
1000
MYREF
1005
2748
1002
}
1002
{
1000
GRP
1005
0
1002
}
1001
GENIUS_GENOLIS_13
1002
{
1000
ENT
1005
273A
1005
26DA
1005
2DE9
1002
}
1001
GENIUS_GENTITLE_13
1002
{
1000
BORDER
1000
TK-A4
1002
}
1002
{
1000
TITLE
1000
TK-TITLE
1002
}
1002
{
1000
SCALE
1000
1:2.5
1002
}
1002
{
1000
TITLESTD
1000
ISO
1002
}
1002
{
1000
HRA
1005
26DA
1002
}
1002
{
1000
HTIT
1005
273A
1002
}
1002
{
1000
GENIUSID
1005
2748
1002
}
1002
{
1000
INVTXTID
1005
0
1002
}
1002
{
1000
UNCHG
1002
{
1000
GEN-TITLE-SIZ
1000
GEN-TITLE-SCA
1002
}
1002
}
  0
INSERT
  5
2794
102
{ACAD_REACTORS
330
2793
102
}
330
1F
100
AcDbEntity
  8
AM_12
100
AcDbBlockReference
  2
*S11
 10
0.0
 20
0.0
 30
0.0
  0
INSERT
  5
2799
102
{ACAD_REACTORS
330
2798
102
}
330
1F
100
AcDbEntity
  8
AM_12
100
AcDbBlockReference
  2
*S12
 10
0.0
 20
0.0
 30
0.0
  0
INSERT
  5
279D
102
{ACAD_REACTORS
330
279C
102
}
330
1F
100
AcDbEntity
  8
AM_12
100
AcDbBlockReference
  2
*S13
 10
0.0
 20
0.0
 30
0.0
  0
INSERT
  5
27A1
102
{ACAD_REACTORS
330
27A0
102
}
330
1F
100
AcDbEntity
  8
AM_12
100
AcDbBlockReference
  2
*S14
 10
0.0
 20
0.0
 30
0.0
  0
INSERT
  5
27AB
102
{ACAD_REACTORS
330
27AA
102
}
330
1F
100
AcDbEntity
  8
AM_12
100
AcDbBlockReference
  2
*S15
 10
0.0
 20
0.0
 30
0.0
  0
INSERT
  5
27B9
102
{ACAD_REACTORS
330
27B8
102
}
330
1F
100
AcDbEntity
  8
AM_12
100
AcDbBlockReference
  2
*S16
 10
0.0
 20
0.0
 30
0.0
  0
INSERT
  5
27BD
102
{ACAD_REACTORS
330
27BC
102
}
330
1F
100
AcDbEntity
  8
AM_12
100
AcDbBlockReference
  2
*S17
 10
0.0
 20
0.0
 30
0.0
  0
INSERT
  5
27C2
102
{ACAD_REACTORS
330
27C1
102
}
330
1F
100
AcDbEntity
  8
AM_12
100
AcDbBlockReference
  2
*S18
 10
0.0
 20
0.0
 30
0.0
  0
INSERT
  5
2ABD
102
{ACAD_REACTORS
330
2796
102
}
330
1F
100
AcDbEntity
  8
AM_5
100
AcDbBlockReference
  2
*S19
 10
0.0
 20
0.0
 30
0.0
  0
INSERT
  5
2ABF
102
{ACAD_REACTORS
330
279B
102
}
330
1F
100
AcDbEntity
  8
AM_5
100
AcDbBlockReference
  2
*S20
 10
0.0
 20
0.0
 30
0.0
  0
INSERT
  5
2AC0
102
{ACAD_REACTORS
330
27A3
102
}
330
1F
100
AcDbEntity
  8
AM_5
100
AcDbBlockReference
  2
*S21
 10
0.0
 20
0.0
 30
0.0
  0
INSERT
  5
2AC1
102
{ACAD_REACTORS
330
279F
102
}
330
1F
100
AcDbEntity
  8
AM_5
100
AcDbBlockReference
  2
*S22
 10
0.0
 20
0.0
 30
0.0
  0
INSERT
  5
2F46
102
{ACAD_REACTORS
330
278D
102
}
330
1F
100
AcDbEntity
  8
ﾌﾞﾗｹｯﾄ
100
AcDbBlockReference
  2
*S23
 10
0.0
 20
0.0
 30
0.0
  0
LINE
  5
3109
330
1F
100
AcDbEntity
  8
ﾌﾞﾗｹｯﾄ
100
AcDbLine
 10
339.4028671695128
 20
296.62715600646
 30
0.0
 11
339.4028671695128
 21
298.0816776878429
 31
0.0
  0
LINE
  5
310A
330
1F
100
AcDbEntity
  8
ﾌﾞﾗｹｯﾄ
100
AcDbLine
 10
331.9704439278094
 20
296.62715600646
 30
0.0
 11
331.9704439278094
 21
298.0816776878431
 31
0.0
  0
ARC
  5
310B
330
1F
100
AcDbEntity
  8
ﾌﾞﾗｹｯﾄ
100
AcDbCircle
 10
331.1866555486606
 20
289.1687317342483
 30
0.0
 40
6.399999999999999
100
AcDbArc
 50
180.0
 51
270.0
1001
GENIUS_GENODEF_13
1002
{
1000
HIER
1070
     0
1002
}
1002
{
1000
MANEDIT
1070
     0
1002
}
1002
{
1000
NOSEL
1070
     0
1002
}
1002
{
1000
BEHIND
1070
     0
1002
}
1002
{
1000
REACTOR
1002
}
1001
GENIUS_GENOBJ-N-FIL_13
1002
{
1000
OWNER
1000
GEN
1002
}
  0
LINE
  5
310D
330
1F
100
AcDbEntity
  8
ﾌﾞﾗｹｯﾄ
100
AcDbLine
 10
340.1866555486606
 20
282.7687317342482
 30
0.0
 11
331.1866555486606
 21
282.7687317342482
 31
0.0
  0
ARC
  5
310E
330
1F
100
AcDbEntity
  8
ﾌﾞﾗｹｯﾄ
100
AcDbCircle
 10
340.1895837023798
 20
289.1616625458267
 30
0.0
 40
6.392931482169482
100
AcDbArc
 50
269.9737568193543
 51
0.0633566533309012
1001
GENIUS_GENODEF_13
1002
{
1000
HIER
1070
     0
1002
}
1002
{
1000
MANEDIT
1070
     0
1002
}
1002
{
1000
NOSEL
1070
     0
1002
}
1002
{
1000
BEHIND
1070
     0
1002
}
1002
{
1000
REACTOR
1002
}
1001
GENIUS_GENOBJ-N-FIL_13
1002
{
1000
OWNER
1000
GEN
1002
}
  0
LINE
  5
310F
330
1F
100
AcDbEntity
  8
ﾌﾞﾗｹｯﾄ
100
AcDbLine
 10
346.5825112760573
 20
293.5946312750642
 30
0.0
 11
346.5825112760574
 21
289.1687322388015
 31
0.0
  0
LINE
  5
3110
330
1F
100
AcDbEntity
  8
ﾌﾞﾗｹｯﾄ
100
AcDbLine
 10
324.7866555486606
 20
289.1687317342483
 30
0.0
 11
324.7866555486606
 21
293.5898491542168
 31
0.0
  0
ARC
  5
3111
330
1F
100
AcDbEntity
  8
ﾌﾞﾗｹｯﾄ
100
AcDbCircle
 10
335.6866555486606
 20
284.147898400915
 30
0.0
 40
14.42083333333331
100
AcDbArc
 50
40.92536590406417
 51
139.0997760624284
  0
LINE
  5
3118
330
1F
100
AcDbEntity
  8
ﾌﾞﾗｹｯﾄ
100
AcDbLine
 10
336.5366555486611
 20
284.1687317342482
 30
0.0
 11
336.5366555486611
 21
282.7687317342482
 31
0.0
  0
LINE
  5
3119
330
1F
100
AcDbEntity
  8
ﾌﾞﾗｹｯﾄ
100
AcDbLine
 10
334.836655548661
 20
284.1687317342482
 30
0.0
 11
334.836655548661
 21
282.7687317342482
 31
0.0
  0
LINE
  5
311E
330
1F
100
AcDbEntity
  8
ﾌﾞﾗｹｯﾄ
100
AcDbLine
 10
337.6866555486613
 20
403.5232510591359
 30
0.0
 11
337.6866555486613
 21
405.9187322388015
 31
0.0
  0
LINE
  5
311F
330
1F
100
AcDbEntity
  8
ﾌﾞﾗｹｯﾄ
100
AcDbLine
 10
333.6866555486613
 20
403.5232510591359
 30
0.0
 11
333.6866555486613
 21
405.9187322388015
 31
0.0
  0
ARC
  5
3120
330
1F
100
AcDbEntity
  8
ﾌﾞﾗｹｯﾄ
100
AcDbCircle
 10
335.6866555486611
 20
293.6687322388016
 30
0.0
 40
6.75
100
AcDbArc
 50
164.9441477381177
 51
15.00597231839052
  0
CIRCLE
  5
3122
330
1F
100
AcDbEntity
  8
ﾌﾞﾗｹｯﾄ
100
AcDbCircle
 10
143.246996242025
 20
293.6687322388016
 30
0.0
 40
2.25
  0
CIRCLE
  5
3123
330
1F
100
AcDbEntity
  8
ﾌﾞﾗｹｯﾄ
100
AcDbCircle
 10
143.246996242025
 20
293.6687322388016
 30
0.0
 40
4.25
  0
ARC
  5
3124
330
1F
100
AcDbEntity
  8
ﾌﾞﾗｹｯﾄ
100
AcDbCircle
 10
129.5080808829634
 20
371.6460774284524
 30
0.0
 40
32.74753559596185
100
AcDbArc
 50
73.61289684317892
 51
87.83185012026081
  0
ARC
  5
3125
330
1F
100
AcDbEntity
  8
ﾌﾞﾗｹｯﾄ
100
AcDbCircle
 10
143.2469962420251
 20
420.575988802424
 30
0.0
 40
18.08157475795451
100
AcDbArc
 50
255.5892193848707
 51
284.4107806151292
  0
ARC
  5
3126
330
1F
100
AcDbEntity
  8
ﾌﾞﾗｹｯﾄ
100
AcDbCircle
 10
154.5754233667713
 20
386.4021801987231
 30
0.0
 40
18.00614363198249
100
AcDbArc
 50
86.26940471925999
 51
112.2858483173011
  0
ARC
  5
3127
330
1F
100
AcDbEntity
  8
ｽﾃｰﾀｰ
 62
     6
100
AcDbCircle
 10
335.6866555486611
 20
420.6687322388015
 30
0.0
 40
16.85559876566935
100
AcDbArc
 50
100.2522625835533
 51
263.1855184989893
  0
ARC
  5
3128
330
1F
100
AcDbEntity
  8
ｽﾃｰﾀｰ
 62
     6
100
AcDbCircle
 10
335.6866555486611
 20
420.6687322388015
 30
0.0
 40
16.85559876566935
100
AcDbArc
 50
276.8144815010139
 51
79.74773741644352
  0
LINE
  5
3129
330
1F
100
AcDbEntity
  8
ﾌﾞﾗｹｯﾄ
100
AcDbLine
 10
340.1866555486606
 20
284.1687317342482
 30
0.0
 11
331.1866555486606
 21
284.1687317342482
 31
0.0
  0
ARC
  5
312A
330
1F
100
AcDbEntity
  8
ﾌﾞﾗｹｯﾄ
100
AcDbCircle
 10
340.1866555486606
 20
289.1687317342483
 30
0.0
 40
5.0
100
AcDbArc
 50
270.0
 51
0.0
1001
GENIUS_GENODEF_13
1002
{
1000
HIER
1070
     0
1002
}
1002
{
1000
MANEDIT
1070
     0
1002
}
1002
{
1000
NOSEL
1070
     0
1002
}
1002
{
1000
BEHIND
1070
     0
1002
}
1002
{
1000
REACTOR
1002
}
1001
GENIUS_GENOBJ-N-FIL_13
1002
{
1000
OWNER
1000
GEN
1002
}
  0
LINE
  5
312B
330
1F
100
AcDbEntity
  8
ﾌﾞﾗｹｯﾄ
100
AcDbLine
 10
345.1866555486606
 20
293.0525096049173
 30
0.0
 11
345.1866555486606
 21
289.1687317342483
 31
0.0
  0
ARC
  5
312C
330
1F
100
AcDbEntity
  8
ﾌﾞﾗｹｯﾄ
100
AcDbCircle
 10
335.6866555486606
 20
284.147898400915
 30
0.0
 40
13.02083333333331
100
AcDbArc
 50
43.14712888070007
 51
73.41693796515412
  0
ARC
  5
312D
330
1F
100
AcDbEntity
  8
ﾌﾞﾗｹｯﾄ
100
AcDbCircle
 10
335.6866555486606
 20
284.147898400915
 30
0.0
 40
13.02083333333331
100
AcDbArc
 50
106.5830617473145
 51
136.8528711192999
  0
ARC
  5
312E
330
1F
100
AcDbEntity
  8
ﾌﾞﾗｹｯﾄ
100
AcDbCircle
 10
335.6866555486611
 20
293.6687322388016
 30
0.0
 40
4.75
100
AcDbArc
 50
141.4771957276329
 51
38.52280305950497
  0
ARC
  5
3130
330
1F
100
AcDbEntity
  8
ﾌﾞﾗｹｯﾄ
100
AcDbCircle
 10
331.1866555486606
 20
289.1687317342483
 30
0.0
 40
5.0
100
AcDbArc
 50
180.0
 51
270.0
1001
GENIUS_GENODEF_13
1002
{
1000
HIER
1070
     0
1002
}
1002
{
1000
MANEDIT
1070
     0
1002
}
1002
{
1000
NOSEL
1070
     0
1002
}
1002
{
1000
BEHIND
1070
     0
1002
}
1002
{
1000
REACTOR
1002
}
1001
GENIUS_GENOBJ-N-FIL_13
1002
{
1000
OWNER
1000
GEN
1002
}
  0
LINE
  5
3131
330
1F
100
AcDbEntity
  8
ﾌﾞﾗｹｯﾄ
100
AcDbLine
 10
326.1866555486606
 20
289.1687317342483
 30
0.0
 11
326.1866555486606
 21
293.0525096049173
 31
0.0
  0
ARC
  5
3133
330
1F
100
AcDbEntity
  8
ﾌﾞﾗｹｯﾄ
100
AcDbCircle
 10
335.6866555486614
 20
420.6687322388015
 30
0.0
 40
20.50000000000006
100
AcDbArc
 50
242.5999864771876
 51
297.8157169200372
  0
LINE
  5
3134
330
1F
100
AcDbEntity
  8
ﾌﾞﾗｹｯﾄ
100
AcDbLine
 10
345.1866555486611
 20
298.2707145978549
 30
0.0
 11
345.1866555486611
 21
402.5374456059171
 31
0.0
  0
LINE
  5
3135
330
1F
100
AcDbEntity
  8
ﾌﾞﾗｹｯﾄ
100
AcDbLine
 10
326.1866555486611
 20
298.2707145978549
 30
0.0
 11
326.1866555486611
 21
402.468519070118
 31
0.0
  0
LINE
  5
3149
330
1F
100
AcDbEntity
  8
ﾌﾞﾗｹｯﾄ
100
AcDbLine
 10
338.6866555486613
 20
435.4187322388015
 30
0.0
 11
338.6866555486613
 21
437.6677770614455
 31
0.0
  0
LINE
  5
314A
330
1F
100
AcDbEntity
  8
ﾌﾞﾗｹｯﾄ
100
AcDbLine
 10
332.6866555486613
 20
437.6677770614455
 30
0.0
 11
332.6866555486613
 21
435.4187322388015
 31
0.0
  0
LINE
  5
314B
330
1F
100
AcDbEntity
  8
ﾌﾞﾗｹｯﾄ
100
AcDbLine
 10
332.6866555486614
 20
435.4187322388015
 30
0.0
 11
338.6866555486614
 21
435.4187322388015
 31
0.0
  0
LINE
  5
314C
330
1F
100
AcDbEntity
  8
ﾌﾞﾗｹｯﾄ
100
AcDbLine
 10
333.6866555486613
 20
405.9187322388015
 30
0.0
 11
337.6866555486613
 21
405.9187322388015
 31
0.0
  0
ARC
  5
314D
330
1F
100
AcDbEntity
  8
ﾌﾞﾗｹｯﾄ
100
AcDbCircle
 10
335.6866555486613
 20
420.6687322388015
 30
0.0
 40
17.26173585947438
100
AcDbArc
 50
276.6534157485084
 51
79.99146921922842
  0
ARC
  5
314E
330
1F
100
AcDbEntity
  8
ﾌﾞﾗｹｯﾄ
100
AcDbCircle
 10
335.6866555486613
 20
420.6687322388015
 30
0.0
 40
17.26173585947438
100
AcDbArc
 50
100.0085307807716
 51
263.3465842514916
  0
ARC
  5
314F
330
1F
100
AcDbEntity
  8
ﾌﾞﾗｹｯﾄ
100
AcDbCircle
 10
335.6866555486614
 20
420.6687322388015
 30
0.0
 40
20.50000000000006
100
AcDbArc
 50
307.5718693196967
 51
232.6601542246111
  0
CIRCLE
  5
3150
330
1F
100
AcDbEntity
  8
ﾌﾞﾗｹｯﾄ
100
AcDbCircle
 10
143.2469962420251
 20
420.6687322388015
 30
0.0
 40
11.0
  0
CIRCLE
  5
3151
330
1F
100
AcDbEntity
  8
ｷｬｯﾌﾟ
100
AcDbCircle
 10
143.2469962420251
 20
420.6687322388015
 30
0.0
 40
10.5399999999999
  0
ARC
  5
3152
330
1F
100
AcDbEntity
  8
ﾌﾞﾗｹｯﾄ
100
AcDbCircle
 10
143.2469962420251
 20
420.6687322388015
 30
0.0
 40
20.5
100
AcDbArc
 50
307.3576445523846
 51
232.6726108428212
  0
LINE
  5
3153
330
1F
100
AcDbEntity
  8
ﾌﾞﾗｹｯﾄ
100
AcDbLine
 10
155.746996242025
 20
404.3701691093818
 30
0.0
 11
155.746996242025
 21
289.1687322388015
 31
0.0
  0
ARC
  5
3154
102
{ACAD_REACTORS
330
3BC8
102
}
330
1F
100
AcDbEntity
  8
ﾌﾞﾗｹｯﾄ
100
AcDbCircle
 10
147.746996242025
 20
289.1687322388015
 30
0.0
 40
8.0
100
AcDbArc
 50
270.0
 51
0.0
1001
GENIUS_GENODEF_13
1002
{
1000
HIER
1070
     0
1002
}
1002
{
1000
MANEDIT
1070
     0
1002
}
1002
{
1000
NOSEL
1070
     0
1002
}
1002
{
1000
BEHIND
1070
     0
1002
}
1002
{
1000
REACTOR
1002
}
1001
GENIUS_GENOBJ-N-FIL_13
1002
{
1000
OWNER
1000
GEN
1002
}
  0
LINE
  5
3155
102
{ACAD_REACTORS
330
3BC8
102
}
330
1F
100
AcDbEntity
  8
ﾌﾞﾗｹｯﾄ
100
AcDbLine
 10
130.7469962420251
 20
289.1687322388015
 30
0.0
 11
130.7469962420251
 21
404.3701691093818
 31
0.0
  0
ARC
  5
3156
330
1F
100
AcDbEntity
  8
ﾌﾞﾗｹｯﾄ
100
AcDbCircle
 10
138.746996242025
 20
289.1687322388015
 30
0.0
 40
8.0
100
AcDbArc
 50
180.0
 51
270.0
1001
GENIUS_GENODEF_13
1002
{
1000
HIER
1070
     0
1002
}
1002
{
1000
MANEDIT
1070
     0
1002
}
1002
{
1000
NOSEL
1070
     0
1002
}
1002
{
1000
BEHIND
1070
     0
1002
}
1002
{
1000
REACTOR
1002
}
1001
GENIUS_GENOBJ-N-FIL_13
1002
{
1000
OWNER
1000
GEN
1002
}
  0
LINE
  5
3157
330
1F
100
AcDbEntity
  8
TK1
100
AcDbLine
 10
147.746996242025
 20
281.1687322388016
 30
0.0
 11
138.746996242025
 21
281.1687322388016
 31
0.0
  0
LINE
  5
3158
330
1F
100
AcDbEntity
  8
ﾌﾞﾗｹｯﾄ
100
AcDbLine
 10
147.746996242025
 20
281.1687322388016
 30
0.0
 11
138.746996242025
 21
281.1687322388016
 31
0.0
  0
LINE
  5
3163
330
1F
100
AcDbEntity
  8
ﾌﾞﾗｹｯﾄ
100
AcDbLine
 10
335.1866555486611
 20
400.1748307068822
 30
0.0
 11
335.1866555486611
 21
379.7687322388015
 31
0.0
  0
LINE
  5
3164
330
1F
100
AcDbEntity
  8
ﾌﾞﾗｹｯﾄ
100
AcDbLine
 10
336.186655548661
 20
400.1748307068822
 30
0.0
 11
336.186655548661
 21
379.7687322388017
 31
0.0
  0
LINE
  5
3165
330
1F
100
AcDbEntity
  8
ﾌﾞﾗｹｯﾄ
100
AcDbLine
 10
326.1866555486611
 20
321.1687322388016
 30
0.0
 11
335.1866555486611
 21
321.1687322388016
 31
0.0
  0
LINE
  5
3166
330
1F
100
AcDbEntity
  8
ﾌﾞﾗｹｯﾄ
100
AcDbLine
 10
326.1866555486611
 20
340.3687322388016
 30
0.0
 11
335.1866555486611
 21
340.3687322388016
 31
0.0
  0
LINE
  5
3167
330
1F
100
AcDbEntity
  8
ﾌﾞﾗｹｯﾄ
100
AcDbLine
 10
326.1866555486611
 20
359.5687322388014
 30
0.0
 11
335.1866555486609
 21
359.5687322388014
 31
0.0
  0
LINE
  5
3168
330
1F
100
AcDbEntity
  8
ﾌﾞﾗｹｯﾄ
100
AcDbLine
 10
326.1866555486611
 20
378.7687322388015
 30
0.0
 11
335.1866555486609
 21
378.7687322388015
 31
0.0
  0
LINE
  5
3169
330
1F
100
AcDbEntity
  8
ﾌﾞﾗｹｯﾄ
100
AcDbLine
 10
326.1866555486611
 20
379.7687322388015
 30
0.0
 11
335.1866555486611
 21
379.7687322388015
 31
0.0
  0
LINE
  5
316A
330
1F
100
AcDbEntity
  8
ﾌﾞﾗｹｯﾄ
100
AcDbLine
 10
326.1866555486611
 20
360.5687322388015
 30
0.0
 11
335.1866555486609
 21
360.5687322388017
 31
0.0
  0
LINE
  5
316B
330
1F
100
AcDbEntity
  8
ﾌﾞﾗｹｯﾄ
100
AcDbLine
 10
326.1866555486611
 20
341.3687322388016
 30
0.0
 11
335.1866555486611
 21
341.3687322388016
 31
0.0
  0
LINE
  5
316C
330
1F
100
AcDbEntity
  8
ﾌﾞﾗｹｯﾄ
100
AcDbLine
 10
326.1866555486611
 20
322.1687322388016
 30
0.0
 11
335.1866555486611
 21
322.1687322388016
 31
0.0
  0
LINE
  5
3171
330
1F
100
AcDbEntity
  8
ﾌﾞﾗｹｯﾄ
100
AcDbLine
 10
336.1866555486612
 20
379.7687322388015
 30
0.0
 11
345.1866555486611
 21
379.7687322388015
 31
0.0
  0
LINE
  5
3172
330
1F
100
AcDbEntity
  8
ﾌﾞﾗｹｯﾄ
100
AcDbLine
 10
336.1866555486612
 20
378.7687322388015
 30
0.0
 11
336.1866555486612
 21
360.5687322388015
 31
0.0
  0
LINE
  5
3173
330
1F
100
AcDbEntity
  8
ﾌﾞﾗｹｯﾄ
100
AcDbLine
 10
335.1866555486611
 20
378.7687322388015
 30
0.0
 11
335.1866555486609
 21
360.5687322388015
 31
0.0
  0
LINE
  5
3174
330
1F
100
AcDbEntity
  8
ﾌﾞﾗｹｯﾄ
100
AcDbLine
 10
336.1866555486612
 20
378.7687322388015
 30
0.0
 11
345.1866555486611
 21
378.7687322388015
 31
0.0
  0
LINE
  5
3175
330
1F
100
AcDbEntity
  8
ﾌﾞﾗｹｯﾄ
100
AcDbLine
 10
336.1866555486612
 20
360.5687322388015
 30
0.0
 11
345.1866555486611
 21
360.5687322388015
 31
0.0
  0
LINE
  5
3176
330
1F
100
AcDbEntity
  8
ﾌﾞﾗｹｯﾄ
100
AcDbLine
 10
335.1866555486609
 20
359.5687322388014
 30
0.0
 11
335.1866555486609
 21
341.3687322388016
 31
0.0
  0
LINE
  5
3177
330
1F
100
AcDbEntity
  8
ﾌﾞﾗｹｯﾄ
100
AcDbLine
 10
336.1866555486612
 20
359.5687322388014
 30
0.0
 11
336.186655548661
 21
341.3687322388016
 31
0.0
  0
LINE
  5
3178
330
1F
100
AcDbEntity
  8
ﾌﾞﾗｹｯﾄ
100
AcDbLine
 10
336.1866555486612
 20
359.5687322388014
 30
0.0
 11
345.1866555486611
 21
359.5687322388014
 31
0.0
  0
LINE
  5
3179
330
1F
100
AcDbEntity
  8
ﾌﾞﾗｹｯﾄ
100
AcDbLine
 10
336.186655548661
 20
341.3687322388016
 30
0.0
 11
345.1866555486611
 21
341.3687322388016
 31
0.0
  0
LINE
  5
317A
330
1F
100
AcDbEntity
  8
ﾌﾞﾗｹｯﾄ
100
AcDbLine
 10
335.1866555486611
 20
340.3687322388016
 30
0.0
 11
335.1866555486611
 21
322.1687322388016
 31
0.0
  0
LINE
  5
317B
330
1F
100
AcDbEntity
  8
ﾌﾞﾗｹｯﾄ
100
AcDbLine
 10
336.186655548661
 20
340.3687322388016
 30
0.0
 11
336.186655548661
 21
322.1687322388016
 31
0.0
  0
LINE
  5
317C
330
1F
100
AcDbEntity
  8
ﾌﾞﾗｹｯﾄ
100
AcDbLine
 10
336.186655548661
 20
340.3687322388016
 30
0.0
 11
345.1866555486611
 21
340.3687322388016
 31
0.0
  0
LINE
  5
317D
330
1F
100
AcDbEntity
  8
ﾌﾞﾗｹｯﾄ
100
AcDbLine
 10
336.186655548661
 20
321.1687322388016
 30
0.0
 11
345.1866555486611
 21
321.1687322388016
 31
0.0
  0
LINE
  5
317E
330
1F
100
AcDbEntity
  8
ﾌﾞﾗｹｯﾄ
100
AcDbLine
 10
336.1866555486612
 20
321.1687322388016
 30
0.0
 11
336.1866555486611
 21
301.1613858481718
 31
0.0
  0
LINE
  5
317F
330
1F
100
AcDbEntity
  8
ﾌﾞﾗｹｯﾄ
100
AcDbLine
 10
336.186655548661
 20
322.1687322388016
 30
0.0
 11
345.1866555486611
 21
322.1687322388016
 31
0.0
  0
LINE
  5
3180
330
1F
100
AcDbEntity
  8
ﾌﾞﾗｹｯﾄ
100
AcDbLine
 10
335.1866555486611
 20
321.1687322388016
 30
0.0
 11
335.1866555486611
 21
301.1613858481718
 31
0.0
  0
CIRCLE
  5
3197
330
1F
100
AcDbEntity
  8
ｽﾃｰﾀｰ
 62
     6
100
AcDbCircle
 10
335.6866555486614
 20
410.6687322388015
 30
0.0
 40
2.5
  0
CIRCLE
  5
3198
330
1F
100
AcDbEntity
  8
ｽﾃｰﾀｰ
 62
     6
100
AcDbCircle
 10
335.6866555486614
 20
430.6687322388015
 30
0.0
 40
2.5
  0
CIRCLE
  5
3199
330
1F
100
AcDbEntity
  8
ｽﾃｰﾀｰ
 62
     6
100
AcDbCircle
 10
335.686655548661
 20
420.6687322388015
 30
0.0
 40
2.75
  0
CIRCLE
  5
319A
330
1F
100
AcDbEntity
  8
ｽﾃｰﾀｰ
 62
     6
100
AcDbCircle
 10
335.6866555486614
 20
420.6687322388015
 30
0.0
 40
14.0
  0
ARC
  5
319B
330
1F
100
AcDbEntity
  8
ｽﾃｰﾀｰ
 62
     6
100
AcDbCircle
 10
335.6866555486614
 20
420.6687322388015
 30
0.0
 40
16.0
100
AcDbArc
 50
100.80692287486
 51
262.8192442185415
  0
ARC
  5
319C
330
1F
100
AcDbEntity
  8
ｽﾃｰﾀｰ
 62
     6
100
AcDbCircle
 10
335.6866555486614
 20
420.6687322388015
 30
0.0
 40
16.0
100
AcDbArc
 50
277.1807557814585
 51
79.19307712513995
  0
ARC
  5
319D
330
1F
100
AcDbEntity
  8
ｽﾍﾟｰｻｰ
100
AcDbCircle
 10
335.6866555486611
 20
284.1487317342483
 30
0.0
 40
17.02
100
AcDbArc
 50
37.51588919315511
 51
142.4841108068449
  0
LINE
  5
319E
330
1F
100
AcDbEntity
  8
ｽﾍﾟｰｻｰ
100
AcDbLine
 10
322.1866555486611
 20
294.5135954574237
 30
0.0
 11
322.1866555486611
 21
289.1687317342483
 31
0.0
  0
LINE
  5
319F
330
1F
100
AcDbEntity
  8
ｽﾍﾟｰｻｰ
100
AcDbLine
 10
331.1866555486611
 20
280.1687317342482
 30
0.0
 11
340.186655548661
 21
280.1687317342482
 31
0.0
  0
LINE
  5
31A0
330
1F
100
AcDbEntity
  8
ｽﾍﾟｰｻｰ
100
AcDbLine
 10
322.9866555486608
 20
294.4044355254121
 30
0.0
 11
322.9866555486608
 21
289.1687317342483
 31
0.0
  0
LINE
  5
31A1
330
1F
100
AcDbEntity
  8
ｽﾍﾟｰｻｰ
100
AcDbLine
 10
331.1866555486611
 20
280.9687317342482
 30
0.0
 11
340.186655548661
 21
280.9687317342482
 31
0.0
  0
ARC
  5
31A2
330
1F
100
AcDbEntity
  8
ｽﾍﾟｰｻｰ
100
AcDbCircle
 10
331.1866555486611
 20
289.1687317342483
 30
0.0
 40
8.199999999999999
100
AcDbArc
 50
180.0
 51
270.0
1001
GENIUS_GENODEF_13
1002
{
1000
HIER
1070
     0
1002
}
1002
{
1000
MANEDIT
1070
     0
1002
}
1002
{
1000
NOSEL
1070
     0
1002
}
1002
{
1000
BEHIND
1070
     0
1002
}
1002
{
1000
REACTOR
1002
}
1001
GENIUS_GENOBJ-N-FIL_13
1002
{
1000
OWNER
1000
GEN
1002
}
  0
ARC
  5
31A3
330
1F
100
AcDbEntity
  8
ｽﾍﾟｰｻｰ
100
AcDbCircle
 10
331.1866555486611
 20
289.1687317342483
 30
0.0
 40
9.0
100
AcDbArc
 50
180.0
 51
270.0
1001
GENIUS_GENODEF_13
1002
{
1000
HIER
1070
     0
1002
}
1002
{
1000
MANEDIT
1070
     0
1002
}
1002
{
1000
NOSEL
1070
     0
1002
}
1002
{
1000
BEHIND
1070
     0
1002
}
1002
{
1000
REACTOR
1002
}
1001
GENIUS_GENOBJ-N-FIL_13
1002
{
1000
OWNER
1000
GEN
1002
}
  0
ARC
  5
31A4
330
1F
100
AcDbEntity
  8
ｽﾍﾟｰｻｰ
100
AcDbCircle
 10
323.4146235698952
 20
294.4461892414265
 30
0.0
 40
0.43
100
AcDbArc
 50
77.03912988322842
 51
185.572295719007
  0
ARC
  5
31A5
330
1F
100
AcDbEntity
  8
ｽﾍﾟｰｻｰ
100
AcDbCircle
 10
335.6866555486611
 20
300.168731734248
 30
0.0
 40
0.43
100
AcDbArc
 50
90.0
 51
152.9608701167657
  0
ARC
  5
31A6
330
1F
100
AcDbEntity
  8
ｽﾍﾟｰｻｰ
100
AcDbCircle
 10
335.6866555486611
 20
284.1487317342483
 30
0.0
 40
16.22
100
AcDbArc
 50
91.35303875331823
 51
98.646961246674
  0
LINE
  5
31A7
330
1F
100
AcDbEntity
  8
ｽﾍﾟｰｻｰ
100
AcDbLine
 10
349.1866555486611
 20
294.5135954574237
 30
0.0
 11
349.1866555486611
 21
289.1687317342483
 31
0.0
  0
LINE
  5
31A8
330
1F
100
AcDbEntity
  8
ｽﾍﾟｰｻｰ
100
AcDbLine
 10
348.3866555486609
 20
294.4044355254121
 30
0.0
 11
348.3866555486609
 21
289.1687317342483
 31
0.0
  0
ARC
  5
31A9
330
1F
100
AcDbEntity
  8
ｽﾍﾟｰｻｰ
100
AcDbCircle
 10
340.186655548661
 20
289.1687317342483
 30
0.0
 40
8.199999999999999
100
AcDbArc
 50
270.0
 51
0.0
1001
GENIUS_GENODEF_13
1002
{
1000
HIER
1070
     0
1002
}
1002
{
1000
MANEDIT
1070
     0
1002
}
1002
{
1000
NOSEL
1070
     0
1002
}
1002
{
1000
BEHIND
1070
     0
1002
}
1002
{
1000
REACTOR
1002
}
1001
GENIUS_GENOBJ-N-FIL_13
1002
{
1000
OWNER
1000
GEN
1002
}
  0
ARC
  5
31AA
330
1F
100
AcDbEntity
  8
ｽﾍﾟｰｻｰ
100
AcDbCircle
 10
340.186655548661
 20
289.1687317342483
 30
0.0
 40
9.0
100
AcDbArc
 50
270.0
 51
0.0
1001
GENIUS_GENODEF_13
1002
{
1000
HIER
1070
     0
1002
}
1002
{
1000
MANEDIT
1070
     0
1002
}
1002
{
1000
NOSEL
1070
     0
1002
}
1002
{
1000
BEHIND
1070
     0
1002
}
1002
{
1000
REACTOR
1002
}
1001
GENIUS_GENOBJ-N-FIL_13
1002
{
1000
OWNER
1000
GEN
1002
}
  0
ARC
  5
31AB
330
1F
100
AcDbEntity
  8
ｽﾍﾟｰｻｰ
100
AcDbCircle
 10
347.9586875274269
 20
294.4461892414265
 30
0.0
 40
0.43
100
AcDbArc
 50
354.427704280993
 51
102.9608701167715
  0
ARC
  5
31AC
330
1F
100
AcDbEntity
  8
ｽﾍﾟｰｻｰ
100
AcDbCircle
 10
335.6866555486611
 20
300.168731734248
 30
0.0
 40
0.43
100
AcDbArc
 50
27.03912988323429
 51
90.0
  0
LINE
  5
31AD
330
1F
100
AcDbEntity
  8
ｽﾍﾟｰｻｰ
100
AcDbLine
 10
239.4668258953422
 20
294.5135959619772
 30
0.0
 11
242.4668258953423
 21
294.5135959619772
 31
0.0
  0
ARC
  5
31AE
330
1F
100
AcDbEntity
  8
ｽﾍﾟｰｻｰ
100
AcDbCircle
 10
332.904811742437
 20
299.9253519375036
 30
0.0
 40
0.43
100
AcDbArc
 50
100.000000000005
 51
162.960870116773
  0
ARC
  5
31AF
330
1F
100
AcDbEntity
  8
ｽﾍﾟｰｻｰ
100
AcDbCircle
 10
332.904811742437
 20
299.9253519375036
 30
0.0
 40
0.43
100
AcDbArc
 50
37.03912988322813
 51
100.000000000005
  0
ARC
  5
31B0
330
1F
100
AcDbEntity
  8
ｽﾍﾟｰｻｰ
100
AcDbCircle
 10
330.2074928525833
 20
299.2026075192384
 30
0.0
 40
0.43
100
AcDbArc
 50
110.0000000000037
 51
172.9608701167703
  0
ARC
  5
31B1
330
1F
100
AcDbEntity
  8
ｽﾍﾟｰｻｰ
100
AcDbCircle
 10
330.2074928525833
 20
299.2026075192384
 30
0.0
 40
0.43
100
AcDbArc
 50
47.03912988321938
 51
110.0000000000037
  0
ARC
  5
31B2
330
1F
100
AcDbEntity
  8
ｽﾍﾟｰｻｰ
100
AcDbCircle
 10
327.6766555486609
 20
298.0224587028749
 30
0.0
 40
0.43
100
AcDbArc
 50
120.0000000000005
 51
182.9608701167687
  0
ARC
  5
31B3
330
1F
100
AcDbEntity
  8
ｽﾍﾟｰｻｰ
100
AcDbCircle
 10
327.6766555486609
 20
298.0224587028749
 30
0.0
 40
0.43
100
AcDbArc
 50
57.03912988322127
 51
120.0000000000005
  0
ARC
  5
31B4
330
1F
100
AcDbEntity
  8
ｽﾍﾟｰｻｰ
100
AcDbCircle
 10
325.3891980414826
 20
296.4207637130142
 30
0.0
 40
0.43
100
AcDbArc
 50
130.0000000000038
 51
192.9608701167715
  0
ARC
  5
31B5
330
1F
100
AcDbEntity
  8
ｽﾍﾟｰｻｰ
100
AcDbCircle
 10
325.3891980414826
 20
296.4207637130142
 30
0.0
 40
0.43
100
AcDbArc
 50
67.0391298832324
 51
130.0000000000038
  0
ARC
  5
31B6
330
1F
100
AcDbEntity
  8
ｽﾍﾟｰｻｰ
100
AcDbCircle
 10
335.6866555486611
 20
284.1487317342483
 30
0.0
 40
16.22
100
AcDbArc
 50
101.3530387533284
 51
108.646961246665
  0
ARC
  5
31B7
330
1F
100
AcDbEntity
  8
ｽﾍﾟｰｻｰ
100
AcDbCircle
 10
335.6866555486611
 20
284.1487317342483
 30
0.0
 40
16.22
100
AcDbArc
 50
111.3530387533214
 51
118.6469612466721
  0
ARC
  5
31B8
330
1F
100
AcDbEntity
  8
ｽﾍﾟｰｻｰ
100
AcDbCircle
 10
335.6866555486611
 20
284.1487317342483
 30
0.0
 40
16.22
100
AcDbArc
 50
121.3530387533336
 51
128.6469612466743
  0
ARC
  5
31B9
330
1F
100
AcDbEntity
  8
ｽﾍﾟｰｻｰ
100
AcDbCircle
 10
335.6866555486611
 20
284.1487317342483
 30
0.0
 40
16.22
100
AcDbArc
 50
131.353038753322
 51
138.6469612466747
  0
ARC
  5
31BA
330
1F
100
AcDbEntity
  8
ｽﾍﾟｰｻｰ
100
AcDbCircle
 10
335.6866555486611
 20
284.1487317342483
 30
0.0
 40
16.22
100
AcDbArc
 50
81.35303875332599
 51
88.64696124668176
  0
ARC
  5
31BB
330
1F
100
AcDbEntity
  8
ｽﾍﾟｰｻｰ
100
AcDbCircle
 10
338.4684993548851
 20
299.9253519375036
 30
0.0
 40
0.43
100
AcDbArc
 50
17.03912988322695
 51
79.99999999999499
  0
ARC
  5
31BC
330
1F
100
AcDbEntity
  8
ｽﾍﾟｰｻｰ
100
AcDbCircle
 10
338.4684993548851
 20
299.9253519375036
 30
0.0
 40
0.43
100
AcDbArc
 50
79.99999999999499
 51
142.9608701167718
  0
ARC
  5
31BD
330
1F
100
AcDbEntity
  8
ｽﾍﾟｰｻｰ
100
AcDbCircle
 10
341.1658182447379
 20
299.2026075192384
 30
0.0
 40
0.43
100
AcDbArc
 50
7.039129883229677
 51
69.99999999999629
  0
ARC
  5
31BE
330
1F
100
AcDbEntity
  8
ｽﾍﾟｰｻｰ
100
AcDbCircle
 10
341.1658182447379
 20
299.2026075192384
 30
0.0
 40
0.43
100
AcDbArc
 50
69.99999999999629
 51
132.9608701167806
  0
ARC
  5
31BF
330
1F
100
AcDbEntity
  8
ｽﾍﾟｰｻｰ
100
AcDbCircle
 10
343.6966555486608
 20
298.0224587028749
 30
0.0
 40
0.43
100
AcDbArc
 50
357.0391298832313
 51
59.99999999999946
  0
ARC
  5
31C0
330
1F
100
AcDbEntity
  8
ｽﾍﾟｰｻｰ
100
AcDbCircle
 10
343.6966555486608
 20
298.0224587028749
 30
0.0
 40
0.43
100
AcDbArc
 50
59.99999999999946
 51
122.9608701167787
  0
ARC
  5
31C1
330
1F
100
AcDbEntity
  8
ｽﾍﾟｰｻｰ
100
AcDbCircle
 10
345.9841130558396
 20
296.4207637130142
 30
0.0
 40
0.43
100
AcDbArc
 50
347.0391298832284
 51
49.99999999999616
  0
ARC
  5
31C2
330
1F
100
AcDbEntity
  8
ｽﾍﾟｰｻｰ
100
AcDbCircle
 10
345.9841130558396
 20
296.4207637130142
 30
0.0
 40
0.43
100
AcDbArc
 50
49.99999999999616
 51
112.9608701167676
  0
ARC
  5
31C3
330
1F
100
AcDbEntity
  8
ｽﾍﾟｰｻｰ
100
AcDbCircle
 10
335.6866555486611
 20
284.1487317342483
 30
0.0
 40
16.22
100
AcDbArc
 50
71.35303875332265
 51
78.64696124667155
  0
ARC
  5
31C4
330
1F
100
AcDbEntity
  8
ｽﾍﾟｰｻｰ
100
AcDbCircle
 10
335.6866555486611
 20
284.1487317342483
 30
0.0
 40
16.22
100
AcDbArc
 50
61.35303875332785
 51
68.64696124667853
  0
ARC
  5
31C5
330
1F
100
AcDbEntity
  8
ｽﾍﾟｰｻｰ
100
AcDbCircle
 10
335.6866555486611
 20
284.1487317342483
 30
0.0
 40
16.22
100
AcDbArc
 50
51.35303875332569
 51
58.6469612466664
  0
ARC
  5
31C6
330
1F
100
AcDbEntity
  8
ｽﾍﾟｰｻｰ
100
AcDbCircle
 10
335.6866555486611
 20
284.1487317342483
 30
0.0
 40
16.22
100
AcDbArc
 50
41.35303875332521
 51
48.64696124667802
  0
LINE
  5
31C7
330
1F
100
AcDbEntity
  8
ｽﾍﾟｰｻｰ
100
AcDbLine
 10
241.9842756436935
 20
280.2042623669333
 30
0.0
 11
240.9668258953423
 21
280.1687322388016
 31
0.0
  0
LINE
  5
31C8
330
1F
100
AcDbEntity
  8
ｽﾍﾟｰｻｰ
100
AcDbLine
 10
240.9668258953423
 20
280.1687322388016
 30
0.0
 11
239.949376146991
 21
280.2042623669333
 31
0.0
  0
LINE
  5
31C9
330
1F
100
AcDbEntity
  8
ｽﾍﾟｰｻｰ
100
AcDbLine
 10
241.9842756436935
 20
301.1328581446894
 30
0.0
 11
240.966825895342
 21
301.168388272821
 31
0.0
  0
LINE
  5
31CA
330
1F
100
AcDbEntity
  8
ｽﾍﾟｰｻｰ
100
AcDbLine
 10
240.966825895342
 20
301.168388272821
 30
0.0
 11
239.949376146991
 21
301.1328581446894
 31
0.0
  0
LINE
  5
31CB
330
1F
100
AcDbEntity
  8
ｽﾍﾟｰｻｰ
100
AcDbLine
 10
242.4668258953423
 20
300.6331627311797
 30
0.0
 11
242.4668258953423
 21
280.7039577804428
 31
0.0
1001
GENIUS_GENREC_14
1002
{
1000
PYDIR
1011
239.4668258953422
1021
280.1687322388016
1031
0.0
1002
}
1002
{
1000
PXDIR
1011
242.4668258953423
1021
301.168388272821
1031
0.0
1002
}
1002
{
1000
PORI
1011
239.4668258953422
1021
301.168388272821
1031
0.0
1002
}
1002
{
1000
PINS
1011
239.4668258953422
1021
301.168388272821
1031
0.0
1002
}
1002
{
1000
PINS2
1011
242.4668258953423
1021
280.1687322388016
1031
0.0
1002
}
1002
{
1000
C
1070
     1
1002
}
1001
GENIUS_GENODEF_13
1002
{
1000
HIER
1070
     0
1002
}
1002
{
1000
MANEDIT
1070
     0
1002
}
1002
{
1000
NOSEL
1070
     0
1002
}
1002
{
1000
BEHIND
1070
     0
1002
}
1002
{
1000
REACTOR
1002
}
1001
GENIUS_GENOBJ-N-REC_13
1002
{
1000
OWNER
1000
GEN
1002
}
  0
ARC
  5
31CC
330
1F
100
AcDbEntity
  8
ｽﾍﾟｰｻｰ
100
AcDbCircle
 10
241.9668258953422
 20
300.6331627311797
 30
0.0
 40
0.5
100
AcDbArc
 50
0.000000000000007
 51
87.99999999999631
1001
GENIUS_GENODEF_13
1002
{
1000
HIER
1070
     0
1002
}
1002
{
1000
MANEDIT
1070
     0
1002
}
1002
{
1000
NOSEL
1070
     0
1002
}
1002
{
1000
BEHIND
1070
     0
1002
}
1002
{
1000
REACTOR
1002
}
1001
GENIUS_GENOBJ-N-FIL_13
1002
{
1000
OWNER
1000
GEN
1002
}
  0
LINE
  5
31CD
330
1F
100
AcDbEntity
  8
ｽﾍﾟｰｻｰ
100
AcDbLine
 10
239.4668258953422
 20
280.7039577804428
 30
0.0
 11
239.4668258953422
 21
300.6331627311797
 31
0.0
1001
GENIUS_GENREC_14
1002
{
1000
PYDIR
1011
239.4668258953422
1021
280.1687322388016
1031
0.0
1002
}
1002
{
1000
PXDIR
1011
242.4668258953423
1021
301.168388272821
1031
0.0
1002
}
1002
{
1000
PORI
1011
239.4668258953422
1021
301.168388272821
1031
0.0
1002
}
1002
{
1000
PINS
1011
239.4668258953422
1021
301.168388272821
1031
0.0
1002
}
1002
{
1000
PINS2
1011
242.4668258953423
1021
280.1687322388016
1031
0.0
1002
}
1002
{
1000
C
1070
     1
1002
}
1001
GENIUS_GENODEF_13
1002
{
1000
HIER
1070
     0
1002
}
1002
{
1000
MANEDIT
1070
     0
1002
}
1002
{
1000
NOSEL
1070
     0
1002
}
1002
{
1000
BEHIND
1070
     0
1002
}
1002
{
1000
REACTOR
1002
}
1001
GENIUS_GENOBJ-N-REC_13
1002
{
1000
OWNER
1000
GEN
1002
}
  0
ARC
  5
31CE
330
1F
100
AcDbEntity
  8
ｽﾍﾟｰｻｰ
100
AcDbCircle
 10
239.9668258953422
 20
300.6331627311797
 30
0.0
 40
0.5
100
AcDbArc
 50
92.0000000000037
 51
180.0
1001
GENIUS_GENODEF_13
1002
{
1000
HIER
1070
     0
1002
}
1002
{
1000
MANEDIT
1070
     0
1002
}
1002
{
1000
NOSEL
1070
     0
1002
}
1002
{
1000
BEHIND
1070
     0
1002
}
1002
{
1000
REACTOR
1002
}
1001
GENIUS_GENOBJ-N-FIL_13
1002
{
1000
OWNER
1000
GEN
1002
}
  0
ARC
  5
31CF
330
1F
100
AcDbEntity
  8
ｽﾍﾟｰｻｰ
100
AcDbCircle
 10
241.9668258953422
 20
280.7039577804428
 30
0.0
 40
0.5
100
AcDbArc
 50
272.0000000000037
 51
0.000000000000007
1001
GENIUS_GENODEF_13
1002
{
1000
HIER
1070
     0
1002
}
1002
{
1000
MANEDIT
1070
     0
1002
}
1002
{
1000
NOSEL
1070
     0
1002
}
1002
{
1000
BEHIND
1070
     0
1002
}
1002
{
1000
REACTOR
1002
}
1001
GENIUS_GENOBJ-N-FIL_13
1002
{
1000
OWNER
1000
GEN
1002
}
  0
ARC
  5
31D0
330
1F
100
AcDbEntity
  8
ｽﾍﾟｰｻｰ
100
AcDbCircle
 10
239.9668258953422
 20
280.7039577804428
 30
0.0
 40
0.5
100
AcDbArc
 50
180.0
 51
268.0000000000092
1001
GENIUS_GENODEF_13
1002
{
1000
HIER
1070
     0
1002
}
1002
{
1000
MANEDIT
1070
     0
1002
}
1002
{
1000
NOSEL
1070
     0
1002
}
1002
{
1000
BEHIND
1070
     0
1002
}
1002
{
1000
REACTOR
1002
}
1001
GENIUS_GENOBJ-N-FIL_13
1002
{
1000
OWNER
1000
GEN
1002
}
  0
ARC
  5
3226
330
1F
100
AcDbEntity
  8
ｽﾍﾟｰｻｰ
100
AcDbCircle
 10
138.751140514629
 20
289.1687322388015
 30
0.0
 40
9.0
100
AcDbArc
 50
180.0
 51
270.0
1001
GENIUS_GENODEF_13
1002
{
1000
HIER
1070
     0
1002
}
1002
{
1000
MANEDIT
1070
     0
1002
}
1002
{
1000
NOSEL
1070
     0
1002
}
1002
{
1000
BEHIND
1070
     0
1002
}
1002
{
1000
REACTOR
1002
}
1001
GENIUS_GENOBJ-N-FIL_13
1002
{
1000
OWNER
1000
GEN
1002
}
  0
LINE
  5
3227
330
1F
100
AcDbEntity
  8
ｽﾍﾟｰｻｰ
100
AcDbLine
 10
129.751140514629
 20
294.513595961977
 30
0.0
 11
129.751140514629
 21
289.1687322388015
 31
0.0
  0
ARC
  5
3228
330
1F
100
AcDbEntity
  8
ｽﾍﾟｰｻｰ
100
AcDbCircle
 10
147.751140514629
 20
289.1687322388015
 30
0.0
 40
9.0
100
AcDbArc
 50
270.0
 51
0.0
1001
GENIUS_GENODEF_13
1002
{
1000
HIER
1070
     0
1002
}
1002
{
1000
MANEDIT
1070
     0
1002
}
1002
{
1000
NOSEL
1070
     0
1002
}
1002
{
1000
BEHIND
1070
     0
1002
}
1002
{
1000
REACTOR
1002
}
1001
GENIUS_GENOBJ-N-FIL_13
1002
{
1000
OWNER
1000
GEN
1002
}
  0
LINE
  5
3229
102
{ACAD_REACTORS
330
3B4C
102
}
330
1F
100
AcDbEntity
  8
ｽﾍﾟｰｻｰ
100
AcDbLine
 10
147.751140514629
 20
280.1687322388016
 30
0.0
 11
138.751140514629
 21
280.1687322388016
 31
0.0
  0
LINE
  5
322A
330
1F
100
AcDbEntity
  8
ｽﾍﾟｰｻｰ
100
AcDbLine
 10
156.751140514629
 20
294.513595961977
 30
0.0
 11
156.751140514629
 21
289.1687322388015
 31
0.0
  0
ARC
  5
322B
330
1F
100
AcDbEntity
  8
ｽﾍﾟｰｻｰ
100
AcDbCircle
 10
143.251140514629
 20
284.1487322388016
 30
0.0
 40
17.02
100
AcDbArc
 50
37.51588919315511
 51
42.76147152922798
  0
ARC
  5
3240
330
1F
100
AcDbEntity
  8
ｽﾍﾟｰｻｰ
100
AcDbCircle
 10
143.251140514629
 20
284.1487322388016
 30
0.0
 40
17.02
100
AcDbArc
 50
137.2796409427906
 51
142.4841108068449
  0
ARC
  5
324E
330
1F
100
AcDbEntity
  8
ｽﾍﾟｰｻｰ
100
AcDbCircle
 10
348.6514300070199
 20
200.2845655700759
 30
0.0
 40
0.5
100
AcDbArc
 50
1.99999999999069
 51
89.99999999999998
1001
GENIUS_GENODEF_13
1002
{
1000
HIER
1070
     0
1002
}
1002
{
1000
MANEDIT
1070
     0
1002
}
1002
{
1000
NOSEL
1070
     0
1002
}
1002
{
1000
BEHIND
1070
     0
1002
}
1002
{
1000
REACTOR
1002
}
1001
GENIUS_GENOBJ-N-FIL_13
1002
{
1000
OWNER
1000
GEN
1002
}
  0
ARC
  5
324F
330
1F
100
AcDbEntity
  8
ｽﾍﾟｰｻｰ
100
AcDbCircle
 10
348.6514300070199
 20
198.2845655700758
 30
0.0
 40
0.5
100
AcDbArc
 50
270.0
 51
357.9999999999963
1001
GENIUS_GENODEF_13
1002
{
1000
HIER
1070
     0
1002
}
1002
{
1000
MANEDIT
1070
     0
1002
}
1002
{
1000
NOSEL
1070
     0
1002
}
1002
{
1000
BEHIND
1070
     0
1002
}
1002
{
1000
REACTOR
1002
}
1001
GENIUS_GENOBJ-N-FIL_13
1002
{
1000
OWNER
1000
GEN
1002
}
  0
ARC
  5
3250
330
1F
100
AcDbEntity
  8
ｽﾍﾟｰｻｰ
100
AcDbCircle
 10
322.7218810903021
 20
200.284565570076
 30
0.0
 40
0.5
100
AcDbArc
 50
89.99999999999998
 51
177.9999999999963
1001
GENIUS_GENODEF_13
1002
{
1000
HIER
1070
     0
1002
}
1002
{
1000
MANEDIT
1070
     0
1002
}
1002
{
1000
NOSEL
1070
     0
1002
}
1002
{
1000
BEHIND
1070
     0
1002
}
1002
{
1000
REACTOR
1002
}
1001
GENIUS_GENOBJ-N-FIL_13
1002
{
1000
OWNER
1000
GEN
1002
}
  0
LINE
  5
3251
330
1F
100
AcDbEntity
  8
ｽﾍﾟｰｻｰ
100
AcDbLine
 10
348.6514300070199
 20
200.7845655700758
 30
0.0
 11
322.7218810903022
 21
200.7845655700759
 31
0.0
1001
GENIUS_GENREC_14
1002
{
1000
PYDIR
1011
346.1823392930668
1021
200.7845655700758
1031
0.0
1002
}
1002
{
1000
PXDIR
1011
325.1826832590474
1021
197.7845655700758
1031
0.0
1002
}
1002
{
1000
PORI
1011
325.1826832590474
1021
200.7845655700759
1031
0.0
1002
}
1002
{
1000
PINS
1011
325.1826832590474
1021
200.7845655700759
1031
0.0
1002
}
1002
{
1000
PINS2
1011
346.1823392930668
1021
197.7845655700757
1031
0.0
1002
}
1002
{
1000
C
1070
     1
1002
}
  0
ARC
  5
3252
330
1F
100
AcDbEntity
  8
ｽﾍﾟｰｻｰ
100
AcDbCircle
 10
322.7218810903021
 20
198.284565570076
 30
0.0
 40
0.5
100
AcDbArc
 50
181.9999999999907
 51
270.0
1001
GENIUS_GENODEF_13
1002
{
1000
HIER
1070
     0
1002
}
1002
{
1000
MANEDIT
1070
     0
1002
}
1002
{
1000
NOSEL
1070
     0
1002
}
1002
{
1000
BEHIND
1070
     0
1002
}
1002
{
1000
REACTOR
1002
}
1001
GENIUS_GENOBJ-N-FIL_13
1002
{
1000
OWNER
1000
GEN
1002
}
  0
LINE
  5
3253
330
1F
100
AcDbEntity
  8
ｽﾍﾟｰｻｰ
100
AcDbLine
 10
322.7218810903022
 20
197.7845655700758
 30
0.0
 11
348.6514300070199
 21
197.7845655700757
 31
0.0
1001
GENIUS_GENREC_14
1002
{
1000
PYDIR
1011
346.1823392930668
1021
200.7845655700758
1031
0.0
1002
}
1002
{
1000
PXDIR
1011
325.1826832590474
1021
197.7845655700758
1031
0.0
1002
}
1002
{
1000
PORI
1011
325.1826832590474
1021
200.7845655700759
1031
0.0
1002
}
1002
{
1000
PINS
1011
325.1826832590474
1021
200.7845655700759
1031
0.0
1002
}
1002
{
1000
PINS2
1011
346.1823392930668
1021
197.7845655700757
1031
0.0
1002
}
1002
{
1000
C
1070
     1
1002
}
1001
GENIUS_GENODEF_13
1002
{
1000
HIER
1070
     0
1002
}
1002
{
1000
MANEDIT
1070
     0
1002
}
1002
{
1000
NOSEL
1070
     0
1002
}
1002
{
1000
BEHIND
1070
     0
1002
}
1002
{
1000
REACTOR
1002
}
1001
GENIUS_GENOBJ-N-REC_13
1002
{
1000
OWNER
1000
GEN
1002
}
  0
LINE
  5
3254
330
1F
100
AcDbEntity
  8
ｽﾍﾟｰｻｰ
100
AcDbLine
 10
322.1866555486612
 20
199.2845655700761
 30
0.0
 11
322.2221856767927
 21
200.3020153184272
 31
0.0
  0
LINE
  5
3255
330
1F
100
AcDbEntity
  8
ｽﾍﾟｰｻｰ
100
AcDbLine
 10
322.2221856767927
 20
198.2671158217246
 30
0.0
 11
322.1866555486612
 21
199.2845655700761
 31
0.0
  0
LINE
  5
3256
330
1F
100
AcDbEntity
  8
ｽﾍﾟｰｻｰ
100
AcDbLine
 10
349.1866555486612
 20
199.2845655700757
 30
0.0
 11
349.1511254205294
 21
200.302015318427
 31
0.0
  0
LINE
  5
3257
330
1F
100
AcDbEntity
  8
ｽﾍﾟｰｻｰ
100
AcDbLine
 10
349.1511254205294
 20
198.2671158217245
 30
0.0
 11
349.1866555486612
 21
199.2845655700757
 31
0.0
  0
LINE
  5
325B
330
1F
100
AcDbEntity
  8
ｷｬｯﾌﾟ
100
AcDbLine
 10
344.226655548661
 20
219.5345655700759
 30
0.0
 11
327.1466555486611
 21
219.534565570076
 31
0.0
  0
ARC
  5
325C
330
1F
100
AcDbEntity
  8
ｷｬｯﾌﾟ
100
AcDbCircle
 10
344.226655548661
 20
217.5345655700761
 30
0.0
 40
2.0
100
AcDbArc
 50
0.0
 51
89.99999999999998
1001
GENIUS_GENODEF_13
1002
{
1000
HIER
1070
     0
1002
}
1002
{
1000
MANEDIT
1070
     0
1002
}
1002
{
1000
NOSEL
1070
     0
1002
}
1002
{
1000
BEHIND
1070
     0
1002
}
1002
{
1000
REACTOR
1002
}
1001
GENIUS_GENOBJ-N-FIL_13
1002
{
1000
OWNER
1000
GEN
1002
}
  0
ARC
  5
325D
330
1F
100
AcDbEntity
  8
ｷｬｯﾌﾟ
100
AcDbCircle
 10
327.1466555486611
 20
217.5345655700761
 30
0.0
 40
2.0
100
AcDbArc
 50
89.99999999999998
 51
180.0
1001
GENIUS_GENODEF_13
1002
{
1000
HIER
1070
     0
1002
}
1002
{
1000
MANEDIT
1070
     0
1002
}
1002
{
1000
NOSEL
1070
     0
1002
}
1002
{
1000
BEHIND
1070
     0
1002
}
1002
{
1000
REACTOR
1002
}
1001
GENIUS_GENOBJ-N-FIL_13
1002
{
1000
OWNER
1000
GEN
1002
}
  0
ARC
  5
325E
330
1F
100
AcDbEntity
  8
ﾌﾞﾗｹｯﾄ
100
AcDbCircle
 10
340.186655548661
 20
206.784565570076
 30
0.0
 40
8.000000000000056
100
AcDbArc
 50
0.0
 51
89.99999999999998
1001
GENIUS_GENREC_14
1002
{
1000
PYDIR
1011
348.1866555486611
1021
200.7845655700758
1031
0.0
1002
}
1002
{
1000
PXDIR
1011
323.1866555486611
1021
214.7845655700759
1031
0.0
1002
}
1002
{
1000
PORI
1011
348.1866555486611
1021
214.7845655700757
1031
0.0
1002
}
1002
{
1000
PINS
1011
348.1866555486611
1021
214.7845655700757
1031
0.0
1002
}
1002
{
1000
PINS2
1011
323.1866555486611
1021
200.7845655700759
1031
0.0
1002
}
1002
{
1000
C
1070
     1
1002
}
1001
GENIUS_GENODEF_13
1002
{
1000
HIER
1070
     0
1002
}
1002
{
1000
MANEDIT
1070
     0
1002
}
1002
{
1000
NOSEL
1070
     0
1002
}
1002
{
1000
BEHIND
1070
     0
1002
}
1002
{
1000
REACTOR
1002
}
1001
GENIUS_GENOBJ-N-REC_13
1002
{
1000
OWNER
1000
GEN
1002
}
  0
LINE
  5
325F
330
1F
100
AcDbEntity
  8
ﾌﾞﾗｹｯﾄ
100
AcDbLine
 10
348.1866555486611
 20
200.7845655700758
 30
0.0
 11
348.1866555486611
 21
206.7845655700757
 31
0.0
1001
GENIUS_GENREC_14
1002
{
1000
PYDIR
1011
348.1866555486611
1021
200.7845655700758
1031
0.0
1002
}
1002
{
1000
PXDIR
1011
323.1866555486611
1021
214.7845655700759
1031
0.0
1002
}
1002
{
1000
PORI
1011
348.1866555486611
1021
214.7845655700757
1031
0.0
1002
}
1002
{
1000
PINS
1011
348.1866555486611
1021
214.7845655700757
1031
0.0
1002
}
1002
{
1000
PINS2
1011
323.1866555486611
1021
200.7845655700759
1031
0.0
1002
}
1002
{
1000
C
1070
     1
1002
}
1001
GENIUS_GENODEF_13
1002
{
1000
HIER
1070
     0
1002
}
1002
{
1000
MANEDIT
1070
     0
1002
}
1002
{
1000
NOSEL
1070
     0
1002
}
1002
{
1000
BEHIND
1070
     0
1002
}
1002
{
1000
REACTOR
1002
}
1001
GENIUS_GENOBJ-N-REC_13
1002
{
1000
OWNER
1000
GEN
1002
}
  0
LINE
  5
3260
330
1F
100
AcDbEntity
  8
ﾌﾞﾗｹｯﾄ
100
AcDbLine
 10
316.2779640497303
 20
200.7845655700759
 30
0.0
 11
355.0953470475917
 21
200.7845655700758
 31
0.0
1001
GENIUS_GENREC_14
1002
{
1000
PYDIR
1011
348.1207554323002
1021
200.7845655700758
1031
0.0
1002
}
1002
{
1000
PXDIR
1011
323.1207554323002
1021
214.7845655700759
1031
0.0
1002
}
1002
{
1000
PORI
1011
348.1207554323002
1021
214.7845655700757
1031
0.0
1002
}
1002
{
1000
PINS
1011
348.1207554323002
1021
214.7845655700757
1031
0.0
1002
}
1002
{
1000
PINS2
1011
323.1207554323002
1021
200.7845655700759
1031
0.0
1002
}
1002
{
1000
C
1070
     1
1002
}
1001
GENIUS_GENODEF_13
1002
{
1000
HIER
1070
     0
1002
}
1002
{
1000
MANEDIT
1070
     0
1002
}
1002
{
1000
NOSEL
1070
     0
1002
}
1002
{
1000
BEHIND
1070
     0
1002
}
1002
{
1000
REACTOR
1002
}
1001
GENIUS_GENOBJ-N-REC_13
1002
{
1000
OWNER
1000
GEN
1002
}
  0
LINE
  5
3261
330
1F
100
AcDbEntity
  8
ﾌﾞﾗｹｯﾄ
100
AcDbLine
 10
323.1866555486611
 20
206.7845655700759
 30
0.0
 11
323.1866555486611
 21
200.7845655700759
 31
0.0
1001
GENIUS_GENREC_14
1002
{
1000
PYDIR
1011
348.1866555486611
1021
200.7845655700758
1031
0.0
1002
}
1002
{
1000
PXDIR
1011
323.1866555486611
1021
214.7845655700759
1031
0.0
1002
}
1002
{
1000
PORI
1011
348.1866555486611
1021
214.7845655700757
1031
0.0
1002
}
1002
{
1000
PINS
1011
348.1866555486611
1021
214.7845655700757
1031
0.0
1002
}
1002
{
1000
PINS2
1011
323.1866555486611
1021
200.7845655700759
1031
0.0
1002
}
1002
{
1000
C
1070
     1
1002
}
1001
GENIUS_GENODEF_13
1002
{
1000
HIER
1070
     0
1002
}
1002
{
1000
MANEDIT
1070
     0
1002
}
1002
{
1000
NOSEL
1070
     0
1002
}
1002
{
1000
BEHIND
1070
     0
1002
}
1002
{
1000
REACTOR
1002
}
1001
GENIUS_GENOBJ-N-REC_13
1002
{
1000
OWNER
1000
GEN
1002
}
  0
ARC
  5
3262
330
1F
100
AcDbEntity
  8
ﾌﾞﾗｹｯﾄ
100
AcDbCircle
 10
331.1866555486611
 20
206.784565570076
 30
0.0
 40
8.0
100
AcDbArc
 50
89.99999999999998
 51
180.0
1001
GENIUS_GENREC_14
1002
{
1000
PYDIR
1011
348.1866555486611
1021
200.7845655700758
1031
0.0
1002
}
1002
{
1000
PXDIR
1011
323.1866555486611
1021
214.7845655700759
1031
0.0
1002
}
1002
{
1000
PORI
1011
348.1866555486611
1021
214.7845655700757
1031
0.0
1002
}
1002
{
1000
PINS
1011
348.1866555486611
1021
214.7845655700757
1031
0.0
1002
}
1002
{
1000
PINS2
1011
323.1866555486611
1021
200.7845655700759
1031
0.0
1002
}
1002
{
1000
C
1070
     1
1002
}
1001
GENIUS_GENODEF_13
1002
{
1000
HIER
1070
     0
1002
}
1002
{
1000
MANEDIT
1070
     0
1002
}
1002
{
1000
NOSEL
1070
     0
1002
}
1002
{
1000
BEHIND
1070
     0
1002
}
1002
{
1000
REACTOR
1002
}
1001
GENIUS_GENOBJ-N-REC_13
1002
{
1000
OWNER
1000
GEN
1002
}
  0
LINE
  5
3263
330
1F
100
AcDbEntity
  8
ﾌﾞﾗｹｯﾄ
100
AcDbLine
 10
340.186655548661
 20
214.7845655700757
 30
0.0
 11
331.1866555486611
 21
214.7845655700759
 31
0.0
1001
GENIUS_GENREC_14
1002
{
1000
PYDIR
1011
348.1866555486611
1021
200.7845655700758
1031
0.0
1002
}
1002
{
1000
PXDIR
1011
323.1866555486611
1021
214.7845655700759
1031
0.0
1002
}
1002
{
1000
PORI
1011
348.1866555486611
1021
214.7845655700757
1031
0.0
1002
}
1002
{
1000
PINS
1011
348.1866555486611
1021
214.7845655700757
1031
0.0
1002
}
1002
{
1000
PINS2
1011
323.1866555486611
1021
200.7845655700759
1031
0.0
1002
}
1002
{
1000
C
1070
     1
1002
}
1001
GENIUS_GENODEF_13
1002
{
1000
HIER
1070
     0
1002
}
1002
{
1000
MANEDIT
1070
     0
1002
}
1002
{
1000
NOSEL
1070
     0
1002
}
1002
{
1000
BEHIND
1070
     0
1002
}
1002
{
1000
REACTOR
1002
}
1001
GENIUS_GENOBJ-N-REC_13
1002
{
1000
OWNER
1000
GEN
1002
}
  0
LINE
  5
3264
330
1F
100
AcDbEntity
  8
ﾌﾞﾗｹｯﾄ
100
AcDbLine
 10
316.1729095182743
 20
212.0575000265618
 30
0.0
 11
315.2817693516385
 21
201.8717213128235
 31
0.0
  0
LINE
  5
3265
330
1F
100
AcDbEntity
  8
ﾌﾞﾗｹｯﾄ
100
AcDbLine
 10
355.2004015790477
 20
212.0575000265617
 30
0.0
 11
356.0915417456835
 21
201.8717213128234
 31
0.0
  0
ARC
  5
3266
330
1F
100
AcDbEntity
  8
ﾌﾞﾗｹｯﾄ
100
AcDbCircle
 10
349.2232333904973
 20
211.5345655700759
 30
0.0
 40
6.0
100
AcDbArc
 50
5.000000000000007
 51
89.99999999999998
1001
GENIUS_GENODEF_13
1002
{
1000
HIER
1070
     0
1002
}
1002
{
1000
MANEDIT
1070
     0
1002
}
1002
{
1000
NOSEL
1070
     0
1002
}
1002
{
1000
BEHIND
1070
     0
1002
}
1002
{
1000
REACTOR
1002
}
1001
GENIUS_GENOBJ-N-FIL_13
1002
{
1000
OWNER
1000
GEN
1002
}
  0
ARC
  5
3267
330
1F
100
AcDbEntity
  8
ﾌﾞﾗｹｯﾄ
100
AcDbCircle
 10
349.2232333904973
 20
211.5345655700759
 30
0.0
 40
6.0
100
AcDbArc
 50
5.000000000000007
 51
89.99999999999998
1001
GENIUS_GENODEF_13
1002
{
1000
HIER
1070
     0
1002
}
1002
{
1000
MANEDIT
1070
     0
1002
}
1002
{
1000
NOSEL
1070
     0
1002
}
1002
{
1000
BEHIND
1070
     0
1002
}
1002
{
1000
REACTOR
1002
}
1001
GENIUS_GENOBJ-N-FIL_13
1002
{
1000
OWNER
1000
GEN
1002
}
  0
LINE
  5
3268
330
1F
100
AcDbEntity
  8
ﾌﾞﾗｹｯﾄ
100
AcDbLine
 10
322.1500777068248
 20
217.5345655700759
 30
0.0
 11
349.2232333904973
 21
217.5345655700758
 31
0.0
  0
ARC
  5
3269
330
1F
100
AcDbEntity
  8
ﾌﾞﾗｹｯﾄ
100
AcDbCircle
 10
322.1500777068247
 20
211.534565570076
 30
0.0
 40
6.0
100
AcDbArc
 50
89.99999999999998
 51
175.0
1001
GENIUS_GENODEF_13
1002
{
1000
HIER
1070
     0
1002
}
1002
{
1000
MANEDIT
1070
     0
1002
}
1002
{
1000
NOSEL
1070
     0
1002
}
1002
{
1000
BEHIND
1070
     0
1002
}
1002
{
1000
REACTOR
1002
}
1001
GENIUS_GENOBJ-N-FIL_13
1002
{
1000
OWNER
1000
GEN
1002
}
  0
LINE
  5
326A
330
1F
100
AcDbEntity
  8
ﾌﾞﾗｹｯﾄ
100
AcDbLine
 10
316.2779640497303
 20
200.7845655700759
 30
0.0
 11
318.1981150612909
 21
200.7845655700759
 31
0.0
  0
ARC
  5
326B
330
1F
100
AcDbEntity
  8
ﾌﾞﾗｹｯﾄ
100
AcDbCircle
 10
316.2779640497303
 20
201.784565570076
 30
0.0
 40
1.0
100
AcDbArc
 50
175.0
 51
270.0
1001
GENIUS_GENODEF_13
1002
{
1000
HIER
1070
     0
1002
}
1002
{
1000
MANEDIT
1070
     0
1002
}
1002
{
1000
NOSEL
1070
     0
1002
}
1002
{
1000
BEHIND
1070
     0
1002
}
1002
{
1000
REACTOR
1002
}
1001
GENIUS_GENOBJ-N-FIL_13
1002
{
1000
OWNER
1000
GEN
1002
}
  0
ARC
  5
326C
330
1F
100
AcDbEntity
  8
ﾌﾞﾗｹｯﾄ
100
AcDbCircle
 10
355.0953470475917
 20
201.7845655700759
 30
0.0
 40
1.0
100
AcDbArc
 50
270.0
 51
5.000000000000007
1001
GENIUS_GENODEF_13
1002
{
1000
HIER
1070
     0
1002
}
1002
{
1000
MANEDIT
1070
     0
1002
}
1002
{
1000
NOSEL
1070
     0
1002
}
1002
{
1000
BEHIND
1070
     0
1002
}
1002
{
1000
REACTOR
1002
}
1001
GENIUS_GENOBJ-N-FIL_13
1002
{
1000
OWNER
1000
GEN
1002
}
  0
ARC
  5
326D
330
1F
100
AcDbEntity
  8
ｷｬｯﾌﾟ
100
AcDbCircle
 10
222.716825895343
 20
429.2084767631304
 30
0.0
 40
2.0
100
AcDbArc
 50
90.0
 51
180.0
1001
GENIUS_GENODEF_13
1002
{
1000
HIER
1070
     0
1002
}
1002
{
1000
MANEDIT
1070
     0
1002
}
1002
{
1000
NOSEL
1070
     0
1002
}
1002
{
1000
BEHIND
1070
     0
1002
}
1002
{
1000
REACTOR
1002
}
1001
GENIUS_GENOBJ-N-FIL_13
1002
{
1000
OWNER
1000
GEN
1002
}
  0
ARC
  5
326E
330
1F
100
AcDbEntity
  8
ｷｬｯﾌﾟ
100
AcDbCircle
 10
222.716825895343
 20
412.1284767631305
 30
0.0
 40
2.0
100
AcDbArc
 50
180.0
 51
270.0
1001
GENIUS_GENODEF_13
1002
{
1000
HIER
1070
     0
1002
}
1002
{
1000
MANEDIT
1070
     0
1002
}
1002
{
1000
NOSEL
1070
     0
1002
}
1002
{
1000
BEHIND
1070
     0
1002
}
1002
{
1000
REACTOR
1002
}
1001
GENIUS_GENOBJ-N-FIL_13
1002
{
1000
OWNER
1000
GEN
1002
}
  0
LINE
  5
326F
330
1F
100
AcDbEntity
  8
ｷｬｯﾌﾟ
100
AcDbLine
 10
220.716825895343
 20
412.1284767631305
 30
0.0
 11
220.716825895343
 21
429.2084767631304
 31
0.0
  0
SPLINE
  5
3270
330
1F
100
AcDbEntity
  8
ﾌﾞﾗｹｯﾄ
100
AcDbSpline
210
0.0
220
0.0
230
1.0
 70
     8
 71
     3
 72
    10
 73
     6
 74
     4
 42
0.0000000001
 43
0.0000000001
 44
0.0000000001
 40
0.0
 40
0.0
 40
0.0
 40
0.0
 40
3.807037133442541
 40
8.387433363802173
 40
14.25813855826024
 40
14.25813855826024
 40
14.25813855826024
 40
14.25813855826024
 10
225.466825895343
 20
404.745119301257
 30
0.0
 10
226.6615346041671
 20
405.1845816106714
 30
0.0
 10
229.293644387492
 20
406.1527783229485
 30
0.0
 10
234.1146444553578
 20
406.4886567616349
 30
0.0
 10
237.5417277665431
 20
405.8118839300579
 30
0.0
 10
239.466825895343
 20
405.4317198099038
 30
0.0
 11
225.466825895343
 21
404.745119301257
 31
0.0
 11
229.0929543134731
 21
405.9047418392581
 31
0.0
 11
233.657872340725
 21
406.2809771799204
 31
0.0
 11
239.466825895343
 21
405.4317198099038
 31
0.0
  0
LINE
  5
3271
330
1F
100
AcDbEntity
  8
ｽﾃｰﾀｰ
 62
     6
100
AcDbLine
 10
239.4668258953434
 20
406.6684767631304
 30
0.0
 11
241.9668258953434
 21
406.7557786868601
 31
0.0
  0
LINE
  5
3272
330
1F
100
AcDbEntity
  8
ｽﾃｰﾀｰ
 62
     6
100
AcDbLine
 10
239.466825895343
 20
434.6684767631304
 30
0.0
 11
241.9668258953434
 21
434.581174839401
 31
0.0
  0
LINE
  5
3273
330
1F
100
AcDbEntity
  8
ｽﾃｰﾀｰ
 62
     6
100
AcDbLine
 10
241.9668258953434
 20
406.7557786868601
 30
0.0
 11
241.9668258953434
 21
434.581174839401
 31
0.0
  0
LINE
  5
3274
330
1F
100
AcDbEntity
  8
ｽﾃｰﾀｰ
 62
     6
100
AcDbLine
 10
241.9668258953438
 20
408.1684767631304
 30
0.0
 11
243.9668258953438
 21
408.2383183021143
 31
0.0
1001
GENIUS_GENREC_14
1002
{
1000
PYDIR
1011
241.9668258953438
1021
413.1684767631304
1031
0.0
1002
}
1002
{
1000
PXDIR
1011
243.9668258953438
1021
408.2383183021143
1031
0.0
1002
}
1002
{
1000
PORI
1011
241.9668258953438
1021
408.1684767631304
1031
0.0
1002
}
1002
{
1000
PINS
1011
241.9668258953438
1021
410.6684767631304
1031
0.0
1002
}
1002
{
1000
HVAL
1000
5
1002
}
1002
{
1000
H
1070
     2
1002
}
1002
{
1000
WVAL
1000
2
1002
}
1002
{
1000
W
1070
     2
1002
}
1002
{
1000
C
1070
     3
1002
}
1001
GENIUS_GENODEF_13
1002
{
1000
HIER
1070
     0
1002
}
1002
{
1000
MANEDIT
1070
     0
1002
}
1002
{
1000
NOSEL
1070
     0
1002
}
1002
{
1000
BEHIND
1070
     0
1002
}
1002
{
1000
REACTOR
1002
}
1001
GENIUS_GENOBJ-N-REC_13
1002
{
1000
OWNER
1000
GEN
1002
}
  0
LINE
  5
3275
330
1F
100
AcDbEntity
  8
ｽﾃｰﾀｰ
 62
     6
100
AcDbLine
 10
243.9668258953438
 20
408.2383183021143
 30
0.0
 11
243.9668258953438
 21
413.098635224147
 31
0.0
1001
GENIUS_GENREC_14
1002
{
1000
PYDIR
1011
241.9668258953438
1021
413.1684767631304
1031
0.0
1002
}
1002
{
1000
PXDIR
1011
243.9668258953438
1021
408.2383183021143
1031
0.0
1002
}
1002
{
1000
PORI
1011
241.9668258953438
1021
408.1684767631304
1031
0.0
1002
}
1002
{
1000
PINS
1011
241.9668258953438
1021
410.6684767631304
1031
0.0
1002
}
1002
{
1000
HVAL
1000
5
1002
}
1002
{
1000
H
1070
     2
1002
}
1002
{
1000
WVAL
1000
2
1002
}
1002
{
1000
W
1070
     2
1002
}
1002
{
1000
C
1070
     3
1002
}
1001
GENIUS_GENODEF_13
1002
{
1000
HIER
1070
     0
1002
}
1002
{
1000
MANEDIT
1070
     0
1002
}
1002
{
1000
NOSEL
1070
     0
1002
}
1002
{
1000
BEHIND
1070
     0
1002
}
1002
{
1000
REACTOR
1002
}
1001
GENIUS_GENOBJ-N-REC_13
1002
{
1000
OWNER
1000
GEN
1002
}
  0
LINE
  5
3276
330
1F
100
AcDbEntity
  8
ｽﾃｰﾀｰ
 62
     6
100
AcDbLine
 10
243.9668258953438
 20
413.098635224147
 30
0.0
 11
241.9668258953438
 21
413.1684767631304
 31
0.0
1001
GENIUS_GENREC_14
1002
{
1000
PYDIR
1011
241.9668258953438
1021
413.1684767631304
1031
0.0
1002
}
1002
{
1000
PXDIR
1011
243.9668258953438
1021
408.2383183021143
1031
0.0
1002
}
1002
{
1000
PORI
1011
241.9668258953438
1021
408.1684767631304
1031
0.0
1002
}
1002
{
1000
PINS
1011
241.9668258953438
1021
410.6684767631304
1031
0.0
1002
}
1002
{
1000
HVAL
1000
5
1002
}
1002
{
1000
H
1070
     2
1002
}
1002
{
1000
WVAL
1000
2
1002
}
1002
{
1000
W
1070
     2
1002
}
1002
{
1000
C
1070
     3
1002
}
1001
GENIUS_GENODEF_13
1002
{
1000
HIER
1070
     0
1002
}
1002
{
1000
MANEDIT
1070
     0
1002
}
1002
{
1000
NOSEL
1070
     0
1002
}
1002
{
1000
BEHIND
1070
     0
1002
}
1002
{
1000
REACTOR
1002
}
1001
GENIUS_GENOBJ-N-REC_13
1002
{
1000
OWNER
1000
GEN
1002
}
  0
LINE
  5
3277
330
1F
100
AcDbEntity
  8
ｽﾃｰﾀｰ
 62
     6
100
AcDbLine
 10
241.9668258953434
 20
428.1684767631304
 30
0.0
 11
243.9668258953434
 21
428.238318302114
 31
0.0
1001
GENIUS_GENREC_14
1002
{
1000
PYDIR
1011
241.9668258953434
1021
433.1684767631304
1031
0.0
1002
}
1002
{
1000
PXDIR
1011
243.9668258953434
1021
428.238318302114
1031
0.0
1002
}
1002
{
1000
PORI
1011
241.9668258953434
1021
428.1684767631304
1031
0.0
1002
}
1002
{
1000
PINS
1011
241.9668258953434
1021
430.6684767631304
1031
0.0
1002
}
1002
{
1000
HVAL
1000
5
1002
}
1002
{
1000
H
1070
     2
1002
}
1002
{
1000
WVAL
1000
2
1002
}
1002
{
1000
W
1070
     2
1002
}
1002
{
1000
C
1070
     3
1002
}
1001
GENIUS_GENODEF_13
1002
{
1000
HIER
1070
     0
1002
}
1002
{
1000
MANEDIT
1070
     0
1002
}
1002
{
1000
NOSEL
1070
     0
1002
}
1002
{
1000
BEHIND
1070
     0
1002
}
1002
{
1000
REACTOR
1002
}
1001
GENIUS_GENOBJ-N-REC_13
1002
{
1000
OWNER
1000
GEN
1002
}
  0
LINE
  5
3278
330
1F
100
AcDbEntity
  8
ｽﾃｰﾀｰ
 62
     6
100
AcDbLine
 10
243.9668258953434
 20
428.238318302114
 30
0.0
 11
243.9668258953434
 21
433.0986352241468
 31
0.0
1001
GENIUS_GENREC_14
1002
{
1000
PYDIR
1011
241.9668258953434
1021
433.1684767631304
1031
0.0
1002
}
1002
{
1000
PXDIR
1011
243.9668258953434
1021
428.238318302114
1031
0.0
1002
}
1002
{
1000
PORI
1011
241.9668258953434
1021
428.1684767631304
1031
0.0
1002
}
1002
{
1000
PINS
1011
241.9668258953434
1021
430.6684767631304
1031
0.0
1002
}
1002
{
1000
HVAL
1000
5
1002
}
1002
{
1000
H
1070
     2
1002
}
1002
{
1000
WVAL
1000
2
1002
}
1002
{
1000
W
1070
     2
1002
}
1002
{
1000
C
1070
     3
1002
}
1001
GENIUS_GENODEF_13
1002
{
1000
HIER
1070
     0
1002
}
1002
{
1000
MANEDIT
1070
     0
1002
}
1002
{
1000
NOSEL
1070
     0
1002
}
1002
{
1000
BEHIND
1070
     0
1002
}
1002
{
1000
REACTOR
1002
}
1001
GENIUS_GENOBJ-N-REC_13
1002
{
1000
OWNER
1000
GEN
1002
}
  0
LINE
  5
3279
330
1F
100
AcDbEntity
  8
ｽﾃｰﾀｰ
 62
     6
100
AcDbLine
 10
243.9668258953434
 20
433.0986352241468
 30
0.0
 11
241.9668258953434
 21
433.1684767631304
 31
0.0
1001
GENIUS_GENREC_14
1002
{
1000
PYDIR
1011
241.9668258953434
1021
433.1684767631304
1031
0.0
1002
}
1002
{
1000
PXDIR
1011
243.9668258953434
1021
428.238318302114
1031
0.0
1002
}
1002
{
1000
PORI
1011
241.9668258953434
1021
428.1684767631304
1031
0.0
1002
}
1002
{
1000
PINS
1011
241.9668258953434
1021
430.6684767631304
1031
0.0
1002
}
1002
{
1000
HVAL
1000
5
1002
}
1002
{
1000
H
1070
     2
1002
}
1002
{
1000
WVAL
1000
2
1002
}
1002
{
1000
W
1070
     2
1002
}
1002
{
1000
C
1070
     3
1002
}
1001
GENIUS_GENODEF_13
1002
{
1000
HIER
1070
     0
1002
}
1002
{
1000
MANEDIT
1070
     0
1002
}
1002
{
1000
NOSEL
1070
     0
1002
}
1002
{
1000
BEHIND
1070
     0
1002
}
1002
{
1000
REACTOR
1002
}
1001
GENIUS_GENOBJ-N-REC_13
1002
{
1000
OWNER
1000
GEN
1002
}
  0
LINE
  5
327A
330
1F
100
AcDbEntity
  8
ﾌﾞﾗｹｯﾄ
100
AcDbLine
 10
225.4668258953429
 20
404.745119301257
 30
0.0
 11
225.4668258953429
 21
289.1684767631307
 31
0.0
  0
LINE
  5
327B
330
1F
100
AcDbEntity
  8
ﾌﾞﾗｹｯﾄ
100
AcDbLine
 10
222.716825895343
 20
407.1318989212941
 30
0.0
 11
222.716825895343
 21
434.2050546049668
 31
0.0
  0
ARC
  5
327C
330
1F
100
AcDbEntity
  8
ﾌﾞﾗｹｯﾄ
100
AcDbCircle
 10
228.7168258953429
 20
407.1318989212941
 30
0.0
 40
6.0
100
AcDbArc
 50
180.0
 51
237.2028317041747
1001
GENIUS_GENODEF_13
1002
{
1000
HIER
1070
     0
1002
}
1002
{
1000
MANEDIT
1070
     0
1002
}
1002
{
1000
NOSEL
1070
     0
1002
}
1002
{
1000
BEHIND
1070
     0
1002
}
1002
{
1000
REACTOR
1002
}
1001
GENIUS_GENOBJ-N-FIL_13
1002
{
1000
OWNER
1000
GEN
1002
}
  0
ARC
  5
327D
330
1F
100
AcDbEntity
  8
ﾌﾞﾗｹｯﾄ
100
AcDbCircle
 10
228.7168258953429
 20
434.2050546049668
 30
0.0
 40
6.0
100
AcDbArc
 50
95.00000000000001
 51
180.0
1001
GENIUS_GENODEF_13
1002
{
1000
HIER
1070
     0
1002
}
1002
{
1000
MANEDIT
1070
     0
1002
}
1002
{
1000
NOSEL
1070
     0
1002
}
1002
{
1000
BEHIND
1070
     0
1002
}
1002
{
1000
REACTOR
1002
}
1001
GENIUS_GENOBJ-N-FIL_13
1002
{
1000
OWNER
1000
GEN
1002
}
  0
LINE
  5
327E
330
1F
100
AcDbEntity
  8
ﾌﾞﾗｹｯﾄ
100
AcDbLine
 10
228.193891438857
 20
440.1822227935172
 30
0.0
 11
238.3796701525953
 21
441.0733629601529
 31
0.0
  0
LINE
  5
327F
330
1F
100
AcDbEntity
  8
ﾌﾞﾗｹｯﾄ
100
AcDbLine
 10
239.466825895343
 20
440.0771682620614
 30
0.0
 11
239.4668258953431
 21
281.1684767631305
 31
0.0
  0
LINE
  5
3280
330
1F
100
AcDbEntity
  8
ﾌﾞﾗｹｯﾄ
100
AcDbLine
 10
233.4668258953414
 20
281.1684767631305
 30
0.0
 11
239.4668258953425
 21
281.1684767631305
 31
0.0
  0
ARC
  5
3281
330
1F
100
AcDbEntity
  8
ﾌﾞﾗｹｯﾄ
100
AcDbCircle
 10
233.4668258953414
 20
289.1684767631302
 30
0.0
 40
8.0
100
AcDbArc
 50
180.0
 51
270.0
1001
GENIUS_GENODEF_13
1002
{
1000
HIER
1070
     0
1002
}
1002
{
1000
MANEDIT
1070
     0
1002
}
1002
{
1000
NOSEL
1070
     0
1002
}
1002
{
1000
BEHIND
1070
     0
1002
}
1002
{
1000
REACTOR
1002
}
1001
GENIUS_GENOBJ-N-FIL_13
1002
{
1000
OWNER
1000
GEN
1002
}
  0
ARC
  5
3282
330
1F
100
AcDbEntity
  8
ﾌﾞﾗｹｯﾄ
100
AcDbCircle
 10
238.4668258953429
 20
440.0771682620614
 30
0.0
 40
1.0
100
AcDbArc
 50
0.000000000000007
 51
95.00000000000001
1001
GENIUS_GENODEF_13
1002
{
1000
HIER
1070
     0
1002
}
1002
{
1000
MANEDIT
1070
     0
1002
}
1002
{
1000
NOSEL
1070
     0
1002
}
1002
{
1000
BEHIND
1070
     0
1002
}
1002
{
1000
REACTOR
1002
}
1001
GENIUS_GENOBJ-N-FIL_13
1002
{
1000
OWNER
1000
GEN
1002
}
  0
LINE
  5
3283
330
1F
100
AcDbEntity
  8
ﾌﾞﾗｹｯﾄ
100
AcDbLine
 10
323.1866555486611
 20
295.6999394633129
 30
0.0
 11
323.1866555486611
 21
404.4206554295296
 31
0.0
  0
LINE
  5
3284
330
1F
100
AcDbEntity
  8
ﾌﾞﾗｹｯﾄ
100
AcDbLine
 10
348.1866555486611
 20
295.6999394633129
 30
0.0
 11
348.1866555486611
 21
404.4206554295292
 31
0.0
  0
LINE
  5
3289
330
1F
100
AcDbEntity
  8
ﾌﾞﾗｹｯﾄ
100
AcDbLine
 10
349.6866555486609
 20
200.7845655700755
 30
0.0
 11
349.5993536249315
 21
198.284565570075
 31
0.0
  0
LINE
  5
328A
330
1F
100
AcDbEntity
  8
ﾌﾞﾗｹｯﾄ
100
AcDbLine
 10
349.1517347791694
 20
198.284565570075
 30
0.0
 11
349.5993536249315
 21
198.284565570075
 31
0.0
  0
LINE
  5
328B
330
1F
100
AcDbEntity
  8
ﾌﾞﾗｹｯﾄ
100
AcDbLine
 10
321.7739574723907
 20
198.2845655700752
 30
0.0
 11
322.2215763181529
 21
198.2845655700752
 31
0.0
  0
LINE
  5
328C
330
1F
100
AcDbEntity
  8
ﾌﾞﾗｹｯﾄ
100
AcDbLine
 10
321.686655548661
 20
200.7845655700752
 30
0.0
 11
321.7739574723907
 21
198.2845655700752
 31
0.0
  0
ARC
  5
32E0
330
1F
100
AcDbEntity
  8
ｽﾍﾟｰｻｰ
100
AcDbCircle
 10
335.6866555486611
 20
284.1487317342483
 30
0.0
 40
14.52
100
AcDbArc
 50
40.74905437747069
 51
139.2509456225331
  0
LINE
  5
32E1
330
1F
100
AcDbEntity
  8
ｽﾍﾟｰｻｰ
100
AcDbLine
 10
324.6866555486611
 20
293.626621794805
 30
0.0
 11
324.6866555486611
 21
289.1687317342483
 31
0.0
  0
LINE
  5
32E2
330
1F
100
AcDbEntity
  8
ｽﾍﾟｰｻｰ
100
AcDbLine
 10
346.6866555486611
 20
293.626621794805
 30
0.0
 11
346.6866555486611
 21
289.1687317342483
 31
0.0
  0
ARC
  5
32E3
330
1F
100
AcDbEntity
  8
ｽﾍﾟｰｻｰ
100
AcDbCircle
 10
340.186655548661
 20
289.1687317342483
 30
0.0
 40
6.5
100
AcDbArc
 50
270.0
 51
0.0
1001
GENIUS_GENODEF_13
1002
{
1000
HIER
1070
     0
1002
}
1002
{
1000
MANEDIT
1070
     0
1002
}
1002
{
1000
NOSEL
1070
     0
1002
}
1002
{
1000
BEHIND
1070
     0
1002
}
1002
{
1000
REACTOR
1002
}
1001
GENIUS_GENOBJ-N-FIL_13
1002
{
1000
OWNER
1000
GEN
1002
}
  0
ARC
  5
32E4
330
1F
100
AcDbEntity
  8
ｽﾍﾟｰｻｰ
100
AcDbCircle
 10
331.1866555486611
 20
289.1687317342483
 30
0.0
 40
6.5
100
AcDbArc
 50
180.0
 51
270.0
1001
GENIUS_GENODEF_13
1002
{
1000
HIER
1070
     0
1002
}
1002
{
1000
MANEDIT
1070
     0
1002
}
1002
{
1000
NOSEL
1070
     0
1002
}
1002
{
1000
BEHIND
1070
     0
1002
}
1002
{
1000
REACTOR
1002
}
1001
GENIUS_GENOBJ-N-FIL_13
1002
{
1000
OWNER
1000
GEN
1002
}
  0
LINE
  5
32E5
330
1F
100
AcDbEntity
  8
ｽﾍﾟｰｻｰ
100
AcDbLine
 10
331.1866555486611
 20
282.6687317342482
 30
0.0
 11
340.186655548661
 21
282.6687317342482
 31
0.0
  0
CIRCLE
  5
32E7
330
1F
100
AcDbEntity
  8
ﾌﾞﾗｹｯﾄ
100
AcDbCircle
 10
335.6866555486611
 20
293.6687322388016
 30
0.0
 40
2.25
  0
LINE
  5
3760
330
1F
100
AcDbEntity
  8
ﾌﾞﾗｹｯﾄ
100
AcDbLine
 10
324.7866555486615
 20
197.7845655700757
 30
0.0
 11
324.7866555486615
 21
185.7845655700757
 31
0.0
  0
LINE
  5
3761
330
1F
100
AcDbEntity
  8
ﾌﾞﾗｹｯﾄ
100
AcDbLine
 10
324.7866555486615
 20
185.7845655700757
 30
0.0
 11
334.840799821265
 21
185.7845655700757
 31
0.0
  0
LINE
  5
3762
330
1F
100
AcDbEntity
  8
ﾌﾞﾗｹｯﾄ
100
AcDbLine
 10
334.840799821265
 20
185.7845655700757
 30
0.0
 11
334.840799821265
 21
197.7845655700757
 31
0.0
  0
LINE
  5
3763
330
1F
100
AcDbEntity
  8
ﾌﾞﾗｹｯﾄ
100
AcDbLine
 10
336.5407998212655
 20
197.7845655700757
 30
0.0
 11
336.5407998212655
 21
185.7845655700757
 31
0.0
  0
LINE
  5
3764
330
1F
100
AcDbEntity
  8
ﾌﾞﾗｹｯﾄ
100
AcDbLine
 10
336.5407998212655
 20
185.7845655700757
 30
0.0
 11
346.5866555486613
 21
185.7845655700757
 31
0.0
  0
LINE
  5
3765
330
1F
100
AcDbEntity
  8
ﾌﾞﾗｹｯﾄ
100
AcDbLine
 10
346.5866555486613
 20
185.7845655700757
 30
0.0
 11
346.5866555486613
 21
197.7845655700757
 31
0.0
  0
LINE
  5
3B19
330
1F
100
AcDbEntity
  8
ﾌﾞﾗｹｯﾄ
100
AcDbLine
 10
242.4668258953423
 20
298.0816776878431
 30
0.0
 11
254.4668258953431
 21
298.0816776878431
 31
0.0
  0
LINE
  5
3B1A
330
1F
100
AcDbEntity
  8
ﾌﾞﾗｹｯﾄ
100
AcDbLine
 10
254.4668258953431
 20
298.0816776878431
 30
0.0
 11
254.4668258953431
 21
282.7687317342482
 31
0.0
  0
LINE
  5
3B1B
330
1F
100
AcDbEntity
  8
ﾌﾞﾗｹｯﾄ
100
AcDbLine
 10
254.4668258953431
 20
282.7687317342482
 30
0.0
 11
242.4668258953423
 21
282.7687317342483
 31
0.0
  0
LINE
  5
3B1C
330
1F
100
AcDbEntity
  8
ﾌﾞﾗｹｯﾄ
100
AcDbLine
 10
242.4668258953423
 20
293.5898491542184
 30
0.0
 11
254.4668258953431
 21
293.5898491542184
 31
0.0
  0
DIMENSION
  5
3B40
102
{ACAD_XDICTIONARY
360
3B4B
102
}
102
{ACAD_REACTORS
330
3B4C
102
}
330
1F
100
AcDbEntity
  8
AM_5
100
AcDbDimension
  2
*D9
 10
99.75113950462898
 20
280.1687322388016
 30
0.0
 11
91.62613950462896
 21
360.6687318815335
 31
0.0
 70
    32
  1
160
 71
     5
 42
160.9999992854637
  3
AM_ISO$0
100
AcDbAlignedDimension
 13
143.241583665394
 23
441.1687315242653
 33
0.0
 14
138.751140514629
 24
280.1687322388016
 34
0.0
 50
90.00000000000003
100
AcDbRotatedDimension
1001
ACAD
1000
DSTYLE
1002
{
1070
    40
1040
2.5
1070
   271
1070
     0
1002
}
  0
DIMENSION
  5
3BBC
102
{ACAD_XDICTIONARY
360
3BC7
102
}
102
{ACAD_REACTORS
330
3BC8
102
}
330
1F
100
AcDbEntity
  8
AM_5
100
AcDbDimension
  2
*D10
 10
155.746996242025
 20
250.1687312288015
 30
0.0
 11
143.246996242025
 21
258.294592449274
 31
0.0
 70
    32
 71
     5
 42
24.99999999999995
  3
AM_ISO$0
100
AcDbAlignedDimension
 13
130.7469962420251
 23
289.1687322388015
 33
0.0
 14
155.746996242025
 24
289.1687322388015
 34
0.0
 50
0.0000000000001132
100
AcDbRotatedDimension
1001
ACAD
1000
DSTYLE
1002
{
1070
    40
1040
2.5
1070
   271
1070
     1
1002
}
  0
VIEWPORT
  5
17C
102
{ACAD_XDICTIONARY
360
3D9F
102
}
330
23
100
AcDbEntity
 67
     1
  8
0
100
AcDbViewport
 10
133.3499908447265
 20
101.5999970436096
 30
0.0
 40
370.2266912936524
 41
228.4221935424805
 68
     1
 69
     1
 12
133.3499908447265
 22
101.5999970436096
 13
0.0
 23
0.0
 14
10.0
 24
10.0
 15
10.0
 25
10.0
 16
0.0
 26
0.0
 36
1.0
 17
0.0
 27
0.0
 37
0.0
 42
50.0
 43
0.0
 44
0.0
 45
228.4221935424805
 50
0.0
 51
0.0
 72
   100
 90
    32800
  1

281
     0
 71
     1
 74
     0
110
0.0
120
0.0
130
0.0
111
1.0
121
0.0
131
0.0
112
0.0
122
1.0
132
0.0
 79
     0
146
0.0
  0
ENDSEC
  0
SECTION
  2
OBJECTS
  0
DICTIONARY
  5
C
330
0
100
AcDbDictionary
281
     1
  3
ACAD_COLOR
350
BE
  3
ACAD_GROUP
350
D
  3
ACAD_LAYOUT
350
1A
  3
ACAD_MATERIAL
350
BD
  3
ACAD_MLINESTYLE
350
17
  3
ACAD_PLOTSETTINGS
350
19
  3
ACAD_PLOTSTYLENAME
350
E
  3
ACAD_TABLESTYLE
350
269E
  3
ACDBHEADERROUNDTRIPXREC
350
3D96
  3
AcDbVariableDictionary
350
94
  3
AcmDictionary
350
5B
  3
AMG
350
41
  3
AMGSNAPSETTINGS
350
220
  3
DWGPROPS
350
3D95
  0
DICTIONARY
  5
35D
330
2
100
AcDbDictionary
280
     1
281
     1
  3
ACAD_LAYERFILTERS
360
3BE9
  3
ACAD_LAYERSTATES
360
35E
  3
ACLYDICTIONARY
360
3BE8
  3
AMLAYER_GROUPCOLORS
360
4A4
  0
DICTIONARY
  5
8F
330
1F
100
AcDbDictionary
280
     1
281
     1
  3
ACAD_SORTENTS
360
29CF
  0
DICTIONARY
  5
219
330
210
100
AcDbDictionary
280
     1
281
     1
  0
DICTIONARY
  5
282
330
22D
100
AcDbDictionary
280
     1
281
     1
  0
DICTIONARY
  5
26D0
330
26C8
100
AcDbDictionary
280
     1
281
     1
  0
DICTIONARY
  5
2735
330
26DC
100
AcDbDictionary
280
     1
281
     1
  0
DICTIONARY
  5
2DE5
330
2DDD
100
AcDbDictionary
280
     1
281
     1
  0
DICTIONARY
  5
3D9D
330
178
100
AcDbDictionary
280
     1
281
     1
  3
ACAD_XREC_ROUNDTRIP
360
3D9E
  0
DICTIONARY
  5
3B4B
330
3B40
100
AcDbDictionary
280
     1
281
     1
  3
ACAD_DIMASSOC
360
3B4C
  0
DICTIONARY
  5
3BC7
330
3BBC
100
AcDbDictionary
280
     1
281
     1
  3
ACAD_DIMASSOC
360
3BC8
  0
DICTIONARY
  5
3D9F
330
17C
100
AcDbDictionary
280
     1
281
     1
  3
ACAD_XREC_ROUNDTRIP
360
3DA0
  0
DICTIONARY
  5
BE
102
{ACAD_REACTORS
330
C
102
}
330
C
100
AcDbDictionary
281
     1
  0
DICTIONARY
  5
D
102
{ACAD_REACTORS
330
C
102
}
330
C
100
AcDbDictionary
281
     1
  0
DICTIONARY
  5
1A
102
{ACAD_REACTORS
330
C
102
}
330
C
100
AcDbDictionary
281
     1
  3
Model
350
22
  3
レイアウト1
350
1E
  3
レイアウト2
350
26
  0
DICTIONARY
  5
BD
102
{ACAD_REACTORS
330
C
102
}
330
C
100
AcDbDictionary
281
     1
  0
DICTIONARY
  5
17
102
{ACAD_REACTORS
330
C
102
}
330
C
100
AcDbDictionary
281
     1
  3
Standard
350
18
  0
DICTIONARY
  5
19
102
{ACAD_REACTORS
330
C
102
}
330
C
100
AcDbDictionary
281
     1
  0
ACDBDICTIONARYWDFLT
  5
E
102
{ACAD_REACTORS
330
C
102
}
330
C
100
AcDbDictionary
281
     1
  3
Normal
350
F
100
AcDbDictionaryWithDefault
340
F
  0
DICTIONARY
  5
269E
102
{ACAD_REACTORS
330
C
102
}
330
C
100
AcDbDictionary
281
     1
  3
Standard
350
269F
  0
DICTIONARY
  5
3D96
102
{ACAD_REACTORS
330
C
102
}
330
C
100
AcDbDictionary
281
     1
  0
DICTIONARY
  5
94
102
{ACAD_REACTORS
330
C
102
}
330
C
100
AcDbDictionary
281
     1
  3
CTABLESTYLE
350
276A
  3
DIMASSOC
350
96
  3
INDEXCTL
350
95
  3
PROJECTNAME
350
3D93
  0
DICTIONARY
  5
5B
102
{ACAD_REACTORS
330
C
102
}
330
C
100
AcDbDictionary
281
     1
  3
AcmBOM
350
5AE
  3
AcmStdDictionary
350
61
  3
AMDTSECTSYM_ARROWCOLOR
350
26B9
  0
DICTIONARY
  5
41
102
{ACAD_REACTORS
330
C
102
}
330
C
100
AcDbDictionary
281
     1
  0
DICTIONARY
  5
220
102
{ACAD_REACTORS
330
C
102
}
330
C
100
AcDbDictionary
281
     1
  0
XRECORD
  5
3D95
102
{ACAD_REACTORS
330
C
102
}
330
C
100
AcDbXrecord
280
     1
  1
DWGPROPS COOKIE
  2

  3

  4

  6

  7

  8

  9

300
AmdtFileType=84
301
=
302
=
303
=
304
=
305
=
306
=
307
=
308
=
309
=
 40
0.2817619444444444
 41
2453259.38413809
 42
2455675.496725255
  1

 90
        1
  0
DICTIONARY
  5
3BE9
102
{ACAD_REACTORS
330
35D
102
}
330
35D
100
AcDbDictionary
281
     1
  0
DICTIONARY
  5
35E
102
{ACAD_REACTORS
330
35D
102
}
330
35D
100
AcDbDictionary
281
     1
  3
takachi1
350
35F
  0
DICTIONARY
  5
3BE8
102
{ACAD_REACTORS
330
35D
102
}
330
35D
100
AcDbDictionary
281
     1
1001
ACAD
1000
<All
  0
DICTIONARY
  5
4A4
102
{ACAD_REACTORS
330
35D
102
}
330
35D
100
AcDbDictionary
280
     1
281
     1
  0
SORTENTSTABLE
  5
29CF
102
{ACAD_REACTORS
330
8F
102
}
330
8F
100
AcDbSortentsTable
330
1F
331
3228
  5
3228
331
3240
  5
3240
331
327F
  5
327E
331
3250
  5
3250
331
31AB
  5
31AB
331
3164
  5
3164
331
2799
  5
2799
331
273A
  5
273A
331
31B3
  5
31B3
331
316C
  5
316C
331
3125
  5
3125
331
27A1
  5
27A1
331
2AC0
  5
2AC0
331
31BB
  5
31BB
331
3174
  5
3174
331
312D
  5
312D
331
317C
  5
317C
331
31C1
  5
31C1
331
3260
  5
325F
331
31C9
  5
31C9
331
32E7
  5
32E5
331
3268
  5
3267
331
3270
  5
326F
331
2F46
  5
2F46
331
3135
  5
3135
331
27B9
  5
27B9
331
314D
  5
314D
331
319C
  5
319C
331
3155
  5
3155
331
310E
  5
310E
331
31A4
  5
31A4
331
3278
  5
3277
331
3229
  5
3229
331
3280
  5
327F
331
3251
  5
346E
331
31AC
  5
31AC
331
3165
  5
3165
331
311E
  5
311E
331
31B4
  5
31B4
331
3126
  5
3126
331
2AC1
  5
2AC1
331
31BC
  5
31BC
331
3175
  5
3175
331
312E
  5
312E
331
317D
  5
317D
331
31C2
  5
31C2
331
32E0
  5
328C
331
3261
  5
3260
331
31CA
  5
31CA
331
3269
  5
3268
331
3271
  5
3270
331
314E
  5
314E
331
27C2
  5
27C2
331
319D
  5
319D
331
3156
  5
3156
331
310F
  5
310F
331
31A5
  5
31A5
331
3279
  5
3278
331
322A
  5
322A
331
3281
  5
3280
331
3289
  5
3284
331
3252
  5
3251
331
31AD
  5
31AD
331
3166
  5
3166
331
311F
  5
311F
331
31B5
  5
31B5
331
3127
  5
3127
331
31BD
  5
31BD
331
3176
  5
3176
331
317E
  5
317E
331
31C3
  5
31C3
331
32E1
  5
32E0
331
3262
  5
3261
331
31CB
  5
31CB
331
326A
  5
3269
331
3272
  5
3271
331
27AB
  5
27AB
331
314F
  5
314F
331
319E
  5
319E
331
3110
  5
3110
331
3157
  5
3157
331
31A6
  5
31A6
331
327A
  5
3279
331
322B
  5
322B
331
3282
  5
3281
331
328A
  5
3289
331
3253
  5
3252
331
2794
  5
2794
331
3118
  5
3118
331
31AE
  5
31AE
331
3167
  5
3167
331
3120
  5
3120
331
31B6
  5
31B6
331
3128
  5
3128
331
31BE
  5
31BE
331
3177
  5
3177
331
317F
  5
317F
331
32E2
  5
32E1
331
31C4
  5
31C4
331
325B
  5
3257
331
31CC
  5
31CC
331
3263
  5
3262
331
326B
  5
326A
331
3273
  5
3272
331
3130
  5
3130
331
3197
  5
3197
331
3150
  5
3150
331
3109
  5
3109
331
319F
  5
319F
331
3158
  5
3158
331
3111
  5
3111
331
31A7
  5
31A7
331
327B
  5
327A
331
3283
  5
3282
331
328B
  5
328A
331
3254
  5
3253
331
3119
  5
3119
331
31AF
  5
31AF
331
279D
  5
279D
331
3168
  5
3168
331
31B7
  5
31B7
331
3129
  5
3129
331
31BF
  5
31BF
331
3178
  5
3178
331
32E3
  5
32E2
331
31C5
  5
31C5
331
325C
  5
325B
331
3264
  5
3263
331
31CD
  5
31CD
331
326C
  5
326B
331
3274
  5
3273
331
3180
  5
3180
331
3131
  5
3131
331
27BD
  5
27BD
331
3149
  5
3149
331
3198
  5
3198
331
3151
  5
3151
331
310A
  5
310A
331
31A0
  5
31A0
331
327C
  5
327B
331
3284
  5
3283
331
328C
  5
328B
331
3255
  5
3254
331
31A8
  5
31A8
331
31B0
  5
31B0
331
3169
  5
3169
331
2ABD
  5
2ABD
331
3122
  5
3122
331
31B8
  5
31B8
331
3171
  5
3171
331
312A
  5
312A
331
3179
  5
3179
331
32E4
  5
32E3
331
325D
  5
325C
331
31C6
  5
31C6
331
3265
  5
3264
331
31CE
  5
31CE
331
326D
  5
326C
331
3275
  5
3274
331
3226
  5
3226
331
314A
  5
314A
331
3199
  5
3199
331
3152
  5
3152
331
310B
  5
310B
331
31A1
  5
31A1
331
327D
  5
327C
331
324E
  5
324E
331
3256
  5
3255
331
31A9
  5
31A9
331
31B1
  5
31B1
331
316A
  5
316A
331
3123
  5
3123
331
31B9
  5
31B9
331
3172
  5
3172
331
312B
  5
312B
331
317A
  5
317A
331
32E5
  5
32E4
331
325E
  5
325D
331
31C7
  5
31C7
331
26DA
  5
26DA
331
3266
  5
3265
331
31CF
  5
31CF
331
326E
  5
326D
331
3276
  5
3275
331
3227
  5
3227
331
3133
  5
3133
331
314B
  5
314B
331
319A
  5
319A
331
3153
  5
3153
331
31A2
  5
31A2
331
327E
  5
327D
331
324F
  5
324F
331
3257
  5
3256
331
31AA
  5
31AA
331
3163
  5
3163
331
31B2
  5
31B2
331
316B
  5
316B
331
3124
  5
3124
331
2ABF
  5
2ABF
331
31BA
  5
31BA
331
3173
  5
3173
331
312C
  5
312C
331
317B
  5
317B
331
31C0
  5
31C0
331
325F
  5
325E
331
31C8
  5
31C8
331
3267
  5
3266
331
31D0
  5
31D0
331
326F
  5
326E
331
3277
  5
3276
331
3134
  5
3134
331
314C
  5
314C
331
319B
  5
319B
331
3154
  5
3154
331
310D
  5
310D
331
31A3
  5
31A3
  0
XRECORD
  5
3D9E
102
{ACAD_REACTORS
330
3D9D
102
}
330
3D9D
100
AcDbXrecord
280
     1
102
SHADEPLOT
 70
     0
  0
DIMASSOC
  5
3B4C
102
{ACAD_REACTORS
330
3B4B
102
}
330
3B4B
100
AcDbDimAssoc
330
3B40
 90
        2
 70
     0
 71
     0
  1
AcDbOsnapPointRef
 72
     1
331
3229
 73
     0
 91
        0
 40
0.0
 10
0.0
 20
0.0
 30
2.000000000000000E+50
 75
     0
  0
DIMASSOC
  5
3BC8
102
{ACAD_REACTORS
330
3BC7
102
}
330
3BC7
100
AcDbDimAssoc
330
3BBC
 90
        3
 70
     0
 71
     0
  1
AcDbOsnapPointRef
 72
    13
331
3155
 73
     0
 91
        0
 40
0.0
 10
0.0
 20
0.0
 30
2.000000000000000E+50
 75
     0
  1
AcDbOsnapPointRef
 72
     1
331
3154
 73
     0
 91
        0
 40
0.0
 10
0.0
 20
0.0
 30
2.000000000000000E+50
 75
     0
  0
XRECORD
  5
3DA0
102
{ACAD_REACTORS
330
3D9F
102
}
330
3D9F
100
AcDbXrecord
280
     1
102
SHADEPLOT
 70
     0
  0
LAYOUT
  5
22
102
{ACAD_XDICTIONARY
360
3D99
102
}
102
{ACAD_REACTORS
330
1A
102
}
330
1A
100
AcDbPlotSettings
  1

  2
RICOH IPSiO CX7200 RPCS
  4
A3
  6
AM_VIEW1
 40
5.873749732971191
 41
5.873747825622558
 42
5.873748779296875
 43
5.873748779296875
 44
296.9259948730469
 45
419.9466552734374
 46
2.589999999999999
 47
4.099999999999999
 48
10.0
 49
0.0
140
410.0
141
280.0
142
1.0
143
1.0
 70
 11956
 72
     1
 73
     1
 74
     4
  7
takachi-1.ctb
 75
    16
147
1.0
148
-10.0
149
0.0
100
AcDbLayout
  1
Model
 70
     1
 71
     0
 10
0.0
 20
0.0
 11
12.0
 21
9.0
 12
0.0
 22
0.0
 32
0.0
 14
0.0
 24
0.0
 34
0.0
 15
0.0
 25
0.0
 35
0.0
146
0.0
 13
0.0
 23
0.0
 33
0.0
 16
1.0
 26
0.0
 36
0.0
 17
0.0
 27
1.0
 37
0.0
 76
     0
330
1F
  0
LAYOUT
  5
1E
102
{ACAD_XDICTIONARY
360
3D97
102
}
102
{ACAD_REACTORS
330
1A
102
}
330
1A
100
AcDbPlotSettings
  1

  2
none_device
  4
Letter_(8.50_x_11.00_Inches)
  6

 40
6.349999904632568
 41
6.349999904632568
 42
6.350006103515625
 43
6.350006103515625
 44
215.8999938964844
 45
279.3999938964844
 46
0.0
 47
0.0
 48
0.0
 49
0.0
140
0.0
141
0.0
142
1.0
143
1.0
 70
   688
 72
     1
 73
     1
 74
     5
  7
takachi-1.ctb
 75
    16
147
1.0
148
0.0
149
0.0
100
AcDbLayout
  1
レイアウト1
 70
     1
 71
     1
 10
-6.350006103515625
 20
-6.349999904632568
 11
273.0499877929688
 21
209.5499939918518
 12
0.0
 22
0.0
 32
0.0
 14
1.000000000000000E+20
 24
1.000000000000000E+20
 34
1.000000000000000E+20
 15
-1.000000000000000E+20
 25
-1.000000000000000E+20
 35
-1.000000000000000E+20
146
0.0
 13
0.0
 23
0.0
 33
0.0
 16
1.0
 26
0.0
 36
0.0
 17
0.0
 27
1.0
 37
0.0
 76
     0
330
1B
331
178
  0
LAYOUT
  5
26
102
{ACAD_XDICTIONARY
360
3D9B
102
}
102
{ACAD_REACTORS
330
1A
102
}
330
1A
100
AcDbPlotSettings
  1

  2
none_device
  4
Letter_(8.50_x_11.00_Inches)
  6

 40
6.349999904632568
 41
6.349999904632568
 42
6.350006103515625
 43
6.350006103515625
 44
215.8999938964844
 45
279.3999938964844
 46
0.0
 47
0.0
 48
0.0
 49
0.0
140
0.0
141
0.0
142
1.0
143
1.0
 70
   688
 72
     1
 73
     1
 74
     5
  7
takachi-1.ctb
 75
    16
147
1.0
148
0.0
149
0.0
100
AcDbLayout
  1
レイアウト2
 70
     1
 71
     2
 10
-6.350006103515625
 20
-6.349999904632568
 11
273.0499877929688
 21
209.5499939918518
 12
0.0
 22
0.0
 32
0.0
 14
1.000000000000000E+20
 24
1.000000000000000E+20
 34
1.000000000000000E+20
 15
-1.000000000000000E+20
 25
-1.000000000000000E+20
 35
-1.000000000000000E+20
146
0.0
 13
0.0
 23
0.0
 33
0.0
 16
1.0
 26
0.0
 36
0.0
 17
0.0
 27
1.0
 37
0.0
 76
     0
330
23
331
17C
  0
MLINESTYLE
  5
18
102
{ACAD_REACTORS
330
17
102
}
330
17
100
AcDbMlineStyle
  2
STANDARD
 70
     0
  3

 62
   256
 51
90.0
 52
90.0
 71
     2
 49
0.5
 62
   256
  6
BYLAYER
 49
-0.5
 62
   256
  6
BYLAYER
  0
ACDBPLACEHOLDER
  5
F
102
{ACAD_REACTORS
330
E
102
}
330
E
  0
TABLESTYLE
  5
269F
102
{ACAD_REACTORS
330
269E
102
}
330
269E
100
AcDbTableStyle
  3
Standard
 70
     0
 71
     0
 40
1.5
 41
1.5
280
     0
281
     0
  7
STANDARD
140
4.5
170
     2
 62
     0
 63
     7
283
     0
274
    -2
284
     1
 64
     0
275
    -2
285
     1
 65
     0
276
    -2
286
     1
 66
     0
277
    -2
287
     1
 67
     0
278
    -2
288
     1
 68
     0
279
    -2
289
     1
 69
     0
  7
STANDARD
140
6.0
170
     5
 62
     0
 63
     7
283
     0
274
    -2
284
     1
 64
     0
275
    -2
285
     1
 65
     0
276
    -2
286
     1
 66
     0
277
    -2
287
     1
 67
     0
278
    -2
288
     1
 68
     0
279
    -2
289
     1
 69
     0
  7
STANDARD
140
4.5
170
     5
 62
     0
 63
     7
283
     0
274
    -2
284
     1
 64
     0
275
    -2
285
     1
 65
     0
276
    -2
286
     1
 66
     0
277
    -2
287
     1
 67
     0
278
    -2
288
     1
 68
     0
279
    -2
289
     1
 69
     0
  0
DICTIONARYVAR
  5
276A
102
{ACAD_REACTORS
330
94
102
}
330
94
100
DictionaryVariables
280
     0
  1
STANDARD
  0
DICTIONARYVAR
  5
96
102
{ACAD_REACTORS
330
94
102
}
330
94
100
DictionaryVariables
280
     0
  1
2
  0
DICTIONARYVAR
  5
95
102
{ACAD_REACTORS
330
94
102
}
330
94
100
DictionaryVariables
280
     0
  1
0
  0
DICTIONARYVAR
  5
3D93
102
{ACAD_REACTORS
330
94
102
}
330
94
100
DictionaryVariables
280
     0
  1

  0
DICTIONARY
  5
5AE
102
{ACAD_REACTORS
330
5B
102
}
330
5B
100
AcDbDictionary
281
     1
  0
DICTIONARY
  5
61
102
{ACAD_REACTORS
330
5B
102
}
330
5B
100
AcDbDictionary
281
     1
  0
XRECORD
  5
26B9
102
{ACAD_REACTORS
330
5B
102
}
330
5B
100
AcDbXrecord
280
     1
 90
-1023410169
  0
XRECORD
  5
35F
102
{ACAD_REACTORS
330
35E
102
}
330
35E
100
AcDbXrecord
280
     1
 91
       16
330
0
 90
        8
 62
    91
370
    15
331
64
  1
色_91
330
302
 90
        8
 62
    91
370
    25
331
16
  1
色_91
330
0
 90
        8
 62
    51
370
    15
331
64
  1
色_51
330
0
 90
        8
 62
    51
370
    25
331
16
  1
色_51
330
0
 90
        8
 62
     7
370
    15
331
64
  1
色_7
330
1FA
 90
        8
 62
     7
370
    25
331
16
  1
色_7
330
206
 90
        8
 62
     1
370
    -3
331
16
  1
色_1
330
0
 90
        8
 62
     1
370
    -3
331
16
  1
色_1
330
1E1
 90
        0
 62
     7
370
    -3
331
16
  1
色_7
330
0
 90
        8
 62
     1
370
    25
331
67
  1
色_1
330
0
 90
        8
 62
     4
370
    25
331
65
  1
色_4
330
307
 90
        8
 62
     3
370
    20
331
16
  1
色_3
330
22C
 90
        8
 62
     4
370
    -3
331
203
  1
色_4
330
10
 90
        8
 62
     7
370
    -3
331
16
  1
色_7
  0
DICTIONARY
  5
3D99
330
22
100
AcDbDictionary
280
     1
281
     1
  3
ACAD_XREC_ROUNDTRIP
360
3D9A
  0
DICTIONARY
  5
3D97
330
1E
100
AcDbDictionary
280
     1
281
     1
  3
ACAD_XREC_ROUNDTRIP
360
3D98
  0
DICTIONARY
  5
3D9B
330
26
100
AcDbDictionary
280
     1
281
     1
  3
ACAD_XREC_ROUNDTRIP
360
3D9C
  0
XRECORD
  5
3D9A
102
{ACAD_REACTORS
330
3D99
102
}
330
3D99
100
AcDbXrecord
280
     1
102
SHADEPLOT
 70
     0
102
SHADEPLOTRESLEVEL
 70
     2
102
SHADEPLOTCUSTOMDPI
 70
   300
  0
XRECORD
  5
3D98
102
{ACAD_REACTORS
330
3D97
102
}
330
3D97
100
AcDbXrecord
280
     1
102
SHADEPLOT
 70
     1
102
SHADEPLOTRESLEVEL
 70
     2
102
SHADEPLOTCUSTOMDPI
 70
   300
  0
XRECORD
  5
3D9C
102
{ACAD_REACTORS
330
3D9B
102
}
330
3D9B
100
AcDbXrecord
280
     1
102
SHADEPLOT
 70
     1
102
SHADEPLOTRESLEVEL
 70
     2
102
SHADEPLOTCUSTOMDPI
 70
   300
  0
ENDSEC
  0
EOF
