  0
SECTION
  2
HEADER
  9
$ACADVER
  1
AC1015
  9
$ACADMAINTVER
 70
    20
  9
$DWGCODEPAGE
  3
ANSI_932
  9
$INSBASE
 10
0.0
 20
0.0
 30
0.0
  9
$EXTMIN
 10
-0.0308777923684147
 20
-0.0427226535482532
 30
-0.0000000349181948
  9
$EXTMAX
 10
482.5046548397104
 20
700.0427291730045
 30
0.0000000814935746
  9
$LIMMIN
 10
0.0
 20
0.0
  9
$LIMMAX
 10
482.5
 20
700.0
  9
$ORTHOMODE
 70
     1
  9
$REGENMODE
 70
     1
  9
$FILLMODE
 70
     1
  9
$QTEXTMODE
 70
     0
  9
$MIRRTEXT
 70
     1
  9
$LTSCALE
 40
2.5
  9
$ATTMODE
 70
     1
  9
$TEXTSIZE
 40
73.98571745357912
  9
$TRACEWID
 40
1.0
  9
$TEXTSTYLE
  7
STANDARD
  9
$CLAYER
  8
0
  9
$CELTYPE
  6
ByLayer
  9
$CECOLOR
 62
   256
  9
$CELTSCALE
 40
1.0
  9
$DISPSILH
 70
     0
  9
$DIMSCALE
 40
2.5
  9
$DIMASZ
 40
2.5
  9
$DIMEXO
 40
1.0
  9
$DIMDLI
 40
10.0
  9
$DIMRND
 40
0.0
  9
$DIMDLE
 40
0.0
  9
$DIMEXE
 40
1.0
  9
$DIMTP
 40
0.1
  9
$DIMTM
 40
0.1
  9
$DIMTXT
 40
3.5
  9
$DIMCEN
 40
0.0
  9
$DIMTSZ
 40
0.0
  9
$DIMTOL
 70
     0
  9
$DIMLIM
 70
     0
  9
$DIMTIH
 70
     0
  9
$DIMTOH
 70
     0
  9
$DIMSE1
 70
     0
  9
$DIMSE2
 70
     0
  9
$DIMTAD
 70
     1
  9
$DIMZIN
 70
     8
  9
$DIMBLK
  1
Open30
  9
$DIMASO
 70
     1
  9
$DIMSHO
 70
     1
  9
$DIMPOST
  1

  9
$DIMAPOST
  1
"
  9
$DIMALT
 70
     0
  9
$DIMALTD
 70
     2
  9
$DIMALTF
 40
0.0393701
  9
$DIMLFAC
 40
1.0
  9
$DIMTOFL
 70
     1
  9
$DIMTVP
 40
0.0
  9
$DIMTIX
 70
     0
  9
$DIMSOXD
 70
     0
  9
$DIMSAH
 70
     0
  9
$DIMBLK1
  1

  9
$DIMBLK2
  1

  9
$DIMSTYLE
  2
AM_ISO
  9
$DIMCLRD
 70
   256
  9
$DIMCLRE
 70
   256
  9
$DIMCLRT
 70
     2
  9
$DIMTFAC
 40
0.71
  9
$DIMGAP
 40
1.5
  9
$DIMJUST
 70
     0
  9
$DIMSD1
 70
     0
  9
$DIMSD2
 70
     0
  9
$DIMTOLJ
 70
     0
  9
$DIMTZIN
 70
     8
  9
$DIMALTZ
 70
     0
  9
$DIMALTTZ
 70
     0
  9
$DIMUPT
 70
     0
  9
$DIMDEC
 70
     1
  9
$DIMTDEC
 70
     2
  9
$DIMALTU
 70
     2
  9
$DIMALTTD
 70
     2
  9
$DIMTXSTY
  7
STANDARD
  9
$DIMAUNIT
 70
     0
  9
$DIMADEC
 70
     0
  9
$DIMALTRND
 40
0.0
  9
$DIMAZIN
 70
     2
  9
$DIMDSEP
 70
    46
  9
$DIMATFIT
 70
     3
  9
$DIMFRAC
 70
     0
  9
$DIMLDRBLK
  1
Open30
  9
$DIMLUNIT
 70
     2
  9
$DIMLWD
 70
    -1
  9
$DIMLWE
 70
    -1
  9
$DIMTMOVE
 70
     0
  9
$LUNITS
 70
     2
  9
$LUPREC
 70
     2
  9
$SKETCHINC
 40
1.0
  9
$FILLETRAD
 40
17.5
  9
$AUNITS
 70
     0
  9
$AUPREC
 70
     0
  9
$MENU
  1
.
  9
$ELEVATION
 40
0.0
  9
$PELEVATION
 40
0.0
  9
$THICKNESS
 40
0.0
  9
$LIMCHECK
 70
     0
  9
$CHAMFERA
 40
6.25
  9
$CHAMFERB
 40
6.25
  9
$CHAMFERC
 40
20.0
  9
$CHAMFERD
 40
0.0
  9
$SKPOLY
 70
     0
  9
$TDCREATE
 40
2453259.384138090
  9
$TDUCREATE
 40
2453259.009138090
  9
$TDUPDATE
 40
2455675.495804931
  9
$TDUUPDATE
 40
2455675.120804931
  9
$TDINDWG
 40
0.2614476389
  9
$TDUSRTIMER
 40
0.2614476389
  9
$USRTIMER
 70
     1
  9
$ANGBASE
 50
0.0
  9
$ANGDIR
 70
     0
  9
$PDMODE
 70
     0
  9
$PDSIZE
 40
0.0
  9
$PLINEWID
 40
0.0
  9
$SPLFRAME
 70
     0
  9
$SPLINETYPE
 70
     6
  9
$SPLINESEGS
 70
     8
  9
$HANDSEED
  5
3303
  9
$SURFTAB1
 70
     6
  9
$SURFTAB2
 70
     6
  9
$SURFTYPE
 70
     6
  9
$SURFU
 70
     6
  9
$SURFV
 70
     6
  9
$UCSBASE
  2

  9
$UCSNAME
  2

  9
$UCSORG
 10
0.0
 20
0.0
 30
0.0
  9
$UCSXDIR
 10
1.0
 20
0.0
 30
0.0
  9
$UCSYDIR
 10
0.0
 20
1.0
 30
0.0
  9
$UCSORTHOREF
  2

  9
$UCSORTHOVIEW
 70
     0
  9
$UCSORGTOP
 10
0.0
 20
0.0
 30
0.0
  9
$UCSORGBOTTOM
 10
0.0
 20
0.0
 30
0.0
  9
$UCSORGLEFT
 10
0.0
 20
0.0
 30
0.0
  9
$UCSORGRIGHT
 10
0.0
 20
0.0
 30
0.0
  9
$UCSORGFRONT
 10
0.0
 20
0.0
 30
0.0
  9
$UCSORGBACK
 10
0.0
 20
0.0
 30
0.0
  9
$PUCSBASE
  2

  9
$PUCSNAME
  2

  9
$PUCSORG
 10
0.0
 20
0.0
 30
0.0
  9
$PUCSXDIR
 10
1.0
 20
0.0
 30
0.0
  9
$PUCSYDIR
 10
0.0
 20
1.0
 30
0.0
  9
$PUCSORTHOREF
  2

  9
$PUCSORTHOVIEW
 70
     0
  9
$PUCSORGTOP
 10
0.0
 20
0.0
 30
0.0
  9
$PUCSORGBOTTOM
 10
0.0
 20
0.0
 30
0.0
  9
$PUCSORGLEFT
 10
0.0
 20
0.0
 30
0.0
  9
$PUCSORGRIGHT
 10
0.0
 20
0.0
 30
0.0
  9
$PUCSORGFRONT
 10
0.0
 20
0.0
 30
0.0
  9
$PUCSORGBACK
 10
0.0
 20
0.0
 30
0.0
  9
$USERI1
 70
     0
  9
$USERI2
 70
     0
  9
$USERI3
 70
     0
  9
$USERI4
 70
     0
  9
$USERI5
 70
     0
  9
$USERR1
 40
0.0
  9
$USERR2
 40
0.0
  9
$USERR3
 40
0.0
  9
$USERR4
 40
0.0
  9
$USERR5
 40
0.0
  9
$WORLDVIEW
 70
     1
  9
$SHADEDGE
 70
     3
  9
$SHADEDIF
 70
    70
  9
$TILEMODE
 70
     1
  9
$MAXACTVP
 70
    64
  9
$PINSBASE
 10
0.0
 20
0.0
 30
0.0
  9
$PLIMCHECK
 70
     0
  9
$PEXTMIN
 10
1.000000000000000E+20
 20
1.000000000000000E+20
 30
1.000000000000000E+20
  9
$PEXTMAX
 10
-1.000000000000000E+20
 20
-1.000000000000000E+20
 30
-1.000000000000000E+20
  9
$PLIMMIN
 10
-6.350006103515625
 20
-6.349999904632568
  9
$PLIMMAX
 10
273.0499877929688
 20
209.5499939918518
  9
$UNITMODE
 70
     0
  9
$VISRETAIN
 70
     1
  9
$PLINEGEN
 70
     0
  9
$PSLTSCALE
 70
     1
  9
$TREEDEPTH
 70
  3020
  9
$CMLSTYLE
  2
Standard
  9
$CMLJUST
 70
     0
  9
$CMLSCALE
 40
20.0
  9
$PROXYGRAPHICS
 70
     1
  9
$MEASUREMENT
 70
     1
  9
$CELWEIGHT
370
    -1
  9
$ENDCAPS
280
     0
  9
$JOINSTYLE
280
     0
  9
$LWDISPLAY
290
     0
  9
$INSUNITS
 70
     4
  9
$HYPERLINKBASE
  1

  9
$STYLESHEET
  1
takachi-1.ctb
  9
$XEDIT
290
     1
  9
$CEPSNTYPE
380
     0
  9
$PSTYLEMODE
290
     1
  9
$FINGERPRINTGUID
  2
{FDEAD578-A652-11D2-9A35-0060089B3A3F}
  9
$VERSIONGUID
  2
{E5C72607-2253-4C7E-B1B5-200BBC43C1A5}
  9
$EXTNAMES
290
     1
  9
$PSVPSCALE
 40
0.0
  9
$OLESTARTUP
290
     0
  0
ENDSEC
  0
SECTION
  2
CLASSES
  0
CLASS
  1
ACDBDICTIONARYWDFLT
  2
AcDbDictionaryWithDefault
  3
ObjectDBX Classes
 90
        0
280
     0
281
     0
  0
CLASS
  1
ACDBPLACEHOLDER
  2
AcDbPlaceHolder
  3
ObjectDBX Classes
 90
        0
280
     0
281
     0
  0
CLASS
  1
LAYOUT
  2
AcDbLayout
  3
ObjectDBX Classes
 90
        0
280
     0
281
     0
  0
CLASS
  1
ACME_DOCUMENT
  2
AcMeDbDoc
  3
AcMeServices
 90
        0
280
     0
281
     0
  0
CLASS
  1
AMGSETTINGSOBJ
  2
AmgSettingsObj
  3
"AcadM|Product Description: AutoCAD Mechanical 2000|Company: Autodesk"
 90
        0
280
     0
281
     0
  0
CLASS
  1
ACMESCOPE
  2
AcMeScope
  3
AcMeServices
 90
        0
280
     0
281
     0
  0
CLASS
  1
ACMECOMMANDHISTORY
  2
AcMeCommandHistory
  3
AcMeServices
 90
        0
280
     0
281
     0
  0
CLASS
  1
ACIMSYSVARMAN
  2
AcImSysVarManager
  3
AcMeServices
 90
        0
280
     0
281
     0
  0
CLASS
  1
ACIMREALSYSVAR
  2
AcImRealSysVar
  3
AcMeServices
 90
        0
280
     0
281
     0
  0
CLASS
  1
ACIMINTSYSVAR
  2
AcImIntSysVar
  3
AcMeServices
 90
        0
280
     0
281
     0
  0
CLASS
  1
ACMEDRAWINGMAN
  2
AcMeDrawingMan
  3
AcMeServices
 90
        0
280
     0
281
     0
  0
CLASS
  1
ACMEVIEW
  2
AcMeView
  3
AcMeServices
 90
        0
280
     0
281
     0
  0
CLASS
  1
ACDBENTITYCACHE
  2
AcMeEntityCache
  3
AcMeServices
 90
        0
280
     0
281
     0
  0
CLASS
  1
GSMANAGER
  2
AcMeGSManager
  3
AcMeServices
 90
        0
280
     0
281
     0
  0
CLASS
  1
AMDTINTERNALREACTOR
  2
AmdtInternalReactor
  3
AcMeServices
 90
        0
280
     0
281
     0
  0
CLASS
  1
ACMESTATEMGR
  2
AcMeStateMgr
  3
AcMeServices
 90
        0
280
     0
281
     0
  0
CLASS
  1
ACGREFMASTER
  2
AcGrefMaster
  3
AcAttribServices
 90
        0
280
     0
281
     0
  0
CLASS
  1
ACME_DATABASE
  2
AcMeDbDatabase
  3
AcMeServices
 90
        0
280
     0
281
     0
  0
CLASS
  1
ACRFINSADJUSTERMGR
  2
AcRfInsAdjusterMgr
  3
AcMeServices
 90
        0
280
     0
281
     0
  0
CLASS
  1
ACGREFACADMASTER
  2
AcGrefacadMaster
  3
AcGrefServices
 90
        0
280
     0
281
     0
  0
CLASS
  1
AMIMASTER
  2
AmiMaster
  3
AmiServices
 90
        0
280
     0
281
     0
  0
CLASS
  1
ACMDATADICTIONARY
  2
AcmDataDictionary
  3
"AcmSymBB|Product Description: AutoCAD Mechanical 2004 DX|Company: Autodesk"
 90
        0
280
     0
281
     0
  0
CLASS
  1
ACMDATAENTRYBLOCK
  2
AcmDataEntryBlock
  3
"AcmSymBB|Product Description: AutoCAD Mechanical 2004 DX|Company: Autodesk"
 90
        0
280
     0
281
     0
  0
CLASS
  1
ACIMSTRSYSVAR
  2
AcImStrSysVar
  3
AcMeServices
 90
        0
280
     0
281
     0
  0
CLASS
  1
ACMSTANDARDISO
  2
AcmStandardISO
  3
"Amdt_StdImp|Product Description: AutoCAD Mechanical 2004 DX|Company: Autodesk"
 90
        0
280
     0
281
     0
  0
CLASS
  1
AMGOBJPROPCFG
  2
AmgObjPropCfg
  3
"AmgLay|Product Description: AutoCAD Mechanical 2000|Company: Autodesk"
 90
        1
280
     0
281
     0
  0
CLASS
  1
AMDTEDGESTANDARDISO
  2
AmdtEdgeStdISO
  3
"Amdt_StdImp|Product Description: AutoCAD Mechanical 2004 DX|Company: Autodesk"
 90
        0
280
     0
281
     0
  0
CLASS
  1
ACMSURFSTANDARDISO
  2
AcmSurfTextStdISO
  3
"Amdt_StdImp|Product Description: AutoCAD Mechanical 2004 DX|Company: Autodesk"
 90
        0
280
     0
281
     0
  0
CLASS
  1
ACMFCFSTANDARDISO
  2
AcmFCFStdISO
  3
"Amdt_StdImp|Product Description: AutoCAD Mechanical 2004 DX|Company: Autodesk"
 90
        0
280
     0
281
     0
  0
CLASS
  1
ACMWELDSTANDARDISO
  2
AcmWeldingStdISO
  3
"Amdt_StdImp|Product Description: AutoCAD Mechanical 2004 DX|Company: Autodesk"
 90
        0
280
     0
281
     0
  0
CLASS
  1
ACMIDSTANDARDISO
  2
AcmIdStdISO
  3
"Amdt_StdImp|Product Description: AutoCAD Mechanical 2004 DX|Company: Autodesk"
 90
        0
280
     0
281
     0
  0
CLASS
  1
ACMDATUMSTANDARDISO
  2
AcmDatumStdISO
  3
"Amdt_StdImp|Product Description: AutoCAD Mechanical 2004 DX|Company: Autodesk"
 90
        0
280
     0
281
     0
  0
CLASS
  1
ACMBOMSTANDARDISO
  2
AcmBOMStdISO
  3
"Amdt_StdImp|Product Description: AutoCAD Mechanical 2004 DX|Company: Autodesk"
 90
        0
280
     0
281
     0
  0
CLASS
  1
ACMDETAILSTANDARDISO
  2
AmdtDetailSymStdISO
  3
"Amdt_StdImp|Product Description: AutoCAD Mechanical 2004 DX|Company: Autodesk"
 90
        0
280
     0
281
     0
  0
CLASS
  1
ACMSECTIONSTANDARDISO
  2
AmdtSectionSymStdISO
  3
"Amdt_StdImp|Product Description: AutoCAD Mechanical 2004 DX|Company: Autodesk"
 90
        0
280
     0
281
     0
  0
CLASS
  1
ACMCENTERLINESTANDARDISO
  2
AmdtCenterLineStdISO
  3
"Amdt_StdImp|Product Description: AutoCAD Mechanical 2004 DX|Company: Autodesk"
 90
        0
280
     0
281
     0
  0
CLASS
  1
ACMNOTESTANDARDISO
  2
AmdtNoteStdISO
  3
"Amdt_StdImp|Product Description: AutoCAD Mechanical 2004 DX|Company: Autodesk"
 90
        0
280
     0
281
     0
  0
CLASS
  1
ACAMGLAYSTD
  2
AcAmgLayStd
  3
"AcAmgLayStd|Product Description: AutoCAD Mechanical 2000|Company: Autodesk"
 90
        0
280
     0
281
     0
  0
CLASS
  1
ACAMGDIMSTD
  2
AcAmgDimStd
  3
"AcAmgDimStd|Product Description: AutoCAD Mechanical 2000|Company: Autodesk"
 90
        0
280
     0
281
     0
  0
CLASS
  1
ACAMGHOLECHARTSTDISO
  2
AcAmgHoleChartStdISO
  3
ACMSYMBB_MODULE_NAME
 90
        0
280
     0
281
     0
  0
CLASS
  1
ACAMGTITLESTD
  2
AcAmgTitleStd
  3
"TITLEAPP"
 90
        0
280
     0
281
     0
  0
CLASS
  1
LAYER_INDEX
  2
AcDbLayerIndex
  3
ObjectDBX Classes
 90
    32768
280
     0
281
     0
  0
CLASS
  1
IDBUFFER
  2
AcDbIdBuffer
  3
ObjectDBX Classes
 90
    32768
280
     0
281
     0
  0
CLASS
  1
DICTIONARYVAR
  2
AcDbDictionaryVar
  3
ObjectDBX Classes
 90
        0
280
     0
281
     0
  0
CLASS
  1
AM_DRAWING_MGR
  2
AcDmDwgMgr
  3
AcMechDwgViewMgmt
 90
        0
280
     0
281
     0
  0
CLASS
  1
AM_DWG_DOCUMENT
  2
AcDmDwgDocument
  3
AcMechDwgViewMgmt
 90
        0
280
     0
281
     0
  0
CLASS
  1
AM_DWG_SHEET
  2
AcDmSheet
  3
AcMechDwgViewMgmt
 90
        0
280
     0
281
     0
  0
CLASS
  1
AM_VIEWDIMPARMAP
  2
AcDmViewDimParMap
  3
AcMechDwgViewMgmt
 90
        0
280
     0
281
     0
  0
CLASS
  1
AM_DWGMGR_NAME
  2
AcDmDwgMgrName
  3
AcMechDwgViewMgmt
 90
        0
280
     0
281
     0
  0
CLASS
  1
AMDTMENUSTATEMGR
  2
AmdtMenuStateMgr
  3
McadcomServices
 90
        0
280
     0
281
     0
  0
CLASS
  1
AMDTMCOMMENUSTATE
  2
AmdtMcomMenuState
  3
McadcomServices
 90
        0
280
     0
281
     0
  0
CLASS
  1
MAPIAMMOUDLE
  2
MApiAmModule
  3
MApiAmServices
 90
        0
280
     0
281
     0
  0
CLASS
  1
AMDTADMENUSTATE
  2
AmdtAdMenuState
  3
DesignerServices
 90
        0
280
     0
281
     0
  0
CLASS
  1
ADAPPL
  2
AcAdAppl
  3
DesignerServices
 90
        0
280
     0
281
     0
  0
CLASS
  1
DEPMGR
  2
AcAdDepMgr
  3
DesignerServices
 90
        0
280
     0
281
     0
  0
CLASS
  1
PARAMMGR
  2
AcAdParamMgr
  3
DesignerServices
 90
        0
280
     0
281
     0
  0
CLASS
  1
PARAMSCOPE
  2
AcAdParamScope
  3
DesignerServices
 90
        0
280
     0
281
     0
  0
CLASS
  1
NAMEDAPPL
  2
AcAdNamedAppl
  3
DesignerServices
 90
        0
280
     0
281
     0
  0
CLASS
  1
AMDTDMMENUSTATE
  2
AmdtDmMenuState
  3
AcMechDwgViewMgmt
 90
        0
280
     0
281
     0
  0
CLASS
  1
AMDTAMMENUSTATE
  2
AmdtAmMenuState
  3
DesignerAssemblies
 90
        0
280
     0
281
     0
  0
CLASS
  1
ACAMPROJECT
  2
AcAmProject
  3
DesignerAssemblies
 90
        0
280
     0
281
     0
  0
CLASS
  1
ACAMGRCOMPDEF
  2
AcAmGrCompDef
  3
DesignerAssemblies
 90
        0
280
     0
281
     0
  0
CLASS
  1
ACCMCONTEXT
  2
AcCmContext
  3
DesignerAssemblies
 90
        0
280
     0
281
     0
  0
CLASS
  1
ACAMCOMPDEF
  2
AcAmCompDef
  3
DesignerAssemblies
 90
        0
280
     0
281
     0
  0
CLASS
  1
ACAMCOMPDEFMGR
  2
AcAmCompDefMgr
  3
DesignerAssemblies
 90
        0
280
     0
281
     0
  0
CLASS
  1
AMCONTEXTMGR
  2
AcAmContextMgr
  3
DesignerAssemblies
 90
        0
280
     0
281
     0
  0
CLASS
  1
ACAMCONTEXTMODELER
  2
AcAmContextModeler
  3
DesignerAssemblies
 90
        0
280
     0
281
     0
  0
CLASS
  1
ACMTHREADLINESTANDARDISO
  2
AmdtThreadLineStdISO
  3
"Amdt_StdImp|Product Description: AutoCAD Mechanical 2004 DX|Company: Autodesk"
 90
        0
280
     0
281
     0
  0
CLASS
  1
CATALOGSTATE
  2
AcAmCatalogState
  3
DesignerAssemblies
 90
        0
280
     0
281
     0
  0
CLASS
  1
ACAMGRCOMPDEFSET
  2
AcAmGrCompDefSet
  3
DesignerAssemblies
 90
        0
280
     0
281
     0
  0
CLASS
  1
AMDTBROWSERDBTAB
  2
AmdtBrowserDbTab
  3
McadcomServices
 90
        0
280
     0
281
     0
  0
CLASS
  1
CBROWSERAPPOBJECT
  2
CBrowserAppObject
  3
McadcomServices
 90
        0
280
     0
281
     0
  0
CLASS
  1
DM_PLACEHOLDER
  2
AcDmSelsetPlaceholder
  3
AcMechDwgViewMgmt
 90
        0
280
     0
281
     0
  0
CLASS
  1
AMDTNOTETEMPLATEDB
  2
AmdtNoteTemplateDB
  3
AMDT_STDIMP_MODULE_NAME
 90
        0
280
     0
281
     0
  0
CLASS
  1
ACAMGFILTERDAT
  2
AcAmgFilterDat
  3
"AcadM|Product Description: AutoCAD Mechanical 2000|Company: Autodesk"
 90
        0
280
     0
281
     0
  0
CLASS
  1
AMDTNOTE
  2
AmdtNote
  3
"AcmSymBB|Product Description: AutoCAD Mechanical 2004 DX|Company: Autodesk"
 90
    33791
280
     0
281
     1
  0
CLASS
  1
AMDTFORMULAUPDATEDISPATCHER
  2
AmdtFormulaUpdateDispatcher
  3
AcMeServices
 90
        0
280
     0
281
     0
  0
CLASS
  1
AMDTSECTIONSYM
  2
AmdtSectionSym
  3
"AcmSymBB|Product Description: AutoCAD Mechanical 2004 DX|Company: Autodesk"
 90
    33791
280
     0
281
     1
  0
CLASS
  1
AMDTSECTIONSYMLABEL
  2
AmdtSectionSymLabel
  3
"AcmSymBB|Product Description: AutoCAD Mechanical 2004 DX|Company: Autodesk"
 90
    33791
280
     0
281
     1
  0
CLASS
  1
AMDTDETAILSYM
  2
AmdtDetailSym
  3
"AcmSymBB|Product Description: AutoCAD Mechanical 2004 DX|Company: Autodesk"
 90
    33791
280
     0
281
     1
  0
CLASS
  1
AMDTDETAILSYMLABEL
  2
AmdtDetailSymLabel
  3
"AcmSymBB|Product Description: AutoCAD Mechanical 2004 DX|Company: Autodesk"
 90
    33791
280
     0
281
     1
  0
CLASS
  1
ACMBOM
  2
AcmBom
  3
"AcmSymBB|Product Description: AutoCAD Mechanical 2004 DX|Company: Autodesk"
 90
        0
280
     0
281
     0
  0
CLASS
  1
ACMPARTLIST
  2
AcmPartList
  3
"AcmSymBB|Product Description: AutoCAD Mechanical 2004 DX|Company: Autodesk"
 90
     1023
280
     0
281
     1
  0
CLASS
  1
ACDBLINERES
  2
AcDbLineRes
  3
AcGrefServices
 90
    32768
280
     0
281
     0
  0
CLASS
  1
ACRFINSADJ
  2
AcRfInsAdjuster
  3
AcMeServices
 90
    32768
280
     0
281
     0
  0
CLASS
  1
DIMASSOC
  2
AcDbDimAssoc
  3
"AcDbDimAssoc|Product Desc:     AcDim ARX App For Dimension|Company:          Autodesk, Inc.|WEB Address:      www.autodesk.com"
 90
        0
280
     0
281
     0
  0
CLASS
  1
TABLESTYLE
  2
AcDbTableStyle
  3
ObjectDBX Classes
 90
     2047
280
     0
281
     0
  0
CLASS
  1
VAACXREFPANELOBJECT
  2
VaAcXREFPanelObject
  3
VAAC_ADDIN
 90
    32768
280
     0
281
     0
  0
CLASS
  1
VAACIMAGEINVENTORY
  2
VaAcImageInventory
  3
VAAC_ADDIN
 90
    32768
280
     0
281
     0
  0
CLASS
  1
ACMDATAENTRYPART
  2
AcmDataEntryPart
  3
"AcmSymBB|Product Description: AutoCAD Mechanical 2004 DX|Company: Autodesk"
 90
        0
280
     0
281
     0
  0
CLASS
  1
ACMPARTREF
  2
AcmPartRef
  3
"AcmSymBB|Product Description: AutoCAD Mechanical 2004 DX|Company: Autodesk"
 90
     1023
280
     0
281
     1
  0
CLASS
  1
ACMBOMROW
  2
AcmBomRow
  3
"AcmSymBB|Product Description: AutoCAD Mechanical 2004 DX|Company: Autodesk"
 90
        0
280
     0
281
     0
  0
CLASS
  1
ACMDATAENTRY
  2
AcmDataEntry
  3
"AcmSymBB|Product Description: AutoCAD Mechanical 2004 DX|Company: Autodesk"
 90
        0
280
     0
281
     0
  0
CLASS
  1
ACDBOPPOLYLINERES
  2
AcDbOpPolylineRes
  3
AcGrefServices
 90
    32768
280
     0
281
     0
  0
CLASS
  1
SORTENTSTABLE
  2
AcDbSortentsTable
  3
ObjectDBX Classes
 90
        0
280
     0
281
     0
  0
CLASS
  1
ACMBALLOON
  2
AcmBalloon
  3
"AcmSymBB|Product Description: AutoCAD Mechanical 2004 DX|Company: Autodesk"
 90
     1023
280
     0
281
     1
  0
CLASS
  1
ACDBDIMENSIONRES
  2
AcDbDimensionRes
  3
"AcDbDimensionRes|Product Description: AutoCAD Mechanical 2000|Company: Autodesk"
 90
        0
280
     0
281
     0
  0
CLASS
  1
ACRFATTGENMGR
  2
AcRfAttGeneralMgr
  3
AcAttribServices
 90
        0
280
     0
281
     0
  0
ENDSEC
  0
SECTION
  2
TABLES
  0
TABLE
  2
VPORT
  5
8
330
0
100
AcDbSymbolTable
 70
   185
  0
VPORT
  5
32F6
330
8
100
AcDbSymbolTableRecord
100
AcDbViewportTableRecord
  2
*Active
 70
     0
 10
0.0
 20
0.0
 11
1.0
 21
1.0
 12
241.236888523671
 22
350.0000032597281
 13
0.0
 23
0.0
 14
6.25
 24
6.25
 15
25.0
 25
25.0
 16
0.0
 26
0.0
 36
1.0
 17
0.0
 27
0.0
 37
0.0
 40
705.4984836705726
 41
1.16516129032258
 42
50.0
 43
0.0
 44
0.0
 50
0.0
 51
0.0
 71
     0
 72
   100
 73
     1
 74
     3
 75
     0
 76
     0
 77
     0
 78
     0
281
     0
 65
     1
110
0.0
120
0.0
130
0.0
111
1.0
121
0.0
131
0.0
112
0.0
122
1.0
132
0.0
 79
     0
146
0.0
  0
ENDTAB
  0
TABLE
  2
LTYPE
  5
5
330
0
100
AcDbSymbolTable
 70
    20
  0
LTYPE
  5
14
330
5
100
AcDbSymbolTableRecord
100
AcDbLinetypeTableRecord
  2
ByBlock
 70
     0
  3

 72
    65
 73
     0
 40
0.0
  0
LTYPE
  5
15
330
5
100
AcDbSymbolTableRecord
100
AcDbLinetypeTableRecord
  2
ByLayer
 70
     0
  3

 72
    65
 73
     0
 40
0.0
  0
LTYPE
  5
16
330
5
100
AcDbSymbolTableRecord
100
AcDbLinetypeTableRecord
  2
Continuous
 70
     0
  3
Solid line
 72
    65
 73
     0
 40
0.0
  0
LTYPE
  5
64
330
5
100
AcDbSymbolTableRecord
100
AcDbLinetypeTableRecord
  2
AM_ISO02W050
 70
     0
  3
__ __ __ __ __ __ __ __ __ __ __ __ __ __ __
 72
    65
 73
     2
 40
7.5
 49
6.0
 74
     0
 49
-1.5
 74
     0
  0
LTYPE
  5
65
330
5
100
AcDbSymbolTableRecord
100
AcDbLinetypeTableRecord
  2
AM_ISO08W050
 70
     0
  3
____ . ____ . ____ . ____ . ____ . ____ . ____
 72
    65
 73
     4
 40
18.0
 49
12.0
 74
     0
 49
-1.5
 74
     0
 49
3.0
 74
     0
 49
-1.5
 74
     0
  0
LTYPE
  5
66
330
5
100
AcDbSymbolTableRecord
100
AcDbLinetypeTableRecord
  2
AM_ISO09W050
 70
     0
  3
_____ . . _____ . . _____ . . ____ .. ____
 72
    65
 73
     6
 40
22.5
 49
12.0
 74
     0
 49
-1.5
 74
     0
 49
3.0
 74
     0
 49
-1.5
 74
     0
 49
3.0
 74
     0
 49
-1.5
 74
     0
  0
LTYPE
  5
67
330
5
100
AcDbSymbolTableRecord
100
AcDbLinetypeTableRecord
  2
Amconstr
 70
     0
  3
_______________________
 72
    65
 73
     2
 40
9999.0
 49
9999.0
 74
     0
 49
0.0
 74
     0
  0
LTYPE
  5
68
330
5
100
AcDbSymbolTableRecord
100
AcDbLinetypeTableRecord
  2
AM_ISO08W050x2
 70
     0
  3
__ . __ . __ . __ . __ . __
 72
    65
 73
     4
 40
9.0
 49
6.0
 74
     0
 49
-0.75
 74
     0
 49
1.5
 74
     0
 49
-0.75
 74
     0
  0
LTYPE
  5
69
330
5
100
AcDbSymbolTableRecord
100
AcDbLinetypeTableRecord
  2
AM_ISO02W050x2
 70
     0
  3
 _ _ _ _ _ _ _ _ _ _ _ _
 72
    65
 73
     2
 40
3.75
 49
3.0
 74
     0
 49
-0.75
 74
     0
  0
LTYPE
  5
6C
330
5
100
AcDbSymbolTableRecord
100
AcDbLinetypeTableRecord
  2
Amzigzag
 70
     0
  3
/\/-/\/-/\/-/\/-/\/-/\/
 72
    65
 73
     2
 40
11.0001
 49
0.0001
 74
     4
 75
   135
340
6B
 46
0.04
 50
0.0
 44
0.0
 45
0.0
 49
-11.0
 74
     0
  0
LTYPE
  5
7A
330
5
100
AcDbSymbolTableRecord
100
AcDbLinetypeTableRecord
  2
ACISOWELD
 70
     0
  3
_ _ _ _ _
 72
    65
 73
     2
 40
2.0
 49
2.0
 74
     0
 49
-1.0
 74
     0
  0
LTYPE
  5
7B
330
5
100
AcDbSymbolTableRecord
100
AcDbLinetypeTableRecord
  2
ACISOTGB
 70
     0
  3
__ . . __ . .
 72
    65
 73
     6
 40
9.0
 49
4.0
 74
     0
 49
-1.0
 74
     0
 49
1.0
 74
     0
 49
-1.0
 74
     0
 49
1.0
 74
     0
 49
-1.0
 74
     0
  0
LTYPE
  5
7C
330
5
100
AcDbSymbolTableRecord
100
AcDbLinetypeTableRecord
  2
ACISOTGL
 70
     0
  3
_ _ _ _ _
 72
    65
 73
     2
 40
3.0
 49
2.0
 74
     0
 49
-1.0
 74
     0
  0
LTYPE
  5
7E
330
5
100
AcDbSymbolTableRecord
100
AcDbLinetypeTableRecord
  2
CENTER
 70
     0
  3
__ . __
 72
    65
 73
     4
 40
7.0
 49
4.0
 74
     0
 49
-1.0
 74
     0
 49
1.0
 74
     0
 49
-1.0
 74
     0
  0
LTYPE
  5
D8
330
5
100
AcDbSymbolTableRecord
100
AcDbLinetypeTableRecord
  2
HIDDEN
 70
     0
  3
Hidden __ __ __ __ __ __ __ __ __ __ __ __ __ _
 72
    65
 73
     2
 40
9.524999999999998
 49
6.349999999999999
 74
     0
 49
-3.174999999999999
 74
     0
  0
LTYPE
  5
D9
330
5
100
AcDbSymbolTableRecord
100
AcDbLinetypeTableRecord
  2
PHANTOM2
 70
     0
  3
Phantom (.5x) ___ _ _ ___ _ _ ___ _ _ ___ _ _
 72
    65
 73
     6
 40
31.75
 49
15.875
 74
     0
 49
-3.174999999999999
 74
     0
 49
3.174999999999999
 74
     0
 49
-3.174999999999999
 74
     0
 49
3.174999999999999
 74
     0
 49
-3.174999999999999
 74
     0
  0
LTYPE
  5
200
330
5
100
AcDbSymbolTableRecord
100
AcDbLinetypeTableRecord
  2
gen3
 70
     0
  3
-- -- -- -- -- -- -- -- -- -- -- -- -- -- --
 72
    65
 73
     2
 40
6.25
 49
4.75
 74
     0
 49
-1.5
 74
     0
  0
LTYPE
  5
201
330
5
100
AcDbSymbolTableRecord
100
AcDbLinetypeTableRecord
  2
gen7
 70
     0
  3
____ . ____ . ____ . ____ . ____ . ____ . ____
 72
    65
 73
     4
 40
13.75
 49
9.75
 74
     0
 49
-1.5
 74
     0
 49
1.0
 74
     0
 49
-1.5
 74
     0
  0
LTYPE
  5
202
330
5
100
AcDbSymbolTableRecord
100
AcDbLinetypeTableRecord
  2
gen3a
 70
     0
  3
 - - - - -
 72
    65
 73
     2
 40
3.125
 49
2.25
 74
     0
 49
-0.875
 74
     0
  0
LTYPE
  5
203
330
5
100
AcDbSymbolTableRecord
100
AcDbLinetypeTableRecord
  2
gen7a
 70
     0
  3
__ . __ . __
 72
    65
 73
     4
 40
6.875
 49
4.75
 74
     0
 49
-0.875
 74
     0
 49
0.375
 74
     0
 49
-0.875
 74
     0
  0
LTYPE
  5
204
330
5
100
AcDbSymbolTableRecord
100
AcDbLinetypeTableRecord
  2
gen4a
 70
     0
  3
_____ . . _____ . . _____ . . ____ .. ____
 72
    65
 73
     6
 40
16.25
 49
9.75
 74
     0
 49
-1.5
 74
     0
 49
1.0
 74
     0
 49
-1.5
 74
     0
 49
1.0
 74
     0
 49
-1.5
 74
     0
  0
LTYPE
  5
205
330
5
100
AcDbSymbolTableRecord
100
AcDbLinetypeTableRecord
  2
genzigzag
 70
     0
  3
/\/-/\/-/\/-/\/-/\/-/\/
 72
    65
 73
     2
 40
12.0001
 49
0.0001
 74
     4
 75
   135
340
208
 46
2.0
 50
0.0
 44
0.0
 45
0.0
 49
-12.0
 74
     0
  0
ENDTAB
  0
TABLE
  2
LAYER
  5
2
102
{ACAD_XDICTIONARY
360
35D
102
}
330
0
100
AcDbSymbolTable
 70
    12
  0
LAYER
  5
10
330
2
100
AcDbSymbolTableRecord
100
AcDbLayerTableRecord
  2
0
 70
     0
 62
     7
  6
Continuous
370
    -3
390
F
  0
LAYER
  5
1E1
330
2
100
AcDbSymbolTableRecord
100
AcDbLayerTableRecord
  2
Defpoints
 70
     0
 62
     7
  6
Continuous
290
     0
370
    -3
390
F
  0
LAYER
  5
1FA
330
2
100
AcDbSymbolTableRecord
100
AcDbLayerTableRecord
  2
ﾌﾞﾗｹｯﾄ
 70
     0
 62
     7
  6
Continuous
370
    25
390
F
  0
LAYER
  5
206
330
2
100
AcDbSymbolTableRecord
100
AcDbLayerTableRecord
  2
RAHM2
 70
     0
 62
     1
  6
Continuous
370
    -3
390
F
  0
LAYER
  5
22C
330
2
100
AcDbSymbolTableRecord
100
AcDbLayerTableRecord
  2
7A
 70
     0
 62
     4
  6
gen7a
370
    -3
390
F
  0
LAYER
  5
302
330
2
100
AcDbSymbolTableRecord
100
AcDbLayerTableRecord
  2
ｽﾍﾟｰｻｰ
 70
     0
 62
     5
  6
Continuous
370
    25
390
F
  0
LAYER
  5
307
330
2
100
AcDbSymbolTableRecord
100
AcDbLayerTableRecord
  2
AM_5
 70
     0
 62
     3
  6
Continuous
370
    18
390
F
  0
LAYER
  5
277A
330
2
100
AcDbSymbolTableRecord
100
AcDbLayerTableRecord
  2
ｷｬｯﾌﾟ
 70
     0
 62
     3
  6
Continuous
370
    25
390
F
1001
AcAecLayerStandard
1000

1000

  0
LAYER
  5
2780
330
2
100
AcDbSymbolTableRecord
100
AcDbLayerTableRecord
  2
ｽﾃｰﾀｰ
 70
     0
 62
     6
  6
Continuous
370
    25
390
F
1001
AcAecLayerStandard
1000

1000

  0
LAYER
  5
2788
330
2
100
AcDbSymbolTableRecord
100
AcDbLayerTableRecord
  2
AM_12
 70
     0
 62
     7
  6
Continuous
290
     0
370
    50
390
F
  0
LAYER
  5
2789
330
2
100
AcDbSymbolTableRecord
100
AcDbLayerTableRecord
  2
AM_PAREF
 70
     0
 62
     4
  6
Continuous
290
     0
370
    25
390
F
  0
ENDTAB
  0
TABLE
  2
STYLE
  5
3
330
0
100
AcDbSymbolTable
 70
    10
  0
STYLE
  5
11
330
3
100
AcDbSymbolTableRecord
100
AcDbTextStyleTableRecord
  2
STANDARD
 70
     0
 40
0.0
 41
1.0
 50
0.0
 71
     0
 42
73.98571745357912
  3
ISOCP.SHX
  4
bigfont.shx
  0
STYLE
  5
6B
330
3
100
AcDbSymbolTableRecord
100
AcDbTextStyleTableRecord
  2

 70
     1
 40
0.0
 41
1.0
 50
0.0
 71
     0
 42
2.5
  3
ltypeshp.shx
  4

  0
STYLE
  5
6D
330
3
100
AcDbSymbolTableRecord
100
AcDbTextStyleTableRecord
  2
ACISOTS
 70
     0
 40
1.0
 41
1.0
 50
0.0
 71
     0
 42
2.5
  3
isocp.shx
  4
extfont.shx
  0
STYLE
  5
79
330
3
100
AcDbSymbolTableRecord
100
AcDbTextStyleTableRecord
  2
ACISOGDT
 70
     0
 40
0.0
 41
1.0
 50
0.0
 71
     0
 42
2.5
  3
amgdt.shx
  4

  0
STYLE
  5
133
330
3
100
AcDbSymbolTableRecord
100
AcDbTextStyleTableRecord
  2
USER1
 70
     0
 40
0.0
 41
1.0
 50
0.0
 71
     0
 42
2.5
  3
TXT.SHX
  4

  0
STYLE
  5
134
330
3
100
AcDbSymbolTableRecord
100
AcDbTextStyleTableRecord
  2
USER2
 70
     0
 40
0.0
 41
1.0
 50
0.0
 71
     0
 42
2.5
  3
SIMPLEX.SHX
  4

  0
STYLE
  5
135
330
3
100
AcDbSymbolTableRecord
100
AcDbTextStyleTableRecord
  2
USER3
 70
     0
 40
0.0
 41
1.0
 50
0.0
 71
     0
 42
2.5
  3
ITALIC.SHX
  4

  0
STYLE
  5
1F8
330
3
100
AcDbSymbolTableRecord
100
AcDbTextStyleTableRecord
  2
ACJISTS
 70
     0
 40
1.0
 41
1.0
 50
0.0
 71
     0
 42
2.5
  3
isocp.shx
  4
bigfont.shx
  0
STYLE
  5
1F9
330
3
100
AcDbSymbolTableRecord
100
AcDbTextStyleTableRecord
  2
ACJISGDT
 70
     0
 40
0.0
 41
1.0
 50
0.0
 71
     0
 42
2.5
  3
amgdt.shx
  4

  0
STYLE
  5
208
330
3
100
AcDbSymbolTableRecord
100
AcDbTextStyleTableRecord
  2

 70
     1
 40
0.0
 41
1.0
 50
0.0
 71
     0
 42
2.5
  3
genltshp.shx
  4

  0
ENDTAB
  0
TABLE
  2
VIEW
  5
6
330
0
100
AcDbSymbolTable
 70
     6
  0
VIEW
  5
291
330
6
100
AcDbSymbolTableRecord
100
AcDbViewTableRecord
  2
AM_VIEW1
 70
     0
 40
350.0
 10
203.8659793814433
 20
525.0
 41
407.7319587628866
 11
0.0
 21
0.0
 31
1.0
 12
0.0
 22
0.0
 32
0.0
 42
50.0
 43
0.0
 44
0.0
 50
0.0
 71
     0
281
     0
 72
     0
  0
VIEW
  5
292
330
6
100
AcDbSymbolTableRecord
100
AcDbViewTableRecord
  2
AM_VIEW2
 70
     0
 40
350.0
 10
278.6340206185566
 20
525.0
 41
407.7319587628866
 11
0.0
 21
0.0
 31
1.0
 12
0.0
 22
0.0
 32
0.0
 42
50.0
 43
0.0
 44
0.0
 50
0.0
 71
     0
281
     0
 72
     0
  0
VIEW
  5
293
330
6
100
AcDbSymbolTableRecord
100
AcDbViewTableRecord
  2
AM_VIEW3
 70
     0
 40
350.0
 10
203.8659793814433
 20
175.0
 41
407.7319587628866
 11
0.0
 21
0.0
 31
1.0
 12
0.0
 22
0.0
 32
0.0
 42
50.0
 43
0.0
 44
0.0
 50
0.0
 71
     0
281
     0
 72
     0
  0
VIEW
  5
294
330
6
100
AcDbSymbolTableRecord
100
AcDbViewTableRecord
  2
AM_VIEW4
 70
     0
 40
350.0
 10
278.6340206185566
 20
175.0
 41
407.7319587628866
 11
0.0
 21
0.0
 31
1.0
 12
0.0
 22
0.0
 32
0.0
 42
50.0
 43
0.0
 44
0.0
 50
0.0
 71
     0
281
     0
 72
     0
  0
VIEW
  5
295
330
6
100
AcDbSymbolTableRecord
100
AcDbViewTableRecord
  2
AM_VIEW5
 70
     0
 40
350.0000000000001
 10
241.25
 20
350.0
 41
407.7319587628867
 11
0.0
 21
0.0
 31
1.0
 12
0.0
 22
0.0
 32
0.0
 42
50.0
 43
0.0
 44
0.0
 50
0.0
 71
     0
281
     0
 72
     0
  0
VIEW
  5
296
330
6
100
AcDbSymbolTableRecord
100
AcDbViewTableRecord
  2
AM_VIEW6
 70
     0
 40
699.9930000000001
 10
241.25
 20
350.0000000000001
 41
815.4557628865982
 11
0.0
 21
0.0
 31
1.0
 12
0.0
 22
0.0
 32
0.0
 42
50.0
 43
0.0
 44
0.0
 50
0.0
 71
     0
281
     0
 72
     0
  0
ENDTAB
  0
TABLE
  2
UCS
  5
7
330
0
100
AcDbSymbolTable
 70
     0
  0
ENDTAB
  0
TABLE
  2
APPID
  5
9
330
0
100
AcDbSymbolTable
 70
    36
  0
APPID
  5
12
330
9
100
AcDbSymbolTableRecord
100
AcDbRegAppTableRecord
  2
ACAD
 70
     0
  0
APPID
  5
46
330
9
100
AcDbSymbolTableRecord
100
AcDbRegAppTableRecord
  2
MCAD_NO_VIS
 70
     0
  0
APPID
  5
47
330
9
100
AcDbSymbolTableRecord
100
AcDbRegAppTableRecord
  2
ACAD_TEMP_GRAPHIC
 70
     0
  0
APPID
  5
58
330
9
100
AcDbSymbolTableRecord
100
AcDbRegAppTableRecord
  2
ACATTRIBSERVICES
 70
     0
  0
APPID
  5
EE
330
9
100
AcDbSymbolTableRecord
100
AcDbRegAppTableRecord
  2
AD_DRAW
 70
     0
  0
APPID
  5
10C
330
9
100
AcDbSymbolTableRecord
100
AcDbRegAppTableRecord
  2
DESIGNERASSEMBLIES
 70
     0
  0
APPID
  5
111
330
9
100
AcDbSymbolTableRecord
100
AcDbRegAppTableRecord
  2
ACADM_DIM_EDIT
 70
     0
  0
APPID
  5
112
330
9
100
AcDbSymbolTableRecord
100
AcDbRegAppTableRecord
  2
AMDT_DM_ADJ
 70
     0
  0
APPID
  5
1E2
330
9
100
AcDbSymbolTableRecord
100
AcDbRegAppTableRecord
  2
GENIUS_GENREC_14
 70
     0
  0
APPID
  5
1E3
330
9
100
AcDbSymbolTableRecord
100
AcDbRegAppTableRecord
  2
GENIUS_GENODEF_13
 70
     0
  0
APPID
  5
1E4
330
9
100
AcDbSymbolTableRecord
100
AcDbRegAppTableRecord
  2
GENIUS_GENOBJ-N-REC_13
 70
     0
  0
APPID
  5
1E5
330
9
100
AcDbSymbolTableRecord
100
AcDbRegAppTableRecord
  2
GENIUS_GENDIMSH_14
 70
     0
  0
APPID
  5
1E6
330
9
100
AcDbSymbolTableRecord
100
AcDbRegAppTableRecord
  2
GENIUS_GENCFG_13
 70
     0
  0
APPID
  5
1E7
330
9
100
AcDbSymbolTableRecord
100
AcDbRegAppTableRecord
  2
GENIUS_GENCFG0_13
 70
     0
  0
APPID
  5
1E8
330
9
100
AcDbSymbolTableRecord
100
AcDbRegAppTableRecord
  2
GENIUS_GENCFG1_13
 70
     0
  0
APPID
  5
1E9
330
9
100
AcDbSymbolTableRecord
100
AcDbRegAppTableRecord
  2
GENIUS_GENCFG2_13
 70
     0
  0
APPID
  5
1EA
330
9
100
AcDbSymbolTableRecord
100
AcDbRegAppTableRecord
  2
GENIUS_GENCFG3_13
 70
     0
  0
APPID
  5
1EB
330
9
100
AcDbSymbolTableRecord
100
AcDbRegAppTableRecord
  2
GENIUS_GENCFG4_13
 70
     0
  0
APPID
  5
1EC
330
9
100
AcDbSymbolTableRecord
100
AcDbRegAppTableRecord
  2
GENIUS_GEVCFG0_13
 70
     0
  0
APPID
  5
1ED
330
9
100
AcDbSymbolTableRecord
100
AcDbRegAppTableRecord
  2
GENIUS_GENOENT_13
 70
     0
  0
APPID
  5
1EE
330
9
100
AcDbSymbolTableRecord
100
AcDbRegAppTableRecord
  2
GENIUS_GENOBJ-N-CRS_13
 70
     0
  0
APPID
  5
1EF
330
9
100
AcDbSymbolTableRecord
100
AcDbRegAppTableRecord
  2
GENIUS_GENOREF_13
 70
     0
  0
APPID
  5
1F0
330
9
100
AcDbSymbolTableRecord
100
AcDbRegAppTableRecord
  2
GENIUS_GENOLIS_13
 70
     0
  0
APPID
  5
1F1
330
9
100
AcDbSymbolTableRecord
100
AcDbRegAppTableRecord
  2
GENIUS_GENOBJ-N-TIT_13
 70
     0
  0
APPID
  5
1F2
330
9
100
AcDbSymbolTableRecord
100
AcDbRegAppTableRecord
  2
GENIUS_GENTITLE_13
 70
     0
  0
APPID
  5
1F3
330
9
100
AcDbSymbolTableRecord
100
AcDbRegAppTableRecord
  2
GENIUS_GENSCREG_15
 70
     0
  0
APPID
  5
1F4
330
9
100
AcDbSymbolTableRecord
100
AcDbRegAppTableRecord
  2
GENIUS_GENOBJ-N-SDF_13
 70
     0
  0
APPID
  5
1F5
330
9
100
AcDbSymbolTableRecord
100
AcDbRegAppTableRecord
  2
GENIUS_GENOBJ-N-CEN_13
 70
     0
  0
APPID
  5
1F6
330
9
100
AcDbSymbolTableRecord
100
AcDbRegAppTableRecord
  2
GENIUS_GENOBJ-N-HTC_13
 70
     0
  0
APPID
  5
1F7
330
9
100
AcDbSymbolTableRecord
100
AcDbRegAppTableRecord
  2
GENIUS_GENHATCH_13
 70
     0
  0
APPID
  5
484
330
9
100
AcDbSymbolTableRecord
100
AcDbRegAppTableRecord
  2
GENIUS_GENOBJ-N-ZOO_13
 70
     0
  0
APPID
  5
485
330
9
100
AcDbSymbolTableRecord
100
AcDbRegAppTableRecord
  2
GENIUS_GENZOO_17
 70
     0
  0
APPID
  5
898
330
9
100
AcDbSymbolTableRecord
100
AcDbRegAppTableRecord
  2
RAK
 70
     0
  0
APPID
  5
899
330
9
100
AcDbSymbolTableRecord
100
AcDbRegAppTableRecord
  2
GENIUS_GENOBJ-N-FIL_13
 70
     0
  0
APPID
  5
2778
330
9
100
AcDbSymbolTableRecord
100
AcDbRegAppTableRecord
  2
GENIUS_GENCEN_19
 70
     0
  0
APPID
  5
277B
330
9
100
AcDbSymbolTableRecord
100
AcDbRegAppTableRecord
  2
AcAecLayerStandard
 70
     0
  0
ENDTAB
  0
TABLE
  2
DIMSTYLE
  5
A
330
0
100
AcDbSymbolTable
 70
    24
100
AcDbDimStyleTable
 71
     6
340
81
340
27
340
20D
340
20F
340
20E
340
209
  0
DIMSTYLE
105
27
330
A
100
AcDbSymbolTableRecord
100
AcDbDimStyleTableRecord
  2
ISO-25
 70
     0
 41
2.5
 42
0.625
 43
3.75
 44
1.25
 73
     0
 74
     0
 77
     1
 78
     8
140
2.5
141
2.5
143
0.03937007874016
147
0.625
171
     3
172
     1
271
     2
272
     2
274
     3
278
    44
283
     0
284
     8
340
11
341
407
342
407
  0
DIMSTYLE
105
81
330
A
100
AcDbSymbolTableRecord
100
AcDbDimStyleTableRecord
  2
AM_ISO
 70
     0
  4
"
 41
2.5
 42
1.0
 43
10.0
 44
1.0
 47
0.1
 48
0.1
 73
     0
 74
     0
 77
     1
 78
     8
 79
     2
140
3.5
141
0.0
143
0.0393701
146
0.71
147
1.5
172
     1
176
   256
177
   256
178
     2
271
     2
272
     2
283
     0
284
     8
340
11
341
407
342
407
371
    -1
372
    -1
  0
DIMSTYLE
105
82
330
A
100
AcDbSymbolTableRecord
100
AcDbDimStyleTableRecord
  2
AM_ISO$3
 70
     0
  4
"
 41
2.5
 42
1.0
 43
10.0
 44
1.0
 47
0.1
 48
0.1
 73
     0
 77
     1
 78
     8
 79
     2
140
3.5
141
0.0
143
0.0393701
146
0.71
147
1.5
176
   256
177
   256
178
     2
271
     2
272
     2
283
     0
284
     8
288
     1
289
     0
340
11
341
407
342
407
371
    -1
372
    -1
  0
DIMSTYLE
105
83
330
A
100
AcDbSymbolTableRecord
100
AcDbDimStyleTableRecord
  2
AM_ISO$4
 70
     0
  4
"
 41
2.5
 42
1.0
 43
10.0
 44
1.0
 47
0.1
 48
0.1
 73
     0
 77
     1
 78
     8
 79
     2
140
3.5
141
0.0
143
0.0393701
146
0.71
147
1.5
176
   256
177
   256
178
     2
271
     2
272
     2
283
     0
284
     8
288
     1
289
     0
340
11
341
407
342
407
371
    -1
372
    -1
  0
DIMSTYLE
105
84
330
A
100
AcDbSymbolTableRecord
100
AcDbDimStyleTableRecord
  2
AM_ISO$6
 70
     0
  4
"
 41
2.5
 42
1.0
 43
10.0
 44
1.0
 47
0.1
 48
0.1
 73
     0
 74
     0
 78
     8
 79
     2
140
3.5
141
0.0
143
0.0393701
146
0.71
147
1.5
172
     1
176
   256
177
   256
178
     2
271
     2
272
     2
283
     0
284
     8
340
11
341
407
342
407
371
    -1
372
    -1
  0
DIMSTYLE
105
85
330
A
100
AcDbSymbolTableRecord
100
AcDbDimStyleTableRecord
  2
AM_ISO$7
 70
     0
  4
"
 41
2.5
 42
1.0
 43
10.0
 44
1.0
 47
0.1
 48
0.1
 73
     0
 74
     0
 77
     1
 78
     8
 79
     2
140
5.0
141
0.0
143
0.0393701
146
0.71
147
1.5
172
     1
176
   256
177
   256
178
     2
271
     2
272
     2
283
     0
284
     8
340
11
341
407
342
407
371
    -1
372
    -1
  0
DIMSTYLE
105
86
330
A
100
AcDbSymbolTableRecord
100
AcDbDimStyleTableRecord
  2
AM_ISO$SF
 70
     0
  4
"
 41
2.5
 42
1.0
 43
10.0
 44
1.0
 47
0.1
 48
0.1
 73
     0
 74
     0
 75
     1
 76
     1
 77
     1
 78
     8
 79
     2
140
3.5
141
0.0
143
0.0393701
146
0.71
147
1.5
172
     1
176
   256
177
   256
178
     2
271
     2
272
     2
283
     0
284
     8
340
11
341
407
342
407
371
    -1
372
    -1
  0
DIMSTYLE
105
8B
330
A
100
AcDbSymbolTableRecord
100
AcDbDimStyleTableRecord
  2
AM_ISO$SH
 70
     0
  4
"
 41
2.5
 42
1.0
 43
10.0
 44
1.0
 47
0.1
 48
0.1
 73
     0
 74
     0
 75
     1
 76
     1
 77
     1
 78
     8
 79
     2
140
3.5
141
0.0
143
0.0393701
144
2.0
146
0.71
147
1.5
172
     1
173
     1
176
   256
177
   256
178
     2
271
     2
272
     2
283
     0
284
     8
340
11
341
407
343
87
344
407
371
    -1
372
    -1
  0
DIMSTYLE
105
209
330
A
100
AcDbSymbolTableRecord
100
AcDbDimStyleTableRecord
  2
GEN-ISO
 70
     0
  4
"
 41
2.5
 42
1.0
 43
10.0
 44
1.0
 47
0.1
 48
0.1
 73
     0
 74
     0
 77
     1
 78
     8
140
3.5
141
0.0
143
0.0393701
146
0.71
147
1.5
172
     1
176
   256
177
   256
178
     2
271
     2
272
     2
283
     0
340
11
341
407
342
407
  0
DIMSTYLE
105
20A
330
A
100
AcDbSymbolTableRecord
100
AcDbDimStyleTableRecord
  2
GEN-ISO$3
 70
     0
  4
"
 41
2.5
 42
1.0
 43
10.0
 44
1.0
 47
0.1
 48
0.1
 73
     0
 77
     1
 78
     8
140
3.5
141
0.0
143
0.0393701
146
0.71
147
1.5
176
   256
177
   256
178
     2
271
     2
272
     2
283
     0
288
     1
289
     0
340
11
341
407
342
407
  0
DIMSTYLE
105
20B
330
A
100
AcDbSymbolTableRecord
100
AcDbDimStyleTableRecord
  2
GEN-ISO$4
 70
     0
  4
"
 41
2.5
 42
1.0
 43
10.0
 44
1.0
 47
0.1
 48
0.1
 73
     0
 77
     1
 78
     8
140
3.5
141
0.0
143
0.0393701
146
0.71
147
1.5
176
   256
177
   256
178
     2
271
     2
272
     2
283
     0
288
     1
289
     0
340
11
341
407
342
407
  0
DIMSTYLE
105
20C
330
A
100
AcDbSymbolTableRecord
100
AcDbDimStyleTableRecord
  2
GEN-ISO$6
 70
     0
  4
"
 41
2.5
 42
1.0
 43
10.0
 44
1.0
 47
0.1
 48
0.1
 73
     0
 74
     0
 78
     8
140
3.5
141
0.0
143
0.0393701
146
0.71
147
1.5
176
   256
177
   256
178
     2
271
     2
272
     2
283
     0
340
11
341
407
342
407
  0
DIMSTYLE
105
20D
330
A
100
AcDbSymbolTableRecord
100
AcDbDimStyleTableRecord
  2
GEN-ISO-POS
 70
     0
  4
"
 41
2.5
 42
1.0
 43
10.0
 44
1.0
 47
0.1
 48
0.1
 73
     0
 74
     0
 78
     8
140
5.0
141
0.0
143
0.0393701
146
0.71
147
1.5
176
   256
177
   256
178
     2
271
     2
272
     2
283
     0
340
11
341
407
342
407
  0
DIMSTYLE
105
20E
330
A
100
AcDbSymbolTableRecord
100
AcDbDimStyleTableRecord
  2
GEN-ISO-AXE-F
 70
     0
  4
"
 41
2.5
 42
1.0
 43
10.0
 44
1.0
 47
0.1
 48
0.1
 73
     0
 74
     0
 75
     1
 76
     1
 77
     1
 78
     8
140
3.5
141
0.0
143
0.0393701
146
0.71
147
1.5
172
     1
176
   256
177
   256
178
     2
271
     2
272
     2
283
     0
340
11
341
407
342
407
  0
DIMSTYLE
105
20F
330
A
100
AcDbSymbolTableRecord
100
AcDbDimStyleTableRecord
  2
GEN-ISO-AXE-H
 70
     0
  4
"
 41
2.5
 42
1.0
 43
10.0
 44
1.0
 47
0.1
 48
0.1
 73
     0
 74
     0
 75
     1
 76
     1
 77
     1
 78
     8
140
3.5
141
0.0
143
0.0393701
144
2.0
146
0.71
147
1.5
172
     1
176
   256
177
   256
178
     2
271
     2
272
     2
283
     0
340
11
341
407
342
407
  0
DIMSTYLE
105
891
330
A
100
AcDbSymbolTableRecord
100
AcDbDimStyleTableRecord
  2
AM_JIS
 70
     0
  4
"
 41
2.5
 42
1.0
 43
10.0
 44
1.0
 47
0.1
 48
0.1
 73
     0
 74
     0
 77
     3
 78
     8
 79
     2
140
3.5
141
0.0
143
0.0393701
146
0.71
147
1.5
172
     1
176
   256
177
   256
178
     2
271
     2
272
     3
274
     4
283
     0
340
11
341
407
342
407
343
407
344
407
371
    -1
372
    -1
  0
DIMSTYLE
105
892
330
A
100
AcDbSymbolTableRecord
100
AcDbDimStyleTableRecord
  2
AM_JIS$3
 70
     0
  4
"
 41
2.5
 42
1.0
 43
10.0
 44
1.0
 47
0.1
 48
0.1
 73
     0
 77
     3
 78
     8
 79
     2
140
3.5
141
0.0
143
0.0393701
146
0.71
147
1.5
176
   256
177
   256
178
     2
271
     2
272
     3
274
     4
283
     0
288
     1
289
     0
340
11
341
407
342
407
343
407
344
407
371
    -1
372
    -1
  0
DIMSTYLE
105
893
330
A
100
AcDbSymbolTableRecord
100
AcDbDimStyleTableRecord
  2
AM_JIS$4
 70
     0
  4
"
 41
2.5
 42
1.0
 43
10.0
 44
1.0
 47
0.1
 48
0.1
 73
     0
 77
     3
 78
     8
 79
     2
140
3.5
141
0.0
143
0.0393701
146
0.71
147
1.5
176
   256
177
   256
178
     2
271
     2
272
     3
274
     4
283
     0
288
     1
289
     0
340
11
341
407
342
407
343
407
344
407
371
    -1
372
    -1
  0
DIMSTYLE
105
894
330
A
100
AcDbSymbolTableRecord
100
AcDbDimStyleTableRecord
  2
AM_JIS$6
 70
     0
  4
"
 41
2.5
 42
1.0
 43
10.0
 44
1.0
 47
0.1
 48
0.1
 73
     0
 74
     0
 78
     8
 79
     2
140
3.5
141
0.0
143
0.0393701
146
0.71
147
1.5
172
     1
176
   256
177
   256
178
     2
271
     2
272
     3
274
     4
283
     0
340
11
341
407
342
407
343
407
344
407
371
    -1
372
    -1
  0
DIMSTYLE
105
895
330
A
100
AcDbSymbolTableRecord
100
AcDbDimStyleTableRecord
  2
AM_JIS$7
 70
     0
  4
"
 41
2.5
 42
1.0
 43
10.0
 44
1.0
 47
0.1
 48
0.1
 73
     0
 74
     0
 77
     3
 78
     8
 79
     2
140
5.0
141
0.0
143
0.0393701
146
0.71
147
1.5
172
     1
176
   256
177
   256
178
     2
271
     2
272
     3
274
     4
283
     0
340
11
341
407
342
407
343
407
344
407
371
    -1
372
    -1
  0
DIMSTYLE
105
896
330
A
100
AcDbSymbolTableRecord
100
AcDbDimStyleTableRecord
  2
AM_JIS$SF
 70
     0
  4
"
 41
2.5
 42
1.0
 43
10.0
 44
1.0
 47
0.1
 48
0.1
 73
     0
 74
     0
 75
     1
 76
     1
 77
     3
 78
     8
 79
     2
140
3.5
141
0.0
143
0.0393701
146
0.71
147
1.5
172
     1
176
   256
177
   256
178
     2
271
     2
272
     3
274
     4
283
     0
340
11
341
407
342
407
343
407
344
407
371
    -1
372
    -1
  0
DIMSTYLE
105
897
330
A
100
AcDbSymbolTableRecord
100
AcDbDimStyleTableRecord
  2
AM_JIS$SH
 70
     0
  4
"
 41
2.5
 42
1.0
 43
10.0
 44
1.0
 47
0.1
 48
0.1
 73
     0
 74
     0
 75
     1
 76
     1
 77
     3
 78
     8
 79
     2
140
3.5
141
0.0
143
0.0393701
144
2.0
146
0.71
147
1.5
172
     1
173
     1
176
   256
177
   256
178
     2
271
     2
272
     3
274
     4
283
     0
340
11
341
407
342
407
343
87
344
407
371
    -1
372
    -1
  0
DIMSTYLE
105
26C7
330
A
100
AcDbSymbolTableRecord
100
AcDbDimStyleTableRecord
  2
AM_ANSI
 70
     0
  4
mm
 41
0.1
 42
0.05
 43
0.5
 44
0.1
 47
0.1
 48
0.1
 78
     7
 79
     2
140
0.12
141
0.0
146
0.71
147
0.06
176
   256
177
   256
178
     2
274
     4
284
     7
340
11
371
    -1
372
    -1
  0
DIMSTYLE
105
27D5
102
{ACAD_REACTORS
330
2B23
330
2B59
102
}
330
A
100
AcDbSymbolTableRecord
100
AcDbDimStyleTableRecord
  2
AM_ISO$0
 70
     0
  4
"
 41
2.5
 42
1.0
 43
10.0
 44
1.0
 47
0.1
 48
0.1
 73
     0
 74
     0
 77
     1
 78
     8
 79
     2
140
3.5
141
0.0
143
0.0393701
146
0.71
147
1.5
172
     1
176
   256
177
   256
178
     2
271
     2
272
     2
283
     0
284
     8
340
11
341
407
342
407
371
    -1
372
    -1
  0
ENDTAB
  0
TABLE
  2
BLOCK_RECORD
  5
1
330
0
100
AcDbSymbolTable
 70
    24
  0
BLOCK_RECORD
  5
1F
102
{ACAD_XDICTIONARY
360
8F
102
}
330
1
100
AcDbSymbolTableRecord
100
AcDbBlockTableRecord
  2
*Model_Space
340
22
  0
BLOCK_RECORD
  5
23
330
1
100
AcDbSymbolTableRecord
100
AcDbBlockTableRecord
  2
*Paper_Space
340
26
  0
BLOCK_RECORD
  5
1B
330
1
100
AcDbSymbolTableRecord
100
AcDbBlockTableRecord
  2
*Paper_Space0
340
1E
  0
BLOCK_RECORD
  5
87
330
1
100
AcDbSymbolTableRecord
100
AcDbBlockTableRecord
  2
GENAXEH
340
0
  0
BLOCK_RECORD
  5
210
102
{ACAD_XDICTIONARY
360
219
102
}
330
1
100
AcDbSymbolTableRecord
100
AcDbBlockTableRecord
  2
TAKACHI-A3
340
0
  0
BLOCK_RECORD
  5
22D
102
{ACAD_XDICTIONARY
360
282
102
}
330
1
100
AcDbSymbolTableRecord
100
AcDbBlockTableRecord
  2
TAKACHI-TITLE
340
0
  0
BLOCK_RECORD
  5
407
330
1
100
AcDbSymbolTableRecord
100
AcDbBlockTableRecord
  2
_Open30
340
0
102
{BLKREFS
331
2DFF
331
2E00
331
2E08
331
2E09
102
}
  0
BLOCK_RECORD
  5
26C8
102
{ACAD_XDICTIONARY
360
26D0
102
}
330
1
100
AcDbSymbolTableRecord
100
AcDbBlockTableRecord
  2
TK-A3
340
0
102
{BLKREFS
331
26DA
102
}
  0
BLOCK_RECORD
  5
26DC
102
{ACAD_XDICTIONARY
360
2735
102
}
330
1
100
AcDbSymbolTableRecord
100
AcDbBlockTableRecord
  2
TK-TITLE
340
0
102
{BLKREFS
331
273A
102
}
  0
BLOCK_RECORD
  5
2B24
330
1
100
AcDbSymbolTableRecord
100
AcDbBlockTableRecord
  2
*D8
340
0
  0
BLOCK_RECORD
  5
2B5A
330
1
100
AcDbSymbolTableRecord
100
AcDbBlockTableRecord
  2
*D9
340
0
  0
BLOCK_RECORD
  5
2DDD
102
{ACAD_XDICTIONARY
360
2DE5
102
}
330
1
100
AcDbSymbolTableRecord
100
AcDbBlockTableRecord
  2
TK-A4
340
0
102
{BLKREFS
331
26DA
102
}
  0
BLOCK_RECORD
  5
3239
330
1
100
AcDbSymbolTableRecord
100
AcDbBlockTableRecord
  2
*S11
340
0
  0
BLOCK_RECORD
  5
3240
330
1
100
AcDbSymbolTableRecord
100
AcDbBlockTableRecord
  2
*S12
340
0
  0
BLOCK_RECORD
  5
3247
330
1
100
AcDbSymbolTableRecord
100
AcDbBlockTableRecord
  2
*S13
340
0
  0
BLOCK_RECORD
  5
324E
330
1
100
AcDbSymbolTableRecord
100
AcDbBlockTableRecord
  2
*S14
340
0
  0
BLOCK_RECORD
  5
3255
330
1
100
AcDbSymbolTableRecord
100
AcDbBlockTableRecord
  2
*S15
340
0
  0
BLOCK_RECORD
  5
325C
330
1
100
AcDbSymbolTableRecord
100
AcDbBlockTableRecord
  2
*S16
340
0
  0
BLOCK_RECORD
  5
3263
330
1
100
AcDbSymbolTableRecord
100
AcDbBlockTableRecord
  2
*S17
340
0
  0
BLOCK_RECORD
  5
326A
330
1
100
AcDbSymbolTableRecord
100
AcDbBlockTableRecord
  2
*S18
340
0
  0
BLOCK_RECORD
  5
3271
330
1
100
AcDbSymbolTableRecord
100
AcDbBlockTableRecord
  2
*S19
340
0
  0
BLOCK_RECORD
  5
3279
330
1
100
AcDbSymbolTableRecord
100
AcDbBlockTableRecord
  2
*S20
340
0
  0
BLOCK_RECORD
  5
3281
330
1
100
AcDbSymbolTableRecord
100
AcDbBlockTableRecord
  2
*S21
340
0
  0
BLOCK_RECORD
  5
3289
330
1
100
AcDbSymbolTableRecord
100
AcDbBlockTableRecord
  2
*S22
340
0
  0
BLOCK_RECORD
  5
3291
330
1
100
AcDbSymbolTableRecord
100
AcDbBlockTableRecord
  2
*S23
340
0
  0
ENDTAB
  0
ENDSEC
  0
SECTION
  2
BLOCKS
  0
BLOCK
  5
20
330
1F
100
AcDbEntity
  8
0
100
AcDbBlockBegin
  2
*Model_Space
 70
     0
 10
0.0
 20
0.0
 30
0.0
  3
*Model_Space
  1

  0
ENDBLK
  5
21
330
1F
100
AcDbEntity
  8
0
100
AcDbBlockEnd
  0
BLOCK
  5
24
330
23
100
AcDbEntity
 67
     1
  8
0
100
AcDbBlockBegin
  2
*Paper_Space
 70
     0
 10
0.0
 20
0.0
 30
0.0
  3
*Paper_Space
  1

  0
ENDBLK
  5
25
330
23
100
AcDbEntity
 67
     1
  8
0
100
AcDbBlockEnd
  0
BLOCK
  5
1C
330
1B
100
AcDbEntity
  8
0
100
AcDbBlockBegin
  2
*Paper_Space0
 70
     0
 10
0.0
 20
0.0
 30
0.0
  3
*Paper_Space0
  1

  0
VIEWPORT
  5
178
102
{ACAD_XDICTIONARY
360
32FF
102
}
330
1B
100
AcDbEntity
  8
0
100
AcDbViewport
 10
133.3499908447265
 20
101.5999970436096
 30
0.0
 40
370.2266912936524
 41
228.4221935424805
 69
     0
 12
133.3499908447265
 22
101.5999970436096
 13
0.0
 23
0.0
 14
10.0
 24
10.0
 15
10.0
 25
10.0
 16
0.0
 26
0.0
 36
1.0
 17
0.0
 27
0.0
 37
0.0
 42
50.0
 43
0.0
 44
0.0
 45
228.4221935424805
 50
0.0
 51
0.0
 72
   100
 90
    32800
  1

281
     0
 71
     1
 74
     0
110
0.0
120
0.0
130
0.0
111
1.0
121
0.0
131
0.0
112
0.0
122
1.0
132
0.0
 79
     0
146
0.0
  0
ENDBLK
  5
1D
330
1B
100
AcDbEntity
  8
0
100
AcDbBlockEnd
  0
BLOCK
  5
89
330
87
100
AcDbEntity
  8
0
100
AcDbBlockBegin
  2
GENAXEH
 70
     0
 10
0.0
 20
0.0
 30
0.0
  3
GENAXEH
  1

  0
LINE
  5
88
330
87
100
AcDbEntity
  8
0
100
AcDbLine
 10
-1.0
 20
0.0
 30
0.0
 11
1.0
 21
0.0
 31
0.0
  0
ENDBLK
  5
8A
330
87
100
AcDbEntity
  8
0
100
AcDbBlockEnd
  0
BLOCK
  5
21A
330
210
100
AcDbEntity
  8
0
100
AcDbBlockBegin
  2
TAKACHI-A3
 70
     0
 10
0.0
 20
0.0
 30
0.0
  3
TAKACHI-A3
  1

  0
LWPOLYLINE
  5
211
330
210
100
AcDbEntity
  8
0
100
AcDbPolyline
 90
        4
 70
     1
 43
0.0
 10
10.0
 20
0.0
 10
410.0
 20
0.0
 10
410.0
 20
280.0
 10
10.00000000000003
 20
280.0
1001
GENIUS_GENREC_14
1002
{
1000
PYDIR
1011
10.00000000000001
1021
280.0
1031
0.0
1002
}
1002
{
1000
PXDIR
1011
410.0
1021
0.0
1031
0.0
1002
}
1002
{
1000
PORI
1011
10.0
1021
0.0
1031
0.0
1002
}
1002
{
1000
PINS
1011
210.0
1021
139.9999999999999
1031
0.0
1002
}
1002
{
1000
HVAL
1000
280
1002
}
1002
{
1000
H
1070
     2
1002
}
1002
{
1000
WVAL
1000
400
1002
}
1002
{
1000
W
1070
     2
1002
}
1002
{
1000
C
1070
     4
1002
}
1001
GENIUS_GENODEF_13
1002
{
1000
HIER
1070
     0
1002
}
1002
{
1000
MANEDIT
1070
     0
1002
}
1002
{
1000
NOSEL
1070
     0
1002
}
1002
{
1000
BEHIND
1070
     0
1002
}
1002
{
1000
REACTOR
1002
}
1001
GENIUS_GENOBJ-N-REC_13
1002
{
1000
OWNER
1000
GEN
1002
}
  0
TEXT
  5
212
330
210
100
AcDbEntity
  8
0
 60
     1
100
AcDbText
 10
15.00000000000003
 20
50.0
 30
0.0
 40
2.5
  1
!GENTITLE-LL
100
AcDbText
  0
TEXT
  5
213
330
210
100
AcDbEntity
  8
0
 60
     1
100
AcDbText
 10
410.0
 20
0.0
 30
0.0
 40
2.5
  1
!GENTITLE-INSERT
100
AcDbText
  0
TEXT
  5
214
330
210
100
AcDbEntity
  8
0
 60
     1
100
AcDbText
 10
405.0
 20
275.0
 30
0.0
 40
2.5
  1
!GENTITLE-RU
100
AcDbText
  0
TEXT
  5
215
330
210
100
AcDbEntity
  8
0
 60
     1
100
AcDbText
 10
410.0
 20
280.0
 30
0.0
 40
2.5
  1
!GENTITLE-MAX
100
AcDbText
  0
LINE
  5
216
330
210
100
AcDbEntity
  8
0
100
AcDbLine
 10
375.0
 20
280.0
 30
0.0
 11
375.0
 21
275.0
 31
0.0
  0
LINE
  5
217
330
210
100
AcDbEntity
  8
0
100
AcDbLine
 10
375.0
 20
275.0
 30
0.0
 11
410.0
 21
275.0
 31
0.0
  0
MTEXT
  5
218
330
210
100
AcDbEntity
  8
0
100
AcDbMText
 10
409.3592953827348
 20
276.108542987227
 30
0.0
 40
2.5
 41
33.41
 71
     9
 72
     5
  1
(文書番号：TY-5)2000.9
 73
     1
 44
1.0
1001
ACAD
1000
MTEXTBEGIN
1070
    73
1070
     1
1070
    44
1040
1.0
1070
    74
1070
     0
1000
MTEXTEND
  0
ENDBLK
  5
21B
330
210
100
AcDbEntity
  8
0
100
AcDbBlockEnd
  0
BLOCK
  5
283
330
22D
100
AcDbEntity
  8
0
100
AcDbBlockBegin
  2
TAKACHI-TITLE
 70
     2
 10
0.0
 20
0.0
 30
0.0
  3
TAKACHI-TITLE
  1

  0
LINE
  5
22E
330
22D
100
AcDbEntity
  8
RAHM2
100
AcDbLine
 10
-195.0
 20
30.00000000000003
 30
0.0
 11
-94.0
 21
30.00000000000003
 31
0.0
  0
LINE
  5
22F
330
22D
100
AcDbEntity
  8
RAHM2
100
AcDbLine
 10
-195.0
 20
35.00000000000003
 30
0.0
 11
-94.0
 21
35.00000000000003
 31
0.0
  0
LINE
  5
230
330
22D
100
AcDbEntity
  8
RAHM2
100
AcDbLine
 10
-195.0
 20
40.00000000000002
 30
0.0
 11
-94.0
 21
40.00000000000002
 31
0.0
  0
LINE
  5
231
330
22D
100
AcDbEntity
  8
RAHM2
100
AcDbLine
 10
-195.0
 20
45.00000000000002
 30
0.0
 11
-94.0
 21
45.00000000000002
 31
0.0
  0
LINE
  5
232
330
22D
100
AcDbEntity
  8
0
100
AcDbLine
 10
-195.0
 20
7.0
 30
0.0
 11
-94.0
 21
7.0
 31
0.0
  0
LINE
  5
233
330
22D
100
AcDbEntity
  8
0
100
AcDbLine
 10
-195.0
 20
19.99999999999997
 30
0.0
 11
-94.0
 21
19.99999999999997
 31
0.0
  0
ATTDEF
  5
234
330
22D
100
AcDbEntity
  8
0
100
AcDbText
 10
-183.2438527145607
 20
8.950850524428082
 30
0.0
 40
2.5
  1

 11
-183.2438527145607
 21
8.617517191094748
 31
0.0
100
AcDbAttributeDefinition
  3
サブタイトル
  2
GEN-TITLE-DES2
 70
     0
 74
     1
  0
ATTDEF
  5
235
330
22D
100
AcDbEntity
  8
0
100
AcDbText
 10
-183.2438527145607
 20
2.017517191094748
 30
0.0
 40
3.0
  1

 11
-183.2438527145607
 21
1.617517191094748
 31
0.0
100
AcDbAttributeDefinition
  3
図番
  2
GEN-TITLE-NR
 70
     0
 74
     1
  0
MTEXT
  5
236
330
22D
100
AcDbEntity
  8
RAHM2
100
AcDbMText
 10
-193.8002551371314
 20
5.801035407279641
 30
0.0
 40
2.5
 41
90.0
 71
     1
 72
     5
  1
図番
 73
     1
 44
1.0
1001
ACAD
1000
MTEXTBEGIN
1070
    73
1070
     1
1070
    44
1040
1.0
1070
    74
1070
     0
1000
MTEXTEND
  0
ATTDEF
  5
237
330
22D
100
AcDbEntity
  8
0
100
AcDbText
 10
-183.2438527145607
 20
14.40728619501834
 30
0.0
 40
4.0
  1

 11
-183.2438527145607
 21
13.87395286168501
 31
0.0
100
AcDbAttributeDefinition
  3
品名
  2
GEN-TITLE-DES1
 70
     0
 74
     1
  0
LINE
  5
238
330
22D
100
AcDbEntity
  8
RAHM2
100
AcDbLine
 10
-187.5751288694036
 20
30.40000000000004
 30
0.0
 11
-190.0
 21
34.60000000000003
 31
0.0
  0
LINE
  5
239
330
22D
100
AcDbEntity
  8
RAHM2
100
AcDbLine
 10
-190.0
 20
34.60000000000003
 30
0.0
 11
-192.4248711305964
 21
30.40000000000004
 31
0.0
  0
LINE
  5
23A
330
22D
100
AcDbEntity
  8
RAHM2
100
AcDbLine
 10
-185.0
 20
50.00000000000003
 30
0.0
 11
-185.0
 21
19.99999999999994
 31
0.0
  0
LINE
  5
23B
330
22D
100
AcDbEntity
  8
RAHM2
100
AcDbLine
 10
-192.4248711305964
 20
30.40000000000004
 30
0.0
 11
-187.5751288694036
 21
30.40000000000004
 31
0.0
  0
MTEXT
  5
23C
330
22D
100
AcDbEntity
  8
RAHM2
100
AcDbMText
 10
-190.0
 20
22.49999999999997
 30
0.0
 40
2.5
 41
10.0
 71
     5
 72
     5
  1
符号
 73
     1
 44
1.0
1001
ACAD
1000
MTEXTBEGIN
1070
    73
1070
     1
1070
    44
1040
1.0
1070
    74
1070
     0
1000
MTEXTEND
  0
MTEXT
  5
23D
330
22D
100
AcDbEntity
  8
RAHM2
100
AcDbMText
 10
-193.8002551371314
 20
18.80103540727961
 30
0.0
 40
2.5
 41
90.0
 71
     1
 72
     5
  1
品名
 73
     1
 44
1.0
1001
ACAD
1000
MTEXTBEGIN
1070
    73
1070
     1
1070
    44
1040
1.0
1070
    74
1070
     0
1000
MTEXTEND
  0
LINE
  5
23E
330
22D
100
AcDbEntity
  8
RAHM2
100
AcDbLine
 10
-192.4248711305964
 20
45.40000000000003
 30
0.0
 11
-187.5751288694036
 21
45.40000000000003
 31
0.0
  0
LINE
  5
23F
330
22D
100
AcDbEntity
  8
RAHM2
100
AcDbLine
 10
-187.5751288694036
 20
45.40000000000003
 30
0.0
 11
-190.0
 21
49.60000000000002
 31
0.0
  0
LINE
  5
240
330
22D
100
AcDbEntity
  8
RAHM2
100
AcDbLine
 10
-192.4248711305964
 20
40.40000000000003
 30
0.0
 11
-187.5751288694036
 21
40.40000000000003
 31
0.0
  0
LINE
  5
241
330
22D
100
AcDbEntity
  8
RAHM2
100
AcDbLine
 10
-187.5751288694036
 20
40.40000000000003
 30
0.0
 11
-190.0
 21
44.60000000000002
 31
0.0
  0
LINE
  5
242
330
22D
100
AcDbEntity
  8
RAHM2
100
AcDbLine
 10
-192.4248711305964
 20
35.40000000000004
 30
0.0
 11
-187.5751288694036
 21
35.40000000000004
 31
0.0
  0
LINE
  5
243
330
22D
100
AcDbEntity
  8
RAHM2
100
AcDbLine
 10
-187.5751288694036
 20
35.40000000000004
 30
0.0
 11
-190.0
 21
39.60000000000002
 31
0.0
  0
LINE
  5
244
330
22D
100
AcDbEntity
  8
RAHM2
100
AcDbLine
 10
-190.0
 20
39.60000000000002
 30
0.0
 11
-192.4248711305964
 21
35.40000000000004
 31
0.0
  0
LINE
  5
245
330
22D
100
AcDbEntity
  8
RAHM2
100
AcDbLine
 10
-190.0
 20
44.60000000000002
 30
0.0
 11
-192.4248711305964
 21
40.40000000000003
 31
0.0
  0
LINE
  5
246
330
22D
100
AcDbEntity
  8
RAHM2
100
AcDbLine
 10
-190.0
 20
49.60000000000002
 30
0.0
 11
-192.4248711305964
 21
45.40000000000003
 31
0.0
  0
LINE
  5
247
330
22D
100
AcDbEntity
  8
RAHM2
100
AcDbLine
 10
-129.0
 20
50.00000000000003
 30
0.0
 11
-129.0
 21
19.99999999999994
 31
0.0
  0
MTEXT
  5
248
330
22D
100
AcDbEntity
  8
RAHM2
100
AcDbMText
 10
-157.1448171868856
 20
22.49999999999997
 30
0.0
 40
2.5
 41
45.0
 71
     5
 72
     5
  1
変更記事
 73
     1
 44
1.0
1001
ACAD
1000
MTEXTBEGIN
1070
    73
1070
     1
1070
    44
1040
1.0
1070
    74
1070
     0
1000
MTEXTEND
  0
LINE
  5
249
330
22D
100
AcDbEntity
  8
0
100
AcDbLine
 10
-34.0
 20
50.0
 30
0.0
 11
-34.0
 21
0.0
 31
0.0
  0
LINE
  5
24A
330
22D
100
AcDbEntity
  8
0
100
AcDbLine
 10
-94.0
 20
50.0
 30
0.0
 11
-94.0
 21
0.0
 31
0.0
  0
MTEXT
  5
24B
330
22D
100
AcDbEntity
  8
0
100
AcDbMText
 10
-64.0
 20
5.0
 30
0.0
 40
3.5
 41
60.0
 71
     5
 72
     5
  1
\fＭＳ ゴシック|b0|i0|c128|p49;株式会社タカチ電機工業
 73
     1
 44
1.0
1001
ACAD
1000
MTEXTBEGIN
1070
    73
1070
     1
1070
    44
1040
1.0
1070
    74
1070
     0
1000
MTEXTEND
  0
LINE
  5
24C
330
22D
100
AcDbEntity
  8
0
100
AcDbLine
 10
-94.0
 20
10.0
 30
0.0
 11
-34.0
 21
10.0
 31
0.0
  0
ATTDEF
  5
24D
330
22D
100
AcDbEntity
  8
0
100
AcDbText
 10
-58.01405119799745
 20
39.25500556178349
 30
0.0
 40
3.0
  1

 72
     2
 11
-58.01405119799745
 21
39.25500556178349
 31
0.0
100
AcDbAttributeDefinition
  3
尺度
  2
GEN-TITLE-SCA
 70
     0
  0
ATTDEF
  5
24E
330
22D
100
AcDbEntity
  8
0
100
AcDbText
 10
-77.00284966649007
 20
31.02180787943475
 30
0.0
 40
3.0
  1

 11
-77.00284966649007
 21
30.62180787943475
 31
0.0
100
AcDbAttributeDefinition
  3
材質
  2
GEN-TITLE-MAT1
 70
     0
 74
     1
  0
ATTDEF
  5
24F
330
22D
100
AcDbEntity
  8
0
100
AcDbText
 10
-77.00284966649007
 20
21.02180787943475
 30
0.0
 40
3.0
  1

 11
-77.00284966649007
 21
20.62180787943475
 31
0.0
100
AcDbAttributeDefinition
  3
表面処理
  2
GEN-TITLE-MAT2
 70
     0
 74
     1
  0
ATTDEF
  5
250
330
22D
100
AcDbEntity
  8
0
100
AcDbText
 10
-77.00284966649007
 20
12.01751719109475
 30
0.0
 40
3.0
  1

 11
-77.00284966649007
 21
11.61751719109475
 31
0.0
100
AcDbAttributeDefinition
  3
日付
  2
GEN-TITLE-DAT
 70
     0
 74
     1
  0
LINE
  5
251
330
22D
100
AcDbEntity
  8
0
100
AcDbLine
 10
-94.0
 20
37.5
 30
0.0
 11
-34.0
 21
37.5
 31
0.0
  0
LINE
  5
252
330
22D
100
AcDbEntity
  8
0
100
AcDbLine
 10
-94.0
 20
27.5
 30
0.0
 11
-34.0
 21
27.5
 31
0.0
  0
LINE
  5
253
330
22D
100
AcDbEntity
  8
0
100
AcDbLine
 10
-94.0
 20
17.5
 30
0.0
 11
-34.0
 21
17.5
 31
0.0
  0
LINE
  5
254
330
22D
100
AcDbEntity
  8
RAHM2
100
AcDbLine
 10
-109.0
 20
50.00000000000003
 30
0.0
 11
-109.0
 21
19.99999999999994
 31
0.0
  0
MTEXT
  5
255
330
22D
100
AcDbEntity
  8
RAHM2
100
AcDbMText
 10
-119.4582894723942
 20
32.50000000000003
 30
0.0
 40
2.5
 41
20.0
 71
     5
 72
     5
  1
・  ・   
 73
     1
 44
1.0
1001
ACAD
1000
MTEXTBEGIN
1070
    73
1070
     1
1070
    44
1040
1.0
1070
    74
1070
     0
1000
MTEXTEND
  0
MTEXT
  5
256
330
22D
100
AcDbEntity
  8
RAHM2
100
AcDbMText
 10
-118.738119805002
 20
22.49999999999997
 30
0.0
 40
2.5
 41
20.0
 71
     5
 72
     5
  1
年・月・日
 73
     1
 44
1.0
1001
ACAD
1000
MTEXTBEGIN
1070
    73
1070
     1
1070
    44
1040
1.0
1070
    74
1070
     0
1000
MTEXTEND
  0
MTEXT
  5
257
330
22D
100
AcDbEntity
  8
RAHM2
100
AcDbMText
 10
-101.5
 20
22.49999999999997
 30
0.0
 40
2.5
 41
15.0
 71
     5
 72
     5
  1
担当
 73
     1
 44
1.0
1001
ACAD
1000
MTEXTBEGIN
1070
    73
1070
     1
1070
    44
1040
1.0
1070
    74
1070
     0
1000
MTEXTEND
  0
MTEXT
  5
258
330
22D
100
AcDbEntity
  8
RAHM2
100
AcDbMText
 10
-119.4582894723942
 20
42.50000000000002
 30
0.0
 40
2.5
 41
20.0
 71
     5
 72
     5
  1
・  ・   
 73
     1
 44
1.0
1001
ACAD
1000
MTEXTBEGIN
1070
    73
1070
     1
1070
    44
1040
1.0
1070
    74
1070
     0
1000
MTEXTEND
  0
MTEXT
  5
259
330
22D
100
AcDbEntity
  8
RAHM2
100
AcDbMText
 10
-119.4582894723942
 20
37.50000000000003
 30
0.0
 40
2.5
 41
20.0
 71
     5
 72
     5
  1
・  ・   
 73
     1
 44
1.0
1001
ACAD
1000
MTEXTBEGIN
1070
    73
1070
     1
1070
    44
1040
1.0
1070
    74
1070
     0
1000
MTEXTEND
  0
MTEXT
  5
25A
330
22D
100
AcDbEntity
  8
RAHM2
100
AcDbMText
 10
-119.4582894723942
 20
47.50000000000002
 30
0.0
 40
2.5
 41
20.0
 71
     5
 72
     5
  1
・  ・   
 73
     1
 44
1.0
1001
ACAD
1000
MTEXTBEGIN
1070
    73
1070
     1
1070
    44
1040
1.0
1070
    74
1070
     0
1000
MTEXTEND
  0
MTEXT
  5
25B
330
22D
100
AcDbEntity
  8
RAHM2
100
AcDbMText
 10
-92.80025513713145
 20
16.30103540727964
 30
0.0
 40
2.5
 41
60.0
 71
     1
 72
     5
  1
日付
 73
     1
 44
1.0
1001
ACAD
1000
MTEXTBEGIN
1070
    73
1070
     1
1070
    44
1040
1.0
1070
    74
1070
     0
1000
MTEXTEND
  0
MTEXT
  5
25C
330
22D
100
AcDbEntity
  8
RAHM2
100
AcDbMText
 10
-92.80025513713145
 20
26.30103540727964
 30
0.0
 40
2.5
 41
60.0
 71
     1
 72
     5
  1
表面処理
 73
     1
 44
1.0
1001
ACAD
1000
MTEXTBEGIN
1070
    73
1070
     1
1070
    44
1040
1.0
1070
    74
1070
     0
1000
MTEXTEND
  0
LINE
  5
25D
330
22D
100
AcDbEntity
  8
7A
100
AcDbLine
 10
-89.0
 20
43.75
 30
0.0
 11
-75.2186915997147
 21
43.75
 31
0.0
1001
GENIUS_GENOREF_13
1005
270
  0
LINE
  5
25E
330
22D
100
AcDbEntity
  8
0
100
AcDbLine
 10
-84.0
 20
45.75
 30
0.0
 11
-76.0
 21
46.74999999999999
 31
0.0
  0
LINE
  5
25F
330
22D
100
AcDbEntity
  8
0
100
AcDbLine
 10
-76.0
 20
40.75
 30
0.0
 11
-84.0
 21
41.74999999999999
 31
0.0
  0
LINE
  5
260
330
22D
100
AcDbEntity
  8
7A
100
AcDbLine
 10
-89.0
 20
43.75
 30
0.0
 11
-89.0
 21
47.32478664473148
 31
0.0
1001
GENIUS_GENOREF_13
1005
270
  0
CIRCLE
  5
261
330
22D
100
AcDbEntity
  8
0
100
AcDbCircle
 10
-89.0
 20
43.75
 30
0.0
 40
2.0
  0
CIRCLE
  5
262
330
22D
100
AcDbEntity
  8
0
100
AcDbCircle
 10
-89.0
 20
43.75
 30
0.0
 40
3.0
  0
LINE
  5
263
330
22D
100
AcDbEntity
  8
0
100
AcDbLine
 10
-84.0
 20
41.74999999999999
 30
0.0
 11
-84.0
 21
45.75
 31
0.0
  0
MTEXT
  5
264
330
22D
100
AcDbEntity
  8
RAHM2
100
AcDbMText
 10
-92.80025513713145
 20
36.30103540727964
 30
0.0
 40
2.5
 41
60.0
 71
     1
 72
     5
  1
材質
 73
     1
 44
1.0
1001
ACAD
1000
MTEXTBEGIN
1070
    73
1070
     1
1070
    44
1040
1.0
1070
    74
1070
     0
1000
MTEXTEND
  0
LINE
  5
265
330
22D
100
AcDbEntity
  8
7A
100
AcDbLine
 10
-89.0
 20
43.75
 30
0.0
 11
-92.72303737125117
 21
43.75
 31
0.0
1001
GENIUS_GENOREF_13
1005
270
  0
LINE
  5
266
330
22D
100
AcDbEntity
  8
7A
100
AcDbLine
 10
-89.0
 20
43.75
 30
0.0
 11
-89.0
 21
40.03991724228479
 31
0.0
1001
GENIUS_GENOREF_13
1005
270
  0
LINE
  5
267
330
22D
100
AcDbEntity
  8
0
100
AcDbLine
 10
-76.0
 20
46.74999999999999
 30
0.0
 11
-76.0
 21
40.75
 31
0.0
  0
LINE
  5
268
330
22D
100
AcDbEntity
  8
0
100
AcDbLine
 10
-74.0
 20
50.0
 30
0.0
 11
-74.0
 21
37.5
 31
0.0
  0
MTEXT
  5
269
330
22D
100
AcDbEntity
  8
RAHM2
100
AcDbMText
 10
-72.80025513713145
 20
48.80103540727964
 30
0.0
 40
2.5
 41
20.0
 71
     1
 72
     5
  1
尺度
 73
     1
 44
1.0
1001
ACAD
1000
MTEXTBEGIN
1070
    73
1070
     1
1070
    44
1040
1.0
1070
    74
1070
     0
1000
MTEXTEND
  0
ATTDEF
  5
26A
330
22D
100
AcDbEntity
  8
0
100
AcDbText
 10
-37.76317379391503
 20
39.25500556178349
 30
0.0
 40
3.0
  1

 72
     2
 11
-37.76317379391503
 21
39.25500556178349
 31
0.0
100
AcDbAttributeDefinition
  3
数量
  2
GEN-TITLE-QTY
 70
     0
  0
LINE
  5
26B
330
22D
100
AcDbEntity
  8
0
100
AcDbLine
 10
-34.0
 20
25.0
 30
0.0
 11
0.0
 21
25.0
 31
0.0
  0
LINE
  5
26C
330
22D
100
AcDbEntity
  8
0
100
AcDbLine
 10
-54.0
 20
50.0
 30
0.0
 11
-54.0
 21
37.5
 31
0.0
  0
MTEXT
  5
26D
330
22D
100
AcDbEntity
  8
RAHM2
100
AcDbMText
 10
-52.80025513713145
 20
48.80103540727964
 30
0.0
 40
2.5
 41
20.0
 71
     1
 72
     5
  1
数量
 73
     1
 44
1.0
1001
ACAD
1000
MTEXTBEGIN
1070
    73
1070
     1
1070
    44
1040
1.0
1070
    74
1070
     0
1000
MTEXTEND
  0
MTEXT
  5
26E
330
22D
100
AcDbEntity
  8
RAHM2
100
AcDbMText
 10
-25.5
 20
23.80103540727964
 30
0.0
 40
2.5
 41
17.0
 71
     2
 72
     5
  1
承認
 73
     1
 44
1.0
1001
ACAD
1000
MTEXTBEGIN
1070
    73
1070
     1
1070
    44
1040
1.0
1070
    74
1070
     0
1000
MTEXTEND
  0
MTEXT
  5
26F
330
22D
100
AcDbEntity
  8
RAHM2
100
AcDbMText
 10
-25.5
 20
48.80103540727964
 30
0.0
 40
2.5
 41
17.0
 71
     2
 72
     5
  1
承認
 73
     1
 44
1.0
1001
ACAD
1000
MTEXTBEGIN
1070
    73
1070
     1
1070
    44
1040
1.0
1070
    74
1070
     0
1000
MTEXTEND
  0
POINT
  5
270
330
22D
100
AcDbEntity
  8
0
 60
     1
100
AcDbPoint
 10
-320.5355579819676
 20
-138.1104841268254
 30
0.0
1001
GENIUS_GENODEF_13
1002
{
1000
HIER
1070
    10
1002
}
1002
{
1000
MANEDIT
1070
     0
1002
}
1002
{
1000
NOSEL
1070
     0
1002
}
1002
{
1000
BEHIND
1070
     0
1002
}
1002
{
1000
REACTOR
1002
}
1001
GENIUS_GENOBJ-N-CRS_13
1002
{
1000
OWNER
1000
GEN
1002
}
1001
GENIUS_GENOENT_13
1002
{
1000
MYREF
1005
270
1002
}
1002
{
1000
GRP
1005
0
1002
}
1001
GENIUS_GENOLIS_13
1002
{
1000
ENT
1005
266
1005
265
1005
260
1005
25D
1002
}
  0
LINE
  5
271
330
22D
100
AcDbEntity
  8
RAHM2
100
AcDbLine
 10
-190.0
 20
29.60000000000002
 30
0.0
 11
-192.4248711305964
 21
25.40000000000004
 31
0.0
  0
LINE
  5
272
330
22D
100
AcDbEntity
  8
RAHM2
100
AcDbLine
 10
-187.5751288694036
 20
25.40000000000004
 30
0.0
 11
-190.0
 21
29.60000000000002
 31
0.0
  0
LINE
  5
273
330
22D
100
AcDbEntity
  8
RAHM2
100
AcDbLine
 10
-192.4248711305964
 20
25.40000000000004
 30
0.0
 11
-187.5751288694036
 21
25.40000000000004
 31
0.0
  0
LINE
  5
274
330
22D
100
AcDbEntity
  8
RAHM2
100
AcDbLine
 10
-195.0
 20
25.00000000000003
 30
0.0
 11
-94.0
 21
25.00000000000003
 31
0.0
  0
MTEXT
  5
275
330
22D
100
AcDbEntity
  8
RAHM2
100
AcDbMText
 10
-119.4582894723942
 20
27.50000000000003
 30
0.0
 40
2.5
 41
20.0
 71
     5
 72
     5
  1
・  ・   
 73
     1
 44
1.0
1001
ACAD
1000
MTEXTBEGIN
1070
    73
1070
     1
1070
    44
1040
1.0
1070
    74
1070
     0
1000
MTEXTEND
  0
TEXT
  5
276
330
22D
100
AcDbEntity
  8
RAHM2
100
AcDbText
 10
-190.8155863565801
 20
25.98333333333337
 30
0.0
 40
2.5
  1
1
 72
     1
 11
-190.1905863565802
 21
25.65000000000003
 31
0.0
100
AcDbText
 73
     1
  0
TEXT
  5
277
330
22D
100
AcDbEntity
  8
RAHM2
100
AcDbText
 10
-190.9183316929134
 20
30.98333333333337
 30
0.0
 40
2.5
  1
2
 72
     1
 11
-190.0
 21
30.65000000000003
 31
0.0
100
AcDbText
 73
     1
  0
TEXT
  5
278
330
22D
100
AcDbEntity
  8
RAHM2
100
AcDbText
 10
-190.9267766952966
 20
35.98333333333334
 30
0.0
 40
2.5
  1
3
 72
     1
 11
-190.0
 21
35.65000000000001
 31
0.0
100
AcDbText
 73
     1
  0
TEXT
  5
279
330
22D
100
AcDbEntity
  8
RAHM2
100
AcDbText
 10
-191.0
 20
40.98333333333337
 30
0.0
 40
2.5
  1
4
 72
     1
 11
-190.0
 21
40.65000000000003
 31
0.0
100
AcDbText
 73
     1
  0
TEXT
  5
27A
330
22D
100
AcDbEntity
  8
RAHM2
100
AcDbText
 10
-190.9267766952966
 20
45.98333333333337
 30
0.0
 40
2.5
  1
5
 72
     1
 11
-190.0
 21
45.65000000000003
 31
0.0
100
AcDbText
 73
     1
  0
LINE
  5
27B
330
22D
100
AcDbEntity
  8
0
100
AcDbLine
 10
-17.0
 20
50.0
 30
0.0
 11
-17.0
 21
0.0
 31
0.0
  0
LINE
  5
27C
330
22D
100
AcDbEntity
  8
0
100
AcDbLine
 10
-195.0
 20
0.0
 30
0.0
 11
0.0
 21
0.0
 31
0.0
1001
GENIUS_GENREC_14
1002
{
1000
PYDIR
1011
-184.0
1021
50.0
1031
0.0
1002
}
1002
{
1000
PXDIR
1011
0.0
1021
0.0
1031
0.0
1002
}
1002
{
1000
PORI
1011
-184.0
1021
0.0
1031
0.0
1002
}
1002
{
1000
PINS
1011
-100.5
1021
25.0
1031
0.0
1002
}
1002
{
1000
HVAL
1000
50
1002
}
1002
{
1000
H
1070
     2
1002
}
1002
{
1000
WVAL
1000
167
1002
}
1002
{
1000
W
1070
     2
1002
}
1002
{
1000
C
1070
     4
1002
}
1001
GENIUS_GENODEF_13
1002
{
1000
HIER
1070
     0
1002
}
1002
{
1000
MANEDIT
1070
     0
1002
}
1002
{
1000
NOSEL
1070
     0
1002
}
1002
{
1000
BEHIND
1070
     0
1002
}
1002
{
1000
REACTOR
1002
}
1001
GENIUS_GENOBJ-N-REC_13
1002
{
1000
OWNER
1000
GEN
1002
}
  0
LINE
  5
27D
330
22D
100
AcDbEntity
  8
0
100
AcDbLine
 10
0.0
 20
0.0
 30
0.0
 11
0.0
 21
50.0
 31
0.0
1001
GENIUS_GENREC_14
1002
{
1000
PYDIR
1011
-184.0
1021
50.0
1031
0.0
1002
}
1002
{
1000
PXDIR
1011
0.0
1021
0.0
1031
0.0
1002
}
1002
{
1000
PORI
1011
-184.0
1021
0.0
1031
0.0
1002
}
1002
{
1000
PINS
1011
-100.5
1021
25.0
1031
0.0
1002
}
1002
{
1000
HVAL
1000
50
1002
}
1002
{
1000
H
1070
     2
1002
}
1002
{
1000
WVAL
1000
167
1002
}
1002
{
1000
W
1070
     2
1002
}
1002
{
1000
C
1070
     4
1002
}
1001
GENIUS_GENODEF_13
1002
{
1000
HIER
1070
     0
1002
}
1002
{
1000
MANEDIT
1070
     0
1002
}
1002
{
1000
NOSEL
1070
     0
1002
}
1002
{
1000
BEHIND
1070
     0
1002
}
1002
{
1000
REACTOR
1002
}
1001
GENIUS_GENOBJ-N-REC_13
1002
{
1000
OWNER
1000
GEN
1002
}
  0
LINE
  5
27E
330
22D
100
AcDbEntity
  8
0
100
AcDbLine
 10
0.0
 20
50.0
 30
0.0
 11
-195.0
 21
50.00000000000003
 31
0.0
1001
GENIUS_GENREC_14
1002
{
1000
PYDIR
1011
-184.0
1021
50.0
1031
0.0
1002
}
1002
{
1000
PXDIR
1011
0.0
1021
0.0
1031
0.0
1002
}
1002
{
1000
PORI
1011
-184.0
1021
0.0
1031
0.0
1002
}
1002
{
1000
PINS
1011
-100.5
1021
25.0
1031
0.0
1002
}
1002
{
1000
HVAL
1000
50
1002
}
1002
{
1000
H
1070
     2
1002
}
1002
{
1000
WVAL
1000
167
1002
}
1002
{
1000
W
1070
     2
1002
}
1002
{
1000
C
1070
     4
1002
}
1001
GENIUS_GENODEF_13
1002
{
1000
HIER
1070
     0
1002
}
1002
{
1000
MANEDIT
1070
     0
1002
}
1002
{
1000
NOSEL
1070
     0
1002
}
1002
{
1000
BEHIND
1070
     0
1002
}
1002
{
1000
REACTOR
1002
}
1001
GENIUS_GENOBJ-N-REC_13
1002
{
1000
OWNER
1000
GEN
1002
}
  0
LINE
  5
27F
330
22D
100
AcDbEntity
  8
0
100
AcDbLine
 10
-195.0
 20
50.00000000000003
 30
0.0
 11
-195.0
 21
0.0
 31
0.0
1001
GENIUS_GENREC_14
1002
{
1000
PYDIR
1011
-195.0
1021
50.0
1031
0.0
1002
}
1002
{
1000
PXDIR
1011
-11.0
1021
0.0
1031
0.0
1002
}
1002
{
1000
PORI
1011
-195.0
1021
0.0
1031
0.0
1002
}
1002
{
1000
PINS
1011
-111.5
1021
25.0
1031
0.0
1002
}
1002
{
1000
HVAL
1000
50
1002
}
1002
{
1000
H
1070
     2
1002
}
1002
{
1000
WVAL
1000
167
1002
}
1002
{
1000
W
1070
     2
1002
}
1002
{
1000
C
1070
     4
1002
}
1001
GENIUS_GENODEF_13
1002
{
1000
HIER
1070
     0
1002
}
1002
{
1000
MANEDIT
1070
     0
1002
}
1002
{
1000
NOSEL
1070
     0
1002
}
1002
{
1000
BEHIND
1070
     0
1002
}
1002
{
1000
REACTOR
1002
}
1001
GENIUS_GENOBJ-N-REC_13
1002
{
1000
OWNER
1000
GEN
1002
}
  0
MTEXT
  5
280
330
22D
100
AcDbEntity
  8
RAHM2
100
AcDbMText
 10
-8.5
 20
48.80103540727964
 30
0.0
 40
2.5
 41
17.0
 71
     2
 72
     5
  1
検図
 73
     1
 44
1.0
1001
ACAD
1000
MTEXTBEGIN
1070
    73
1070
     1
1070
    44
1040
1.0
1070
    74
1070
     0
1000
MTEXTEND
  0
MTEXT
  5
281
330
22D
100
AcDbEntity
  8
RAHM2
100
AcDbMText
 10
-8.5
 20
23.80103540727964
 30
0.0
 40
2.5
 41
17.0
 71
     2
 72
     5
  1
製図
 73
     1
 44
1.0
1001
ACAD
1000
MTEXTBEGIN
1070
    73
1070
     1
1070
    44
1040
1.0
1070
    74
1070
     0
1000
MTEXTEND
  0
ENDBLK
  5
284
330
22D
100
AcDbEntity
  8
0
100
AcDbBlockEnd
  0
BLOCK
  5
40B
330
407
100
AcDbEntity
  8
0
100
AcDbBlockBegin
  2
_Open30
 70
     0
 10
0.0
 20
0.0
 30
0.0
  3
_Open30
  1

  0
LINE
  5
408
330
407
100
AcDbEntity
  8
0
  6
ByBlock
 62
     0
370
    -2
100
AcDbLine
 10
-1.0
 20
0.26794919
 30
0.0
 11
0.0
 21
0.0
 31
0.0
  0
LINE
  5
409
330
407
100
AcDbEntity
  8
0
  6
ByBlock
 62
     0
370
    -2
100
AcDbLine
 10
0.0
 20
0.0
 30
0.0
 11
-1.0
 21
-0.26794919
 31
0.0
  0
LINE
  5
40A
330
407
100
AcDbEntity
  8
0
  6
ByBlock
 62
     0
370
    -2
100
AcDbLine
 10
0.0
 20
0.0
 30
0.0
 11
-1.0
 21
0.0
 31
0.0
  0
ENDBLK
  5
40C
330
407
100
AcDbEntity
  8
0
100
AcDbBlockEnd
  0
BLOCK
  5
26D1
330
26C8
100
AcDbEntity
  8
0
100
AcDbBlockBegin
  2
TK-A3
 70
     0
 10
0.0
 20
0.0
 30
0.0
  3
TK-A3
  1

  0
LINE
  5
26C9
330
26C8
100
AcDbEntity
  8
0
100
AcDbLine
 10
359.0
 20
280.0
 30
0.0
 11
359.0
 21
275.0
 31
0.0
  0
MTEXT
  5
26CA
330
26C8
100
AcDbEntity
  8
0
100
AcDbMText
 10
402.3592953827349
 20
276.108542987227
 30
0.0
 40
2.5
 41
43.07840397728298
 71
     9
 72
     5
  1
(文書番号：TY-34)2008.02.08
 73
     1
 44
1.0
1001
ACAD
1000
MTEXTBEGIN
1070
    73
1070
     1
1070
    44
1040
1.0
1070
    74
1070
     0
1000
MTEXTEND
  0
LINE
  5
26CB
330
26C8
100
AcDbEntity
  8
0
100
AcDbLine
 10
359.0
 20
275.0
 30
0.0
 11
403.0
 21
275.0
 31
0.0
  0
TEXT
  5
26CC
330
26C8
100
AcDbEntity
  8
0
 60
     1
100
AcDbText
 10
403.0
 20
0.0
 30
0.0
 40
2.5
  1
!GENTITLE-INSERT
100
AcDbText
  0
TEXT
  5
26CD
330
26C8
100
AcDbEntity
  8
0
 60
     1
100
AcDbText
 10
0.0
 20
0.0
 30
0.0
 40
2.5
  1
!GENTITLE-LL
100
AcDbText
  0
TEXT
  5
26CE
330
26C8
100
AcDbEntity
  8
0
 60
     1
100
AcDbText
 10
403.0
 20
280.0
 30
0.0
 40
2.5
  1
!GENTITLE-MAX
100
AcDbText
  0
LWPOLYLINE
  5
26CF
330
26C8
100
AcDbEntity
  8
0
100
AcDbPolyline
 90
        4
 70
     1
 43
0.0
 10
0.0
 20
0.0
 10
403.0
 20
0.0
 10
403.0
 20
280.0
 10
0.0
 20
280.0000000000001
1001
GENIUS_GENREC_14
1002
{
1000
PYDIR
1011
0.0000000000000178
1021
280.0
1031
0.0
1002
}
1002
{
1000
PXDIR
1011
403.0
1021
0.0
1031
0.0
1002
}
1002
{
1000
PORI
1011
0.0
1021
0.0
1031
0.0
1002
}
1002
{
1000
PINS
1011
0.0
1021
0.0
1031
0.0
1002
}
1002
{
1000
PINS2
1011
403.0
1021
280.0
1031
0.0
1002
}
1002
{
1000
C
1070
     1
1002
}
1001
GENIUS_GENODEF_13
1002
{
1000
HIER
1070
     0
1002
}
1002
{
1000
MANEDIT
1070
     0
1002
}
1002
{
1000
NOSEL
1070
     0
1002
}
1002
{
1000
BEHIND
1070
     0
1002
}
1002
{
1000
OTHER
1070
     0
1002
}
1002
{
1000
REACTOR
1002
}
1001
GENIUS_GENOBJ-N-REC_13
1002
{
1000
OWNER
1000
GEN
1002
}
  0
ENDBLK
  5
26D2
330
26C8
100
AcDbEntity
  8
0
100
AcDbBlockEnd
  0
BLOCK
  5
2736
330
26DC
100
AcDbEntity
  8
0
100
AcDbBlockBegin
  2
TK-TITLE
 70
     2
 10
0.0
 20
0.0
 30
0.0
  3
TK-TITLE
  1

  0
LINE
  5
26DD
330
26DC
100
AcDbEntity
  8
0
100
AcDbLine
 10
-167.0
 20
12.49999999999996
 30
0.0
 11
-193.0000000000001
 21
12.49999999999996
 31
0.0
  0
LINE
  5
26DE
330
26DC
100
AcDbEntity
  8
0
100
AcDbLine
 10
-167.0
 20
37.49999999999998
 30
0.0
 11
-193.0000000000001
 21
37.49999999999998
 31
0.0
  0
ATTDEF
  5
26DF
330
26DC
100
AcDbEntity
  8
0
100
AcDbText
 10
-180.2171951662138
 20
3.988342537610664
 30
0.0
 40
3.0
  1

 72
     1
 11
-180.2171951662138
 21
3.588342537610664
 31
0.0
100
AcDbAttributeDefinition
  3
日付
  2
GEN-TITLE-DAT
 70
     0
 74
     1
  0
MTEXT
  5
26E0
330
26DC
100
AcDbEntity
  8
RAHM2
100
AcDbMText
 10
-191.8002551371315
 20
11.3010354072796
 30
0.0
 40
2.5
 41
60.0
 71
     1
 72
     5
  1
日付
 73
     1
 44
1.0
1001
ACAD
1000
MTEXTBEGIN
1070
    73
1070
     1
1070
    44
1040
1.0
1070
    74
1070
     0
1000
MTEXTEND
  0
ATTDEF
  5
26E1
330
26DC
100
AcDbEntity
  8
0
100
AcDbText
 10
-177.824739614424
 20
28.69999999999997
 30
0.0
 40
3.0
  1

 72
     2
 11
-177.824739614424
 21
28.29999999999998
 31
0.0
100
AcDbAttributeDefinition
  3
尺度
  2
GEN-TITLE-SCA
 70
     0
 74
     1
  0
MTEXT
  5
26E2
330
26DC
100
AcDbEntity
  8
RAHM2
100
AcDbMText
 10
-191.8002551371315
 20
36.30103540727966
 30
0.0
 40
2.5
 41
20.0
 71
     1
 72
     5
  1
尺度
 73
     1
 44
1.0
1001
ACAD
1000
MTEXTBEGIN
1070
    73
1070
     1
1070
    44
1040
1.0
1070
    74
1070
     0
1000
MTEXTEND
  0
MTEXT
  5
26E3
330
26DC
100
AcDbEntity
  8
RAHM2
100
AcDbMText
 10
-191.8002551371315
 20
23.80103540727963
 30
0.0
 40
2.5
 41
20.0
 71
     1
 72
     5
  1
数量
 73
     1
 44
1.0
1001
ACAD
1000
MTEXTBEGIN
1070
    73
1070
     1
1070
    44
1040
1.0
1070
    74
1070
     0
1000
MTEXTEND
  0
ATTDEF
  5
26E4
330
26DC
100
AcDbEntity
  8
0
100
AcDbText
 10
-175.6127409126095
 20
16.19999999999994
 30
0.0
 40
3.0
  1

 72
     2
 11
-175.6127409126095
 21
15.79999999999994
 31
0.0
100
AcDbAttributeDefinition
  3
数量
  2
GEN-TITLE-QTY
 70
     0
 74
     1
  0
LINE
  5
26E5
330
26DC
100
AcDbEntity
  8
0
100
AcDbLine
 10
-193.0000000000001
 20
49.99999999999999
 30
0.0
 11
-193.0000000000001
 21
-0.0000000000000142
 31
0.0
  0
LINE
  5
26E6
330
26DC
100
AcDbEntity
  8
7A
100
AcDbLine
 10
-184.7167418745796
 20
43.74999999999995
 30
0.0
 11
-170.9354334742943
 21
43.74999999999995
 31
0.0
1001
GENIUS_GENOREF_13
1005
2734
  0
LINE
  5
26E7
330
26DC
100
AcDbEntity
  8
0
100
AcDbLine
 10
-179.7167418745796
 20
45.74999999999994
 30
0.0
 11
-171.7167418745796
 21
46.74999999999995
 31
0.0
  0
LINE
  5
26E8
330
26DC
100
AcDbEntity
  8
0
100
AcDbLine
 10
-171.7167418745796
 20
40.74999999999994
 30
0.0
 11
-179.7167418745796
 21
41.74999999999995
 31
0.0
  0
LINE
  5
26E9
330
26DC
100
AcDbEntity
  8
7A
100
AcDbLine
 10
-184.7167418745796
 20
43.74999999999995
 30
0.0
 11
-184.7167418745796
 21
47.32478664473144
 31
0.0
1001
GENIUS_GENOREF_13
1005
2734
  0
CIRCLE
  5
26EA
330
26DC
100
AcDbEntity
  8
0
100
AcDbCircle
 10
-184.7167418745796
 20
43.74999999999995
 30
0.0
 40
2.0
  0
CIRCLE
  5
26EB
330
26DC
100
AcDbEntity
  8
0
100
AcDbCircle
 10
-184.7167418745796
 20
43.74999999999995
 30
0.0
 40
3.0
  0
LINE
  5
26EC
330
26DC
100
AcDbEntity
  8
0
100
AcDbLine
 10
-179.7167418745796
 20
41.74999999999995
 30
0.0
 11
-179.7167418745796
 21
45.74999999999994
 31
0.0
  0
LINE
  5
26ED
330
26DC
100
AcDbEntity
  8
7A
100
AcDbLine
 10
-184.7167418745796
 20
43.74999999999995
 30
0.0
 11
-188.4397792458307
 21
43.74999999999995
 31
0.0
1001
GENIUS_GENOREF_13
1005
2734
  0
LINE
  5
26EE
330
26DC
100
AcDbEntity
  8
7A
100
AcDbLine
 10
-184.7167418745796
 20
43.74999999999995
 30
0.0
 11
-184.7167418745796
 21
40.03991724228473
 31
0.0
1001
GENIUS_GENOREF_13
1005
2734
  0
LINE
  5
26EF
330
26DC
100
AcDbEntity
  8
0
100
AcDbLine
 10
-171.7167418745796
 20
46.74999999999995
 30
0.0
 11
-171.7167418745796
 21
40.74999999999994
 31
0.0
  0
LINE
  5
26F0
330
26DC
100
AcDbEntity
  8
0
100
AcDbLine
 10
-167.0
 20
24.99999999999997
 30
0.0
 11
-193.0000000000001
 21
24.99999999999997
 31
0.0
  0
LINE
  5
26F1
330
26DC
100
AcDbEntity
  8
0
100
AcDbLine
 10
-167.0
 20
39.99999999999991
 30
0.0
 11
-96.0
 21
39.99999999999992
 31
0.0
  0
MTEXT
  5
26F2
330
26DC
100
AcDbEntity
  8
RAHM2
100
AcDbMText
 10
-165.8002551371314
 20
38.80103540727956
 30
0.0
 40
2.5
 41
60.0
 71
     1
 72
     5
  1
表面処理
 73
     1
 44
1.0
1001
ACAD
1000
MTEXTBEGIN
1070
    73
1070
     1
1070
    44
1040
1.0
1070
    74
1070
     0
1000
MTEXTEND
  0
MTEXT
  5
26F3
330
26DC
100
AcDbEntity
  8
RAHM2
100
AcDbMText
 10
-165.8002551371314
 20
48.80103540727955
 30
0.0
 40
2.5
 41
60.0
 71
     1
 72
     5
  1
材質
 73
     1
 44
1.0
1001
ACAD
1000
MTEXTBEGIN
1070
    73
1070
     1
1070
    44
1040
1.0
1070
    74
1070
     0
1000
MTEXTEND
  0
ATTDEF
  5
26F4
330
26DC
100
AcDbEntity
  8
0
100
AcDbText
 10
-148.9618675835291
 20
33.29999999999991
 30
0.0
 40
3.0
  1

100
AcDbAttributeDefinition
  3
表面処理
  2
GEN-TITLE-MAT2
 70
     0
  0
ATTDEF
  5
26F5
330
26DC
100
AcDbEntity
  8
0
100
AcDbText
 10
-148.9618675835291
 20
43.29999999999991
 30
0.0
 40
3.0
  1

100
AcDbAttributeDefinition
  3
材質
  2
GEN-TITLE-MAT1
 70
     0
  0
MTEXT
  5
26F6
330
26DC
100
AcDbEntity
  8
0
100
AcDbMText
 10
-131.5000000000001
 20
24.99999999999992
 30
0.0
 40
3.5
 41
60.0
 71
     5
 72
     5
  1
\fＭＳ ゴシック|b0|i0|c128|p49;株式会社タカチ電機工業
 73
     1
 44
1.0
1001
ACAD
1000
MTEXTBEGIN
1070
    73
1070
     1
1070
    44
1040
1.0
1070
    74
1070
     0
1000
MTEXTEND
  0
LINE
  5
26F7
330
26DC
100
AcDbEntity
  8
0
100
AcDbLine
 10
-167.0
 20
29.99999999999992
 30
0.0
 11
-96.0
 21
29.99999999999992
 31
0.0
  0
MTEXT
  5
26F8
330
26DC
100
AcDbEntity
  8
RAHM2
100
AcDbMText
 10
-158.1250000000001
 20
18.80103540727956
 30
0.0
 40
2.5
 41
17.0
 71
     2
 72
     5
  1
承認
 73
     1
 44
1.0
1001
ACAD
1000
MTEXTBEGIN
1070
    73
1070
     1
1070
    44
1040
1.0
1070
    74
1070
     0
1000
MTEXTEND
  0
MTEXT
  5
26F9
330
26DC
100
AcDbEntity
  8
RAHM2
100
AcDbMText
 10
-140.3750000000001
 20
18.80103540727958
 30
0.0
 40
2.5
 41
17.0
 71
     2
 72
     5
  1
承認
 73
     1
 44
1.0
1001
ACAD
1000
MTEXTBEGIN
1070
    73
1070
     1
1070
    44
1040
1.0
1070
    74
1070
     0
1000
MTEXTEND
  0
LINE
  5
26FA
330
26DC
100
AcDbEntity
  8
0
100
AcDbLine
 10
-149.2500000000001
 20
19.99999999999993
 30
0.0
 11
-149.2500000000001
 21
-0.0000000000000462
 31
0.0
  0
LINE
  5
26FB
330
26DC
100
AcDbEntity
  8
0
100
AcDbLine
 10
-167.0
 20
49.99999999999995
 30
0.0
 11
-167.0
 21
-0.0000000000000497
 31
0.0
  0
MTEXT
  5
26FC
330
26DC
100
AcDbEntity
  8
RAHM2
100
AcDbMText
 10
-122.6250000000001
 20
18.80103540727958
 30
0.0
 40
2.5
 41
17.0
 71
     2
 72
     5
  1
検図
 73
     1
 44
1.0
1001
ACAD
1000
MTEXTBEGIN
1070
    73
1070
     1
1070
    44
1040
1.0
1070
    74
1070
     0
1000
MTEXTEND
  0
LINE
  5
26FD
330
26DC
100
AcDbEntity
  8
0
100
AcDbLine
 10
-131.5000000000001
 20
19.99999999999993
 30
0.0
 11
-131.5000000000001
 21
-0.0000000000000533
 31
0.0
  0
LINE
  5
26FE
330
26DC
100
AcDbEntity
  8
0
100
AcDbLine
 10
-113.75
 20
19.99999999999993
 30
0.0
 11
-113.75
 21
-0.0000000000000533
 31
0.0
  0
LINE
  5
26FF
330
26DC
100
AcDbEntity
  8
0
100
AcDbLine
 10
-167.0
 20
19.99999999999993
 30
0.0
 11
-96.0
 21
19.99999999999993
 31
0.0
  0
MTEXT
  5
2700
330
26DC
100
AcDbEntity
  8
RAHM2
100
AcDbMText
 10
-104.875
 20
18.80103540727957
 30
0.0
 40
2.5
 41
17.0
 71
     2
 72
     5
  1
製図
 73
     1
 44
1.0
1001
ACAD
1000
MTEXTBEGIN
1070
    73
1070
     1
1070
    44
1040
1.0
1070
    74
1070
     0
1000
MTEXTEND
  0
MTEXT
  5
2701
330
26DC
100
AcDbEntity
  8
RAHM2
100
AcDbMText
 10
-16.85742592933491
 20
3.434762466565985
 30
0.0
 40
2.5
 41
7.936478436748416
 71
     5
 72
     5
  1
Rev.
 73
     1
 44
1.0
1001
ACAD
1000
MTEXTBEGIN
1070
    73
1070
     1
1070
    44
1040
1.0
1070
    74
1070
     0
1000
MTEXTEND
  0
LINE
  5
2702
330
26DC
100
AcDbEntity
  8
0
100
AcDbLine
 10
-21.17541926625711
 20
0.0
 30
0.0
 11
-21.17541926625734
 21
7.0
 31
0.0
  0
LINE
  5
2703
330
26DC
100
AcDbEntity
  8
RAHM2
100
AcDbLine
 10
-96.0
 20
29.99999999999992
 30
0.0
 11
0.0000000000001137
 21
30.00000000000003
 31
0.0
  0
LINE
  5
2704
330
26DC
100
AcDbEntity
  8
RAHM2
100
AcDbLine
 10
-96.0
 20
35.00000000000003
 30
0.0
 11
0.0000000000001137
 21
35.00000000000003
 31
0.0
  0
LINE
  5
2705
330
26DC
100
AcDbEntity
  8
RAHM2
100
AcDbLine
 10
-96.0
 20
39.99999999999993
 30
0.0
 11
0.0000000000001137
 21
40.00000000000002
 31
0.0
  0
LINE
  5
2706
330
26DC
100
AcDbEntity
  8
RAHM2
100
AcDbLine
 10
-96.0
 20
45.00000000000002
 30
0.0
 11
0.0000000000001137
 21
45.00000000000002
 31
0.0
  0
LINE
  5
2707
330
26DC
100
AcDbEntity
  8
0
100
AcDbLine
 10
-96.0
 20
7.0
 30
0.0
 11
0.0000000000001137
 21
7.0
 31
0.0
  0
LINE
  5
2708
330
26DC
100
AcDbEntity
  8
0
100
AcDbLine
 10
-96.0
 20
19.99999999999997
 30
0.0
 11
0.0000000000001137
 21
19.99999999999997
 31
0.0
  0
MTEXT
  5
2709
330
26DC
100
AcDbEntity
  8
RAHM2
100
AcDbMText
 10
-94.80025513713144
 20
5.801035407279627
 30
0.0
 40
2.5
 41
90.0
 71
     1
 72
     5
  1
図番
 73
     1
 44
1.0
1001
ACAD
1000
MTEXTBEGIN
1070
    73
1070
     1
1070
    44
1040
1.0
1070
    74
1070
     0
1000
MTEXTEND
  0
LINE
  5
270A
330
26DC
100
AcDbEntity
  8
RAHM2
100
AcDbLine
 10
-88.57512886940355
 20
30.40000000000002
 30
0.0
 11
-91.0
 21
34.60000000000001
 31
0.0
  0
LINE
  5
270B
330
26DC
100
AcDbEntity
  8
RAHM2
100
AcDbLine
 10
-91.0
 20
34.60000000000001
 30
0.0
 11
-93.42487113059645
 21
30.40000000000002
 31
0.0
  0
LINE
  5
270C
330
26DC
100
AcDbEntity
  8
RAHM2
100
AcDbLine
 10
-86.0
 20
50.00000000000001
 30
0.0
 11
-86.0
 21
19.99999999999993
 31
0.0
  0
LINE
  5
270D
330
26DC
100
AcDbEntity
  8
RAHM2
100
AcDbLine
 10
-93.42487113059645
 20
30.40000000000002
 30
0.0
 11
-88.57512886940355
 21
30.40000000000002
 31
0.0
  0
MTEXT
  5
270E
330
26DC
100
AcDbEntity
  8
RAHM2
100
AcDbMText
 10
-91.0
 20
22.49999999999996
 30
0.0
 40
2.5
 41
10.0
 71
     5
 72
     5
  1
符号
 73
     1
 44
1.0
1001
ACAD
1000
MTEXTBEGIN
1070
    73
1070
     1
1070
    44
1040
1.0
1070
    74
1070
     0
1000
MTEXTEND
  0
MTEXT
  5
270F
330
26DC
100
AcDbEntity
  8
RAHM2
100
AcDbMText
 10
-94.80025513713144
 20
18.8010354072796
 30
0.0
 40
2.5
 41
90.0
 71
     1
 72
     5
  1
品名
 73
     1
 44
1.0
1001
ACAD
1000
MTEXTBEGIN
1070
    73
1070
     1
1070
    44
1040
1.0
1070
    74
1070
     0
1000
MTEXTEND
  0
LINE
  5
2710
330
26DC
100
AcDbEntity
  8
RAHM2
100
AcDbLine
 10
-93.42487113059645
 20
45.40000000000001
 30
0.0
 11
-88.57512886940355
 21
45.40000000000001
 31
0.0
  0
LINE
  5
2711
330
26DC
100
AcDbEntity
  8
RAHM2
100
AcDbLine
 10
-88.57512886940355
 20
45.40000000000001
 30
0.0
 11
-91.0
 21
49.6
 31
0.0
  0
LINE
  5
2712
330
26DC
100
AcDbEntity
  8
RAHM2
100
AcDbLine
 10
-93.42487113059645
 20
40.40000000000001
 30
0.0
 11
-88.57512886940355
 21
40.40000000000001
 31
0.0
  0
LINE
  5
2713
330
26DC
100
AcDbEntity
  8
RAHM2
100
AcDbLine
 10
-88.57512886940355
 20
40.40000000000001
 30
0.0
 11
-91.0
 21
44.6
 31
0.0
  0
LINE
  5
2714
330
26DC
100
AcDbEntity
  8
RAHM2
100
AcDbLine
 10
-93.42487113059645
 20
35.40000000000002
 30
0.0
 11
-88.57512886940355
 21
35.40000000000002
 31
0.0
  0
LINE
  5
2715
330
26DC
100
AcDbEntity
  8
RAHM2
100
AcDbLine
 10
-88.57512886940355
 20
35.40000000000002
 30
0.0
 11
-91.0
 21
39.60000000000001
 31
0.0
  0
LINE
  5
2716
330
26DC
100
AcDbEntity
  8
RAHM2
100
AcDbLine
 10
-91.0
 20
39.60000000000001
 30
0.0
 11
-93.42487113059645
 21
35.40000000000002
 31
0.0
  0
LINE
  5
2717
330
26DC
100
AcDbEntity
  8
RAHM2
100
AcDbLine
 10
-91.0
 20
44.6
 30
0.0
 11
-93.42487113059645
 21
40.40000000000001
 31
0.0
  0
LINE
  5
2718
330
26DC
100
AcDbEntity
  8
RAHM2
100
AcDbLine
 10
-91.0
 20
49.6
 30
0.0
 11
-93.42487113059645
 21
45.40000000000001
 31
0.0
  0
LINE
  5
2719
330
26DC
100
AcDbEntity
  8
RAHM2
100
AcDbLine
 10
-31.82081941068907
 20
50.00000000000003
 30
0.0
 11
-31.82081941068918
 21
19.99999999999994
 31
0.0
  0
MTEXT
  5
271A
330
26DC
100
AcDbEntity
  8
RAHM2
100
AcDbMText
 10
-59.0
 20
22.49999999999996
 30
0.0
 40
2.5
 41
45.0
 71
     5
 72
     5
  1
変更記事
 73
     1
 44
1.0
1001
ACAD
1000
MTEXTBEGIN
1070
    73
1070
     1
1070
    44
1040
1.0
1070
    74
1070
     0
1000
MTEXTEND
  0
LINE
  5
271B
330
26DC
100
AcDbEntity
  8
RAHM2
100
AcDbLine
 10
-11.82081941068907
 20
50.00000000000003
 30
0.0
 11
-11.82081941068907
 21
19.99999999999994
 31
0.0
  0
MTEXT
  5
271C
330
26DC
100
AcDbEntity
  8
RAHM2
100
AcDbMText
 10
-22.27910888308327
 20
32.50000000000003
 30
0.0
 40
2.5
 41
20.0
 71
     5
 72
     5
  1
・  ・   
 73
     1
 44
1.0
1001
ACAD
1000
MTEXTBEGIN
1070
    73
1070
     1
1070
    44
1040
1.0
1070
    74
1070
     0
1000
MTEXTEND
  0
MTEXT
  5
271D
330
26DC
100
AcDbEntity
  8
RAHM2
100
AcDbMText
 10
-21.55893921569111
 20
22.49999999999997
 30
0.0
 40
2.5
 41
20.0
 71
     5
 72
     5
  1
年・月・日
 73
     1
 44
1.0
1001
ACAD
1000
MTEXTBEGIN
1070
    73
1070
     1
1070
    44
1040
1.0
1070
    74
1070
     0
1000
MTEXTEND
  0
MTEXT
  5
271E
330
26DC
100
AcDbEntity
  8
RAHM2
100
AcDbMText
 10
-5.910409705344477
 20
22.49999999999997
 30
0.0
 40
2.5
 41
15.0
 71
     5
 72
     5
  1
担当
 73
     1
 44
1.0
1001
ACAD
1000
MTEXTBEGIN
1070
    73
1070
     1
1070
    44
1040
1.0
1070
    74
1070
     0
1000
MTEXTEND
  0
MTEXT
  5
271F
330
26DC
100
AcDbEntity
  8
RAHM2
100
AcDbMText
 10
-22.27910888308327
 20
42.50000000000002
 30
0.0
 40
2.5
 41
20.0
 71
     5
 72
     5
  1
・  ・   
 73
     1
 44
1.0
1001
ACAD
1000
MTEXTBEGIN
1070
    73
1070
     1
1070
    44
1040
1.0
1070
    74
1070
     0
1000
MTEXTEND
  0
MTEXT
  5
2720
330
26DC
100
AcDbEntity
  8
RAHM2
100
AcDbMText
 10
-22.27910888308327
 20
37.50000000000003
 30
0.0
 40
2.5
 41
20.0
 71
     5
 72
     5
  1
・  ・   
 73
     1
 44
1.0
1001
ACAD
1000
MTEXTBEGIN
1070
    73
1070
     1
1070
    44
1040
1.0
1070
    74
1070
     0
1000
MTEXTEND
  0
MTEXT
  5
2721
330
26DC
100
AcDbEntity
  8
RAHM2
100
AcDbMText
 10
-22.27910888308327
 20
47.50000000000002
 30
0.0
 40
2.5
 41
20.0
 71
     5
 72
     5
  1
・  ・   
 73
     1
 44
1.0
1001
ACAD
1000
MTEXTBEGIN
1070
    73
1070
     1
1070
    44
1040
1.0
1070
    74
1070
     0
1000
MTEXTEND
  0
LINE
  5
2722
330
26DC
100
AcDbEntity
  8
RAHM2
100
AcDbLine
 10
-91.0
 20
29.60000000000001
 30
0.0
 11
-93.42487113059645
 21
25.40000000000002
 31
0.0
  0
LINE
  5
2723
330
26DC
100
AcDbEntity
  8
RAHM2
100
AcDbLine
 10
-88.57512886940355
 20
25.40000000000002
 30
0.0
 11
-91.0
 21
29.60000000000001
 31
0.0
  0
LINE
  5
2724
330
26DC
100
AcDbEntity
  8
RAHM2
100
AcDbLine
 10
-93.42487113059645
 20
25.40000000000002
 30
0.0
 11
-88.57512886940355
 21
25.40000000000002
 31
0.0
  0
LINE
  5
2725
330
26DC
100
AcDbEntity
  8
RAHM2
100
AcDbLine
 10
-96.0
 20
25.0
 30
0.0
 11
0.0000000000001137
 21
25.00000000000003
 31
0.0
  0
MTEXT
  5
2726
330
26DC
100
AcDbEntity
  8
RAHM2
100
AcDbMText
 10
-22.27910888308327
 20
27.50000000000003
 30
0.0
 40
2.5
 41
20.0
 71
     5
 72
     5
  1
・  ・   
 73
     1
 44
1.0
1001
ACAD
1000
MTEXTBEGIN
1070
    73
1070
     1
1070
    44
1040
1.0
1070
    74
1070
     0
1000
MTEXTEND
  0
TEXT
  5
2727
330
26DC
100
AcDbEntity
  8
RAHM2
100
AcDbText
 10
-91.81558635658019
 20
25.98333333333335
 30
0.0
 40
2.5
  1
1
 72
     1
 11
-91.19058635658019
 21
25.65000000000002
 31
0.0
100
AcDbText
 73
     1
  0
TEXT
  5
2728
330
26DC
100
AcDbEntity
  8
RAHM2
100
AcDbText
 10
-91.91833169291339
 20
30.98333333333335
 30
0.0
 40
2.5
  1
2
 72
     1
 11
-91.0
 21
30.65000000000002
 31
0.0
100
AcDbText
 73
     1
  0
TEXT
  5
2729
330
26DC
100
AcDbEntity
  8
RAHM2
100
AcDbText
 10
-91.92677669529663
 20
35.98333333333333
 30
0.0
 40
2.5
  1
3
 72
     1
 11
-91.0
 21
35.64999999999999
 31
0.0
100
AcDbText
 73
     1
  0
TEXT
  5
272A
330
26DC
100
AcDbEntity
  8
RAHM2
100
AcDbText
 10
-92.0
 20
40.98333333333335
 30
0.0
 40
2.5
  1
4
 72
     1
 11
-91.0
 21
40.65000000000002
 31
0.0
100
AcDbText
 73
     1
  0
TEXT
  5
272B
330
26DC
100
AcDbEntity
  8
RAHM2
100
AcDbText
 10
-91.92677669529663
 20
45.98333333333335
 30
0.0
 40
2.5
  1
5
 72
     1
 11
-91.0
 21
45.65000000000002
 31
0.0
100
AcDbText
 73
     1
  0
LINE
  5
272C
330
26DC
100
AcDbEntity
  8
0
100
AcDbLine
 10
-193.0000000000001
 20
0.0
 30
0.0
 11
0.0
 21
0.0
 31
0.0
1001
GENIUS_GENREC_14
1002
{
1000
PYDIR
1011
-184.0
1021
50.0
1031
0.0
1002
}
1002
{
1000
PXDIR
1011
0.0
1021
0.0
1031
0.0
1002
}
1002
{
1000
PORI
1011
-184.0
1021
0.0
1031
0.0
1002
}
1002
{
1000
PINS
1011
-100.5
1021
25.0
1031
0.0
1002
}
1002
{
1000
HVAL
1000
50
1002
}
1002
{
1000
H
1070
     2
1002
}
1002
{
1000
WVAL
1000
167
1002
}
1002
{
1000
W
1070
     2
1002
}
1002
{
1000
C
1070
     4
1002
}
1001
GENIUS_GENODEF_13
1002
{
1000
HIER
1070
     0
1002
}
1002
{
1000
MANEDIT
1070
     0
1002
}
1002
{
1000
NOSEL
1070
     0
1002
}
1002
{
1000
BEHIND
1070
     0
1002
}
1002
{
1000
REACTOR
1002
}
1001
GENIUS_GENOBJ-N-REC_13
1002
{
1000
OWNER
1000
GEN
1002
}
  0
LINE
  5
272D
330
26DC
100
AcDbEntity
  8
0
100
AcDbLine
 10
0.0
 20
50.0
 30
0.0
 11
-193.0000000000001
 21
50.00000000000002
 31
0.0
1001
GENIUS_GENREC_14
1002
{
1000
PYDIR
1011
-184.0
1021
50.0
1031
0.0
1002
}
1002
{
1000
PXDIR
1011
0.0
1021
0.0
1031
0.0
1002
}
1002
{
1000
PORI
1011
-184.0
1021
0.0
1031
0.0
1002
}
1002
{
1000
PINS
1011
-100.5
1021
25.0
1031
0.0
1002
}
1002
{
1000
HVAL
1000
50
1002
}
1002
{
1000
H
1070
     2
1002
}
1002
{
1000
WVAL
1000
167
1002
}
1002
{
1000
W
1070
     2
1002
}
1002
{
1000
C
1070
     4
1002
}
1001
GENIUS_GENODEF_13
1002
{
1000
HIER
1070
     0
1002
}
1002
{
1000
MANEDIT
1070
     0
1002
}
1002
{
1000
NOSEL
1070
     0
1002
}
1002
{
1000
BEHIND
1070
     0
1002
}
1002
{
1000
REACTOR
1002
}
1001
GENIUS_GENOBJ-N-REC_13
1002
{
1000
OWNER
1000
GEN
1002
}
  0
LINE
  5
272E
330
26DC
100
AcDbEntity
  8
0
100
AcDbLine
 10
-96.0
 20
50.00000000000001
 30
0.0
 11
-96.0
 21
-0.0000000000000142
 31
0.0
1001
GENIUS_GENREC_14
1002
{
1000
PYDIR
1011
-96.0
1021
49.99999999999999
1031
0.0
1002
}
1002
{
1000
PXDIR
1011
88.0
1021
-0.0000000000000142
1031
0.0
1002
}
1002
{
1000
PORI
1011
-96.0
1021
-0.0000000000000142
1031
0.0
1002
}
1002
{
1000
PINS
1011
-12.5
1021
24.99999999999999
1031
0.0
1002
}
1002
{
1000
HVAL
1000
50
1002
}
1002
{
1000
H
1070
     2
1002
}
1002
{
1000
WVAL
1000
167
1002
}
1002
{
1000
W
1070
     2
1002
}
1002
{
1000
C
1070
     4
1002
}
1001
GENIUS_GENODEF_13
1002
{
1000
HIER
1070
     0
1002
}
1002
{
1000
MANEDIT
1070
     0
1002
}
1002
{
1000
NOSEL
1070
     0
1002
}
1002
{
1000
BEHIND
1070
     0
1002
}
1002
{
1000
REACTOR
1002
}
1001
GENIUS_GENOBJ-N-REC_13
1002
{
1000
OWNER
1000
GEN
1002
}
  0
ATTDEF
  5
272F
330
26DC
100
AcDbEntity
  8
0
100
AcDbText
 10
-84.0
 20
1.999999999999957
 30
0.0
 40
3.0
  1

100
AcDbAttributeDefinition
  3
図番
  2
GEN-TITLE-NR1
 70
     0
  0
ATTDEF
  5
2730
330
26DC
100
AcDbEntity
  8
0
100
AcDbText
 10
-84.0
 20
9.149999999999948
 30
0.0
 40
2.5
  1

100
AcDbAttributeDefinition
  3
サブタイトル
  2
GEN-TITLE-DES2
 70
     0
  0
LINE
  5
2731
330
26DC
100
AcDbEntity
  8
0
100
AcDbLine
 10
0.0
 20
0.0
 30
0.0
 11
0.0
 21
50.0
 31
0.0
1001
GENIUS_GENREC_14
1002
{
1000
PYDIR
1011
-414.0
1021
291.0
1031
0.0
1002
}
1002
{
1000
PXDIR
1011
6.0
1021
-6.0
1031
0.0
1002
}
1002
{
1000
PORI
1011
-414.0
1021
-6.0
1031
0.0
1002
}
1002
{
1000
PINS
1011
-414.0
1021
-6.0
1031
0.0
1002
}
1002
{
1000
HVAL
1000
297
1002
}
1002
{
1000
H
1070
     2
1002
}
1002
{
1000
WVAL
1000
420
1002
}
1002
{
1000
W
1070
     2
1002
}
1002
{
1000
C
1070
     1
1002
}
1001
GENIUS_GENODEF_13
1002
{
1000
HIER
1070
     0
1002
}
1002
{
1000
MANEDIT
1070
     0
1002
}
1002
{
1000
NOSEL
1070
     0
1002
}
1002
{
1000
BEHIND
1070
     0
1002
}
1002
{
1000
OTHER
1070
     0
1002
}
1002
{
1000
REACTOR
1002
}
1001
GENIUS_GENOBJ-N-REC_13
1002
{
1000
OWNER
1000
GEN
1002
}
  0
ATTDEF
  5
2732
330
26DC
100
AcDbEntity
  8
0
100
AcDbText
 10
-84.14251901585329
 20
12.82790432564377
 30
0.0
 40
3.5
  1

100
AcDbAttributeDefinition
  3
品名
  2
GEN-TITLE-DES1
 70
     0
  0
ATTDEF
  5
2733
330
26DC
100
AcDbEntity
  8
0
100
AcDbText
 10
-8.002309189545826
 20
1.705189434395036
 30
0.0
 40
2.5
  1

100
AcDbAttributeDefinition
  3
Rev.
  2
GEN-TITLE-NR2
 70
     0
  0
POINT
  5
2734
330
26DC
100
AcDbEntity
  8
0
 60
     1
100
AcDbPoint
 10
-418.5355579819675
 20
-138.1104841268254
 30
0.0
1001
GENIUS_GENODEF_13
1002
{
1000
HIER
1070
    10
1002
}
1002
{
1000
MANEDIT
1070
     0
1002
}
1002
{
1000
NOSEL
1070
     0
1002
}
1002
{
1000
BEHIND
1070
     0
1002
}
1002
{
1000
REACTOR
1002
}
1001
GENIUS_GENOBJ-N-CRS_13
1002
{
1000
OWNER
1000
GEN
1002
}
1001
GENIUS_GENOENT_13
1002
{
1000
MYREF
1005
2734
1002
}
1002
{
1000
GRP
1005
0
1002
}
1001
GENIUS_GENOLIS_13
1002
{
1000
ENT
1005
26EE
1005
26ED
1005
26E9
1005
26E6
1002
}
  0
ENDBLK
  5
2737
330
26DC
100
AcDbEntity
  8
0
100
AcDbBlockEnd
  0
BLOCK
  5
2BA8
330
2B24
100
AcDbEntity
  8
0
100
AcDbBlockBegin
  2
*D8
 70
     1
 10
0.0
 20
0.0
 30
0.0
  3
*D8
  1

  0
LINE
  5
2DFC
330
2B24
100
AcDbEntity
  8
AM_5
100
AcDbLine
 10
112.8939580613675
 20
481.6550402245074
 30
0.0
 11
69.3981013239715
 21
481.6550402245074
 31
0.0
  0
LINE
  5
2DFD
330
2B24
100
AcDbEntity
  8
AM_5
100
AcDbLine
 10
108.3939580613675
 20
261.6464958949316
 30
0.0
 11
69.39810132397145
 21
261.6464958949316
 31
0.0
  0
LINE
  5
2DFE
330
2B24
100
AcDbEntity
  8
AM_5
100
AcDbLine
 10
71.89810132397148
 20
475.4050402245074
 30
0.0
 11
71.89810132397145
 21
267.8964958949316
 31
0.0
  0
INSERT
  5
2DFF
330
2B24
100
AcDbEntity
  8
AM_5
100
AcDbBlockReference
  2
_Open30
 10
71.8981013239715
 20
481.6550402245074
 30
0.0
 41
6.25
 42
6.25
 43
6.25
 50
90.0
  0
INSERT
  5
2E00
330
2B24
100
AcDbEntity
  8
AM_5
100
AcDbBlockReference
  2
_Open30
 10
71.89810132397145
 20
261.6464958949316
 30
0.0
 41
6.25
 42
6.25
 43
6.25
 50
270.0
  0
MTEXT
  5
2E01
330
2B24
100
AcDbEntity
  8
AM_5
 62
     2
100
AcDbMText
 10
63.77224010349896
 20
371.6507680597195
 30
0.0
 40
8.75
 41
0.0
 71
     5
 72
     1
  1
220
 11
0.0000000000000001
 21
1.0
 31
0.0
 73
     1
 44
1.0
1001
ACAD
1000
MTEXTBEGIN
1070
    73
1070
     1
1070
    44
1040
1.0
1070
    74
1070
     0
1000
MTEXTEND
  0
POINT
  5
2E02
330
2B24
100
AcDbEntity
  8
Defpoints
 62
     0
100
AcDbPoint
 10
115.3939580613675
 20
481.6550402245074
 30
0.0
  0
POINT
  5
2E03
330
2B24
100
AcDbEntity
  8
Defpoints
 62
     0
100
AcDbPoint
 10
110.8939580613675
 20
261.6464958949316
 30
0.0
  0
POINT
  5
2E04
330
2B24
100
AcDbEntity
  8
Defpoints
 62
     0
100
AcDbPoint
 10
71.89810132397145
 20
261.6464958949316
 30
0.0
  0
ENDBLK
  5
2BA9
330
2B24
100
AcDbEntity
  8
0
100
AcDbBlockEnd
  0
BLOCK
  5
2BAA
330
2B5A
100
AcDbEntity
  8
0
100
AcDbBlockBegin
  2
*D9
 70
     1
 10
0.0
 20
0.0
 30
0.0
  3
*D9
  1

  0
LINE
  5
2E05
330
2B5A
100
AcDbEntity
  8
AM_5
100
AcDbLine
 10
102.8939580613675
 20
267.1464958949317
 30
0.0
 11
102.8939580613675
 21
228.1464948849316
 31
0.0
  0
LINE
  5
2E06
330
2B5A
100
AcDbEntity
  8
AM_5
100
AcDbLine
 10
127.8939580613675
 20
267.1464958949317
 30
0.0
 11
127.8939580613675
 21
228.1464948849316
 31
0.0
  0
LINE
  5
2E07
330
2B5A
100
AcDbEntity
  8
AM_5
100
AcDbLine
 10
109.1439580613675
 20
230.6464948849316
 30
0.0
 11
121.6439580613675
 21
230.6464948849316
 31
0.0
  0
INSERT
  5
2E08
330
2B5A
100
AcDbEntity
  8
AM_5
100
AcDbBlockReference
  2
_Open30
 10
102.8939580613675
 20
230.6464948849316
 30
0.0
 41
6.25
 42
6.25
 43
6.25
 50
180.0
  0
INSERT
  5
2E09
330
2B5A
100
AcDbEntity
  8
AM_5
100
AcDbBlockReference
  2
_Open30
 10
127.8939580613675
 20
230.6464948849316
 30
0.0
 41
6.25
 42
6.25
 43
6.25
  0
MTEXT
  5
2E0A
330
2B5A
100
AcDbEntity
  8
AM_5
 62
     2
100
AcDbMText
 10
115.3939580613675
 20
238.7723561054041
 30
0.0
 40
8.75
 41
0.0
 71
     5
 72
     1
  1
25
 73
     1
 44
1.0
1001
ACAD
1000
MTEXTBEGIN
1070
    73
1070
     1
1070
    44
1040
1.0
1070
    74
1070
     0
1000
MTEXTEND
  0
POINT
  5
2E0B
330
2B5A
100
AcDbEntity
  8
Defpoints
 62
     0
100
AcDbPoint
 10
102.8939580613675
 20
269.6464958949317
 30
0.0
  0
POINT
  5
2E0C
330
2B5A
100
AcDbEntity
  8
Defpoints
 62
     0
100
AcDbPoint
 10
127.8939580613675
 20
269.6464958949317
 30
0.0
  0
POINT
  5
2E0D
330
2B5A
100
AcDbEntity
  8
Defpoints
 62
     0
100
AcDbPoint
 10
127.8939580613675
 20
230.6464948849316
 30
0.0
  0
ENDBLK
  5
2BAB
330
2B5A
100
AcDbEntity
  8
0
100
AcDbBlockEnd
  0
BLOCK
  5
2DE6
330
2DDD
100
AcDbEntity
  8
0
100
AcDbBlockBegin
  2
TK-A4
 70
     0
 10
0.0
 20
0.0
 30
0.0
  3
TK-A4
  1

  0
TEXT
  5
2DDE
330
2DDD
100
AcDbEntity
  8
0
 60
     1
100
AcDbText
 10
0.0
 20
0.0
 30
0.0
 40
2.5
  1
!GENTITLE-LL
100
AcDbText
  0
TEXT
  5
2DDF
330
2DDD
100
AcDbEntity
  8
0
 60
     1
100
AcDbText
 10
193.0
 20
280.0
 30
0.0
 40
2.5
  1
!GENTITLE-MAX
100
AcDbText
  0
TEXT
  5
2DE0
330
2DDD
100
AcDbEntity
  8
0
 60
     1
100
AcDbText
 10
193.0
 20
0.0
 30
0.0
 40
2.5
  1
!GENTITLE-INSERT
100
AcDbText
  0
LWPOLYLINE
  5
2DE1
330
2DDD
100
AcDbEntity
  8
0
100
AcDbPolyline
 90
        4
 70
     1
 43
0.0
 10
0.0
 20
0.0
 10
193.0
 20
0.0
 10
193.0
 20
280.0
 10
0.0
 20
280.0
1001
GENIUS_GENREC_14
1002
{
1000
PYDIR
1011
-8.5
1021
288.5
1031
0.0
1002
}
1002
{
1000
PXDIR
1011
201.5
1021
-8.5
1031
0.0
1002
}
1002
{
1000
PORI
1011
-8.5
1021
-8.5
1031
0.0
1002
}
1002
{
1000
PINS
1011
-8.5
1021
-8.5
1031
0.0
1002
}
1002
{
1000
HVAL
1000
297
1002
}
1002
{
1000
H
1070
     2
1002
}
1002
{
1000
WVAL
1000
210
1002
}
1002
{
1000
W
1070
     2
1002
}
1002
{
1000
C
1070
     1
1002
}
1001
GENIUS_GENOBJ-N-REC_13
1002
{
1000
OWNER
1000
GEN
1002
}
1001
GENIUS_GENODEF_13
1002
{
1000
HIER
1070
     0
1002
}
1002
{
1000
MANEDIT
1070
     0
1002
}
1002
{
1000
NOSEL
1070
     0
1002
}
1002
{
1000
BEHIND
1070
     0
1002
}
1002
{
1000
OTHER
1070
     0
1002
}
1002
{
1000
REACTOR
1002
}
  0
LINE
  5
2DE2
330
2DDD
100
AcDbEntity
  8
0
100
AcDbLine
 10
149.0
 20
280.0000000000001
 30
0.0
 11
149.0
 21
275.0
 31
0.0
  0
MTEXT
  5
2DE3
330
2DDD
100
AcDbEntity
  8
0
100
AcDbMText
 10
192.3592953827349
 20
276.1085429872271
 30
0.0
 40
2.5
 41
43.07840397728298
 71
     9
 72
     5
  1
(文書番号：TY-34)2008.02.08
 73
     1
 44
1.0
1001
ACAD
1000
MTEXTBEGIN
1070
    73
1070
     1
1070
    44
1040
1.0
1070
    74
1070
     0
1000
MTEXTEND
  0
LINE
  5
2DE4
330
2DDD
100
AcDbEntity
  8
0
100
AcDbLine
 10
149.0
 20
275.0
 30
0.0
 11
193.0
 21
275.0
 31
0.0
  0
ENDBLK
  5
2DE7
330
2DDD
100
AcDbEntity
  8
0
100
AcDbBlockEnd
  0
BLOCK
  5
323D
330
3239
100
AcDbEntity
  8
0
100
AcDbBlockBegin
  2
*S11
 70
     1
 10
0.0
 20
0.0
 30
0.0
  3
*S11
  1

  0
CIRCLE
  5
323A
330
3239
100
AcDbEntity
  8
AM_12
 62
     4
100
AcDbCircle
 10
117.1845604278637
 20
403.6610683734544
 30
0.0
 40
4.375
  0
LINE
  5
323B
330
3239
100
AcDbEntity
  8
AM_12
 62
     4
100
AcDbLine
 10
112.8095604278637
 20
399.2860683734544
 30
0.0
 11
121.5595604278637
 21
408.0360683734544
 31
0.0
  0
LINE
  5
323C
330
3239
100
AcDbEntity
  8
AM_12
 62
     4
100
AcDbLine
 10
112.8095604278637
 20
408.0360683734544
 30
0.0
 11
121.5595604278637
 21
399.2860683734544
 31
0.0
  0
ENDBLK
  5
323E
330
3239
100
AcDbEntity
  8
0
100
AcDbBlockEnd
  0
BLOCK
  5
3244
330
3240
100
AcDbEntity
  8
0
100
AcDbBlockBegin
  2
*S12
 70
     1
 10
0.0
 20
0.0
 30
0.0
  3
*S12
  1

  0
CIRCLE
  5
3241
330
3240
100
AcDbEntity
  8
AM_12
 62
     4
100
AcDbCircle
 10
115.2293850129235
 20
461.6679590544973
 30
0.0
 40
4.375
  0
LINE
  5
3242
330
3240
100
AcDbEntity
  8
AM_12
 62
     4
100
AcDbLine
 10
110.8543850129235
 20
457.2929590544973
 30
0.0
 11
119.6043850129235
 21
466.0429590544973
 31
0.0
  0
LINE
  5
3243
330
3240
100
AcDbEntity
  8
AM_12
 62
     4
100
AcDbLine
 10
110.8543850129235
 20
466.0429590544973
 30
0.0
 11
119.6043850129235
 21
457.2929590544973
 31
0.0
  0
ENDBLK
  5
3245
330
3240
100
AcDbEntity
  8
0
100
AcDbBlockEnd
  0
BLOCK
  5
324B
330
3247
100
AcDbEntity
  8
0
100
AcDbBlockBegin
  2
*S13
 70
     1
 10
0.0
 20
0.0
 30
0.0
  3
*S13
  1

  0
CIRCLE
  5
3248
330
3247
100
AcDbEntity
  8
AM_12
 62
     4
100
AcDbCircle
 10
346.454920398642
 20
464.5557142927228
 30
0.0
 40
4.375
  0
LINE
  5
3249
330
3247
100
AcDbEntity
  8
AM_12
 62
     4
100
AcDbLine
 10
342.0799203986421
 20
460.1807142927228
 30
0.0
 11
350.8299203986421
 21
468.9307142927228
 31
0.0
  0
LINE
  5
324A
330
3247
100
AcDbEntity
  8
AM_12
 62
     4
100
AcDbLine
 10
342.0799203986421
 20
468.9307142927228
 30
0.0
 11
350.8299203986421
 21
460.1807142927228
 31
0.0
  0
ENDBLK
  5
324C
330
3247
100
AcDbEntity
  8
0
100
AcDbBlockEnd
  0
BLOCK
  5
3252
330
324E
100
AcDbEntity
  8
0
100
AcDbBlockBegin
  2
*S14
 70
     1
 10
0.0
 20
0.0
 30
0.0
  3
*S14
  1

  0
CIRCLE
  5
324F
330
324E
100
AcDbEntity
  8
AM_12
 62
     4
100
AcDbCircle
 10
329.1500640665369
 20
197.8669109011545
 30
0.0
 40
4.375
  0
LINE
  5
3250
330
324E
100
AcDbEntity
  8
AM_12
 62
     4
100
AcDbLine
 10
333.5250640665369
 20
193.4919109011545
 30
0.0
 11
324.7750640665369
 21
202.2419109011545
 31
0.0
  0
LINE
  5
3251
330
324E
100
AcDbEntity
  8
AM_12
 62
     4
100
AcDbLine
 10
324.7750640665369
 20
193.4919109011545
 30
0.0
 11
333.5250640665369
 21
202.2419109011545
 31
0.0
  0
ENDBLK
  5
3253
330
324E
100
AcDbEntity
  8
0
100
AcDbBlockEnd
  0
BLOCK
  5
3259
330
3255
100
AcDbEntity
  8
0
100
AcDbBlockBegin
  2
*S15
 70
     1
 10
0.0
 20
0.0
 30
0.0
  3
*S15
  1

  0
CIRCLE
  5
3256
330
3255
100
AcDbEntity
  8
AM_12
 62
     4
100
AcDbCircle
 10
473.6050641166279
 20
599.65625
 30
0.0
 40
4.375
  0
LINE
  5
3257
330
3255
100
AcDbEntity
  8
AM_12
 62
     4
100
AcDbLine
 10
469.230064116628
 20
595.28125
 30
0.0
 11
477.9800641166279
 21
604.0312499999999
 31
0.0
  0
LINE
  5
3258
330
3255
100
AcDbEntity
  8
AM_12
 62
     4
100
AcDbLine
 10
469.230064116628
 20
604.0312499999999
 30
0.0
 11
477.9800641166279
 21
595.28125
 31
0.0
  0
ENDBLK
  5
325A
330
3255
100
AcDbEntity
  8
0
100
AcDbBlockEnd
  0
BLOCK
  5
3260
330
325C
100
AcDbEntity
  8
0
100
AcDbBlockBegin
  2
*S16
 70
     1
 10
0.0
 20
0.0
 30
0.0
  3
*S16
  1

  0
CIRCLE
  5
325D
330
325C
100
AcDbEntity
  8
AM_12
 62
     4
100
AcDbCircle
 10
473.6050641166279
 20
584.21875
 30
0.0
 40
4.375
  0
LINE
  5
325E
330
325C
100
AcDbEntity
  8
AM_12
 62
     4
100
AcDbLine
 10
469.230064116628
 20
579.84375
 30
0.0
 11
477.9800641166279
 21
588.5937499999999
 31
0.0
  0
LINE
  5
325F
330
325C
100
AcDbEntity
  8
AM_12
 62
     4
100
AcDbLine
 10
469.230064116628
 20
588.5937499999999
 30
0.0
 11
477.9800641166279
 21
579.84375
 31
0.0
  0
ENDBLK
  5
3261
330
325C
100
AcDbEntity
  8
0
100
AcDbBlockEnd
  0
BLOCK
  5
3267
330
3263
100
AcDbEntity
  8
0
100
AcDbBlockBegin
  2
*S17
 70
     1
 10
0.0
 20
0.0
 30
0.0
  3
*S17
  1

  0
CIRCLE
  5
3264
330
3263
100
AcDbEntity
  8
AM_12
 62
     4
100
AcDbCircle
 10
473.6050641166279
 20
569.3872410509184
 30
0.0
 40
4.375
  0
LINE
  5
3265
330
3263
100
AcDbEntity
  8
AM_12
 62
     4
100
AcDbLine
 10
469.230064116628
 20
565.0122410509184
 30
0.0
 11
477.9800641166279
 21
573.7622410509183
 31
0.0
  0
LINE
  5
3266
330
3263
100
AcDbEntity
  8
AM_12
 62
     4
100
AcDbLine
 10
469.230064116628
 20
573.7622410509183
 30
0.0
 11
477.9800641166279
 21
565.0122410509184
 31
0.0
  0
ENDBLK
  5
3268
330
3263
100
AcDbEntity
  8
0
100
AcDbBlockEnd
  0
BLOCK
  5
326E
330
326A
100
AcDbEntity
  8
0
100
AcDbBlockBegin
  2
*S18
 70
     1
 10
0.0
 20
0.0
 30
0.0
  3
*S18
  1

  0
CIRCLE
  5
326B
330
326A
100
AcDbEntity
  8
AM_12
 62
     4
100
AcDbCircle
 10
473.6050641166279
 20
552.5137071756071
 30
0.0
 40
4.375
  0
LINE
  5
326C
330
326A
100
AcDbEntity
  8
AM_12
 62
     4
100
AcDbLine
 10
469.230064116628
 20
548.1387071756071
 30
0.0
 11
477.9800641166279
 21
556.8887071756071
 31
0.0
  0
LINE
  5
326D
330
326A
100
AcDbEntity
  8
AM_12
 62
     4
100
AcDbLine
 10
469.230064116628
 20
556.8887071756071
 30
0.0
 11
477.9800641166279
 21
548.1387071756071
 31
0.0
  0
ENDBLK
  5
326F
330
326A
100
AcDbEntity
  8
0
100
AcDbBlockEnd
  0
BLOCK
  5
3276
330
3271
100
AcDbEntity
  8
0
100
AcDbBlockBegin
  2
*S19
 70
     1
 10
0.0
 20
0.0
 30
0.0
  3
*S19
  1

  0
LINE
  5
3272
330
3271
100
AcDbEntity
  8
AM_5
100
AcDbLine
 10
148.1015854266858
 20
376.0923836698168
 30
0.0
 11
123.71527073762
 21
397.837639585357
 31
0.0
  0
TRACE
  5
3273
330
3271
100
AcDbEntity
  8
AM_5
100
AcDbTrace
 10
124.4819396786747
 20
398.69742390482
 30
0.0
 11
122.9486017965653
 21
396.9778552658939
 31
0.0
 12
117.1845604278637
 22
403.6610683734544
 32
0.0
 13
117.1845604278637
 23
403.6610683734544
 33
0.0
  0
MTEXT
  5
3274
330
3271
100
AcDbEntity
  8
AM_5
 62
     7
100
AcDbMText
 10
166.7607577402754
 20
359.4540157038242
 30
0.0
 40
12.5
 41
0.0
 71
     5
 72
     5
  1
1
  7
ACISOTS
 73
     1
 44
1.0
1001
ACAD
1000
MTEXTBEGIN
1070
    73
1070
     1
1070
    44
1040
1.0
1070
    74
1070
     0
1000
MTEXTEND
  0
CIRCLE
  5
3275
330
3271
100
AcDbEntity
  8
AM_5
 62
     3
100
AcDbCircle
 10
166.7607577402754
 20
359.4540157038242
 30
0.0
 40
25.0
  0
ENDBLK
  5
3277
330
3271
100
AcDbEntity
  8
0
100
AcDbBlockEnd
  0
BLOCK
  5
327E
330
3279
100
AcDbEntity
  8
0
100
AcDbBlockBegin
  2
*S20
 70
     1
 10
0.0
 20
0.0
 30
0.0
  3
*S20
  1

  0
LINE
  5
327A
330
3279
100
AcDbEntity
  8
AM_5
100
AcDbLine
 10
138.1024673318196
 20
489.0522233855929
 30
0.0
 11
120.8386455175637
 21
468.3835153673491
 31
0.0
  0
TRACE
  5
327B
330
3279
100
AcDbEntity
  8
AM_5
100
AcDbTrace
 10
119.9545257602326
 20
469.1219885191085
 30
0.0
 11
121.7227652748947
 21
467.6450422155897
 31
0.0
 12
115.2293850129235
 22
461.6679590544973
 32
0.0
 13
115.2293850129235
 23
461.6679590544973
 33
0.0
  0
MTEXT
  5
327C
330
3279
100
AcDbEntity
  8
AM_5
 62
     7
100
AcDbMText
 10
154.1289259165059
 20
508.2395271365981
 30
0.0
 40
12.5
 41
0.0
 71
     5
 72
     5
  1
2
  7
ACISOTS
 73
     1
 44
1.0
1001
ACAD
1000
MTEXTBEGIN
1070
    73
1070
     1
1070
    44
1040
1.0
1070
    74
1070
     0
1000
MTEXTEND
  0
CIRCLE
  5
327D
330
3279
100
AcDbEntity
  8
AM_5
 62
     3
100
AcDbCircle
 10
154.1289259165059
 20
508.2395271365981
 30
0.0
 40
25.0
  0
ENDBLK
  5
327F
330
3279
100
AcDbEntity
  8
0
100
AcDbBlockEnd
  0
BLOCK
  5
3286
330
3281
100
AcDbEntity
  8
0
100
AcDbBlockBegin
  2
*S21
 70
     1
 10
0.0
 20
0.0
 30
0.0
  3
*S21
  1

  0
LINE
  5
3282
330
3281
100
AcDbEntity
  8
AM_5
100
AcDbLine
 10
305.0285312480961
 20
173.85997381686
 30
0.0
 11
322.9481653880932
 21
191.6944759859594
 31
0.0
  0
TRACE
  5
3283
330
3281
100
AcDbEntity
  8
AM_5
100
AcDbTrace
 10
323.7607818572486
 20
190.8779805388013
 30
0.0
 11
322.1355489189378
 21
192.5109714331176
 31
0.0
 12
329.1500640665369
 22
197.8669109011545
 32
0.0
 13
329.1500640665369
 23
197.8669109011545
 33
0.0
  0
MTEXT
  5
3284
330
3281
100
AcDbEntity
  8
AM_5
 62
     7
100
AcDbMText
 10
287.308820738257
 20
156.2244454877314
 30
0.0
 40
12.5
 41
0.0
 71
     5
 72
     5
  1
4
  7
ACISOTS
 73
     1
 44
1.0
1001
ACAD
1000
MTEXTBEGIN
1070
    73
1070
     1
1070
    44
1040
1.0
1070
    74
1070
     0
1000
MTEXTEND
  0
CIRCLE
  5
3285
330
3281
100
AcDbEntity
  8
AM_5
 62
     3
100
AcDbCircle
 10
287.308820738257
 20
156.2244454877314
 30
0.0
 40
25.0
  0
ENDBLK
  5
3287
330
3281
100
AcDbEntity
  8
0
100
AcDbBlockEnd
  0
BLOCK
  5
328E
330
3289
100
AcDbEntity
  8
0
100
AcDbBlockBegin
  2
*S22
 70
     1
 10
0.0
 20
0.0
 30
0.0
  3
*S22
  1

  0
LINE
  5
328A
330
3289
100
AcDbEntity
  8
AM_5
100
AcDbLine
 10
379.9176056824848
 20
432.9914715863593
 30
0.0
 11
352.8200258007131
 21
458.5517211864204
 31
0.0
  0
TRACE
  5
328B
330
3289
100
AcDbEntity
  8
AM_5
100
AcDbTrace
 10
353.6104664851286
 20
459.3897032062713
 30
0.0
 11
352.0295851162976
 21
457.7137391665696
 31
0.0
 12
346.454920398642
 22
464.5557142927228
 32
0.0
 13
346.454920398642
 23
464.5557142927228
 33
0.0
  0
MTEXT
  5
328C
330
3289
100
AcDbEntity
  8
AM_5
 62
     7
100
AcDbMText
 10
398.1036211169735
 20
415.8372055683527
 30
0.0
 40
12.5
 41
0.0
 71
     5
 72
     5
  1
3
  7
ACISOTS
 73
     1
 44
1.0
1001
ACAD
1000
MTEXTBEGIN
1070
    73
1070
     1
1070
    44
1040
1.0
1070
    74
1070
     0
1000
MTEXTEND
  0
CIRCLE
  5
328D
330
3289
100
AcDbEntity
  8
AM_5
 62
     3
100
AcDbCircle
 10
398.1036211169735
 20
415.8372055683527
 30
0.0
 40
25.0
  0
ENDBLK
  5
328F
330
3289
100
AcDbEntity
  8
0
100
AcDbBlockEnd
  0
BLOCK
  5
32F1
330
3291
100
AcDbEntity
  8
0
100
AcDbBlockBegin
  2
*S23
 70
     1
 10
0.0
 20
0.0
 30
0.0
  3
*S23
  1

  0
LINE
  5
3292
330
3291
100
AcDbEntity
  8
ﾌﾞﾗｹｯﾄ
 62
     1
100
AcDbLine
 10
0.0
 20
653.6875
 30
0.0
 11
482.5
 21
653.6875
 31
0.0
  0
LINE
  5
3293
330
3291
100
AcDbEntity
  8
ﾌﾞﾗｹｯﾄ
 62
     1
100
AcDbLine
 10
0.0
 20
638.25
 30
0.0
 11
482.5
 21
638.25
 31
0.0
  0
LINE
  5
3294
330
3291
100
AcDbEntity
  8
ﾌﾞﾗｹｯﾄ
 62
     1
100
AcDbLine
 10
0.0
 20
622.8125
 30
0.0
 11
482.5
 21
622.8125
 31
0.0
  0
LINE
  5
3295
330
3291
100
AcDbEntity
  8
ﾌﾞﾗｹｯﾄ
 62
     1
100
AcDbLine
 10
0.0
 20
607.375
 30
0.0
 11
482.5
 21
607.375
 31
0.0
  0
LINE
  5
3296
330
3291
100
AcDbEntity
  8
ﾌﾞﾗｹｯﾄ
 62
     1
100
AcDbLine
 10
0.0
 20
591.9375
 30
0.0
 11
482.5
 21
591.9375
 31
0.0
  0
LINE
  5
3297
330
3291
100
AcDbEntity
  8
ﾌﾞﾗｹｯﾄ
 62
     1
100
AcDbLine
 10
0.0
 20
576.4999999999999
 30
0.0
 11
482.5
 21
576.4999999999999
 31
0.0
  0
LINE
  5
3298
330
3291
100
AcDbEntity
  8
ﾌﾞﾗｹｯﾄ
 62
     1
100
AcDbLine
 10
0.0
 20
561.0624999999999
 30
0.0
 11
482.5
 21
561.0624999999999
 31
0.0
  0
MTEXT
  5
3299
330
3291
100
AcDbEntity
  8
ﾌﾞﾗｹｯﾄ
 62
     2
100
AcDbMText
 10
18.75
 20
665.7499999999999
 30
0.0
 40
8.75
 41
33.0
 71
     2
 72
     5
  1
1
  7
ACISOTS
 73
     1
 44
1.0
1001
ACAD
1000
MTEXTBEGIN
1070
    73
1070
     1
1070
    44
1040
1.0
1070
    74
1070
     0
1000
MTEXTEND
  0
LINE
  5
329A
330
3291
100
AcDbEntity
  8
ﾌﾞﾗｹｯﾄ
 62
     1
100
AcDbLine
 10
37.5
 20
669.125
 30
0.0
 11
37.5
 21
653.6875
 31
0.0
  0
MTEXT
  5
329B
330
3291
100
AcDbEntity
  8
ﾌﾞﾗｹｯﾄ
 62
     2
100
AcDbMText
 10
62.5
 20
665.7499999999999
 30
0.0
 40
8.75
 41
45.49999999999999
 71
     2
 72
     5
  1
2
  7
ACISOTS
 73
     1
 44
1.0
1001
ACAD
1000
MTEXTBEGIN
1070
    73
1070
     1
1070
    44
1040
1.0
1070
    74
1070
     0
1000
MTEXTEND
  0
LINE
  5
329C
330
3291
100
AcDbEntity
  8
ﾌﾞﾗｹｯﾄ
 62
     1
100
AcDbLine
 10
87.5
 20
669.125
 30
0.0
 11
87.5
 21
653.6875
 31
0.0
  0
MTEXT
  5
329D
330
3291
100
AcDbEntity
  8
ﾌﾞﾗｹｯﾄ
 62
     2
100
AcDbMText
 10
89.74999999999999
 20
665.7499999999999
 30
0.0
 40
8.75
 41
145.5
 71
     1
 72
     5
  1
ブラケット
  7
ACISOTS
 73
     1
 44
1.0
1001
ACAD
1000
MTEXTBEGIN
1070
    73
1070
     1
1070
    44
1040
1.0
1070
    74
1070
     0
1000
MTEXTEND
  0
LINE
  5
329E
330
3291
100
AcDbEntity
  8
ﾌﾞﾗｹｯﾄ
 62
     1
100
AcDbLine
 10
237.5
 20
669.125
 30
0.0
 11
237.5
 21
653.6875
 31
0.0
  0
MTEXT
  5
329F
330
3291
100
AcDbEntity
  8
ﾌﾞﾗｹｯﾄ
 62
     2
100
AcDbMText
 10
239.75
 20
665.7499999999999
 30
0.0
 40
8.75
 41
95.5
 71
     1
 72
     5
  1
ABS
  7
ACISOTS
 73
     1
 44
1.0
1001
ACAD
1000
MTEXTBEGIN
1070
    73
1070
     1
1070
    44
1040
1.0
1070
    74
1070
     0
1000
MTEXTEND
  0
LINE
  5
32A0
330
3291
100
AcDbEntity
  8
ﾌﾞﾗｹｯﾄ
 62
     1
100
AcDbLine
 10
337.5
 20
669.125
 30
0.0
 11
337.5
 21
653.6875
 31
0.0
  0
MTEXT
  5
32A1
330
3291
100
AcDbEntity
  8
ﾌﾞﾗｹｯﾄ
 62
     2
100
AcDbMText
 10
339.75
 20
665.7499999999999
 30
0.0
 40
8.75
 41
140.5
 71
     1
 72
     5
  1
ﾗｲﾄｸﾞﾚｰ/ﾌﾞﾗｯｸ
  7
ACISOTS
 73
     1
 44
1.0
1001
ACAD
1000
MTEXTBEGIN
1070
    73
1070
     1
1070
    44
1040
1.0
1070
    74
1070
     0
1000
MTEXTEND
  0
MTEXT
  5
32A2
330
3291
100
AcDbEntity
  8
ﾌﾞﾗｹｯﾄ
 62
     2
100
AcDbMText
 10
18.75
 20
650.3124999999999
 30
0.0
 40
8.75
 41
33.0
 71
     2
 72
     5
  1
2
  7
ACISOTS
 73
     1
 44
1.0
1001
ACAD
1000
MTEXTBEGIN
1070
    73
1070
     1
1070
    44
1040
1.0
1070
    74
1070
     0
1000
MTEXTEND
  0
LINE
  5
32A3
330
3291
100
AcDbEntity
  8
ﾌﾞﾗｹｯﾄ
 62
     1
100
AcDbLine
 10
37.5
 20
653.6875
 30
0.0
 11
37.5
 21
638.25
 31
0.0
  0
MTEXT
  5
32A4
330
3291
100
AcDbEntity
  8
ﾌﾞﾗｹｯﾄ
 62
     2
100
AcDbMText
 10
62.5
 20
650.3124999999999
 30
0.0
 40
8.75
 41
45.49999999999999
 71
     2
 72
     5
  1
2
  7
ACISOTS
 73
     1
 44
1.0
1001
ACAD
1000
MTEXTBEGIN
1070
    73
1070
     1
1070
    44
1040
1.0
1070
    74
1070
     0
1000
MTEXTEND
  0
LINE
  5
32A5
330
3291
100
AcDbEntity
  8
ﾌﾞﾗｹｯﾄ
 62
     1
100
AcDbLine
 10
87.5
 20
653.6875
 30
0.0
 11
87.5
 21
638.25
 31
0.0
  0
MTEXT
  5
32A6
330
3291
100
AcDbEntity
  8
ﾌﾞﾗｹｯﾄ
 62
     2
100
AcDbMText
 10
89.74999999999999
 20
650.3124999999999
 30
0.0
 40
8.75
 41
145.5
 71
     1
 72
     5
  1
キャップ
  7
ACISOTS
 73
     1
 44
1.0
1001
ACAD
1000
MTEXTBEGIN
1070
    73
1070
     1
1070
    44
1040
1.0
1070
    74
1070
     0
1000
MTEXTEND
  0
LINE
  5
32A7
330
3291
100
AcDbEntity
  8
ﾌﾞﾗｹｯﾄ
 62
     1
100
AcDbLine
 10
237.5
 20
653.6875
 30
0.0
 11
237.5
 21
638.25
 31
0.0
  0
MTEXT
  5
32A8
330
3291
100
AcDbEntity
  8
ﾌﾞﾗｹｯﾄ
 62
     2
100
AcDbMText
 10
239.75
 20
650.3124999999999
 30
0.0
 40
8.75
 41
95.5
 71
     1
 72
     5
  1
ポリエチレン
  7
ACISOTS
 73
     1
 44
1.0
1001
ACAD
1000
MTEXTBEGIN
1070
    73
1070
     1
1070
    44
1040
1.0
1070
    74
1070
     0
1000
MTEXTEND
  0
LINE
  5
32A9
330
3291
100
AcDbEntity
  8
ﾌﾞﾗｹｯﾄ
 62
     1
100
AcDbLine
 10
337.5
 20
653.6875
 30
0.0
 11
337.5
 21
638.25
 31
0.0
  0
MTEXT
  5
32AA
330
3291
100
AcDbEntity
  8
ﾌﾞﾗｹｯﾄ
 62
     2
100
AcDbMText
 10
339.75
 20
650.3124999999999
 30
0.0
 40
8.75
 41
140.5
 71
     1
 72
     5
  1
ﾗｲﾄｸﾞﾚｰ/ﾌﾞﾗｯｸ
  7
ACISOTS
 73
     1
 44
1.0
1001
ACAD
1000
MTEXTBEGIN
1070
    73
1070
     1
1070
    44
1040
1.0
1070
    74
1070
     0
1000
MTEXTEND
  0
MTEXT
  5
32AB
330
3291
100
AcDbEntity
  8
ﾌﾞﾗｹｯﾄ
 62
     2
100
AcDbMText
 10
18.75
 20
634.8749999999999
 30
0.0
 40
8.75
 41
33.0
 71
     2
 72
     5
  1
3
  7
ACISOTS
 73
     1
 44
1.0
1001
ACAD
1000
MTEXTBEGIN
1070
    73
1070
     1
1070
    44
1040
1.0
1070
    74
1070
     0
1000
MTEXTEND
  0
LINE
  5
32AC
330
3291
100
AcDbEntity
  8
ﾌﾞﾗｹｯﾄ
 62
     1
100
AcDbLine
 10
37.5
 20
638.25
 30
0.0
 11
37.5
 21
622.8125
 31
0.0
  0
MTEXT
  5
32AD
330
3291
100
AcDbEntity
  8
ﾌﾞﾗｹｯﾄ
 62
     2
100
AcDbMText
 10
62.5
 20
634.8749999999999
 30
0.0
 40
8.75
 41
45.49999999999999
 71
     2
 72
     5
  1
2
  7
ACISOTS
 73
     1
 44
1.0
1001
ACAD
1000
MTEXTBEGIN
1070
    73
1070
     1
1070
    44
1040
1.0
1070
    74
1070
     0
1000
MTEXTEND
  0
LINE
  5
32AE
330
3291
100
AcDbEntity
  8
ﾌﾞﾗｹｯﾄ
 62
     1
100
AcDbLine
 10
87.5
 20
638.25
 30
0.0
 11
87.5
 21
622.8125
 31
0.0
  0
MTEXT
  5
32AF
330
3291
100
AcDbEntity
  8
ﾌﾞﾗｹｯﾄ
 62
     2
100
AcDbMText
 10
89.74999999999999
 20
634.8749999999999
 30
0.0
 40
8.75
 41
145.5
 71
     1
 72
     5
  1
ステーター
  7
ACISOTS
 73
     1
 44
1.0
1001
ACAD
1000
MTEXTBEGIN
1070
    73
1070
     1
1070
    44
1040
1.0
1070
    74
1070
     0
1000
MTEXTEND
  0
LINE
  5
32B0
330
3291
100
AcDbEntity
  8
ﾌﾞﾗｹｯﾄ
 62
     1
100
AcDbLine
 10
237.5
 20
638.25
 30
0.0
 11
237.5
 21
622.8125
 31
0.0
  0
MTEXT
  5
32B1
330
3291
100
AcDbEntity
  8
ﾌﾞﾗｹｯﾄ
 62
     2
100
AcDbMText
 10
239.75
 20
634.8749999999999
 30
0.0
 40
8.75
 41
95.5
 71
     1
 72
     5
  1
ADC12
  7
ACISOTS
 73
     1
 44
1.0
1001
ACAD
1000
MTEXTBEGIN
1070
    73
1070
     1
1070
    44
1040
1.0
1070
    74
1070
     0
1000
MTEXTEND
  0
LINE
  5
32B2
330
3291
100
AcDbEntity
  8
ﾌﾞﾗｹｯﾄ
 62
     1
100
AcDbLine
 10
337.5
 20
638.25
 30
0.0
 11
337.5
 21
622.8125
 31
0.0
  0
MTEXT
  5
32B3
330
3291
100
AcDbEntity
  8
ﾌﾞﾗｹｯﾄ
 62
     2
100
AcDbMText
 10
339.75
 20
634.8749999999999
 30
0.0
 40
8.75
 41
140.5
 71
     1
 72
     5
  1
ﾗｲﾄｸﾞﾚｰ塗装/ﾌﾞﾗｯｸ塗装
  7
ACISOTS
 73
     1
 44
1.0
1001
ACAD
1000
MTEXTBEGIN
1070
    73
1070
     1
1070
    44
1040
1.0
1070
    74
1070
     0
1000
MTEXTEND
  0
MTEXT
  5
32B4
330
3291
100
AcDbEntity
  8
ﾌﾞﾗｹｯﾄ
 62
     2
100
AcDbMText
 10
18.75
 20
619.4374999999999
 30
0.0
 40
8.75
 41
33.0
 71
     2
 72
     5
  1
4
  7
ACISOTS
 73
     1
 44
1.0
1001
ACAD
1000
MTEXTBEGIN
1070
    73
1070
     1
1070
    44
1040
1.0
1070
    74
1070
     0
1000
MTEXTEND
  0
LINE
  5
32B5
330
3291
100
AcDbEntity
  8
ﾌﾞﾗｹｯﾄ
 62
     1
100
AcDbLine
 10
37.5
 20
622.8125
 30
0.0
 11
37.5
 21
607.375
 31
0.0
  0
MTEXT
  5
32B6
330
3291
100
AcDbEntity
  8
ﾌﾞﾗｹｯﾄ
 62
     2
100
AcDbMText
 10
62.5
 20
619.4374999999999
 30
0.0
 40
8.75
 41
45.49999999999999
 71
     2
 72
     5
  1
2
  7
ACISOTS
 73
     1
 44
1.0
1001
ACAD
1000
MTEXTBEGIN
1070
    73
1070
     1
1070
    44
1040
1.0
1070
    74
1070
     0
1000
MTEXTEND
  0
LINE
  5
32B7
330
3291
100
AcDbEntity
  8
ﾌﾞﾗｹｯﾄ
 62
     1
100
AcDbLine
 10
87.5
 20
622.8125
 30
0.0
 11
87.5
 21
607.375
 31
0.0
  0
MTEXT
  5
32B8
330
3291
100
AcDbEntity
  8
ﾌﾞﾗｹｯﾄ
 62
     2
100
AcDbMText
 10
89.74999999999999
 20
619.4374999999999
 30
0.0
 40
8.75
 41
145.5
 71
     1
 72
     5
  1
スペーサー
  7
ACISOTS
 73
     1
 44
1.0
1001
ACAD
1000
MTEXTBEGIN
1070
    73
1070
     1
1070
    44
1040
1.0
1070
    74
1070
     0
1000
MTEXTEND
  0
LINE
  5
32B9
330
3291
100
AcDbEntity
  8
ﾌﾞﾗｹｯﾄ
 62
     1
100
AcDbLine
 10
237.5
 20
622.8125
 30
0.0
 11
237.5
 21
607.375
 31
0.0
  0
MTEXT
  5
32BA
330
3291
100
AcDbEntity
  8
ﾌﾞﾗｹｯﾄ
 62
     2
100
AcDbMText
 10
239.75
 20
619.4374999999999
 30
0.0
 40
8.75
 41
95.5
 71
     1
 72
     5
  1
ポリエチレン
  7
ACISOTS
 73
     1
 44
1.0
1001
ACAD
1000
MTEXTBEGIN
1070
    73
1070
     1
1070
    44
1040
1.0
1070
    74
1070
     0
1000
MTEXTEND
  0
LINE
  5
32BB
330
3291
100
AcDbEntity
  8
ﾌﾞﾗｹｯﾄ
 62
     1
100
AcDbLine
 10
337.5
 20
622.8125
 30
0.0
 11
337.5
 21
607.375
 31
0.0
  0
MTEXT
  5
32BC
330
3291
100
AcDbEntity
  8
ﾌﾞﾗｹｯﾄ
 62
     2
100
AcDbMText
 10
339.75
 20
619.4374999999999
 30
0.0
 40
8.75
 41
140.5
 71
     1
 72
     5
  1
ﾗｲﾄｸﾞﾚｰ/ﾌﾞﾗｯｸ
  7
ACISOTS
 73
     1
 44
1.0
1001
ACAD
1000
MTEXTBEGIN
1070
    73
1070
     1
1070
    44
1040
1.0
1070
    74
1070
     0
1000
MTEXTEND
  0
MTEXT
  5
32BD
330
3291
100
AcDbEntity
  8
ﾌﾞﾗｹｯﾄ
 62
     2
100
AcDbMText
 10
18.75
 20
604.0
 30
0.0
 40
8.75
 41
33.0
 71
     2
 72
     5
  1
5
  7
ACISOTS
 73
     1
 44
1.0
1001
ACAD
1000
MTEXTBEGIN
1070
    73
1070
     1
1070
    44
1040
1.0
1070
    74
1070
     0
1000
MTEXTEND
  0
LINE
  5
32BE
330
3291
100
AcDbEntity
  8
ﾌﾞﾗｹｯﾄ
 62
     1
100
AcDbLine
 10
37.5
 20
607.375
 30
0.0
 11
37.5
 21
591.9375
 31
0.0
  0
MTEXT
  5
32BF
330
3291
100
AcDbEntity
  8
ﾌﾞﾗｹｯﾄ
 62
     2
100
AcDbMText
 10
62.5
 20
604.0
 30
0.0
 40
8.75
 41
45.49999999999999
 71
     2
 72
     5
  1
2
  7
ACISOTS
 73
     1
 44
1.0
1001
ACAD
1000
MTEXTBEGIN
1070
    73
1070
     1
1070
    44
1040
1.0
1070
    74
1070
     0
1000
MTEXTEND
  0
LINE
  5
32C0
330
3291
100
AcDbEntity
  8
ﾌﾞﾗｹｯﾄ
 62
     1
100
AcDbLine
 10
87.5
 20
607.375
 30
0.0
 11
87.5
 21
591.9375
 31
0.0
  0
MTEXT
  5
32C1
330
3291
100
AcDbEntity
  8
ﾌﾞﾗｹｯﾄ
 62
     2
100
AcDbMText
 10
89.74999999999999
 20
604.0
 30
0.0
 40
8.75
 41
145.5
 71
     1
 72
     5
  1
ナット(M5)
  7
ACISOTS
 73
     1
 44
1.0
1001
ACAD
1000
MTEXTBEGIN
1070
    73
1070
     1
1070
    44
1040
1.0
1070
    74
1070
     0
1000
MTEXTEND
  0
LINE
  5
32C2
330
3291
100
AcDbEntity
  8
ﾌﾞﾗｹｯﾄ
 62
     1
100
AcDbLine
 10
237.5
 20
607.375
 30
0.0
 11
237.5
 21
591.9375
 31
0.0
  0
MTEXT
  5
32C3
330
3291
100
AcDbEntity
  8
ﾌﾞﾗｹｯﾄ
 62
     2
100
AcDbMText
 10
239.75
 20
604.0
 30
0.0
 40
8.75
 41
95.5
 71
     1
 72
     5
  1
鉄
  7
ACISOTS
 73
     1
 44
1.0
1001
ACAD
1000
MTEXTBEGIN
1070
    73
1070
     1
1070
    44
1040
1.0
1070
    74
1070
     0
1000
MTEXTEND
  0
LINE
  5
32C4
330
3291
100
AcDbEntity
  8
ﾌﾞﾗｹｯﾄ
 62
     1
100
AcDbLine
 10
337.5
 20
607.375
 30
0.0
 11
337.5
 21
591.9375
 31
0.0
  0
MTEXT
  5
32C5
330
3291
100
AcDbEntity
  8
ﾌﾞﾗｹｯﾄ
 62
     2
100
AcDbMText
 10
339.75
 20
604.0
 30
0.0
 40
8.75
 41
140.5
 71
     1
 72
     5
  1
三価ｸﾛｰﾒｲﾄ
  7
ACISOTS
 73
     1
 44
1.0
1001
ACAD
1000
MTEXTBEGIN
1070
    73
1070
     1
1070
    44
1040
1.0
1070
    74
1070
     0
1000
MTEXTEND
  0
MTEXT
  5
32C6
330
3291
100
AcDbEntity
  8
ﾌﾞﾗｹｯﾄ
 62
     2
100
AcDbMText
 10
18.75
 20
588.5625
 30
0.0
 40
8.75
 41
33.0
 71
     2
 72
     5
  1
6
  7
ACISOTS
 73
     1
 44
1.0
1001
ACAD
1000
MTEXTBEGIN
1070
    73
1070
     1
1070
    44
1040
1.0
1070
    74
1070
     0
1000
MTEXTEND
  0
LINE
  5
32C7
330
3291
100
AcDbEntity
  8
ﾌﾞﾗｹｯﾄ
 62
     1
100
AcDbLine
 10
37.5
 20
591.9375
 30
0.0
 11
37.5
 21
576.4999999999999
 31
0.0
  0
MTEXT
  5
32C8
330
3291
100
AcDbEntity
  8
ﾌﾞﾗｹｯﾄ
 62
     2
100
AcDbMText
 10
62.5
 20
588.5625
 30
0.0
 40
8.75
 41
45.49999999999999
 71
     2
 72
     5
  1
2
  7
ACISOTS
 73
     1
 44
1.0
1001
ACAD
1000
MTEXTBEGIN
1070
    73
1070
     1
1070
    44
1040
1.0
1070
    74
1070
     0
1000
MTEXTEND
  0
LINE
  5
32C9
330
3291
100
AcDbEntity
  8
ﾌﾞﾗｹｯﾄ
 62
     1
100
AcDbLine
 10
87.5
 20
591.9375
 30
0.0
 11
87.5
 21
576.4999999999999
 31
0.0
  0
MTEXT
  5
32CA
330
3291
100
AcDbEntity
  8
ﾌﾞﾗｹｯﾄ
 62
     2
100
AcDbMText
 10
89.74999999999999
 20
588.5625
 30
0.0
 40
8.75
 41
145.5
 71
     1
 72
     5
  1
取付ビス(ﾅﾍﾞSW付 M5×16)
  7
ACISOTS
 73
     1
 44
1.0
1001
ACAD
1000
MTEXTBEGIN
1070
    73
1070
     1
1070
    44
1040
1.0
1070
    74
1070
     0
1000
MTEXTEND
  0
LINE
  5
32CB
330
3291
100
AcDbEntity
  8
ﾌﾞﾗｹｯﾄ
 62
     1
100
AcDbLine
 10
237.5
 20
591.9375
 30
0.0
 11
237.5
 21
576.4999999999999
 31
0.0
  0
MTEXT
  5
32CC
330
3291
100
AcDbEntity
  8
ﾌﾞﾗｹｯﾄ
 62
     2
100
AcDbMText
 10
239.75
 20
588.5625
 30
0.0
 40
8.75
 41
95.5
 71
     1
 72
     5
  1
鉄
  7
ACISOTS
 73
     1
 44
1.0
1001
ACAD
1000
MTEXTBEGIN
1070
    73
1070
     1
1070
    44
1040
1.0
1070
    74
1070
     0
1000
MTEXTEND
  0
LINE
  5
32CD
330
3291
100
AcDbEntity
  8
ﾌﾞﾗｹｯﾄ
 62
     1
100
AcDbLine
 10
337.5
 20
591.9375
 30
0.0
 11
337.5
 21
576.4999999999999
 31
0.0
  0
MTEXT
  5
32CE
330
3291
100
AcDbEntity
  8
ﾌﾞﾗｹｯﾄ
 62
     2
100
AcDbMText
 10
339.75
 20
588.5625
 30
0.0
 40
8.75
 41
140.5
 71
     1
 72
     5
  1
三価ｸﾛｰﾒｲﾄ
  7
ACISOTS
 73
     1
 44
1.0
1001
ACAD
1000
MTEXTBEGIN
1070
    73
1070
     1
1070
    44
1040
1.0
1070
    74
1070
     0
1000
MTEXTEND
  0
MTEXT
  5
32CF
330
3291
100
AcDbEntity
  8
ﾌﾞﾗｹｯﾄ
 62
     2
100
AcDbMText
 10
18.75
 20
573.125
 30
0.0
 40
8.75
 41
33.0
 71
     2
 72
     5
  1
7
  7
ACISOTS
 73
     1
 44
1.0
1001
ACAD
1000
MTEXTBEGIN
1070
    73
1070
     1
1070
    44
1040
1.0
1070
    74
1070
     0
1000
MTEXTEND
  0
LINE
  5
32D0
330
3291
100
AcDbEntity
  8
ﾌﾞﾗｹｯﾄ
 62
     1
100
AcDbLine
 10
37.5
 20
576.4999999999999
 30
0.0
 11
37.5
 21
561.0624999999999
 31
0.0
  0
MTEXT
  5
32D1
330
3291
100
AcDbEntity
  8
ﾌﾞﾗｹｯﾄ
 62
     2
100
AcDbMText
 10
62.5
 20
573.125
 30
0.0
 40
8.75
 41
45.49999999999999
 71
     2
 72
     5
  1
2
  7
ACISOTS
 73
     1
 44
1.0
1001
ACAD
1000
MTEXTBEGIN
1070
    73
1070
     1
1070
    44
1040
1.0
1070
    74
1070
     0
1000
MTEXTEND
  0
LINE
  5
32D2
330
3291
100
AcDbEntity
  8
ﾌﾞﾗｹｯﾄ
 62
     1
100
AcDbLine
 10
87.5
 20
576.4999999999999
 30
0.0
 11
87.5
 21
561.0624999999999
 31
0.0
  0
MTEXT
  5
32D3
330
3291
100
AcDbEntity
  8
ﾌﾞﾗｹｯﾄ
 62
     2
100
AcDbMText
 10
89.74999999999999
 20
573.125
 30
0.0
 40
8.75
 41
145.5
 71
     1
 72
     5
  1
スプリング
  7
ACISOTS
 73
     1
 44
1.0
1001
ACAD
1000
MTEXTBEGIN
1070
    73
1070
     1
1070
    44
1040
1.0
1070
    74
1070
     0
1000
MTEXTEND
  0
LINE
  5
32D4
330
3291
100
AcDbEntity
  8
ﾌﾞﾗｹｯﾄ
 62
     1
100
AcDbLine
 10
237.5
 20
576.4999999999999
 30
0.0
 11
237.5
 21
561.0624999999999
 31
0.0
  0
MTEXT
  5
32D5
330
3291
100
AcDbEntity
  8
ﾌﾞﾗｹｯﾄ
 62
     2
100
AcDbMText
 10
239.75
 20
573.125
 30
0.0
 40
8.75
 41
95.5
 71
     1
 72
     5
  1
ステンレス
  7
ACISOTS
 73
     1
 44
1.0
1001
ACAD
1000
MTEXTBEGIN
1070
    73
1070
     1
1070
    44
1040
1.0
1070
    74
1070
     0
1000
MTEXTEND
  0
LINE
  5
32D6
330
3291
100
AcDbEntity
  8
ﾌﾞﾗｹｯﾄ
 62
     1
100
AcDbLine
 10
337.5
 20
576.4999999999999
 30
0.0
 11
337.5
 21
561.0624999999999
 31
0.0
  0
MTEXT
  5
32D7
330
3291
100
AcDbEntity
  8
ﾌﾞﾗｹｯﾄ
 62
     2
100
AcDbMText
 10
339.75
 20
573.125
 30
0.0
 40
8.75
 41
140.5
 71
     1
 72
     5
  1
無処理
  7
ACISOTS
 73
     1
 44
1.0
1001
ACAD
1000
MTEXTBEGIN
1070
    73
1070
     1
1070
    44
1040
1.0
1070
    74
1070
     0
1000
MTEXTEND
  0
MTEXT
  5
32D8
330
3291
100
AcDbEntity
  8
ﾌﾞﾗｹｯﾄ
 62
     2
100
AcDbMText
 10
18.75
 20
557.6875
 30
0.0
 40
8.75
 41
33.0
 71
     2
 72
     5
  1
8
  7
ACISOTS
 73
     1
 44
1.0
1001
ACAD
1000
MTEXTBEGIN
1070
    73
1070
     1
1070
    44
1040
1.0
1070
    74
1070
     0
1000
MTEXTEND
  0
LINE
  5
32D9
330
3291
100
AcDbEntity
  8
ﾌﾞﾗｹｯﾄ
 62
     1
100
AcDbLine
 10
37.5
 20
561.0624999999999
 30
0.0
 11
37.5
 21
545.6249999999999
 31
0.0
  0
MTEXT
  5
32DA
330
3291
100
AcDbEntity
  8
ﾌﾞﾗｹｯﾄ
 62
     2
100
AcDbMText
 10
62.5
 20
557.6875
 30
0.0
 40
8.75
 41
45.49999999999999
 71
     2
 72
     5
  1
2
  7
ACISOTS
 73
     1
 44
1.0
1001
ACAD
1000
MTEXTBEGIN
1070
    73
1070
     1
1070
    44
1040
1.0
1070
    74
1070
     0
1000
MTEXTEND
  0
LINE
  5
32DB
330
3291
100
AcDbEntity
  8
ﾌﾞﾗｹｯﾄ
 62
     1
100
AcDbLine
 10
87.5
 20
561.0624999999999
 30
0.0
 11
87.5
 21
545.6249999999999
 31
0.0
  0
MTEXT
  5
32DC
330
3291
100
AcDbEntity
  8
ﾌﾞﾗｹｯﾄ
 62
     2
100
AcDbMText
 10
89.74999999999999
 20
557.6875
 30
0.0
 40
8.75
 41
145.5
 71
     1
 72
     5
  1
ローター
  7
ACISOTS
 73
     1
 44
1.0
1001
ACAD
1000
MTEXTBEGIN
1070
    73
1070
     1
1070
    44
1040
1.0
1070
    74
1070
     0
1000
MTEXTEND
  0
LINE
  5
32DD
330
3291
100
AcDbEntity
  8
ﾌﾞﾗｹｯﾄ
 62
     1
100
AcDbLine
 10
237.5
 20
561.0624999999999
 30
0.0
 11
237.5
 21
545.6249999999999
 31
0.0
  0
MTEXT
  5
32DE
330
3291
100
AcDbEntity
  8
ﾌﾞﾗｹｯﾄ
 62
     2
100
AcDbMText
 10
239.75
 20
557.6875
 30
0.0
 40
8.75
 41
95.5
 71
     1
 72
     5
  1
ABS
  7
ACISOTS
 73
     1
 44
1.0
1001
ACAD
1000
MTEXTBEGIN
1070
    73
1070
     1
1070
    44
1040
1.0
1070
    74
1070
     0
1000
MTEXTEND
  0
LINE
  5
32DF
330
3291
100
AcDbEntity
  8
ﾌﾞﾗｹｯﾄ
 62
     1
100
AcDbLine
 10
337.5
 20
561.0624999999999
 30
0.0
 11
337.5
 21
545.6249999999999
 31
0.0
  0
MTEXT
  5
32E0
330
3291
100
AcDbEntity
  8
ﾌﾞﾗｹｯﾄ
 62
     2
100
AcDbMText
 10
339.75
 20
557.6875
 30
0.0
 40
8.75
 41
140.5
 71
     1
 72
     5
  1
ﾗｲﾄｸﾞﾚｰ/ﾌﾞﾗｯｸ
  7
ACISOTS
 73
     1
 44
1.0
1001
ACAD
1000
MTEXTBEGIN
1070
    73
1070
     1
1070
    44
1040
1.0
1070
    74
1070
     0
1000
MTEXTEND
  0
LINE
  5
32E1
330
3291
100
AcDbEntity
  8
ﾌﾞﾗｹｯﾄ
 62
     1
100
AcDbLine
 10
0.0
 20
669.125
 30
0.0
 11
482.5
 21
669.125
 31
0.0
  0
MTEXT
  5
32E2
330
3291
100
AcDbEntity
  8
ﾌﾞﾗｹｯﾄ
 62
     2
100
AcDbMText
 10
18.75
 20
681.1875
 30
0.0
 40
8.75
 41
33.0
 71
     2
 72
     5
  1
照番
  7
ACISOTS
 73
     1
 44
1.0
1001
ACAD
1000
MTEXTBEGIN
1070
    73
1070
     1
1070
    44
1040
1.0
1070
    74
1070
     0
1000
MTEXTEND
  0
LINE
  5
32E3
330
3291
100
AcDbEntity
  8
ﾌﾞﾗｹｯﾄ
 62
     1
100
AcDbLine
 10
37.5
 20
684.5625
 30
0.0
 11
37.5
 21
669.125
 31
0.0
  0
MTEXT
  5
32E4
330
3291
100
AcDbEntity
  8
ﾌﾞﾗｹｯﾄ
 62
     2
100
AcDbMText
 10
62.5
 20
681.1875
 30
0.0
 40
8.75
 41
45.49999999999999
 71
     2
 72
     5
  1
数量
  7
ACISOTS
 73
     1
 44
1.0
1001
ACAD
1000
MTEXTBEGIN
1070
    73
1070
     1
1070
    44
1040
1.0
1070
    74
1070
     0
1000
MTEXTEND
  0
LINE
  5
32E5
330
3291
100
AcDbEntity
  8
ﾌﾞﾗｹｯﾄ
 62
     1
100
AcDbLine
 10
87.5
 20
684.5625
 30
0.0
 11
87.5
 21
669.125
 31
0.0
  0
MTEXT
  5
32E6
330
3291
100
AcDbEntity
  8
ﾌﾞﾗｹｯﾄ
 62
     2
100
AcDbMText
 10
162.5
 20
681.1875
 30
0.0
 40
8.75
 41
145.5
 71
     2
 72
     5
  1
名前
  7
ACISOTS
 73
     1
 44
1.0
1001
ACAD
1000
MTEXTBEGIN
1070
    73
1070
     1
1070
    44
1040
1.0
1070
    74
1070
     0
1000
MTEXTEND
  0
LINE
  5
32E7
330
3291
100
AcDbEntity
  8
ﾌﾞﾗｹｯﾄ
 62
     1
100
AcDbLine
 10
237.5
 20
684.5625
 30
0.0
 11
237.5
 21
669.125
 31
0.0
  0
MTEXT
  5
32E8
330
3291
100
AcDbEntity
  8
ﾌﾞﾗｹｯﾄ
 62
     2
100
AcDbMText
 10
287.5
 20
681.1875
 30
0.0
 40
8.75
 41
95.5
 71
     2
 72
     5
  1
材質
  7
ACISOTS
 73
     1
 44
1.0
1001
ACAD
1000
MTEXTBEGIN
1070
    73
1070
     1
1070
    44
1040
1.0
1070
    74
1070
     0
1000
MTEXTEND
  0
LINE
  5
32E9
330
3291
100
AcDbEntity
  8
ﾌﾞﾗｹｯﾄ
 62
     1
100
AcDbLine
 10
337.5
 20
684.5625
 30
0.0
 11
337.5
 21
669.125
 31
0.0
  0
MTEXT
  5
32EA
330
3291
100
AcDbEntity
  8
ﾌﾞﾗｹｯﾄ
 62
     2
100
AcDbMText
 10
410.0
 20
681.1875
 30
0.0
 40
8.75
 41
140.5
 71
     2
 72
     5
  1
色・表面処理
  7
ACISOTS
 73
     1
 44
1.0
1001
ACAD
1000
MTEXTBEGIN
1070
    73
1070
     1
1070
    44
1040
1.0
1070
    74
1070
     0
1000
MTEXTEND
  0
MTEXT
  5
32EB
330
3291
100
AcDbEntity
  8
ﾌﾞﾗｹｯﾄ
 62
     2
100
AcDbMText
 10
241.25
 20
692.28125
 30
0.0
 40
8.75
 41
0.0
 71
     5
 72
     5
  1
構成内容
  7
ACISOTS
 73
     1
 44
1.0
1001
ACAD
1000
MTEXTBEGIN
1070
    73
1070
     1
1070
    44
1040
1.0
1070
    74
1070
     0
1000
MTEXTEND
  0
LINE
  5
32EC
330
3291
100
AcDbEntity
  8
ﾌﾞﾗｹｯﾄ
 62
     1
100
AcDbLine
 10
0.0
 20
684.5625
 30
0.0
 11
482.5
 21
684.5625
 31
0.0
  0
LINE
  5
32ED
330
3291
100
AcDbEntity
  8
ﾌﾞﾗｹｯﾄ
 62
     7
100
AcDbLine
 10
0.0
 20
700.0
 30
0.0
 11
482.5
 21
700.0
 31
0.0
  0
LINE
  5
32EE
330
3291
100
AcDbEntity
  8
ﾌﾞﾗｹｯﾄ
 62
     7
100
AcDbLine
 10
482.5
 20
700.0
 30
0.0
 11
482.5
 21
545.6249999999999
 31
0.0
  0
LINE
  5
32EF
330
3291
100
AcDbEntity
  8
ﾌﾞﾗｹｯﾄ
 62
     7
100
AcDbLine
 10
482.5
 20
545.6249999999999
 30
0.0
 11
0.0
 21
545.6249999999999
 31
0.0
  0
LINE
  5
32F0
330
3291
100
AcDbEntity
  8
ﾌﾞﾗｹｯﾄ
 62
     7
100
AcDbLine
 10
0.0
 20
545.6249999999999
 30
0.0
 11
0.0
 21
700.0
 31
0.0
  0
ENDBLK
  5
32F2
330
3291
100
AcDbEntity
  8
0
100
AcDbBlockEnd
  0
ENDSEC
  0
SECTION
  2
ENTITIES
  0
LINE
  5
1C3A
330
1F
100
AcDbEntity
  8
ｽﾃｰﾀｰ
 62
     6
100
AcDbLine
 10
238.877233982084
 20
473.0851986855238
 30
0.0
 11
236.877233982084
 21
473.1550402245074
 31
0.0
1001
GENIUS_GENREC_14
1002
{
1000
PYDIR
1011
236.877233982084
1021
473.1550402245074
1031
0.0
1002
}
1002
{
1000
PXDIR
1011
238.877233982084
1021
468.2248817634909
1031
0.0
1002
}
1002
{
1000
PORI
1011
236.877233982084
1021
468.1550402245074
1031
0.0
1002
}
1002
{
1000
PINS
1011
236.877233982084
1021
470.6550402245074
1031
0.0
1002
}
1002
{
1000
HVAL
1000
5
1002
}
1002
{
1000
H
1070
     2
1002
}
1002
{
1000
WVAL
1000
2
1002
}
1002
{
1000
W
1070
     2
1002
}
1002
{
1000
C
1070
     3
1002
}
1001
GENIUS_GENODEF_13
1002
{
1000
HIER
1070
     0
1002
}
1002
{
1000
MANEDIT
1070
     0
1002
}
1002
{
1000
NOSEL
1070
     0
1002
}
1002
{
1000
BEHIND
1070
     0
1002
}
1002
{
1000
REACTOR
1002
}
1001
GENIUS_GENOBJ-N-REC_13
1002
{
1000
OWNER
1000
GEN
1002
}
  0
LINE
  5
1C3B
330
1F
100
AcDbEntity
  8
ｽﾃｰﾀｰ
 62
     6
100
AcDbLine
 10
238.877233982084
 20
468.2248817634909
 30
0.0
 11
238.877233982084
 21
473.0851986855238
 31
0.0
1001
GENIUS_GENREC_14
1002
{
1000
PYDIR
1011
236.877233982084
1021
473.1550402245074
1031
0.0
1002
}
1002
{
1000
PXDIR
1011
238.877233982084
1021
468.2248817634909
1031
0.0
1002
}
1002
{
1000
PORI
1011
236.877233982084
1021
468.1550402245074
1031
0.0
1002
}
1002
{
1000
PINS
1011
236.877233982084
1021
470.6550402245074
1031
0.0
1002
}
1002
{
1000
HVAL
1000
5
1002
}
1002
{
1000
H
1070
     2
1002
}
1002
{
1000
WVAL
1000
2
1002
}
1002
{
1000
W
1070
     2
1002
}
1002
{
1000
C
1070
     3
1002
}
1001
GENIUS_GENODEF_13
1002
{
1000
HIER
1070
     0
1002
}
1002
{
1000
MANEDIT
1070
     0
1002
}
1002
{
1000
NOSEL
1070
     0
1002
}
1002
{
1000
BEHIND
1070
     0
1002
}
1002
{
1000
REACTOR
1002
}
1001
GENIUS_GENOBJ-N-REC_13
1002
{
1000
OWNER
1000
GEN
1002
}
  0
LINE
  5
1C3C
330
1F
100
AcDbEntity
  8
ｽﾃｰﾀｰ
 62
     6
100
AcDbLine
 10
236.877233982084
 20
468.1550402245074
 30
0.0
 11
238.877233982084
 21
468.2248817634909
 31
0.0
1001
GENIUS_GENREC_14
1002
{
1000
PYDIR
1011
236.877233982084
1021
473.1550402245074
1031
0.0
1002
}
1002
{
1000
PXDIR
1011
238.877233982084
1021
468.2248817634909
1031
0.0
1002
}
1002
{
1000
PORI
1011
236.877233982084
1021
468.1550402245074
1031
0.0
1002
}
1002
{
1000
PINS
1011
236.877233982084
1021
470.6550402245074
1031
0.0
1002
}
1002
{
1000
HVAL
1000
5
1002
}
1002
{
1000
H
1070
     2
1002
}
1002
{
1000
WVAL
1000
2
1002
}
1002
{
1000
W
1070
     2
1002
}
1002
{
1000
C
1070
     3
1002
}
1001
GENIUS_GENODEF_13
1002
{
1000
HIER
1070
     0
1002
}
1002
{
1000
MANEDIT
1070
     0
1002
}
1002
{
1000
NOSEL
1070
     0
1002
}
1002
{
1000
BEHIND
1070
     0
1002
}
1002
{
1000
REACTOR
1002
}
1001
GENIUS_GENOBJ-N-REC_13
1002
{
1000
OWNER
1000
GEN
1002
}
  0
LINE
  5
1C3D
330
1F
100
AcDbEntity
  8
ｽﾃｰﾀｰ
 62
     6
100
AcDbLine
 10
238.8772339820844
 20
453.0851986855239
 30
0.0
 11
236.8772339820844
 21
453.1550402245074
 31
0.0
1001
GENIUS_GENREC_14
1002
{
1000
PYDIR
1011
236.8772339820844
1021
453.1550402245074
1031
0.0
1002
}
1002
{
1000
PXDIR
1011
238.8772339820844
1021
448.2248817634912
1031
0.0
1002
}
1002
{
1000
PORI
1011
236.8772339820844
1021
448.1550402245074
1031
0.0
1002
}
1002
{
1000
PINS
1011
236.8772339820844
1021
450.6550402245074
1031
0.0
1002
}
1002
{
1000
HVAL
1000
5
1002
}
1002
{
1000
H
1070
     2
1002
}
1002
{
1000
WVAL
1000
2
1002
}
1002
{
1000
W
1070
     2
1002
}
1002
{
1000
C
1070
     3
1002
}
1001
GENIUS_GENODEF_13
1002
{
1000
HIER
1070
     0
1002
}
1002
{
1000
MANEDIT
1070
     0
1002
}
1002
{
1000
NOSEL
1070
     0
1002
}
1002
{
1000
BEHIND
1070
     0
1002
}
1002
{
1000
REACTOR
1002
}
1001
GENIUS_GENOBJ-N-REC_13
1002
{
1000
OWNER
1000
GEN
1002
}
  0
LINE
  5
1C3E
330
1F
100
AcDbEntity
  8
ｽﾃｰﾀｰ
 62
     6
100
AcDbLine
 10
238.8772339820844
 20
448.2248817634912
 30
0.0
 11
238.8772339820844
 21
453.0851986855239
 31
0.0
1001
GENIUS_GENREC_14
1002
{
1000
PYDIR
1011
236.8772339820844
1021
453.1550402245074
1031
0.0
1002
}
1002
{
1000
PXDIR
1011
238.8772339820844
1021
448.2248817634912
1031
0.0
1002
}
1002
{
1000
PORI
1011
236.8772339820844
1021
448.1550402245074
1031
0.0
1002
}
1002
{
1000
PINS
1011
236.8772339820844
1021
450.6550402245074
1031
0.0
1002
}
1002
{
1000
HVAL
1000
5
1002
}
1002
{
1000
H
1070
     2
1002
}
1002
{
1000
WVAL
1000
2
1002
}
1002
{
1000
W
1070
     2
1002
}
1002
{
1000
C
1070
     3
1002
}
1001
GENIUS_GENODEF_13
1002
{
1000
HIER
1070
     0
1002
}
1002
{
1000
MANEDIT
1070
     0
1002
}
1002
{
1000
NOSEL
1070
     0
1002
}
1002
{
1000
BEHIND
1070
     0
1002
}
1002
{
1000
REACTOR
1002
}
1001
GENIUS_GENOBJ-N-REC_13
1002
{
1000
OWNER
1000
GEN
1002
}
  0
LINE
  5
1C3F
330
1F
100
AcDbEntity
  8
ｽﾃｰﾀｰ
 62
     6
100
AcDbLine
 10
236.8772339820844
 20
448.1550402245074
 30
0.0
 11
238.8772339820844
 21
448.2248817634912
 31
0.0
1001
GENIUS_GENREC_14
1002
{
1000
PYDIR
1011
236.8772339820844
1021
453.1550402245074
1031
0.0
1002
}
1002
{
1000
PXDIR
1011
238.8772339820844
1021
448.2248817634912
1031
0.0
1002
}
1002
{
1000
PORI
1011
236.8772339820844
1021
448.1550402245074
1031
0.0
1002
}
1002
{
1000
PINS
1011
236.8772339820844
1021
450.6550402245074
1031
0.0
1002
}
1002
{
1000
HVAL
1000
5
1002
}
1002
{
1000
H
1070
     2
1002
}
1002
{
1000
WVAL
1000
2
1002
}
1002
{
1000
W
1070
     2
1002
}
1002
{
1000
C
1070
     3
1002
}
1001
GENIUS_GENODEF_13
1002
{
1000
HIER
1070
     0
1002
}
1002
{
1000
MANEDIT
1070
     0
1002
}
1002
{
1000
NOSEL
1070
     0
1002
}
1002
{
1000
BEHIND
1070
     0
1002
}
1002
{
1000
REACTOR
1002
}
1001
GENIUS_GENOBJ-N-REC_13
1002
{
1000
OWNER
1000
GEN
1002
}
  0
LINE
  5
1C40
330
1F
100
AcDbEntity
  8
ｽﾃｰﾀｰ
 62
     6
100
AcDbLine
 10
236.877233982084
 20
446.7423421482371
 30
0.0
 11
236.877233982084
 21
474.5677383007779
 31
0.0
  0
LINE
  5
1C41
330
1F
100
AcDbEntity
  8
ｽﾃｰﾀｰ
 62
     6
100
AcDbLine
 10
234.3772339820835
 20
474.6550402245074
 30
0.0
 11
236.877233982084
 21
474.5677383007779
 31
0.0
  0
LINE
  5
1C42
330
1F
100
AcDbEntity
  8
ｽﾃｰﾀｰ
 62
     6
100
AcDbLine
 10
234.377233982084
 20
446.6550402245074
 30
0.0
 11
236.877233982084
 21
446.742342148237
 31
0.0
  0
ARC
  5
1D20
330
1F
100
AcDbEntity
  8
ｽﾃｰﾀｰ
 62
     6
100
AcDbCircle
 10
339.3605099028008
 20
460.6550402245074
 30
0.0
 40
16.0
100
AcDbArc
 50
277.1807557814583
 51
79.19307712513965
  0
CIRCLE
  5
1D21
330
1F
100
AcDbEntity
  8
ｽﾃｰﾀｰ
 62
     6
100
AcDbCircle
 10
339.3605099028008
 20
450.6550402245074
 30
0.0
 40
2.5
  0
CIRCLE
  5
1D22
330
1F
100
AcDbEntity
  8
ｽﾃｰﾀｰ
 62
     6
100
AcDbCircle
 10
339.3605099028008
 20
470.6550402245074
 30
0.0
 40
2.5
  0
CIRCLE
  5
1D23
330
1F
100
AcDbEntity
  8
ｽﾃｰﾀｰ
 62
     6
100
AcDbCircle
 10
339.3605099028004
 20
460.6550402245074
 30
0.0
 40
2.75
  0
CIRCLE
  5
1D24
330
1F
100
AcDbEntity
  8
ｽﾃｰﾀｰ
 62
     6
100
AcDbCircle
 10
339.3605099028008
 20
460.6550402245074
 30
0.0
 40
14.0
  0
ARC
  5
1D25
330
1F
100
AcDbEntity
  8
ｽﾃｰﾀｰ
 62
     6
100
AcDbCircle
 10
339.3605099028008
 20
460.6550402245074
 30
0.0
 40
16.0
100
AcDbArc
 50
100.8069228748603
 51
262.8192442185417
  0
POLYLINE
  5
1D26
330
1F
100
AcDbEntity
  8
ﾌﾞﾗｹｯﾄ
100
AcDb3dPolyline
 66
     1
 10
0.0
 20
0.0
 30
0.0
 70
     8
  0
VERTEX
  5
1D27
330
1D26
100
AcDbEntity
  8
ﾌﾞﾗｹｯﾄ
100
AcDbVertex
100
AcDb3dPolylineVertex
 10
219.3769867855217
 20
444.44899710589
 30
0.0
 70
    32
  0
VERTEX
  5
1D28
330
1D26
100
AcDbEntity
  8
ﾌﾞﾗｹｯﾄ
100
AcDbVertex
100
AcDb3dPolylineVertex
 10
219.4179867855219
 20
444.4609971058901
 30
0.0
 70
    32
  0
VERTEX
  5
1D29
330
1D26
100
AcDbEntity
  8
ﾌﾞﾗｹｯﾄ
100
AcDbVertex
100
AcDb3dPolylineVertex
 10
219.4589867855218
 20
444.4729971058902
 30
0.0
 70
    32
  0
VERTEX
  5
1D2A
330
1D26
100
AcDbEntity
  8
ﾌﾞﾗｹｯﾄ
100
AcDbVertex
100
AcDb3dPolylineVertex
 10
219.4999867855218
 20
444.4839971058901
 30
0.0
 70
    32
  0
VERTEX
  5
1D2B
330
1D26
100
AcDbEntity
  8
ﾌﾞﾗｹｯﾄ
100
AcDbVertex
100
AcDb3dPolylineVertex
 10
219.539986785522
 20
444.4959971058902
 30
0.0
 70
    32
  0
VERTEX
  5
1D2C
330
1D26
100
AcDbEntity
  8
ﾌﾞﾗｹｯﾄ
100
AcDbVertex
100
AcDb3dPolylineVertex
 10
219.5809867855219
 20
444.5079971058901
 30
0.0
 70
    32
  0
VERTEX
  5
1D2D
330
1D26
100
AcDbEntity
  8
ﾌﾞﾗｹｯﾄ
100
AcDbVertex
100
AcDb3dPolylineVertex
 10
219.6219867855219
 20
444.5189971058901
 30
0.0
 70
    32
  0
VERTEX
  5
1D2E
330
1D26
100
AcDbEntity
  8
ﾌﾞﾗｹｯﾄ
100
AcDbVertex
100
AcDb3dPolylineVertex
 10
219.6629867855218
 20
444.5309971058902
 30
0.0
 70
    32
  0
VERTEX
  5
1D2F
330
1D26
100
AcDbEntity
  8
ﾌﾞﾗｹｯﾄ
100
AcDbVertex
100
AcDb3dPolylineVertex
 10
219.703986785522
 20
444.5429971058901
 30
0.0
 70
    32
  0
VERTEX
  5
1D30
330
1D26
100
AcDbEntity
  8
ﾌﾞﾗｹｯﾄ
100
AcDbVertex
100
AcDb3dPolylineVertex
 10
219.7439867855219
 20
444.55399710589
 30
0.0
 70
    32
  0
VERTEX
  5
1D31
330
1D26
100
AcDbEntity
  8
ﾌﾞﾗｹｯﾄ
100
AcDbVertex
100
AcDb3dPolylineVertex
 10
219.7849867855219
 20
444.5659971058901
 30
0.0
 70
    32
  0
VERTEX
  5
1D32
330
1D26
100
AcDbEntity
  8
ﾌﾞﾗｹｯﾄ
100
AcDbVertex
100
AcDb3dPolylineVertex
 10
219.8259867855218
 20
444.5779971058901
 30
0.0
 70
    32
  0
VERTEX
  5
1D33
330
1D26
100
AcDbEntity
  8
ﾌﾞﾗｹｯﾄ
100
AcDbVertex
100
AcDb3dPolylineVertex
 10
219.866986785522
 20
444.5889971058901
 30
0.0
 70
    32
  0
VERTEX
  5
1D34
330
1D26
100
AcDbEntity
  8
ﾌﾞﾗｹｯﾄ
100
AcDbVertex
100
AcDb3dPolylineVertex
 10
219.9079867855219
 20
444.6009971058901
 30
0.0
 70
    32
  0
VERTEX
  5
1D35
330
1D26
100
AcDbEntity
  8
ﾌﾞﾗｹｯﾄ
100
AcDbVertex
100
AcDb3dPolylineVertex
 10
219.9489867855219
 20
444.6119971058902
 30
0.0
 70
    32
  0
VERTEX
  5
1D36
330
1D26
100
AcDbEntity
  8
ﾌﾞﾗｹｯﾄ
100
AcDbVertex
100
AcDb3dPolylineVertex
 10
219.9889867855219
 20
444.6239971058902
 30
0.0
 70
    32
  0
VERTEX
  5
1D37
330
1D26
100
AcDbEntity
  8
ﾌﾞﾗｹｯﾄ
100
AcDbVertex
100
AcDb3dPolylineVertex
 10
220.029986785522
 20
444.6349971058901
 30
0.0
 70
    32
  0
VERTEX
  5
1D38
330
1D26
100
AcDbEntity
  8
ﾌﾞﾗｹｯﾄ
100
AcDbVertex
100
AcDb3dPolylineVertex
 10
220.0709867855219
 20
444.6469971058902
 30
0.0
 70
    32
  0
VERTEX
  5
1D39
330
1D26
100
AcDbEntity
  8
ﾌﾞﾗｹｯﾄ
100
AcDbVertex
100
AcDb3dPolylineVertex
 10
220.1119867855219
 20
444.6579971058901
 30
0.0
 70
    32
  0
VERTEX
  5
1D3A
330
1D26
100
AcDbEntity
  8
ﾌﾞﾗｹｯﾄ
100
AcDbVertex
100
AcDb3dPolylineVertex
 10
220.152986785522
 20
444.6699971058901
 30
0.0
 70
    32
  0
VERTEX
  5
1D3B
330
1D26
100
AcDbEntity
  8
ﾌﾞﾗｹｯﾄ
100
AcDbVertex
100
AcDb3dPolylineVertex
 10
220.193986785522
 20
444.6809971058901
 30
0.0
 70
    32
  0
VERTEX
  5
1D3C
330
1D26
100
AcDbEntity
  8
ﾌﾞﾗｹｯﾄ
100
AcDbVertex
100
AcDb3dPolylineVertex
 10
220.2349867855219
 20
444.6919971058902
 30
0.0
 70
    32
  0
VERTEX
  5
1D3D
330
1D26
100
AcDbEntity
  8
ﾌﾞﾗｹｯﾄ
100
AcDbVertex
100
AcDb3dPolylineVertex
 10
220.2759867855219
 20
444.7039971058901
 30
0.0
 70
    32
  0
VERTEX
  5
1D3E
330
1D26
100
AcDbEntity
  8
ﾌﾞﾗｹｯﾄ
100
AcDbVertex
100
AcDb3dPolylineVertex
 10
220.3169867855218
 20
444.7149971058902
 30
0.0
 70
    32
  0
VERTEX
  5
1D3F
330
1D26
100
AcDbEntity
  8
ﾌﾞﾗｹｯﾄ
100
AcDbVertex
100
AcDb3dPolylineVertex
 10
220.3569867855218
 20
444.7259971058901
 30
0.0
 70
    32
  0
VERTEX
  5
1D40
330
1D26
100
AcDbEntity
  8
ﾌﾞﾗｹｯﾄ
100
AcDbVertex
100
AcDb3dPolylineVertex
 10
220.397986785522
 20
444.7369971058902
 30
0.0
 70
    32
  0
VERTEX
  5
1D41
330
1D26
100
AcDbEntity
  8
ﾌﾞﾗｹｯﾄ
100
AcDbVertex
100
AcDb3dPolylineVertex
 10
220.4389867855219
 20
444.7489971058901
 30
0.0
 70
    32
  0
VERTEX
  5
1D42
330
1D26
100
AcDbEntity
  8
ﾌﾞﾗｹｯﾄ
100
AcDbVertex
100
AcDb3dPolylineVertex
 10
220.4799867855218
 20
444.7599971058901
 30
0.0
 70
    32
  0
VERTEX
  5
1D43
330
1D26
100
AcDbEntity
  8
ﾌﾞﾗｹｯﾄ
100
AcDbVertex
100
AcDb3dPolylineVertex
 10
220.520986785522
 20
444.7709971058902
 30
0.0
 70
    32
  0
VERTEX
  5
1D44
330
1D26
100
AcDbEntity
  8
ﾌﾞﾗｹｯﾄ
100
AcDbVertex
100
AcDb3dPolylineVertex
 10
220.5619867855219
 20
444.7819971058901
 30
0.0
 70
    32
  0
VERTEX
  5
1D45
330
1D26
100
AcDbEntity
  8
ﾌﾞﾗｹｯﾄ
100
AcDbVertex
100
AcDb3dPolylineVertex
 10
220.6029867855219
 20
444.7929971058901
 30
0.0
 70
    32
  0
VERTEX
  5
1D46
330
1D26
100
AcDbEntity
  8
ﾌﾞﾗｹｯﾄ
100
AcDbVertex
100
AcDb3dPolylineVertex
 10
220.643986785522
 20
444.8039971058901
 30
0.0
 70
    32
  0
VERTEX
  5
1D47
330
1D26
100
AcDbEntity
  8
ﾌﾞﾗｹｯﾄ
100
AcDbVertex
100
AcDb3dPolylineVertex
 10
220.684986785522
 20
444.8139971058901
 30
0.0
 70
    32
  0
VERTEX
  5
1D48
330
1D26
100
AcDbEntity
  8
ﾌﾞﾗｹｯﾄ
100
AcDbVertex
100
AcDb3dPolylineVertex
 10
220.7259867855219
 20
444.82499710589
 30
0.0
 70
    32
  0
VERTEX
  5
1D49
330
1D26
100
AcDbEntity
  8
ﾌﾞﾗｹｯﾄ
100
AcDbVertex
100
AcDb3dPolylineVertex
 10
220.7669867855218
 20
444.8359971058901
 30
0.0
 70
    32
  0
VERTEX
  5
1D4A
330
1D26
100
AcDbEntity
  8
ﾌﾞﾗｹｯﾄ
100
AcDbVertex
100
AcDb3dPolylineVertex
 10
220.807986785522
 20
444.8469971058901
 30
0.0
 70
    32
  0
VERTEX
  5
1D4B
330
1D26
100
AcDbEntity
  8
ﾌﾞﾗｹｯﾄ
100
AcDbVertex
100
AcDb3dPolylineVertex
 10
220.848986785522
 20
444.8569971058902
 30
0.0
 70
    32
  0
VERTEX
  5
1D4C
330
1D26
100
AcDbEntity
  8
ﾌﾞﾗｹｯﾄ
100
AcDbVertex
100
AcDb3dPolylineVertex
 10
220.8909867855219
 20
444.8679971058902
 30
0.0
 70
    32
  0
VERTEX
  5
1D4D
330
1D26
100
AcDbEntity
  8
ﾌﾞﾗｹｯﾄ
100
AcDbVertex
100
AcDb3dPolylineVertex
 10
220.9319867855218
 20
444.8779971058901
 30
0.0
 70
    32
  0
VERTEX
  5
1D4E
330
1D26
100
AcDbEntity
  8
ﾌﾞﾗｹｯﾄ
100
AcDbVertex
100
AcDb3dPolylineVertex
 10
220.972986785522
 20
444.8889971058902
 30
0.0
 70
    32
  0
VERTEX
  5
1D4F
330
1D26
100
AcDbEntity
  8
ﾌﾞﾗｹｯﾄ
100
AcDbVertex
100
AcDb3dPolylineVertex
 10
221.0139867855219
 20
444.8989971058901
 30
0.0
 70
    32
  0
VERTEX
  5
1D50
330
1D26
100
AcDbEntity
  8
ﾌﾞﾗｹｯﾄ
100
AcDbVertex
100
AcDb3dPolylineVertex
 10
221.0549867855219
 20
444.9089971058901
 30
0.0
 70
    32
  0
VERTEX
  5
1D51
330
1D26
100
AcDbEntity
  8
ﾌﾞﾗｹｯﾄ
100
AcDbVertex
100
AcDb3dPolylineVertex
 10
221.0959867855218
 20
444.9189971058901
 30
0.0
 70
    32
  0
VERTEX
  5
1D52
330
1D26
100
AcDbEntity
  8
ﾌﾞﾗｹｯﾄ
100
AcDbVertex
100
AcDb3dPolylineVertex
 10
221.136986785522
 20
444.92999710589
 30
0.0
 70
    32
  0
VERTEX
  5
1D53
330
1D26
100
AcDbEntity
  8
ﾌﾞﾗｹｯﾄ
100
AcDbVertex
100
AcDb3dPolylineVertex
 10
221.1789867855219
 20
444.9399971058901
 30
0.0
 70
    32
  0
VERTEX
  5
1D54
330
1D26
100
AcDbEntity
  8
ﾌﾞﾗｹｯﾄ
100
AcDbVertex
100
AcDb3dPolylineVertex
 10
221.2199867855221
 20
444.9499971058901
 30
0.0
 70
    32
  0
VERTEX
  5
1D55
330
1D26
100
AcDbEntity
  8
ﾌﾞﾗｹｯﾄ
100
AcDbVertex
100
AcDb3dPolylineVertex
 10
221.2609867855217
 20
444.9589971058901
 30
0.0
 70
    32
  0
VERTEX
  5
1D56
330
1D26
100
AcDbEntity
  8
ﾌﾞﾗｹｯﾄ
100
AcDbVertex
100
AcDb3dPolylineVertex
 10
221.3019867855219
 20
444.9689971058901
 30
0.0
 70
    32
  0
VERTEX
  5
1D57
330
1D26
100
AcDbEntity
  8
ﾌﾞﾗｹｯﾄ
100
AcDbVertex
100
AcDb3dPolylineVertex
 10
221.3439867855218
 20
444.9789971058901
 30
0.0
 70
    32
  0
VERTEX
  5
1D58
330
1D26
100
AcDbEntity
  8
ﾌﾞﾗｹｯﾄ
100
AcDbVertex
100
AcDb3dPolylineVertex
 10
221.384986785522
 20
444.9889971058901
 30
0.0
 70
    32
  0
VERTEX
  5
1D59
330
1D26
100
AcDbEntity
  8
ﾌﾞﾗｹｯﾄ
100
AcDbVertex
100
AcDb3dPolylineVertex
 10
221.4259867855219
 20
444.9979971058901
 30
0.0
 70
    32
  0
VERTEX
  5
1D5A
330
1D26
100
AcDbEntity
  8
ﾌﾞﾗｹｯﾄ
100
AcDbVertex
100
AcDb3dPolylineVertex
 10
221.4679867855219
 20
445.0079971058902
 30
0.0
 70
    32
  0
VERTEX
  5
1D5B
330
1D26
100
AcDbEntity
  8
ﾌﾞﾗｹｯﾄ
100
AcDbVertex
100
AcDb3dPolylineVertex
 10
221.5089867855218
 20
445.0169971058902
 30
0.0
 70
    32
  0
VERTEX
  5
1D5C
330
1D26
100
AcDbEntity
  8
ﾌﾞﾗｹｯﾄ
100
AcDbVertex
100
AcDb3dPolylineVertex
 10
221.550986785522
 20
445.0259971058902
 30
0.0
 70
    32
  0
VERTEX
  5
1D5D
330
1D26
100
AcDbEntity
  8
ﾌﾞﾗｹｯﾄ
100
AcDbVertex
100
AcDb3dPolylineVertex
 10
221.5919867855219
 20
445.0359971058902
 30
0.0
 70
    32
  0
VERTEX
  5
1D5E
330
1D26
100
AcDbEntity
  8
ﾌﾞﾗｹｯﾄ
100
AcDbVertex
100
AcDb3dPolylineVertex
 10
221.6329867855221
 20
445.04499710589
 30
0.0
 70
    32
  0
VERTEX
  5
1D5F
330
1D26
100
AcDbEntity
  8
ﾌﾞﾗｹｯﾄ
100
AcDbVertex
100
AcDb3dPolylineVertex
 10
221.674986785522
 20
445.05399710589
 30
0.0
 70
    32
  0
VERTEX
  5
1D60
330
1D26
100
AcDbEntity
  8
ﾌﾞﾗｹｯﾄ
100
AcDbVertex
100
AcDb3dPolylineVertex
 10
221.7159867855219
 20
445.0629971058901
 30
0.0
 70
    32
  0
VERTEX
  5
1D61
330
1D26
100
AcDbEntity
  8
ﾌﾞﾗｹｯﾄ
100
AcDbVertex
100
AcDb3dPolylineVertex
 10
221.7579867855221
 20
445.0709971058901
 30
0.0
 70
    32
  0
VERTEX
  5
1D62
330
1D26
100
AcDbEntity
  8
ﾌﾞﾗｹｯﾄ
100
AcDbVertex
100
AcDb3dPolylineVertex
 10
221.798986785522
 20
445.0799971058901
 30
0.0
 70
    32
  0
VERTEX
  5
1D63
330
1D26
100
AcDbEntity
  8
ﾌﾞﾗｹｯﾄ
100
AcDbVertex
100
AcDb3dPolylineVertex
 10
221.8409867855219
 20
445.0889971058901
 30
0.0
 70
    32
  0
VERTEX
  5
1D64
330
1D26
100
AcDbEntity
  8
ﾌﾞﾗｹｯﾄ
100
AcDbVertex
100
AcDb3dPolylineVertex
 10
221.882986785522
 20
445.0969971058901
 30
0.0
 70
    32
  0
VERTEX
  5
1D65
330
1D26
100
AcDbEntity
  8
ﾌﾞﾗｹｯﾄ
100
AcDbVertex
100
AcDb3dPolylineVertex
 10
221.923986785522
 20
445.1059971058901
 30
0.0
 70
    32
  0
VERTEX
  5
1D66
330
1D26
100
AcDbEntity
  8
ﾌﾞﾗｹｯﾄ
100
AcDbVertex
100
AcDb3dPolylineVertex
 10
221.9659867855219
 20
445.1139971058902
 30
0.0
 70
    32
  0
VERTEX
  5
1D67
330
1D26
100
AcDbEntity
  8
ﾌﾞﾗｹｯﾄ
100
AcDbVertex
100
AcDb3dPolylineVertex
 10
222.0079867855221
 20
445.1219971058902
 30
0.0
 70
    32
  0
VERTEX
  5
1D68
330
1D26
100
AcDbEntity
  8
ﾌﾞﾗｹｯﾄ
100
AcDbVertex
100
AcDb3dPolylineVertex
 10
222.048986785522
 20
445.1299971058901
 30
0.0
 70
    32
  0
VERTEX
  5
1D69
330
1D26
100
AcDbEntity
  8
ﾌﾞﾗｹｯﾄ
100
AcDbVertex
100
AcDb3dPolylineVertex
 10
222.0909867855219
 20
445.1379971058901
 30
0.0
 70
    32
  0
VERTEX
  5
1D6A
330
1D26
100
AcDbEntity
  8
ﾌﾞﾗｹｯﾄ
100
AcDbVertex
100
AcDb3dPolylineVertex
 10
222.1329867855221
 20
445.1459971058902
 30
0.0
 70
    32
  0
VERTEX
  5
1D6B
330
1D26
100
AcDbEntity
  8
ﾌﾞﾗｹｯﾄ
100
AcDbVertex
100
AcDb3dPolylineVertex
 10
222.173986785522
 20
445.1539971058901
 30
0.0
 70
    32
  0
VERTEX
  5
1D6C
330
1D26
100
AcDbEntity
  8
ﾌﾞﾗｹｯﾄ
100
AcDbVertex
100
AcDb3dPolylineVertex
 10
222.2159867855219
 20
445.1619971058901
 30
0.0
 70
    32
  0
VERTEX
  5
1D6D
330
1D26
100
AcDbEntity
  8
ﾌﾞﾗｹｯﾄ
100
AcDbVertex
100
AcDb3dPolylineVertex
 10
222.2579867855221
 20
445.1689971058901
 30
0.0
 70
    32
  0
VERTEX
  5
1D6E
330
1D26
100
AcDbEntity
  8
ﾌﾞﾗｹｯﾄ
100
AcDbVertex
100
AcDb3dPolylineVertex
 10
222.299986785522
 20
445.1769971058901
 30
0.0
 70
    32
  0
VERTEX
  5
1D6F
330
1D26
100
AcDbEntity
  8
ﾌﾞﾗｹｯﾄ
100
AcDbVertex
100
AcDb3dPolylineVertex
 10
222.3419867855219
 20
445.1839971058901
 30
0.0
 70
    32
  0
VERTEX
  5
1D70
330
1D26
100
AcDbEntity
  8
ﾌﾞﾗｹｯﾄ
100
AcDbVertex
100
AcDb3dPolylineVertex
 10
222.3829867855221
 20
445.1919971058901
 30
0.0
 70
    32
  0
VERTEX
  5
1D71
330
1D26
100
AcDbEntity
  8
ﾌﾞﾗｹｯﾄ
100
AcDbVertex
100
AcDb3dPolylineVertex
 10
222.424986785522
 20
445.1989971058901
 30
0.0
 70
    32
  0
VERTEX
  5
1D72
330
1D26
100
AcDbEntity
  8
ﾌﾞﾗｹｯﾄ
100
AcDbVertex
100
AcDb3dPolylineVertex
 10
222.4669867855219
 20
445.2059971058901
 30
0.0
 70
    32
  0
VERTEX
  5
1D73
330
1D26
100
AcDbEntity
  8
ﾌﾞﾗｹｯﾄ
100
AcDbVertex
100
AcDb3dPolylineVertex
 10
222.5089867855218
 20
445.2129971058901
 30
0.0
 70
    32
  0
VERTEX
  5
1D74
330
1D26
100
AcDbEntity
  8
ﾌﾞﾗｹｯﾄ
100
AcDbVertex
100
AcDb3dPolylineVertex
 10
222.5509867855219
 20
445.2199971058901
 30
0.0
 70
    32
  0
VERTEX
  5
1D75
330
1D26
100
AcDbEntity
  8
ﾌﾞﾗｹｯﾄ
100
AcDbVertex
100
AcDb3dPolylineVertex
 10
222.5929867855219
 20
445.2269971058901
 30
0.0
 70
    32
  0
VERTEX
  5
1D76
330
1D26
100
AcDbEntity
  8
ﾌﾞﾗｹｯﾄ
100
AcDbVertex
100
AcDb3dPolylineVertex
 10
222.634986785522
 20
445.2339971058902
 30
0.0
 70
    32
  0
VERTEX
  5
1D77
330
1D26
100
AcDbEntity
  8
ﾌﾞﾗｹｯﾄ
100
AcDbVertex
100
AcDb3dPolylineVertex
 10
222.6769867855219
 20
445.2399971058901
 30
0.0
 70
    32
  0
VERTEX
  5
1D78
330
1D26
100
AcDbEntity
  8
ﾌﾞﾗｹｯﾄ
100
AcDbVertex
100
AcDb3dPolylineVertex
 10
222.7189867855218
 20
445.2469971058902
 30
0.0
 70
    32
  0
VERTEX
  5
1D79
330
1D26
100
AcDbEntity
  8
ﾌﾞﾗｹｯﾄ
100
AcDbVertex
100
AcDb3dPolylineVertex
 10
222.7609867855218
 20
445.2529971058901
 30
0.0
 70
    32
  0
VERTEX
  5
1D7A
330
1D26
100
AcDbEntity
  8
ﾌﾞﾗｹｯﾄ
100
AcDbVertex
100
AcDb3dPolylineVertex
 10
222.8029867855219
 20
445.2589971058901
 30
0.0
 70
    32
  0
VERTEX
  5
1D7B
330
1D26
100
AcDbEntity
  8
ﾌﾞﾗｹｯﾄ
100
AcDbVertex
100
AcDb3dPolylineVertex
 10
222.844986785522
 20
445.2659971058902
 30
0.0
 70
    32
  0
VERTEX
  5
1D7C
330
1D26
100
AcDbEntity
  8
ﾌﾞﾗｹｯﾄ
100
AcDbVertex
100
AcDb3dPolylineVertex
 10
222.886986785522
 20
445.2719971058901
 30
0.0
 70
    32
  0
VERTEX
  5
1D7D
330
1D26
100
AcDbEntity
  8
ﾌﾞﾗｹｯﾄ
100
AcDbVertex
100
AcDb3dPolylineVertex
 10
222.9289867855219
 20
445.2779971058901
 30
0.0
 70
    32
  0
VERTEX
  5
1D7E
330
1D26
100
AcDbEntity
  8
ﾌﾞﾗｹｯﾄ
100
AcDbVertex
100
AcDb3dPolylineVertex
 10
222.9709867855218
 20
445.2839971058901
 30
0.0
 70
    32
  0
VERTEX
  5
1D7F
330
1D26
100
AcDbEntity
  8
ﾌﾞﾗｹｯﾄ
100
AcDbVertex
100
AcDb3dPolylineVertex
 10
223.0129867855219
 20
445.2899971058901
 30
0.0
 70
    32
  0
VERTEX
  5
1D80
330
1D26
100
AcDbEntity
  8
ﾌﾞﾗｹｯﾄ
100
AcDbVertex
100
AcDb3dPolylineVertex
 10
223.0549867855219
 20
445.2949971058901
 30
0.0
 70
    32
  0
VERTEX
  5
1D81
330
1D26
100
AcDbEntity
  8
ﾌﾞﾗｹｯﾄ
100
AcDbVertex
100
AcDb3dPolylineVertex
 10
223.096986785522
 20
445.3009971058902
 30
0.0
 70
    32
  0
VERTEX
  5
1D82
330
1D26
100
AcDbEntity
  8
ﾌﾞﾗｹｯﾄ
100
AcDbVertex
100
AcDb3dPolylineVertex
 10
223.1389867855219
 20
445.3059971058902
 30
0.0
 70
    32
  0
VERTEX
  5
1D83
330
1D26
100
AcDbEntity
  8
ﾌﾞﾗｹｯﾄ
100
AcDbVertex
100
AcDb3dPolylineVertex
 10
223.1809867855218
 20
445.3119971058901
 30
0.0
 70
    32
  0
VERTEX
  5
1D84
330
1D26
100
AcDbEntity
  8
ﾌﾞﾗｹｯﾄ
100
AcDbVertex
100
AcDb3dPolylineVertex
 10
223.2239867855219
 20
445.3169971058901
 30
0.0
 70
    32
  0
VERTEX
  5
1D85
330
1D26
100
AcDbEntity
  8
ﾌﾞﾗｹｯﾄ
100
AcDbVertex
100
AcDb3dPolylineVertex
 10
223.2659867855219
 20
445.3219971058901
 30
0.0
 70
    32
  0
VERTEX
  5
1D86
330
1D26
100
AcDbEntity
  8
ﾌﾞﾗｹｯﾄ
100
AcDbVertex
100
AcDb3dPolylineVertex
 10
223.307986785522
 20
445.3269971058901
 30
0.0
 70
    32
  0
VERTEX
  5
1D87
330
1D26
100
AcDbEntity
  8
ﾌﾞﾗｹｯﾄ
100
AcDbVertex
100
AcDb3dPolylineVertex
 10
223.3499867855219
 20
445.3319971058901
 30
0.0
 70
    32
  0
VERTEX
  5
1D88
330
1D26
100
AcDbEntity
  8
ﾌﾞﾗｹｯﾄ
100
AcDbVertex
100
AcDb3dPolylineVertex
 10
223.3919867855219
 20
445.3369971058901
 30
0.0
 70
    32
  0
VERTEX
  5
1D89
330
1D26
100
AcDbEntity
  8
ﾌﾞﾗｹｯﾄ
100
AcDbVertex
100
AcDb3dPolylineVertex
 10
223.434986785522
 20
445.3419971058901
 30
0.0
 70
    32
  0
VERTEX
  5
1D8A
330
1D26
100
AcDbEntity
  8
ﾌﾞﾗｹｯﾄ
100
AcDbVertex
100
AcDb3dPolylineVertex
 10
223.4769867855219
 20
445.34699710589
 30
0.0
 70
    32
  0
VERTEX
  5
1D8B
330
1D26
100
AcDbEntity
  8
ﾌﾞﾗｹｯﾄ
100
AcDbVertex
100
AcDb3dPolylineVertex
 10
223.518986785522
 20
445.3509971058901
 30
0.0
 70
    32
  0
VERTEX
  5
1D8C
330
1D26
100
AcDbEntity
  8
ﾌﾞﾗｹｯﾄ
100
AcDbVertex
100
AcDb3dPolylineVertex
 10
223.5609867855219
 20
445.3559971058901
 30
0.0
 70
    32
  0
VERTEX
  5
1D8D
330
1D26
100
AcDbEntity
  8
ﾌﾞﾗｹｯﾄ
100
AcDbVertex
100
AcDb3dPolylineVertex
 10
223.6029867855219
 20
445.3599971058901
 30
0.0
 70
    32
  0
VERTEX
  5
1D8E
330
1D26
100
AcDbEntity
  8
ﾌﾞﾗｹｯﾄ
100
AcDbVertex
100
AcDb3dPolylineVertex
 10
223.645986785522
 20
445.3639971058901
 30
0.0
 70
    32
  0
VERTEX
  5
1D8F
330
1D26
100
AcDbEntity
  8
ﾌﾞﾗｹｯﾄ
100
AcDbVertex
100
AcDb3dPolylineVertex
 10
223.6879867855219
 20
445.3689971058901
 30
0.0
 70
    32
  0
VERTEX
  5
1D90
330
1D26
100
AcDbEntity
  8
ﾌﾞﾗｹｯﾄ
100
AcDbVertex
100
AcDb3dPolylineVertex
 10
223.7299867855218
 20
445.3729971058901
 30
0.0
 70
    32
  0
VERTEX
  5
1D91
330
1D26
100
AcDbEntity
  8
ﾌﾞﾗｹｯﾄ
100
AcDbVertex
100
AcDb3dPolylineVertex
 10
223.7729867855219
 20
445.3769971058902
 30
0.0
 70
    32
  0
VERTEX
  5
1D92
330
1D26
100
AcDbEntity
  8
ﾌﾞﾗｹｯﾄ
100
AcDbVertex
100
AcDb3dPolylineVertex
 10
223.8149867855219
 20
445.3809971058902
 30
0.0
 70
    32
  0
VERTEX
  5
1D93
330
1D26
100
AcDbEntity
  8
ﾌﾞﾗｹｯﾄ
100
AcDbVertex
100
AcDb3dPolylineVertex
 10
223.8569867855218
 20
445.3839971058902
 30
0.0
 70
    32
  0
VERTEX
  5
1D94
330
1D26
100
AcDbEntity
  8
ﾌﾞﾗｹｯﾄ
100
AcDbVertex
100
AcDb3dPolylineVertex
 10
223.8989867855219
 20
445.3879971058902
 30
0.0
 70
    32
  0
VERTEX
  5
1D95
330
1D26
100
AcDbEntity
  8
ﾌﾞﾗｹｯﾄ
100
AcDbVertex
100
AcDb3dPolylineVertex
 10
223.9419867855218
 20
445.3909971058902
 30
0.0
 70
    32
  0
VERTEX
  5
1D96
330
1D26
100
AcDbEntity
  8
ﾌﾞﾗｹｯﾄ
100
AcDbVertex
100
AcDb3dPolylineVertex
 10
223.983986785522
 20
445.3949971058901
 30
0.0
 70
    32
  0
VERTEX
  5
1D97
330
1D26
100
AcDbEntity
  8
ﾌﾞﾗｹｯﾄ
100
AcDbVertex
100
AcDb3dPolylineVertex
 10
224.0259867855219
 20
445.3979971058902
 30
0.0
 70
    32
  0
VERTEX
  5
1D98
330
1D26
100
AcDbEntity
  8
ﾌﾞﾗｹｯﾄ
100
AcDbVertex
100
AcDb3dPolylineVertex
 10
224.068986785522
 20
445.4009971058901
 30
0.0
 70
    32
  0
VERTEX
  5
1D99
330
1D26
100
AcDbEntity
  8
ﾌﾞﾗｹｯﾄ
100
AcDbVertex
100
AcDb3dPolylineVertex
 10
224.1109867855219
 20
445.4049971058901
 30
0.0
 70
    32
  0
VERTEX
  5
1D9A
330
1D26
100
AcDbEntity
  8
ﾌﾞﾗｹｯﾄ
100
AcDbVertex
100
AcDb3dPolylineVertex
 10
224.152986785522
 20
445.4079971058901
 30
0.0
 70
    32
  0
VERTEX
  5
1D9B
330
1D26
100
AcDbEntity
  8
ﾌﾞﾗｹｯﾄ
100
AcDbVertex
100
AcDb3dPolylineVertex
 10
224.1959867855219
 20
445.4109971058902
 30
0.0
 70
    32
  0
VERTEX
  5
1D9C
330
1D26
100
AcDbEntity
  8
ﾌﾞﾗｹｯﾄ
100
AcDbVertex
100
AcDb3dPolylineVertex
 10
224.2379867855221
 20
445.4129971058901
 30
0.0
 70
    32
  0
VERTEX
  5
1D9D
330
1D26
100
AcDbEntity
  8
ﾌﾞﾗｹｯﾄ
100
AcDbVertex
100
AcDb3dPolylineVertex
 10
224.279986785522
 20
445.4159971058902
 30
0.0
 70
    32
  0
VERTEX
  5
1D9E
330
1D26
100
AcDbEntity
  8
ﾌﾞﾗｹｯﾄ
100
AcDbVertex
100
AcDb3dPolylineVertex
 10
224.3229867855219
 20
445.4189971058901
 30
0.0
 70
    32
  0
VERTEX
  5
1D9F
330
1D26
100
AcDbEntity
  8
ﾌﾞﾗｹｯﾄ
100
AcDbVertex
100
AcDb3dPolylineVertex
 10
224.3649867855221
 20
445.4209971058902
 30
0.0
 70
    32
  0
VERTEX
  5
1DA0
330
1D26
100
AcDbEntity
  8
ﾌﾞﾗｹｯﾄ
100
AcDbVertex
100
AcDb3dPolylineVertex
 10
224.406986785522
 20
445.4229971058901
 30
0.0
 70
    32
  0
VERTEX
  5
1DA1
330
1D26
100
AcDbEntity
  8
ﾌﾞﾗｹｯﾄ
100
AcDbVertex
100
AcDb3dPolylineVertex
 10
224.4499867855219
 20
445.4259971058902
 30
0.0
 70
    32
  0
VERTEX
  5
1DA2
330
1D26
100
AcDbEntity
  8
ﾌﾞﾗｹｯﾄ
100
AcDbVertex
100
AcDb3dPolylineVertex
 10
224.491986785522
 20
445.4279971058901
 30
0.0
 70
    32
  0
VERTEX
  5
1DA3
330
1D26
100
AcDbEntity
  8
ﾌﾞﾗｹｯﾄ
100
AcDbVertex
100
AcDb3dPolylineVertex
 10
224.5339867855219
 20
445.42999710589
 30
0.0
 70
    32
  0
VERTEX
  5
1DA4
330
1D26
100
AcDbEntity
  8
ﾌﾞﾗｹｯﾄ
100
AcDbVertex
100
AcDb3dPolylineVertex
 10
224.576986785522
 20
445.4319971058901
 30
0.0
 70
    32
  0
VERTEX
  5
1DA5
330
1D26
100
AcDbEntity
  8
ﾌﾞﾗｹｯﾄ
100
AcDbVertex
100
AcDb3dPolylineVertex
 10
224.6189867855219
 20
445.43399710589
 30
0.0
 70
    32
  0
VERTEX
  5
1DA6
330
1D26
100
AcDbEntity
  8
ﾌﾞﾗｹｯﾄ
100
AcDbVertex
100
AcDb3dPolylineVertex
 10
224.6619867855218
 20
445.4359971058901
 30
0.0
 70
    32
  0
VERTEX
  5
1DA7
330
1D26
100
AcDbEntity
  8
ﾌﾞﾗｹｯﾄ
100
AcDbVertex
100
AcDb3dPolylineVertex
 10
224.703986785522
 20
445.4369971058901
 30
0.0
 70
    32
  0
VERTEX
  5
1DA8
330
1D26
100
AcDbEntity
  8
ﾌﾞﾗｹｯﾄ
100
AcDbVertex
100
AcDb3dPolylineVertex
 10
224.7459867855219
 20
445.43899710589
 30
0.0
 70
    32
  0
VERTEX
  5
1DA9
330
1D26
100
AcDbEntity
  8
ﾌﾞﾗｹｯﾄ
100
AcDbVertex
100
AcDb3dPolylineVertex
 10
224.788986785522
 20
445.4399971058901
 30
0.0
 70
    32
  0
VERTEX
  5
1DAA
330
1D26
100
AcDbEntity
  8
ﾌﾞﾗｹｯﾄ
100
AcDbVertex
100
AcDb3dPolylineVertex
 10
224.8309867855219
 20
445.4419971058901
 30
0.0
 70
    32
  0
VERTEX
  5
1DAB
330
1D26
100
AcDbEntity
  8
ﾌﾞﾗｹｯﾄ
100
AcDbVertex
100
AcDb3dPolylineVertex
 10
224.8729867855218
 20
445.4429971058901
 30
0.0
 70
    32
  0
VERTEX
  5
1DAC
330
1D26
100
AcDbEntity
  8
ﾌﾞﾗｹｯﾄ
100
AcDbVertex
100
AcDb3dPolylineVertex
 10
224.915986785522
 20
445.4439971058901
 30
0.0
 70
    32
  0
VERTEX
  5
1DAD
330
1D26
100
AcDbEntity
  8
ﾌﾞﾗｹｯﾄ
100
AcDbVertex
100
AcDb3dPolylineVertex
 10
224.9579867855219
 20
445.4459971058901
 30
0.0
 70
    32
  0
VERTEX
  5
1DAE
330
1D26
100
AcDbEntity
  8
ﾌﾞﾗｹｯﾄ
100
AcDbVertex
100
AcDb3dPolylineVertex
 10
225.000986785522
 20
445.4469971058901
 30
0.0
 70
    32
  0
VERTEX
  5
1DAF
330
1D26
100
AcDbEntity
  8
ﾌﾞﾗｹｯﾄ
100
AcDbVertex
100
AcDb3dPolylineVertex
 10
225.0429867855219
 20
445.44799710589
 30
0.0
 70
    32
  0
VERTEX
  5
1DB0
330
1D26
100
AcDbEntity
  8
ﾌﾞﾗｹｯﾄ
100
AcDbVertex
100
AcDb3dPolylineVertex
 10
225.0849867855218
 20
445.4489971058901
 30
0.0
 70
    32
  0
VERTEX
  5
1DB1
330
1D26
100
AcDbEntity
  8
ﾌﾞﾗｹｯﾄ
100
AcDbVertex
100
AcDb3dPolylineVertex
 10
225.1279867855219
 20
445.4489971058901
 30
0.0
 70
    32
  0
VERTEX
  5
1DB2
330
1D26
100
AcDbEntity
  8
ﾌﾞﾗｹｯﾄ
100
AcDbVertex
100
AcDb3dPolylineVertex
 10
225.1699867855219
 20
445.4499971058901
 30
0.0
 70
    32
  0
VERTEX
  5
1DB3
330
1D26
100
AcDbEntity
  8
ﾌﾞﾗｹｯﾄ
100
AcDbVertex
100
AcDb3dPolylineVertex
 10
225.212986785522
 20
445.4509971058901
 30
0.0
 70
    32
  0
VERTEX
  5
1DB4
330
1D26
100
AcDbEntity
  8
ﾌﾞﾗｹｯﾄ
100
AcDbVertex
100
AcDb3dPolylineVertex
 10
225.2549867855219
 20
445.4509971058901
 30
0.0
 70
    32
  0
VERTEX
  5
1DB5
330
1D26
100
AcDbEntity
  8
ﾌﾞﾗｹｯﾄ
100
AcDbVertex
100
AcDb3dPolylineVertex
 10
225.2969867855218
 20
445.4519971058901
 30
0.0
 70
    32
  0
VERTEX
  5
1DB6
330
1D26
100
AcDbEntity
  8
ﾌﾞﾗｹｯﾄ
100
AcDbVertex
100
AcDb3dPolylineVertex
 10
225.339986785522
 20
445.4519971058901
 30
0.0
 70
    32
  0
VERTEX
  5
1DB7
330
1D26
100
AcDbEntity
  8
ﾌﾞﾗｹｯﾄ
100
AcDbVertex
100
AcDb3dPolylineVertex
 10
225.3819867855219
 20
445.4529971058901
 30
0.0
 70
    32
  0
VERTEX
  5
1DB8
330
1D26
100
AcDbEntity
  8
ﾌﾞﾗｹｯﾄ
100
AcDbVertex
100
AcDb3dPolylineVertex
 10
225.424986785522
 20
445.4529971058901
 30
0.0
 70
    32
  0
VERTEX
  5
1DB9
330
1D26
100
AcDbEntity
  8
ﾌﾞﾗｹｯﾄ
100
AcDbVertex
100
AcDb3dPolylineVertex
 10
225.4669867855219
 20
445.4529971058901
 30
0.0
 70
    32
  0
VERTEX
  5
1DBA
330
1D26
100
AcDbEntity
  8
ﾌﾞﾗｹｯﾄ
100
AcDbVertex
100
AcDb3dPolylineVertex
 10
225.5089867855218
 20
445.4539971058901
 30
0.0
 70
    32
  0
VERTEX
  5
1DBB
330
1D26
100
AcDbEntity
  8
ﾌﾞﾗｹｯﾄ
100
AcDbVertex
100
AcDb3dPolylineVertex
 10
225.5519867855219
 20
445.4539971058901
 30
0.0
 70
    32
  0
VERTEX
  5
1DBC
330
1D26
100
AcDbEntity
  8
ﾌﾞﾗｹｯﾄ
100
AcDbVertex
100
AcDb3dPolylineVertex
 10
225.5939867855218
 20
445.4539971058901
 30
0.0
 70
    32
  0
VERTEX
  5
1DBD
330
1D26
100
AcDbEntity
  8
ﾌﾞﾗｹｯﾄ
100
AcDbVertex
100
AcDb3dPolylineVertex
 10
225.6369867855219
 20
445.4539971058901
 30
0.0
 70
    32
  0
VERTEX
  5
1DBE
330
1D26
100
AcDbEntity
  8
ﾌﾞﾗｹｯﾄ
100
AcDbVertex
100
AcDb3dPolylineVertex
 10
225.6789867855219
 20
445.4539971058901
 30
0.0
 70
    32
  0
VERTEX
  5
1DBF
330
1D26
100
AcDbEntity
  8
ﾌﾞﾗｹｯﾄ
100
AcDbVertex
100
AcDb3dPolylineVertex
 10
225.721986785522
 20
445.4539971058901
 30
0.0
 70
    32
  0
VERTEX
  5
1DC0
330
1D26
100
AcDbEntity
  8
ﾌﾞﾗｹｯﾄ
100
AcDbVertex
100
AcDb3dPolylineVertex
 10
225.7639867855219
 20
445.4529971058901
 30
0.0
 70
    32
  0
VERTEX
  5
1DC1
330
1D26
100
AcDbEntity
  8
ﾌﾞﾗｹｯﾄ
100
AcDbVertex
100
AcDb3dPolylineVertex
 10
225.8059867855219
 20
445.4529971058901
 30
0.0
 70
    32
  0
VERTEX
  5
1DC2
330
1D26
100
AcDbEntity
  8
ﾌﾞﾗｹｯﾄ
100
AcDbVertex
100
AcDb3dPolylineVertex
 10
225.848986785522
 20
445.4529971058901
 30
0.0
 70
    32
  0
VERTEX
  5
1DC3
330
1D26
100
AcDbEntity
  8
ﾌﾞﾗｹｯﾄ
100
AcDbVertex
100
AcDb3dPolylineVertex
 10
225.8909867855219
 20
445.4519971058901
 30
0.0
 70
    32
  0
VERTEX
  5
1DC4
330
1D26
100
AcDbEntity
  8
ﾌﾞﾗｹｯﾄ
100
AcDbVertex
100
AcDb3dPolylineVertex
 10
225.933986785522
 20
445.4519971058901
 30
0.0
 70
    32
  0
VERTEX
  5
1DC5
330
1D26
100
AcDbEntity
  8
ﾌﾞﾗｹｯﾄ
100
AcDbVertex
100
AcDb3dPolylineVertex
 10
225.9759867855219
 20
445.4519971058901
 30
0.0
 70
    32
  0
VERTEX
  5
1DC6
330
1D26
100
AcDbEntity
  8
ﾌﾞﾗｹｯﾄ
100
AcDbVertex
100
AcDb3dPolylineVertex
 10
226.0189867855221
 20
445.4509971058901
 30
0.0
 70
    32
  0
VERTEX
  5
1DC7
330
1D26
100
AcDbEntity
  8
ﾌﾞﾗｹｯﾄ
100
AcDbVertex
100
AcDb3dPolylineVertex
 10
226.0609867855219
 20
445.4509971058901
 30
0.0
 70
    32
  0
VERTEX
  5
1DC8
330
1D26
100
AcDbEntity
  8
ﾌﾞﾗｹｯﾄ
100
AcDbVertex
100
AcDb3dPolylineVertex
 10
226.1039867855221
 20
445.4499971058901
 30
0.0
 70
    32
  0
VERTEX
  5
1DC9
330
1D26
100
AcDbEntity
  8
ﾌﾞﾗｹｯﾄ
100
AcDbVertex
100
AcDb3dPolylineVertex
 10
226.145986785522
 20
445.4489971058901
 30
0.0
 70
    32
  0
VERTEX
  5
1DCA
330
1D26
100
AcDbEntity
  8
ﾌﾞﾗｹｯﾄ
100
AcDbVertex
100
AcDb3dPolylineVertex
 10
226.1879867855219
 20
445.4489971058901
 30
0.0
 70
    32
  0
VERTEX
  5
1DCB
330
1D26
100
AcDbEntity
  8
ﾌﾞﾗｹｯﾄ
100
AcDbVertex
100
AcDb3dPolylineVertex
 10
226.230986785522
 20
445.44799710589
 30
0.0
 70
    32
  0
VERTEX
  5
1DCC
330
1D26
100
AcDbEntity
  8
ﾌﾞﾗｹｯﾄ
100
AcDbVertex
100
AcDb3dPolylineVertex
 10
226.2729867855219
 20
445.4469971058901
 30
0.0
 70
    32
  0
VERTEX
  5
1DCD
330
1D26
100
AcDbEntity
  8
ﾌﾞﾗｹｯﾄ
100
AcDbVertex
100
AcDb3dPolylineVertex
 10
226.3159867855218
 20
445.4459971058901
 30
0.0
 70
    32
  0
VERTEX
  5
1DCE
330
1D26
100
AcDbEntity
  8
ﾌﾞﾗｹｯﾄ
100
AcDbVertex
100
AcDb3dPolylineVertex
 10
226.357986785522
 20
445.4459971058901
 30
0.0
 70
    32
  0
VERTEX
  5
1DCF
330
1D26
100
AcDbEntity
  8
ﾌﾞﾗｹｯﾄ
100
AcDbVertex
100
AcDb3dPolylineVertex
 10
226.4009867855218
 20
445.4449971058901
 30
0.0
 70
    32
  0
VERTEX
  5
1DD0
330
1D26
100
AcDbEntity
  8
ﾌﾞﾗｹｯﾄ
100
AcDbVertex
100
AcDb3dPolylineVertex
 10
226.442986785522
 20
445.4439971058901
 30
0.0
 70
    32
  0
VERTEX
  5
1DD1
330
1D26
100
AcDbEntity
  8
ﾌﾞﾗｹｯﾄ
100
AcDbVertex
100
AcDb3dPolylineVertex
 10
226.4859867855219
 20
445.4429971058901
 30
0.0
 70
    32
  0
VERTEX
  5
1DD2
330
1D26
100
AcDbEntity
  8
ﾌﾞﾗｹｯﾄ
100
AcDbVertex
100
AcDb3dPolylineVertex
 10
226.5279867855221
 20
445.4419971058901
 30
0.0
 70
    32
  0
VERTEX
  5
1DD3
330
1D26
100
AcDbEntity
  8
ﾌﾞﾗｹｯﾄ
100
AcDbVertex
100
AcDb3dPolylineVertex
 10
226.569986785522
 20
445.4409971058901
 30
0.0
 70
    32
  0
VERTEX
  5
1DD4
330
1D26
100
AcDbEntity
  8
ﾌﾞﾗｹｯﾄ
100
AcDbVertex
100
AcDb3dPolylineVertex
 10
226.6129867855221
 20
445.4399971058901
 30
0.0
 70
    32
  0
VERTEX
  5
1DD5
330
1D26
100
AcDbEntity
  8
ﾌﾞﾗｹｯﾄ
100
AcDbVertex
100
AcDb3dPolylineVertex
 10
226.654986785522
 20
445.43899710589
 30
0.0
 70
    32
  0
VERTEX
  5
1DD6
330
1D26
100
AcDbEntity
  8
ﾌﾞﾗｹｯﾄ
100
AcDbVertex
100
AcDb3dPolylineVertex
 10
226.6979867855219
 20
445.4379971058901
 30
0.0
 70
    32
  0
VERTEX
  5
1DD7
330
1D26
100
AcDbEntity
  8
ﾌﾞﾗｹｯﾄ
100
AcDbVertex
100
AcDb3dPolylineVertex
 10
226.739986785522
 20
445.4369971058901
 30
0.0
 70
    32
  0
VERTEX
  5
1DD8
330
1D26
100
AcDbEntity
  8
ﾌﾞﾗｹｯﾄ
100
AcDbVertex
100
AcDb3dPolylineVertex
 10
226.7829867855219
 20
445.4349971058901
 30
0.0
 70
    32
  0
VERTEX
  5
1DD9
330
1D26
100
AcDbEntity
  8
ﾌﾞﾗｹｯﾄ
100
AcDbVertex
100
AcDb3dPolylineVertex
 10
226.8249867855218
 20
445.43399710589
 30
0.0
 70
    32
  0
VERTEX
  5
1DDA
330
1D26
100
AcDbEntity
  8
ﾌﾞﾗｹｯﾄ
100
AcDbVertex
100
AcDb3dPolylineVertex
 10
226.867986785522
 20
445.4329971058901
 30
0.0
 70
    32
  0
VERTEX
  5
1DDB
330
1D26
100
AcDbEntity
  8
ﾌﾞﾗｹｯﾄ
100
AcDbVertex
100
AcDb3dPolylineVertex
 10
226.9099867855219
 20
445.4319971058901
 30
0.0
 70
    32
  0
VERTEX
  5
1DDC
330
1D26
100
AcDbEntity
  8
ﾌﾞﾗｹｯﾄ
100
AcDbVertex
100
AcDb3dPolylineVertex
 10
226.952986785522
 20
445.4309971058902
 30
0.0
 70
    32
  0
VERTEX
  5
1DDD
330
1D26
100
AcDbEntity
  8
ﾌﾞﾗｹｯﾄ
100
AcDbVertex
100
AcDb3dPolylineVertex
 10
226.9949867855219
 20
445.42999710589
 30
0.0
 70
    32
  0
VERTEX
  5
1DDE
330
1D26
100
AcDbEntity
  8
ﾌﾞﾗｹｯﾄ
100
AcDbVertex
100
AcDb3dPolylineVertex
 10
227.0379867855218
 20
445.4279971058901
 30
0.0
 70
    32
  0
VERTEX
  5
1DDF
330
1D26
100
AcDbEntity
  8
ﾌﾞﾗｹｯﾄ
100
AcDbVertex
100
AcDb3dPolylineVertex
 10
227.0799867855219
 20
445.4269971058901
 30
0.0
 70
    32
  0
VERTEX
  5
1DE0
330
1D26
100
AcDbEntity
  8
ﾌﾞﾗｹｯﾄ
100
AcDbVertex
100
AcDb3dPolylineVertex
 10
227.1219867855219
 20
445.4259971058902
 30
0.0
 70
    32
  0
VERTEX
  5
1DE1
330
1D26
100
AcDbEntity
  8
ﾌﾞﾗｹｯﾄ
100
AcDbVertex
100
AcDb3dPolylineVertex
 10
227.164986785522
 20
445.42499710589
 30
0.0
 70
    32
  0
VERTEX
  5
1DE2
330
1D26
100
AcDbEntity
  8
ﾌﾞﾗｹｯﾄ
100
AcDbVertex
100
AcDb3dPolylineVertex
 10
227.2069867855219
 20
445.4229971058901
 30
0.0
 70
    32
  0
VERTEX
  5
1DE3
330
1D26
100
AcDbEntity
  8
ﾌﾞﾗｹｯﾄ
100
AcDbVertex
100
AcDb3dPolylineVertex
 10
227.2499867855218
 20
445.4219971058901
 30
0.0
 70
    32
  0
VERTEX
  5
1DE4
330
1D26
100
AcDbEntity
  8
ﾌﾞﾗｹｯﾄ
100
AcDbVertex
100
AcDb3dPolylineVertex
 10
227.291986785522
 20
445.4209971058902
 30
0.0
 70
    32
  0
VERTEX
  5
1DE5
330
1D26
100
AcDbEntity
  8
ﾌﾞﾗｹｯﾄ
100
AcDbVertex
100
AcDb3dPolylineVertex
 10
227.3349867855218
 20
445.41999710589
 30
0.0
 70
    32
  0
VERTEX
  5
1DE6
330
1D26
100
AcDbEntity
  8
ﾌﾞﾗｹｯﾄ
100
AcDbVertex
100
AcDb3dPolylineVertex
 10
227.3769867855218
 20
445.4179971058901
 30
0.0
 70
    32
  0
SEQEND
  5
1DE7
330
1D26
100
AcDbEntity
  8
ﾌﾞﾗｹｯﾄ
  0
LINE
  5
1DE8
330
1F
100
AcDbEntity
  8
ﾌﾞﾗｹｯﾄ
100
AcDbLine
 10
227.3772339820842
 20
448.2363286803118
 30
0.0
 11
234.3772339820842
 21
447.9055622545963
 31
0.0
  0
LINE
  5
1DEA
330
1F
100
AcDbEntity
  8
ﾌﾞﾗｹｯﾄ
100
AcDbLine
 10
227.377233982084
 20
290.6464958949314
 30
0.0
 11
227.377233982084
 21
448.2363286803118
 31
0.0
  0
LINE
  5
1DEB
330
1F
100
AcDbEntity
  8
ﾌﾞﾗｹｯﾄ
100
AcDbLine
 10
219.3772339820839
 20
442.3917381257225
 30
0.0
 11
219.3772339820839
 21
269.6464958949316
 31
0.0
  0
LINE
  5
1DEC
330
1F
100
AcDbEntity
  8
ﾌﾞﾗｹｯﾄ
100
AcDbLine
 10
219.3772339820839
 20
442.9132730919017
 30
0.0
 11
219.3772339820839
 21
270.8615064105714
 31
0.0
  0
ARC
  5
1DED
330
1F
100
AcDbEntity
  8
ﾌﾞﾗｹｯﾄ
100
AcDbCircle
 10
233.377233982084
 20
480.5551873938624
 30
0.0
 40
1.0
100
AcDbArc
 50
0.0
 51
94.99999999999976
1001
GENIUS_GENODEF_13
1002
{
1000
HIER
1070
     0
1002
}
1002
{
1000
MANEDIT
1070
     0
1002
}
1002
{
1000
NOSEL
1070
     0
1002
}
1002
{
1000
BEHIND
1070
     0
1002
}
1002
{
1000
REACTOR
1002
}
1001
GENIUS_GENOBJ-N-FIL_13
1002
{
1000
OWNER
1000
GEN
1002
}
  0
LINE
  5
1DEE
330
1F
100
AcDbEntity
  8
ﾌﾞﾗｹｯﾄ
100
AcDbLine
 10
224.0171437828502
 20
480.7401054493927
 30
0.0
 11
233.2900782393363
 21
481.551382091954
 31
0.0
  0
LINE
  5
1DEF
330
1F
100
AcDbEntity
  8
ﾌﾞﾗｹｯﾄ
100
AcDbLine
 10
217.6272339820837
 20
473.7667425627504
 30
0.0
 11
217.627233982084
 21
447.5433378862645
 31
0.0
  0
LINE
  5
1DF4
330
1F
100
AcDbEntity
  8
ﾌﾞﾗｹｯﾄ
100
AcDbLine
 10
234.3772339820835
 20
289.6464958949314
 30
0.0
 11
228.377233982084
 21
289.6464958949314
 31
0.0
  0
LINE
  5
1DF5
330
1F
100
AcDbEntity
  8
ﾌﾞﾗｹｯﾄ
100
AcDbLine
 10
227.377233982084
 20
261.6464958949316
 30
0.0
 11
234.3772339820833
 21
261.6464958949316
 31
0.0
  0
ARC
  5
1DF6
330
1F
100
AcDbEntity
  8
ﾌﾞﾗｹｯﾄ
100
AcDbCircle
 10
227.377233982084
 20
269.6464958949316
 30
0.0
 40
8.0
100
AcDbArc
 50
180.0
 51
270.0
1001
GENIUS_GENODEF_13
1002
{
1000
HIER
1070
     0
1002
}
1002
{
1000
MANEDIT
1070
     0
1002
}
1002
{
1000
NOSEL
1070
     0
1002
}
1002
{
1000
BEHIND
1070
     0
1002
}
1002
{
1000
REACTOR
1002
}
1001
GENIUS_GENOBJ-N-FIL_13
1002
{
1000
OWNER
1000
GEN
1002
}
  0
ARC
  5
1DF7
330
1F
100
AcDbEntity
  8
ﾌﾞﾗｹｯﾄ
100
AcDbCircle
 10
228.377233982084
 20
290.6464958949314
 30
0.0
 40
1.0
100
AcDbArc
 50
180.0
 51
270.0
1001
GENIUS_GENODEF_13
1002
{
1000
HIER
1070
     0
1002
}
1002
{
1000
MANEDIT
1070
     0
1002
}
1002
{
1000
NOSEL
1070
     0
1002
}
1002
{
1000
BEHIND
1070
     0
1002
}
1002
{
1000
REACTOR
1002
}
1001
GENIUS_GENOBJ-N-FIL_13
1002
{
1000
OWNER
1000
GEN
1002
}
  0
ARC
  5
1DFB
330
1F
100
AcDbEntity
  8
ﾌﾞﾗｹｯﾄ
100
AcDbCircle
 10
224.6272339820842
 20
447.5433378862645
 30
0.0
 40
7.0
100
AcDbArc
 50
180.0
 51
221.4096221092697
1001
GENIUS_GENODEF_13
1002
{
1000
HIER
1070
     0
1002
}
1002
{
1000
MANEDIT
1070
     0
1002
}
1002
{
1000
NOSEL
1070
     0
1002
}
1002
{
1000
BEHIND
1070
     0
1002
}
1002
{
1000
REACTOR
1002
}
1001
GENIUS_GENOBJ-N-FIL_13
1002
{
1000
OWNER
1000
GEN
1002
}
  0
LINE
  5
1DFD
330
1F
100
AcDbEntity
  8
ﾌﾞﾗｹｯﾄ
100
AcDbLine
 10
234.3772339820833
 20
261.6464958949318
 30
0.0
 11
234.377233982084
 21
480.5551873938624
 31
0.0
  0
ARC
  5
1DFF
330
1F
100
AcDbEntity
  8
ｽﾍﾟｰｻｰ
100
AcDbCircle
 10
339.3605099028002
 20
264.6264958949317
 30
0.0
 40
17.02
100
AcDbArc
 50
37.5158891931527
 51
142.484110806846
  0
LINE
  5
1E00
330
1F
100
AcDbEntity
  8
ｽﾍﾟｰｻｰ
100
AcDbLine
 10
325.8605099028002
 20
274.9913596181072
 30
0.0
 11
325.8605099028002
 21
269.6464958949317
 31
0.0
  0
LINE
  5
1E01
330
1F
100
AcDbEntity
  8
ｽﾍﾟｰｻｰ
100
AcDbLine
 10
334.8605099028002
 20
260.6464958949317
 30
0.0
 11
343.8605099028003
 21
260.6464958949317
 31
0.0
  0
LINE
  5
1E02
330
1F
100
AcDbEntity
  8
ｽﾍﾟｰｻｰ
100
AcDbLine
 10
326.6605099028
 20
274.8821996860956
 30
0.0
 11
326.6605099028
 21
269.6464958949317
 31
0.0
  0
LINE
  5
1E03
330
1F
100
AcDbEntity
  8
ｽﾍﾟｰｻｰ
100
AcDbLine
 10
334.8605099028002
 20
261.4464958949317
 30
0.0
 11
343.8605099028003
 21
261.4464958949317
 31
0.0
  0
ARC
  5
1E04
330
1F
100
AcDbEntity
  8
ｽﾍﾟｰｻｰ
100
AcDbCircle
 10
334.8605099028002
 20
269.6464958949317
 30
0.0
 40
8.199999999999999
100
AcDbArc
 50
180.0
 51
270.0
1001
GENIUS_GENODEF_13
1002
{
1000
HIER
1070
     0
1002
}
1002
{
1000
MANEDIT
1070
     0
1002
}
1002
{
1000
NOSEL
1070
     0
1002
}
1002
{
1000
BEHIND
1070
     0
1002
}
1002
{
1000
REACTOR
1002
}
1001
GENIUS_GENOBJ-N-FIL_13
1002
{
1000
OWNER
1000
GEN
1002
}
  0
ARC
  5
1E05
330
1F
100
AcDbEntity
  8
ｽﾍﾟｰｻｰ
100
AcDbCircle
 10
334.8605099028002
 20
269.6464958949317
 30
0.0
 40
9.0
100
AcDbArc
 50
180.0
 51
270.0
1001
GENIUS_GENODEF_13
1002
{
1000
HIER
1070
     0
1002
}
1002
{
1000
MANEDIT
1070
     0
1002
}
1002
{
1000
NOSEL
1070
     0
1002
}
1002
{
1000
BEHIND
1070
     0
1002
}
1002
{
1000
REACTOR
1002
}
1001
GENIUS_GENOBJ-N-FIL_13
1002
{
1000
OWNER
1000
GEN
1002
}
  0
ARC
  5
1E06
330
1F
100
AcDbEntity
  8
ｽﾍﾟｰｻｰ
100
AcDbCircle
 10
327.0884779240343
 20
274.9239534021099
 30
0.0
 40
0.43
100
AcDbArc
 50
77.03912988323523
 51
185.5722957190067
  0
ARC
  5
1E07
330
1F
100
AcDbEntity
  8
ｽﾍﾟｰｻｰ
100
AcDbCircle
 10
339.3605099028002
 20
280.6464958949316
 30
0.0
 40
0.43
100
AcDbArc
 50
90.0
 51
152.9608701167693
  0
ARC
  5
1E08
330
1F
100
AcDbEntity
  8
ｽﾍﾟｰｻｰ
100
AcDbCircle
 10
339.3605099028002
 20
264.6264958949317
 30
0.0
 40
16.22
100
AcDbArc
 50
91.3530387533248
 51
98.64696124667428
  0
LINE
  5
1E09
330
1F
100
AcDbEntity
  8
ｽﾍﾟｰｻｰ
100
AcDbLine
 10
352.8605099028002
 20
274.9913596181072
 30
0.0
 11
352.8605099028002
 21
269.6464958949317
 31
0.0
  0
LINE
  5
1E0A
330
1F
100
AcDbEntity
  8
ｽﾍﾟｰｻｰ
100
AcDbLine
 10
352.0605099028001
 20
274.8821996860956
 30
0.0
 11
352.0605099028001
 21
269.6464958949317
 31
0.0
  0
ARC
  5
1E0B
330
1F
100
AcDbEntity
  8
ｽﾍﾟｰｻｰ
100
AcDbCircle
 10
343.8605099028003
 20
269.6464958949317
 30
0.0
 40
8.199999999999999
100
AcDbArc
 50
270.0
 51
0.0
1001
GENIUS_GENODEF_13
1002
{
1000
HIER
1070
     0
1002
}
1002
{
1000
MANEDIT
1070
     0
1002
}
1002
{
1000
NOSEL
1070
     0
1002
}
1002
{
1000
BEHIND
1070
     0
1002
}
1002
{
1000
REACTOR
1002
}
1001
GENIUS_GENOBJ-N-FIL_13
1002
{
1000
OWNER
1000
GEN
1002
}
  0
ARC
  5
1E0C
330
1F
100
AcDbEntity
  8
ｽﾍﾟｰｻｰ
100
AcDbCircle
 10
343.8605099028003
 20
269.6464958949317
 30
0.0
 40
9.0
100
AcDbArc
 50
270.0
 51
0.0
1001
GENIUS_GENODEF_13
1002
{
1000
HIER
1070
     0
1002
}
1002
{
1000
MANEDIT
1070
     0
1002
}
1002
{
1000
NOSEL
1070
     0
1002
}
1002
{
1000
BEHIND
1070
     0
1002
}
1002
{
1000
REACTOR
1002
}
1001
GENIUS_GENOBJ-N-FIL_13
1002
{
1000
OWNER
1000
GEN
1002
}
  0
ARC
  5
1E0D
330
1F
100
AcDbEntity
  8
ｽﾍﾟｰｻｰ
100
AcDbCircle
 10
351.6325418815661
 20
274.9239534021099
 30
0.0
 40
0.43
100
AcDbArc
 50
354.4277042809931
 51
102.9608701167647
  0
ARC
  5
1E0E
330
1F
100
AcDbEntity
  8
ｽﾍﾟｰｻｰ
100
AcDbCircle
 10
339.3605099028002
 20
280.6464958949316
 30
0.0
 40
0.43
100
AcDbArc
 50
27.03912988323067
 51
90.0
  0
LINE
  5
1E0F
330
1F
100
AcDbEntity
  8
ｽﾍﾟｰｻｰ
100
AcDbLine
 10
234.3772339820833
 20
274.9913596181073
 30
0.0
 11
237.3772339820833
 21
274.9913596181073
 31
0.0
  0
ARC
  5
1E10
330
1F
100
AcDbEntity
  8
ｽﾍﾟｰｻｰ
100
AcDbCircle
 10
336.5786660965762
 20
280.4031160981871
 30
0.0
 40
0.43
100
AcDbArc
 50
99.99999999999856
 51
162.9608701167724
  0
ARC
  5
1E11
330
1F
100
AcDbEntity
  8
ｽﾍﾟｰｻｰ
100
AcDbCircle
 10
336.5786660965762
 20
280.4031160981871
 30
0.0
 40
0.43
100
AcDbArc
 50
37.03912988322993
 51
99.99999999999856
  0
ARC
  5
1E12
330
1F
100
AcDbEntity
  8
ｽﾍﾟｰｻｰ
100
AcDbCircle
 10
333.8813472067225
 20
279.6803716799218
 30
0.0
 40
0.43
100
AcDbArc
 50
110.0000000000035
 51
172.9608701167703
  0
ARC
  5
1E13
330
1F
100
AcDbEntity
  8
ｽﾍﾟｰｻｰ
100
AcDbCircle
 10
333.8813472067225
 20
279.6803716799218
 30
0.0
 40
0.43
100
AcDbArc
 50
47.03912988322739
 51
110.0000000000035
  0
ARC
  5
1E14
330
1F
100
AcDbEntity
  8
ｽﾍﾟｰｻｰ
100
AcDbCircle
 10
331.3505099028
 20
278.5002228635583
 30
0.0
 40
0.43
100
AcDbArc
 50
120.0000000000008
 51
182.9608701167687
  0
ARC
  5
1E15
330
1F
100
AcDbEntity
  8
ｽﾍﾟｰｻｰ
100
AcDbCircle
 10
331.3505099028
 20
278.5002228635583
 30
0.0
 40
0.43
100
AcDbArc
 50
57.03912988322993
 51
120.0000000000008
  0
ARC
  5
1E16
330
1F
100
AcDbEntity
  8
ｽﾍﾟｰｻｰ
100
AcDbCircle
 10
329.0630523956218
 20
276.8985278736975
 30
0.0
 40
0.43
100
AcDbArc
 50
130.0000000000039
 51
192.9608701167715
  0
ARC
  5
1E17
330
1F
100
AcDbEntity
  8
ｽﾍﾟｰｻｰ
100
AcDbCircle
 10
329.0630523956218
 20
276.8985278736975
 30
0.0
 40
0.43
100
AcDbArc
 50
67.03912988323321
 51
130.0000000000039
  0
ARC
  5
1E18
330
1F
100
AcDbEntity
  8
ｽﾍﾟｰｻｰ
100
AcDbCircle
 10
339.3605099028002
 20
264.6264958949317
 30
0.0
 40
16.22
100
AcDbArc
 50
101.353038753329
 51
108.6469612466711
  0
ARC
  5
1E19
330
1F
100
AcDbEntity
  8
ｽﾍﾟｰｻｰ
100
AcDbCircle
 10
339.3605099028002
 20
264.6264958949317
 30
0.0
 40
16.22
100
AcDbArc
 50
111.3530387533277
 51
118.646961246671
  0
ARC
  5
1E1A
330
1F
100
AcDbEntity
  8
ｽﾍﾟｰｻｰ
100
AcDbCircle
 10
339.3605099028002
 20
264.6264958949317
 30
0.0
 40
16.22
100
AcDbArc
 50
121.3530387533244
 51
128.6469612466742
  0
ARC
  5
1E1B
330
1F
100
AcDbEntity
  8
ｽﾍﾟｰｻｰ
100
AcDbCircle
 10
339.3605099028002
 20
264.6264958949317
 30
0.0
 40
16.22
100
AcDbArc
 50
131.3530387533241
 51
138.6469612466711
  0
ARC
  5
1E1C
330
1F
100
AcDbEntity
  8
ｽﾍﾟｰｻｰ
100
AcDbCircle
 10
339.3605099028002
 20
264.6264958949317
 30
0.0
 40
16.22
100
AcDbArc
 50
81.35303875332571
 51
88.64696124667521
  0
ARC
  5
1E1D
330
1F
100
AcDbEntity
  8
ｽﾍﾟｰｻｰ
100
AcDbCircle
 10
342.1423537090243
 20
280.4031160981871
 30
0.0
 40
0.43
100
AcDbArc
 50
17.03912988322758
 51
80.00000000000147
  0
ARC
  5
1E1E
330
1F
100
AcDbEntity
  8
ｽﾍﾟｰｻｰ
100
AcDbCircle
 10
342.1423537090243
 20
280.4031160981871
 30
0.0
 40
0.43
100
AcDbArc
 50
80.00000000000147
 51
142.96087011677
  0
ARC
  5
1E1F
330
1F
100
AcDbEntity
  8
ｽﾍﾟｰｻｰ
100
AcDbCircle
 10
344.8396725988771
 20
279.6803716799218
 30
0.0
 40
0.43
100
AcDbArc
 50
7.039129883229677
 51
69.9999999999965
  0
ARC
  5
1E20
330
1F
100
AcDbEntity
  8
ｽﾍﾟｰｻｰ
100
AcDbCircle
 10
344.8396725988771
 20
279.6803716799218
 30
0.0
 40
0.43
100
AcDbArc
 50
69.9999999999965
 51
132.9608701167726
  0
ARC
  5
1E21
330
1F
100
AcDbEntity
  8
ｽﾍﾟｰｻｰ
100
AcDbCircle
 10
347.3705099028
 20
278.5002228635583
 30
0.0
 40
0.43
100
AcDbArc
 50
357.0391298832312
 51
59.99999999999915
  0
ARC
  5
1E22
330
1F
100
AcDbEntity
  8
ｽﾍﾟｰｻｰ
100
AcDbCircle
 10
347.3705099028
 20
278.5002228635583
 30
0.0
 40
0.43
100
AcDbArc
 50
59.99999999999915
 51
122.9608701167701
  0
ARC
  5
1E23
330
1F
100
AcDbEntity
  8
ｽﾍﾟｰｻｰ
100
AcDbCircle
 10
349.6579674099787
 20
276.8985278736975
 30
0.0
 40
0.43
100
AcDbArc
 50
347.0391298832284
 51
49.9999999999961
  0
ARC
  5
1E24
330
1F
100
AcDbEntity
  8
ｽﾍﾟｰｻｰ
100
AcDbCircle
 10
349.6579674099787
 20
276.8985278736975
 30
0.0
 40
0.43
100
AcDbArc
 50
49.9999999999961
 51
112.9608701167668
  0
ARC
  5
1E25
330
1F
100
AcDbEntity
  8
ｽﾍﾟｰｻｰ
100
AcDbCircle
 10
339.3605099028002
 20
264.6264958949317
 30
0.0
 40
16.22
100
AcDbArc
 50
71.35303875332883
 51
78.64696124667095
  0
ARC
  5
1E26
330
1F
100
AcDbEntity
  8
ｽﾍﾟｰｻｰ
100
AcDbCircle
 10
339.3605099028002
 20
264.6264958949317
 30
0.0
 40
16.22
100
AcDbArc
 50
61.35303875332892
 51
68.6469612466723
  0
ARC
  5
1E27
330
1F
100
AcDbEntity
  8
ｽﾍﾟｰｻｰ
100
AcDbCircle
 10
339.3605099028002
 20
264.6264958949317
 30
0.0
 40
16.22
100
AcDbArc
 50
51.35303875332581
 51
58.64696124667556
  0
ARC
  5
1E28
330
1F
100
AcDbEntity
  8
ｽﾍﾟｰｻｰ
100
AcDbCircle
 10
339.3605099028002
 20
264.6264958949317
 30
0.0
 40
16.22
100
AcDbArc
 50
41.3530387533289
 51
48.64696124667585
  0
LINE
  5
1E29
330
1F
100
AcDbEntity
  8
ｽﾍﾟｰｻｰ
100
AcDbLine
 10
236.8946837304346
 20
260.6820260230634
 30
0.0
 11
235.8772339820833
 21
260.6464958949318
 31
0.0
  0
LINE
  5
1E2A
330
1F
100
AcDbEntity
  8
ｽﾍﾟｰｻｰ
100
AcDbLine
 10
235.8772339820833
 20
260.6464958949318
 30
0.0
 11
234.859784233732
 21
260.6820260230634
 31
0.0
  0
LINE
  5
1E2B
330
1F
100
AcDbEntity
  8
ｽﾍﾟｰｻｰ
100
AcDbLine
 10
236.8946837304346
 20
281.6106218008195
 30
0.0
 11
235.8772339820831
 21
281.6461519289512
 31
0.0
  0
LINE
  5
1E2C
330
1F
100
AcDbEntity
  8
ｽﾍﾟｰｻｰ
100
AcDbLine
 10
235.8772339820831
 20
281.6461519289512
 30
0.0
 11
234.859784233732
 21
281.6106218008195
 31
0.0
  0
LINE
  5
1E2D
330
1F
100
AcDbEntity
  8
ｽﾍﾟｰｻｰ
100
AcDbLine
 10
237.3772339820833
 20
281.1109263873099
 30
0.0
 11
237.3772339820833
 21
261.181721436573
 31
0.0
1001
GENIUS_GENREC_14
1002
{
1000
PYDIR
1011
234.3772339820833
1021
260.6464958949318
1031
0.0
1002
}
1002
{
1000
PXDIR
1011
237.3772339820833
1021
281.6461519289512
1031
0.0
1002
}
1002
{
1000
PORI
1011
234.3772339820833
1021
281.6461519289512
1031
0.0
1002
}
1002
{
1000
PINS
1011
234.3772339820833
1021
281.6461519289512
1031
0.0
1002
}
1002
{
1000
PINS2
1011
237.3772339820833
1021
260.6464958949318
1031
0.0
1002
}
1002
{
1000
C
1070
     1
1002
}
1001
GENIUS_GENODEF_13
1002
{
1000
HIER
1070
     0
1002
}
1002
{
1000
MANEDIT
1070
     0
1002
}
1002
{
1000
NOSEL
1070
     0
1002
}
1002
{
1000
BEHIND
1070
     0
1002
}
1002
{
1000
REACTOR
1002
}
1001
GENIUS_GENOBJ-N-REC_13
1002
{
1000
OWNER
1000
GEN
1002
}
  0
ARC
  5
1E2E
330
1F
100
AcDbEntity
  8
ｽﾍﾟｰｻｰ
100
AcDbCircle
 10
236.8772339820833
 20
281.1109263873099
 30
0.0
 40
0.5
100
AcDbArc
 50
0.0
 51
88.00000000000286
1001
GENIUS_GENODEF_13
1002
{
1000
HIER
1070
     0
1002
}
1002
{
1000
MANEDIT
1070
     0
1002
}
1002
{
1000
NOSEL
1070
     0
1002
}
1002
{
1000
BEHIND
1070
     0
1002
}
1002
{
1000
REACTOR
1002
}
1001
GENIUS_GENOBJ-N-FIL_13
1002
{
1000
OWNER
1000
GEN
1002
}
  0
LINE
  5
1E2F
330
1F
100
AcDbEntity
  8
ｽﾍﾟｰｻｰ
100
AcDbLine
 10
234.3772339820833
 20
261.181721436573
 30
0.0
 11
234.3772339820833
 21
281.1109263873099
 31
0.0
1001
GENIUS_GENREC_14
1002
{
1000
PYDIR
1011
234.3772339820833
1021
260.6464958949318
1031
0.0
1002
}
1002
{
1000
PXDIR
1011
237.3772339820833
1021
281.6461519289512
1031
0.0
1002
}
1002
{
1000
PORI
1011
234.3772339820833
1021
281.6461519289512
1031
0.0
1002
}
1002
{
1000
PINS
1011
234.3772339820833
1021
281.6461519289512
1031
0.0
1002
}
1002
{
1000
PINS2
1011
237.3772339820833
1021
260.6464958949318
1031
0.0
1002
}
1002
{
1000
C
1070
     1
1002
}
1001
GENIUS_GENODEF_13
1002
{
1000
HIER
1070
     0
1002
}
1002
{
1000
MANEDIT
1070
     0
1002
}
1002
{
1000
NOSEL
1070
     0
1002
}
1002
{
1000
BEHIND
1070
     0
1002
}
1002
{
1000
REACTOR
1002
}
1001
GENIUS_GENOBJ-N-REC_13
1002
{
1000
OWNER
1000
GEN
1002
}
  0
ARC
  5
1E30
330
1F
100
AcDbEntity
  8
ｽﾍﾟｰｻｰ
100
AcDbCircle
 10
234.8772339820833
 20
281.1109263873099
 30
0.0
 40
0.5
100
AcDbArc
 50
92.00000000000365
 51
180.0
1001
GENIUS_GENODEF_13
1002
{
1000
HIER
1070
     0
1002
}
1002
{
1000
MANEDIT
1070
     0
1002
}
1002
{
1000
NOSEL
1070
     0
1002
}
1002
{
1000
BEHIND
1070
     0
1002
}
1002
{
1000
REACTOR
1002
}
1001
GENIUS_GENOBJ-N-FIL_13
1002
{
1000
OWNER
1000
GEN
1002
}
  0
ARC
  5
1E31
330
1F
100
AcDbEntity
  8
ｽﾍﾟｰｻｰ
100
AcDbCircle
 10
236.8772339820833
 20
261.181721436573
 30
0.0
 40
0.5
100
AcDbArc
 50
272.0000000000037
 51
0.0
1001
GENIUS_GENODEF_13
1002
{
1000
HIER
1070
     0
1002
}
1002
{
1000
MANEDIT
1070
     0
1002
}
1002
{
1000
NOSEL
1070
     0
1002
}
1002
{
1000
BEHIND
1070
     0
1002
}
1002
{
1000
REACTOR
1002
}
1001
GENIUS_GENOBJ-N-FIL_13
1002
{
1000
OWNER
1000
GEN
1002
}
  0
ARC
  5
1E32
330
1F
100
AcDbEntity
  8
ｽﾍﾟｰｻｰ
100
AcDbCircle
 10
234.8772339820833
 20
261.181721436573
 30
0.0
 40
0.5
100
AcDbArc
 50
180.0
 51
268.0000000000029
1001
GENIUS_GENODEF_13
1002
{
1000
HIER
1070
     0
1002
}
1002
{
1000
MANEDIT
1070
     0
1002
}
1002
{
1000
NOSEL
1070
     0
1002
}
1002
{
1000
BEHIND
1070
     0
1002
}
1002
{
1000
REACTOR
1002
}
1001
GENIUS_GENOBJ-N-FIL_13
1002
{
1000
OWNER
1000
GEN
1002
}
  0
ARC
  5
1E33
330
1F
100
AcDbEntity
  8
ｽﾍﾟｰｻｰ
100
AcDbCircle
 10
339.3605099028002
 20
264.6264958949317
 30
0.0
 40
14.52
100
AcDbArc
 50
40.74905437747069
 51
139.2509456225331
  0
LINE
  5
1E34
330
1F
100
AcDbEntity
  8
ｽﾍﾟｰｻｰ
100
AcDbLine
 10
328.3605099028002
 20
274.1043859554884
 30
0.0
 11
328.3605099028002
 21
269.6464958949317
 31
0.0
  0
LINE
  5
1E35
330
1F
100
AcDbEntity
  8
ｽﾍﾟｰｻｰ
100
AcDbLine
 10
350.3605099028002
 20
274.1043859554884
 30
0.0
 11
350.3605099028002
 21
269.6464958949317
 31
0.0
  0
ARC
  5
1E36
330
1F
100
AcDbEntity
  8
ｽﾍﾟｰｻｰ
100
AcDbCircle
 10
343.8605099028003
 20
269.6464958949317
 30
0.0
 40
6.5
100
AcDbArc
 50
270.0
 51
0.0
1001
GENIUS_GENODEF_13
1002
{
1000
HIER
1070
     0
1002
}
1002
{
1000
MANEDIT
1070
     0
1002
}
1002
{
1000
NOSEL
1070
     0
1002
}
1002
{
1000
BEHIND
1070
     0
1002
}
1002
{
1000
REACTOR
1002
}
1001
GENIUS_GENOBJ-N-FIL_13
1002
{
1000
OWNER
1000
GEN
1002
}
  0
ARC
  5
1E38
330
1F
100
AcDbEntity
  8
ｽﾍﾟｰｻｰ
100
AcDbCircle
 10
334.8605099028002
 20
269.6464958949317
 30
0.0
 40
6.5
100
AcDbArc
 50
180.0
 51
270.0
1001
GENIUS_GENODEF_13
1002
{
1000
HIER
1070
     0
1002
}
1002
{
1000
MANEDIT
1070
     0
1002
}
1002
{
1000
NOSEL
1070
     0
1002
}
1002
{
1000
BEHIND
1070
     0
1002
}
1002
{
1000
REACTOR
1002
}
1001
GENIUS_GENOBJ-N-FIL_13
1002
{
1000
OWNER
1000
GEN
1002
}
  0
LINE
  5
1E86
330
1F
100
AcDbEntity
  8
ﾌﾞﾗｹｯﾄ
100
AcDbLine
 10
343.0767215236521
 20
278.5579919638631
 30
0.0
 11
343.0767215236521
 21
277.1049202271604
 31
0.0
  0
LINE
  5
1E87
330
1F
100
AcDbEntity
  8
ﾌﾞﾗｹｯﾄ
100
AcDbLine
 10
335.6442982819487
 20
278.5608894649024
 30
0.0
 11
335.6442982819487
 21
277.1049202271606
 31
0.0
  0
ARC
  5
1E89
330
1F
100
AcDbEntity
  8
ﾌﾞﾗｹｯﾄ
100
AcDbCircle
 10
339.3605099028002
 20
264.6256625615984
 30
0.0
 40
13.02083333333331
100
AcDbArc
 50
43.14712888069784
 51
73.41693796515244
  0
ARC
  5
1E8A
330
1F
100
AcDbEntity
  8
ﾌﾞﾗｹｯﾄ
100
AcDbCircle
 10
339.3605099028002
 20
264.6256625615984
 30
0.0
 40
13.02083333333331
100
AcDbArc
 50
106.5830620348457
 51
136.8528711193021
  0
ARC
  5
1E8B
330
1F
100
AcDbEntity
  8
ﾌﾞﾗｹｯﾄ
100
AcDbCircle
 10
339.3605099028002
 20
264.6256625615984
 30
0.0
 40
14.42083333333331
100
AcDbArc
 50
40.90022393757049
 51
139.099776062429
  0
LINE
  5
1E8D
330
1F
100
AcDbEntity
  8
ﾌﾞﾗｹｯﾄ
100
AcDbLine
 10
340.2105099028008
 20
264.6464958949317
 30
0.0
 11
340.2105099028004
 21
263.2464958949317
 31
0.0
  0
LINE
  5
1E8E
330
1F
100
AcDbEntity
  8
ﾌﾞﾗｹｯﾄ
100
AcDbLine
 10
338.5105099028001
 20
264.6464958949317
 30
0.0
 11
338.5105099028001
 21
263.2464958949317
 31
0.0
  0
LINE
  5
1E8F
330
1F
100
AcDbEntity
  8
ﾌﾞﾗｹｯﾄ
100
AcDbLine
 10
343.8605099028003
 20
264.6464958949317
 30
0.0
 11
334.8605099028002
 21
264.6464958949317
 31
0.0
  0
LINE
  5
1E90
330
1F
100
AcDbEntity
  8
ﾌﾞﾗｹｯﾄ
100
AcDbLine
 10
343.8605099028003
 20
263.2464958949317
 30
0.0
 11
334.8605099028002
 21
263.2464958949317
 31
0.0
  0
ARC
  5
1E91
330
1F
100
AcDbEntity
  8
ﾌﾞﾗｹｯﾄ
100
AcDbCircle
 10
343.8605099028003
 20
269.6464958949317
 30
0.0
 40
5.0
100
AcDbArc
 50
270.0
 51
0.0
1001
GENIUS_GENODEF_13
1002
{
1000
HIER
1070
     0
1002
}
1002
{
1000
MANEDIT
1070
     0
1002
}
1002
{
1000
NOSEL
1070
     0
1002
}
1002
{
1000
BEHIND
1070
     0
1002
}
1002
{
1000
REACTOR
1002
}
1001
GENIUS_GENOBJ-N-FIL_13
1002
{
1000
OWNER
1000
GEN
1002
}
  0
ARC
  5
1E92
330
1F
100
AcDbEntity
  8
ﾌﾞﾗｹｯﾄ
100
AcDbCircle
 10
343.8605099028003
 20
269.6464958949317
 30
0.0
 40
6.399999999999999
100
AcDbArc
 50
270.0
 51
0.0
1001
GENIUS_GENODEF_13
1002
{
1000
HIER
1070
     0
1002
}
1002
{
1000
MANEDIT
1070
     0
1002
}
1002
{
1000
NOSEL
1070
     0
1002
}
1002
{
1000
BEHIND
1070
     0
1002
}
1002
{
1000
REACTOR
1002
}
1001
GENIUS_GENOBJ-N-FIL_13
1002
{
1000
OWNER
1000
GEN
1002
}
  0
ARC
  5
1E93
330
1F
100
AcDbEntity
  8
ﾌﾞﾗｹｯﾄ
100
AcDbCircle
 10
334.8605099028002
 20
269.6464958949317
 30
0.0
 40
5.0
100
AcDbArc
 50
180.0
 51
270.0
1001
GENIUS_GENODEF_13
1002
{
1000
HIER
1070
     0
1002
}
1002
{
1000
MANEDIT
1070
     0
1002
}
1002
{
1000
NOSEL
1070
     0
1002
}
1002
{
1000
BEHIND
1070
     0
1002
}
1002
{
1000
REACTOR
1002
}
1001
GENIUS_GENOBJ-N-FIL_13
1002
{
1000
OWNER
1000
GEN
1002
}
  0
ARC
  5
1E94
330
1F
100
AcDbEntity
  8
ﾌﾞﾗｹｯﾄ
100
AcDbCircle
 10
334.8605099028002
 20
269.6464958949317
 30
0.0
 40
6.399999999999999
100
AcDbArc
 50
180.0
 51
270.0
1001
GENIUS_GENODEF_13
1002
{
1000
HIER
1070
     0
1002
}
1002
{
1000
MANEDIT
1070
     0
1002
}
1002
{
1000
NOSEL
1070
     0
1002
}
1002
{
1000
BEHIND
1070
     0
1002
}
1002
{
1000
REACTOR
1002
}
1001
GENIUS_GENOBJ-N-FIL_13
1002
{
1000
OWNER
1000
GEN
1002
}
  0
LINE
  5
1E96
330
1F
100
AcDbEntity
  8
ﾌﾞﾗｹｯﾄ
100
AcDbLine
 10
329.8605099028002
 20
269.6464958949317
 30
0.0
 11
329.8605099028002
 21
273.5302737656007
 31
0.0
  0
ARC
  5
1E97
330
1F
100
AcDbEntity
  8
ﾌﾞﾗｹｯﾄ
100
AcDbCircle
 10
339.3605099028002
 20
274.146495666347
 30
0.0
 40
4.75000049399755
100
AcDbArc
 50
141.4771894554572
 51
38.52281054454277
  0
LINE
  5
1E98
330
1F
100
AcDbEntity
  8
ﾌﾞﾗｹｯﾄ
100
AcDbLine
 10
348.8605099028002
 20
273.5302737656007
 30
0.0
 11
348.8605099028002
 21
269.6464958949317
 31
0.0
  0
ARC
  5
1E99
330
1F
100
AcDbEntity
  8
ﾌﾞﾗｹｯﾄ
100
AcDbCircle
 10
339.3634480739085
 20
274.1464965276833
 30
0.0
 40
6.75
100
AcDbArc
 50
164.9514078976994
 51
15.01322864585376
  0
LINE
  5
1E9A
330
1F
100
AcDbEntity
  8
ﾌﾞﾗｹｯﾄ
100
AcDbLine
 10
328.4605099028001
 20
269.6464958949317
 30
0.0
 11
328.4605099028001
 21
274.0676133149003
 31
0.0
  0
LINE
  5
1E9B
330
1F
100
AcDbEntity
  8
ﾌﾞﾗｹｯﾄ
100
AcDbLine
 10
350.2605099027999
 20
274.0676133149003
 30
0.0
 11
350.2605099027999
 21
269.6464958949317
 31
0.0
  0
ARC
  5
1EA9
330
1F
100
AcDbEntity
  8
ﾌﾞﾗｹｯﾄ
100
AcDbCircle
 10
339.3605099028004
 20
460.6550402245074
 30
0.0
 40
21.0
100
AcDbArc
 50
232.814308822892
 51
307.1856911771237
  0
LINE
  5
1EAA
330
1F
100
AcDbEntity
  8
ﾌﾞﾗｹｯﾄ
100
AcDbLine
 10
330.3605099028004
 20
279.0724188536216
 30
0.0
 11
330.3605099028004
 21
441.6813742634971
 31
0.0
  0
LINE
  5
1EAB
330
1F
100
AcDbEntity
  8
ﾌﾞﾗｹｯﾄ
100
AcDbLine
 10
348.3605099028004
 20
441.6813742634971
 30
0.0
 11
348.3605099028009
 21
279.0724188536215
 31
0.0
  0
LINE
  5
1EAC
330
1F
100
AcDbEntity
  8
ﾌﾞﾗｹｯﾄ
100
AcDbLine
 10
349.4210694818939
 20
293.1464958949314
 30
0.0
 11
352.0529135517226
 21
443.924741673291
 31
0.0
  0
LINE
  5
1EAD
330
1F
100
AcDbEntity
  8
ﾌﾞﾗｹｯﾄ
100
AcDbLine
 10
348.3605099028004
 20
293.1464958949314
 30
0.0
 11
349.4210694818939
 21
293.1464958949314
 31
0.0
  0
LINE
  5
1EAE
330
1F
100
AcDbEntity
  8
ﾌﾞﾗｹｯﾄ
100
AcDbLine
 10
326.6681062538836
 20
443.9247416732871
 30
0.0
 11
329.2999503237037
 21
293.1464958949314
 31
0.0
  0
LINE
  5
1EAF
330
1F
100
AcDbEntity
  8
ﾌﾞﾗｹｯﾄ
100
AcDbLine
 10
330.3605099028004
 20
293.1464958949314
 30
0.0
 11
329.3002733558237
 21
293.1279893971647
 31
0.0
  0
LINE
  5
1EB2
330
1F
100
AcDbEntity
  8
ﾌﾞﾗｹｯﾄ
100
AcDbLine
 10
342.3605099028009
 20
475.4050402245074
 30
0.0
 11
342.3605099028009
 21
477.6540850471516
 31
0.0
  0
LINE
  5
1EB3
330
1F
100
AcDbEntity
  8
ﾌﾞﾗｹｯﾄ
100
AcDbLine
 10
336.3605099028009
 20
477.6540850471516
 30
0.0
 11
336.3605099028009
 21
475.4050402245074
 31
0.0
  0
LINE
  5
1EB4
330
1F
100
AcDbEntity
  8
ﾌﾞﾗｹｯﾄ
100
AcDbLine
 10
336.3605099028009
 20
475.4050402245074
 30
0.0
 11
342.3605099028009
 21
475.4050402245074
 31
0.0
  0
LINE
  5
1EB5
330
1F
100
AcDbEntity
  8
ﾌﾞﾗｹｯﾄ
100
AcDbLine
 10
341.3605099028008
 20
443.5095590448418
 30
0.0
 11
341.3605099028008
 21
445.9050402245074
 31
0.0
  0
LINE
  5
1EB6
330
1F
100
AcDbEntity
  8
ﾌﾞﾗｹｯﾄ
100
AcDbLine
 10
337.3605099028008
 20
443.5095590448418
 30
0.0
 11
337.3605099028008
 21
445.9050402245074
 31
0.0
  0
LINE
  5
1EB7
330
1F
100
AcDbEntity
  8
ﾌﾞﾗｹｯﾄ
100
AcDbLine
 10
337.3605099028008
 20
445.9050402245074
 30
0.0
 11
341.3605099028008
 21
445.9050402245074
 31
0.0
  0
ARC
  5
1EB8
330
1F
100
AcDbEntity
  8
ﾌﾞﾗｹｯﾄ
100
AcDbCircle
 10
339.3605099028008
 20
460.6550402245074
 30
0.0
 40
17.26173585947438
100
AcDbArc
 50
276.653415748508
 51
79.99146921922896
  0
ARC
  5
1EB9
330
1F
100
AcDbEntity
  8
ｽﾃｰﾀｰ
 62
     6
100
AcDbCircle
 10
339.3605099028004
 20
460.6550402245074
 30
0.0
 40
16.85559876566935
100
AcDbArc
 50
276.8144815010137
 51
79.74773741644646
  0
ARC
  5
1EBA
330
1F
100
AcDbEntity
  8
ﾌﾞﾗｹｯﾄ
100
AcDbCircle
 10
339.3605099028008
 20
460.6550402245074
 30
0.0
 40
17.26173585947438
100
AcDbArc
 50
100.008530780771
 51
263.346584251492
  0
ARC
  5
1EBB
330
1F
100
AcDbEntity
  8
ｽﾃｰﾀｰ
 62
     6
100
AcDbCircle
 10
339.3605099028004
 20
460.6550402245074
 30
0.0
 40
16.85559876566935
100
AcDbArc
 50
100.2522625835535
 51
263.1855184989863
  0
LINE
  5
1ECA
330
1F
100
AcDbEntity
  8
ﾌﾞﾗｹｯﾄ
100
AcDbLine
 10
351.8605099028004
 20
289.6464958949317
 30
0.0
 11
351.8605099028004
 21
276.1732173348004
 31
0.0
  0
LINE
  5
1ECB
330
1F
100
AcDbEntity
  8
ﾌﾞﾗｹｯﾄ
100
AcDbLine
 10
351.877812639685
 20
289.6464958949317
 30
0.0
 11
351.8605099028004
 21
289.6464958949317
 31
0.0
  0
ARC
  5
1ECC
330
1F
100
AcDbEntity
  8
ﾌﾞﾗｹｯﾄ
100
AcDbCircle
 10
351.877812639685
 20
290.6464958949317
 30
0.0
 40
1.0
100
AcDbArc
 50
270.0
 51
358.9999999999982
1001
GENIUS_GENODEF_13
1002
{
1000
HIER
1070
     0
1002
}
1002
{
1000
MANEDIT
1070
     0
1002
}
1002
{
1000
NOSEL
1070
     0
1002
}
1002
{
1000
BEHIND
1070
     0
1002
}
1002
{
1000
REACTOR
1002
}
1001
GENIUS_GENOBJ-N-FIL_13
1002
{
1000
OWNER
1000
GEN
1002
}
  0
LINE
  5
1ECF
330
1F
100
AcDbEntity
  8
ﾌﾞﾗｹｯﾄ
100
AcDbLine
 10
326.8432071659162
 20
289.6464958949317
 30
0.0
 11
326.8605099028004
 21
289.6464958949317
 31
0.0
  0
ARC
  5
1ED0
330
1F
100
AcDbEntity
  8
ﾌﾞﾗｹｯﾄ
100
AcDbCircle
 10
326.8432071659162
 20
290.6464958949317
 30
0.0
 40
1.0
100
AcDbArc
 50
181.0000000000017
 51
270.0
1001
GENIUS_GENODEF_13
1002
{
1000
HIER
1070
     0
1002
}
1002
{
1000
MANEDIT
1070
     0
1002
}
1002
{
1000
NOSEL
1070
     0
1002
}
1002
{
1000
BEHIND
1070
     0
1002
}
1002
{
1000
REACTOR
1002
}
1001
GENIUS_GENOBJ-N-FIL_13
1002
{
1000
OWNER
1000
GEN
1002
}
  0
LINE
  5
1ED4
330
1F
100
AcDbEntity
  8
ﾌﾞﾗｹｯﾄ
100
AcDbLine
 10
119.8939580613675
 20
261.6464958949316
 30
0.0
 11
110.8939580613675
 21
261.6464958949316
 31
0.0
  0
LINE
  5
1ED5
330
1F
100
AcDbEntity
  8
ﾌﾞﾗｹｯﾄ
100
AcDbLine
 10
119.8939580613675
 20
261.6464958949316
 30
0.0
 11
110.8939580613675
 21
261.6464958949316
 31
0.0
  0
LINE
  5
1ED6
330
1F
100
AcDbEntity
  8
ﾌﾞﾗｹｯﾄ
100
AcDbLine
 10
119.8939580613675
 20
261.6464958949316
 30
0.0
 11
110.8939580613675
 21
261.6464958949316
 31
0.0
  0
LINE
  5
1ED7
330
1F
100
AcDbEntity
  8
ﾌﾞﾗｹｯﾄ
100
AcDbLine
 10
119.8939580613675
 20
261.6464958949316
 30
0.0
 11
110.8939580613675
 21
261.6464958949316
 31
0.0
  0
LINE
  5
1ED8
330
1F
100
AcDbEntity
  8
ﾌﾞﾗｹｯﾄ
100
AcDbLine
 10
127.9112607982519
 20
289.6464958949317
 30
0.0
 11
127.8939580613675
 21
289.6464958949317
 31
0.0
  0
ARC
  5
1ED9
330
1F
100
AcDbEntity
  8
ﾌﾞﾗｹｯﾄ
100
AcDbCircle
 10
127.9112607982519
 20
290.6464958949317
 30
0.0
 40
1.0
100
AcDbArc
 50
270.0
 51
358.9999999999982
1001
GENIUS_GENODEF_13
1002
{
1000
HIER
1070
     0
1002
}
1002
{
1000
MANEDIT
1070
     0
1002
}
1002
{
1000
NOSEL
1070
     0
1002
}
1002
{
1000
BEHIND
1070
     0
1002
}
1002
{
1000
REACTOR
1002
}
1001
GENIUS_GENOBJ-N-FIL_13
1002
{
1000
OWNER
1000
GEN
1002
}
  0
CIRCLE
  5
1EDA
330
1F
100
AcDbEntity
  8
ﾌﾞﾗｹｯﾄ
100
AcDbCircle
 10
115.3939580613675
 20
274.1464958949318
 30
0.0
 40
2.25
  0
ARC
  5
1EDB
330
1F
100
AcDbEntity
  8
ﾌﾞﾗｹｯﾄ
100
AcDbCircle
 10
102.8766553244831
 20
290.6464958949318
 30
0.0
 40
1.0
100
AcDbArc
 50
181.0000000000017
 51
270.0
1001
GENIUS_GENODEF_13
1002
{
1000
HIER
1070
     0
1002
}
1002
{
1000
MANEDIT
1070
     0
1002
}
1002
{
1000
NOSEL
1070
     0
1002
}
1002
{
1000
BEHIND
1070
     0
1002
}
1002
{
1000
REACTOR
1002
}
1001
GENIUS_GENOBJ-N-FIL_13
1002
{
1000
OWNER
1000
GEN
1002
}
  0
LINE
  5
1EDC
330
1F
100
AcDbEntity
  8
ﾌﾞﾗｹｯﾄ
100
AcDbLine
 10
102.8766553244831
 20
289.6464958949317
 30
0.0
 11
102.8939580613675
 21
289.6464958949317
 31
0.0
  0
CIRCLE
  5
1EDD
330
1F
100
AcDbEntity
  8
ﾌﾞﾗｹｯﾄ
100
AcDbCircle
 10
115.3939580613675
 20
274.1464958949318
 30
0.0
 40
4.25
  0
ARC
  5
1EDE
102
{ACAD_REACTORS
330
2B2F
102
}
330
1F
100
AcDbEntity
  8
ﾌﾞﾗｹｯﾄ
100
AcDbCircle
 10
110.8939580613675
 20
269.6464958949317
 30
0.0
 40
8.0
100
AcDbArc
 50
180.0
 51
270.0
1001
GENIUS_GENODEF_13
1002
{
1000
HIER
1070
     0
1002
}
1002
{
1000
MANEDIT
1070
     0
1002
}
1002
{
1000
NOSEL
1070
     0
1002
}
1002
{
1000
BEHIND
1070
     0
1002
}
1002
{
1000
REACTOR
1002
}
1001
GENIUS_GENOBJ-N-FIL_13
1002
{
1000
OWNER
1000
GEN
1002
}
  0
ARC
  5
1EDF
330
1F
100
AcDbEntity
  8
ﾌﾞﾗｹｯﾄ
100
AcDbCircle
 10
119.8939580613675
 20
269.6464958949317
 30
0.0
 40
8.0
100
AcDbArc
 50
270.0
 51
0.0
1001
GENIUS_GENODEF_13
1002
{
1000
HIER
1070
     0
1002
}
1002
{
1000
MANEDIT
1070
     0
1002
}
1002
{
1000
NOSEL
1070
     0
1002
}
1002
{
1000
BEHIND
1070
     0
1002
}
1002
{
1000
REACTOR
1002
}
1001
GENIUS_GENOBJ-N-FIL_13
1002
{
1000
OWNER
1000
GEN
1002
}
  0
ARC
  5
1EE0
330
1F
100
AcDbEntity
  8
ﾌﾞﾗｹｯﾄ
100
AcDbCircle
 10
339.3605099028004
 20
460.6550402245074
 30
0.0
 40
21.0
100
AcDbArc
 50
320.7094688327119
 51
219.290531167288
  0
ARC
  5
1EE1
330
1F
100
AcDbEntity
  8
ﾌﾞﾗｹｯﾄ
100
AcDbCircle
 10
339.3605099028004
 20
460.6550402245074
 30
0.0
 40
21.0
100
AcDbArc
 50
320.7094688327119
 51
219.290531167288
  0
ARC
  5
1EE2
330
1F
100
AcDbEntity
  8
ﾌﾞﾗｹｯﾄ
100
AcDbCircle
 10
115.3939580613675
 20
460.6550402245074
 30
0.0
 40
20.46652368926868
100
AcDbArc
 50
307.6440024322711
 51
322.6428407953467
  0
ARC
  5
1EE3
330
1F
100
AcDbEntity
  8
ﾌﾞﾗｹｯﾄ
100
AcDbCircle
 10
115.3939580613675
 20
460.6550402245074
 30
0.0
 40
18.08157475795451
100
AcDbArc
 50
255.5892193848747
 51
284.4107806151253
  0
ARC
  5
1EE4
330
1F
100
AcDbEntity
  8
ﾌﾞﾗｹｯﾄ
100
AcDbCircle
 10
101.6550427023059
 20
411.7251288505357
 30
0.0
 40
32.74753559596185
100
AcDbArc
 50
73.61289684317556
 51
87.831850120264
  0
ARC
  5
1EE5
330
1F
100
AcDbEntity
  8
ﾌﾞﾗｹｯﾄ
100
AcDbCircle
 10
126.7223851861137
 20
426.4812316208064
 30
0.0
 40
18.00614363198249
100
AcDbArc
 50
86.26940471926316
 51
112.2858483172999
  0
CIRCLE
  5
1EE6
330
1F
100
AcDbEntity
  8
ｷｬｯﾌﾟ
100
AcDbCircle
 10
115.3939580613675
 20
460.6550402245074
 30
0.0
 40
10.54
  0
CIRCLE
  5
1EE7
330
1F
100
AcDbEntity
  8
ﾌﾞﾗｹｯﾄ
100
AcDbCircle
 10
115.3939580613675
 20
460.6550402245074
 30
0.0
 40
11.0395665021156
  0
ARC
  5
1EE8
330
1F
100
AcDbEntity
  8
ﾌﾞﾗｹｯﾄ
100
AcDbCircle
 10
115.3939580613675
 20
460.6550402245074
 30
0.0
 40
20.46652368926868
100
AcDbArc
 50
217.3571592046533
 51
232.3559975677289
  0
ARC
  5
1EE9
330
1F
100
AcDbEntity
  8
ﾌﾞﾗｹｯﾄ
100
AcDbCircle
 10
115.3939580613675
 20
460.6550402245074
 30
0.0
 40
21.0
100
AcDbArc
 50
320.7094688327119
 51
219.290531167288
  0
LINE
  5
1EEC
102
{ACAD_REACTORS
330
2B65
102
}
330
1F
100
AcDbEntity
  8
ﾌﾞﾗｹｯﾄ
100
AcDbLine
 10
102.8939580613675
 20
269.6464958949317
 30
0.0
 11
102.8939580613675
 21
444.4492205314651
 31
0.0
  0
LINE
  5
1EED
102
{ACAD_REACTORS
330
2B65
102
}
330
1F
100
AcDbEntity
  8
ﾌﾞﾗｹｯﾄ
100
AcDbLine
 10
127.8939580613675
 20
269.6464958949317
 30
0.0
 11
127.8939580613675
 21
444.4492205314651
 31
0.0
  0
LINE
  5
1EEE
330
1F
100
AcDbEntity
  8
ﾌﾞﾗｹｯﾄ
100
AcDbLine
 10
131.6621538895921
 20
448.2363286803117
 30
0.0
 11
128.9111084934083
 21
290.6290434884945
 31
0.0
  0
LINE
  5
1EEF
330
1F
100
AcDbEntity
  8
ﾌﾞﾗｹｯﾄ
100
AcDbLine
 10
99.12576223314312
 20
448.2363286803118
 30
0.0
 11
101.8768076293267
 21
290.6290434884945
 31
0.0
  0
LINE
  5
1EF0
330
1F
100
AcDbEntity
  8
ﾌﾞﾗｹｯﾄ
100
AcDbLine
 10
323.1076675667996
 20
447.356727699939
 30
0.0
 11
325.8433594707598
 21
290.6290434884943
 31
0.0
  0
LINE
  5
1EF1
330
1F
100
AcDbEntity
  8
ﾌﾞﾗｹｯﾄ
100
AcDbLine
 10
355.6133522388017
 20
447.356727699939
 30
0.0
 11
352.877660334841
 21
290.6290434884943
 31
0.0
  0
ARC
  5
1FDC
330
1F
100
AcDbEntity
  8
ｽﾍﾟｰｻｰ
100
AcDbCircle
 10
110.8981023339715
 20
269.6464958949317
 30
0.0
 40
9.0
100
AcDbArc
 50
180.0
 51
270.0
1001
GENIUS_GENODEF_13
1002
{
1000
HIER
1070
     0
1002
}
1002
{
1000
MANEDIT
1070
     0
1002
}
1002
{
1000
NOSEL
1070
     0
1002
}
1002
{
1000
BEHIND
1070
     0
1002
}
1002
{
1000
REACTOR
1002
}
1001
GENIUS_GENOBJ-N-FIL_13
1002
{
1000
OWNER
1000
GEN
1002
}
  0
LINE
  5
1FDF
330
1F
100
AcDbEntity
  8
ｽﾍﾟｰｻｰ
100
AcDbLine
 10
101.8981023339715
 20
274.9913596181072
 30
0.0
 11
101.8981023339715
 21
269.6464958949317
 31
0.0
  0
ARC
  5
1FE3
330
1F
100
AcDbEntity
  8
ｽﾍﾟｰｻｰ
100
AcDbCircle
 10
119.8981023339715
 20
269.6464958949317
 30
0.0
 40
9.0
100
AcDbArc
 50
270.0
 51
0.0
1001
GENIUS_GENODEF_13
1002
{
1000
HIER
1070
     0
1002
}
1002
{
1000
MANEDIT
1070
     0
1002
}
1002
{
1000
NOSEL
1070
     0
1002
}
1002
{
1000
BEHIND
1070
     0
1002
}
1002
{
1000
REACTOR
1002
}
1001
GENIUS_GENOBJ-N-FIL_13
1002
{
1000
OWNER
1000
GEN
1002
}
  0
LINE
  5
1FE7
330
1F
100
AcDbEntity
  8
ｽﾍﾟｰｻｰ
100
AcDbLine
 10
119.8981023339715
 20
260.6464958949317
 30
0.0
 11
110.8981023339715
 21
260.6464958949317
 31
0.0
  0
LINE
  5
1FE8
330
1F
100
AcDbEntity
  8
ｽﾍﾟｰｻｰ
100
AcDbLine
 10
128.8981023339715
 20
274.9913596181072
 30
0.0
 11
128.8981023339715
 21
269.6464958949317
 31
0.0
  0
ARC
  5
1FE9
330
1F
100
AcDbEntity
  8
ｽﾍﾟｰｻｰ
100
AcDbCircle
 10
115.3981023339715
 20
264.6264958949317
 30
0.0
 40
17.02
100
AcDbArc
 50
37.515889193154
 51
42.76147152923583
  0
ARC
  5
2148
330
1F
100
AcDbEntity
  8
ｽﾍﾟｰｻｰ
100
AcDbCircle
 10
115.3981023339715
 20
264.6264958949317
 30
0.0
 40
17.02
100
AcDbArc
 50
137.2796409427962
 51
142.4841108068473
  0
LINE
  5
2158
330
1F
100
AcDbEntity
  8
ﾌﾞﾗｹｯﾄ
100
AcDbLine
 10
326.8605099028004
 20
276.1821866851911
 30
0.0
 11
326.8605099028004
 21
289.6464958949317
 31
0.0
  0
LINE
  5
215D
330
1F
100
AcDbEntity
  8
ｽﾍﾟｰｻｰ
100
AcDbLine
 10
334.8605099028002
 20
263.1464958949317
 30
0.0
 11
343.8605099028003
 21
263.1464958949317
 31
0.0
  0
LINE
  5
2182
330
1F
100
AcDbEntity
  8
ｽﾍﾟｰｻｰ
100
AcDbLine
 10
325.896040030932
 20
197.0865525009645
 30
0.0
 11
325.8605099028003
 21
198.1040022493158
 31
0.0
  0
LINE
  5
2183
330
1F
100
AcDbEntity
  8
ｽﾍﾟｰｻｰ
100
AcDbLine
 10
325.8605099028003
 20
198.1040022493158
 30
0.0
 11
325.896040030932
 21
199.1214519976671
 31
0.0
  0
LINE
  5
2184
330
1F
100
AcDbEntity
  8
ｽﾍﾟｰｻｰ
100
AcDbLine
 10
352.8249797746688
 20
197.0865525009645
 30
0.0
 11
352.8605099028003
 21
198.1040022493161
 31
0.0
  0
LINE
  5
2185
330
1F
100
AcDbEntity
  8
ｽﾍﾟｰｻｰ
100
AcDbLine
 10
352.8605099028003
 20
198.1040022493161
 30
0.0
 11
352.8249797746688
 21
199.1214519976671
 31
0.0
  0
LINE
  5
2186
330
1F
100
AcDbEntity
  8
ｽﾍﾟｰｻｰ
100
AcDbLine
 10
352.3252843611593
 20
196.6040022493158
 30
0.0
 11
326.3957354444415
 21
196.6040022493158
 31
0.0
1001
GENIUS_GENREC_14
1002
{
1000
PYDIR
1011
328.8648261583947
1021
199.6040022493158
1031
0.0
1002
}
1002
{
1000
PXDIR
1011
349.8644821924141
1021
196.6040022493158
1031
0.0
1002
}
1002
{
1000
PORI
1011
349.8644821924141
1021
199.6040022493158
1031
0.0
1002
}
1002
{
1000
PINS
1011
349.8644821924141
1021
199.6040022493158
1031
0.0
1002
}
1002
{
1000
PINS2
1011
328.8648261583947
1021
196.6040022493158
1031
0.0
1002
}
1002
{
1000
C
1070
     1
1002
}
1001
GENIUS_GENODEF_13
1002
{
1000
HIER
1070
     0
1002
}
1002
{
1000
MANEDIT
1070
     0
1002
}
1002
{
1000
NOSEL
1070
     0
1002
}
1002
{
1000
BEHIND
1070
     0
1002
}
1002
{
1000
REACTOR
1002
}
1001
GENIUS_GENOBJ-N-REC_13
1002
{
1000
OWNER
1000
GEN
1002
}
  0
ARC
  5
2187
330
1F
100
AcDbEntity
  8
ｽﾍﾟｰｻｰ
100
AcDbCircle
 10
352.3252843611593
 20
197.1040022493158
 30
0.0
 40
0.5
100
AcDbArc
 50
270.0
 51
358.0000000000029
1001
GENIUS_GENODEF_13
1002
{
1000
HIER
1070
     0
1002
}
1002
{
1000
MANEDIT
1070
     0
1002
}
1002
{
1000
NOSEL
1070
     0
1002
}
1002
{
1000
BEHIND
1070
     0
1002
}
1002
{
1000
REACTOR
1002
}
1001
GENIUS_GENOBJ-N-FIL_13
1002
{
1000
OWNER
1000
GEN
1002
}
  0
LINE
  5
2188
330
1F
100
AcDbEntity
  8
ｽﾍﾟｰｻｰ
100
AcDbLine
 10
326.3957354444415
 20
199.6040022493158
 30
0.0
 11
352.3252843611593
 21
199.6040022493158
 31
0.0
1001
GENIUS_GENREC_14
1002
{
1000
PYDIR
1011
328.8648261583947
1021
199.6040022493158
1031
0.0
1002
}
1002
{
1000
PXDIR
1011
349.8644821924141
1021
196.6040022493158
1031
0.0
1002
}
1002
{
1000
PORI
1011
349.8644821924141
1021
199.6040022493158
1031
0.0
1002
}
1002
{
1000
PINS
1011
349.8644821924141
1021
199.6040022493158
1031
0.0
1002
}
1002
{
1000
PINS2
1011
328.8648261583947
1021
196.6040022493158
1031
0.0
1002
}
1002
{
1000
C
1070
     1
1002
}
1001
GENIUS_GENODEF_13
1002
{
1000
HIER
1070
     0
1002
}
1002
{
1000
MANEDIT
1070
     0
1002
}
1002
{
1000
NOSEL
1070
     0
1002
}
1002
{
1000
BEHIND
1070
     0
1002
}
1002
{
1000
REACTOR
1002
}
1001
GENIUS_GENOBJ-N-REC_13
1002
{
1000
OWNER
1000
GEN
1002
}
  0
ARC
  5
2189
330
1F
100
AcDbEntity
  8
ｽﾍﾟｰｻｰ
100
AcDbCircle
 10
352.3252843611593
 20
199.1040022493158
 30
0.0
 40
0.5
100
AcDbArc
 50
2.00000000000364
 51
90.0
1001
GENIUS_GENODEF_13
1002
{
1000
HIER
1070
     0
1002
}
1002
{
1000
MANEDIT
1070
     0
1002
}
1002
{
1000
NOSEL
1070
     0
1002
}
1002
{
1000
BEHIND
1070
     0
1002
}
1002
{
1000
REACTOR
1002
}
1001
GENIUS_GENOBJ-N-FIL_13
1002
{
1000
OWNER
1000
GEN
1002
}
  0
ARC
  5
218A
330
1F
100
AcDbEntity
  8
ｽﾍﾟｰｻｰ
100
AcDbCircle
 10
326.3957354444415
 20
197.1040022493158
 30
0.0
 40
0.5
100
AcDbArc
 50
182.0000000000036
 51
270.0
1001
GENIUS_GENODEF_13
1002
{
1000
HIER
1070
     0
1002
}
1002
{
1000
MANEDIT
1070
     0
1002
}
1002
{
1000
NOSEL
1070
     0
1002
}
1002
{
1000
BEHIND
1070
     0
1002
}
1002
{
1000
REACTOR
1002
}
1001
GENIUS_GENOBJ-N-FIL_13
1002
{
1000
OWNER
1000
GEN
1002
}
  0
ARC
  5
218B
330
1F
100
AcDbEntity
  8
ｽﾍﾟｰｻｰ
100
AcDbCircle
 10
326.3957354444415
 20
199.1040022493158
 30
0.0
 40
0.5
100
AcDbArc
 50
90.0
 51
178.0000000000028
1001
GENIUS_GENODEF_13
1002
{
1000
HIER
1070
     0
1002
}
1002
{
1000
MANEDIT
1070
     0
1002
}
1002
{
1000
NOSEL
1070
     0
1002
}
1002
{
1000
BEHIND
1070
     0
1002
}
1002
{
1000
REACTOR
1002
}
1001
GENIUS_GENOBJ-N-FIL_13
1002
{
1000
OWNER
1000
GEN
1002
}
  0
ARC
  5
218C
330
1F
100
AcDbEntity
  8
ﾌﾞﾗｹｯﾄ
100
AcDbCircle
 10
354.6084018425947
 20
200.6040022493161
 30
0.0
 40
1.0
100
AcDbArc
 50
270.0
 51
0.0
1001
GENIUS_GENODEF_13
1002
{
1000
HIER
1070
     0
1002
}
1002
{
1000
MANEDIT
1070
     0
1002
}
1002
{
1000
NOSEL
1070
     0
1002
}
1002
{
1000
BEHIND
1070
     0
1002
}
1002
{
1000
REACTOR
1002
}
1001
GENIUS_GENOBJ-N-FIL_13
1002
{
1000
OWNER
1000
GEN
1002
}
  0
ARC
  5
218D
330
1F
100
AcDbEntity
  8
ﾌﾞﾗｹｯﾄ
100
AcDbCircle
 10
354.6084018425947
 20
205.6040022493158
 30
0.0
 40
1.0
100
AcDbArc
 50
0.0
 51
90.0
1001
GENIUS_GENODEF_13
1002
{
1000
HIER
1070
     0
1002
}
1002
{
1000
MANEDIT
1070
     0
1002
}
1002
{
1000
NOSEL
1070
     0
1002
}
1002
{
1000
BEHIND
1070
     0
1002
}
1002
{
1000
REACTOR
1002
}
1001
GENIUS_GENOBJ-N-FIL_13
1002
{
1000
OWNER
1000
GEN
1002
}
  0
ARC
  5
218E
330
1F
100
AcDbEntity
  8
ﾌﾞﾗｹｯﾄ
100
AcDbCircle
 10
353.3738125682898
 20
210.3540022493159
 30
0.0
 40
6.0
100
AcDbArc
 50
5.117314849973979
 51
90.0
1001
GENIUS_GENODEF_13
1002
{
1000
HIER
1070
     0
1002
}
1002
{
1000
MANEDIT
1070
     0
1002
}
1002
{
1000
NOSEL
1070
     0
1002
}
1002
{
1000
BEHIND
1070
     0
1002
}
1002
{
1000
REACTOR
1002
}
1001
GENIUS_GENOBJ-N-FIL_13
1002
{
1000
OWNER
1000
GEN
1002
}
  0
LINE
  5
218F
330
1F
100
AcDbEntity
  8
ﾌﾞﾗｹｯﾄ
100
AcDbLine
 10
359.2669558694367
 20
199.6040022493158
 30
0.0
 11
319.4540639361641
 21
199.6040022493158
 31
0.0
  0
LINE
  5
2190
330
1F
100
AcDbEntity
  8
ﾌﾞﾗｹｯﾄ
100
AcDbLine
 10
355.6084018425945
 20
200.6040022493158
 30
0.0
 11
355.6084018425945
 21
205.6040022493158
 31
0.0
  0
LINE
  5
2191
330
1F
100
AcDbEntity
  8
ﾌﾞﾗｹｯﾄ
100
AcDbLine
 10
359.349897504117
 20
210.8891740346138
 30
0.0
 11
360.2629700254078
 21
200.6931975468654
 31
0.0
  0
ARC
  5
2192
330
1F
100
AcDbEntity
  8
ﾌﾞﾗｹｯﾄ
100
AcDbCircle
 10
359.2669558694367
 20
200.6040022493158
 30
0.0
 40
1.0
100
AcDbArc
 50
270.0
 51
5.117314849973979
1001
GENIUS_GENODEF_13
1002
{
1000
HIER
1070
     0
1002
}
1002
{
1000
MANEDIT
1070
     0
1002
}
1002
{
1000
NOSEL
1070
     0
1002
}
1002
{
1000
BEHIND
1070
     0
1002
}
1002
{
1000
REACTOR
1002
}
1001
GENIUS_GENOBJ-N-FIL_13
1002
{
1000
OWNER
1000
GEN
1002
}
  0
LINE
  5
2193
330
1F
100
AcDbEntity
  8
ﾌﾞﾗｹｯﾄ
100
AcDbLine
 10
323.1126179630063
 20
205.6040022493158
 30
0.0
 11
323.1126179630063
 21
200.6040022493158
 31
0.0
  0
LINE
  5
2194
330
1F
100
AcDbEntity
  8
ﾌﾞﾗｹｯﾄ
100
AcDbLine
 10
326.8605099028004
 20
206.6040022493158
 30
0.0
 11
326.8605099028004
 21
199.6040022493158
 31
0.0
  0
LINE
  5
2195
330
1F
100
AcDbEntity
  8
ﾌﾞﾗｹｯﾄ
100
AcDbLine
 10
351.8605099028004
 20
199.6040022493158
 30
0.0
 11
351.8605099028004
 21
206.6040022493158
 31
0.0
  0
LINE
  5
2196
330
1F
100
AcDbEntity
  8
ﾌﾞﾗｹｯﾄ
100
AcDbLine
 10
318.458049780193
 20
200.6931975468654
 30
0.0
 11
319.3711223014838
 21
210.8891740346138
 31
0.0
  0
ARC
  5
2197
330
1F
100
AcDbEntity
  8
ﾌﾞﾗｹｯﾄ
100
AcDbCircle
 10
334.8605099028004
 20
206.6040022493158
 30
0.0
 40
8.0
100
AcDbArc
 50
90.0
 51
180.0
1001
GENIUS_GENODEF_13
1002
{
1000
HIER
1070
     0
1002
}
1002
{
1000
MANEDIT
1070
     0
1002
}
1002
{
1000
NOSEL
1070
     0
1002
}
1002
{
1000
BEHIND
1070
     0
1002
}
1002
{
1000
REACTOR
1002
}
1001
GENIUS_GENOBJ-N-FIL_13
1002
{
1000
OWNER
1000
GEN
1002
}
  0
LINE
  5
2198
330
1F
100
AcDbEntity
  8
ﾌﾞﾗｹｯﾄ
100
AcDbLine
 10
325.347207237311
 20
216.3540022493158
 30
0.0
 11
353.3738125682898
 21
216.3540022493158
 31
0.0
  0
ARC
  5
219A
330
1F
100
AcDbEntity
  8
ﾌﾞﾗｹｯﾄ
100
AcDbCircle
 10
343.8605099028004
 20
206.6040022493158
 30
0.0
 40
8.0
100
AcDbArc
 50
0.0
 51
90.0
1001
GENIUS_GENODEF_13
1002
{
1000
HIER
1070
     0
1002
}
1002
{
1000
MANEDIT
1070
     0
1002
}
1002
{
1000
NOSEL
1070
     0
1002
}
1002
{
1000
BEHIND
1070
     0
1002
}
1002
{
1000
REACTOR
1002
}
1001
GENIUS_GENOBJ-N-FIL_13
1002
{
1000
OWNER
1000
GEN
1002
}
  0
LINE
  5
219C
330
1F
100
AcDbEntity
  8
ﾌﾞﾗｹｯﾄ
100
AcDbLine
 10
354.6084018425944
 20
206.6040022493158
 30
0.0
 11
351.8605099028004
 21
206.6040022493158
 31
0.0
  0
LINE
  5
219D
330
1F
100
AcDbEntity
  8
ﾌﾞﾗｹｯﾄ
100
AcDbLine
 10
343.8605099028004
 20
214.6040022493159
 30
0.0
 11
334.8605099028004
 21
214.6040022493159
 31
0.0
  0
ARC
  5
219E
330
1F
100
AcDbEntity
  8
ﾌﾞﾗｹｯﾄ
100
AcDbCircle
 10
325.347207237311
 20
210.3540022493159
 30
0.0
 40
6.0
100
AcDbArc
 50
90.0
 51
174.8826851500293
1001
GENIUS_GENODEF_13
1002
{
1000
HIER
1070
     0
1002
}
1002
{
1000
MANEDIT
1070
     0
1002
}
1002
{
1000
NOSEL
1070
     0
1002
}
1002
{
1000
BEHIND
1070
     0
1002
}
1002
{
1000
REACTOR
1002
}
1001
GENIUS_GENOBJ-N-FIL_13
1002
{
1000
OWNER
1000
GEN
1002
}
  0
ARC
  5
21A0
330
1F
100
AcDbEntity
  8
ﾌﾞﾗｹｯﾄ
100
AcDbCircle
 10
324.1126179630064
 20
205.6040022493158
 30
0.0
 40
1.0
100
AcDbArc
 50
90.0
 51
180.0
1001
GENIUS_GENODEF_13
1002
{
1000
HIER
1070
     0
1002
}
1002
{
1000
MANEDIT
1070
     0
1002
}
1002
{
1000
NOSEL
1070
     0
1002
}
1002
{
1000
BEHIND
1070
     0
1002
}
1002
{
1000
REACTOR
1002
}
1001
GENIUS_GENOBJ-N-FIL_13
1002
{
1000
OWNER
1000
GEN
1002
}
  0
LINE
  5
21A1
330
1F
100
AcDbEntity
  8
ﾌﾞﾗｹｯﾄ
100
AcDbLine
 10
326.8605099028004
 20
206.6040022493158
 30
0.0
 11
324.1126179630064
 21
206.6040022493158
 31
0.0
  0
ARC
  5
21A2
330
1F
100
AcDbEntity
  8
ﾌﾞﾗｹｯﾄ
100
AcDbCircle
 10
324.1126179630064
 20
200.6040022493161
 30
0.0
 40
1.0
100
AcDbArc
 50
180.0
 51
270.0
1001
GENIUS_GENODEF_13
1002
{
1000
HIER
1070
     0
1002
}
1002
{
1000
MANEDIT
1070
     0
1002
}
1002
{
1000
NOSEL
1070
     0
1002
}
1002
{
1000
BEHIND
1070
     0
1002
}
1002
{
1000
REACTOR
1002
}
1001
GENIUS_GENOBJ-N-FIL_13
1002
{
1000
OWNER
1000
GEN
1002
}
  0
ARC
  5
21A3
330
1F
100
AcDbEntity
  8
ﾌﾞﾗｹｯﾄ
100
AcDbCircle
 10
319.4540639361641
 20
200.6040022493158
 30
0.0
 40
1.0
100
AcDbArc
 50
174.8826851500293
 51
270.0
1001
GENIUS_GENODEF_13
1002
{
1000
HIER
1070
     0
1002
}
1002
{
1000
MANEDIT
1070
     0
1002
}
1002
{
1000
NOSEL
1070
     0
1002
}
1002
{
1000
BEHIND
1070
     0
1002
}
1002
{
1000
REACTOR
1002
}
1001
GENIUS_GENOBJ-N-FIL_13
1002
{
1000
OWNER
1000
GEN
1002
}
  0
LINE
  5
21A5
330
1F
100
AcDbEntity
  8
ﾌﾞﾗｹｯﾄ
100
AcDbLine
 10
353.3605099028004
 20
199.6040022493158
 30
0.0
 11
353.2732079790709
 21
197.1040022493158
 31
0.0
  0
LINE
  5
21A6
330
1F
100
AcDbEntity
  8
ﾌﾞﾗｹｯﾄ
100
AcDbLine
 10
325.3605099028004
 20
199.6040022493163
 30
0.0
 11
325.4478118265301
 21
197.1040022493161
 31
0.0
  0
LINE
  5
21A7
330
1F
100
AcDbEntity
  8
ﾌﾞﾗｹｯﾄ
100
AcDbLine
 10
353.2732079790707
 20
197.1040022493158
 30
0.0
 11
352.8214448607047
 21
197.1040022493161
 31
0.0
  0
LINE
  5
2206
330
1F
100
AcDbEntity
  8
ﾌﾞﾗｹｯﾄ
100
AcDbLine
 10
325.8912863996883
 20
197.1040022493158
 30
0.0
 11
325.4478118265301
 21
197.1040022493158
 31
0.0
  0
ARC
  5
225E
330
1F
100
AcDbEntity
  8
ｷｬｯﾌﾟ
100
AcDbCircle
 10
217.6272339820837
 20
470.5008913936289
 30
0.0
 40
2.0
100
AcDbArc
 50
90.0
 51
180.0000000000002
1001
GENIUS_GENODEF_13
1002
{
1000
HIER
1070
     0
1002
}
1002
{
1000
MANEDIT
1070
     0
1002
}
1002
{
1000
NOSEL
1070
     0
1002
}
1002
{
1000
BEHIND
1070
     0
1002
}
1002
{
1000
REACTOR
1002
}
1001
GENIUS_GENOBJ-N-FIL_13
1002
{
1000
OWNER
1000
GEN
1002
}
  0
LINE
  5
225F
330
1F
100
AcDbEntity
  8
ｷｬｯﾌﾟ
100
AcDbLine
 10
215.627233982084
 20
453.4208913936289
 30
0.0
 11
215.6272339820837
 21
470.5008913936289
 31
0.0
  0
ARC
  5
2260
330
1F
100
AcDbEntity
  8
ｷｬｯﾌﾟ
100
AcDbCircle
 10
217.627233982084
 20
453.4208913936289
 30
0.0
 40
2.0
100
AcDbArc
 50
180.0000000000002
 51
270.0
1001
GENIUS_GENODEF_13
1002
{
1000
HIER
1070
     0
1002
}
1002
{
1000
MANEDIT
1070
     0
1002
}
1002
{
1000
NOSEL
1070
     0
1002
}
1002
{
1000
BEHIND
1070
     0
1002
}
1002
{
1000
REACTOR
1002
}
1001
GENIUS_GENOBJ-N-FIL_13
1002
{
1000
OWNER
1000
GEN
1002
}
  0
ARC
  5
226D
330
1F
100
AcDbEntity
  8
ﾌﾞﾗｹｯﾄ
100
AcDbCircle
 10
224.6272339820837
 20
473.7667425627504
 30
0.0
 40
7.0
100
AcDbArc
 50
94.99999999999898
 51
180.0000000000004
1001
GENIUS_GENODEF_13
1002
{
1000
HIER
1070
     0
1002
}
1002
{
1000
MANEDIT
1070
     0
1002
}
1002
{
1000
NOSEL
1070
     0
1002
}
1002
{
1000
BEHIND
1070
     0
1002
}
1002
{
1000
OTHER
1070
     0
1002
}
1002
{
1000
REACTOR
1002
}
1001
GENIUS_GENOBJ-N-FIL_13
1002
{
1000
OWNER
1000
GEN
1002
}
  0
ARC
  5
2347
330
1F
100
AcDbEntity
  8
ｷｬｯﾌﾟ
100
AcDbCircle
 10
347.9005099028003
 20
216.3540022493156
 30
0.0
 40
2.0
100
AcDbArc
 50
359.9999999999998
 51
90.0
1001
GENIUS_GENODEF_13
1002
{
1000
HIER
1070
     0
1002
}
1002
{
1000
MANEDIT
1070
     0
1002
}
1002
{
1000
NOSEL
1070
     0
1002
}
1002
{
1000
BEHIND
1070
     0
1002
}
1002
{
1000
REACTOR
1002
}
1001
GENIUS_GENOBJ-N-FIL_13
1002
{
1000
OWNER
1000
GEN
1002
}
  0
LINE
  5
2348
330
1F
100
AcDbEntity
  8
ｷｬｯﾌﾟ
100
AcDbLine
 10
347.9005099028004
 20
218.3540022493156
 30
0.0
 11
330.8205099028004
 21
218.3540022493158
 31
0.0
  0
ARC
  5
2349
330
1F
100
AcDbEntity
  8
ｷｬｯﾌﾟ
100
AcDbCircle
 10
330.8205099028004
 20
216.3540022493158
 30
0.0
 40
2.0
100
AcDbArc
 50
90.0
 51
179.9999999999998
1001
GENIUS_GENODEF_13
1002
{
1000
HIER
1070
     0
1002
}
1002
{
1000
MANEDIT
1070
     0
1002
}
1002
{
1000
NOSEL
1070
     0
1002
}
1002
{
1000
BEHIND
1070
     0
1002
}
1002
{
1000
REACTOR
1002
}
1001
GENIUS_GENOBJ-N-FIL_13
1002
{
1000
OWNER
1000
GEN
1002
}
  0
LINE
  5
23B0
330
1F
100
AcDbEntity
  8
ﾌﾞﾗｹｯﾄ
100
AcDbLine
 10
348.3605099028009
 20
304.6464958949281
 30
0.0
 11
339.8605099028011
 21
304.6464958949282
 31
0.0
  0
LINE
  5
23CE
330
1F
100
AcDbEntity
  8
ﾌﾞﾗｹｯﾄ
100
AcDbLine
 10
330.3605099028004
 20
326.3964958949276
 30
0.0
 11
338.8605099028002
 21
326.3964958949276
 31
0.0
  0
LINE
  5
23D0
330
1F
100
AcDbEntity
  8
ﾌﾞﾗｹｯﾄ
100
AcDbLine
 10
348.3605099028006
 20
350.1464958949274
 30
0.0
 11
339.8605099028007
 21
350.1464958949273
 31
0.0
  0
LINE
  5
23D2
330
1F
100
AcDbEntity
  8
ﾌﾞﾗｹｯﾄ
100
AcDbLine
 10
348.3605099028006
 20
372.8964958949271
 30
0.0
 11
339.8605099028009
 21
372.8964958949271
 31
0.0
  0
LINE
  5
23D4
330
1F
100
AcDbEntity
  8
ﾌﾞﾗｹｯﾄ
100
AcDbLine
 10
348.3605099028006
 20
395.6464958949269
 30
0.0
 11
339.8605099028009
 21
395.6464958949269
 31
0.0
  0
LINE
  5
23D6
330
1F
100
AcDbEntity
  8
ﾌﾞﾗｹｯﾄ
100
AcDbLine
 10
348.3605099028004
 20
418.3964958949266
 30
0.0
 11
339.8605099028009
 21
418.3964958949266
 31
0.0
  0
LINE
  5
2437
330
1F
100
AcDbEntity
  8
ﾌﾞﾗｹｯﾄ
100
AcDbLine
 10
338.8605099028008
 20
439.6609934492904
 30
0.0
 11
338.8605099028011
 21
418.3964958949266
 31
0.0
  0
LINE
  5
2438
330
1F
100
AcDbEntity
  8
ﾌﾞﾗｹｯﾄ
100
AcDbLine
 10
339.8605099028009
 20
439.6609934492905
 30
0.0
 11
339.8605099028009
 21
418.3964958949266
 31
0.0
  0
LINE
  5
243A
330
1F
100
AcDbEntity
  8
ﾌﾞﾗｹｯﾄ
100
AcDbLine
 10
348.3605099028004
 20
417.3964958949266
 30
0.0
 11
339.8605099028009
 21
417.3964958949266
 31
0.0
  0
LINE
  5
243C
330
1F
100
AcDbEntity
  8
ﾌﾞﾗｹｯﾄ
100
AcDbLine
 10
348.3605099028006
 20
394.6464958949269
 30
0.0
 11
339.8605099028009
 21
394.6464958949268
 31
0.0
  0
LINE
  5
2442
330
1F
100
AcDbEntity
  8
ﾌﾞﾗｹｯﾄ
100
AcDbLine
 10
348.3605099028006
 20
371.8964958949271
 30
0.0
 11
339.8605099028011
 21
371.8964958949271
 31
0.0
  0
LINE
  5
2445
330
1F
100
AcDbEntity
  8
ﾌﾞﾗｹｯﾄ
100
AcDbLine
 10
348.3605099028009
 20
303.6464958949281
 30
0.0
 11
339.8605099028009
 21
303.6464958949283
 31
0.0
  0
LINE
  5
2449
330
1F
100
AcDbEntity
  8
ﾌﾞﾗｹｯﾄ
100
AcDbLine
 10
330.3605099028004
 20
327.3964958949276
 30
0.0
 11
338.8605099028004
 21
327.3964958949276
 31
0.0
  0
LINE
  5
244E
330
1F
100
AcDbEntity
  8
ﾌﾞﾗｹｯﾄ
100
AcDbLine
 10
348.3605099028006
 20
349.1464958949273
 30
0.0
 11
339.8605099028002
 21
349.1464958949273
 31
0.0
  0
LINE
  5
2453
330
1F
100
AcDbEntity
  8
ﾌﾞﾗｹｯﾄ
100
AcDbLine
 10
338.8605099028004
 20
303.6464958949283
 30
0.0
 11
338.8605099028008
 21
281.6392713033595
 31
0.0
  0
LINE
  5
2454
330
1F
100
AcDbEntity
  8
ﾌﾞﾗｹｯﾄ
100
AcDbLine
 10
338.8605099028002
 20
303.6464958949283
 30
0.0
 11
330.3605099028004
 21
303.6464958949286
 31
0.0
  0
LINE
  5
2455
330
1F
100
AcDbEntity
  8
ﾌﾞﾗｹｯﾄ
100
AcDbLine
 10
339.8605099028011
 20
303.6464958949284
 30
0.0
 11
339.8605099028009
 21
281.6390277039365
 31
0.0
  0
LINE
  5
2456
330
1F
100
AcDbEntity
  8
ﾌﾞﾗｹｯﾄ
100
AcDbLine
 10
338.8605099028002
 20
304.6464958949284
 30
0.0
 11
330.3605099028004
 21
304.6464958949286
 31
0.0
  0
LINE
  5
2457
330
1F
100
AcDbEntity
  8
ﾌﾞﾗｹｯﾄ
100
AcDbLine
 10
339.8605099028009
 20
327.3964958949276
 30
0.0
 11
348.3605099028006
 21
327.3964958949276
 31
0.0
  0
LINE
  5
2458
330
1F
100
AcDbEntity
  8
ﾌﾞﾗｹｯﾄ
100
AcDbLine
 10
338.8605099028004
 20
326.3964958949276
 30
0.0
 11
338.8605099028004
 21
304.6464958949283
 31
0.0
  0
LINE
  5
2459
330
1F
100
AcDbEntity
  8
ﾌﾞﾗｹｯﾄ
100
AcDbLine
 10
339.8605099028009
 20
326.3964958949276
 30
0.0
 11
348.3605099028006
 21
326.3964958949276
 31
0.0
  0
LINE
  5
245A
330
1F
100
AcDbEntity
  8
ﾌﾞﾗｹｯﾄ
100
AcDbLine
 10
339.8605099028011
 20
326.3964958949276
 30
0.0
 11
339.8605099028009
 21
304.6464958949282
 31
0.0
  0
LINE
  5
245B
330
1F
100
AcDbEntity
  8
ﾌﾞﾗｹｯﾄ
100
AcDbLine
 10
338.8605099028004
 20
350.1464958949274
 30
0.0
 11
330.3605099028004
 21
350.1464958949274
 31
0.0
  0
LINE
  5
245C
330
1F
100
AcDbEntity
  8
ﾌﾞﾗｹｯﾄ
100
AcDbLine
 10
338.8605099028004
 20
349.1464958949274
 30
0.0
 11
338.8605099028004
 21
327.3964958949276
 31
0.0
  0
LINE
  5
245D
330
1F
100
AcDbEntity
  8
ﾌﾞﾗｹｯﾄ
100
AcDbLine
 10
339.8605099028007
 20
349.1464958949273
 30
0.0
 11
339.8605099028011
 21
327.3964958949276
 31
0.0
  0
LINE
  5
245E
330
1F
100
AcDbEntity
  8
ﾌﾞﾗｹｯﾄ
100
AcDbLine
 10
338.8605099028004
 20
349.1464958949273
 30
0.0
 11
330.3605099028004
 21
349.1464958949273
 31
0.0
  0
LINE
  5
245F
330
1F
100
AcDbEntity
  8
ﾌﾞﾗｹｯﾄ
100
AcDbLine
 10
338.8605099028004
 20
372.8964958949271
 30
0.0
 11
330.3605099028004
 21
372.8964958949271
 31
0.0
  0
LINE
  5
2460
330
1F
100
AcDbEntity
  8
ﾌﾞﾗｹｯﾄ
100
AcDbLine
 10
338.8605099028004
 20
371.8964958949271
 30
0.0
 11
338.8605099028006
 21
350.1464958949274
 31
0.0
  0
LINE
  5
2461
330
1F
100
AcDbEntity
  8
ﾌﾞﾗｹｯﾄ
100
AcDbLine
 10
339.8605099028009
 20
371.8964958949271
 30
0.0
 11
339.8605099028011
 21
350.1464958949274
 31
0.0
  0
LINE
  5
2462
330
1F
100
AcDbEntity
  8
ﾌﾞﾗｹｯﾄ
100
AcDbLine
 10
338.8605099028008
 20
371.8964958949271
 30
0.0
 11
330.3605099028004
 21
371.8964958949271
 31
0.0
  0
LINE
  5
2463
330
1F
100
AcDbEntity
  8
ﾌﾞﾗｹｯﾄ
100
AcDbLine
 10
338.8605099028006
 20
395.6464958949269
 30
0.0
 11
330.3605099028004
 21
395.6464958949269
 31
0.0
  0
LINE
  5
2464
330
1F
100
AcDbEntity
  8
ﾌﾞﾗｹｯﾄ
100
AcDbLine
 10
338.8605099028006
 20
394.6464958949268
 30
0.0
 11
330.3605099028004
 21
394.6464958949269
 31
0.0
  0
LINE
  5
2465
330
1F
100
AcDbEntity
  8
ﾌﾞﾗｹｯﾄ
100
AcDbLine
 10
338.8605099028006
 20
394.6464958949268
 30
0.0
 11
338.8605099028006
 21
372.8964958949271
 31
0.0
  0
LINE
  5
2466
330
1F
100
AcDbEntity
  8
ﾌﾞﾗｹｯﾄ
100
AcDbLine
 10
339.8605099028009
 20
394.6464958949268
 30
0.0
 11
339.8605099028011
 21
372.8964958949271
 31
0.0
  0
LINE
  5
2467
330
1F
100
AcDbEntity
  8
ﾌﾞﾗｹｯﾄ
100
AcDbLine
 10
338.8605099028006
 20
418.3964958949266
 30
0.0
 11
330.3605099028004
 21
418.3964958949266
 31
0.0
  0
LINE
  5
2468
330
1F
100
AcDbEntity
  8
ﾌﾞﾗｹｯﾄ
100
AcDbLine
 10
338.8605099028006
 20
417.3964958949266
 30
0.0
 11
338.8605099028006
 21
395.6464958949269
 31
0.0
  0
LINE
  5
2469
330
1F
100
AcDbEntity
  8
ﾌﾞﾗｹｯﾄ
100
AcDbLine
 10
338.8605099028004
 20
417.3964958949266
 30
0.0
 11
330.3605099028004
 21
417.3964958949266
 31
0.0
  0
LINE
  5
246A
330
1F
100
AcDbEntity
  8
ﾌﾞﾗｹｯﾄ
100
AcDbLine
 10
339.8605099028009
 20
417.3964958949266
 30
0.0
 11
339.8605099028009
 21
395.6464958949269
 31
0.0
  0
INSERT
  5
26DA
330
1F
100
AcDbEntity
  8
ﾌﾞﾗｹｯﾄ
370
     0
100
AcDbBlockReference
  2
TK-A4
 10
0.0
 20
0.0
 30
0.0
 41
2.5
 42
2.5
 43
2.5
1001
GENIUS_GENOREF_13
1005
2748
1001
GENIUS_GENODEF_13
1002
{
1000
HIER
1070
     0
1002
}
1002
{
1000
MANEDIT
1070
     0
1002
}
1002
{
1000
NOSEL
1070
     0
1002
}
1002
{
1000
BEHIND
1070
     0
1002
}
1002
{
1000
OTHER
1070
     0
1002
}
1002
{
1000
REACTOR
1002
}
1001
GENIUS_GENOBJ-N-SDF_13
1002
{
1000
OWNER
1000
GEN
1002
}
1001
GENIUS_GENSCREG_15
1040
2.5
1040
1.0
1011
0.0
1021
0.0
1031
0.0
1011
482.5
1021
700.0
1031
0.0
1070
     3
  0
INSERT
  5
273A
330
1F
100
AcDbEntity
  8
0
370
     0
100
AcDbBlockReference
 66
     1
  2
TK-TITLE
 10
482.5
 20
0.0
 30
0.0
 41
2.5
 42
2.5
 43
2.5
1001
GENIUS_GENOREF_13
1005
2748
  0
ATTRIB
  5
273C
330
273A
100
AcDbEntity
  8
0
100
AcDbText
 10
6.702017005725146
 20
9.97085634402666
 30
0.0
 40
7.5
  1
2011/04/22
 72
     1
 11
31.95701208446531
 21
8.97085634402666
 31
0.0
100
AcDbAttribute
  2
GEN-TITLE-DAT
 70
     0
 74
     1
  0
ATTRIB
  5
273D
330
273A
100
AcDbEntity
  8
0
100
AcDbText
 10
20.00249079216002
 20
71.74999999999994
 30
0.0
 40
7.5
  1
1:2.5
 72
     2
 11
37.93815096393985
 21
70.74999999999994
 31
0.0
100
AcDbAttribute
  2
GEN-TITLE-SCA
 70
     0
 74
     1
  0
ATTRIB
  5
273E
330
273A
100
AcDbEntity
  8
0
100
AcDbText
 10
43.46814771847618
 20
40.49999999999985
 30
0.0
 40
7.5
  1

 72
     2
 11
43.46814771847618
 21
39.49999999999985
 31
0.0
100
AcDbAttribute
  2
GEN-TITLE-QTY
 70
     0
 74
     1
  0
ATTRIB
  5
273F
330
273A
100
AcDbEntity
  8
0
100
AcDbText
 10
110.0953310411771
 20
83.24999999999977
 30
0.0
 40
7.5
  1

100
AcDbAttribute
  2
GEN-TITLE-MAT2
 70
     0
  0
ATTRIB
  5
2740
330
273A
100
AcDbEntity
  8
0
100
AcDbText
 10
110.0953310411771
 20
108.2499999999998
 30
0.0
 40
7.5
  1

100
AcDbAttribute
  2
GEN-TITLE-MAT1
 70
     0
  0
ATTRIB
  5
2741
330
273A
100
AcDbEntity
  8
0
100
AcDbText
 10
272.5
 20
4.999999999999893
 30
0.0
 40
7.5
  1

100
AcDbAttribute
  2
GEN-TITLE-NR1
 70
     0
  0
ATTRIB
  5
2742
330
273A
100
AcDbEntity
  8
0
100
AcDbText
 10
272.5
 20
22.87499999999987
 30
0.0
 40
6.25
  1
SHB型携帯用ﾊﾝﾄﾞﾙﾌﾞﾗｹｯﾄ
100
AcDbAttribute
  2
GEN-TITLE-DES2
 70
     0
  0
ATTRIB
  5
2743
330
273A
100
AcDbEntity
  8
0
100
AcDbText
 10
272.1437024603667
 20
32.06976081410943
 30
0.0
 40
8.75
  1
SHB-220
100
AcDbAttribute
  2
GEN-TITLE-DES1
 70
     0
  0
ATTRIB
  5
2744
330
273A
100
AcDbEntity
  8
0
100
AcDbText
 10
462.4942270261353
 20
4.26297358598759
 30
0.0
 40
6.25
  1

100
AcDbAttribute
  2
GEN-TITLE-NR2
 70
     0
  0
SEQEND
  5
273B
330
273A
100
AcDbEntity
  8
0
370
     0
  0
POINT
  5
2748
330
1F
100
AcDbEntity
  8
0
 60
     1
100
AcDbPoint
 10
0.0
 20
0.0
 30
0.0
1001
GENIUS_GENOBJ-N-TIT_13
1002
{
1000
OWNER
1000
GEN
1002
}
1001
GENIUS_GENODEF_13
1002
{
1000
HIER
1070
     1
1002
}
1002
{
1000
MANEDIT
1070
     0
1002
}
1002
{
1000
NOSEL
1070
     0
1002
}
1002
{
1000
BEHIND
1070
     0
1002
}
1002
{
1000
OTHER
1070
     0
1002
}
1002
{
1000
REACTOR
1002
}
1001
GENIUS_GENOENT_13
1002
{
1000
MYREF
1005
2748
1002
}
1002
{
1000
GRP
1005
0
1002
}
1001
GENIUS_GENOLIS_13
1002
{
1000
ENT
1005
273A
1005
26DA
1005
2DE9
1002
}
1001
GENIUS_GENTITLE_13
1002
{
1000
BORDER
1000
TK-A4
1002
}
1002
{
1000
TITLE
1000
TK-TITLE
1002
}
1002
{
1000
SCALE
1000
1:2.5
1002
}
1002
{
1000
TITLESTD
1000
ISO
1002
}
1002
{
1000
HRA
1005
26DA
1002
}
1002
{
1000
HTIT
1005
273A
1002
}
1002
{
1000
GENIUSID
1005
2748
1002
}
1002
{
1000
INVTXTID
1005
0
1002
}
1002
{
1000
UNCHG
1002
{
1000
GEN-TITLE-SIZ
1000
GEN-TITLE-SCA
1002
}
1002
}
  0
INSERT
  5
2794
102
{ACAD_REACTORS
330
2793
102
}
330
1F
100
AcDbEntity
  8
AM_12
100
AcDbBlockReference
  2
*S11
 10
0.0
 20
0.0
 30
0.0
  0
INSERT
  5
2799
102
{ACAD_REACTORS
330
2798
102
}
330
1F
100
AcDbEntity
  8
AM_12
100
AcDbBlockReference
  2
*S12
 10
0.0
 20
0.0
 30
0.0
  0
INSERT
  5
279D
102
{ACAD_REACTORS
330
279C
102
}
330
1F
100
AcDbEntity
  8
AM_12
100
AcDbBlockReference
  2
*S13
 10
0.0
 20
0.0
 30
0.0
  0
INSERT
  5
27A1
102
{ACAD_REACTORS
330
27A0
102
}
330
1F
100
AcDbEntity
  8
AM_12
100
AcDbBlockReference
  2
*S14
 10
0.0
 20
0.0
 30
0.0
  0
INSERT
  5
27AB
102
{ACAD_REACTORS
330
27AA
102
}
330
1F
100
AcDbEntity
  8
AM_12
100
AcDbBlockReference
  2
*S15
 10
0.0
 20
0.0
 30
0.0
  0
INSERT
  5
27B9
102
{ACAD_REACTORS
330
27B8
102
}
330
1F
100
AcDbEntity
  8
AM_12
100
AcDbBlockReference
  2
*S16
 10
0.0
 20
0.0
 30
0.0
  0
INSERT
  5
27BD
102
{ACAD_REACTORS
330
27BC
102
}
330
1F
100
AcDbEntity
  8
AM_12
100
AcDbBlockReference
  2
*S17
 10
0.0
 20
0.0
 30
0.0
  0
INSERT
  5
27C2
102
{ACAD_REACTORS
330
27C1
102
}
330
1F
100
AcDbEntity
  8
AM_12
100
AcDbBlockReference
  2
*S18
 10
0.0
 20
0.0
 30
0.0
  0
INSERT
  5
2ABD
102
{ACAD_REACTORS
330
2796
102
}
330
1F
100
AcDbEntity
  8
AM_5
100
AcDbBlockReference
  2
*S19
 10
0.0
 20
0.0
 30
0.0
  0
INSERT
  5
2ABF
102
{ACAD_REACTORS
330
279B
102
}
330
1F
100
AcDbEntity
  8
AM_5
100
AcDbBlockReference
  2
*S20
 10
0.0
 20
0.0
 30
0.0
  0
INSERT
  5
2AC0
102
{ACAD_REACTORS
330
27A3
102
}
330
1F
100
AcDbEntity
  8
AM_5
100
AcDbBlockReference
  2
*S21
 10
0.0
 20
0.0
 30
0.0
  0
INSERT
  5
2AC1
102
{ACAD_REACTORS
330
279F
102
}
330
1F
100
AcDbEntity
  8
AM_5
100
AcDbBlockReference
  2
*S22
 10
0.0
 20
0.0
 30
0.0
  0
DIMENSION
  5
2B23
102
{ACAD_XDICTIONARY
360
2B2E
102
}
102
{ACAD_REACTORS
330
2B2F
102
}
330
1F
100
AcDbEntity
  8
AM_5
100
AcDbDimension
  2
*D8
 10
71.89810132397145
 20
261.6464958949316
 30
0.0
 11
63.77224010349896
 21
371.6507680597195
 31
0.0
 70
    32
 71
     5
 42
220.0085443295758
  3
AM_ISO$0
100
AcDbAlignedDimension
 13
115.3939580613675
 23
481.6550402245074
 33
0.0
 14
110.8939580613675
 24
261.6464958949316
 34
0.0
 50
90.0
100
AcDbRotatedDimension
1001
ACAD
1000
DSTYLE
1002
{
1070
    40
1040
2.5
1070
   271
1070
     0
1002
}
  0
DIMENSION
  5
2B59
102
{ACAD_XDICTIONARY
360
2B64
102
}
102
{ACAD_REACTORS
330
2B65
102
}
330
1F
100
AcDbEntity
  8
AM_5
100
AcDbDimension
  2
*D9
 10
127.8939580613675
 20
230.6464948849316
 30
0.0
 11
115.3939580613675
 21
238.7723561054041
 31
0.0
 70
    32
 71
     5
 42
25.0
  3
AM_ISO$0
100
AcDbAlignedDimension
 13
102.8939580613675
 23
269.6464958949317
 33
0.0
 14
127.8939580613675
 24
269.6464958949317
 34
0.0
 50
0.0000000000002036
100
AcDbRotatedDimension
1001
ACAD
1000
DSTYLE
1002
{
1070
    40
1040
2.5
1070
   271
1070
     0
1002
}
  0
CIRCLE
  5
2D0B
330
1F
100
AcDbEntity
  8
ﾌﾞﾗｹｯﾄ
100
AcDbCircle
 10
339.3605099028004
 20
274.1464958949317
 30
0.0
 40
2.25
  0
LINE
  5
2D27
330
1F
100
AcDbEntity
  8
ﾌﾞﾗｹｯﾄ
100
AcDbLine
 10
237.3772339820833
 20
278.5608894649024
 30
0.0
 11
249.3772339820834
 21
278.5608894649024
 31
0.0
  0
LINE
  5
2D28
330
1F
100
AcDbEntity
  8
ﾌﾞﾗｹｯﾄ
100
AcDbLine
 10
249.3772339820834
 20
278.5608894649024
 30
0.0
 11
249.3772339820834
 21
263.2464958949317
 31
0.0
  0
LINE
  5
2D29
330
1F
100
AcDbEntity
  8
ﾌﾞﾗｹｯﾄ
100
AcDbLine
 10
249.3772339820834
 20
263.2464958949317
 30
0.0
 11
237.3772339820833
 21
263.2464958949317
 31
0.0
  0
LINE
  5
2D34
330
1F
100
AcDbEntity
  8
ﾌﾞﾗｹｯﾄ
100
AcDbLine
 10
249.3772339820834
 20
274.0676133149001
 30
0.0
 11
237.3772339820833
 21
274.0676133149001
 31
0.0
  0
LINE
  5
2DC4
330
1F
100
AcDbEntity
  8
ﾌﾞﾗｹｯﾄ
100
AcDbLine
 10
328.4605099028016
 20
196.6040022493158
 30
0.0
 11
328.4605099028016
 21
184.6040022493158
 31
0.0
  0
LINE
  5
2DC5
330
1F
100
AcDbEntity
  8
ﾌﾞﾗｹｯﾄ
100
AcDbLine
 10
328.4605099028016
 20
184.6040022493158
 30
0.0
 11
338.5105099028001
 21
184.6040022493158
 31
0.0
  0
LINE
  5
2DD1
330
1F
100
AcDbEntity
  8
ﾌﾞﾗｹｯﾄ
100
AcDbLine
 10
338.5105099028003
 20
184.6040022493158
 30
0.0
 11
338.5105099028003
 21
196.6040022493158
 31
0.0
  0
LINE
  5
2DD2
330
1F
100
AcDbEntity
  8
ﾌﾞﾗｹｯﾄ
100
AcDbLine
 10
340.2105099028008
 20
196.6040022493158
 30
0.0
 11
340.2105099028008
 21
184.6040022493158
 31
0.0
  0
LINE
  5
2DD3
330
1F
100
AcDbEntity
  8
ﾌﾞﾗｹｯﾄ
100
AcDbLine
 10
340.2105099028008
 20
184.6040022493158
 30
0.0
 11
350.2605099028013
 21
184.6040022493158
 31
0.0
  0
LINE
  5
2DD4
330
1F
100
AcDbEntity
  8
ﾌﾞﾗｹｯﾄ
100
AcDbLine
 10
350.2605099028013
 20
184.6040022493158
 30
0.0
 11
350.2605099028014
 21
196.6040022493158
 31
0.0
  0
INSERT
  5
2F46
102
{ACAD_REACTORS
330
278D
102
}
330
1F
100
AcDbEntity
  8
ﾌﾞﾗｹｯﾄ
100
AcDbBlockReference
  2
*S23
 10
0.0
 20
0.0
 30
0.0
  0
VIEWPORT
  5
17C
102
{ACAD_XDICTIONARY
360
3301
102
}
330
23
100
AcDbEntity
 67
     1
  8
0
100
AcDbViewport
 10
133.3499908447265
 20
101.5999970436096
 30
0.0
 40
370.2266912936524
 41
228.4221935424805
 68
     1
 69
     1
 12
133.3499908447265
 22
101.5999970436096
 13
0.0
 23
0.0
 14
10.0
 24
10.0
 15
10.0
 25
10.0
 16
0.0
 26
0.0
 36
1.0
 17
0.0
 27
0.0
 37
0.0
 42
50.0
 43
0.0
 44
0.0
 45
228.4221935424805
 50
0.0
 51
0.0
 72
   100
 90
    32800
  1

281
     0
 71
     1
 74
     0
110
0.0
120
0.0
130
0.0
111
1.0
121
0.0
131
0.0
112
0.0
122
1.0
132
0.0
 79
     0
146
0.0
  0
ENDSEC
  0
SECTION
  2
OBJECTS
  0
DICTIONARY
  5
C
330
0
100
AcDbDictionary
281
     1
  3
ACAD_COLOR
350
BE
  3
ACAD_GROUP
350
D
  3
ACAD_LAYOUT
350
1A
  3
ACAD_MATERIAL
350
BD
  3
ACAD_MLINESTYLE
350
17
  3
ACAD_PLOTSETTINGS
350
19
  3
ACAD_PLOTSTYLENAME
350
E
  3
ACAD_TABLESTYLE
350
269E
  3
ACDBHEADERROUNDTRIPXREC
350
32F8
  3
AcDbVariableDictionary
350
94
  3
AcmDictionary
350
5B
  3
AMG
350
41
  3
AMGSNAPSETTINGS
350
220
  3
DWGPROPS
350
32F7
  0
DICTIONARY
  5
35D
330
2
100
AcDbDictionary
280
     1
281
     1
  3
ACAD_LAYERFILTERS
360
316D
  3
ACAD_LAYERSTATES
360
35E
  3
ACLYDICTIONARY
360
316C
  3
AMLAYER_GROUPCOLORS
360
4A4
  0
DICTIONARY
  5
8F
330
1F
100
AcDbDictionary
280
     1
281
     1
  3
ACAD_SORTENTS
360
29CF
  0
DICTIONARY
  5
219
330
210
100
AcDbDictionary
280
     1
281
     1
  0
DICTIONARY
  5
282
330
22D
100
AcDbDictionary
280
     1
281
     1
  0
DICTIONARY
  5
26D0
330
26C8
100
AcDbDictionary
280
     1
281
     1
  0
DICTIONARY
  5
2735
330
26DC
100
AcDbDictionary
280
     1
281
     1
  0
DICTIONARY
  5
2DE5
330
2DDD
100
AcDbDictionary
280
     1
281
     1
  0
DICTIONARY
  5
32FF
330
178
100
AcDbDictionary
280
     1
281
     1
  3
ACAD_XREC_ROUNDTRIP
360
3300
  0
DICTIONARY
  5
2B2E
330
2B23
100
AcDbDictionary
280
     1
281
     1
  3
ACAD_DIMASSOC
360
2B2F
  0
DICTIONARY
  5
2B64
330
2B59
100
AcDbDictionary
280
     1
281
     1
  3
ACAD_DIMASSOC
360
2B65
  0
DICTIONARY
  5
3301
330
17C
100
AcDbDictionary
280
     1
281
     1
  3
ACAD_XREC_ROUNDTRIP
360
3302
  0
DICTIONARY
  5
BE
102
{ACAD_REACTORS
330
C
102
}
330
C
100
AcDbDictionary
281
     1
  0
DICTIONARY
  5
D
102
{ACAD_REACTORS
330
C
102
}
330
C
100
AcDbDictionary
281
     1
  0
DICTIONARY
  5
1A
102
{ACAD_REACTORS
330
C
102
}
330
C
100
AcDbDictionary
281
     1
  3
Model
350
22
  3
レイアウト1
350
1E
  3
レイアウト2
350
26
  0
DICTIONARY
  5
BD
102
{ACAD_REACTORS
330
C
102
}
330
C
100
AcDbDictionary
281
     1
  0
DICTIONARY
  5
17
102
{ACAD_REACTORS
330
C
102
}
330
C
100
AcDbDictionary
281
     1
  3
Standard
350
18
  0
DICTIONARY
  5
19
102
{ACAD_REACTORS
330
C
102
}
330
C
100
AcDbDictionary
281
     1
  0
ACDBDICTIONARYWDFLT
  5
E
102
{ACAD_REACTORS
330
C
102
}
330
C
100
AcDbDictionary
281
     1
  3
Normal
350
F
100
AcDbDictionaryWithDefault
340
F
  0
DICTIONARY
  5
269E
102
{ACAD_REACTORS
330
C
102
}
330
C
100
AcDbDictionary
281
     1
  3
Standard
350
269F
  0
DICTIONARY
  5
32F8
102
{ACAD_REACTORS
330
C
102
}
330
C
100
AcDbDictionary
281
     1
  0
DICTIONARY
  5
94
102
{ACAD_REACTORS
330
C
102
}
330
C
100
AcDbDictionary
281
     1
  3
CTABLESTYLE
350
276A
  3
DIMASSOC
350
96
  3
INDEXCTL
350
95
  3
PROJECTNAME
350
32F5
  0
DICTIONARY
  5
5B
102
{ACAD_REACTORS
330
C
102
}
330
C
100
AcDbDictionary
281
     1
  3
AcmBOM
350
5AE
  3
AcmStdDictionary
350
61
  3
AMDTSECTSYM_ARROWCOLOR
350
26B9
  0
DICTIONARY
  5
41
102
{ACAD_REACTORS
330
C
102
}
330
C
100
AcDbDictionary
281
     1
  0
DICTIONARY
  5
220
102
{ACAD_REACTORS
330
C
102
}
330
C
100
AcDbDictionary
281
     1
  0
XRECORD
  5
32F7
102
{ACAD_REACTORS
330
C
102
}
330
C
100
AcDbXrecord
280
     1
  1
DWGPROPS COOKIE
  2

  3

  4

  6

  7

  8

  9

300
AmdtFileType=84
301
=
302
=
303
=
304
=
305
=
306
=
307
=
308
=
309
=
 40
0.261446550925926
 41
2453259.38413809
 42
2455675.495804931
  1

 90
        1
  0
DICTIONARY
  5
316D
102
{ACAD_REACTORS
330
35D
102
}
330
35D
100
AcDbDictionary
281
     1
  0
DICTIONARY
  5
35E
102
{ACAD_REACTORS
330
35D
102
}
330
35D
100
AcDbDictionary
281
     1
  3
takachi1
350
35F
  0
DICTIONARY
  5
316C
102
{ACAD_REACTORS
330
35D
102
}
330
35D
100
AcDbDictionary
281
     1
1001
ACAD
1000
<All
  0
DICTIONARY
  5
4A4
102
{ACAD_REACTORS
330
35D
102
}
330
35D
100
AcDbDictionary
280
     1
281
     1
  0
SORTENTSTABLE
  5
29CF
102
{ACAD_REACTORS
330
8F
102
}
330
8F
100
AcDbSortentsTable
330
1F
331
1D22
  5
1D22
331
1E08
  5
1E08
331
1ED6
  5
1ED6
331
1E8F
  5
1E8F
331
1E10
  5
1E10
331
215D
  5
215D
331
1EDE
  5
1EDE
331
1E97
  5
1E97
331
1E18
  5
1E18
331
2185
  5
2185
331
1EE6
  5
1EE6
331
1E20
  5
1E20
331
1EEE
  5
1EEE
331
2462
  5
2462
331
246A
  5
246A
331
1C3B
  5
1C3B
331
1E28
  5
1E28
331
218D
  5
218D
331
1EAF
  5
1EAF
331
1E30
  5
1E30
331
2195
  5
2195
331
1EB7
  5
1EB7
331
1E38
  5
1E38
331
1E01
  5
1E01
331
219D
  5
219D
331
1ECF
  5
1ECF
331
21A5
  5
21A5
331
2453
  5
2453
331
26DA
  5
26DA
331
245B
  5
245B
331
1D23
  5
1D23
331
1E09
  5
1E09
331
23D4
  5
23D4
331
1ED7
  5
1ED7
331
1E90
  5
1E90
331
1E11
  5
1E11
331
1EDF
  5
1EDF
331
1E98
  5
1E98
331
1E19
  5
1E19
331
243C
  5
243C
331
1EE7
  5
1EE7
331
1E21
  5
1E21
331
2186
  5
2186
331
1EEF
  5
1EEF
331
226D
  5
226D
331
2463
  5
2463
331
1C3C
  5
1C3C
331
1DEA
  5
1DEA
331
1E29
  5
1E29
331
1E31
  5
1E31
331
218E
  5
218E
331
1FDF
  5
1FDF
331
1EB8
  5
1EB8
331
2196
  5
2196
331
1FE7
  5
1FE7
331
1E02
  5
1E02
331
219E
  5
219E
331
21A6
  5
21A6
331
2454
  5
2454
331
245C
  5
245C
331
1D24
  5
1D24
331
1ED0
  5
1ED0
331
1E89
  5
1E89
331
1E0A
  5
1E0A
331
1ED8
  5
1ED8
331
1E91
  5
1E91
331
1E12
  5
1E12
331
2206
  5
2206
331
1EE0
  5
1EE0
331
1E99
  5
1E99
331
1E1A
  5
1E1A
331
225E
  5
225E
331
1EE8
  5
1EE8
331
1E22
  5
1E22
331
2187
  5
2187
331
2464
  5
2464
331
1C3D
  5
1C3D
331
1EF0
  5
1EF0
331
1EA9
  5
1EA9
331
1E2A
  5
1E2A
331
1DEB
  5
1DEB
331
1E32
  5
1E32
331
218F
  5
218F
331
1EB9
  5
1EB9
331
1DFB
  5
1DFB
331
2197
  5
2197
331
1FE8
  5
1FE8
331
1E03
  5
1E03
331
23CE
  5
23CE
331
21A7
  5
21A7
331
273A
  5
273A
331
2445
  5
2445
331
2799
  5
2799
331
27A1
  5
27A1
331
2455
  5
2455
331
245D
  5
245D
331
1D25
  5
1D25
331
1E8A
  5
1E8A
331
1E0B
  5
1E0B
331
2148
  5
2148
331
23D6
  5
23D6
331
1ED9
  5
1ED9
331
1E92
  5
1E92
331
1E13
  5
1E13
331
2158
  5
2158
331
1EE1
  5
1EE1
331
1E9A
  5
1E9A
331
1E1B
  5
1E1B
331
225F
  5
225F
331
1EE9
  5
1EE9
331
1E23
  5
1E23
331
27B9
  5
27B9
331
2465
  5
2465
331
1C3E
  5
1C3E
331
1EF1
  5
1EF1
331
1EAA
  5
1EAA
331
1DEC
  5
1DEC
331
1E2B
  5
1E2B
331
2188
  5
2188
331
2347
  5
2347
331
1EB2
  5
1EB2
331
1DF4
  5
1DF4
331
1E33
  5
1E33
331
2190
  5
2190
331
1EBA
  5
1EBA
331
2198
  5
2198
331
1FE9
  5
1FE9
331
1ECA
  5
1ECA
331
1E04
  5
1E04
331
21A0
  5
21A0
331
244E
  5
244E
331
2456
  5
2456
331
245E
  5
245E
331
1D26
  5
1D26
331
1E8B
  5
1E8B
331
1E0C
  5
1E0C
331
1EDA
  5
1EDA
331
1E93
  5
1E93
331
1E14
  5
1E14
331
2437
  5
2437
331
1EE2
  5
1EE2
331
1E9B
  5
1E9B
331
1E1C
  5
1E1C
331
2260
  5
2260
331
1E24
  5
1E24
331
2466
  5
2466
331
27C2
  5
27C2
331
1C3F
  5
1C3F
331
1EAB
  5
1EAB
331
1E2C
  5
1E2C
331
1DED
  5
1DED
331
2189
  5
2189
331
1EB3
  5
1EB3
331
1E34
  5
1E34
331
1DF5
  5
1DF5
331
2191
  5
2191
331
2348
  5
2348
331
1EBB
  5
1EBB
331
1DFD
  5
1DFD
331
23B0
  5
23B0
331
1ECB
  5
1ECB
331
1E05
  5
1E05
331
21A1
  5
21A1
331
2457
  5
2457
331
27AB
  5
27AB
331
245F
  5
245F
331
1E0D
  5
1E0D
331
23D0
  5
23D0
331
1EDB
  5
1EDB
331
1E94
  5
1E94
331
1E15
  5
1E15
331
1EE3
  5
1EE3
331
1E1D
  5
1E1D
331
2182
  5
2182
331
2438
  5
2438
331
1E25
  5
1E25
331
2467
  5
2467
331
1EAC
  5
1EAC
331
1DEE
  5
1DEE
331
1E2D
  5
1E2D
331
218A
  5
218A
331
1EB4
  5
1EB4
331
1DF6
  5
1DF6
331
1E35
  5
1E35
331
2192
  5
2192
331
2349
  5
2349
331
219A
  5
219A
331
1FE3
  5
1FE3
331
1ECC
  5
1ECC
331
1E06
  5
1E06
331
21A2
  5
21A2
331
2794
  5
2794
331
2458
  5
2458
331
1C40
  5
1C40
331
1D20
  5
1D20
331
1ED4
  5
1ED4
331
1E8D
  5
1E8D
331
1E0E
  5
1E0E
331
1EDC
  5
1EDC
331
1E16
  5
1E16
331
2183
  5
2183
331
1E1E
  5
1E1E
331
1EE4
  5
1EE4
331
1E26
  5
1E26
331
1EEC
  5
1EEC
331
2460
  5
2460
331
2468
  5
2468
331
218B
  5
218B
331
1E2E
  5
1E2E
331
1DEF
  5
1DEF
331
1EAD
  5
1EAD
331
2193
  5
2193
331
1FDC
  5
1FDC
331
1E36
  5
1E36
331
1DF7
  5
1DF7
331
1EB5
  5
1EB5
331
1DFF
  5
1DFF
331
21A3
  5
21A3
331
1E07
  5
1E07
331
1E86
  5
1E86
331
2449
  5
2449
331
279D
  5
279D
331
2459
  5
2459
331
1C41
  5
1C41
331
1D21
  5
1D21
331
23D2
  5
23D2
331
1ED5
  5
1ED5
331
1E0F
  5
1E0F
331
1E8E
  5
1E8E
331
1EDD
  5
1EDD
331
1E17
  5
1E17
331
1E96
  5
1E96
331
2184
  5
2184
331
243A
  5
243A
331
1E1F
  5
1E1F
331
1EE5
  5
1EE5
331
1E27
  5
1E27
331
1EED
  5
1EED
331
2461
  5
2461
331
27BD
  5
27BD
331
2469
  5
2469
331
1C3A
  5
1C3A
331
1DE8
  5
1DE8
331
218C
  5
218C
331
1E2F
  5
1E2F
331
1EAE
  5
1EAE
331
2194
  5
2194
331
1EB6
  5
1EB6
331
219C
  5
219C
331
1E00
  5
1E00
331
1E87
  5
1E87
331
2442
  5
2442
331
245A
  5
245A
331
1C42
  5
1C42
  0
XRECORD
  5
3300
102
{ACAD_REACTORS
330
32FF
102
}
330
32FF
100
AcDbXrecord
280
     1
102
SHADEPLOT
 70
     0
  0
DIMASSOC
  5
2B2F
102
{ACAD_REACTORS
330
2B2E
102
}
330
2B2E
100
AcDbDimAssoc
330
2B23
 90
        2
 70
     0
 71
     0
  1
AcDbOsnapPointRef
 72
     1
331
1EDE
 73
     0
 91
        0
 40
0.0
 10
0.0
 20
0.0
 30
2.000000000000000E+50
 75
     0
  0
DIMASSOC
  5
2B65
102
{ACAD_REACTORS
330
2B64
102
}
330
2B64
100
AcDbDimAssoc
330
2B59
 90
        3
 70
     0
 71
     0
  1
AcDbOsnapPointRef
 72
    13
331
1EEC
 73
     0
 91
        0
 40
0.0
 10
0.0
 20
0.0
 30
2.000000000000000E+50
 75
     0
  1
AcDbOsnapPointRef
 72
    13
331
1EED
 73
     0
 91
        0
 40
0.0
 10
0.0
 20
0.0
 30
2.000000000000000E+50
 75
     0
  0
XRECORD
  5
3302
102
{ACAD_REACTORS
330
3301
102
}
330
3301
100
AcDbXrecord
280
     1
102
SHADEPLOT
 70
     0
  0
LAYOUT
  5
22
102
{ACAD_XDICTIONARY
360
32FB
102
}
102
{ACAD_REACTORS
330
1A
102
}
330
1A
100
AcDbPlotSettings
  1

  2
RICOH IPSiO CX7200 RPCS
  4
A3
  6
AM_VIEW1
 40
5.873749732971191
 41
5.873747825622558
 42
5.873748779296875
 43
5.873748779296875
 44
296.9259948730469
 45
419.9466552734374
 46
2.589999999999999
 47
4.099999999999999
 48
10.0
 49
0.0
140
410.0
141
280.0
142
1.0
143
1.0
 70
 11956
 72
     1
 73
     1
 74
     4
  7
takachi-1.ctb
 75
    16
147
1.0
148
-10.0
149
0.0
100
AcDbLayout
  1
Model
 70
     1
 71
     0
 10
0.0
 20
0.0
 11
12.0
 21
9.0
 12
0.0
 22
0.0
 32
0.0
 14
0.0
 24
0.0
 34
0.0
 15
0.0
 25
0.0
 35
0.0
146
0.0
 13
0.0
 23
0.0
 33
0.0
 16
1.0
 26
0.0
 36
0.0
 17
0.0
 27
1.0
 37
0.0
 76
     0
330
1F
  0
LAYOUT
  5
1E
102
{ACAD_XDICTIONARY
360
32F9
102
}
102
{ACAD_REACTORS
330
1A
102
}
330
1A
100
AcDbPlotSettings
  1

  2
none_device
  4
Letter_(8.50_x_11.00_Inches)
  6

 40
6.349999904632568
 41
6.349999904632568
 42
6.350006103515625
 43
6.350006103515625
 44
215.8999938964844
 45
279.3999938964844
 46
0.0
 47
0.0
 48
0.0
 49
0.0
140
0.0
141
0.0
142
1.0
143
1.0
 70
   688
 72
     1
 73
     1
 74
     5
  7
takachi-1.ctb
 75
    16
147
1.0
148
0.0
149
0.0
100
AcDbLayout
  1
レイアウト1
 70
     1
 71
     1
 10
-6.350006103515625
 20
-6.349999904632568
 11
273.0499877929688
 21
209.5499939918518
 12
0.0
 22
0.0
 32
0.0
 14
1.000000000000000E+20
 24
1.000000000000000E+20
 34
1.000000000000000E+20
 15
-1.000000000000000E+20
 25
-1.000000000000000E+20
 35
-1.000000000000000E+20
146
0.0
 13
0.0
 23
0.0
 33
0.0
 16
1.0
 26
0.0
 36
0.0
 17
0.0
 27
1.0
 37
0.0
 76
     0
330
1B
331
178
  0
LAYOUT
  5
26
102
{ACAD_XDICTIONARY
360
32FD
102
}
102
{ACAD_REACTORS
330
1A
102
}
330
1A
100
AcDbPlotSettings
  1

  2
none_device
  4
Letter_(8.50_x_11.00_Inches)
  6

 40
6.349999904632568
 41
6.349999904632568
 42
6.350006103515625
 43
6.350006103515625
 44
215.8999938964844
 45
279.3999938964844
 46
0.0
 47
0.0
 48
0.0
 49
0.0
140
0.0
141
0.0
142
1.0
143
1.0
 70
   688
 72
     1
 73
     1
 74
     5
  7
takachi-1.ctb
 75
    16
147
1.0
148
0.0
149
0.0
100
AcDbLayout
  1
レイアウト2
 70
     1
 71
     2
 10
-6.350006103515625
 20
-6.349999904632568
 11
273.0499877929688
 21
209.5499939918518
 12
0.0
 22
0.0
 32
0.0
 14
1.000000000000000E+20
 24
1.000000000000000E+20
 34
1.000000000000000E+20
 15
-1.000000000000000E+20
 25
-1.000000000000000E+20
 35
-1.000000000000000E+20
146
0.0
 13
0.0
 23
0.0
 33
0.0
 16
1.0
 26
0.0
 36
0.0
 17
0.0
 27
1.0
 37
0.0
 76
     0
330
23
331
17C
  0
MLINESTYLE
  5
18
102
{ACAD_REACTORS
330
17
102
}
330
17
100
AcDbMlineStyle
  2
STANDARD
 70
     0
  3

 62
   256
 51
90.0
 52
90.0
 71
     2
 49
0.5
 62
   256
  6
BYLAYER
 49
-0.5
 62
   256
  6
BYLAYER
  0
ACDBPLACEHOLDER
  5
F
102
{ACAD_REACTORS
330
E
102
}
330
E
  0
TABLESTYLE
  5
269F
102
{ACAD_REACTORS
330
269E
102
}
330
269E
100
AcDbTableStyle
  3
Standard
 70
     0
 71
     0
 40
1.5
 41
1.5
280
     0
281
     0
  7
STANDARD
140
4.5
170
     2
 62
     0
 63
     7
283
     0
274
    -2
284
     1
 64
     0
275
    -2
285
     1
 65
     0
276
    -2
286
     1
 66
     0
277
    -2
287
     1
 67
     0
278
    -2
288
     1
 68
     0
279
    -2
289
     1
 69
     0
  7
STANDARD
140
6.0
170
     5
 62
     0
 63
     7
283
     0
274
    -2
284
     1
 64
     0
275
    -2
285
     1
 65
     0
276
    -2
286
     1
 66
     0
277
    -2
287
     1
 67
     0
278
    -2
288
     1
 68
     0
279
    -2
289
     1
 69
     0
  7
STANDARD
140
4.5
170
     5
 62
     0
 63
     7
283
     0
274
    -2
284
     1
 64
     0
275
    -2
285
     1
 65
     0
276
    -2
286
     1
 66
     0
277
    -2
287
     1
 67
     0
278
    -2
288
     1
 68
     0
279
    -2
289
     1
 69
     0
  0
DICTIONARYVAR
  5
276A
102
{ACAD_REACTORS
330
94
102
}
330
94
100
DictionaryVariables
280
     0
  1
STANDARD
  0
DICTIONARYVAR
  5
96
102
{ACAD_REACTORS
330
94
102
}
330
94
100
DictionaryVariables
280
     0
  1
2
  0
DICTIONARYVAR
  5
95
102
{ACAD_REACTORS
330
94
102
}
330
94
100
DictionaryVariables
280
     0
  1
0
  0
DICTIONARYVAR
  5
32F5
102
{ACAD_REACTORS
330
94
102
}
330
94
100
DictionaryVariables
280
     0
  1

  0
DICTIONARY
  5
5AE
102
{ACAD_REACTORS
330
5B
102
}
330
5B
100
AcDbDictionary
281
     1
  0
DICTIONARY
  5
61
102
{ACAD_REACTORS
330
5B
102
}
330
5B
100
AcDbDictionary
281
     1
  0
XRECORD
  5
26B9
102
{ACAD_REACTORS
330
5B
102
}
330
5B
100
AcDbXrecord
280
     1
 90
-1023410169
  0
XRECORD
  5
35F
102
{ACAD_REACTORS
330
35E
102
}
330
35E
100
AcDbXrecord
280
     1
 91
       16
330
0
 90
        8
 62
    91
370
    15
331
64
  1
色_91
330
302
 90
        8
 62
    91
370
    25
331
16
  1
色_91
330
0
 90
        8
 62
    51
370
    15
331
64
  1
色_51
330
0
 90
        8
 62
    51
370
    25
331
16
  1
色_51
330
0
 90
        8
 62
     7
370
    15
331
64
  1
色_7
330
1FA
 90
        8
 62
     7
370
    25
331
16
  1
色_7
330
206
 90
        8
 62
     1
370
    -3
331
16
  1
色_1
330
0
 90
        8
 62
     1
370
    -3
331
16
  1
色_1
330
1E1
 90
        0
 62
     7
370
    -3
331
16
  1
色_7
330
0
 90
        8
 62
     1
370
    25
331
67
  1
色_1
330
0
 90
        8
 62
     4
370
    25
331
65
  1
色_4
330
307
 90
        8
 62
     3
370
    20
331
16
  1
色_3
330
22C
 90
        8
 62
     4
370
    -3
331
203
  1
色_4
330
10
 90
        8
 62
     7
370
    -3
331
16
  1
色_7
  0
DICTIONARY
  5
32FB
330
22
100
AcDbDictionary
280
     1
281
     1
  3
ACAD_XREC_ROUNDTRIP
360
32FC
  0
DICTIONARY
  5
32F9
330
1E
100
AcDbDictionary
280
     1
281
     1
  3
ACAD_XREC_ROUNDTRIP
360
32FA
  0
DICTIONARY
  5
32FD
330
26
100
AcDbDictionary
280
     1
281
     1
  3
ACAD_XREC_ROUNDTRIP
360
32FE
  0
XRECORD
  5
32FC
102
{ACAD_REACTORS
330
32FB
102
}
330
32FB
100
AcDbXrecord
280
     1
102
SHADEPLOT
 70
     0
102
SHADEPLOTRESLEVEL
 70
     2
102
SHADEPLOTCUSTOMDPI
 70
   300
  0
XRECORD
  5
32FA
102
{ACAD_REACTORS
330
32F9
102
}
330
32F9
100
AcDbXrecord
280
     1
102
SHADEPLOT
 70
     1
102
SHADEPLOTRESLEVEL
 70
     2
102
SHADEPLOTCUSTOMDPI
 70
   300
  0
XRECORD
  5
32FE
102
{ACAD_REACTORS
330
32FD
102
}
330
32FD
100
AcDbXrecord
280
     1
102
SHADEPLOT
 70
     1
102
SHADEPLOTRESLEVEL
 70
     2
102
SHADEPLOTCUSTOMDPI
 70
   300
  0
ENDSEC
  0
EOF
