  0
SECTION
  2
HEADER
  9
$ACADVER
  1
AC1009
  9
$INSBASE
 10
0.0
 20
0.0
 30
0.0
  9
$EXTMIN
 10
19.999999999999972
 20
15.0
 30
0.0
  9
$EXTMAX
 10
215.00000000000011
 20
290.00000000000011
 30
0.0
  9
$LIMMIN
 10
0.0
 20
0.0
  9
$LIMMAX
 10
195.00000000000011
 20
275.0
  9
$ORTHOMODE
 70
     0
  9
$REGENMODE
 70
     1
  9
$FILLMODE
 70
     1
  9
$QTEXTMODE
 70
     0
  9
$MIRRTEXT
 70
     1
  9
$DRAGMODE
 70
     2
  9
$LTSCALE
 40
1.0
  9
$OSMODE
 70
  3071
  9
$ATTMODE
 70
     1
  9
$TEXTSIZE
 40
73.985717453579113
  9
$TRACEWID
 40
1.0
  9
$TEXTSTYLE
  7
STANDARD
  9
$CLAYER
  8
カバ_スクリュ_1
  9
$CELTYPE
  6
BYLAYER
  9
$CECOLOR
 62
   256
  9
$DIMSCALE
 40
1.0
  9
$DIMASZ
 40
2.5
  9
$DIMEXO
 40
1.0
  9
$DIMDLI
 40
10.0
  9
$DIMRND
 40
0.0
  9
$DIMDLE
 40
0.0
  9
$DIMEXE
 40
1.0
  9
$DIMTP
 40
0.1
  9
$DIMTM
 40
0.1
  9
$DIMTXT
 40
3.5
  9
$DIMCEN
 40
0.0
  9
$DIMTSZ
 40
0.0
  9
$DIMTOL
 70
     0
  9
$DIMLIM
 70
     0
  9
$DIMTIH
 70
     0
  9
$DIMTOH
 70
     0
  9
$DIMSE1
 70
     0
  9
$DIMSE2
 70
     0
  9
$DIMTAD
 70
     1
  9
$DIMZIN
 70
     8
  9
$DIMBLK
  1
OPEN30
  9
$DIMASO
 70
     1
  9
$DIMSHO
 70
     1
  9
$DIMPOST
  1

  9
$DIMAPOST
  1
"
  9
$DIMALT
 70
     0
  9
$DIMALTD
 70
     2
  9
$DIMALTF
 40
0.0393701
  9
$DIMLFAC
 40
1.0
  9
$DIMTOFL
 70
     1
  9
$DIMTVP
 40
0.0
  9
$DIMTIX
 70
     0
  9
$DIMSOXD
 70
     0
  9
$DIMSAH
 70
     0
  9
$DIMBLK1
  1

  9
$DIMBLK2
  1

  9
$DIMSTYLE
  2
AM_ISO
  9
$DIMCLRD
 70
   256
  9
$DIMCLRE
 70
   256
  9
$DIMCLRT
 70
     2
  9
$DIMTFAC
 40
0.71
  9
$DIMGAP
 40
1.5
  9
$LUNITS
 70
     2
  9
$LUPREC
 70
     2
  9
$SKETCHINC
 40
1.0
  9
$FILLETRAD
 40
0.5
  9
$AUNITS
 70
     0
  9
$AUPREC
 70
     0
  9
$MENU
  1
.
  9
$ELEVATION
 40
0.0
  9
$PELEVATION
 40
0.0
  9
$THICKNESS
 40
0.0
  9
$LIMCHECK
 70
     0
  9
$BLIPMODE
 70
     0
  9
$CHAMFERA
 40
2.5
  9
$CHAMFERB
 40
2.5
  9
$SKPOLY
 70
     0
  9
$TDCREATE
 40
2453671.7654025578
  9
$TDUPDATE
 40
2454595.8235074771
  9
$TDINDWG
 40
0.1019295949
  9
$TDUSRTIMER
 40
0.1019295949
  9
$USRTIMER
 70
     1
  9
$ANGBASE
 50
0.0
  9
$ANGDIR
 70
     0
  9
$PDMODE
 70
     0
  9
$PDSIZE
 40
0.0
  9
$PLINEWID
 40
0.0
  9
$COORDS
 70
     1
  9
$SPLFRAME
 70
     0
  9
$SPLINETYPE
 70
     6
  9
$SPLINESEGS
 70
     8
  9
$ATTDIA
 70
     1
  9
$ATTREQ
 70
     1
  9
$HANDLING
 70
     1
  9
$HANDSEED
  5
FAC
  9
$SURFTAB1
 70
     6
  9
$SURFTAB2
 70
     6
  9
$SURFTYPE
 70
     6
  9
$SURFU
 70
     6
  9
$SURFV
 70
     6
  9
$UCSNAME
  2

  9
$UCSORG
 10
0.0
 20
0.0
 30
0.0
  9
$UCSXDIR
 10
1.0
 20
0.0
 30
0.0
  9
$UCSYDIR
 10
0.0
 20
1.0
 30
0.0
  9
$PUCSNAME
  2

  9
$PUCSORG
 10
0.0
 20
0.0
 30
0.0
  9
$PUCSXDIR
 10
1.0
 20
0.0
 30
0.0
  9
$PUCSYDIR
 10
0.0
 20
1.0
 30
0.0
  9
$USERI1
 70
     0
  9
$USERI2
 70
     0
  9
$USERI3
 70
     0
  9
$USERI4
 70
     0
  9
$USERI5
 70
     0
  9
$USERR1
 40
0.0
  9
$USERR2
 40
0.0
  9
$USERR3
 40
0.0
  9
$USERR4
 40
0.0
  9
$USERR5
 40
0.0
  9
$WORLDVIEW
 70
     1
  9
$SHADEDGE
 70
     3
  9
$SHADEDIF
 70
    70
  9
$TILEMODE
 70
     1
  9
$MAXACTVP
 70
    64
  9
$PLIMCHECK
 70
     0
  9
$PEXTMIN
 10
1.0000000000000000E+020
 20
1.0000000000000000E+020
 30
1.0000000000000000E+020
  9
$PEXTMAX
 10
-1.0000000000000000E+020
 20
-1.0000000000000000E+020
 30
-1.0000000000000000E+020
  9
$PLIMMIN
 10
-6.350006103515625
 20
-6.3499999046325684
  9
$PLIMMAX
 10
273.04998779296881
 20
209.54999399185181
  9
$UNITMODE
 70
     0
  9
$VISRETAIN
 70
     1
  9
$PLINEGEN
 70
     0
  9
$PSLTSCALE
 70
     1
  0
ENDSEC
  0
SECTION
  2
TABLES
  0
TABLE
  2
VPORT
 70
     3
  0
VPORT
  2
*ACTIVE
 70
     0
 10
0.0
 20
0.0
 11
1.0
 21
1.0
 12
117.4957609748901
 22
152.50134188935499
 13
0.0
 23
0.0
 14
2.5
 24
2.5
 15
10.0
 25
10.0
 16
0.0
 26
0.0
 36
1.0
 17
0.0
 27
0.0
 37
0.0
 40
277.0430530088808
 41
1.482800982800982
 42
50.0
 43
0.0
 44
0.0
 50
0.0
 51
0.0
 71
     0
 72
   100
 73
     1
 74
     3
 75
     0
 76
     0
 77
     0
 78
     0
  0
ENDTAB
  0
TABLE
  2
LTYPE
 70
    26
  0
LTYPE
  2
CONTINUOUS
 70
     0
  3
Solid line
 72
    65
 73
     0
 40
0.0
  0
LTYPE
  2
AM_ISO02W050
 70
     0
  3
__ __ __ __ __ __ __ __ __ __ __ __ __ __ __
 72
    65
 73
     2
 40
7.5
 49
6.0
 49
-1.5
  0
LTYPE
  2
AM_ISO08W050
 70
     0
  3
____ . ____ . ____ . ____ . ____ . ____ . ____
 72
    65
 73
     4
 40
18.0
 49
12.0
 49
-1.5
 49
3.0
 49
-1.5
  0
LTYPE
  2
AM_ISO09W050
 70
     0
  3
_____ . . _____ . . _____ . . ____ .. ____
 72
    65
 73
     6
 40
22.5
 49
12.0
 49
-1.5
 49
3.0
 49
-1.5
 49
3.0
 49
-1.5
  0
LTYPE
  2
AMCONSTR
 70
     0
  3
_______________________
 72
    65
 73
     2
 40
9999.0
 49
9999.0
 49
0.0
  0
LTYPE
  2
AM_ISO08W050X2
 70
     0
  3
__ . __ . __ . __ . __ . __
 72
    65
 73
     4
 40
9.0
 49
6.0
 49
-0.75
 49
1.5
 49
-0.75
  0
LTYPE
  2
AM_ISO02W050X2
 70
     0
  3
 _ _ _ _ _ _ _ _ _ _ _ _
 72
    65
 73
     2
 40
3.75
 49
3.0
 49
-0.75
  0
LTYPE
  2
AMZIGZAG
 70
     0
  3
/\/-/\/-/\/-/\/-/\/-/\/
 72
    65
 73
     2
 40
11.0001
 49
0.0001
 49
-11.0
  0
LTYPE
  2
ACISOWELD
 70
     0
  3
_ _ _ _ _
 72
    65
 73
     2
 40
2.0
 49
2.0
 49
-1.0
  0
LTYPE
  2
ACISOTGB
 70
     0
  3
__ . . __ . .
 72
    65
 73
     6
 40
9.0
 49
4.0
 49
-1.0
 49
1.0
 49
-1.0
 49
1.0
 49
-1.0
  0
LTYPE
  2
ACISOTGL
 70
     0
  3
_ _ _ _ _
 72
    65
 73
     2
 40
3.0
 49
2.0
 49
-1.0
  0
LTYPE
  2
CENTER
 70
     0
  3
__ . __
 72
    65
 73
     4
 40
7.0
 49
4.0
 49
-1.0
 49
1.0
 49
-1.0
  0
LTYPE
  2
HIDDEN
 70
     0
  3
Hidden __ __ __ __ __ __ __ __ __ __ __ __ __ _
 72
    65
 73
     2
 40
9.5249999999999986
 49
6.3499999999999988
 49
-3.1749999999999989
  0
LTYPE
  2
PHANTOM2
 70
     0
  3
Phantom (.5x) ___ _ _ ___ _ _ ___ _ _ ___ _ _
 72
    65
 73
     6
 40
31.75
 49
15.875
 49
-3.1749999999999989
 49
3.1749999999999989
 49
-3.1749999999999989
 49
3.1749999999999989
 49
-3.1749999999999989
  0
LTYPE
  2
GEN3
 70
     0
  3
-- -- -- -- -- -- -- -- -- -- -- -- -- -- --
 72
    65
 73
     2
 40
6.25
 49
4.75
 49
-1.5
  0
LTYPE
  2
GEN7
 70
     0
  3
____ . ____ . ____ . ____ . ____ . ____ . ____
 72
    65
 73
     4
 40
13.75
 49
9.75
 49
-1.5
 49
1.0
 49
-1.5
  0
LTYPE
  2
GEN3A
 70
     0
  3
 - - - - -
 72
    65
 73
     2
 40
3.125
 49
2.25
 49
-0.875
  0
LTYPE
  2
GEN7A
 70
     0
  3
__ . __ . __
 72
    65
 73
     4
 40
6.875
 49
4.75
 49
-0.875
 49
0.375
 49
-0.875
  0
LTYPE
  2
GEN4A
 70
     0
  3
_____ . . _____ . . _____ . . ____ .. ____
 72
    65
 73
     6
 40
16.25
 49
9.75
 49
-1.5
 49
1.0
 49
-1.5
 49
1.0
 49
-1.5
  0
LTYPE
  2
GENZIGZAG
 70
     0
  3
/\/-/\/-/\/-/\/-/\/-/\/
 72
    65
 73
     2
 40
12.0001
 49
0.0001
 49
-12.0
  0
LTYPE
  2
PHANTOM
 70
     0
  3
______  __  __  ______  __  __  ______  __  __  
 72
    65
 73
     6
 40
2.5
 49
1.25
 49
-0.25
 49
0.25
 49
-0.25
 49
0.25
 49
-0.25
  0
LTYPE
  2
CENTER2
 70
     0
  3
Center (.5x) ___ _ ___ _ ___ _ ___ _ ___ _ ___
 72
    65
 73
     4
 40
1.125
 49
0.75
 49
-0.125
 49
0.125
 49
-0.125
  0
LTYPE
  2
HIDDEN2
 70
     0
  3
Hidden (.5x) _ _ _ _ _ _ _ _ _ _ _ _ _ _ _ _ _
 72
    65
 73
     2
 40
0.1875
 49
0.125
 49
-0.0625
  0
LTYPE
  2
AMZIGZAG2
 70
     0
  3
/\/-/\/-/\/-/\/-/\/-/\/
 72
    65
 73
     2
 40
0.4401
 49
0.0001
 49
-0.4400000000000001
  0
LTYPE
  2
ACANSTGB
 70
     0
  3
__ . . __ . .
 72
    65
 73
     6
 40
0.35433070866
 49
0.15748031496
 49
-0.03937007874
 49
0.03937007874
 49
-0.03937007874
 49
0.03937007874
 49
-0.03937007874
  0
LTYPE
  2
ACANSTGL
 70
     0
  3
_ _ _ _ _
 72
    65
 73
     2
 40
0.11811023622
 49
0.07874015748
 49
-0.03937007874
  0
ENDTAB
  0
TABLE
  2
LAYER
 70
    15
  0
LAYER
  2
0
 70
     0
 62
     7
  6
CONTINUOUS
  0
LAYER
  2
DEFPOINTS
 70
     0
 62
     7
  6
CONTINUOUS
  0
LAYER
  2
カバ_スクリュ_1
 70
     0
 62
     7
  6
CONTINUOUS
  0
LAYER
  2
カバ_スクリュ_10
 70
     0
 62
     7
  6
AM_ISO02W050X2
  0
LAYER
  2
TK2
 70
     0
 62
    51
  6
CONTINUOUS
  0
LAYER
  2
TK3
 70
     0
 62
    91
  6
CONTINUOUS
  0
LAYER
  2
TK20
 70
     0
 62
    51
  6
AM_ISO02W050X2
  0
LAYER
  2
TK30
 70
     0
 62
    91
  6
AM_ISO02W050X2
  0
LAYER
  2
7A
 70
     0
 62
     4
  6
GEN7A
  0
LAYER
  2
RAHM2
 70
     0
 62
     1
  6
CONTINUOUS
  0
LAYER
  2
KLIN
 70
     0
 62
     1
  6
CONTINUOUS
  0
LAYER
  2
CK_LEVEL_1
 70
     0
 62
     7
  6
CONTINUOUS
  0
LAYER
  2
AM_CL
 70
     0
 62
     1
  6
AMCONSTR
  0
LAYER
  2
AM_5
 70
     0
 62
     3
  6
CONTINUOUS
  0
LAYER
  2
AM_7
 70
     0
 62
     4
  6
AM_ISO08W050
  0
ENDTAB
  0
TABLE
  2
STYLE
 70
     8
  0
STYLE
  2
STANDARD
 70
     0
 40
0.0
 41
1.0
 50
0.0
 71
     0
 42
73.985717453579113
  3
ISOCP.SHX
  4
bigfont.shx
  0
STYLE
  2

 70
     1
 40
0.0
 41
1.0
 50
0.0
 71
     0
 42
2.5
  3
ltypeshp.shx
  4

  0
STYLE
  2
ACISOTS
 70
     0
 40
1.0
 41
1.0
 50
0.0
 71
     0
 42
2.5
  3
isocp.shx
  4
extfont.shx
  0
STYLE
  2
ACISOGDT
 70
     0
 40
0.0
 41
1.0
 50
0.0
 71
     0
 42
2.5
  3
amgdt.shx
  4

  0
STYLE
  2

 70
     1
 40
0.0
 41
1.0
 50
0.0
 71
     0
 42
3.0
  3
genltshp.shx
  4

  0
STYLE
  2
CKSTANDARD
 70
     0
 40
0.0
 41
1.0
 50
0.0
 71
     0
 42
0.0
  3
txt
  4

  0
STYLE
  2
ACANSTS
 70
     0
 40
1.0
 41
1.0
 50
0.0
 71
     0
 42
4.7999999999999989
  3
romans.shx
  4
extfont.shx
  0
STYLE
  2
ACANSGDT
 70
     0
 40
0.0
 41
1.0
 50
0.0
 71
     0
 42
4.7999999999999989
  3
amgdtans.shx
  4

  0
ENDTAB
  0
TABLE
  2
VIEW
 70
     6
  0
VIEW
  2
AM_VIEW1
 70
     0
 40
137.5
 10
104.2032622333752
 20
206.25
 41
208.4065244667504
 11
0.0
 21
0.0
 31
1.0
 12
0.0
 22
0.0
 32
0.0
 42
50.0
 43
0.0
 44
0.0
 50
0.0
 71
     0
  0
VIEW
  2
AM_VIEW2
 70
     0
 40
137.5
 10
90.796737766624929
 20
206.25
 41
208.4065244667504
 11
0.0
 21
0.0
 31
1.0
 12
0.0
 22
0.0
 32
0.0
 42
50.0
 43
0.0
 44
0.0
 50
0.0
 71
     0
  0
VIEW
  2
AM_VIEW3
 70
     0
 40
137.5
 10
104.2032622333752
 20
68.750000000000014
 41
208.4065244667504
 11
0.0
 21
0.0
 31
1.0
 12
0.0
 22
0.0
 32
0.0
 42
50.0
 43
0.0
 44
0.0
 50
0.0
 71
     0
  0
VIEW
  2
AM_VIEW4
 70
     0
 40
137.5
 10
90.796737766624929
 20
68.750000000000014
 41
208.4065244667504
 11
0.0
 21
0.0
 31
1.0
 12
0.0
 22
0.0
 32
0.0
 42
50.0
 43
0.0
 44
0.0
 50
0.0
 71
     0
  0
VIEW
  2
AM_VIEW5
 70
     0
 40
137.5
 10
97.500000000000071
 20
137.5
 41
208.4065244667504
 11
0.0
 21
0.0
 31
1.0
 12
0.0
 22
0.0
 32
0.0
 42
50.0
 43
0.0
 44
0.0
 50
0.0
 71
     0
  0
VIEW
  2
AM_VIEW6
 70
     0
 40
274.99725000000012
 10
97.500000000000071
 20
137.5
 41
416.80888080301139
 11
0.0
 21
0.0
 31
1.0
 12
0.0
 22
0.0
 32
0.0
 42
50.0
 43
0.0
 44
0.0
 50
0.0
 71
     0
  0
ENDTAB
  0
TABLE
  2
UCS
 70
     0
  0
ENDTAB
  0
TABLE
  2
APPID
 70
    35
  0
APPID
  2
ACAD
 70
     0
  0
APPID
  2
MCAD_NO_VIS
 70
     0
  0
APPID
  2
ACAD_TEMP_GRAPHIC
 70
     0
  0
APPID
  2
ACATTRIBSERVICES
 70
     0
  0
APPID
  2
AD_DRAW
 70
     0
  0
APPID
  2
DESIGNERASSEMBLIES
 70
     0
  0
APPID
  2
ACADM_DIM_EDIT
 70
     0
  0
APPID
  2
AMDT_DM_ADJ
 70
     0
  0
APPID
  2
GENIUS_GENREC_14
 70
     0
  0
APPID
  2
GENIUS_GENODEF_13
 70
     0
  0
APPID
  2
GENIUS_GENOBJ-N-REC_13
 70
     0
  0
APPID
  2
GENIUS_GENDIMSH_14
 70
     0
  0
APPID
  2
GENIUS_GENCFG_13
 70
     0
  0
APPID
  2
GENIUS_GENCFG0_13
 70
     0
  0
APPID
  2
GENIUS_GENCFG1_13
 70
     0
  0
APPID
  2
GENIUS_GENCFG2_13
 70
     0
  0
APPID
  2
GENIUS_GENCFG3_13
 70
     0
  0
APPID
  2
GENIUS_GENCFG4_13
 70
     0
  0
APPID
  2
GENIUS_GEVCFG0_13
 70
     0
  0
APPID
  2
GENIUS_GENOENT_13
 70
     0
  0
APPID
  2
GENIUS_GENOBJ-N-CRS_13
 70
     0
  0
APPID
  2
GENIUS_GENOREF_13
 70
     0
  0
APPID
  2
GENIUS_GENOLIS_13
 70
     0
  0
APPID
  2
GENIUS_GENOBJ-N-TIT_13
 70
     0
  0
APPID
  2
GENIUS_GENTITLE_13
 70
     0
  0
APPID
  2
GENIUS_GENSCREG_15
 70
     0
  0
APPID
  2
GENIUS_GENOBJ-N-SDF_13
 70
     0
  0
APPID
  2
GENIUS_GENOBJ-N-CEN_13
 70
     0
  0
APPID
  2
GENIUS_GENOBJ-N-HTC_13
 70
     0
  0
APPID
  2
GENIUS_GENHATCH_13
 70
     0
  0
APPID
  2
GENIUS_GENOBJ-N-ZOO_13
 70
     0
  0
APPID
  2
GENIUS_GENZOO_17
 70
     0
  0
APPID
  2
GEV_VCCNULL_SWITCH_OFF
 70
     0
  0
APPID
  2
GENIUS_GENDTOL_13
 70
     0
  0
APPID
  2
GENIUS_GENSCREG_13
 70
     0
  0
ENDTAB
  0
TABLE
  2
DIMSTYLE
 70
    23
  0
DIMSTYLE
  2
AM_ISO
 70
     0
  3

  4
"
  5
OPEN30
  6

  7

 40
1.0
 41
2.5
 42
1.0
 43
10.0
 44
1.0
 45
0.0
 46
0.0
 47
0.1
 48
0.1
140
3.5
141
0.0
142
0.0
143
0.0393701
144
1.0
145
0.0
146
0.71
147
1.5
 71
     0
 72
     0
 73
     0
 74
     0
 75
     0
 76
     0
 77
     1
 78
     8
170
     0
171
     2
172
     1
173
     0
174
     0
175
     0
176
   256
177
   256
178
     2
  0
DIMSTYLE
  2
AM_ISO$3
 70
     0
  3

  4
"
  5
OPEN30
  6

  7

 40
1.0
 41
2.5
 42
1.0
 43
10.0
 44
1.0
 45
0.0
 46
0.0
 47
0.1
 48
0.1
140
3.5
141
0.0
142
0.0
143
0.0393701
144
1.0
145
0.0
146
0.71
147
1.5
 71
     0
 72
     0
 73
     0
 74
     1
 75
     0
 76
     0
 77
     1
 78
     8
170
     0
171
     2
172
     0
173
     0
174
     0
175
     0
176
   256
177
   256
178
     2
  0
DIMSTYLE
  2
AM_ISO$4
 70
     0
  3

  4
"
  5
OPEN30
  6

  7

 40
1.0
 41
2.5
 42
1.0
 43
10.0
 44
1.0
 45
0.0
 46
0.0
 47
0.1
 48
0.1
140
3.5
141
0.0
142
0.0
143
0.0393701
144
1.0
145
0.0
146
0.71
147
1.5
 71
     0
 72
     0
 73
     0
 74
     1
 75
     0
 76
     0
 77
     1
 78
     8
170
     0
171
     2
172
     0
173
     0
174
     0
175
     0
176
   256
177
   256
178
     2
  0
DIMSTYLE
  2
AM_ISO$6
 70
     0
  3

  4
"
  5
OPEN30
  6

  7

 40
1.0
 41
2.5
 42
1.0
 43
10.0
 44
1.0
 45
0.0
 46
0.0
 47
0.1
 48
0.1
140
3.5
141
0.0
142
0.0
143
0.0393701
144
1.0
145
0.0
146
0.71
147
1.5
 71
     0
 72
     0
 73
     0
 74
     0
 75
     0
 76
     0
 77
     0
 78
     8
170
     0
171
     2
172
     1
173
     0
174
     0
175
     0
176
   256
177
   256
178
     2
  0
DIMSTYLE
  2
AM_ISO$7
 70
     0
  3

  4
"
  5
OPEN30
  6

  7

 40
1.0
 41
2.5
 42
1.0
 43
10.0
 44
1.0
 45
0.0
 46
0.0
 47
0.1
 48
0.1
140
5.0
141
0.0
142
0.0
143
0.0393701
144
1.0
145
0.0
146
0.71
147
1.5
 71
     0
 72
     0
 73
     0
 74
     0
 75
     0
 76
     0
 77
     1
 78
     8
170
     0
171
     2
172
     1
173
     0
174
     0
175
     0
176
   256
177
   256
178
     2
  0
DIMSTYLE
  2
AM_ISO$SF
 70
     0
  3

  4
"
  5
OPEN30
  6

  7

 40
1.0
 41
2.5
 42
1.0
 43
10.0
 44
1.0
 45
0.0
 46
0.0
 47
0.1
 48
0.1
140
3.5
141
0.0
142
0.0
143
0.0393701
144
1.0
145
0.0
146
0.71
147
1.5
 71
     0
 72
     0
 73
     0
 74
     0
 75
     1
 76
     1
 77
     1
 78
     8
170
     0
171
     2
172
     1
173
     0
174
     0
175
     0
176
   256
177
   256
178
     2
  0
DIMSTYLE
  2
AM_ISO$SH
 70
     0
  3

  4
"
  5

  6
GENAXEH
  7
OPEN30
 40
1.0
 41
2.5
 42
1.0
 43
10.0
 44
1.0
 45
0.0
 46
0.0
 47
0.1
 48
0.1
140
3.5
141
0.0
142
0.0
143
0.0393701
144
2.0
145
0.0
146
0.71
147
1.5
 71
     0
 72
     0
 73
     0
 74
     0
 75
     1
 76
     1
 77
     1
 78
     8
170
     0
171
     2
172
     1
173
     1
174
     0
175
     0
176
   256
177
   256
178
     2
  0
DIMSTYLE
  2
GEN-ISO
 70
     0
  3

  4
"
  5

  6

  7

 40
1.0
 41
2.5
 42
1.0
 43
10.0
 44
1.0
 45
0.0
 46
0.0
 47
0.1
 48
0.1
140
3.5
141
0.0
142
0.0
143
0.0393701
144
1.0
145
0.0
146
0.71
147
1.5
 71
     0
 72
     0
 73
     0
 74
     0
 75
     0
 76
     0
 77
     1
 78
     8
170
     0
171
     2
172
     1
173
     0
174
     0
175
     0
176
   256
177
   256
178
     2
  0
DIMSTYLE
  2
GEN-ISO$4
 70
     0
  3

  4
"
  5

  6

  7

 40
1.0
 41
2.5
 42
1.0
 43
10.0
 44
1.0
 45
0.0
 46
0.0
 47
0.1
 48
0.1
140
3.5
141
0.0
142
0.0
143
0.0393701
144
1.0
145
0.0
146
0.71
147
1.5
 71
     0
 72
     0
 73
     0
 74
     1
 75
     0
 76
     0
 77
     1
 78
     8
170
     0
171
     2
172
     0
173
     0
174
     0
175
     0
176
   256
177
   256
178
     2
  0
DIMSTYLE
  2
GEN-ISO$3
 70
     0
  3

  4
"
  5

  6

  7

 40
1.0
 41
2.5
 42
1.0
 43
10.0
 44
1.0
 45
0.0
 46
0.0
 47
0.1
 48
0.1
140
3.5
141
0.0
142
0.0
143
0.0393701
144
1.0
145
0.0
146
0.71
147
1.5
 71
     0
 72
     0
 73
     0
 74
     1
 75
     0
 76
     0
 77
     1
 78
     8
170
     0
171
     2
172
     0
173
     0
174
     0
175
     0
176
   256
177
   256
178
     2
  0
DIMSTYLE
  2
ISO-25
 70
     0
  3

  4

  5

  6

  7

 40
1.0
 41
2.5
 42
0.625
 43
3.75
 44
1.25
 45
0.0
 46
0.0
 47
0.0
 48
0.0
140
2.5
141
2.5
142
0.0
143
0.0394
144
1.0
145
1.0
146
1.0
147
0.625
 71
     0
 72
     0
 73
     1
 74
     0
 75
     0
 76
     0
 77
     1
 78
     8
170
     0
171
     2
172
     1
173
     0
174
     0
175
     0
176
     0
177
     0
178
     0
  0
DIMSTYLE
  2
GEN-ISO$6
 70
     0
  3

  4
"
  5

  6

  7

 40
1.0
 41
2.5
 42
1.0
 43
10.0
 44
1.0
 45
0.0
 46
0.0
 47
0.1
 48
0.1
140
3.5
141
0.0
142
0.0
143
0.0393701
144
1.0
145
0.0
146
0.71
147
1.5
 71
     0
 72
     0
 73
     0
 74
     0
 75
     0
 76
     0
 77
     0
 78
     8
170
     0
171
     2
172
     0
173
     0
174
     0
175
     0
176
   256
177
   256
178
     2
  0
DIMSTYLE
  2
GEN-ISO-POS
 70
     0
  3

  4
"
  5

  6

  7

 40
1.0
 41
2.5
 42
1.0
 43
10.0
 44
1.0
 45
0.0
 46
0.0
 47
0.1
 48
0.1
140
5.0
141
0.0
142
0.0
143
0.0393701
144
1.0
145
0.0
146
0.71
147
1.5
 71
     0
 72
     0
 73
     0
 74
     0
 75
     0
 76
     0
 77
     0
 78
     8
170
     0
171
     2
172
     0
173
     0
174
     0
175
     0
176
   256
177
   256
178
     2
  0
DIMSTYLE
  2
GEN-ISO-AXE-F
 70
     0
  3

  4
"
  5

  6

  7

 40
1.0
 41
2.5
 42
1.0
 43
10.0
 44
1.0
 45
0.0
 46
0.0
 47
0.1
 48
0.1
140
3.5
141
0.0
142
0.0
143
0.0393701
144
1.0
145
0.0
146
0.71
147
1.5
 71
     0
 72
     0
 73
     0
 74
     0
 75
     1
 76
     1
 77
     1
 78
     8
170
     0
171
     2
172
     1
173
     0
174
     0
175
     0
176
   256
177
   256
178
     2
  0
DIMSTYLE
  2
GEN-ISO-AXE-H
 70
     0
  3

  4
"
  5

  6

  7

 40
1.0
 41
2.5
 42
1.0
 43
10.0
 44
1.0
 45
0.0
 46
0.0
 47
0.1
 48
0.1
140
3.5
141
0.0
142
0.0
143
0.0393701
144
2.0
145
0.0
146
0.71
147
1.5
 71
     0
 72
     0
 73
     0
 74
     0
 75
     1
 76
     1
 77
     1
 78
     8
170
     0
171
     2
172
     1
173
     1
174
     0
175
     0
176
   256
177
   256
178
     2
  0
DIMSTYLE
  2
DIMSTYLE0
 70
     0
  3

  4

  5

  6

  7

 40
1.0
 41
4.7999999999999989
 42
0.0625
 43
0.0
 44
4.7999999999999989
 45
0.0
 46
0.0
 47
0.0
 48
0.0
140
4.7999999999999989
141
0.0
142
0.0
143
25.399999999999999
144
1.0
145
0.0
146
1.0
147
0.0
 71
     0
 72
     0
 73
     0
 74
     0
 75
     0
 76
     0
 77
     0
 78
     0
170
     0
171
     2
172
     0
173
     0
174
     0
175
     0
176
     0
177
     0
178
     0
  0
DIMSTYLE
  2
DIMSTYLE1
 70
     0
  3

  4

  5

  6

  7

 40
1.0
 41
4.7999999999999989
 42
0.0625
 43
0.0
 44
4.7999999999999989
 45
0.0
 46
0.0
 47
0.0
 48
0.0
140
4.7999999999999989
141
0.0
142
0.0
143
25.399999999999999
144
1.0
145
0.0
146
1.0
147
0.0
 71
     0
 72
     0
 73
     0
 74
     0
 75
     0
 76
     0
 77
     0
 78
     0
170
     0
171
     2
172
     0
173
     0
174
     0
175
     0
176
     0
177
     0
178
     0
  0
DIMSTYLE
  2
AM_ANSI
 70
     0
  3

  4
mm
  5

  6

  7

 40
1.0
 41
0.1
 42
0.05
 43
0.5
 44
0.1
 45
0.0
 46
0.0
 47
0.1
 48
0.1
140
0.12
141
0.0
142
0.0
143
25.399999999999999
144
1.0
145
0.0
146
0.71
147
0.06
 71
     0
 72
     0
 73
     1
 74
     1
 75
     0
 76
     0
 77
     0
 78
     7
170
     0
171
     2
172
     0
173
     0
174
     0
175
     0
176
   256
177
   256
178
     2
  0
DIMSTYLE
  2
AM_ANSI$3
 70
     0
  3

  4
mm
  5

  6

  7

 40
1.0
 41
0.1
 42
0.05
 43
0.5
 44
0.1
 45
0.0
 46
0.0
 47
0.1
 48
0.1
140
0.12
141
0.0
142
0.0
143
25.399999999999999
144
1.0
145
0.0
146
0.71
147
0.06
 71
     0
 72
     0
 73
     1
 74
     1
 75
     0
 76
     0
 77
     0
 78
     7
170
     0
171
     2
172
     0
173
     0
174
     0
175
     0
176
   256
177
   256
178
     2
  0
DIMSTYLE
  2
AM_ANSI$4
 70
     0
  3

  4
mm
  5

  6

  7

 40
1.0
 41
0.1
 42
0.05
 43
0.5
 44
0.1
 45
0.0
 46
0.0
 47
0.1
 48
0.1
140
0.12
141
0.0
142
0.0
143
25.399999999999999
144
1.0
145
0.0
146
0.71
147
0.06
 71
     0
 72
     0
 73
     1
 74
     1
 75
     0
 76
     0
 77
     0
 78
     7
170
     0
171
     2
172
     0
173
     0
174
     0
175
     0
176
   256
177
   256
178
     2
  0
DIMSTYLE
  2
AM_ANSI$7
 70
     0
  3

  4
mm
  5

  6

  7

 40
1.0
 41
0.1
 42
0.05
 43
0.5
 44
0.1
 45
0.0
 46
0.0
 47
0.1
 48
0.1
140
0.24
141
0.0
142
0.0
143
25.399999999999999
144
1.0
145
0.0
146
0.71
147
0.06
 71
     0
 72
     0
 73
     1
 74
     1
 75
     0
 76
     0
 77
     0
 78
     7
170
     0
171
     2
172
     0
173
     0
174
     0
175
     0
176
   256
177
   256
178
     2
  0
DIMSTYLE
  2
AM_ANSI$SF
 70
     0
  3

  4
mm
  5

  6

  7

 40
1.0
 41
0.1
 42
0.05
 43
0.5
 44
0.1
 45
0.0
 46
0.0
 47
0.1
 48
0.1
140
0.12
141
0.0
142
0.0
143
25.399999999999999
144
1.0
145
0.0
146
0.71
147
0.06
 71
     0
 72
     0
 73
     1
 74
     1
 75
     1
 76
     1
 77
     0
 78
     7
170
     0
171
     2
172
     0
173
     0
174
     0
175
     0
176
   256
177
   256
178
     2
  0
DIMSTYLE
  2
AM_ANSI$SH
 70
     0
  3

  4
mm
  5

  6
GENAXEH
  7

 40
1.0
 41
0.1
 42
0.05
 43
0.5
 44
0.1
 45
0.0
 46
0.0
 47
0.1
 48
0.1
140
0.12
141
0.0
142
0.0
143
25.399999999999999
144
1.0
145
0.0
146
0.71
147
0.06
 71
     0
 72
     0
 73
     1
 74
     1
 75
     1
 76
     1
 77
     0
 78
     7
170
     0
171
     2
172
     0
173
     1
174
     0
175
     0
176
   256
177
   256
178
     2
  0
ENDTAB
  0
ENDSEC
  0
SECTION
  2
BLOCKS
  0
BLOCK
  8
0
  2
$MODEL_SPACE
 70
     0
 10
0.0
 20
0.0
 30
0.0
  3
$MODEL_SPACE
  1

  0
ENDBLK
  5
21
  8
0
  0
BLOCK
 67
     1
  8
0
  2
$PAPER_SPACE
 70
     0
 10
0.0
 20
0.0
 30
0.0
  3
$PAPER_SPACE
  1

  0
ENDBLK
  5
25
 67
     1
  8
0
  0
BLOCK
  8
0
  2
GENAXEH
 70
     0
 10
0.0
 20
0.0
 30
0.0
  3
GENAXEH
  1

  0
LINE
  5
F02
  8
0
 10
-1.0
 20
0.0
 30
0.0
 11
1.0
 21
0.0
 31
0.0
  0
ENDBLK
  5
F03
  8
0
  0
BLOCK
  8
0
  2
_OPEN30
 70
     0
 10
0.0
 20
0.0
 30
0.0
  3
_OPEN30
  1

  0
LINE
  5
EF6
  8
0
  6
BYBLOCK
 62
     0
 10
-1.0
 20
0.26794919
 30
0.0
 11
0.0
 21
0.0
 31
0.0
  0
LINE
  5
EF7
  8
0
  6
BYBLOCK
 62
     0
 10
0.0
 20
0.0
 30
0.0
 11
-1.0
 21
-0.26794919
 31
0.0
  0
LINE
  5
EF8
  8
0
  6
BYBLOCK
 62
     0
 10
0.0
 20
0.0
 30
0.0
 11
-1.0
 21
0.0
 31
0.0
  0
ENDBLK
  5
EF9
  8
0
  0
BLOCK
  8
0
  2
GEVCON
 70
     0
 10
0.0
 20
0.0
 30
0.0
  3
GEVCON
  1
GEVCON
  0
ENDBLK
  5
5A6
  8
0
  0
BLOCK
  8
0
  2
GEVEP
 70
     0
 10
0.0
 20
0.0
 30
0.0
  3
GEVEP
  1

  0
LINE
  5
5A9
  8
0
 10
2.0
 20
-2.0
 30
0.0
 11
-2.0
 21
-2.0
 31
0.0
  0
LINE
  5
5AA
  8
0
 10
-2.0
 20
2.0
 30
0.0
 11
2.0
 21
2.0
 31
0.0
  0
LINE
  5
5AB
  8
0
 10
2.0
 20
-2.0
 30
0.0
 11
-2.0
 21
2.0
 31
0.0
  0
LINE
  5
5AC
  8
0
 10
-2.0
 20
-2.0
 30
0.0
 11
2.0
 21
2.0
 31
0.0
  0
LINE
  5
5AD
  8
0
 10
-2.0
 20
-2.0
 30
0.0
 11
-2.0
 21
2.0
 31
0.0
  0
LINE
  5
5AE
  8
0
 10
2.0
 20
2.0
 30
0.0
 11
2.0
 21
-2.0
 31
0.0
  0
ENDBLK
  5
5AF
  8
0
  0
BLOCK
  8
0
  2
GEVFRAME
 70
     0
 10
0.0
 20
0.0
 30
0.0
  3
GEVFRAME
  1
GEVFRAME
  0
LINE
  5
5B2
  8
0
 10
0.0
 20
0.0
 30
0.0
 11
1.0
 21
0.0
 31
0.0
  0
LINE
  5
5B3
  8
0
 10
1.0
 20
0.0
 30
0.0
 11
1.0
 21
1.0
 31
0.0
  0
LINE
  5
5B4
  8
0
 10
1.0
 20
1.0
 30
0.0
 11
0.0
 21
1.0
 31
0.0
  0
LINE
  5
5B5
  8
0
 10
0.0
 20
1.0
 30
0.0
 11
0.0
 21
0.0
 31
0.0
  0
ENDBLK
  5
5B6
  8
0
  0
BLOCK
  8
0
  2
TAKACHI-A4
 70
     0
 10
0.0
 20
0.0
 30
0.0
  3
TAKACHI-A4
  1

  0
TEXT
  5
5CB
  8
0
 10
10.0
 20
54.999999999999943
 30
0.0
 40
2.5
  1
!GENTITLE-LL
  0
TEXT
  5
5CC
  8
0
 10
215.0
 20
15.0
 30
0.0
 40
2.5
  1
!GENTITLE-INSERT
  0
TEXT
  5
5CD
  8
0
 10
215.0
 20
285.00000000000011
 30
0.0
 40
2.5
  1
!GENTITLE-RU
  0
TEXT
  5
5CE
  8
0
 10
215.00000000000011
 20
290.0
 30
0.0
 40
2.5
  1
!GENTITLE-MAX
  0
LINE
  5
5CF
  8
0
 10
215.0
 20
290.00000000000011
 30
0.0
 11
20.000000000000028
 21
290.0
 31
0.0
1001
GENIUS_GENREC_14
1002
{
1000
PYDIR
1011
15.00000000000003
1021
0.0
1031
0.0
1021
295.0
1031
0.0
1002
}
1002
{
1000
PXDIR
1011
215.0
1021
0.0
1031
0.0
1021
15.0
1031
0.0
1002
}
1002
{
1000
PORI
1011
15.0
1021
0.0
1031
0.0
1021
15.0
1031
0.0
1002
}
1002
{
1000
PINS
1011
115.0
1021
0.0
1031
0.0
1021
155.0
1031
0.0
1002
}
1002
{
1000
HVAL
1000
280
1002
}
1002
{
1000
H
1070
     2
1002
}
1002
{
1000
WVAL
1000
200
1002
}
1002
{
1000
W
1070
     2
1002
}
1002
{
1000
C
1070
     4
1002
}
  0
LINE
  5
5D0
  8
0
 10
20.000000000000028
 20
290.0
 30
0.0
 11
19.999999999999972
 21
15.0
 31
0.0
1001
GENIUS_GENREC_14
1002
{
1000
PYDIR
1011
15.00000000000003
1021
0.0
1031
0.0
1021
295.0
1031
0.0
1002
}
1002
{
1000
PXDIR
1011
215.0
1021
0.0
1031
0.0
1021
15.0
1031
0.0
1002
}
1002
{
1000
PORI
1011
15.0
1021
0.0
1031
0.0
1021
15.0
1031
0.0
1002
}
1002
{
1000
PINS
1011
115.0
1021
0.0
1031
0.0
1021
155.0
1031
0.0
1002
}
1002
{
1000
HVAL
1000
280
1002
}
1002
{
1000
H
1070
     2
1002
}
1002
{
1000
WVAL
1000
200
1002
}
1002
{
1000
W
1070
     2
1002
}
1002
{
1000
C
1070
     4
1002
}
  0
LINE
  5
5D1
  8
0
 10
19.999999999999972
 20
15.0
 30
0.0
 11
215.0
 21
15.0
 31
0.0
1001
GENIUS_GENREC_14
1002
{
1000
PYDIR
1011
15.00000000000003
1021
0.0
1031
0.0
1021
295.0
1031
0.0
1002
}
1002
{
1000
PXDIR
1011
215.0
1021
0.0
1031
0.0
1021
15.0
1031
0.0
1002
}
1002
{
1000
PORI
1011
15.0
1021
0.0
1031
0.0
1021
15.0
1031
0.0
1002
}
1002
{
1000
PINS
1011
115.0
1021
0.0
1031
0.0
1021
155.0
1031
0.0
1002
}
1002
{
1000
HVAL
1000
280
1002
}
1002
{
1000
H
1070
     2
1002
}
1002
{
1000
WVAL
1000
200
1002
}
1002
{
1000
W
1070
     2
1002
}
1002
{
1000
C
1070
     4
1002
}
  0
LINE
  5
5D2
  8
0
 10
215.0
 20
15.0
 30
0.0
 11
215.00000000000011
 21
290.00000000000011
 31
0.0
1001
GENIUS_GENREC_14
1002
{
1000
PYDIR
1011
15.00000000000003
1021
0.0
1031
0.0
1021
295.0
1031
0.0
1002
}
1002
{
1000
PXDIR
1011
215.0
1021
0.0
1031
0.0
1021
15.0
1031
0.0
1002
}
1002
{
1000
PORI
1011
15.0
1021
0.0
1031
0.0
1021
15.0
1031
0.0
1002
}
1002
{
1000
PINS
1011
115.0
1021
0.0
1031
0.0
1021
155.0
1031
0.0
1002
}
1002
{
1000
HVAL
1000
280
1002
}
1002
{
1000
H
1070
     2
1002
}
1002
{
1000
WVAL
1000
200
1002
}
1002
{
1000
W
1070
     2
1002
}
1002
{
1000
C
1070
     4
1002
}
  0
LINE
  5
5D3
  8
0
 10
171.00000000000011
 20
285.00000000000011
 30
0.0
 11
215.00000000000011
 21
285.00000000000011
 31
0.0
  0
LINE
  5
5D4
  8
0
 10
171.00000000000011
 20
290.00000000000011
 30
0.0
 11
171.00000000000011
 21
285.00000000000011
 31
0.0
  0
TEXT
  8
0
  40
2.5
  5
FAA
  72
0
  71
0
 10
214.359
 20
282.859
 30
0.000000
  1
(文書番号：TY-34)2004.10.29
  0
ENDBLK
  5
5D8
  8
0
  0
BLOCK
  8
0
  2
TAKACHI-TITLE
 70
     2
 10
0.0
 20
0.0
 30
0.0
  3
TAKACHI-TITLE
  1

  0
LINE
  5
5E7
  8
RAHM2
 10
-195.0
 20
30.000000000000028
 30
0.0
 11
-94.0
 21
30.000000000000028
 31
0.0
  0
LINE
  5
5E8
  8
RAHM2
 10
-195.0
 20
35.000000000000028
 30
0.0
 11
-94.0
 21
35.000000000000028
 31
0.0
  0
LINE
  5
5E9
  8
RAHM2
 10
-195.0
 20
40.000000000000021
 30
0.0
 11
-94.0
 21
40.000000000000021
 31
0.0
  0
LINE
  5
5EA
  8
RAHM2
 10
-195.0
 20
45.000000000000021
 30
0.0
 11
-94.0
 21
45.000000000000021
 31
0.0
  0
LINE
  5
5EB
  8
0
 10
-195.0
 20
7.0
 30
0.0
 11
-94.0
 21
7.0
 31
0.0
  0
LINE
  5
5EC
  8
0
 10
-195.0
 20
19.999999999999972
 30
0.0
 11
-94.0
 21
19.999999999999972
 31
0.0
  0
ATTDEF
  5
5ED
  8
0
 10
-183.24385271456069
 20
8.9508505244280823
 30
0.0
 40
2.5
  1

 11
-183.24385271456069
 21
8.6175171910947483
 31
0.0
  3
サブタイトル
  2
GEN-TITLE-DES2
 70
     0
 74
     1
  0
ATTDEF
  5
5EE
  8
0
 10
-183.24385271456069
 20
2.0175171910947478
 30
0.0
 40
3.0
  1

 11
-183.24385271456069
 21
1.6175171910947479
 31
0.0
  3
図番
  2
GEN-TITLE-NR
 70
     0
 74
     1
  0
INSERT
  5
5EF
  8
カバ_スクリュ_1
  2
*U14
 10
0.0
 20
0.0
 30
0.0
  0
ATTDEF
  5
5F0
  8
0
 10
-183.24385271456069
 20
14.40728619501834
 30
0.0
 40
4.0
  1

 11
-183.24385271456069
 21
13.873952861685011
 31
0.0
  3
品名
  2
GEN-TITLE-DES1
 70
     0
 74
     1
  0
LINE
  5
5F1
  8
RAHM2
 10
-187.57512886940361
 20
30.400000000000041
 30
0.0
 11
-190.0
 21
34.60000000000003
 31
0.0
  0
LINE
  5
5F2
  8
RAHM2
 10
-190.0
 20
34.60000000000003
 30
0.0
 11
-192.42487113059639
 21
30.400000000000041
 31
0.0
  0
LINE
  5
5F3
  8
RAHM2
 10
-185.0
 20
50.000000000000028
 30
0.0
 11
-185.0
 21
19.99999999999994
 31
0.0
  0
LINE
  5
5F4
  8
RAHM2
 10
-192.42487113059639
 20
30.400000000000041
 30
0.0
 11
-187.57512886940361
 21
30.400000000000041
 31
0.0
  0
INSERT
  5
5F5
  8
カバ_スクリュ_1
  2
*U15
 10
0.0
 20
0.0
 30
0.0
  0
INSERT
  5
5F6
  8
カバ_スクリュ_1
  2
*U16
 10
0.0
 20
0.0
 30
0.0
  0
LINE
  5
5F7
  8
RAHM2
 10
-192.42487113059639
 20
45.400000000000027
 30
0.0
 11
-187.57512886940361
 21
45.400000000000027
 31
0.0
  0
LINE
  5
5F8
  8
RAHM2
 10
-187.57512886940361
 20
45.400000000000027
 30
0.0
 11
-190.0
 21
49.600000000000023
 31
0.0
  0
LINE
  5
5F9
  8
RAHM2
 10
-192.42487113059639
 20
40.400000000000027
 30
0.0
 11
-187.57512886940361
 21
40.400000000000027
 31
0.0
  0
LINE
  5
5FA
  8
RAHM2
 10
-187.57512886940361
 20
40.400000000000027
 30
0.0
 11
-190.0
 21
44.600000000000023
 31
0.0
  0
LINE
  5
5FB
  8
RAHM2
 10
-192.42487113059639
 20
35.400000000000041
 30
0.0
 11
-187.57512886940361
 21
35.400000000000041
 31
0.0
  0
LINE
  5
5FC
  8
RAHM2
 10
-187.57512886940361
 20
35.400000000000041
 30
0.0
 11
-190.0
 21
39.600000000000023
 31
0.0
  0
LINE
  5
5FD
  8
RAHM2
 10
-190.0
 20
39.600000000000023
 30
0.0
 11
-192.42487113059639
 21
35.400000000000041
 31
0.0
  0
LINE
  5
5FE
  8
RAHM2
 10
-190.0
 20
44.600000000000023
 30
0.0
 11
-192.42487113059639
 21
40.400000000000027
 31
0.0
  0
LINE
  5
5FF
  8
RAHM2
 10
-190.0
 20
49.600000000000023
 30
0.0
 11
-192.42487113059639
 21
45.400000000000027
 31
0.0
  0
LINE
  5
600
  8
RAHM2
 10
-129.0
 20
50.000000000000028
 30
0.0
 11
-129.0
 21
19.99999999999994
 31
0.0
  0
INSERT
  5
601
  8
カバ_スクリュ_1
  2
*U17
 10
0.0
 20
0.0
 30
0.0
  0
LINE
  5
602
  8
0
 10
-34.0
 20
50.0
 30
0.0
 11
-34.0
 21
0.0
 31
0.0
  0
LINE
  5
603
  8
0
 10
-94.0
 20
50.0
 30
0.0
 11
-94.0
 21
0.0
 31
0.0
  0
INSERT
  5
604
  8
カバ_スクリュ_1
  2
*U18
 10
0.0
 20
0.0
 30
0.0
  0
LINE
  5
605
  8
0
 10
-94.0
 20
10.0
 30
0.0
 11
-34.0
 21
10.0
 31
0.0
  0
ATTDEF
  5
606
  8
0
 10
-58.014051197997453
 20
39.255005561783491
 30
0.0
 40
3.0
  1

 72
     2
 11
-58.014051197997453
 21
39.255005561783491
 31
0.0
  3
尺度
  2
GEN-TITLE-SCA
 70
     0
  0
ATTDEF
  5
607
  8
0
 10
-77.002849666490064
 20
31.02180787943475
 30
0.0
 40
3.0
  1

 11
-77.002849666490064
 21
30.621807879434751
 31
0.0
  3
材質
  2
GEN-TITLE-MAT1
 70
     0
 74
     1
  0
ATTDEF
  5
608
  8
0
 10
-77.002849666490064
 20
21.02180787943475
 30
0.0
 40
3.0
  1

 11
-77.002849666490064
 21
20.621807879434751
 31
0.0
  3
表面処理
  2
GEN-TITLE-MAT2
 70
     0
 74
     1
  0
ATTDEF
  5
609
  8
0
 10
-77.002849666490064
 20
12.01751719109475
 30
0.0
 40
3.0
  1

 11
-77.002849666490064
 21
11.61751719109475
 31
0.0
  3
日付
  2
GEN-TITLE-DAT
 70
     0
 74
     1
  0
LINE
  5
60A
  8
0
 10
-94.0
 20
37.5
 30
0.0
 11
-34.0
 21
37.5
 31
0.0
  0
LINE
  5
60B
  8
0
 10
-94.0
 20
27.5
 30
0.0
 11
-34.0
 21
27.5
 31
0.0
  0
LINE
  5
60C
  8
0
 10
-94.0
 20
17.5
 30
0.0
 11
-34.0
 21
17.5
 31
0.0
  0
LINE
  5
60D
  8
RAHM2
 10
-109.0
 20
50.000000000000028
 30
0.0
 11
-109.0
 21
19.99999999999994
 31
0.0
  0
INSERT
  5
60E
  8
カバ_スクリュ_1
  2
*U19
 10
0.0
 20
0.0
 30
0.0
  0
INSERT
  5
60F
  8
カバ_スクリュ_1
  2
*U20
 10
0.0
 20
0.0
 30
0.0
  0
INSERT
  5
610
  8
カバ_スクリュ_1
  2
*U21
 10
0.0
 20
0.0
 30
0.0
  0
INSERT
  5
611
  8
カバ_スクリュ_1
  2
*U22
 10
0.0
 20
0.0
 30
0.0
  0
INSERT
  5
612
  8
カバ_スクリュ_1
  2
*U23
 10
0.0
 20
0.0
 30
0.0
  0
INSERT
  5
613
  8
カバ_スクリュ_1
  2
*U24
 10
0.0
 20
0.0
 30
0.0
  0
INSERT
  5
614
  8
カバ_スクリュ_1
  2
*U25
 10
0.0
 20
0.0
 30
0.0
  0
INSERT
  5
615
  8
カバ_スクリュ_1
  2
*U26
 10
0.0
 20
0.0
 30
0.0
  0
LINE
  5
616
  8
7A
 10
-89.0
 20
43.75
 30
0.0
 11
-75.218691599714703
 21
43.75
 31
0.0
1001
GENIUS_GENOREF_13
1005
629
  0
LINE
  5
617
  8
0
 10
-84.0
 20
45.75
 30
0.0
 11
-76.0
 21
46.749999999999993
 31
0.0
  0
LINE
  5
618
  8
0
 10
-76.0
 20
40.75
 30
0.0
 11
-84.0
 21
41.749999999999993
 31
0.0
  0
LINE
  5
619
  8
7A
 10
-89.0
 20
43.75
 30
0.0
 11
-89.0
 21
47.324786644731482
 31
0.0
1001
GENIUS_GENOREF_13
1005
629
  0
CIRCLE
  5
61A
  8
0
 10
-89.0
 20
43.75
 30
0.0
 40
2.0
  0
CIRCLE
  5
61B
  8
0
 10
-89.0
 20
43.75
 30
0.0
 40
3.0
  0
LINE
  5
61C
  8
0
 10
-84.0
 20
41.749999999999993
 30
0.0
 11
-84.0
 21
45.75
 31
0.0
  0
INSERT
  5
61D
  8
カバ_スクリュ_1
  2
*U27
 10
0.0
 20
0.0
 30
0.0
  0
LINE
  5
61E
  8
7A
 10
-89.0
 20
43.75
 30
0.0
 11
-92.723037371251166
 21
43.75
 31
0.0
1001
GENIUS_GENOREF_13
1005
629
  0
LINE
  5
61F
  8
7A
 10
-89.0
 20
43.75
 30
0.0
 11
-89.0
 21
40.039917242284787
 31
0.0
1001
GENIUS_GENOREF_13
1005
629
  0
LINE
  5
620
  8
0
 10
-76.0
 20
46.749999999999993
 30
0.0
 11
-76.0
 21
40.75
 31
0.0
  0
LINE
  5
621
  8
0
 10
-74.0
 20
50.0
 30
0.0
 11
-74.0
 21
37.5
 31
0.0
  0
INSERT
  5
622
  8
カバ_スクリュ_1
  2
*U28
 10
0.0
 20
0.0
 30
0.0
  0
ATTDEF
  5
623
  8
0
 10
-37.76317379391503
 20
39.255005561783491
 30
0.0
 40
3.0
  1

 72
     2
 11
-37.76317379391503
 21
39.255005561783491
 31
0.0
  3
数量
  2
GEN-TITLE-QTY
 70
     0
  0
LINE
  5
624
  8
0
 10
-34.0
 20
25.0
 30
0.0
 11
0.0
 21
25.0
 31
0.0
  0
LINE
  5
625
  8
0
 10
-54.0
 20
50.0
 30
0.0
 11
-54.0
 21
37.5
 31
0.0
  0
INSERT
  5
626
  8
カバ_スクリュ_1
  2
*U29
 10
0.0
 20
0.0
 30
0.0
  0
INSERT
  5
627
  8
カバ_スクリュ_1
  2
*U30
 10
0.0
 20
0.0
 30
0.0
  0
INSERT
  5
628
  8
カバ_スクリュ_1
  2
*U31
 10
0.0
 20
0.0
 30
0.0
  0
POINT
  5
629
  8
0
 10
-320.5355579819676
 20
-138.11048412682541
 30
0.0
1001
GENIUS_GENODEF_13
1002
{
1000
HIER
1070
    10
1002
}
1002
{
1000
MANEDIT
1070
     0
1002
}
1002
{
1000
NOSEL
1070
     0
1002
}
1002
{
1000
BEHIND
1070
     0
1002
}
1002
{
1000
REACTOR
1002
}
1001
GENIUS_GENOBJ-N-CRS_13
1002
{
1000
OWNER
1000
GEN
1002
}
1001
GENIUS_GENOENT_13
1002
{
1000
MYREF
1005
629
1002
}
1002
{
1000
GRP
1005
0
1002
}
1001
GENIUS_GENOLIS_13
1002
{
1000
ENT
1005
61F
1005
61E
1005
619
1005
616
1002
}
  0
LINE
  5
62A
  8
RAHM2
 10
-190.0
 20
29.600000000000019
 30
0.0
 11
-192.42487113059639
 21
25.400000000000041
 31
0.0
  0
LINE
  5
62B
  8
RAHM2
 10
-187.57512886940361
 20
25.400000000000041
 30
0.0
 11
-190.0
 21
29.600000000000019
 31
0.0
  0
LINE
  5
62C
  8
RAHM2
 10
-192.42487113059639
 20
25.400000000000041
 30
0.0
 11
-187.57512886940361
 21
25.400000000000041
 31
0.0
  0
LINE
  5
62D
  8
RAHM2
 10
-195.0
 20
25.000000000000028
 30
0.0
 11
-94.0
 21
25.000000000000028
 31
0.0
  0
INSERT
  5
62E
  8
カバ_スクリュ_1
  2
*U32
 10
0.0
 20
0.0
 30
0.0
  0
TEXT
  5
62F
  8
RAHM2
 10
-190.8155863565801
 20
25.98333333333337
 30
0.0
 40
2.5
  1
1
 72
     1
 11
-190.19058635658021
 21
25.650000000000031
 31
0.0
 73
     1
  0
TEXT
  5
630
  8
RAHM2
 10
-190.9183316929134
 20
30.98333333333337
 30
0.0
 40
2.5
  1
2
 72
     1
 11
-190.0
 21
30.650000000000031
 31
0.0
 73
     1
  0
TEXT
  5
631
  8
RAHM2
 10
-190.92677669529661
 20
35.983333333333341
 30
0.0
 40
2.5
  1
3
 72
     1
 11
-190.0
 21
35.650000000000013
 31
0.0
 73
     1
  0
TEXT
  5
632
  8
RAHM2
 10
-191.0
 20
40.98333333333337
 30
0.0
 40
2.5
  1
4
 72
     1
 11
-190.0
 21
40.650000000000027
 31
0.0
 73
     1
  0
TEXT
  5
633
  8
RAHM2
 10
-190.92677669529661
 20
45.98333333333337
 30
0.0
 40
2.5
  1
5
 72
     1
 11
-190.0
 21
45.650000000000027
 31
0.0
 73
     1
  0
LINE
  5
634
  8
0
 10
-17.0
 20
50.0
 30
0.0
 11
-17.0
 21
0.0
 31
0.0
  0
LINE
  5
635
  8
0
 10
-195.0
 20
0.0
 30
0.0
 11
0.0
 21
0.0
 31
0.0
1001
GENIUS_GENREC_14
1002
{
1000
PYDIR
1011
-184.0
1021
0.0
1031
0.0
1021
50.0
1031
0.0
1002
}
1002
{
1000
PXDIR
1011
0.0
1021
0.0
1031
0.0
1021
0.0
1031
0.0
1002
}
1002
{
1000
PORI
1011
-184.0
1021
0.0
1031
0.0
1021
0.0
1031
0.0
1002
}
1002
{
1000
PINS
1011
-100.5
1021
0.0
1031
0.0
1021
25.0
1031
0.0
1002
}
1002
{
1000
HVAL
1000
50
1002
}
1002
{
1000
H
1070
     2
1002
}
1002
{
1000
WVAL
1000
167
1002
}
1002
{
1000
W
1070
     2
1002
}
1002
{
1000
C
1070
     4
1002
}
1001
GENIUS_GENODEF_13
1002
{
1000
HIER
1070
     0
1002
}
1002
{
1000
MANEDIT
1070
     0
1002
}
1002
{
1000
NOSEL
1070
     0
1002
}
1002
{
1000
BEHIND
1070
     0
1002
}
1002
{
1000
REACTOR
1002
}
1001
GENIUS_GENOBJ-N-REC_13
1002
{
1000
OWNER
1000
GEN
1002
}
  0
LINE
  5
636
  8
0
 10
0.0
 20
0.0
 30
0.0
 11
0.0
 21
50.0
 31
0.0
1001
GENIUS_GENREC_14
1002
{
1000
PYDIR
1011
-184.0
1021
0.0
1031
0.0
1021
50.0
1031
0.0
1002
}
1002
{
1000
PXDIR
1011
0.0
1021
0.0
1031
0.0
1021
0.0
1031
0.0
1002
}
1002
{
1000
PORI
1011
-184.0
1021
0.0
1031
0.0
1021
0.0
1031
0.0
1002
}
1002
{
1000
PINS
1011
-100.5
1021
0.0
1031
0.0
1021
25.0
1031
0.0
1002
}
1002
{
1000
HVAL
1000
50
1002
}
1002
{
1000
H
1070
     2
1002
}
1002
{
1000
WVAL
1000
167
1002
}
1002
{
1000
W
1070
     2
1002
}
1002
{
1000
C
1070
     4
1002
}
1001
GENIUS_GENODEF_13
1002
{
1000
HIER
1070
     0
1002
}
1002
{
1000
MANEDIT
1070
     0
1002
}
1002
{
1000
NOSEL
1070
     0
1002
}
1002
{
1000
BEHIND
1070
     0
1002
}
1002
{
1000
REACTOR
1002
}
1001
GENIUS_GENOBJ-N-REC_13
1002
{
1000
OWNER
1000
GEN
1002
}
  0
LINE
  5
637
  8
0
 10
0.0
 20
50.0
 30
0.0
 11
-195.0
 21
50.000000000000028
 31
0.0
1001
GENIUS_GENREC_14
1002
{
1000
PYDIR
1011
-184.0
1021
0.0
1031
0.0
1021
50.0
1031
0.0
1002
}
1002
{
1000
PXDIR
1011
0.0
1021
0.0
1031
0.0
1021
0.0
1031
0.0
1002
}
1002
{
1000
PORI
1011
-184.0
1021
0.0
1031
0.0
1021
0.0
1031
0.0
1002
}
1002
{
1000
PINS
1011
-100.5
1021
0.0
1031
0.0
1021
25.0
1031
0.0
1002
}
1002
{
1000
HVAL
1000
50
1002
}
1002
{
1000
H
1070
     2
1002
}
1002
{
1000
WVAL
1000
167
1002
}
1002
{
1000
W
1070
     2
1002
}
1002
{
1000
C
1070
     4
1002
}
1001
GENIUS_GENODEF_13
1002
{
1000
HIER
1070
     0
1002
}
1002
{
1000
MANEDIT
1070
     0
1002
}
1002
{
1000
NOSEL
1070
     0
1002
}
1002
{
1000
BEHIND
1070
     0
1002
}
1002
{
1000
REACTOR
1002
}
1001
GENIUS_GENOBJ-N-REC_13
1002
{
1000
OWNER
1000
GEN
1002
}
  0
LINE
  5
638
  8
0
 10
-195.0
 20
50.000000000000028
 30
0.0
 11
-195.0
 21
0.0
 31
0.0
1001
GENIUS_GENREC_14
1002
{
1000
PYDIR
1011
-195.0
1021
0.0
1031
0.0
1021
50.0
1031
0.0
1002
}
1002
{
1000
PXDIR
1011
-11.0
1021
0.0
1031
0.0
1021
0.0
1031
0.0
1002
}
1002
{
1000
PORI
1011
-195.0
1021
0.0
1031
0.0
1021
0.0
1031
0.0
1002
}
1002
{
1000
PINS
1011
-111.5
1021
0.0
1031
0.0
1021
25.0
1031
0.0
1002
}
1002
{
1000
HVAL
1000
50
1002
}
1002
{
1000
H
1070
     2
1002
}
1002
{
1000
WVAL
1000
167
1002
}
1002
{
1000
W
1070
     2
1002
}
1002
{
1000
C
1070
     4
1002
}
1001
GENIUS_GENODEF_13
1002
{
1000
HIER
1070
     0
1002
}
1002
{
1000
MANEDIT
1070
     0
1002
}
1002
{
1000
NOSEL
1070
     0
1002
}
1002
{
1000
BEHIND
1070
     0
1002
}
1002
{
1000
REACTOR
1002
}
1001
GENIUS_GENOBJ-N-REC_13
1002
{
1000
OWNER
1000
GEN
1002
}
  0
INSERT
  5
639
  8
カバ_スクリュ_1
  2
*U33
 10
0.0
 20
0.0
 30
0.0
  0
INSERT
  5
63A
  8
カバ_スクリュ_1
  2
*U34
 10
0.0
 20
0.0
 30
0.0
  0
ENDBLK
  5
63D
  8
0
  0
BLOCK
  8
0
  6
CONTINUOUS
  2
GENDIM2
 70
     0
 10
0.0
 20
0.0
 30
0.0
  3
GENDIM2
  1

  0
LINE
  5
665
  8
CK_LEVEL_1
  6
CONTINUOUS
 62
    11
 10
74.414209999999997
 20
159.43489
 30
0.0
 11
74.414209999999997
 21
171.75113999999999
 31
0.0
  0
LINE
  5
666
  8
CK_LEVEL_1
  6
CONTINUOUS
 62
    11
 10
84.814210000000003
 20
159.43489
 30
0.0
 11
84.814210000000003
 21
171.75113999999999
 31
0.0
  0
LINE
  5
667
  8
CK_LEVEL_1
  6
CONTINUOUS
 62
    11
 10
74.414209999999997
 20
170.55114
 30
0.0
 11
64.814210000000003
 21
170.55114
 31
0.0
  0
SOLID
  5
668
  8
CK_LEVEL_1
  6
CONTINUOUS
 62
    11
 10
69.61421
 20
169.83114
 30
0.0
 11
69.61421
 21
171.27114
 31
0.0
 12
74.414209999999997
 22
170.55114
 32
0.0
 13
74.414209999999997
 23
170.55114
 33
0.0
  0
LINE
  5
669
  8
CK_LEVEL_1
  6
CONTINUOUS
 62
    11
 10
84.814210000000003
 20
170.55114
 30
0.0
 11
94.414209999999997
 21
170.55114
 31
0.0
  0
SOLID
  5
66A
  8
CK_LEVEL_1
  6
CONTINUOUS
 62
    11
 10
89.614209999999986
 20
171.27114
 30
0.0
 11
89.614209999999986
 21
169.83114
 31
0.0
 12
84.814210000000003
 22
170.55114
 32
0.0
 13
84.814210000000003
 23
170.55114
 33
0.0
  0
LINE
  5
66B
  8
CK_LEVEL_1
  6
CONTINUOUS
 62
    11
 10
74.414209999999997
 20
170.55114
 30
0.0
 11
84.814210000000003
 21
170.55114
 31
0.0
  0
TEXT
  5
66C
  8
CK_LEVEL_1
  6
CONTINUOUS
 62
    11
 10
70.695480000000003
 20
174.15114
 30
0.0
 40
4.7999999999999989
  1
%%c 10.4
 41
0.5
  7
CKSTANDARD
  0
ENDBLK
  5
66D
  8
0
  6
CONTINUOUS
  0
BLOCK
  8
0
  6
CONTINUOUS
  2
GENDIM3
 70
     0
 10
0.0
 20
0.0
 30
0.0
  3
GENDIM3
  1

  0
LINE
  5
670
  8
CK_LEVEL_1
  6
CONTINUOUS
 62
    11
 10
76.86421
 20
140.66418999999999
 30
0.0
 11
76.86421
 21
139.65467000000001
 31
0.0
  0
LINE
  5
671
  8
CK_LEVEL_1
  6
CONTINUOUS
 62
    11
 10
82.364209999999986
 20
140.66418999999999
 30
0.0
 11
82.364209999999986
 21
139.65467000000001
 31
0.0
  0
LINE
  5
672
  8
CK_LEVEL_1
  6
CONTINUOUS
 62
    11
 10
76.86421
 20
138.45466999999999
 30
0.0
 11
67.264209999999991
 21
138.45466999999999
 31
0.0
  0
SOLID
  5
673
  8
CK_LEVEL_1
  6
CONTINUOUS
 62
    11
 10
72.064210000000003
 20
137.73466999999999
 30
0.0
 11
72.064210000000003
 21
139.17466999999999
 31
0.0
 12
76.86421
 22
138.45466999999999
 32
0.0
 13
76.86421
 23
138.45466999999999
 33
0.0
  0
LINE
  5
674
  8
CK_LEVEL_1
  6
CONTINUOUS
 62
    11
 10
82.364209999999986
 20
138.45466999999999
 30
0.0
 11
108.74531
 21
138.45466999999999
 31
0.0
  0
SOLID
  5
675
  8
CK_LEVEL_1
  6
CONTINUOUS
 62
    11
 10
87.164209999999997
 20
139.17466999999999
 30
0.0
 11
87.164209999999997
 21
137.73466999999999
 31
0.0
 12
82.364209999999986
 22
138.45466999999999
 32
0.0
 13
82.364209999999986
 23
138.45466999999999
 33
0.0
  0
LINE
  5
676
  8
CK_LEVEL_1
  6
CONTINUOUS
 62
    11
 10
76.86421
 20
138.45466999999999
 30
0.0
 11
82.364209999999986
 21
138.45466999999999
 31
0.0
  0
TEXT
  5
677
  8
CK_LEVEL_1
  6
CONTINUOUS
 62
    11
 10
91.945309999999992
 20
142.05466999999999
 30
0.0
 40
4.7999999999999989
  1
%%c 5.5
 41
0.5
  7
CKSTANDARD
  0
ENDBLK
  5
678
  8
0
  6
CONTINUOUS
  0
BLOCK
  8
0
  2
*D10
 70
     1
 10
0.0
 20
0.0
 30
0.0
  3
*D10
  1

  0
LINE
  5
CCB
  8
AM_5
 10
97.214099482528255
 20
148.89132240396339
 30
0.0
 11
97.214099482528255
 21
136.89132240396339
 31
0.0
  0
LINE
  5
CCC
  8
AM_5
 10
132.21409948252821
 20
151.00125240396341
 30
0.0
 11
132.21409948252821
 21
136.89132240396339
 31
0.0
  0
LINE
  5
CCD
  8
AM_5
 10
99.714099482528255
 20
137.89132240396339
 30
0.0
 11
129.7140994825283
 21
137.89132240396339
 31
0.0
  0
INSERT
  5
CCE
  8
AM_5
  2
_OPEN30
 10
97.214099482528255
 20
137.89132240396339
 30
0.0
 41
2.5
 42
2.5
 43
2.5
 50
180.0
  0
INSERT
  5
CCF
  8
AM_5
  2
_OPEN30
 10
132.21409948252821
 20
137.89132240396339
 30
0.0
 41
2.5
 42
2.5
 43
2.5
  0
INSERT
  5
CD0
  8
カバ_スクリュ_1
  2
*U35
 10
0.0
 20
0.0
 30
0.0
  0
POINT
  5
CD1
  8
DEFPOINTS
 62
     0
 10
97.214099482528255
 20
149.89132240396339
 30
0.0
  0
POINT
  5
CD2
  8
DEFPOINTS
 62
     0
 10
132.21409948252821
 20
152.00125240396341
 30
0.0
  0
POINT
  5
CD3
  8
DEFPOINTS
 62
     0
 10
132.21409948252821
 20
137.89132240396339
 30
0.0
  0
ENDBLK
  5
C9F
  8
0
  0
BLOCK
  8
0
  2
*D11
 70
     1
 10
0.0
 20
0.0
 30
0.0
  3
*D11
  1

  0
LINE
  5
F9D
  8
AM_5
 10
96.214099482528269
 20
149.89132240396339
 30
0.0
 11
84.214099482528269
 21
149.89132240396339
 31
0.0
  0
LINE
  5
F9E
  8
AM_5
 10
96.214099482528255
 20
160.29132240396339
 30
0.0
 11
84.214099482528269
 21
160.29132240396339
 31
0.0
  0
LINE
  5
F9F
  8
AM_5
 10
85.214099482528269
 20
152.39132240396339
 30
0.0
 11
85.214099482528269
 21
157.79132240396339
 31
0.0
  0
TEXT
  8
AM_5
  40
3.5
  5
FAB
  62
2
  72
0
  71
0
 10
81.8437
 20
151.007
 30
0.000000
  1
%%c10.4
  0
INSERT
  5
FA1
  8
AM_5
  2
_OPEN30
 10
85.214099482528269
 20
149.89132240396339
 30
0.0
 41
2.5
 42
2.5
 43
2.5
 50
270.0
  0
INSERT
  5
FA2
  8
AM_5
  2
_OPEN30
 10
85.214099482528283
 20
160.29132240396339
 30
0.0
 41
2.5
 42
2.5
 43
2.5
 50
90.0
  0
POINT
  5
FA3
  8
DEFPOINTS
 62
     0
 10
97.214099482528255
 20
149.89132240396339
 30
0.0
  0
POINT
  5
FA4
  8
DEFPOINTS
 62
     0
 10
97.214099482528255
 20
160.29132240396339
 30
0.0
  0
POINT
  5
FA5
  8
DEFPOINTS
 62
     0
 10
85.214099482528283
 20
160.29132240396339
 30
0.0
  0
ENDBLK
  5
D04
  8
0
  0
BLOCK
  8
0
  2
*U14
 70
     1
 10
0.0
 20
0.0
 30
0.0
  3
*U14
  1

  0
TEXT
  5
F46
  8
RAHM2
 10
-193.80025513713139
 20
3.3010354072796408
 30
0.0
 40
2.5
  1
図番
  0
ENDBLK
  5
F48
  8
0
  0
BLOCK
  8
0
  2
*U15
 70
     1
 10
0.0
 20
0.0
 30
0.0
  3
*U15
  1

  0
TEXT
  5
F4A
  8
RAHM2
 10
-193.0
 20
21.249999999999972
 30
0.0
 40
2.5
  1
符号
  0
ENDBLK
  5
F4C
  8
0
  0
BLOCK
  8
0
  2
*U16
 70
     1
 10
0.0
 20
0.0
 30
0.0
  3
*U16
  1

  0
TEXT
  5
F4E
  8
RAHM2
 10
-193.80025513713139
 20
16.30103540727961
 30
0.0
 40
2.5
  1
品名
  0
ENDBLK
  5
F50
  8
0
  0
BLOCK
  8
0
  2
*U17
 70
     1
 10
0.0
 20
0.0
 30
0.0
  3
*U17
  1

  0
TEXT
  5
F52
  8
RAHM2
 10
-163.1448171868856
 20
21.249999999999972
 30
0.0
 40
2.5
  1
変更記事
  0
ENDBLK
  5
F54
  8
0
  0
BLOCK
  8
0
  2
*U18
 70
     1
 10
0.0
 20
0.0
 30
0.0
  3
*U18
  1

  0
TEXT
  5
F56
  8
0
 10
-88.85532994923858
 20
3.4187817258883251
 30
0.0
 40
3.5
  1
株式会社タカチ電機工業
  0
ENDBLK
  5
F58
  8
0
  0
BLOCK
  8
0
  2
*U19
 70
     1
 10
0.0
 20
0.0
 30
0.0
  3
*U19
  1

  0
TEXT
  5
F5A
  8
RAHM2
 10
-123.3541228057275
 20
31.250000000000028
 30
0.0
 40
2.5
  1
・  ・   
  0
ENDBLK
  5
F5C
  8
0
  0
BLOCK
  8
0
  2
*U20
 70
     1
 10
0.0
 20
0.0
 30
0.0
  3
*U20
  1

  0
TEXT
  5
F5E
  8
RAHM2
 10
-126.238119805002
 20
21.249999999999972
 30
0.0
 40
2.5
  1
年・月・日
  0
ENDBLK
  5
F60
  8
0
  0
BLOCK
  8
0
  2
*U21
 70
     1
 10
0.0
 20
0.0
 30
0.0
  3
*U21
  1

  0
TEXT
  5
F62
  8
RAHM2
 10
-104.5
 20
21.249999999999972
 30
0.0
 40
2.5
  1
担当
  0
ENDBLK
  5
F64
  8
0
  0
BLOCK
  8
0
  2
*U22
 70
     1
 10
0.0
 20
0.0
 30
0.0
  3
*U22
  1

  0
TEXT
  5
F66
  8
RAHM2
 10
-123.3541228057275
 20
41.250000000000021
 30
0.0
 40
2.5
  1
・  ・   
  0
ENDBLK
  5
F68
  8
0
  0
BLOCK
  8
0
  2
*U23
 70
     1
 10
0.0
 20
0.0
 30
0.0
  3
*U23
  1

  0
TEXT
  5
F6A
  8
RAHM2
 10
-123.3541228057275
 20
36.250000000000028
 30
0.0
 40
2.5
  1
・  ・   
  0
ENDBLK
  5
F6C
  8
0
  0
BLOCK
  8
0
  2
*U24
 70
     1
 10
0.0
 20
0.0
 30
0.0
  3
*U24
  1

  0
TEXT
  5
F6E
  8
RAHM2
 10
-123.3541228057275
 20
46.250000000000021
 30
0.0
 40
2.5
  1
・  ・   
  0
ENDBLK
  5
F70
  8
0
  0
BLOCK
  8
0
  2
*U25
 70
     1
 10
0.0
 20
0.0
 30
0.0
  3
*U25
  1

  0
TEXT
  5
F72
  8
RAHM2
 10
-92.800255137131444
 20
13.80103540727964
 30
0.0
 40
2.5
  1
日付
  0
ENDBLK
  5
F74
  8
0
  0
BLOCK
  8
0
  2
*U26
 70
     1
 10
0.0
 20
0.0
 30
0.0
  3
*U26
  1

  0
TEXT
  5
F76
  8
RAHM2
 10
-92.800255137131444
 20
23.801035407279642
 30
0.0
 40
2.5
  1
表面処理
  0
ENDBLK
  5
F78
  8
0
  0
BLOCK
  8
0
  2
*U27
 70
     1
 10
0.0
 20
0.0
 30
0.0
  3
*U27
  1

  0
TEXT
  5
F7A
  8
RAHM2
 10
-92.800255137131444
 20
33.801035407279642
 30
0.0
 40
2.5
  1
材質
  0
ENDBLK
  5
F7C
  8
0
  0
BLOCK
  8
0
  2
*U28
 70
     1
 10
0.0
 20
0.0
 30
0.0
  3
*U28
  1

  0
TEXT
  5
F7E
  8
RAHM2
 10
-72.800255137131444
 20
46.301035407279642
 30
0.0
 40
2.5
  1
尺度
  0
ENDBLK
  5
F80
  8
0
  0
BLOCK
  8
0
  2
*U29
 70
     1
 10
0.0
 20
0.0
 30
0.0
  3
*U29
  1

  0
TEXT
  5
F82
  8
RAHM2
 10
-52.800255137131451
 20
46.301035407279642
 30
0.0
 40
2.5
  1
数量
  0
ENDBLK
  5
F84
  8
0
  0
BLOCK
  8
0
  2
*U30
 70
     1
 10
0.0
 20
0.0
 30
0.0
  3
*U30
  1

  0
TEXT
  5
F86
  8
RAHM2
 10
-28.3125
 20
21.301035407279642
 30
0.0
 40
2.5
  1
承認
  0
ENDBLK
  5
F88
  8
0
  0
BLOCK
  8
0
  2
*U31
 70
     1
 10
0.0
 20
0.0
 30
0.0
  3
*U31
  1

  0
TEXT
  5
F8A
  8
RAHM2
 10
-28.3125
 20
46.301035407279642
 30
0.0
 40
2.5
  1
承認
  0
ENDBLK
  5
F8C
  8
0
  0
BLOCK
  8
0
  2
*U32
 70
     1
 10
0.0
 20
0.0
 30
0.0
  3
*U32
  1

  0
TEXT
  5
F8E
  8
RAHM2
 10
-123.3541228057275
 20
26.250000000000028
 30
0.0
 40
2.5
  1
・  ・   
  0
ENDBLK
  5
F90
  8
0
  0
BLOCK
  8
0
  2
*U33
 70
     1
 10
0.0
 20
0.0
 30
0.0
  3
*U33
  1

  0
TEXT
  5
F92
  8
RAHM2
 10
-11.3125
 20
46.301035407279642
 30
0.0
 40
2.5
  1
検図
  0
ENDBLK
  5
F94
  8
0
  0
BLOCK
  8
0
  2
*U34
 70
     1
 10
0.0
 20
0.0
 30
0.0
  3
*U34
  1

  0
TEXT
  5
F96
  8
RAHM2
 10
-11.3125
 20
21.301035407279642
 30
0.0
 40
2.5
  1
製図
  0
ENDBLK
  5
F98
  8
0
  0
BLOCK
  8
0
  2
*U35
 70
     1
 10
0.0
 20
0.0
 30
0.0
  3
*U35
  1

  0
TEXT
  5
F9A
  8
AM_5
 62
     2
 10
112.1916121091129
 20
139.39132240396339
 30
0.0
 40
3.5
  1
35
  0
ENDBLK
  5
F9C
  8
0
  0
BLOCK
  8
0
  2
*U36
 70
     1
 10
0.0
 20
0.0
 30
0.0
  3
*U36
  1

  0
TEXT
  5
FA7
  8
AM_5
 62
     2
 10
134.82425132027711
 20
169.4755368268894
 30
0.0
 40
3.5
  1
M10
  7
ACISOTS
  0
ENDBLK
  5
FA9
  8
0
  0
ENDSEC
  0
SECTION
  2
ENTITIES
  0
INSERT
  5
5E0
  8
0
  2
TAKACHI-A4
 10
0.0
 20
0.0
 30
0.0
1001
GENIUS_GENOREF_13
1005
649
1001
GENIUS_GENODEF_13
1002
{
1000
HIER
1070
     0
1002
}
1002
{
1000
MANEDIT
1070
     0
1002
}
1002
{
1000
NOSEL
1070
     0
1002
}
1002
{
1000
BEHIND
1070
     0
1002
}
1002
{
1000
OTHER
1070
     0
1002
}
1002
{
1000
REACTOR
1002
}
1001
GENIUS_GENOBJ-N-SDF_13
1002
{
1000
OWNER
1000
GEN
1002
}
1001
GENIUS_GENSCREG_13
1040
1.0
1040
1.0
1011
0.0
1021
0.0
1031
0.0
1021
0.0
1031
0.0
1011
195.00000000000011
1021
0.0
1031
0.0
1021
275.0
1031
0.0
1070
     3
  0
INSERT
  5
63F
  8
0
 66
     1
  2
TAKACHI-TITLE
 10
215.0
 20
15.0
 30
0.0
1001
GENIUS_GENOREF_13
1005
649
  0
ATTRIB
  5
641
  8
0
 10
31.756147285439312
 20
23.95085052442808
 30
0.0
 40
2.5
  1
SPCP・SPCK・SABP　H=100以外用
 11
31.756147285439312
 21
23.617517191094748
 31
0.0
  2
GEN-TITLE-DES2
 70
     0
 74
     1
  0
ATTRIB
  5
642
  8
0
 10
31.756147285439312
 20
17.01751719109475
 30
0.0
 40
3.0
  1

 11
31.756147285439312
 21
16.617517191094748
 31
0.0
  2
GEN-TITLE-NR
 70
     0
 74
     1
  0
ATTRIB
  5
643
  8
0
 10
31.756147285439312
 20
29.407286195018351
 30
0.0
 40
4.0
  1
スペアカバースクリュー
 11
31.756147285439312
 21
28.873952861685009
 31
0.0
  2
GEN-TITLE-DES1
 70
     0
 74
     1
  0
ATTRIB
  5
644
  8
0
 10
153.53594880200259
 20
54.255005561783491
 30
0.0
 40
3.0
  1
1:1
 72
     2
 11
156.98594880200261
 21
54.255005561783491
 31
0.0
  2
GEN-TITLE-SCA
 70
     0
  0
ATTRIB
  5
645
  8
0
 10
137.99715033350989
 20
46.021807879434753
 30
0.0
 40
3.0
  1
ポリアミド
 11
137.99715033350989
 21
45.621807879434748
 31
0.0
  2
GEN-TITLE-MAT1
 70
     0
 74
     1
  0
ATTRIB
  5
646
  8
0
 10
137.99715033350989
 20
36.021807879434753
 30
0.0
 40
3.0
  1
ホワイトグレー
 11
137.99715033350989
 21
35.621807879434748
 31
0.0
  2
GEN-TITLE-MAT2
 70
     0
 74
     1
  0
ATTRIB
  5
647
  8
0
 10
137.99715033350989
 20
27.01751719109475
 30
0.0
 40
3.0
  1
2005/11/1
 11
137.99715033350989
 21
26.617517191094748
 31
0.0
  2
GEN-TITLE-DAT
 70
     0
 74
     1
  0
ATTRIB
  5
648
  8
0
 10
176.18682620608499
 20
54.255005561783491
 30
0.0
 40
3.0
  1
1
 72
     2
 11
177.236826206085
 21
54.255005561783491
 31
0.0
  2
GEN-TITLE-QTY
 70
     0
  0
SEQEND
  5
640
  8
0
  0
POINT
  5
649
  8
0
 10
0.0
 20
0.0
 30
0.0
1001
GENIUS_GENOBJ-N-TIT_13
1002
{
1000
OWNER
1000
GEN
1002
}
1001
GENIUS_GENODEF_13
1002
{
1000
HIER
1070
     1
1002
}
1002
{
1000
MANEDIT
1070
     0
1002
}
1002
{
1000
NOSEL
1070
     0
1002
}
1002
{
1000
BEHIND
1070
     0
1002
}
1002
{
1000
OTHER
1070
     0
1002
}
1002
{
1000
REACTOR
1002
}
1001
GENIUS_GENOLIS_13
1002
{
1000
ENT
1005
63F
1005
5E0
1002
}
1001
GENIUS_GENOENT_13
1002
{
1000
MYREF
1005
649
1002
}
1002
{
1000
GRP
1005
0
1002
}
1001
GENIUS_GENTITLE_13
1002
{
1000
BORDER
1000
TAKACHI-A4
1002
}
1002
{
1000
TITLE
1000
TAKACHI-TITLE
1002
}
1002
{
1000
SCALE
1000
1:1
1002
}
1002
{
1000
TITLESTD
1000
ISO
1002
}
1002
{
1000
HRA
1005
5E0
1002
}
1002
{
1000
HTIT
1005
63F
1002
}
1002
{
1000
UNCHG
1002
{
1000
GEN-TITLE-SIZ
1000
GEN-TITLE-SCA
1002
}
1002
}
1002
{
1000
GENIUSID
1005
649
1002
}
  0
LINE
  5
705
  8
カバ_スクリュ_1
  6
CONTINUOUS
 62
     7
 10
123.2140994825283
 20
152.3413224039634
 30
0.0
 11
122.7140994825283
 21
152.3413224039634
 31
0.0
  0
LINE
  5
706
  8
カバ_スクリュ_1
  6
CONTINUOUS
 62
     7
 10
123.2140994825283
 20
157.8413224039634
 30
0.0
 11
122.7140994825283
 21
157.8413224039634
 31
0.0
  0
LINE
  5
707
  8
カバ_スクリュ_1
  6
CONTINUOUS
 62
     7
 10
100.7140994825282
 20
158.8413224039634
 30
0.0
 11
98.714099482528269
 21
158.8413224039634
 31
0.0
  0
LINE
  5
708
  8
カバ_スクリュ_1
  6
CONTINUOUS
 62
     7
 10
100.7140994825282
 20
160.29132240396339
 30
0.0
 11
97.214099482528255
 21
160.29132240396339
 31
0.0
  0
ARC
  5
709
  8
カバ_スクリュ_1
  6
CONTINUOUS
 62
     7
 10
109.2140994825283
 20
158.3413224039634
 30
0.0
 40
0.5
 50
180.0
 51
270.0
  0
ARC
  5
70A
  8
カバ_スクリュ_1
  6
CONTINUOUS
 62
     7
 10
108.2140994825283
 20
159.79132240396339
 30
0.0
 40
0.5
 50
0.0
 51
90.0
  0
LINE
  5
70B
  8
カバ_スクリュ_1
  6
CONTINUOUS
 62
     7
 10
108.2140994825282
 20
160.29132240396339
 30
0.0
 11
100.7140994825282
 21
160.29132240396339
 31
0.0
  0
ARC
  5
70C
  8
カバ_スクリュ_1
  6
CONTINUOUS
 62
     7
 10
100.51409948252829
 20
154.29132240396339
 30
0.0
 40
0.2
 50
0.0
 51
90.0
  0
ARC
  5
70D
  8
カバ_スクリュ_1
  6
CONTINUOUS
 62
     7
 10
98.914099482528286
 20
154.29132240396339
 30
0.0
 40
0.2
 50
90.0
 51
180.0
  0
LINE
  5
70E
  8
カバ_スクリュ_1
  6
CONTINUOUS
 62
     7
 10
100.5140994825282
 20
154.49132240396341
 30
0.0
 11
98.914099482528258
 21
154.49132240396341
 31
0.0
  0
LINE
  5
70F
  8
カバ_スクリュ_1
  6
CONTINUOUS
 62
     7
 10
100.7140994825282
 20
151.3413224039634
 30
0.0
 11
98.714099482528269
 21
151.3413224039634
 31
0.0
  0
LINE
  5
710
  8
カバ_スクリュ_1
  6
CONTINUOUS
 62
     7
 10
100.5140994825282
 20
155.6913224039634
 30
0.0
 11
98.914099482528258
 21
155.6913224039634
 31
0.0
  0
ARC
  5
711
  8
カバ_スクリュ_1
  6
CONTINUOUS
 62
     7
 10
98.914099482528286
 20
155.89132240396339
 30
0.0
 40
0.2
 50
180.0
 51
270.0
  0
ARC
  5
712
  8
カバ_スクリュ_1
  6
CONTINUOUS
 62
     7
 10
100.51409948252829
 20
155.89132240396339
 30
0.0
 40
0.2
 50
270.0
 51
0.0
  0
LINE
  5
713
  8
カバ_スクリュ_1
  6
CONTINUOUS
 62
     7
 10
100.7140994825282
 20
149.89132240396339
 30
0.0
 11
97.214099482528255
 21
149.89132240396339
 31
0.0
  0
LINE
  5
714
  8
カバ_スクリュ_1
  6
CONTINUOUS
 62
     7
 10
100.7140994825282
 20
149.89132240396339
 30
0.0
 11
100.7140994825282
 21
154.29132240396339
 31
0.0
  0
LINE
  5
715
  8
カバ_スクリュ_1
  6
CONTINUOUS
 62
     7
 10
98.714099482528269
 20
149.89132240396339
 30
0.0
 11
98.714099482528269
 21
154.29132240396339
 31
0.0
  0
LINE
  5
716
  8
カバ_スクリュ_1
  6
CONTINUOUS
 62
     7
 10
97.214099482528255
 20
149.89132240396339
 30
0.0
 11
97.214099482528255
 21
155.0913224039634
 31
0.0
  0
ARC
  5
717
  8
カバ_スクリュ_1
  6
CONTINUOUS
 62
     7
 10
109.2140994825283
 20
151.8413224039634
 30
0.0
 40
0.5
 50
90.0
 51
180.0
  0
ARC
  5
718
  8
カバ_スクリュ_1
  6
CONTINUOUS
 62
     7
 10
108.2140994825283
 20
150.39132240396339
 30
0.0
 40
0.5
 50
270.0
 51
0.0
  0
LINE
  5
719
  8
カバ_スクリュ_1
  6
CONTINUOUS
 62
     7
 10
108.2140994825282
 20
149.89132240396339
 30
0.0
 11
100.7140994825282
 21
149.89132240396339
 31
0.0
  0
LINE
  5
71A
  8
カバ_スクリュ_1
  6
CONTINUOUS
 62
     7
 10
98.714099482528269
 20
160.29132240396339
 30
0.0
 11
98.714099482528269
 21
155.89132240396339
 31
0.0
  0
LINE
  5
71B
  8
カバ_スクリュ_1
  6
CONTINUOUS
 62
     7
 10
100.7140994825282
 20
160.29132240396339
 30
0.0
 11
100.7140994825282
 21
155.89132240396339
 31
0.0
  0
LINE
  5
71C
  8
カバ_スクリュ_1
  6
CONTINUOUS
 62
     7
 10
97.214099482528255
 20
160.29132240396339
 30
0.0
 11
97.214099482528255
 21
155.0913224039634
 31
0.0
  0
LINE
  5
71D
  8
カバ_スクリュ_1
  6
CONTINUOUS
 62
     7
 10
108.7140994825283
 20
159.79132240396339
 30
0.0
 11
108.7140994825283
 21
150.39132240396339
 31
0.0
  0
ARC
  5
71E
  8
カバ_スクリュ_1
  6
CONTINUOUS
 62
     7
 10
122.2140994825283
 20
151.8413224039634
 30
0.0
 40
0.5
 50
0.0
 51
90.0
  0
ARC
  5
71F
  8
カバ_スクリュ_1
  6
CONTINUOUS
 62
     7
 10
122.2140994825283
 20
158.3413224039634
 30
0.0
 40
0.5
 50
270.0
 51
0.0
  0
LINE
  5
732
  8
カバ_スクリュ_10
  6
CONTINUOUS
 62
     7
 10
130.7140994825283
 20
150.99132240396341
 30
0.0
 11
122.7140994825283
 21
150.99132240396341
 31
0.0
  0
LINE
  5
733
  8
カバ_スクリュ_10
  6
CONTINUOUS
 62
     7
 10
130.7140994825283
 20
159.1913224039634
 30
0.0
 11
122.7140994825283
 21
159.1913224039634
 31
0.0
  0
LINE
  5
73A
  8
カバ_スクリュ_1
  6
CONTINUOUS
 62
     7
 10
123.2140994825283
 20
152.3413224039634
 30
0.0
 11
123.2140994825283
 21
155.0913224039634
 31
0.0
  0
LINE
  5
73B
  8
カバ_スクリュ_1
  6
CONTINUOUS
 62
     7
 10
123.2140994825283
 20
157.8413224039634
 30
0.0
 11
123.2140994825283
 21
155.0913224039634
 31
0.0
  0
LINE
  5
74D
  8
カバ_スクリュ_1
  6
CONTINUOUS
 62
     7
 10
130.7140994825283
 20
159.0913224039634
 30
0.0
 11
132.21409948252821
 21
158.1814024039634
 31
0.0
  0
LINE
  5
74E
  8
カバ_スクリュ_1
  6
CONTINUOUS
 62
     7
 10
130.7140994825283
 20
160.0913224039634
 30
0.0
 11
122.7140994825283
 21
160.0913224039634
 31
0.0
  0
LINE
  5
74F
  8
カバ_スクリュ_1
  6
CONTINUOUS
 62
     7
 10
122.7140994825283
 20
150.0913224039634
 30
0.0
 11
122.7140994825283
 21
160.0913224039634
 31
0.0
  0
LINE
  5
750
  8
カバ_スクリュ_1
  6
CONTINUOUS
 62
     7
 10
132.21409948252821
 20
152.00125240396341
 30
0.0
 11
132.21409948252821
 21
155.0913224039634
 31
0.0
  0
LINE
  5
751
  8
カバ_スクリュ_1
  6
CONTINUOUS
 62
     7
 10
130.7140994825283
 20
151.0913224039634
 30
0.0
 11
132.21409948252821
 21
152.00125240396341
 31
0.0
  0
LINE
  5
752
  8
カバ_スクリュ_1
  6
CONTINUOUS
 62
     7
 10
130.7140994825283
 20
150.0913224039634
 30
0.0
 11
130.7140994825283
 21
155.0913224039634
 31
0.0
  0
LINE
  5
753
  8
カバ_スクリュ_1
  6
CONTINUOUS
 62
     7
 10
130.7140994825283
 20
150.0913224039634
 30
0.0
 11
122.7140994825283
 21
150.0913224039634
 31
0.0
  0
LINE
  5
754
  8
カバ_スクリュ_1
  6
CONTINUOUS
 62
     7
 10
130.7140994825283
 20
160.0913224039634
 30
0.0
 11
130.7140994825283
 21
155.0913224039634
 31
0.0
  0
LINE
  5
755
  8
カバ_スクリュ_1
  6
CONTINUOUS
 62
     7
 10
132.21409948252821
 20
158.1814024039634
 30
0.0
 11
132.21409948252821
 21
155.0913224039634
 31
0.0
  0
LINE
  5
756
  8
カバ_スクリュ_1
  6
CONTINUOUS
 62
     7
 10
122.2140994825283
 20
157.8413224039634
 30
0.0
 11
109.2140994825282
 21
157.8413224039634
 31
0.0
  0
LINE
  5
757
  8
カバ_スクリュ_1
  6
CONTINUOUS
 62
     7
 10
122.2140994825283
 20
152.3413224039634
 30
0.0
 11
109.2140994825282
 21
152.3413224039634
 31
0.0
  0
LINE
  5
918
  8
AM_7
 10
94.214099482528269
 20
155.0913224039634
 30
0.0
 11
135.21409948252821
 21
155.0913224039634
 31
0.0
1001
GENIUS_GENODEF_13
1002
{
1000
HIER
1070
     0
1002
}
1002
{
1000
MANEDIT
1070
     0
1002
}
1002
{
1000
NOSEL
1070
     0
1002
}
1002
{
1000
BEHIND
1070
     0
1002
}
1002
{
1000
OTHER
1070
     0
1002
}
1002
{
1000
REACTOR
1002
}
1001
GENIUS_GENOBJ-N-CEN_13
1002
{
1000
OWNER
1000
GEN
1002
}
  0
ARC
  5
A01
  8
カバ_スクリュ_10
 10
163.85217783464779
 20
155.0913224039634
 30
0.0
 40
4.0999999999999943
 50
47.87643653163417
 51
132.1235634683658
  0
ARC
  5
A0C
  8
0
 10
163.85217783464779
 20
155.0913224039634
 30
0.0
 40
3.0900799999999999
 50
207.13371421824399
 51
332.86628578175601
  0
CIRCLE
  5
A17
  8
0
 10
163.85217783464779
 20
155.0913224039634
 30
0.0
 40
5.1999999999999877
  0
LINE
  5
A2D
  8
カバ_スクリュ_1
 10
161.10217783464779
 20
159.2671456760859
 30
0.0
 11
161.10217783464779
 21
150.9154991318409
 31
0.0
  0
LINE
  5
A2E
  8
カバ_スクリュ_1
 10
166.60217783464779
 20
159.2671456760859
 30
0.0
 11
166.60217783464779
 21
150.9154991318409
 31
0.0
  0
ARC
  5
A2F
  8
0
 10
163.85217783464779
 20
155.0913224039634
 30
0.0
 40
3.0900799999999999
 50
27.133714218243981
 51
152.86628578175601
  0
ARC
  5
A30
  8
カバ_スクリュ_10
 10
163.85217783464779
 20
155.0913224039634
 30
0.0
 40
4.0999999999999943
 50
227.8764365316342
 51
312.12356346836577
  0
ARC
  5
A31
  8
0
 10
163.85217783464779
 20
155.0913224039634
 30
0.0
 40
5.0
 50
236.63298703076839
 51
303.36701296923172
  0
ARC
  5
A32
  8
0
 10
163.85217783464779
 20
155.0913224039634
 30
0.0
 40
5.0
 50
56.632987030768327
 51
123.36701296923169
  0
LINE
  5
A41
  8
AM_7
  6
AM_ISO08W050X2
 10
163.85217783464779
 20
155.0913224039634
 30
0.0
 11
172.05217783464781
 21
155.0913224039634
 31
0.0
1001
GENIUS_GENOREF_13
1005
A45
  0
LINE
  5
A42
  8
AM_7
  6
AM_ISO08W050X2
 10
163.85217783464779
 20
155.0913224039634
 30
0.0
 11
163.85217783464779
 21
163.29132240396339
 31
0.0
1001
GENIUS_GENOREF_13
1005
A45
  0
LINE
  5
A43
  8
AM_7
  6
AM_ISO08W050X2
 10
163.85217783464779
 20
155.0913224039634
 30
0.0
 11
155.6521778346478
 21
155.0913224039634
 31
0.0
1001
GENIUS_GENOREF_13
1005
A45
  0
LINE
  5
A44
  8
AM_7
  6
AM_ISO08W050X2
 10
163.85217783464779
 20
155.0913224039634
 30
0.0
 11
163.85217783464779
 21
146.89132240396339
 31
0.0
1001
GENIUS_GENOREF_13
1005
A45
  0
POINT
  5
A45
  8
0
 10
0.0
 20
0.0
 30
0.0
1001
GENIUS_GENODEF_13
1002
{
1000
HIER
1070
    10
1002
}
1002
{
1000
MANEDIT
1070
     0
1002
}
1002
{
1000
NOSEL
1070
     0
1002
}
1002
{
1000
BEHIND
1070
     0
1002
}
1002
{
1000
OTHER
1070
     0
1002
}
1002
{
1000
REACTOR
1002
}
1001
GENIUS_GENOENT_13
1002
{
1000
MYREF
1005
A45
1002
}
1002
{
1000
GRP
1005
0
1002
}
1001
GENIUS_GENOBJ-N-CRS_13
1002
{
1000
OWNER
1000
GEN
1002
}
1001
GENIUS_GENOLIS_13
1002
{
1000
ENT
1005
A44
1005
A43
1005
A42
1005
A41
1002
}
  0
LINE
  5
AA5
  8
カバ_スクリュ_1
 10
161.10217783464779
 20
157.8413224039634
 30
0.0
 11
160.9021778346478
 21
157.8413224039634
 31
0.0
  0
LINE
  5
AA6
  8
カバ_スクリュ_1
 10
160.9021778346478
 20
157.8413224039634
 30
0.0
 11
160.9021778346478
 21
152.3413224039634
 31
0.0
  0
LINE
  5
AA7
  8
カバ_スクリュ_1
 10
160.9021778346478
 20
152.3413224039634
 30
0.0
 11
161.10217783464779
 21
152.3413224039634
 31
0.0
  0
LINE
  5
AA8
  8
カバ_スクリュ_1
 10
166.80217783464781
 20
152.3413224039634
 30
0.0
 11
166.60217783464779
 21
152.3413224039634
 31
0.0
  0
LINE
  5
AA9
  8
カバ_スクリュ_1
 10
166.80217783464781
 20
157.8413224039634
 30
0.0
 11
166.80217783464781
 21
152.3413224039634
 31
0.0
  0
LINE
  5
AAA
  8
カバ_スクリュ_1
 10
166.60217783464779
 20
157.8413224039634
 30
0.0
 11
166.80217783464781
 21
157.8413224039634
 31
0.0
  0
CIRCLE
  5
AFE
  8
カバ_スクリュ_1
 10
60.581638741567872
 20
155.0913224039634
 30
0.0
 40
5.2000000000000002
  0
CIRCLE
  5
B52
  8
カバ_スクリュ_1
 10
60.581638741567872
 20
155.0913224039634
 30
0.0
 40
3.75
  0
LINE
  5
B7C
  8
カバ_スクリュ_1
 10
56.907404127393107
 20
155.8413224039634
 30
0.0
 11
59.331638741567872
 21
155.8413224039634
 31
0.0
  0
LINE
  5
B7D
  8
カバ_スクリュ_1
 10
64.255873355742636
 20
154.3413224039634
 30
0.0
 11
61.831638741567872
 21
154.3413224039634
 31
0.0
  0
LINE
  5
B7E
  8
カバ_スクリュ_1
 10
59.831638741567872
 20
158.7655570181382
 30
0.0
 11
59.831638741567872
 21
156.3413224039634
 31
0.0
  0
LINE
  5
B7F
  8
カバ_スクリュ_1
 10
61.331638741567872
 20
158.7655570181382
 30
0.0
 11
61.331638741567893
 21
156.34132240396349
 31
0.0
  0
LINE
  5
B80
  8
カバ_スクリュ_1
 10
61.831638741567872
 20
155.84132240396349
 30
0.0
 11
64.255873355742636
 21
155.8413224039634
 31
0.0
  0
LINE
  5
B81
  8
カバ_スクリュ_1
 10
59.831638741567872
 20
153.8413224039634
 30
0.0
 11
59.831638741567872
 21
151.41708778978861
 31
0.0
  0
LINE
  5
B82
  8
カバ_スクリュ_1
 10
59.331638741567872
 20
154.3413224039634
 30
0.0
 11
56.907404127393107
 21
154.3413224039634
 31
0.0
  0
LINE
  5
B83
  8
カバ_スクリュ_1
 10
61.331638741567872
 20
153.8413224039634
 30
0.0
 11
61.331638741567872
 21
151.41708778978861
 31
0.0
  0
ARC
  5
B85
  8
カバ_スクリュ_1
 10
61.831638741567872
 20
153.8413224039634
 30
0.0
 40
0.5
 50
90.0
 51
180.0
  0
ARC
  5
B86
  8
カバ_スクリュ_1
 10
59.331638741567872
 20
156.3413224039634
 30
0.0
 40
0.5
 50
270.0
 51
0.0
  0
ARC
  5
B87
  8
カバ_スクリュ_1
 10
59.331638741567872
 20
153.8413224039634
 30
0.0
 40
0.5
 50
0.0
 51
90.0
  0
ARC
  5
B88
  8
カバ_スクリュ_1
 10
61.831638741567893
 20
156.34132240396349
 30
0.0
 40
0.5
 50
180.0000000000002
 51
269.9999999999992
  0
LINE
  5
B96
  8
AM_7
  6
AM_ISO08W050X2
 10
60.581638741567872
 20
155.0913224039634
 30
0.0
 11
68.781638741567861
 21
155.0913224039634
 31
0.0
1001
GENIUS_GENOREF_13
1005
B9A
  0
LINE
  5
B97
  8
AM_7
  6
AM_ISO08W050X2
 10
60.581638741567872
 20
155.0913224039634
 30
0.0
 11
60.581638741567872
 21
163.29132240396339
 31
0.0
1001
GENIUS_GENOREF_13
1005
B9A
  0
LINE
  5
B98
  8
AM_7
  6
AM_ISO08W050X2
 10
60.581638741567872
 20
155.0913224039634
 30
0.0
 11
52.381638741567883
 21
155.0913224039634
 31
0.0
1001
GENIUS_GENOREF_13
1005
B9A
  0
LINE
  5
B99
  8
AM_7
  6
AM_ISO08W050X2
 10
60.581638741567872
 20
155.0913224039634
 30
0.0
 11
60.581638741567872
 21
146.89132240396339
 31
0.0
1001
GENIUS_GENOREF_13
1005
B9A
  0
POINT
  5
B9A
  8
0
 10
0.0
 20
0.0
 30
0.0
1001
GENIUS_GENODEF_13
1002
{
1000
HIER
1070
    10
1002
}
1002
{
1000
MANEDIT
1070
     0
1002
}
1002
{
1000
NOSEL
1070
     0
1002
}
1002
{
1000
BEHIND
1070
     0
1002
}
1002
{
1000
OTHER
1070
     0
1002
}
1002
{
1000
REACTOR
1002
}
1001
GENIUS_GENOLIS_13
1002
{
1000
ENT
1005
B99
1005
B98
1005
B97
1005
B96
1002
}
1001
GENIUS_GENOENT_13
1002
{
1000
MYREF
1005
B9A
1002
}
1002
{
1000
GRP
1005
0
1002
}
1001
GENIUS_GENOBJ-N-CRS_13
1002
{
1000
OWNER
1000
GEN
1002
}
  0
LINE
  5
BA0
  8
AM_7
 10
94.214099482528269
 20
205.54329240396339
 30
0.0
 11
135.21409948252821
 21
205.54329240396339
 31
0.0
1001
GENIUS_GENOBJ-N-CEN_13
1002
{
1000
OWNER
1000
GEN
1002
}
1001
GENIUS_GENODEF_13
1002
{
1000
HIER
1070
     0
1002
}
1002
{
1000
MANEDIT
1070
     0
1002
}
1002
{
1000
NOSEL
1070
     0
1002
}
1002
{
1000
BEHIND
1070
     0
1002
}
1002
{
1000
OTHER
1070
     0
1002
}
1002
{
1000
REACTOR
1002
}
  0
LINE
  5
BA1
  8
カバ_スクリュ_1
  6
CONTINUOUS
 62
     7
 10
97.214099482528255
 20
200.3432924039634
 30
0.0
 11
97.214099482528255
 21
205.54329240396339
 31
0.0
  0
LINE
  5
BA2
  8
カバ_スクリュ_1
  6
CONTINUOUS
 62
     7
 10
130.7140994825283
 20
202.79329240396339
 30
0.0
 11
130.7140994825283
 21
205.54329240396339
 31
0.0
  0
LINE
  5
BA3
  8
カバ_スクリュ_1
  6
CONTINUOUS
 62
     7
 10
122.7140994825283
 20
202.79329240396339
 30
0.0
 11
122.7140994825283
 21
205.54329240396339
 31
0.0
  0
LINE
  5
BA4
  8
カバ_スクリュ_1
  6
CONTINUOUS
 62
     7
 10
132.21409948252821
 20
202.79329240396339
 30
0.0
 11
132.21409948252821
 21
205.54329240396339
 31
0.0
  0
LINE
  5
BA5
  8
カバ_スクリュ_1
  6
CONTINUOUS
 62
     7
 10
122.7140994825283
 20
208.29329240396339
 30
0.0
 11
109.2140994825282
 21
208.29329240396339
 31
0.0
  0
LINE
  5
BA6
  8
カバ_スクリュ_1
  6
CONTINUOUS
 62
     7
 10
122.7140994825283
 20
208.29329240396339
 30
0.0
 11
122.7140994825283
 21
205.54329240396339
 31
0.0
  0
LINE
  5
BA7
  8
カバ_スクリュ_1
  6
CONTINUOUS
 62
     7
 10
130.7140994825283
 20
208.29329240396339
 30
0.0
 11
130.7140994825283
 21
205.54329240396339
 31
0.0
  0
LINE
  5
BA8
  8
カバ_スクリュ_1
  6
CONTINUOUS
 62
     7
 10
132.21409948252821
 20
208.29329240396339
 30
0.0
 11
132.21409948252821
 21
205.54329240396339
 31
0.0
  0
LINE
  5
BA9
  8
カバ_スクリュ_1
  6
CONTINUOUS
 62
     7
 10
108.2140994825282
 20
210.74329240396341
 30
0.0
 11
100.7140994825282
 21
210.74329240396341
 31
0.0
  0
LINE
  5
BAA
  8
カバ_スクリュ_1
  6
CONTINUOUS
 62
     7
 10
100.7140994825282
 20
210.74329240396341
 30
0.0
 11
97.214099482528255
 21
210.74329240396341
 31
0.0
  0
LINE
  5
BAB
  8
カバ_スクリュ_1
  6
CONTINUOUS
 62
     7
 10
97.214099482528255
 20
210.74329240396341
 30
0.0
 11
97.214099482528255
 21
205.54329240396339
 31
0.0
  0
LINE
  5
BAC
  8
カバ_スクリュ_1
  6
CONTINUOUS
 62
     7
 10
122.7140994825283
 20
202.79329240396339
 30
0.0
 11
109.2140994825282
 21
202.79329240396339
 31
0.0
  0
LINE
  5
BAD
  8
カバ_スクリュ_1
  6
CONTINUOUS
 62
     7
 10
108.2140994825282
 20
200.3432924039634
 30
0.0
 11
100.7140994825282
 21
200.3432924039634
 31
0.0
  0
LINE
  5
BAE
  8
カバ_スクリュ_1
  6
CONTINUOUS
 62
     7
 10
100.7140994825282
 20
200.3432924039634
 30
0.0
 11
97.214099482528255
 21
200.3432924039634
 31
0.0
  0
LINE
  5
BAF
  8
カバ_スクリュ_1
  6
CONTINUOUS
 62
     7
 10
132.21409948252821
 20
202.79329240396339
 30
0.0
 11
122.7140994825283
 21
202.79329240396339
 31
0.0
  0
LINE
  5
BB0
  8
カバ_スクリュ_1
  6
CONTINUOUS
 62
     7
 10
132.21409948252821
 20
208.29329240396339
 30
0.0
 11
122.7140994825283
 21
208.29329240396339
 31
0.0
  0
LINE
  5
BB1
  8
カバ_スクリュ_1
  6
CONTINUOUS
 62
     7
 10
123.01409948252829
 20
208.49329240396341
 30
0.0
 11
122.9140994825283
 21
208.49329240396341
 31
0.0
  0
ARC
  5
BB2
  8
カバ_スクリュ_1
  6
CONTINUOUS
 62
     7
 10
122.9140994825283
 20
208.29329240396339
 30
0.0
 40
0.2
 50
90.000000000000028
 51
180.0
  0
ARC
  5
BB3
  8
カバ_スクリュ_1
  6
CONTINUOUS
 62
     7
 10
123.01409948252829
 20
208.29329240396339
 30
0.0
 40
0.2
 50
0.0
 51
90.000000000000028
  0
ARC
  5
BB4
  8
カバ_スクリュ_1
  6
CONTINUOUS
 62
     7
 10
123.01409948252829
 20
202.79329240396339
 30
0.0
 40
0.2
 50
270.0
 51
0.0
  0
LINE
  5
BB5
  8
カバ_スクリュ_1
  6
CONTINUOUS
 62
     7
 10
123.01409948252829
 20
202.5932924039634
 30
0.0
 11
122.9140994825283
 21
202.5932924039634
 31
0.0
  0
ARC
  5
BB6
  8
カバ_スクリュ_1
  6
CONTINUOUS
 62
     7
 10
122.9140994825283
 20
202.79329240396339
 30
0.0
 40
0.2
 50
180.0
 51
270.0
  0
ARC
  5
BB7
  8
カバ_スクリュ_1
  6
CONTINUOUS
 62
     7
 10
100.51409948252829
 20
206.3432924039634
 30
0.0
 40
0.2
 50
270.0
 51
0.0
  0
ARC
  5
BB8
  8
カバ_スクリュ_1
  6
CONTINUOUS
 62
     7
 10
98.914099482528286
 20
206.3432924039634
 30
0.0
 40
0.2
 50
180.0
 51
270.0
  0
LINE
  5
BB9
  8
カバ_スクリュ_1
  6
CONTINUOUS
 62
     7
 10
100.5140994825282
 20
206.14329240396339
 30
0.0
 11
98.914099482528258
 21
206.14329240396339
 31
0.0
  0
LINE
  5
BBA
  8
カバ_スクリュ_1
  6
CONTINUOUS
 62
     7
 10
100.7140994825282
 20
209.29329240396339
 30
0.0
 11
98.714099482528269
 21
209.29329240396339
 31
0.0
  0
LINE
  5
BBB
  8
カバ_スクリュ_1
  6
CONTINUOUS
 62
     7
 10
98.714099482528269
 20
210.74329240396341
 30
0.0
 11
98.714099482528269
 21
206.3432924039634
 31
0.0
  0
LINE
  5
BBC
  8
カバ_スクリュ_1
  6
CONTINUOUS
 62
     7
 10
100.7140994825282
 20
210.74329240396341
 30
0.0
 11
100.7140994825282
 21
206.3432924039634
 31
0.0
  0
LINE
  5
BBD
  8
カバ_スクリュ_1
  6
CONTINUOUS
 62
     7
 10
100.7140994825282
 20
200.3432924039634
 30
0.0
 11
100.7140994825282
 21
204.74329240396341
 31
0.0
  0
LINE
  5
BBE
  8
カバ_スクリュ_1
  6
CONTINUOUS
 62
     7
 10
98.714099482528269
 20
200.3432924039634
 30
0.0
 11
98.714099482528269
 21
204.74329240396341
 31
0.0
  0
LINE
  5
BBF
  8
カバ_スクリュ_1
  6
CONTINUOUS
 62
     7
 10
100.7140994825282
 20
201.79329240396339
 30
0.0
 11
98.714099482528269
 21
201.79329240396339
 31
0.0
  0
LINE
  5
BC0
  8
カバ_スクリュ_1
  6
CONTINUOUS
 62
     7
 10
100.5140994825282
 20
204.9432924039634
 30
0.0
 11
98.914099482528258
 21
204.9432924039634
 31
0.0
  0
ARC
  5
BC1
  8
カバ_スクリュ_1
  6
CONTINUOUS
 62
     7
 10
98.914099482528286
 20
204.74329240396341
 30
0.0
 40
0.2
 50
90.000000000000028
 51
180.0
  0
ARC
  5
BC2
  8
カバ_スクリュ_1
  6
CONTINUOUS
 62
     7
 10
100.51409948252829
 20
204.74329240396341
 30
0.0
 40
0.2
 50
0.0
 51
90.000000000000028
  0
LINE
  5
BC3
  8
カバ_スクリュ_1
  6
CONTINUOUS
 62
     7
 10
108.7140994825283
 20
200.8432924039634
 30
0.0
 11
108.7140994825283
 21
210.24329240396341
 31
0.0
  0
ARC
  5
BC4
  8
カバ_スクリュ_1
  6
CONTINUOUS
 62
     7
 10
108.2140994825283
 20
200.8432924039634
 30
0.0
 40
0.5
 50
270.0
 51
0.0
  0
ARC
  5
BC5
  8
カバ_スクリュ_1
  6
CONTINUOUS
 62
     7
 10
108.2140994825283
 20
210.24329240396341
 30
0.0
 40
0.5
 50
0.0
 51
90.000000000000028
  0
ARC
  5
BC6
  8
カバ_スクリュ_1
  6
CONTINUOUS
 62
     7
 10
109.2140994825283
 20
202.29329240396339
 30
0.0
 40
0.5
 50
90.000000000000028
 51
180.0
  0
ARC
  5
BC7
  8
カバ_スクリュ_1
  6
CONTINUOUS
 62
     7
 10
109.2140994825283
 20
208.79329240396339
 30
0.0
 40
0.5
 50
180.0
 51
270.0
  0
DIMENSION
  5
C93
  8
AM_5
  2
*D10
 10
132.21409948252821
 20
137.89132240396339
 30
0.0
 11
114.7140994825282
 21
141.14132240396339
 31
0.0
 70
     0
 13
97.214099482528255
 23
149.89132240396339
 33
0.0
 14
132.21409948252821
 24
152.00125240396341
 34
0.0
 50
0.0000000000001132
  0
DIMENSION
  5
CF8
  8
AM_5
  2
*D11
 10
85.214099482528283
 20
160.29132240396339
 30
0.0
 11
81.843721157356072
 21
155.55732186701371
 31
0.0
 70
   128
  1
%%c<>
 13
97.214099482528255
 23
149.89132240396339
 33
0.0
 14
97.214099482528255
 24
160.29132240396339
 34
0.0
 50
90.0
1001
ACAD
1000
DSTYLE
1002
{
1070
   287
1070
     5
1070
   279
1070
     2
1002
}
  0
VIEWPORT
  5
17C
 67
     1
  8
0
 10
133.34999084472651
 20
101.5999970436096
 30
0.0
 40
370.22669129365238
 41
228.4221935424805
 68
     1
 69
     1
1001
ACAD
1000
MVIEW
1002
{
1070
    16
1010
0.0
1020
0.0
1030
0.0
1010
0.0
1020
0.0
1030
1.0
1040
0.0
1040
228.4221935424805
1040
133.34999084472651
1040
101.5999970436096
1040
50.0
1040
0.0
1040
0.0
1070
     0
1070
   100
1070
     1
1070
     1
1070
     0
1070
     0
1070
     0
1070
     0
1040
0.0
1040
0.0
1040
0.0
1040
10.0
1040
10.0
1040
10.0
1040
10.0
1070
     0
1002
{
1002
}
1002
}
1001
GENIUS_GENOBJ-N-SDF_13
1002
{
1000
OWNER
1000
GEN
1002
}
1001
GENIUS_GENODEF_13
1002
{
1000
HIER
1070
     0
1002
}
1002
{
1000
MANEDIT
1070
     0
1002
}
1002
{
1000
NOSEL
1070
     0
1002
}
1002
{
1000
BEHIND
1070
     0
1002
}
1002
{
1000
OTHER
1070
     0
1002
}
1002
{
1000
REACTOR
1002
}
1001
GENIUS_GENSCREG_15
1000
PF
1040
1.0
1000
DF
1040
1.0
1000
MIN
1011
-51.763354802099627
1021
0.0
1031
0.0
1021
-12.6110997276306
1031
0.0
1000
MAX
1011
318.4633364915527
1021
0.0
1031
0.0
1021
215.8110938148499
1031
0.0
1000
FLAGS
1070
     2
  0
ENDSEC
  0
EOF
