  0
SECTION
  2
HEADER
  9
$ACADVER
  1
AC1009
  9
$INSBASE
 10
0.0
 20
0.0
 30
0.0
  9
$EXTMIN
 10
19.999999999999972
 20
15.0
 30
0.0
  9
$EXTMAX
 10
215.00000000000011
 20
290.00000000000011
 30
0.0
  9
$LIMMIN
 10
0.0
 20
0.0
  9
$LIMMAX
 10
195.00000000000011
 20
275.0
  9
$ORTHOMODE
 70
     0
  9
$REGENMODE
 70
     1
  9
$FILLMODE
 70
     1
  9
$QTEXTMODE
 70
     0
  9
$MIRRTEXT
 70
     1
  9
$DRAGMODE
 70
     2
  9
$LTSCALE
 40
1.0
  9
$OSMODE
 70
  3071
  9
$ATTMODE
 70
     1
  9
$TEXTSIZE
 40
73.985717453579113
  9
$TRACEWID
 40
1.0
  9
$TEXTSTYLE
  7
STANDARD
  9
$CLAYER
  8
0
  9
$CELTYPE
  6
BYLAYER
  9
$CECOLOR
 62
   256
  9
$DIMSCALE
 40
1.0
  9
$DIMASZ
 40
2.5
  9
$DIMEXO
 40
1.0
  9
$DIMDLI
 40
10.0
  9
$DIMRND
 40
0.0
  9
$DIMDLE
 40
0.0
  9
$DIMEXE
 40
1.0
  9
$DIMTP
 40
0.1
  9
$DIMTM
 40
0.1
  9
$DIMTXT
 40
3.5
  9
$DIMCEN
 40
0.0
  9
$DIMTSZ
 40
0.0
  9
$DIMTOL
 70
     0
  9
$DIMLIM
 70
     0
  9
$DIMTIH
 70
     0
  9
$DIMTOH
 70
     0
  9
$DIMSE1
 70
     0
  9
$DIMSE2
 70
     0
  9
$DIMTAD
 70
     1
  9
$DIMZIN
 70
     8
  9
$DIMBLK
  1
OPEN30
  9
$DIMASO
 70
     1
  9
$DIMSHO
 70
     1
  9
$DIMPOST
  1

  9
$DIMAPOST
  1
"
  9
$DIMALT
 70
     0
  9
$DIMALTD
 70
     2
  9
$DIMALTF
 40
0.0393701
  9
$DIMLFAC
 40
1.0
  9
$DIMTOFL
 70
     1
  9
$DIMTVP
 40
0.0
  9
$DIMTIX
 70
     0
  9
$DIMSOXD
 70
     0
  9
$DIMSAH
 70
     0
  9
$DIMBLK1
  1

  9
$DIMBLK2
  1

  9
$DIMSTYLE
  2
AM_ISO
  9
$DIMCLRD
 70
   256
  9
$DIMCLRE
 70
   256
  9
$DIMCLRT
 70
     2
  9
$DIMTFAC
 40
0.71
  9
$DIMGAP
 40
1.5
  9
$LUNITS
 70
     2
  9
$LUPREC
 70
     2
  9
$SKETCHINC
 40
1.0
  9
$FILLETRAD
 40
2.5
  9
$AUNITS
 70
     0
  9
$AUPREC
 70
     0
  9
$MENU
  1
.
  9
$ELEVATION
 40
0.0
  9
$PELEVATION
 40
0.0
  9
$THICKNESS
 40
0.0
  9
$LIMCHECK
 70
     0
  9
$BLIPMODE
 70
     0
  9
$CHAMFERA
 40
2.5
  9
$CHAMFERB
 40
2.5
  9
$SKPOLY
 70
     0
  9
$TDCREATE
 40
2453671.7674882412
  9
$TDUPDATE
 40
2454595.824204097
  9
$TDINDWG
 40
0.0121936458
  9
$TDUSRTIMER
 40
0.0121936458
  9
$USRTIMER
 70
     1
  9
$ANGBASE
 50
0.0
  9
$ANGDIR
 70
     0
  9
$PDMODE
 70
     0
  9
$PDSIZE
 40
0.0
  9
$PLINEWID
 40
0.0
  9
$COORDS
 70
     1
  9
$SPLFRAME
 70
     0
  9
$SPLINETYPE
 70
     6
  9
$SPLINESEGS
 70
     8
  9
$ATTDIA
 70
     1
  9
$ATTREQ
 70
     1
  9
$HANDLING
 70
     1
  9
$HANDSEED
  5
E56
  9
$SURFTAB1
 70
     6
  9
$SURFTAB2
 70
     6
  9
$SURFTYPE
 70
     6
  9
$SURFU
 70
     6
  9
$SURFV
 70
     6
  9
$UCSNAME
  2

  9
$UCSORG
 10
0.0
 20
0.0
 30
0.0
  9
$UCSXDIR
 10
1.0
 20
0.0
 30
0.0
  9
$UCSYDIR
 10
0.0
 20
1.0
 30
0.0
  9
$PUCSNAME
  2

  9
$PUCSORG
 10
0.0
 20
0.0
 30
0.0
  9
$PUCSXDIR
 10
1.0
 20
0.0
 30
0.0
  9
$PUCSYDIR
 10
0.0
 20
1.0
 30
0.0
  9
$USERI1
 70
     0
  9
$USERI2
 70
     0
  9
$USERI3
 70
     0
  9
$USERI4
 70
     0
  9
$USERI5
 70
     0
  9
$USERR1
 40
0.0
  9
$USERR2
 40
0.0
  9
$USERR3
 40
0.0
  9
$USERR4
 40
0.0
  9
$USERR5
 40
0.0
  9
$WORLDVIEW
 70
     1
  9
$SHADEDGE
 70
     3
  9
$SHADEDIF
 70
    70
  9
$TILEMODE
 70
     1
  9
$MAXACTVP
 70
    64
  9
$PLIMCHECK
 70
     0
  9
$PEXTMIN
 10
1.0000000000000000E+020
 20
1.0000000000000000E+020
 30
1.0000000000000000E+020
  9
$PEXTMAX
 10
-1.0000000000000000E+020
 20
-1.0000000000000000E+020
 30
-1.0000000000000000E+020
  9
$PLIMMIN
 10
-6.350006103515625
 20
-6.3499999046325684
  9
$PLIMMAX
 10
273.04998779296881
 20
209.54999399185181
  9
$UNITMODE
 70
     0
  9
$VISRETAIN
 70
     1
  9
$PLINEGEN
 70
     0
  9
$PSLTSCALE
 70
     1
  0
ENDSEC
  0
SECTION
  2
TABLES
  0
TABLE
  2
VPORT
 70
     3
  0
VPORT
  2
*ACTIVE
 70
     0
 10
0.0
 20
0.0
 11
1.0
 21
1.0
 12
117.5024051634589
 22
155.63810355204879
 13
0.0
 23
0.0
 14
2.5
 24
2.5
 15
10.0
 25
10.0
 16
0.0
 26
0.0
 36
1.0
 17
0.0
 27
0.0
 37
0.0
 40
283.36161278139599
 41
1.482800982800982
 42
50.0
 43
0.0
 44
0.0
 50
0.0
 51
0.0
 71
     0
 72
   100
 73
     1
 74
     3
 75
     0
 76
     0
 77
     0
 78
     0
  0
ENDTAB
  0
TABLE
  2
LTYPE
 70
    26
  0
LTYPE
  2
CONTINUOUS
 70
     0
  3
Solid line
 72
    65
 73
     0
 40
0.0
  0
LTYPE
  2
AM_ISO02W050
 70
     0
  3
__ __ __ __ __ __ __ __ __ __ __ __ __ __ __
 72
    65
 73
     2
 40
7.5
 49
6.0
 49
-1.5
  0
LTYPE
  2
AM_ISO08W050
 70
     0
  3
____ . ____ . ____ . ____ . ____ . ____ . ____
 72
    65
 73
     4
 40
18.0
 49
12.0
 49
-1.5
 49
3.0
 49
-1.5
  0
LTYPE
  2
AM_ISO09W050
 70
     0
  3
_____ . . _____ . . _____ . . ____ .. ____
 72
    65
 73
     6
 40
22.5
 49
12.0
 49
-1.5
 49
3.0
 49
-1.5
 49
3.0
 49
-1.5
  0
LTYPE
  2
AMCONSTR
 70
     0
  3
_______________________
 72
    65
 73
     2
 40
9999.0
 49
9999.0
 49
0.0
  0
LTYPE
  2
AM_ISO08W050X2
 70
     0
  3
__ . __ . __ . __ . __ . __
 72
    65
 73
     4
 40
9.0
 49
6.0
 49
-0.75
 49
1.5
 49
-0.75
  0
LTYPE
  2
AM_ISO02W050X2
 70
     0
  3
 _ _ _ _ _ _ _ _ _ _ _ _
 72
    65
 73
     2
 40
3.75
 49
3.0
 49
-0.75
  0
LTYPE
  2
AMZIGZAG
 70
     0
  3
/\/-/\/-/\/-/\/-/\/-/\/
 72
    65
 73
     2
 40
11.0001
 49
0.0001
 49
-11.0
  0
LTYPE
  2
ACISOWELD
 70
     0
  3
_ _ _ _ _
 72
    65
 73
     2
 40
2.0
 49
2.0
 49
-1.0
  0
LTYPE
  2
ACISOTGB
 70
     0
  3
__ . . __ . .
 72
    65
 73
     6
 40
9.0
 49
4.0
 49
-1.0
 49
1.0
 49
-1.0
 49
1.0
 49
-1.0
  0
LTYPE
  2
ACISOTGL
 70
     0
  3
_ _ _ _ _
 72
    65
 73
     2
 40
3.0
 49
2.0
 49
-1.0
  0
LTYPE
  2
CENTER
 70
     0
  3
__ . __
 72
    65
 73
     4
 40
7.0
 49
4.0
 49
-1.0
 49
1.0
 49
-1.0
  0
LTYPE
  2
HIDDEN
 70
     0
  3
Hidden __ __ __ __ __ __ __ __ __ __ __ __ __ _
 72
    65
 73
     2
 40
9.5249999999999986
 49
6.3499999999999988
 49
-3.1749999999999989
  0
LTYPE
  2
PHANTOM2
 70
     0
  3
Phantom (.5x) ___ _ _ ___ _ _ ___ _ _ ___ _ _
 72
    65
 73
     6
 40
31.75
 49
15.875
 49
-3.1749999999999989
 49
3.1749999999999989
 49
-3.1749999999999989
 49
3.1749999999999989
 49
-3.1749999999999989
  0
LTYPE
  2
PHANTOM
 70
     0
  3
______  __  __  ______  __  __  ______  __  __  
 72
    65
 73
     6
 40
2.5
 49
1.25
 49
-0.25
 49
0.25
 49
-0.25
 49
0.25
 49
-0.25
  0
LTYPE
  2
CENTER2
 70
     0
  3
Center (.5x) ___ _ ___ _ ___ _ ___ _ ___ _ ___
 72
    65
 73
     4
 40
1.125
 49
0.75
 49
-0.125
 49
0.125
 49
-0.125
  0
LTYPE
  2
HIDDEN2
 70
     0
  3
Hidden (.5x) _ _ _ _ _ _ _ _ _ _ _ _ _ _ _ _ _
 72
    65
 73
     2
 40
0.1875
 49
0.125
 49
-0.0625
  0
LTYPE
  2
AMZIGZAG2
 70
     0
  3
/\/-/\/-/\/-/\/-/\/-/\/
 72
    65
 73
     2
 40
0.4401
 49
0.0001
 49
-0.4400000000000001
  0
LTYPE
  2
ACANSTGB
 70
     0
  3
__ . . __ . .
 72
    65
 73
     6
 40
0.35433070866
 49
0.15748031496
 49
-0.03937007874
 49
0.03937007874
 49
-0.03937007874
 49
0.03937007874
 49
-0.03937007874
  0
LTYPE
  2
ACANSTGL
 70
     0
  3
_ _ _ _ _
 72
    65
 73
     2
 40
0.11811023622
 49
0.07874015748
 49
-0.03937007874
  0
LTYPE
  2
GEN3
 70
     0
  3
-- -- -- -- -- -- -- -- -- -- -- -- -- -- --
 72
    65
 73
     2
 40
6.25
 49
4.75
 49
-1.5
  0
LTYPE
  2
GEN7
 70
     0
  3
____ . ____ . ____ . ____ . ____ . ____ . ____
 72
    65
 73
     4
 40
13.75
 49
9.75
 49
-1.5
 49
1.0
 49
-1.5
  0
LTYPE
  2
GEN3A
 70
     0
  3
 - - - - -
 72
    65
 73
     2
 40
3.125
 49
2.25
 49
-0.875
  0
LTYPE
  2
GEN7A
 70
     0
  3
__ . __ . __
 72
    65
 73
     4
 40
6.875
 49
4.75
 49
-0.875
 49
0.375
 49
-0.875
  0
LTYPE
  2
GEN4A
 70
     0
  3
_____ . . _____ . . _____ . . ____ .. ____
 72
    65
 73
     6
 40
16.25
 49
9.75
 49
-1.5
 49
1.0
 49
-1.5
 49
1.0
 49
-1.5
  0
LTYPE
  2
GENZIGZAG
 70
     0
  3
/\/-/\/-/\/-/\/-/\/-/\/
 72
    65
 73
     2
 40
12.0001
 49
0.0001
 49
-12.0
  0
ENDTAB
  0
TABLE
  2
LAYER
 70
    15
  0
LAYER
  2
0
 70
     0
 62
     7
  6
CONTINUOUS
  0
LAYER
  2
DEFPOINTS
 70
     0
 62
     7
  6
CONTINUOUS
  0
LAYER
  2
カバ_スクリュ_1
 70
     0
 62
     7
  6
CONTINUOUS
  0
LAYER
  2
カバ_スクリュ_10
 70
     0
 62
     7
  6
AM_ISO02W050X2
  0
LAYER
  2
TK2
 70
     0
 62
    51
  6
CONTINUOUS
  0
LAYER
  2
TK3
 70
     0
 62
    91
  6
CONTINUOUS
  0
LAYER
  2
TK20
 70
     0
 62
    51
  6
AM_ISO02W050X2
  0
LAYER
  2
TK30
 70
     0
 62
    91
  6
AM_ISO02W050X2
  0
LAYER
  2
CK_LEVEL_1
 70
     0
 62
     7
  6
CONTINUOUS
  0
LAYER
  2
7A
 70
     0
 62
     4
  6
GEN7A
  0
LAYER
  2
RAHM2
 70
     0
 62
     1
  6
CONTINUOUS
  0
LAYER
  2
KLIN
 70
     0
 62
     1
  6
CONTINUOUS
  0
LAYER
  2
AM_7
 70
     0
 62
     4
  6
AM_ISO08W050
  0
LAYER
  2
AM_5
 70
     0
 62
     3
  6
CONTINUOUS
  0
LAYER
  2
AM_CL
 70
     0
 62
     1
  6
AMCONSTR
  0
ENDTAB
  0
TABLE
  2
STYLE
 70
     8
  0
STYLE
  2
STANDARD
 70
     0
 40
0.0
 41
1.0
 50
0.0
 71
     0
 42
73.985717453579113
  3
ISOCP.SHX
  4
bigfont.shx
  0
STYLE
  2

 70
     1
 40
0.0
 41
1.0
 50
0.0
 71
     0
 42
2.5
  3
ltypeshp.shx
  4

  0
STYLE
  2
ACISOTS
 70
     0
 40
1.0
 41
1.0
 50
0.0
 71
     0
 42
2.5
  3
isocp.shx
  4
extfont.shx
  0
STYLE
  2
ACISOGDT
 70
     0
 40
0.0
 41
1.0
 50
0.0
 71
     0
 42
2.5
  3
amgdt.shx
  4

  0
STYLE
  2
CKSTANDARD
 70
     0
 40
0.0
 41
1.0
 50
0.0
 71
     0
 42
0.0
  3
txt
  4

  0
STYLE
  2
ACANSTS
 70
     0
 40
1.0
 41
1.0
 50
0.0
 71
     0
 42
4.7999999999999989
  3
romans.shx
  4
extfont.shx
  0
STYLE
  2
ACANSGDT
 70
     0
 40
0.0
 41
1.0
 50
0.0
 71
     0
 42
4.7999999999999989
  3
amgdtans.shx
  4

  0
STYLE
  2

 70
     1
 40
0.0
 41
1.0
 50
0.0
 71
     0
 42
3.0
  3
genltshp.shx
  4

  0
ENDTAB
  0
TABLE
  2
VIEW
 70
     6
  0
VIEW
  2
AM_VIEW1
 70
     0
 40
137.5
 10
54.110512129380062
 20
206.25
 41
108.2210242587601
 11
0.0
 21
0.0
 31
1.0
 12
0.0
 22
0.0
 32
0.0
 42
50.0
 43
0.0
 44
0.0
 50
0.0
 71
     0
  0
VIEW
  2
AM_VIEW2
 70
     0
 40
137.5
 10
140.88948787062
 20
206.25
 41
108.2210242587601
 11
0.0
 21
0.0
 31
1.0
 12
0.0
 22
0.0
 32
0.0
 42
50.0
 43
0.0
 44
0.0
 50
0.0
 71
     0
  0
VIEW
  2
AM_VIEW3
 70
     0
 40
137.5
 10
54.110512129380062
 20
68.750000000000014
 41
108.2210242587601
 11
0.0
 21
0.0
 31
1.0
 12
0.0
 22
0.0
 32
0.0
 42
50.0
 43
0.0
 44
0.0
 50
0.0
 71
     0
  0
VIEW
  2
AM_VIEW4
 70
     0
 40
137.5
 10
140.88948787062
 20
68.750000000000014
 41
108.2210242587601
 11
0.0
 21
0.0
 31
1.0
 12
0.0
 22
0.0
 32
0.0
 42
50.0
 43
0.0
 44
0.0
 50
0.0
 71
     0
  0
VIEW
  2
AM_VIEW5
 70
     0
 40
137.5
 10
97.500000000000071
 20
137.5
 41
108.2210242587601
 11
0.0
 21
0.0
 31
1.0
 12
0.0
 22
0.0
 32
0.0
 42
50.0
 43
0.0
 44
0.0
 50
0.0
 71
     0
  0
VIEW
  2
AM_VIEW6
 70
     0
 40
274.99725000000012
 10
97.500000000000071
 20
137.5
 41
216.4398840970351
 11
0.0
 21
0.0
 31
1.0
 12
0.0
 22
0.0
 32
0.0
 42
50.0
 43
0.0
 44
0.0
 50
0.0
 71
     0
  0
ENDTAB
  0
TABLE
  2
UCS
 70
     0
  0
ENDTAB
  0
TABLE
  2
APPID
 70
    35
  0
APPID
  2
ACAD
 70
     0
  0
APPID
  2
MCAD_NO_VIS
 70
     0
  0
APPID
  2
ACAD_TEMP_GRAPHIC
 70
     0
  0
APPID
  2
ACATTRIBSERVICES
 70
     0
  0
APPID
  2
AD_DRAW
 70
     0
  0
APPID
  2
DESIGNERASSEMBLIES
 70
     0
  0
APPID
  2
ACADM_DIM_EDIT
 70
     0
  0
APPID
  2
AMDT_DM_ADJ
 70
     0
  0
APPID
  2
GENIUS_GENREC_14
 70
     0
  0
APPID
  2
GENIUS_GENODEF_13
 70
     0
  0
APPID
  2
GENIUS_GENOBJ-N-REC_13
 70
     0
  0
APPID
  2
GENIUS_GENDIMSH_14
 70
     0
  0
APPID
  2
GENIUS_GENCFG_13
 70
     0
  0
APPID
  2
GENIUS_GENCFG0_13
 70
     0
  0
APPID
  2
GENIUS_GENCFG1_13
 70
     0
  0
APPID
  2
GENIUS_GENCFG2_13
 70
     0
  0
APPID
  2
GENIUS_GENCFG3_13
 70
     0
  0
APPID
  2
GENIUS_GENCFG4_13
 70
     0
  0
APPID
  2
GENIUS_GEVCFG0_13
 70
     0
  0
APPID
  2
GENIUS_GENOENT_13
 70
     0
  0
APPID
  2
GENIUS_GENOBJ-N-CRS_13
 70
     0
  0
APPID
  2
GENIUS_GENOREF_13
 70
     0
  0
APPID
  2
GENIUS_GENOLIS_13
 70
     0
  0
APPID
  2
GENIUS_GENOBJ-N-TIT_13
 70
     0
  0
APPID
  2
GENIUS_GENTITLE_13
 70
     0
  0
APPID
  2
GENIUS_GENSCREG_15
 70
     0
  0
APPID
  2
GENIUS_GENOBJ-N-SDF_13
 70
     0
  0
APPID
  2
GENIUS_GENOBJ-N-CEN_13
 70
     0
  0
APPID
  2
GENIUS_GENOBJ-N-HTC_13
 70
     0
  0
APPID
  2
GENIUS_GENHATCH_13
 70
     0
  0
APPID
  2
GENIUS_GENOBJ-N-ZOO_13
 70
     0
  0
APPID
  2
GENIUS_GENZOO_17
 70
     0
  0
APPID
  2
GEV_VCCNULL_SWITCH_OFF
 70
     0
  0
APPID
  2
GENIUS_GENDTOL_13
 70
     0
  0
APPID
  2
GENIUS_GENSCREG_13
 70
     0
  0
ENDTAB
  0
TABLE
  2
DIMSTYLE
 70
    23
  0
DIMSTYLE
  2
AM_ISO
 70
     0
  3

  4
"
  5
OPEN30
  6

  7

 40
1.0
 41
2.5
 42
1.0
 43
10.0
 44
1.0
 45
0.0
 46
0.0
 47
0.1
 48
0.1
140
3.5
141
0.0
142
0.0
143
0.0393701
144
1.0
145
0.0
146
0.71
147
1.5
 71
     0
 72
     0
 73
     0
 74
     0
 75
     0
 76
     0
 77
     1
 78
     8
170
     0
171
     2
172
     1
173
     0
174
     0
175
     0
176
   256
177
   256
178
     2
  0
DIMSTYLE
  2
AM_ISO$3
 70
     0
  3

  4
"
  5
OPEN30
  6

  7

 40
1.0
 41
2.5
 42
1.0
 43
10.0
 44
1.0
 45
0.0
 46
0.0
 47
0.1
 48
0.1
140
3.5
141
0.0
142
0.0
143
0.0393701
144
1.0
145
0.0
146
0.71
147
1.5
 71
     0
 72
     0
 73
     0
 74
     1
 75
     0
 76
     0
 77
     1
 78
     8
170
     0
171
     2
172
     0
173
     0
174
     0
175
     0
176
   256
177
   256
178
     2
  0
DIMSTYLE
  2
AM_ISO$4
 70
     0
  3

  4
"
  5
OPEN30
  6

  7

 40
1.0
 41
2.5
 42
1.0
 43
10.0
 44
1.0
 45
0.0
 46
0.0
 47
0.1
 48
0.1
140
3.5
141
0.0
142
0.0
143
0.0393701
144
1.0
145
0.0
146
0.71
147
1.5
 71
     0
 72
     0
 73
     0
 74
     1
 75
     0
 76
     0
 77
     1
 78
     8
170
     0
171
     2
172
     0
173
     0
174
     0
175
     0
176
   256
177
   256
178
     2
  0
DIMSTYLE
  2
AM_ISO$6
 70
     0
  3

  4
"
  5
OPEN30
  6

  7

 40
1.0
 41
2.5
 42
1.0
 43
10.0
 44
1.0
 45
0.0
 46
0.0
 47
0.1
 48
0.1
140
3.5
141
0.0
142
0.0
143
0.0393701
144
1.0
145
0.0
146
0.71
147
1.5
 71
     0
 72
     0
 73
     0
 74
     0
 75
     0
 76
     0
 77
     0
 78
     8
170
     0
171
     2
172
     1
173
     0
174
     0
175
     0
176
   256
177
   256
178
     2
  0
DIMSTYLE
  2
AM_ISO$7
 70
     0
  3

  4
"
  5
OPEN30
  6

  7

 40
1.0
 41
2.5
 42
1.0
 43
10.0
 44
1.0
 45
0.0
 46
0.0
 47
0.1
 48
0.1
140
5.0
141
0.0
142
0.0
143
0.0393701
144
1.0
145
0.0
146
0.71
147
1.5
 71
     0
 72
     0
 73
     0
 74
     0
 75
     0
 76
     0
 77
     1
 78
     8
170
     0
171
     2
172
     1
173
     0
174
     0
175
     0
176
   256
177
   256
178
     2
  0
DIMSTYLE
  2
AM_ISO$SF
 70
     0
  3

  4
"
  5
OPEN30
  6

  7

 40
1.0
 41
2.5
 42
1.0
 43
10.0
 44
1.0
 45
0.0
 46
0.0
 47
0.1
 48
0.1
140
3.5
141
0.0
142
0.0
143
0.0393701
144
1.0
145
0.0
146
0.71
147
1.5
 71
     0
 72
     0
 73
     0
 74
     0
 75
     1
 76
     1
 77
     1
 78
     8
170
     0
171
     2
172
     1
173
     0
174
     0
175
     0
176
   256
177
   256
178
     2
  0
DIMSTYLE
  2
AM_ISO$SH
 70
     0
  3

  4
"
  5

  6
GENAXEH
  7
OPEN30
 40
1.0
 41
2.5
 42
1.0
 43
10.0
 44
1.0
 45
0.0
 46
0.0
 47
0.1
 48
0.1
140
3.5
141
0.0
142
0.0
143
0.0393701
144
2.0
145
0.0
146
0.71
147
1.5
 71
     0
 72
     0
 73
     0
 74
     0
 75
     1
 76
     1
 77
     1
 78
     8
170
     0
171
     2
172
     1
173
     1
174
     0
175
     0
176
   256
177
   256
178
     2
  0
DIMSTYLE
  2
DIMSTYLE0
 70
     0
  3

  4

  5

  6

  7

 40
1.0
 41
4.7999999999999989
 42
0.0625
 43
0.0
 44
4.7999999999999989
 45
0.0
 46
0.0
 47
0.0
 48
0.0
140
4.7999999999999989
141
0.0
142
0.0
143
25.399999999999999
144
1.0
145
0.0
146
1.0
147
0.0
 71
     0
 72
     0
 73
     0
 74
     0
 75
     0
 76
     0
 77
     0
 78
     0
170
     0
171
     2
172
     0
173
     0
174
     0
175
     0
176
     0
177
     0
178
     0
  0
DIMSTYLE
  2
DIMSTYLE1
 70
     0
  3

  4

  5

  6

  7

 40
1.0
 41
4.7999999999999989
 42
0.0625
 43
0.0
 44
4.7999999999999989
 45
0.0
 46
0.0
 47
0.0
 48
0.0
140
4.7999999999999989
141
0.0
142
0.0
143
25.399999999999999
144
1.0
145
0.0
146
1.0
147
0.0
 71
     0
 72
     0
 73
     0
 74
     0
 75
     0
 76
     0
 77
     0
 78
     0
170
     0
171
     2
172
     0
173
     0
174
     0
175
     0
176
     0
177
     0
178
     0
  0
DIMSTYLE
  2
AM_ANSI
 70
     0
  3

  4
mm
  5

  6

  7

 40
1.0
 41
0.1
 42
0.05
 43
0.5
 44
0.1
 45
0.0
 46
0.0
 47
0.1
 48
0.1
140
0.12
141
0.0
142
0.0
143
25.399999999999999
144
1.0
145
0.0
146
0.71
147
0.06
 71
     0
 72
     0
 73
     1
 74
     1
 75
     0
 76
     0
 77
     0
 78
     7
170
     0
171
     2
172
     0
173
     0
174
     0
175
     0
176
   256
177
   256
178
     2
  0
DIMSTYLE
  2
AM_ANSI$3
 70
     0
  3

  4
mm
  5

  6

  7

 40
1.0
 41
0.1
 42
0.05
 43
0.5
 44
0.1
 45
0.0
 46
0.0
 47
0.1
 48
0.1
140
0.12
141
0.0
142
0.0
143
25.399999999999999
144
1.0
145
0.0
146
0.71
147
0.06
 71
     0
 72
     0
 73
     1
 74
     1
 75
     0
 76
     0
 77
     0
 78
     7
170
     0
171
     2
172
     0
173
     0
174
     0
175
     0
176
   256
177
   256
178
     2
  0
DIMSTYLE
  2
AM_ANSI$4
 70
     0
  3

  4
mm
  5

  6

  7

 40
1.0
 41
0.1
 42
0.05
 43
0.5
 44
0.1
 45
0.0
 46
0.0
 47
0.1
 48
0.1
140
0.12
141
0.0
142
0.0
143
25.399999999999999
144
1.0
145
0.0
146
0.71
147
0.06
 71
     0
 72
     0
 73
     1
 74
     1
 75
     0
 76
     0
 77
     0
 78
     7
170
     0
171
     2
172
     0
173
     0
174
     0
175
     0
176
   256
177
   256
178
     2
  0
DIMSTYLE
  2
AM_ANSI$7
 70
     0
  3

  4
mm
  5

  6

  7

 40
1.0
 41
0.1
 42
0.05
 43
0.5
 44
0.1
 45
0.0
 46
0.0
 47
0.1
 48
0.1
140
0.24
141
0.0
142
0.0
143
25.399999999999999
144
1.0
145
0.0
146
0.71
147
0.06
 71
     0
 72
     0
 73
     1
 74
     1
 75
     0
 76
     0
 77
     0
 78
     7
170
     0
171
     2
172
     0
173
     0
174
     0
175
     0
176
   256
177
   256
178
     2
  0
DIMSTYLE
  2
AM_ANSI$SF
 70
     0
  3

  4
mm
  5

  6

  7

 40
1.0
 41
0.1
 42
0.05
 43
0.5
 44
0.1
 45
0.0
 46
0.0
 47
0.1
 48
0.1
140
0.12
141
0.0
142
0.0
143
25.399999999999999
144
1.0
145
0.0
146
0.71
147
0.06
 71
     0
 72
     0
 73
     1
 74
     1
 75
     1
 76
     1
 77
     0
 78
     7
170
     0
171
     2
172
     0
173
     0
174
     0
175
     0
176
   256
177
   256
178
     2
  0
DIMSTYLE
  2
AM_ANSI$SH
 70
     0
  3

  4
mm
  5

  6
GENAXEH
  7

 40
1.0
 41
0.1
 42
0.05
 43
0.5
 44
0.1
 45
0.0
 46
0.0
 47
0.1
 48
0.1
140
0.12
141
0.0
142
0.0
143
25.399999999999999
144
1.0
145
0.0
146
0.71
147
0.06
 71
     0
 72
     0
 73
     1
 74
     1
 75
     1
 76
     1
 77
     0
 78
     7
170
     0
171
     2
172
     0
173
     1
174
     0
175
     0
176
   256
177
   256
178
     2
  0
DIMSTYLE
  2
GEN-ISO
 70
     0
  3

  4
"
  5

  6

  7

 40
1.0
 41
2.5
 42
1.0
 43
10.0
 44
1.0
 45
0.0
 46
0.0
 47
0.1
 48
0.1
140
3.5
141
0.0
142
0.0
143
0.0393701
144
1.0
145
0.0
146
0.71
147
1.5
 71
     0
 72
     0
 73
     0
 74
     0
 75
     0
 76
     0
 77
     1
 78
     8
170
     0
171
     2
172
     1
173
     0
174
     0
175
     0
176
   256
177
   256
178
     2
  0
DIMSTYLE
  2
GEN-ISO$4
 70
     0
  3

  4
"
  5

  6

  7

 40
1.0
 41
2.5
 42
1.0
 43
10.0
 44
1.0
 45
0.0
 46
0.0
 47
0.1
 48
0.1
140
3.5
141
0.0
142
0.0
143
0.0393701
144
1.0
145
0.0
146
0.71
147
1.5
 71
     0
 72
     0
 73
     0
 74
     1
 75
     0
 76
     0
 77
     1
 78
     8
170
     0
171
     2
172
     0
173
     0
174
     0
175
     0
176
   256
177
   256
178
     2
  0
DIMSTYLE
  2
GEN-ISO$3
 70
     0
  3

  4
"
  5

  6

  7

 40
1.0
 41
2.5
 42
1.0
 43
10.0
 44
1.0
 45
0.0
 46
0.0
 47
0.1
 48
0.1
140
3.5
141
0.0
142
0.0
143
0.0393701
144
1.0
145
0.0
146
0.71
147
1.5
 71
     0
 72
     0
 73
     0
 74
     1
 75
     0
 76
     0
 77
     1
 78
     8
170
     0
171
     2
172
     0
173
     0
174
     0
175
     0
176
   256
177
   256
178
     2
  0
DIMSTYLE
  2
ISO-25
 70
     0
  3

  4

  5

  6

  7

 40
1.0
 41
2.5
 42
0.625
 43
3.75
 44
1.25
 45
0.0
 46
0.0
 47
0.0
 48
0.0
140
2.5
141
2.5
142
0.0
143
0.0394
144
1.0
145
1.0
146
1.0
147
0.625
 71
     0
 72
     0
 73
     1
 74
     0
 75
     0
 76
     0
 77
     1
 78
     8
170
     0
171
     2
172
     1
173
     0
174
     0
175
     0
176
     0
177
     0
178
     0
  0
DIMSTYLE
  2
GEN-ISO$6
 70
     0
  3

  4
"
  5

  6

  7

 40
1.0
 41
2.5
 42
1.0
 43
10.0
 44
1.0
 45
0.0
 46
0.0
 47
0.1
 48
0.1
140
3.5
141
0.0
142
0.0
143
0.0393701
144
1.0
145
0.0
146
0.71
147
1.5
 71
     0
 72
     0
 73
     0
 74
     0
 75
     0
 76
     0
 77
     0
 78
     8
170
     0
171
     2
172
     0
173
     0
174
     0
175
     0
176
   256
177
   256
178
     2
  0
DIMSTYLE
  2
GEN-ISO-POS
 70
     0
  3

  4
"
  5

  6

  7

 40
1.0
 41
2.5
 42
1.0
 43
10.0
 44
1.0
 45
0.0
 46
0.0
 47
0.1
 48
0.1
140
5.0
141
0.0
142
0.0
143
0.0393701
144
1.0
145
0.0
146
0.71
147
1.5
 71
     0
 72
     0
 73
     0
 74
     0
 75
     0
 76
     0
 77
     0
 78
     8
170
     0
171
     2
172
     0
173
     0
174
     0
175
     0
176
   256
177
   256
178
     2
  0
DIMSTYLE
  2
GEN-ISO-AXE-F
 70
     0
  3

  4
"
  5

  6

  7

 40
1.0
 41
2.5
 42
1.0
 43
10.0
 44
1.0
 45
0.0
 46
0.0
 47
0.1
 48
0.1
140
3.5
141
0.0
142
0.0
143
0.0393701
144
1.0
145
0.0
146
0.71
147
1.5
 71
     0
 72
     0
 73
     0
 74
     0
 75
     1
 76
     1
 77
     1
 78
     8
170
     0
171
     2
172
     1
173
     0
174
     0
175
     0
176
   256
177
   256
178
     2
  0
DIMSTYLE
  2
GEN-ISO-AXE-H
 70
     0
  3

  4
"
  5

  6

  7

 40
1.0
 41
2.5
 42
1.0
 43
10.0
 44
1.0
 45
0.0
 46
0.0
 47
0.1
 48
0.1
140
3.5
141
0.0
142
0.0
143
0.0393701
144
2.0
145
0.0
146
0.71
147
1.5
 71
     0
 72
     0
 73
     0
 74
     0
 75
     1
 76
     1
 77
     1
 78
     8
170
     0
171
     2
172
     1
173
     1
174
     0
175
     0
176
   256
177
   256
178
     2
  0
ENDTAB
  0
ENDSEC
  0
SECTION
  2
BLOCKS
  0
BLOCK
  8
0
  2
$MODEL_SPACE
 70
     0
 10
0.0
 20
0.0
 30
0.0
  3
$MODEL_SPACE
  1

  0
ENDBLK
  5
21
  8
0
  0
BLOCK
 67
     1
  8
0
  2
$PAPER_SPACE
 70
     0
 10
0.0
 20
0.0
 30
0.0
  3
$PAPER_SPACE
  1

  0
ENDBLK
  5
25
 67
     1
  8
0
  0
BLOCK
  8
0
  2
GENAXEH
 70
     0
 10
0.0
 20
0.0
 30
0.0
  3
GENAXEH
  1

  0
LINE
  5
DD1
  8
0
 10
-1.0
 20
0.0
 30
0.0
 11
1.0
 21
0.0
 31
0.0
  0
ENDBLK
  5
DD2
  8
0
  0
BLOCK
  8
0
  2
_OPEN30
 70
     0
 10
0.0
 20
0.0
 30
0.0
  3
_OPEN30
  1

  0
LINE
  5
DC5
  8
0
  6
BYBLOCK
 62
     0
 10
-1.0
 20
0.26794919
 30
0.0
 11
0.0
 21
0.0
 31
0.0
  0
LINE
  5
DC6
  8
0
  6
BYBLOCK
 62
     0
 10
0.0
 20
0.0
 30
0.0
 11
-1.0
 21
-0.26794919
 31
0.0
  0
LINE
  5
DC7
  8
0
  6
BYBLOCK
 62
     0
 10
0.0
 20
0.0
 30
0.0
 11
-1.0
 21
0.0
 31
0.0
  0
ENDBLK
  5
DC8
  8
0
  0
BLOCK
  8
0
  6
CONTINUOUS
  2
GENDIM2
 70
     0
 10
0.0
 20
0.0
 30
0.0
  3
GENDIM2
  1

  0
LINE
  5
5BB
  8
CK_LEVEL_1
  6
CONTINUOUS
 62
    11
 10
73.176059999999993
 20
160.58153999999999
 30
0.0
 11
73.176059999999993
 21
177.4136
 31
0.0
  0
LINE
  5
5BC
  8
CK_LEVEL_1
  6
CONTINUOUS
 62
    11
 10
83.576059999999998
 20
160.58153999999999
 30
0.0
 11
83.576059999999998
 21
177.4136
 31
0.0
  0
LINE
  5
5BD
  8
CK_LEVEL_1
  6
CONTINUOUS
 62
    11
 10
73.176059999999993
 20
176.21360000000001
 30
0.0
 11
63.576059999999998
 21
176.21360000000001
 31
0.0
  0
SOLID
  5
5BE
  8
CK_LEVEL_1
  6
CONTINUOUS
 62
    11
 10
68.376059999999995
 20
175.49359999999999
 30
0.0
 11
68.376059999999995
 21
176.93360000000001
 31
0.0
 12
73.176059999999993
 22
176.21360000000001
 32
0.0
 13
73.176059999999993
 23
176.21360000000001
 33
0.0
  0
LINE
  5
5BF
  8
CK_LEVEL_1
  6
CONTINUOUS
 62
    11
 10
83.576059999999998
 20
176.21360000000001
 30
0.0
 11
93.176059999999993
 21
176.21360000000001
 31
0.0
  0
SOLID
  5
5C0
  8
CK_LEVEL_1
  6
CONTINUOUS
 62
    11
 10
88.376059999999995
 20
176.93360000000001
 30
0.0
 11
88.376059999999995
 21
175.49359999999999
 31
0.0
 12
83.576059999999998
 22
176.21360000000001
 32
0.0
 13
83.576059999999998
 23
176.21360000000001
 33
0.0
  0
LINE
  5
5C1
  8
CK_LEVEL_1
  6
CONTINUOUS
 62
    11
 10
73.176059999999993
 20
176.21360000000001
 30
0.0
 11
83.576059999999998
 21
176.21360000000001
 31
0.0
  0
TEXT
  5
5C2
  8
CK_LEVEL_1
  6
CONTINUOUS
 62
    11
 10
70.520089999999996
 20
179.81360000000001
 30
0.0
 40
4.7999999999999989
  1
%%c 10.4
 41
0.5
  7
CKSTANDARD
  0
ENDBLK
  5
5C3
  8
0
  6
CONTINUOUS
  0
BLOCK
  8
0
  6
CONTINUOUS
  2
GENDIM3
 70
     0
 10
0.0
 20
0.0
 30
0.0
  3
GENDIM3
  1

  0
LINE
  5
5C6
  8
CK_LEVEL_1
  6
CONTINUOUS
 62
    11
 10
75.626059999999995
 20
116.81084
 30
0.0
 11
75.626059999999995
 21
115.79031999999999
 31
0.0
  0
LINE
  5
5C7
  8
CK_LEVEL_1
  6
CONTINUOUS
 62
    11
 10
81.126059999999995
 20
116.81084
 30
0.0
 11
81.126059999999995
 21
115.79031999999999
 31
0.0
  0
LINE
  5
5C8
  8
CK_LEVEL_1
  6
CONTINUOUS
 62
    11
 10
75.626059999999995
 20
114.59032000000001
 30
0.0
 11
66.026060000000001
 21
114.59032000000001
 31
0.0
  0
SOLID
  5
5C9
  8
CK_LEVEL_1
  6
CONTINUOUS
 62
    11
 10
70.826059999999998
 20
113.87032000000001
 30
0.0
 11
70.826059999999998
 21
115.31032
 31
0.0
 12
75.626059999999995
 22
114.59032000000001
 32
0.0
 13
75.626059999999995
 23
114.59032000000001
 33
0.0
  0
LINE
  5
5CA
  8
CK_LEVEL_1
  6
CONTINUOUS
 62
    11
 10
81.126059999999995
 20
114.59032000000001
 30
0.0
 11
106.10296
 21
114.59032000000001
 31
0.0
  0
SOLID
  5
5CB
  8
CK_LEVEL_1
  6
CONTINUOUS
 62
    11
 10
85.926059999999993
 20
115.31032
 30
0.0
 11
85.926059999999993
 21
113.87032000000001
 31
0.0
 12
81.126059999999995
 22
114.59032000000001
 32
0.0
 13
81.126059999999995
 23
114.59032000000001
 33
0.0
  0
LINE
  5
5CC
  8
CK_LEVEL_1
  6
CONTINUOUS
 62
    11
 10
75.626059999999995
 20
114.59032000000001
 30
0.0
 11
81.126059999999995
 21
114.59032000000001
 31
0.0
  0
TEXT
  5
5CD
  8
CK_LEVEL_1
  6
CONTINUOUS
 62
    11
 10
89.302959999999999
 20
118.19032
 30
0.0
 40
4.7999999999999989
  1
%%c 5.5
 41
0.5
  7
CKSTANDARD
  0
ENDBLK
  5
5CE
  8
0
  6
CONTINUOUS
  0
BLOCK
  8
0
  2
GEVCON
 70
     0
 10
0.0
 20
0.0
 30
0.0
  3
GEVCON
  1
GEVCON
  0
ENDBLK
  5
901
  8
0
  0
BLOCK
  8
0
  2
GEVEP
 70
     0
 10
0.0
 20
0.0
 30
0.0
  3
GEVEP
  1

  0
LINE
  5
904
  8
0
 10
2.0
 20
-2.0
 30
0.0
 11
-2.0
 21
-2.0
 31
0.0
  0
LINE
  5
905
  8
0
 10
-2.0
 20
2.0
 30
0.0
 11
2.0
 21
2.0
 31
0.0
  0
LINE
  5
906
  8
0
 10
2.0
 20
-2.0
 30
0.0
 11
-2.0
 21
2.0
 31
0.0
  0
LINE
  5
907
  8
0
 10
-2.0
 20
-2.0
 30
0.0
 11
2.0
 21
2.0
 31
0.0
  0
LINE
  5
908
  8
0
 10
-2.0
 20
-2.0
 30
0.0
 11
-2.0
 21
2.0
 31
0.0
  0
LINE
  5
909
  8
0
 10
2.0
 20
2.0
 30
0.0
 11
2.0
 21
-2.0
 31
0.0
  0
ENDBLK
  5
90A
  8
0
  0
BLOCK
  8
0
  2
GEVFRAME
 70
     0
 10
0.0
 20
0.0
 30
0.0
  3
GEVFRAME
  1
GEVFRAME
  0
LINE
  5
90D
  8
0
 10
0.0
 20
0.0
 30
0.0
 11
1.0
 21
0.0
 31
0.0
  0
LINE
  5
90E
  8
0
 10
1.0
 20
0.0
 30
0.0
 11
1.0
 21
1.0
 31
0.0
  0
LINE
  5
90F
  8
0
 10
1.0
 20
1.0
 30
0.0
 11
0.0
 21
1.0
 31
0.0
  0
LINE
  5
910
  8
0
 10
0.0
 20
1.0
 30
0.0
 11
0.0
 21
0.0
 31
0.0
  0
ENDBLK
  5
911
  8
0
  0
BLOCK
  8
0
  2
TAKACHI-A4
 70
     0
 10
0.0
 20
0.0
 30
0.0
  3
TAKACHI-A4
  1

  0
TEXT
  5
926
  8
0
 10
10.0
 20
54.999999999999943
 30
0.0
 40
2.5
  1
!GENTITLE-LL
  0
TEXT
  5
927
  8
0
 10
215.0
 20
15.0
 30
0.0
 40
2.5
  1
!GENTITLE-INSERT
  0
TEXT
  5
928
  8
0
 10
215.0
 20
285.00000000000011
 30
0.0
 40
2.5
  1
!GENTITLE-RU
  0
TEXT
  5
929
  8
0
 10
215.00000000000011
 20
290.0
 30
0.0
 40
2.5
  1
!GENTITLE-MAX
  0
LINE
  5
92A
  8
0
 10
215.0
 20
290.00000000000011
 30
0.0
 11
20.000000000000028
 21
290.0
 31
0.0
1001
GENIUS_GENREC_14
1002
{
1000
PYDIR
1011
15.00000000000003
1021
-1.7837191266180684E+190
1031
-0.0
1021
295.0
1031
0.0
1002
}
1002
{
1000
PXDIR
1011
215.0
1021
-1.7837191266180684E+190
1031
-0.0
1021
15.0
1031
0.0
1002
}
1002
{
1000
PORI
1011
15.0
1021
-1.7837191266180684E+190
1031
-0.0
1021
15.0
1031
0.0
1002
}
1002
{
1000
PINS
1011
115.0
1021
-1.7837191266180684E+190
1031
-0.0
1021
155.0
1031
0.0
1002
}
1002
{
1000
HVAL
1000
280
1002
}
1002
{
1000
H
1070
     2
1002
}
1002
{
1000
WVAL
1000
200
1002
}
1002
{
1000
W
1070
     2
1002
}
1002
{
1000
C
1070
     4
1002
}
  0
LINE
  5
92B
  8
0
 10
20.000000000000028
 20
290.0
 30
0.0
 11
19.999999999999972
 21
15.0
 31
0.0
1001
GENIUS_GENREC_14
1002
{
1000
PYDIR
1011
15.00000000000003
1021
-1.7837191266180684E+190
1031
-0.0
1021
295.0
1031
0.0
1002
}
1002
{
1000
PXDIR
1011
215.0
1021
-1.7837191266180684E+190
1031
-0.0
1021
15.0
1031
0.0
1002
}
1002
{
1000
PORI
1011
15.0
1021
-1.7837191266180684E+190
1031
-0.0
1021
15.0
1031
0.0
1002
}
1002
{
1000
PINS
1011
115.0
1021
-1.7837191266180684E+190
1031
-0.0
1021
155.0
1031
0.0
1002
}
1002
{
1000
HVAL
1000
280
1002
}
1002
{
1000
H
1070
     2
1002
}
1002
{
1000
WVAL
1000
200
1002
}
1002
{
1000
W
1070
     2
1002
}
1002
{
1000
C
1070
     4
1002
}
  0
LINE
  5
92C
  8
0
 10
19.999999999999972
 20
15.0
 30
0.0
 11
215.0
 21
15.0
 31
0.0
1001
GENIUS_GENREC_14
1002
{
1000
PYDIR
1011
15.00000000000003
1021
-1.7837191266180684E+190
1031
-0.0
1021
295.0
1031
0.0
1002
}
1002
{
1000
PXDIR
1011
215.0
1021
-1.7837191266180684E+190
1031
-0.0
1021
15.0
1031
0.0
1002
}
1002
{
1000
PORI
1011
15.0
1021
-1.7837191266180684E+190
1031
-0.0
1021
15.0
1031
0.0
1002
}
1002
{
1000
PINS
1011
115.0
1021
-1.7837191266180684E+190
1031
-0.0
1021
155.0
1031
0.0
1002
}
1002
{
1000
HVAL
1000
280
1002
}
1002
{
1000
H
1070
     2
1002
}
1002
{
1000
WVAL
1000
200
1002
}
1002
{
1000
W
1070
     2
1002
}
1002
{
1000
C
1070
     4
1002
}
  0
LINE
  5
92D
  8
0
 10
215.0
 20
15.0
 30
0.0
 11
215.00000000000011
 21
290.00000000000011
 31
0.0
1001
GENIUS_GENREC_14
1002
{
1000
PYDIR
1011
15.00000000000003
1021
-1.7837191266180684E+190
1031
-0.0
1021
295.0
1031
0.0
1002
}
1002
{
1000
PXDIR
1011
215.0
1021
-1.7837191266180684E+190
1031
-0.0
1021
15.0
1031
0.0
1002
}
1002
{
1000
PORI
1011
15.0
1021
-1.7837191266180684E+190
1031
-0.0
1021
15.0
1031
0.0
1002
}
1002
{
1000
PINS
1011
115.0
1021
-1.7837191266180684E+190
1031
-0.0
1021
155.0
1031
0.0
1002
}
1002
{
1000
HVAL
1000
280
1002
}
1002
{
1000
H
1070
     2
1002
}
1002
{
1000
WVAL
1000
200
1002
}
1002
{
1000
W
1070
     2
1002
}
1002
{
1000
C
1070
     4
1002
}
  0
LINE
  5
92E
  8
0
 10
171.00000000000011
 20
285.00000000000011
 30
0.0
 11
215.00000000000011
 21
285.00000000000011
 31
0.0
  0
LINE
  5
92F
  8
0
 10
171.00000000000011
 20
290.00000000000011
 30
0.0
 11
171.00000000000011
 21
285.00000000000011
 31
0.0
  0
TEXT
  8
0
  40
2.5
  5
E54
  72
0
  71
0
 10
214.359
 20
282.859
 30
0.000000
  1
(文書番号：TY-34)2004.10.29
  0
ENDBLK
  5
933
  8
0
  0
BLOCK
  8
0
  2
TAKACHI-TITLE
 70
     2
 10
0.0
 20
0.0
 30
0.0
  3
TAKACHI-TITLE
  1

  0
LINE
  5
942
  8
RAHM2
 10
-195.0
 20
30.000000000000028
 30
0.0
 11
-94.0
 21
30.000000000000028
 31
0.0
  0
LINE
  5
943
  8
RAHM2
 10
-195.0
 20
35.000000000000028
 30
0.0
 11
-94.0
 21
35.000000000000028
 31
0.0
  0
LINE
  5
944
  8
RAHM2
 10
-195.0
 20
40.000000000000021
 30
0.0
 11
-94.0
 21
40.000000000000021
 31
0.0
  0
LINE
  5
945
  8
RAHM2
 10
-195.0
 20
45.000000000000021
 30
0.0
 11
-94.0
 21
45.000000000000021
 31
0.0
  0
LINE
  5
946
  8
0
 10
-195.0
 20
7.0
 30
0.0
 11
-94.0
 21
7.0
 31
0.0
  0
LINE
  5
947
  8
0
 10
-195.0
 20
19.999999999999972
 30
0.0
 11
-94.0
 21
19.999999999999972
 31
0.0
  0
ATTDEF
  5
948
  8
0
 10
-183.24385271456069
 20
8.9508505244280823
 30
0.0
 40
2.5
  1

 11
-183.24385271456069
 21
8.6175171910947483
 31
0.0
  3
サブタイトル
  2
GEN-TITLE-DES2
 70
     0
 74
     1
  0
ATTDEF
  5
949
  8
0
 10
-183.24385271456069
 20
2.0175171910947478
 30
0.0
 40
3.0
  1

 11
-183.24385271456069
 21
1.6175171910947479
 31
0.0
  3
図番
  2
GEN-TITLE-NR
 70
     0
 74
     1
  0
INSERT
  5
94A
  8
0
  2
*U14
 10
0.0
 20
0.0
 30
0.0
  0
ATTDEF
  5
94B
  8
0
 10
-183.24385271456069
 20
14.40728619501834
 30
0.0
 40
4.0
  1

 11
-183.24385271456069
 21
13.873952861685011
 31
0.0
  3
品名
  2
GEN-TITLE-DES1
 70
     0
 74
     1
  0
LINE
  5
94C
  8
RAHM2
 10
-187.57512886940361
 20
30.400000000000041
 30
0.0
 11
-190.0
 21
34.60000000000003
 31
0.0
  0
LINE
  5
94D
  8
RAHM2
 10
-190.0
 20
34.60000000000003
 30
0.0
 11
-192.42487113059639
 21
30.400000000000041
 31
0.0
  0
LINE
  5
94E
  8
RAHM2
 10
-185.0
 20
50.000000000000028
 30
0.0
 11
-185.0
 21
19.99999999999994
 31
0.0
  0
LINE
  5
94F
  8
RAHM2
 10
-192.42487113059639
 20
30.400000000000041
 30
0.0
 11
-187.57512886940361
 21
30.400000000000041
 31
0.0
  0
INSERT
  5
950
  8
0
  2
*U15
 10
0.0
 20
0.0
 30
0.0
  0
INSERT
  5
951
  8
0
  2
*U16
 10
0.0
 20
0.0
 30
0.0
  0
LINE
  5
952
  8
RAHM2
 10
-192.42487113059639
 20
45.400000000000027
 30
0.0
 11
-187.57512886940361
 21
45.400000000000027
 31
0.0
  0
LINE
  5
953
  8
RAHM2
 10
-187.57512886940361
 20
45.400000000000027
 30
0.0
 11
-190.0
 21
49.600000000000023
 31
0.0
  0
LINE
  5
954
  8
RAHM2
 10
-192.42487113059639
 20
40.400000000000027
 30
0.0
 11
-187.57512886940361
 21
40.400000000000027
 31
0.0
  0
LINE
  5
955
  8
RAHM2
 10
-187.57512886940361
 20
40.400000000000027
 30
0.0
 11
-190.0
 21
44.600000000000023
 31
0.0
  0
LINE
  5
956
  8
RAHM2
 10
-192.42487113059639
 20
35.400000000000041
 30
0.0
 11
-187.57512886940361
 21
35.400000000000041
 31
0.0
  0
LINE
  5
957
  8
RAHM2
 10
-187.57512886940361
 20
35.400000000000041
 30
0.0
 11
-190.0
 21
39.600000000000023
 31
0.0
  0
LINE
  5
958
  8
RAHM2
 10
-190.0
 20
39.600000000000023
 30
0.0
 11
-192.42487113059639
 21
35.400000000000041
 31
0.0
  0
LINE
  5
959
  8
RAHM2
 10
-190.0
 20
44.600000000000023
 30
0.0
 11
-192.42487113059639
 21
40.400000000000027
 31
0.0
  0
LINE
  5
95A
  8
RAHM2
 10
-190.0
 20
49.600000000000023
 30
0.0
 11
-192.42487113059639
 21
45.400000000000027
 31
0.0
  0
LINE
  5
95B
  8
RAHM2
 10
-129.0
 20
50.000000000000028
 30
0.0
 11
-129.0
 21
19.99999999999994
 31
0.0
  0
INSERT
  5
95C
  8
0
  2
*U17
 10
0.0
 20
0.0
 30
0.0
  0
LINE
  5
95D
  8
0
 10
-34.0
 20
50.0
 30
0.0
 11
-34.0
 21
0.0
 31
0.0
  0
LINE
  5
95E
  8
0
 10
-94.0
 20
50.0
 30
0.0
 11
-94.0
 21
0.0
 31
0.0
  0
INSERT
  5
95F
  8
0
  2
*U18
 10
0.0
 20
0.0
 30
0.0
  0
LINE
  5
960
  8
0
 10
-94.0
 20
10.0
 30
0.0
 11
-34.0
 21
10.0
 31
0.0
  0
ATTDEF
  5
961
  8
0
 10
-58.014051197997453
 20
39.255005561783491
 30
0.0
 40
3.0
  1

 72
     2
 11
-58.014051197997453
 21
39.255005561783491
 31
0.0
  3
尺度
  2
GEN-TITLE-SCA
 70
     0
  0
ATTDEF
  5
962
  8
0
 10
-77.002849666490064
 20
31.02180787943475
 30
0.0
 40
3.0
  1

 11
-77.002849666490064
 21
30.621807879434751
 31
0.0
  3
材質
  2
GEN-TITLE-MAT1
 70
     0
 74
     1
  0
ATTDEF
  5
963
  8
0
 10
-77.002849666490064
 20
21.02180787943475
 30
0.0
 40
3.0
  1

 11
-77.002849666490064
 21
20.621807879434751
 31
0.0
  3
表面処理
  2
GEN-TITLE-MAT2
 70
     0
 74
     1
  0
ATTDEF
  5
964
  8
0
 10
-77.002849666490064
 20
12.01751719109475
 30
0.0
 40
3.0
  1

 11
-77.002849666490064
 21
11.61751719109475
 31
0.0
  3
日付
  2
GEN-TITLE-DAT
 70
     0
 74
     1
  0
LINE
  5
965
  8
0
 10
-94.0
 20
37.5
 30
0.0
 11
-34.0
 21
37.5
 31
0.0
  0
LINE
  5
966
  8
0
 10
-94.0
 20
27.5
 30
0.0
 11
-34.0
 21
27.5
 31
0.0
  0
LINE
  5
967
  8
0
 10
-94.0
 20
17.5
 30
0.0
 11
-34.0
 21
17.5
 31
0.0
  0
LINE
  5
968
  8
RAHM2
 10
-109.0
 20
50.000000000000028
 30
0.0
 11
-109.0
 21
19.99999999999994
 31
0.0
  0
INSERT
  5
969
  8
0
  2
*U19
 10
0.0
 20
0.0
 30
0.0
  0
INSERT
  5
96A
  8
0
  2
*U20
 10
0.0
 20
0.0
 30
0.0
  0
INSERT
  5
96B
  8
0
  2
*U21
 10
0.0
 20
0.0
 30
0.0
  0
INSERT
  5
96C
  8
0
  2
*U22
 10
0.0
 20
0.0
 30
0.0
  0
INSERT
  5
96D
  8
0
  2
*U23
 10
0.0
 20
0.0
 30
0.0
  0
INSERT
  5
96E
  8
0
  2
*U24
 10
0.0
 20
0.0
 30
0.0
  0
INSERT
  5
96F
  8
0
  2
*U25
 10
0.0
 20
0.0
 30
0.0
  0
INSERT
  5
970
  8
0
  2
*U26
 10
0.0
 20
0.0
 30
0.0
  0
LINE
  5
971
  8
7A
 10
-89.0
 20
43.75
 30
0.0
 11
-75.218691599714703
 21
43.75
 31
0.0
1001
GENIUS_GENOREF_13
1005
984
  0
LINE
  5
972
  8
0
 10
-84.0
 20
45.75
 30
0.0
 11
-76.0
 21
46.749999999999993
 31
0.0
  0
LINE
  5
973
  8
0
 10
-76.0
 20
40.75
 30
0.0
 11
-84.0
 21
41.749999999999993
 31
0.0
  0
LINE
  5
974
  8
7A
 10
-89.0
 20
43.75
 30
0.0
 11
-89.0
 21
47.324786644731482
 31
0.0
1001
GENIUS_GENOREF_13
1005
984
  0
CIRCLE
  5
975
  8
0
 10
-89.0
 20
43.75
 30
0.0
 40
2.0
  0
CIRCLE
  5
976
  8
0
 10
-89.0
 20
43.75
 30
0.0
 40
3.0
  0
LINE
  5
977
  8
0
 10
-84.0
 20
41.749999999999993
 30
0.0
 11
-84.0
 21
45.75
 31
0.0
  0
INSERT
  5
978
  8
0
  2
*U27
 10
0.0
 20
0.0
 30
0.0
  0
LINE
  5
979
  8
7A
 10
-89.0
 20
43.75
 30
0.0
 11
-92.723037371251166
 21
43.75
 31
0.0
1001
GENIUS_GENOREF_13
1005
984
  0
LINE
  5
97A
  8
7A
 10
-89.0
 20
43.75
 30
0.0
 11
-89.0
 21
40.039917242284787
 31
0.0
1001
GENIUS_GENOREF_13
1005
984
  0
LINE
  5
97B
  8
0
 10
-76.0
 20
46.749999999999993
 30
0.0
 11
-76.0
 21
40.75
 31
0.0
  0
LINE
  5
97C
  8
0
 10
-74.0
 20
50.0
 30
0.0
 11
-74.0
 21
37.5
 31
0.0
  0
INSERT
  5
97D
  8
0
  2
*U28
 10
0.0
 20
0.0
 30
0.0
  0
ATTDEF
  5
97E
  8
0
 10
-37.76317379391503
 20
39.255005561783491
 30
0.0
 40
3.0
  1

 72
     2
 11
-37.76317379391503
 21
39.255005561783491
 31
0.0
  3
数量
  2
GEN-TITLE-QTY
 70
     0
  0
LINE
  5
97F
  8
0
 10
-34.0
 20
25.0
 30
0.0
 11
0.0
 21
25.0
 31
0.0
  0
LINE
  5
980
  8
0
 10
-54.0
 20
50.0
 30
0.0
 11
-54.0
 21
37.5
 31
0.0
  0
INSERT
  5
981
  8
0
  2
*U29
 10
0.0
 20
0.0
 30
0.0
  0
INSERT
  5
982
  8
0
  2
*U30
 10
0.0
 20
0.0
 30
0.0
  0
INSERT
  5
983
  8
0
  2
*U31
 10
0.0
 20
0.0
 30
0.0
  0
POINT
  5
984
  8
0
 10
-320.5355579819676
 20
-138.11048412682541
 30
0.0
1001
GENIUS_GENODEF_13
1002
{
1000
HIER
1070
    10
1002
}
1002
{
1000
MANEDIT
1070
     0
1002
}
1002
{
1000
NOSEL
1070
     0
1002
}
1002
{
1000
BEHIND
1070
     0
1002
}
1002
{
1000
REACTOR
1002
}
1001
GENIUS_GENOBJ-N-CRS_13
1002
{
1000
OWNER
1000
GEN
1002
}
1001
GENIUS_GENOENT_13
1002
{
1000
MYREF
1005
984
1002
}
1002
{
1000
GRP
1005
0
1002
}
1001
GENIUS_GENOLIS_13
1002
{
1000
ENT
1005
97A
1005
979
1005
974
1005
971
1002
}
  0
LINE
  5
985
  8
RAHM2
 10
-190.0
 20
29.600000000000019
 30
0.0
 11
-192.42487113059639
 21
25.400000000000041
 31
0.0
  0
LINE
  5
986
  8
RAHM2
 10
-187.57512886940361
 20
25.400000000000041
 30
0.0
 11
-190.0
 21
29.600000000000019
 31
0.0
  0
LINE
  5
987
  8
RAHM2
 10
-192.42487113059639
 20
25.400000000000041
 30
0.0
 11
-187.57512886940361
 21
25.400000000000041
 31
0.0
  0
LINE
  5
988
  8
RAHM2
 10
-195.0
 20
25.000000000000028
 30
0.0
 11
-94.0
 21
25.000000000000028
 31
0.0
  0
INSERT
  5
989
  8
0
  2
*U32
 10
0.0
 20
0.0
 30
0.0
  0
TEXT
  5
98A
  8
RAHM2
 10
-190.8155863565801
 20
25.98333333333337
 30
0.0
 40
2.5
  1
1
 72
     1
 11
-190.19058635658021
 21
25.650000000000031
 31
0.0
 73
     1
  0
TEXT
  5
98B
  8
RAHM2
 10
-190.9183316929134
 20
30.98333333333337
 30
0.0
 40
2.5
  1
2
 72
     1
 11
-190.0
 21
30.650000000000031
 31
0.0
 73
     1
  0
TEXT
  5
98C
  8
RAHM2
 10
-190.92677669529661
 20
35.983333333333341
 30
0.0
 40
2.5
  1
3
 72
     1
 11
-190.0
 21
35.650000000000013
 31
0.0
 73
     1
  0
TEXT
  5
98D
  8
RAHM2
 10
-191.0
 20
40.98333333333337
 30
0.0
 40
2.5
  1
4
 72
     1
 11
-190.0
 21
40.650000000000027
 31
0.0
 73
     1
  0
TEXT
  5
98E
  8
RAHM2
 10
-190.92677669529661
 20
45.98333333333337
 30
0.0
 40
2.5
  1
5
 72
     1
 11
-190.0
 21
45.650000000000027
 31
0.0
 73
     1
  0
LINE
  5
98F
  8
0
 10
-17.0
 20
50.0
 30
0.0
 11
-17.0
 21
0.0
 31
0.0
  0
LINE
  5
990
  8
0
 10
-195.0
 20
0.0
 30
0.0
 11
0.0
 21
0.0
 31
0.0
1001
GENIUS_GENREC_14
1002
{
1000
PYDIR
1011
-184.0
1021
-1.7837191266180684E+190
1031
-0.0
1021
50.0
1031
0.0
1002
}
1002
{
1000
PXDIR
1011
0.0
1021
-1.7837191266180684E+190
1031
-0.0
1021
0.0
1031
0.0
1002
}
1002
{
1000
PORI
1011
-184.0
1021
-1.7837191266180684E+190
1031
-0.0
1021
0.0
1031
0.0
1002
}
1002
{
1000
PINS
1011
-100.5
1021
-1.7837191266180684E+190
1031
-0.0
1021
25.0
1031
0.0
1002
}
1002
{
1000
HVAL
1000
50
1002
}
1002
{
1000
H
1070
     2
1002
}
1002
{
1000
WVAL
1000
167
1002
}
1002
{
1000
W
1070
     2
1002
}
1002
{
1000
C
1070
     4
1002
}
1001
GENIUS_GENODEF_13
1002
{
1000
HIER
1070
     0
1002
}
1002
{
1000
MANEDIT
1070
     0
1002
}
1002
{
1000
NOSEL
1070
     0
1002
}
1002
{
1000
BEHIND
1070
     0
1002
}
1002
{
1000
REACTOR
1002
}
1001
GENIUS_GENOBJ-N-REC_13
1002
{
1000
OWNER
1000
GEN
1002
}
  0
LINE
  5
991
  8
0
 10
0.0
 20
0.0
 30
0.0
 11
0.0
 21
50.0
 31
0.0
1001
GENIUS_GENREC_14
1002
{
1000
PYDIR
1011
-184.0
1021
-1.7837191266180684E+190
1031
-0.0
1021
50.0
1031
0.0
1002
}
1002
{
1000
PXDIR
1011
0.0
1021
-1.7837191266180684E+190
1031
-0.0
1021
0.0
1031
0.0
1002
}
1002
{
1000
PORI
1011
-184.0
1021
-1.7837191266180684E+190
1031
-0.0
1021
0.0
1031
0.0
1002
}
1002
{
1000
PINS
1011
-100.5
1021
-1.7837191266180684E+190
1031
-0.0
1021
25.0
1031
0.0
1002
}
1002
{
1000
HVAL
1000
50
1002
}
1002
{
1000
H
1070
     2
1002
}
1002
{
1000
WVAL
1000
167
1002
}
1002
{
1000
W
1070
     2
1002
}
1002
{
1000
C
1070
     4
1002
}
1001
GENIUS_GENODEF_13
1002
{
1000
HIER
1070
     0
1002
}
1002
{
1000
MANEDIT
1070
     0
1002
}
1002
{
1000
NOSEL
1070
     0
1002
}
1002
{
1000
BEHIND
1070
     0
1002
}
1002
{
1000
REACTOR
1002
}
1001
GENIUS_GENOBJ-N-REC_13
1002
{
1000
OWNER
1000
GEN
1002
}
  0
LINE
  5
992
  8
0
 10
0.0
 20
50.0
 30
0.0
 11
-195.0
 21
50.000000000000028
 31
0.0
1001
GENIUS_GENREC_14
1002
{
1000
PYDIR
1011
-184.0
1021
-1.7837191266180684E+190
1031
-0.0
1021
50.0
1031
0.0
1002
}
1002
{
1000
PXDIR
1011
0.0
1021
-1.7837191266180684E+190
1031
-0.0
1021
0.0
1031
0.0
1002
}
1002
{
1000
PORI
1011
-184.0
1021
-1.7837191266180684E+190
1031
-0.0
1021
0.0
1031
0.0
1002
}
1002
{
1000
PINS
1011
-100.5
1021
-1.7837191266180684E+190
1031
-0.0
1021
25.0
1031
0.0
1002
}
1002
{
1000
HVAL
1000
50
1002
}
1002
{
1000
H
1070
     2
1002
}
1002
{
1000
WVAL
1000
167
1002
}
1002
{
1000
W
1070
     2
1002
}
1002
{
1000
C
1070
     4
1002
}
1001
GENIUS_GENODEF_13
1002
{
1000
HIER
1070
     0
1002
}
1002
{
1000
MANEDIT
1070
     0
1002
}
1002
{
1000
NOSEL
1070
     0
1002
}
1002
{
1000
BEHIND
1070
     0
1002
}
1002
{
1000
REACTOR
1002
}
1001
GENIUS_GENOBJ-N-REC_13
1002
{
1000
OWNER
1000
GEN
1002
}
  0
LINE
  5
993
  8
0
 10
-195.0
 20
50.000000000000028
 30
0.0
 11
-195.0
 21
0.0
 31
0.0
1001
GENIUS_GENREC_14
1002
{
1000
PYDIR
1011
-195.0
1021
-1.7837191266180684E+190
1031
-0.0
1021
50.0
1031
0.0
1002
}
1002
{
1000
PXDIR
1011
-11.0
1021
-1.7837191266180684E+190
1031
-0.0
1021
0.0
1031
0.0
1002
}
1002
{
1000
PORI
1011
-195.0
1021
-1.7837191266180684E+190
1031
-0.0
1021
0.0
1031
0.0
1002
}
1002
{
1000
PINS
1011
-111.5
1021
-1.7837191266180684E+190
1031
-0.0
1021
25.0
1031
0.0
1002
}
1002
{
1000
HVAL
1000
50
1002
}
1002
{
1000
H
1070
     2
1002
}
1002
{
1000
WVAL
1000
167
1002
}
1002
{
1000
W
1070
     2
1002
}
1002
{
1000
C
1070
     4
1002
}
1001
GENIUS_GENODEF_13
1002
{
1000
HIER
1070
     0
1002
}
1002
{
1000
MANEDIT
1070
     0
1002
}
1002
{
1000
NOSEL
1070
     0
1002
}
1002
{
1000
BEHIND
1070
     0
1002
}
1002
{
1000
REACTOR
1002
}
1001
GENIUS_GENOBJ-N-REC_13
1002
{
1000
OWNER
1000
GEN
1002
}
  0
INSERT
  5
994
  8
0
  2
*U33
 10
0.0
 20
0.0
 30
0.0
  0
INSERT
  5
995
  8
0
  2
*U34
 10
0.0
 20
0.0
 30
0.0
  0
ENDBLK
  5
998
  8
0
  0
BLOCK
  8
0
  2
*D10
 70
     1
 10
0.0
 20
0.0
 30
0.0
  3
*D10
  1

  0
LINE
  5
E43
  8
AM_5
 10
88.09649811123694
 20
163.48025662949951
 30
0.0
 11
76.096498111236954
 21
163.48025662949951
 31
0.0
  0
LINE
  5
E44
  8
AM_5
 10
88.09649811123694
 20
153.0802566294995
 30
0.0
 11
76.09649811123694
 21
153.0802566294995
 31
0.0
  0
LINE
  5
E45
  8
AM_5
 10
77.096498111236954
 20
160.98025662949951
 30
0.0
 11
77.09649811123694
 21
155.5802566294995
 31
0.0
  0
TEXT
  8
AM_5
  40
3.5
  5
E55
  62
2
  72
0
  71
0
 10
73.7707
 20
153.485
 30
0.000000
  1
%%c10.4
  0
INSERT
  5
E47
  8
AM_5
  2
_OPEN30
 10
77.096498111236954
 20
163.48025662949951
 30
0.0
 41
2.5
 42
2.5
 43
2.5
 50
90.0
  0
INSERT
  5
E48
  8
AM_5
  2
_OPEN30
 10
77.09649811123694
 20
153.0802566294995
 30
0.0
 41
2.5
 42
2.5
 43
2.5
 50
270.0
  0
POINT
  5
E49
  8
DEFPOINTS
 62
     0
 10
89.09649811123694
 20
163.48025662949951
 30
0.0
  0
POINT
  5
E4A
  8
DEFPOINTS
 62
     0
 10
89.09649811123694
 20
153.0802566294995
 30
0.0
  0
POINT
  5
E4B
  8
DEFPOINTS
 62
     0
 10
77.09649811123694
 20
153.0802566294995
 30
0.0
  0
ENDBLK
  5
A22
  8
0
  0
BLOCK
  8
0
  2
*D11
 70
     1
 10
0.0
 20
0.0
 30
0.0
  3
*D11
  1

  0
LINE
  5
C01
  8
AM_5
 10
89.09649811123694
 20
152.0802566294995
 30
0.0
 11
89.09649811123694
 21
140.0802566294995
 31
0.0
  0
LINE
  5
C02
  8
AM_5
 10
149.09649811123691
 20
154.19017662949949
 30
0.0
 11
149.09649811123691
 21
140.0802566294995
 31
0.0
  0
LINE
  5
C03
  8
AM_5
 10
91.59649811123694
 20
141.0802566294995
 30
0.0
 11
146.59649811123691
 21
141.0802566294995
 31
0.0
  0
INSERT
  5
C04
  8
AM_5
  2
_OPEN30
 10
89.09649811123694
 20
141.0802566294995
 30
0.0
 41
2.5
 42
2.5
 43
2.5
 50
180.0
  0
INSERT
  5
C05
  8
AM_5
  2
_OPEN30
 10
149.09649811123691
 20
141.0802566294995
 30
0.0
 41
2.5
 42
2.5
 43
2.5
  0
INSERT
  5
C06
  8
0
  2
*U35
 10
0.0
 20
0.0
 30
0.0
  0
POINT
  5
C07
  8
DEFPOINTS
 62
     0
 10
89.09649811123694
 20
153.0802566294995
 30
0.0
  0
POINT
  5
C08
  8
DEFPOINTS
 62
     0
 10
149.09649811123691
 20
155.19017662949949
 30
0.0
  0
POINT
  5
C09
  8
DEFPOINTS
 62
     0
 10
149.09649811123691
 20
141.0802566294995
 30
0.0
  0
ENDBLK
  5
B19
  8
0
  0
BLOCK
  8
0
  2
*S12
 70
     1
 10
0.0
 20
0.0
 30
0.0
  3
*S12
  1

  0
LINE
  5
D2B
  8
AM_5
 10
160.70251134438769
 20
173.60342062042329
 30
0.0
 11
150.8997554388759
 21
173.60342062042329
 31
0.0
  0
LINE
  5
D2C
  8
AM_5
 10
150.8997554388759
 20
173.60342062042329
 30
0.0
 11
145.65023129654301
 21
166.1426908683288
 31
0.0
  0
LINE
  5
D2D
  8
AM_5
 10
145.65023129654301
 20
166.1426908683288
 30
0.0
 11
143.63616321716299
 21
163.28025662949949
 31
0.0
  0
LINE
  5
D2E
  8
AM_5
 10
145.2733846815029
 20
166.40784796010709
 30
0.0
 11
143.63616321716299
 21
163.28025662949949
 31
0.0
  0
LINE
  5
D2F
  8
AM_5
 10
143.63616321716299
 20
163.28025662949949
 30
0.0
 11
146.02707791158321
 21
165.87753377655039
 31
0.0
  0
INSERT
  5
D30
  8
0
  2
*U36
 10
0.0
 20
0.0
 30
0.0
  0
ENDBLK
  5
D32
  8
0
  0
BLOCK
  8
0
  2
*U14
 70
     1
 10
0.0
 20
0.0
 30
0.0
  3
*U14
  1

  0
TEXT
  5
DF0
  8
RAHM2
 10
-193.80025513713139
 20
3.3010354072796408
 30
0.0
 40
2.5
  1
図番
  0
ENDBLK
  5
DF2
  8
0
  0
BLOCK
  8
0
  2
*U15
 70
     1
 10
0.0
 20
0.0
 30
0.0
  3
*U15
  1

  0
TEXT
  5
DF4
  8
RAHM2
 10
-193.0
 20
21.249999999999972
 30
0.0
 40
2.5
  1
符号
  0
ENDBLK
  5
DF6
  8
0
  0
BLOCK
  8
0
  2
*U16
 70
     1
 10
0.0
 20
0.0
 30
0.0
  3
*U16
  1

  0
TEXT
  5
DF8
  8
RAHM2
 10
-193.80025513713139
 20
16.30103540727961
 30
0.0
 40
2.5
  1
品名
  0
ENDBLK
  5
DFA
  8
0
  0
BLOCK
  8
0
  2
*U17
 70
     1
 10
0.0
 20
0.0
 30
0.0
  3
*U17
  1

  0
TEXT
  5
DFC
  8
RAHM2
 10
-163.1448171868856
 20
21.249999999999972
 30
0.0
 40
2.5
  1
変更記事
  0
ENDBLK
  5
DFE
  8
0
  0
BLOCK
  8
0
  2
*U18
 70
     1
 10
0.0
 20
0.0
 30
0.0
  3
*U18
  1

  0
TEXT
  5
E00
  8
0
 10
-88.85532994923858
 20
3.4187817258883251
 30
0.0
 40
3.5
  1
株式会社タカチ電機工業
  0
ENDBLK
  5
E02
  8
0
  0
BLOCK
  8
0
  2
*U19
 70
     1
 10
0.0
 20
0.0
 30
0.0
  3
*U19
  1

  0
TEXT
  5
E04
  8
RAHM2
 10
-123.3541228057275
 20
31.250000000000028
 30
0.0
 40
2.5
  1
・  ・   
  0
ENDBLK
  5
E06
  8
0
  0
BLOCK
  8
0
  2
*U20
 70
     1
 10
0.0
 20
0.0
 30
0.0
  3
*U20
  1

  0
TEXT
  5
E08
  8
RAHM2
 10
-126.238119805002
 20
21.249999999999972
 30
0.0
 40
2.5
  1
年・月・日
  0
ENDBLK
  5
E0A
  8
0
  0
BLOCK
  8
0
  2
*U21
 70
     1
 10
0.0
 20
0.0
 30
0.0
  3
*U21
  1

  0
TEXT
  5
E0C
  8
RAHM2
 10
-104.5
 20
21.249999999999972
 30
0.0
 40
2.5
  1
担当
  0
ENDBLK
  5
E0E
  8
0
  0
BLOCK
  8
0
  2
*U22
 70
     1
 10
0.0
 20
0.0
 30
0.0
  3
*U22
  1

  0
TEXT
  5
E10
  8
RAHM2
 10
-123.3541228057275
 20
41.250000000000021
 30
0.0
 40
2.5
  1
・  ・   
  0
ENDBLK
  5
E12
  8
0
  0
BLOCK
  8
0
  2
*U23
 70
     1
 10
0.0
 20
0.0
 30
0.0
  3
*U23
  1

  0
TEXT
  5
E14
  8
RAHM2
 10
-123.3541228057275
 20
36.250000000000028
 30
0.0
 40
2.5
  1
・  ・   
  0
ENDBLK
  5
E16
  8
0
  0
BLOCK
  8
0
  2
*U24
 70
     1
 10
0.0
 20
0.0
 30
0.0
  3
*U24
  1

  0
TEXT
  5
E18
  8
RAHM2
 10
-123.3541228057275
 20
46.250000000000021
 30
0.0
 40
2.5
  1
・  ・   
  0
ENDBLK
  5
E1A
  8
0
  0
BLOCK
  8
0
  2
*U25
 70
     1
 10
0.0
 20
0.0
 30
0.0
  3
*U25
  1

  0
TEXT
  5
E1C
  8
RAHM2
 10
-92.800255137131444
 20
13.80103540727964
 30
0.0
 40
2.5
  1
日付
  0
ENDBLK
  5
E1E
  8
0
  0
BLOCK
  8
0
  2
*U26
 70
     1
 10
0.0
 20
0.0
 30
0.0
  3
*U26
  1

  0
TEXT
  5
E20
  8
RAHM2
 10
-92.800255137131444
 20
23.801035407279642
 30
0.0
 40
2.5
  1
表面処理
  0
ENDBLK
  5
E22
  8
0
  0
BLOCK
  8
0
  2
*U27
 70
     1
 10
0.0
 20
0.0
 30
0.0
  3
*U27
  1

  0
TEXT
  5
E24
  8
RAHM2
 10
-92.800255137131444
 20
33.801035407279642
 30
0.0
 40
2.5
  1
材質
  0
ENDBLK
  5
E26
  8
0
  0
BLOCK
  8
0
  2
*U28
 70
     1
 10
0.0
 20
0.0
 30
0.0
  3
*U28
  1

  0
TEXT
  5
E28
  8
RAHM2
 10
-72.800255137131444
 20
46.301035407279642
 30
0.0
 40
2.5
  1
尺度
  0
ENDBLK
  5
E2A
  8
0
  0
BLOCK
  8
0
  2
*U29
 70
     1
 10
0.0
 20
0.0
 30
0.0
  3
*U29
  1

  0
TEXT
  5
E2C
  8
RAHM2
 10
-52.800255137131451
 20
46.301035407279642
 30
0.0
 40
2.5
  1
数量
  0
ENDBLK
  5
E2E
  8
0
  0
BLOCK
  8
0
  2
*U30
 70
     1
 10
0.0
 20
0.0
 30
0.0
  3
*U30
  1

  0
TEXT
  5
E30
  8
RAHM2
 10
-28.3125
 20
21.301035407279642
 30
0.0
 40
2.5
  1
承認
  0
ENDBLK
  5
E32
  8
0
  0
BLOCK
  8
0
  2
*U31
 70
     1
 10
0.0
 20
0.0
 30
0.0
  3
*U31
  1

  0
TEXT
  5
E34
  8
RAHM2
 10
-28.3125
 20
46.301035407279642
 30
0.0
 40
2.5
  1
承認
  0
ENDBLK
  5
E36
  8
0
  0
BLOCK
  8
0
  2
*U32
 70
     1
 10
0.0
 20
0.0
 30
0.0
  3
*U32
  1

  0
TEXT
  5
E38
  8
RAHM2
 10
-123.3541228057275
 20
26.250000000000028
 30
0.0
 40
2.5
  1
・  ・   
  0
ENDBLK
  5
E3A
  8
0
  0
BLOCK
  8
0
  2
*U33
 70
     1
 10
0.0
 20
0.0
 30
0.0
  3
*U33
  1

  0
TEXT
  5
E3C
  8
RAHM2
 10
-11.3125
 20
46.301035407279642
 30
0.0
 40
2.5
  1
検図
  0
ENDBLK
  5
E3E
  8
0
  0
BLOCK
  8
0
  2
*U34
 70
     1
 10
0.0
 20
0.0
 30
0.0
  3
*U34
  1

  0
TEXT
  5
E40
  8
RAHM2
 10
-11.3125
 20
21.301035407279642
 30
0.0
 40
2.5
  1
製図
  0
ENDBLK
  5
E42
  8
0
  0
BLOCK
  8
0
  2
*U35
 70
     1
 10
0.0
 20
0.0
 30
0.0
  3
*U35
  1

  0
TEXT
  5
E4D
  8
AM_5
 62
     2
 10
116.7498445679298
 20
142.5802566294995
 30
0.0
 40
3.5
  1
60
  0
ENDBLK
  5
E4F
  8
0
  0
BLOCK
  8
0
  2
*U36
 70
     1
 10
0.0
 20
0.0
 30
0.0
  3
*U36
  1

  0
TEXT
  5
E51
  8
AM_5
 62
     2
 10
153.87475543887589
 20
175.35342062042329
 30
0.0
 40
3.5
  1
M10
  7
ACISOTS
  0
ENDBLK
  5
E53
  8
0
  0
ENDSEC
  0
SECTION
  2
ENTITIES
  0
LINE
  5
721
  8
カバ_スクリュ_1
  6
CONTINUOUS
 62
     7
 10
123.0964981112369
 20
159.53025662949949
 30
0.0
 11
113.0964981112369
 21
159.53025662949949
 31
0.0
  0
LINE
  5
722
  8
カバ_スクリュ_1
  6
CONTINUOUS
 62
     7
 10
123.0964981112369
 20
157.03025662949949
 30
0.0
 11
113.0964981112369
 21
157.03025662949949
 31
0.0
  0
LINE
  5
723
  8
カバ_スクリュ_1
  6
CONTINUOUS
 62
     7
 10
110.5964981112369
 20
159.53025662949949
 30
0.0
 11
100.5964981112369
 21
159.53025662949949
 31
0.0
  0
LINE
  5
724
  8
カバ_スクリュ_1
  6
CONTINUOUS
 62
     7
 10
110.5964981112369
 20
157.03025662949949
 30
0.0
 11
100.5964981112369
 21
157.03025662949949
 31
0.0
  0
LINE
  5
725
  8
カバ_スクリュ_1
  6
CONTINUOUS
 62
     7
 10
123.0964981112369
 20
153.0802566294995
 30
0.0
 11
123.0964981112369
 21
157.03025662949949
 31
0.0
  0
LINE
  5
726
  8
カバ_スクリュ_1
  6
CONTINUOUS
 62
     7
 10
123.0964981112369
 20
163.48025662949951
 30
0.0
 11
123.0964981112369
 21
159.53025662949949
 31
0.0
  0
LINE
  5
727
  8
カバ_スクリュ_1
  6
CONTINUOUS
 62
     7
 10
113.0964981112369
 20
153.0802566294995
 30
0.0
 11
113.0964981112369
 21
157.03025662949949
 31
0.0
  0
LINE
  5
728
  8
カバ_スクリュ_1
  6
CONTINUOUS
 62
     7
 10
113.0964981112369
 20
163.48025662949951
 30
0.0
 11
113.0964981112369
 21
159.53025662949949
 31
0.0
  0
LINE
  5
729
  8
カバ_スクリュ_1
  6
CONTINUOUS
 62
     7
 10
110.5964981112369
 20
163.48025662949951
 30
0.0
 11
110.5964981112369
 21
159.53025662949949
 31
0.0
  0
LINE
  5
72A
  8
カバ_スクリュ_1
  6
CONTINUOUS
 62
     7
 10
110.5964981112369
 20
153.0802566294995
 30
0.0
 11
110.5964981112369
 21
157.03025662949949
 31
0.0
  0
LINE
  5
72B
  8
カバ_スクリュ_1
  6
CONTINUOUS
 62
     7
 10
100.5964981112369
 20
153.0802566294995
 30
0.0
 11
100.5964981112369
 21
157.03025662949949
 31
0.0
  0
LINE
  5
72C
  8
カバ_スクリュ_1
  6
CONTINUOUS
 62
     7
 10
100.5964981112369
 20
163.48025662949951
 30
0.0
 11
100.5964981112369
 21
159.53025662949949
 31
0.0
  0
LINE
  5
7EA
  8
カバ_スクリュ_1
  6
CONTINUOUS
 62
     7
 10
140.09649811123691
 20
155.53025662949949
 30
0.0
 11
139.59649811123691
 21
155.53025662949949
 31
0.0
  0
LINE
  5
7EB
  8
カバ_スクリュ_1
  6
CONTINUOUS
 62
     7
 10
140.09649811123691
 20
161.03025662949949
 30
0.0
 11
139.59649811123691
 21
161.03025662949949
 31
0.0
  0
LINE
  5
7EC
  8
カバ_スクリュ_1
  6
CONTINUOUS
 62
     7
 10
92.59649811123694
 20
162.03025662949949
 30
0.0
 11
90.59649811123694
 21
162.03025662949949
 31
0.0
  0
LINE
  5
7ED
  8
カバ_スクリュ_1
  6
CONTINUOUS
 62
     7
 10
92.59649811123694
 20
163.48025662949951
 30
0.0
 11
89.09649811123694
 21
163.48025662949951
 31
0.0
  0
ARC
  5
7EE
  8
カバ_スクリュ_1
  6
CONTINUOUS
 62
     7
 10
126.0964981112369
 20
161.53025662949949
 30
0.0
 40
0.5
 50
180.0
 51
270.0
  0
ARC
  5
7EF
  8
カバ_スクリュ_1
  6
CONTINUOUS
 62
     7
 10
125.0964981112369
 20
162.98025662949951
 30
0.0
 40
0.5
 50
0.0
 51
90.0
  0
LINE
  5
7F0
  8
カバ_スクリュ_1
  6
CONTINUOUS
 62
     7
 10
125.0964981112369
 20
163.48025662949951
 30
0.0
 11
92.59649811123694
 21
163.48025662949951
 31
0.0
  0
ARC
  5
7F1
  8
カバ_スクリュ_1
  6
CONTINUOUS
 62
     7
 10
92.396498111236937
 20
157.48025662949951
 30
0.0
 40
0.2
 50
0.0
 51
90.0
  0
ARC
  5
7F2
  8
カバ_スクリュ_1
  6
CONTINUOUS
 62
     7
 10
90.796498111236943
 20
157.48025662949951
 30
0.0
 40
0.2
 50
90.0
 51
180.0
  0
LINE
  5
7F3
  8
カバ_スクリュ_1
  6
CONTINUOUS
 62
     7
 10
92.396498111236923
 20
157.6802566294995
 30
0.0
 11
90.796498111236914
 21
157.6802566294995
 31
0.0
  0
LINE
  5
7F4
  8
カバ_スクリュ_1
  6
CONTINUOUS
 62
     7
 10
92.59649811123694
 20
154.53025662949949
 30
0.0
 11
90.59649811123694
 21
154.53025662949949
 31
0.0
  0
LINE
  5
7F5
  8
カバ_スクリュ_1
  6
CONTINUOUS
 62
     7
 10
92.396498111236923
 20
158.88025662949951
 30
0.0
 11
90.796498111236914
 21
158.88025662949951
 31
0.0
  0
ARC
  5
7F6
  8
カバ_スクリュ_1
  6
CONTINUOUS
 62
     7
 10
90.796498111236943
 20
159.0802566294995
 30
0.0
 40
0.2
 50
180.0
 51
270.0
  0
ARC
  5
7F7
  8
カバ_スクリュ_1
  6
CONTINUOUS
 62
     7
 10
92.396498111236937
 20
159.0802566294995
 30
0.0
 40
0.2
 50
270.0
 51
0.0
  0
LINE
  5
7F8
  8
カバ_スクリュ_1
  6
CONTINUOUS
 62
     7
 10
92.59649811123694
 20
153.0802566294995
 30
0.0
 11
89.09649811123694
 21
153.0802566294995
 31
0.0
  0
LINE
  5
7F9
  8
カバ_スクリュ_1
  6
CONTINUOUS
 62
     7
 10
92.59649811123694
 20
153.0802566294995
 30
0.0
 11
92.59649811123694
 21
157.48025662949951
 31
0.0
  0
LINE
  5
7FA
  8
カバ_スクリュ_1
  6
CONTINUOUS
 62
     7
 10
90.59649811123694
 20
153.0802566294995
 30
0.0
 11
90.59649811123694
 21
157.48025662949951
 31
0.0
  0
LINE
  5
7FB
  8
カバ_スクリュ_1
  6
CONTINUOUS
 62
     7
 10
89.09649811123694
 20
153.0802566294995
 30
0.0
 11
89.09649811123694
 21
158.28025662949949
 31
0.0
  0
ARC
  5
7FC
  8
カバ_スクリュ_1
  6
CONTINUOUS
 62
     7
 10
126.0964981112369
 20
155.03025662949949
 30
0.0
 40
0.5
 50
90.0
 51
180.0
  0
ARC
  5
7FD
  8
カバ_スクリュ_1
  6
CONTINUOUS
 62
     7
 10
125.0964981112369
 20
153.5802566294995
 30
0.0
 40
0.5
 50
270.0
 51
0.0
  0
LINE
  5
7FE
  8
カバ_スクリュ_1
  6
CONTINUOUS
 62
     7
 10
125.0964981112369
 20
153.0802566294995
 30
0.0
 11
92.59649811123694
 21
153.0802566294995
 31
0.0
  0
LINE
  5
7FF
  8
カバ_スクリュ_1
  6
CONTINUOUS
 62
     7
 10
90.59649811123694
 20
163.48025662949951
 30
0.0
 11
90.59649811123694
 21
159.0802566294995
 31
0.0
  0
LINE
  5
800
  8
カバ_スクリュ_1
  6
CONTINUOUS
 62
     7
 10
92.59649811123694
 20
163.48025662949951
 30
0.0
 11
92.59649811123694
 21
159.0802566294995
 31
0.0
  0
LINE
  5
801
  8
カバ_スクリュ_1
  6
CONTINUOUS
 62
     7
 10
89.09649811123694
 20
163.48025662949951
 30
0.0
 11
89.09649811123694
 21
158.28025662949949
 31
0.0
  0
LINE
  5
802
  8
カバ_スクリュ_1
  6
CONTINUOUS
 62
     7
 10
125.5964981112369
 20
162.98025662949951
 30
0.0
 11
125.5964981112369
 21
153.5802566294995
 31
0.0
  0
ARC
  5
803
  8
カバ_スクリュ_1
  6
CONTINUOUS
 62
     7
 10
139.09649811123691
 20
155.03025662949949
 30
0.0
 40
0.5
 50
0.0
 51
90.0
  0
ARC
  5
804
  8
カバ_スクリュ_1
  6
CONTINUOUS
 62
     7
 10
139.09649811123691
 20
161.53025662949949
 30
0.0
 40
0.5
 50
270.0
 51
0.0
  0
LINE
  5
817
  8
カバ_スクリュ_10
  6
CONTINUOUS
 62
     7
 10
147.59649811123691
 20
154.1802566294995
 30
0.0
 11
139.59649811123691
 21
154.1802566294995
 31
0.0
  0
LINE
  5
818
  8
カバ_スクリュ_10
  6
CONTINUOUS
 62
     7
 10
147.59649811123691
 20
162.38025662949951
 30
0.0
 11
139.59649811123691
 21
162.38025662949951
 31
0.0
  0
LINE
  5
81F
  8
カバ_スクリュ_1
  6
CONTINUOUS
 62
     7
 10
140.09649811123691
 20
155.53025662949949
 30
0.0
 11
140.09649811123691
 21
158.28025662949949
 31
0.0
  0
LINE
  5
820
  8
カバ_スクリュ_1
  6
CONTINUOUS
 62
     7
 10
140.09649811123691
 20
161.03025662949949
 30
0.0
 11
140.09649811123691
 21
158.28025662949949
 31
0.0
  0
LINE
  5
832
  8
カバ_スクリュ_1
  6
CONTINUOUS
 62
     7
 10
147.59649811123691
 20
162.28025662949949
 30
0.0
 11
149.09649811123691
 21
161.37032662949949
 31
0.0
  0
LINE
  5
833
  8
カバ_スクリュ_1
  6
CONTINUOUS
 62
     7
 10
147.59649811123691
 20
163.28025662949949
 30
0.0
 11
139.59649811123691
 21
163.28025662949949
 31
0.0
  0
LINE
  5
834
  8
カバ_スクリュ_1
  6
CONTINUOUS
 62
     7
 10
139.59649811123691
 20
153.28025662949949
 30
0.0
 11
139.59649811123691
 21
163.28025662949949
 31
0.0
  0
LINE
  5
835
  8
カバ_スクリュ_1
  6
CONTINUOUS
 62
     7
 10
149.09649811123691
 20
155.19017662949949
 30
0.0
 11
149.09649811123691
 21
158.28025662949949
 31
0.0
  0
LINE
  5
836
  8
カバ_スクリュ_1
  6
CONTINUOUS
 62
     7
 10
147.59649811123691
 20
154.28025662949949
 30
0.0
 11
149.09649811123691
 21
155.19017662949949
 31
0.0
  0
LINE
  5
837
  8
カバ_スクリュ_1
  6
CONTINUOUS
 62
     7
 10
147.59649811123691
 20
153.28025662949949
 30
0.0
 11
147.59649811123691
 21
158.28025662949949
 31
0.0
  0
LINE
  5
838
  8
カバ_スクリュ_1
  6
CONTINUOUS
 62
     7
 10
147.59649811123691
 20
153.28025662949949
 30
0.0
 11
139.59649811123691
 21
153.28025662949949
 31
0.0
  0
LINE
  5
839
  8
カバ_スクリュ_1
  6
CONTINUOUS
 62
     7
 10
147.59649811123691
 20
163.28025662949949
 30
0.0
 11
147.59649811123691
 21
158.28025662949949
 31
0.0
  0
LINE
  5
83A
  8
カバ_スクリュ_1
  6
CONTINUOUS
 62
     7
 10
149.09649811123691
 20
161.37032662949949
 30
0.0
 11
149.09649811123691
 21
158.28025662949949
 31
0.0
  0
LINE
  5
83B
  8
カバ_スクリュ_1
  6
CONTINUOUS
 62
     7
 10
139.09649811123691
 20
161.03025662949949
 30
0.0
 11
126.0964981112369
 21
161.03025662949949
 31
0.0
  0
LINE
  5
83C
  8
カバ_スクリュ_1
  6
CONTINUOUS
 62
     7
 10
139.09649811123691
 20
155.53025662949949
 30
0.0
 11
126.0964981112369
 21
155.53025662949949
 31
0.0
  0
INSERT
  5
93B
  8
0
  2
TAKACHI-A4
 10
0.0
 20
0.0
 30
0.0
1001
GENIUS_GENOREF_13
1005
9BC
1001
GENIUS_GENOBJ-N-SDF_13
1002
{
1000
OWNER
1000
GEN
1002
}
1001
GENIUS_GENODEF_13
1002
{
1000
HIER
1070
     0
1002
}
1002
{
1000
MANEDIT
1070
     0
1002
}
1002
{
1000
NOSEL
1070
     0
1002
}
1002
{
1000
BEHIND
1070
     0
1002
}
1002
{
1000
OTHER
1070
     0
1002
}
1002
{
1000
REACTOR
1002
}
1001
GENIUS_GENSCREG_13
1040
1.0
1040
1.0
1011
0.0
1021
-1.7837191266180684E+190
1031
-0.0
1021
0.0
1031
0.0
1011
195.00000000000011
1021
-1.7837191266180684E+190
1031
-0.0
1021
275.0
1031
0.0
1070
     3
  0
INSERT
  5
99A
  8
0
 66
     1
  2
TAKACHI-TITLE
 10
215.0
 20
15.0
 30
0.0
1001
GENIUS_GENOREF_13
1005
9BC
  0
ATTRIB
  5
99C
  8
0
 10
31.756147285439312
 20
23.95085052442808
 30
0.0
 40
2.5
  1
SPCP・SPCK・SABP　H=100用
 11
31.756147285439312
 21
23.617517191094748
 31
0.0
  2
GEN-TITLE-DES2
 70
     0
 74
     1
  0
ATTRIB
  5
99D
  8
0
 10
31.756147285439312
 20
17.01751719109475
 30
0.0
 40
3.0
  1

 11
31.756147285439312
 21
16.617517191094748
 31
0.0
  2
GEN-TITLE-NR
 70
     0
 74
     1
  0
ATTRIB
  5
99E
  8
0
 10
31.756147285439312
 20
29.407286195018351
 30
0.0
 40
4.0
  1
スペアカバースクリュー
 11
31.756147285439312
 21
28.873952861685009
 31
0.0
  2
GEN-TITLE-DES1
 70
     0
 74
     1
  0
ATTRIB
  5
99F
  8
0
 10
153.53594880200259
 20
54.255005561783491
 30
0.0
 40
3.0
  1
1:1
 72
     2
 11
156.98594880200261
 21
54.255005561783491
 31
0.0
  2
GEN-TITLE-SCA
 70
     0
  0
ATTRIB
  5
9A0
  8
0
 10
137.99715033350989
 20
46.021807879434753
 30
0.0
 40
3.0
  1
ポリアミド
 11
137.99715033350989
 21
45.621807879434748
 31
0.0
  2
GEN-TITLE-MAT1
 70
     0
 74
     1
  0
ATTRIB
  5
9A1
  8
0
 10
137.99715033350989
 20
36.021807879434753
 30
0.0
 40
3.0
  1
ホワイトグレー
 11
137.99715033350989
 21
35.621807879434748
 31
0.0
  2
GEN-TITLE-MAT2
 70
     0
 74
     1
  0
ATTRIB
  5
9A2
  8
0
 10
137.99715033350989
 20
27.01751719109475
 30
0.0
 40
3.0
  1
2005/11/1
 11
137.99715033350989
 21
26.617517191094748
 31
0.0
  2
GEN-TITLE-DAT
 70
     0
 74
     1
  0
ATTRIB
  5
9A3
  8
0
 10
176.18682620608499
 20
54.255005561783491
 30
0.0
 40
3.0
  1
1
 72
     2
 11
177.236826206085
 21
54.255005561783491
 31
0.0
  2
GEN-TITLE-QTY
 70
     0
  0
SEQEND
  5
99B
  8
0
  0
POINT
  5
9BC
  8
0
 10
0.0
 20
0.0
 30
0.0
1001
GENIUS_GENOENT_13
1002
{
1000
MYREF
1005
9BC
1002
}
1002
{
1000
GRP
1005
0
1002
}
1001
GENIUS_GENOLIS_13
1002
{
1000
ENT
1005
99A
1005
93B
1002
}
1001
GENIUS_GENODEF_13
1002
{
1000
HIER
1070
     1
1002
}
1002
{
1000
MANEDIT
1070
     0
1002
}
1002
{
1000
NOSEL
1070
     0
1002
}
1002
{
1000
BEHIND
1070
     0
1002
}
1002
{
1000
OTHER
1070
     0
1002
}
1002
{
1000
REACTOR
1002
}
1001
GENIUS_GENOBJ-N-TIT_13
1002
{
1000
OWNER
1000
GEN
1002
}
1001
GENIUS_GENTITLE_13
1002
{
1000
BORDER
1000
TAKACHI-A4
1002
}
1002
{
1000
TITLE
1000
TAKACHI-TITLE
1002
}
1002
{
1000
SCALE
1000
1:1
1002
}
1002
{
1000
TITLESTD
1000
ISO
1002
}
1002
{
1000
HRA
1005
93B
1002
}
1002
{
1000
HTIT
1005
99A
1002
}
1002
{
1000
UNCHG
1002
{
1000
GEN-TITLE-SIZ
1000
GEN-TITLE-SCA
1002
}
1002
}
1002
{
1000
GENIUSID
1005
9BC
1002
}
  0
LINE
  5
9F8
  8
AM_7
 10
86.096498111236926
 20
158.28025662949949
 30
0.0
 11
152.09649811123691
 21
158.28025662949949
 31
0.0
1001
GENIUS_GENODEF_13
1002
{
1000
HIER
1070
     0
1002
}
1002
{
1000
MANEDIT
1070
     0
1002
}
1002
{
1000
NOSEL
1070
     0
1002
}
1002
{
1000
BEHIND
1070
     0
1002
}
1002
{
1000
OTHER
1070
     0
1002
}
1002
{
1000
REACTOR
1002
}
1001
GENIUS_GENOBJ-N-CEN_13
1002
{
1000
OWNER
1000
GEN
1002
}
  0
DIMENSION
  5
A16
  8
AM_5
  2
*D10
 10
77.09649811123694
 20
153.0802566294995
 30
0.0
 11
73.770739914468777
 21
158.03538856979441
 31
0.0
 70
   128
  1
%%c<>
 13
89.09649811123694
 23
163.48025662949951
 33
0.0
 14
89.09649811123694
 24
153.0802566294995
 34
0.0
 50
90.0
1001
ACAD
1000
DSTYLE
1002
{
1070
   287
1070
     5
1070
   279
1070
     2
1002
}
  0
LINE
  5
A4E
  8
AM_7
 10
86.096498111236926
 20
208.7322366294994
 30
0.0
 11
152.0946492301878
 21
208.7322366294994
 31
0.0
1001
GENIUS_GENOBJ-N-CEN_13
1002
{
1000
OWNER
1000
GEN
1002
}
1001
GENIUS_GENODEF_13
1002
{
1000
HIER
1070
     0
1002
}
1002
{
1000
MANEDIT
1070
     0
1002
}
1002
{
1000
NOSEL
1070
     0
1002
}
1002
{
1000
BEHIND
1070
     0
1002
}
1002
{
1000
OTHER
1070
     0
1002
}
1002
{
1000
REACTOR
1002
}
  0
LINE
  5
A4F
  8
カバ_スクリュ_1
  6
CONTINUOUS
 62
     7
 10
89.09649811123694
 20
203.53223662949949
 30
0.0
 11
89.09649811123694
 21
208.7322366294994
 31
0.0
  0
LINE
  5
A50
  8
カバ_スクリュ_1
  6
CONTINUOUS
 62
     7
 10
147.5946492301878
 20
205.9822366294994
 30
0.0
 11
147.5946492301878
 21
208.7322366294994
 31
0.0
  0
LINE
  5
A51
  8
カバ_スクリュ_1
  6
CONTINUOUS
 62
     7
 10
139.5946492301878
 20
205.9822366294994
 30
0.0
 11
139.5946492301878
 21
208.7322366294994
 31
0.0
  0
LINE
  5
A52
  8
カバ_スクリュ_1
  6
CONTINUOUS
 62
     7
 10
149.0946492301878
 20
205.9822366294994
 30
0.0
 11
149.0946492301878
 21
208.7322366294994
 31
0.0
  0
LINE
  5
A53
  8
カバ_スクリュ_1
  6
CONTINUOUS
 62
     7
 10
139.5946492301878
 20
211.4822366294994
 30
0.0
 11
126.0964981112369
 21
211.4822366294994
 31
0.0
  0
LINE
  5
A54
  8
カバ_スクリュ_1
  6
CONTINUOUS
 62
     7
 10
139.5946492301878
 20
211.4822366294994
 30
0.0
 11
139.5946492301878
 21
208.7322366294994
 31
0.0
  0
LINE
  5
A55
  8
カバ_スクリュ_1
  6
CONTINUOUS
 62
     7
 10
147.5946492301878
 20
211.4822366294994
 30
0.0
 11
147.5946492301878
 21
208.7322366294994
 31
0.0
  0
LINE
  5
A56
  8
カバ_スクリュ_1
  6
CONTINUOUS
 62
     7
 10
149.0946492301878
 20
211.4822366294994
 30
0.0
 11
149.0946492301878
 21
208.7322366294994
 31
0.0
  0
LINE
  5
A57
  8
カバ_スクリュ_1
  6
CONTINUOUS
 62
     7
 10
125.0964981112369
 20
213.9322366294995
 30
0.0
 11
92.59649811123694
 21
213.9322366294995
 31
0.0
  0
LINE
  5
A58
  8
カバ_スクリュ_1
  6
CONTINUOUS
 62
     7
 10
92.59649811123694
 20
213.9322366294995
 30
0.0
 11
89.09649811123694
 21
213.9322366294995
 31
0.0
  0
LINE
  5
A59
  8
カバ_スクリュ_1
  6
CONTINUOUS
 62
     7
 10
89.09649811123694
 20
213.9322366294995
 30
0.0
 11
89.09649811123694
 21
208.7322366294994
 31
0.0
  0
LINE
  5
A5A
  8
カバ_スクリュ_1
  6
CONTINUOUS
 62
     7
 10
139.5946492301878
 20
205.9822366294994
 30
0.0
 11
126.0964981112369
 21
205.9822366294994
 31
0.0
  0
LINE
  5
A5B
  8
カバ_スクリュ_1
  6
CONTINUOUS
 62
     7
 10
125.0964981112369
 20
203.53223662949949
 30
0.0
 11
92.59649811123694
 21
203.53223662949949
 31
0.0
  0
LINE
  5
A5C
  8
カバ_スクリュ_1
  6
CONTINUOUS
 62
     7
 10
92.59649811123694
 20
203.53223662949949
 30
0.0
 11
89.09649811123694
 21
203.53223662949949
 31
0.0
  0
LINE
  5
A5D
  8
カバ_スクリュ_1
  6
CONTINUOUS
 62
     7
 10
149.0946492301878
 20
205.9822366294994
 30
0.0
 11
139.5946492301878
 21
205.9822366294994
 31
0.0
  0
LINE
  5
A5E
  8
カバ_スクリュ_1
  6
CONTINUOUS
 62
     7
 10
149.0946492301878
 20
211.4822366294994
 30
0.0
 11
139.5946492301878
 21
211.4822366294994
 31
0.0
  0
LINE
  5
A5F
  8
カバ_スクリュ_1
  6
CONTINUOUS
 62
     7
 10
139.89464923018781
 20
211.6822366294995
 30
0.0
 11
139.79464923018779
 21
211.6822366294995
 31
0.0
  0
ARC
  5
A60
  8
カバ_スクリュ_1
  6
CONTINUOUS
 62
     7
 10
139.79464923018779
 20
211.4822366294994
 30
0.0
 40
0.2
 50
90.000000000000028
 51
180.0
  0
ARC
  5
A61
  8
カバ_スクリュ_1
  6
CONTINUOUS
 62
     7
 10
139.89464923018781
 20
211.4822366294994
 30
0.0
 40
0.2
 50
0.0
 51
90.000000000000028
  0
ARC
  5
A62
  8
カバ_スクリュ_1
  6
CONTINUOUS
 62
     7
 10
139.89464923018781
 20
205.9822366294994
 30
0.0
 40
0.2
 50
270.0
 51
0.0
  0
LINE
  5
A63
  8
カバ_スクリュ_1
  6
CONTINUOUS
 62
     7
 10
139.89464923018781
 20
205.78223662949949
 30
0.0
 11
139.79464923018779
 21
205.78223662949949
 31
0.0
  0
ARC
  5
A64
  8
カバ_スクリュ_1
  6
CONTINUOUS
 62
     7
 10
139.79464923018779
 20
205.9822366294994
 30
0.0
 40
0.2
 50
180.0
 51
270.0
  0
ARC
  5
A65
  8
カバ_スクリュ_1
  6
CONTINUOUS
 62
     7
 10
92.396498111236923
 20
209.53223662949949
 30
0.0
 40
0.2
 50
270.0
 51
0.0
  0
ARC
  5
A66
  8
カバ_スクリュ_1
  6
CONTINUOUS
 62
     7
 10
90.796498111236914
 20
209.53223662949949
 30
0.0
 40
0.2
 50
180.0
 51
270.0
  0
LINE
  5
A67
  8
カバ_スクリュ_1
  6
CONTINUOUS
 62
     7
 10
92.396498111236923
 20
209.33223662949939
 30
0.0
 11
90.796498111236914
 21
209.33223662949939
 31
0.0
  0
LINE
  5
A68
  8
カバ_スクリュ_1
  6
CONTINUOUS
 62
     7
 10
92.59649811123694
 20
212.4822366294994
 30
0.0
 11
90.59649811123694
 21
212.4822366294994
 31
0.0
  0
LINE
  5
A69
  8
カバ_スクリュ_1
  6
CONTINUOUS
 62
     7
 10
90.59649811123694
 20
213.9322366294995
 30
0.0
 11
90.59649811123694
 21
209.53223662949949
 31
0.0
  0
LINE
  5
A6A
  8
カバ_スクリュ_1
  6
CONTINUOUS
 62
     7
 10
92.59649811123694
 20
213.9322366294995
 30
0.0
 11
92.59649811123694
 21
209.53223662949949
 31
0.0
  0
LINE
  5
A6B
  8
カバ_スクリュ_1
  6
CONTINUOUS
 62
     7
 10
92.59649811123694
 20
203.53223662949949
 30
0.0
 11
92.59649811123694
 21
207.9322366294995
 31
0.0
  0
LINE
  5
A6C
  8
カバ_スクリュ_1
  6
CONTINUOUS
 62
     7
 10
90.59649811123694
 20
203.53223662949949
 30
0.0
 11
90.59649811123694
 21
207.9322366294995
 31
0.0
  0
LINE
  5
A6D
  8
カバ_スクリュ_1
  6
CONTINUOUS
 62
     7
 10
92.59649811123694
 20
204.98223662949951
 30
0.0
 11
90.59649811123694
 21
204.98223662949951
 31
0.0
  0
LINE
  5
A6E
  8
カバ_スクリュ_1
  6
CONTINUOUS
 62
     7
 10
92.396498111236923
 20
208.1322366294994
 30
0.0
 11
90.796498111236914
 21
208.1322366294994
 31
0.0
  0
ARC
  5
A6F
  8
カバ_スクリュ_1
  6
CONTINUOUS
 62
     7
 10
90.796498111236914
 20
207.9322366294995
 30
0.0
 40
0.2
 50
90.000000000000028
 51
180.0
  0
ARC
  5
A70
  8
カバ_スクリュ_1
  6
CONTINUOUS
 62
     7
 10
92.396498111236923
 20
207.9322366294995
 30
0.0
 40
0.2
 50
0.0
 51
90.000000000000028
  0
LINE
  5
A71
  8
カバ_スクリュ_1
  6
CONTINUOUS
 62
     7
 10
125.5964981112369
 20
204.03223662949941
 30
0.0
 11
125.5964981112369
 21
213.4322366294995
 31
0.0
  0
ARC
  5
A72
  8
カバ_スクリュ_1
  6
CONTINUOUS
 62
     7
 10
125.0964981112369
 20
204.03223662949941
 30
0.0
 40
0.5
 50
270.0
 51
0.0
  0
ARC
  5
A73
  8
カバ_スクリュ_1
  6
CONTINUOUS
 62
     7
 10
125.0964981112369
 20
213.4322366294995
 30
0.0
 40
0.5
 50
0.0
 51
90.000000000000028
  0
ARC
  5
A74
  8
カバ_スクリュ_1
  6
CONTINUOUS
 62
     7
 10
126.0964981112369
 20
205.4822366294994
 30
0.0
 40
0.5
 50
90.000000000000028
 51
180.0
  0
ARC
  5
A75
  8
カバ_スクリュ_1
  6
CONTINUOUS
 62
     7
 10
126.0964981112369
 20
211.9822366294994
 30
0.0
 40
0.5
 50
180.0
 51
270.0
  0
LINE
  5
A76
  8
カバ_スクリュ_1
  6
CONTINUOUS
 62
     7
 10
100.5964981112369
 20
203.53223662949949
 30
0.0
 11
100.5964981112369
 21
207.4822366294994
 31
0.0
  0
LINE
  5
A77
  8
カバ_スクリュ_1
  6
CONTINUOUS
 62
     7
 10
100.5964981112369
 20
213.9322366294995
 30
0.0
 11
100.5964981112369
 21
209.9822366294994
 31
0.0
  0
LINE
  5
A78
  8
カバ_スクリュ_1
  6
CONTINUOUS
 62
     7
 10
110.5964981112369
 20
213.9322366294995
 30
0.0
 11
110.5964981112369
 21
209.9822366294994
 31
0.0
  0
LINE
  5
A79
  8
カバ_スクリュ_1
  6
CONTINUOUS
 62
     7
 10
110.5964981112369
 20
203.53223662949949
 30
0.0
 11
110.5964981112369
 21
207.4822366294994
 31
0.0
  0
LINE
  5
A7A
  8
カバ_スクリュ_1
  6
CONTINUOUS
 62
     7
 10
113.0964981112369
 20
203.53223662949949
 30
0.0
 11
113.0964981112369
 21
207.4822366294994
 31
0.0
  0
LINE
  5
A7B
  8
カバ_スクリュ_1
  6
CONTINUOUS
 62
     7
 10
113.0964981112369
 20
213.9322366294995
 30
0.0
 11
113.0964981112369
 21
209.9822366294994
 31
0.0
  0
LINE
  5
A7C
  8
カバ_スクリュ_1
  6
CONTINUOUS
 62
     7
 10
123.0964981112369
 20
203.53223662949949
 30
0.0
 11
123.0964981112369
 21
207.4822366294994
 31
0.0
  0
LINE
  5
A7D
  8
カバ_スクリュ_1
  6
CONTINUOUS
 62
     7
 10
123.0964981112369
 20
213.9322366294995
 30
0.0
 11
123.0964981112369
 21
209.9822366294994
 31
0.0
  0
LINE
  5
A7E
  8
カバ_スクリュ_1
  6
CONTINUOUS
 62
     7
 10
110.5964981112369
 20
209.9822366294994
 30
0.0
 11
100.5964981112369
 21
209.9822366294994
 31
0.0
  0
LINE
  5
A7F
  8
カバ_スクリュ_1
  6
CONTINUOUS
 62
     7
 10
110.5964981112369
 20
207.4822366294994
 30
0.0
 11
100.5964981112369
 21
207.4822366294994
 31
0.0
  0
LINE
  5
A80
  8
カバ_スクリュ_1
  6
CONTINUOUS
 62
     7
 10
123.0964981112369
 20
209.9822366294994
 30
0.0
 11
113.0964981112369
 21
209.9822366294994
 31
0.0
  0
LINE
  5
A81
  8
カバ_スクリュ_1
  6
CONTINUOUS
 62
     7
 10
123.0964981112369
 20
207.4822366294994
 30
0.0
 11
113.0964981112369
 21
207.4822366294994
 31
0.0
  0
LINE
  5
AB3
  8
AM_7
  6
AM_ISO08W050X2
 10
39.43141728453304
 20
158.28025662949949
 30
0.0
 11
39.43141728453304
 21
150.0802566294995
 31
0.0
1001
GENIUS_GENOREF_13
1005
AC5
  0
LINE
  5
AB4
  8
AM_7
  6
AM_ISO08W050X2
 10
39.43141728453304
 20
158.28025662949949
 30
0.0
 11
31.231417284533052
 21
158.28025662949949
 31
0.0
1001
GENIUS_GENOREF_13
1005
AC5
  0
LINE
  5
AB5
  8
AM_7
  6
AM_ISO08W050X2
 10
39.43141728453304
 20
158.28025662949949
 30
0.0
 11
39.43141728453304
 21
166.48025662949939
 31
0.0
1001
GENIUS_GENOREF_13
1005
AC5
  0
LINE
  5
AB6
  8
AM_7
  6
AM_ISO08W050X2
 10
39.43141728453304
 20
158.28025662949949
 30
0.0
 11
47.631417284533029
 21
158.28025662949949
 31
0.0
1001
GENIUS_GENOREF_13
1005
AC5
  0
ARC
  5
AB7
  8
カバ_スクリュ_1
 10
40.681417284533048
 20
159.53025662949949
 30
0.0
 40
0.5
 50
180.0
 51
269.9999999999992
  0
ARC
  5
AB8
  8
カバ_スクリュ_1
 10
38.18141728453304
 20
157.03025662949949
 30
0.0
 40
0.5
 50
0.0
 51
90.0
  0
ARC
  5
AB9
  8
カバ_スクリュ_1
 10
38.18141728453304
 20
159.53025662949949
 30
0.0
 40
0.5
 50
270.0
 51
0.0
  0
ARC
  5
ABA
  8
カバ_スクリュ_1
 10
40.68141728453304
 20
157.03025662949949
 30
0.0
 40
0.5
 50
90.0
 51
180.0
  0
LINE
  5
ABB
  8
カバ_スクリュ_1
 10
40.181417284533033
 20
157.03025662949949
 30
0.0
 11
40.181417284533033
 21
154.6060220153247
 31
0.0
  0
LINE
  5
ABC
  8
カバ_スクリュ_1
 10
38.18141728453304
 20
157.53025662949949
 30
0.0
 11
35.757182670358283
 21
157.53025662949949
 31
0.0
  0
LINE
  5
ABD
  8
カバ_スクリュ_1
 10
38.68141728453304
 20
157.03025662949949
 30
0.0
 11
38.68141728453304
 21
154.6060220153247
 31
0.0
  0
LINE
  5
ABE
  8
カバ_スクリュ_1
 10
40.68141728453304
 20
159.03025662949949
 30
0.0
 11
43.105651898707798
 21
159.03025662949949
 31
0.0
  0
LINE
  5
ABF
  8
カバ_スクリュ_1
 10
40.181417284533033
 20
161.9544912436742
 30
0.0
 11
40.181417284533048
 21
159.53025662949949
 31
0.0
  0
LINE
  5
AC0
  8
カバ_スクリュ_1
 10
38.68141728453304
 20
161.9544912436742
 30
0.0
 11
38.68141728453304
 21
159.53025662949949
 31
0.0
  0
LINE
  5
AC1
  8
カバ_スクリュ_1
 10
43.105651898707798
 20
157.53025662949949
 30
0.0
 11
40.68141728453304
 21
157.53025662949949
 31
0.0
  0
LINE
  5
AC2
  8
カバ_スクリュ_1
 10
35.757182670358283
 20
159.03025662949949
 30
0.0
 11
38.18141728453304
 21
159.03025662949949
 31
0.0
  0
CIRCLE
  5
AC3
  8
カバ_スクリュ_1
 10
39.43141728453304
 20
158.28025662949949
 30
0.0
 40
3.75
  0
CIRCLE
  5
AC4
  8
カバ_スクリュ_1
 10
39.43141728453304
 20
158.28025662949949
 30
0.0
 40
5.2000000000000002
  0
POINT
  5
AC5
  8
0
 10
-21.150221457034831
 20
3.619005032659401
 30
0.0
1001
GENIUS_GENODEF_13
1002
{
1000
HIER
1070
    10
1002
}
1002
{
1000
MANEDIT
1070
     0
1002
}
1002
{
1000
NOSEL
1070
     0
1002
}
1002
{
1000
BEHIND
1070
     0
1002
}
1002
{
1000
OTHER
1070
     0
1002
}
1002
{
1000
REACTOR
1002
}
1001
GENIUS_GENOLIS_13
1002
{
1000
ENT
1005
AB3
1005
AB4
1005
AB5
1005
AB6
1002
}
1001
GENIUS_GENOENT_13
1002
{
1000
MYREF
1005
AC5
1002
}
1002
{
1000
GRP
1005
0
1002
}
1001
GENIUS_GENOBJ-N-CRS_13
1002
{
1000
OWNER
1000
GEN
1002
}
  0
LINE
  5
AE0
  8
カバ_スクリュ_1
 10
186.13586284951131
 20
161.03025662949949
 30
0.0
 11
186.3358628495113
 21
161.03025662949949
 31
0.0
  0
LINE
  5
AE1
  8
カバ_スクリュ_1
 10
186.3358628495113
 20
161.03025662949949
 30
0.0
 11
186.3358628495113
 21
155.53025662949949
 31
0.0
  0
LINE
  5
AE2
  8
カバ_スクリュ_1
 10
186.3358628495113
 20
155.53025662949949
 30
0.0
 11
186.13586284951131
 21
155.53025662949949
 31
0.0
  0
LINE
  5
AE3
  8
カバ_スクリュ_1
 10
180.4358628495113
 20
155.53025662949949
 30
0.0
 11
180.63586284951131
 21
155.53025662949949
 31
0.0
  0
LINE
  5
AE4
  8
カバ_スクリュ_1
 10
180.4358628495113
 20
161.03025662949949
 30
0.0
 11
180.4358628495113
 21
155.53025662949949
 31
0.0
  0
LINE
  5
AE5
  8
カバ_スクリュ_1
 10
180.63586284951131
 20
161.03025662949949
 30
0.0
 11
180.4358628495113
 21
161.03025662949949
 31
0.0
  0
LINE
  5
AE6
  8
AM_7
  6
AM_ISO08W050X2
 10
183.38586284951131
 20
158.28025662949949
 30
0.0
 11
183.38586284951131
 21
150.0802566294995
 31
0.0
1001
GENIUS_GENOREF_13
1005
AF3
  0
LINE
  5
AE7
  8
AM_7
  6
AM_ISO08W050X2
 10
183.38586284951131
 20
158.28025662949949
 30
0.0
 11
175.1858628495113
 21
158.28025662949949
 31
0.0
1001
GENIUS_GENOREF_13
1005
AF3
  0
LINE
  5
AE8
  8
AM_7
  6
AM_ISO08W050X2
 10
183.38586284951131
 20
158.28025662949949
 30
0.0
 11
183.38586284951131
 21
166.48025662949939
 31
0.0
1001
GENIUS_GENOREF_13
1005
AF3
  0
LINE
  5
AE9
  8
AM_7
  6
AM_ISO08W050X2
 10
183.38586284951131
 20
158.28025662949949
 30
0.0
 11
191.5858628495113
 21
158.28025662949949
 31
0.0
1001
GENIUS_GENOREF_13
1005
AF3
  0
ARC
  5
AEA
  8
0
 10
183.38586284951131
 20
158.28025662949949
 30
0.0
 40
5.0
 50
56.632987030767239
 51
123.3670129692327
  0
ARC
  5
AEB
  8
0
 10
183.38586284951131
 20
158.28025662949949
 30
0.0
 40
5.0
 50
236.6329870307672
 51
303.36701296923269
  0
ARC
  5
AEC
  8
カバ_スクリュ_10
 10
183.38586284951131
 20
158.28025662949949
 30
0.0
 40
4.0999999999999943
 50
227.876436531633
 51
312.12356346836702
  0
ARC
  5
AED
  8
0
 10
183.38586284951131
 20
158.28025662949949
 30
0.0
 40
3.0900799999999999
 50
27.133714218244521
 51
152.86628578175549
  0
LINE
  5
AEE
  8
カバ_スクリュ_1
 10
186.13586284951131
 20
162.45607990162199
 30
0.0
 11
186.13586284951131
 21
154.10443335737699
 31
0.0
  0
LINE
  5
AEF
  8
カバ_スクリュ_1
 10
180.63586284951131
 20
162.45607990162199
 30
0.0
 11
180.63586284951131
 21
154.10443335737691
 31
0.0
  0
CIRCLE
  5
AF0
  8
0
 10
183.38586284951131
 20
158.28025662949949
 30
0.0
 40
5.1999999999999877
  0
ARC
  5
AF1
  8
0
 10
183.38586284951131
 20
158.28025662949949
 30
0.0
 40
3.0900799999999999
 50
207.13371421824451
 51
332.86628578175538
  0
ARC
  5
AF2
  8
カバ_スクリュ_10
 10
183.38586284951131
 20
158.28025662949949
 30
0.0
 40
4.0999999999999943
 50
47.876436531633033
 51
132.123563468367
  0
POINT
  5
AF3
  8
0
 10
19.533685014863519
 20
3.619005032659401
 30
0.0
1001
GENIUS_GENODEF_13
1002
{
1000
HIER
1070
    10
1002
}
1002
{
1000
MANEDIT
1070
     0
1002
}
1002
{
1000
NOSEL
1070
     0
1002
}
1002
{
1000
BEHIND
1070
     0
1002
}
1002
{
1000
OTHER
1070
     0
1002
}
1002
{
1000
REACTOR
1002
}
1001
GENIUS_GENOENT_13
1002
{
1000
MYREF
1005
AF3
1002
}
1002
{
1000
GRP
1005
0
1002
}
1001
GENIUS_GENOBJ-N-CRS_13
1002
{
1000
OWNER
1000
GEN
1002
}
1001
GENIUS_GENOLIS_13
1002
{
1000
ENT
1005
AE6
1005
AE7
1005
AE8
1005
AE9
1002
}
  0
DIMENSION
  5
B0D
  8
AM_5
  2
*D11
 10
149.09649811123691
 20
141.0802566294995
 30
0.0
 11
119.0964981112369
 21
144.3302566294995
 31
0.0
 70
     0
 13
89.09649811123694
 23
153.0802566294995
 33
0.0
 14
149.09649811123691
 24
155.19017662949949
 34
0.0
 50
0.0000000000001132
  0
INSERT
  5
CEC
  8
AM_5
  2
*S12
 10
0.0
 20
0.0
 30
0.0
  0
VIEWPORT
  5
17C
 67
     1
  8
0
 10
133.34999084472651
 20
101.5999970436096
 30
0.0
 40
370.22669129365238
 41
228.4221935424805
 68
     1
 69
     1
1001
ACAD
1000
MVIEW
1002
{
1070
    16
1010
0.0
1020
0.0
1030
0.0
1010
0.0
1020
0.0
1030
1.0
1040
0.0
1040
228.4221935424805
1040
133.34999084472651
1040
101.5999970436096
1040
50.0
1040
0.0
1040
0.0
1070
     0
1070
   100
1070
     1
1070
     1
1070
     0
1070
     0
1070
     0
1070
     0
1040
0.0
1040
0.0
1040
0.0
1040
10.0
1040
10.0
1040
10.0
1040
10.0
1070
     0
1002
{
1002
}
1002
}
1001
GENIUS_GENOBJ-N-SDF_13
1002
{
1000
OWNER
1000
GEN
1002
}
1001
GENIUS_GENODEF_13
1002
{
1000
HIER
1070
     0
1002
}
1002
{
1000
MANEDIT
1070
     0
1002
}
1002
{
1000
NOSEL
1070
     0
1002
}
1002
{
1000
BEHIND
1070
     0
1002
}
1002
{
1000
OTHER
1070
     0
1002
}
1002
{
1000
REACTOR
1002
}
1001
GENIUS_GENSCREG_15
1000
PF
1040
1.0
1000
DF
1040
1.0
1000
MIN
1011
-51.763354802099627
1021
-1.7837191266180684E+190
1031
-0.0
1021
-12.6110997276306
1031
0.0
1000
MAX
1011
318.4633364915527
1021
-1.7837191266180684E+190
1031
-0.0
1021
215.8110938148499
1031
0.0
1000
FLAGS
1070
     2
  0
ENDSEC
  0
EOF
