  0
SECTION
  2
HEADER
  9
$ACADVER
  1
AC1009
  9
$INSBASE
 10
0.0
 20
0.0
 30
0.0
  9
$EXTMIN
 10
8.9831097639546442
 20
8.9784400727328375
 30
-0.0000000000000058
  9
$EXTMAX
 10
621.0284321033713
 20
436.51998483983601
 30
0.0000000000000104
  9
$LIMMIN
 10
0.0
 20
0.0
  9
$LIMMAX
 10
612.0
 20
427.50000000000011
  9
$ORTHOMODE
 70
     0
  9
$REGENMODE
 70
     1
  9
$FILLMODE
 70
     1
  9
$QTEXTMODE
 70
     0
  9
$MIRRTEXT
 70
     1
  9
$DRAGMODE
 70
     2
  9
$LTSCALE
 40
1.5
  9
$OSMODE
 70
  3071
  9
$ATTMODE
 70
     1
  9
$TEXTSIZE
 40
2.5
  9
$TRACEWID
 40
0.05
  9
$TEXTSTYLE
  7
TAKACHI1
  9
$CLAYER
  8
0
  9
$CELTYPE
  6
BYLAYER
  9
$CECOLOR
 62
   256
  9
$DIMSCALE
 40
1.5
  9
$DIMASZ
 40
2.5
  9
$DIMEXO
 40
1.0
  9
$DIMDLI
 40
10.0
  9
$DIMRND
 40
0.0
  9
$DIMDLE
 40
0.0
  9
$DIMEXE
 40
1.0
  9
$DIMTP
 40
0.1
  9
$DIMTM
 40
0.1
  9
$DIMTXT
 40
3.5
  9
$DIMCEN
 40
0.0
  9
$DIMTSZ
 40
0.0
  9
$DIMTOL
 70
     0
  9
$DIMLIM
 70
     0
  9
$DIMTIH
 70
     0
  9
$DIMTOH
 70
     0
  9
$DIMSE1
 70
     0
  9
$DIMSE2
 70
     0
  9
$DIMTAD
 70
     1
  9
$DIMZIN
 70
     8
  9
$DIMBLK
  1
OPEN30
  9
$DIMASO
 70
     1
  9
$DIMSHO
 70
     1
  9
$DIMPOST
  1

  9
$DIMAPOST
  1
"
  9
$DIMALT
 70
     0
  9
$DIMALTD
 70
     2
  9
$DIMALTF
 40
0.0393701
  9
$DIMLFAC
 40
1.0
  9
$DIMTOFL
 70
     1
  9
$DIMTVP
 40
0.0
  9
$DIMTIX
 70
     0
  9
$DIMSOXD
 70
     0
  9
$DIMSAH
 70
     0
  9
$DIMBLK1
  1

  9
$DIMBLK2
  1

  9
$DIMSTYLE
  2
AM_ISO
  9
$DIMCLRD
 70
     3
  9
$DIMCLRE
 70
     3
  9
$DIMCLRT
 70
     2
  9
$DIMTFAC
 40
0.71
  9
$DIMGAP
 40
1.5
  9
$LUNITS
 70
     2
  9
$LUPREC
 70
     2
  9
$SKETCHINC
 40
0.1
  9
$FILLETRAD
 40
3.75
  9
$AUNITS
 70
     0
  9
$AUPREC
 70
     0
  9
$MENU
  1
.
  9
$ELEVATION
 40
0.0
  9
$PELEVATION
 40
0.0
  9
$THICKNESS
 40
0.0
  9
$LIMCHECK
 70
     0
  9
$BLIPMODE
 70
     0
  9
$CHAMFERA
 40
3.75
  9
$CHAMFERB
 40
3.75
  9
$SKPOLY
 70
     0
  9
$TDCREATE
 40
2454460.8286067359
  9
$TDUPDATE
 40
2454907.4438867131
  9
$TDINDWG
 40
0.0159181481
  9
$TDUSRTIMER
 40
0.0159181481
  9
$USRTIMER
 70
     1
  9
$ANGBASE
 50
0.0
  9
$ANGDIR
 70
     0
  9
$PDMODE
 70
     0
  9
$PDSIZE
 40
0.0
  9
$PLINEWID
 40
0.0
  9
$COORDS
 70
     2
  9
$SPLFRAME
 70
     0
  9
$SPLINETYPE
 70
     6
  9
$SPLINESEGS
 70
     8
  9
$ATTDIA
 70
     1
  9
$ATTREQ
 70
     1
  9
$HANDLING
 70
     1
  9
$HANDSEED
  5
121D
  9
$SURFTAB1
 70
     6
  9
$SURFTAB2
 70
     6
  9
$SURFTYPE
 70
     6
  9
$SURFU
 70
     6
  9
$SURFV
 70
     6
  9
$UCSNAME
  2

  9
$UCSORG
 10
0.0
 20
0.0
 30
0.0
  9
$UCSXDIR
 10
1.0
 20
0.0
 30
0.0
  9
$UCSYDIR
 10
0.0
 20
1.0
 30
0.0
  9
$PUCSNAME
  2

  9
$PUCSORG
 10
0.0
 20
0.0
 30
0.0
  9
$PUCSXDIR
 10
1.0
 20
0.0
 30
0.0
  9
$PUCSYDIR
 10
0.0
 20
1.0
 30
0.0
  9
$USERI1
 70
     0
  9
$USERI2
 70
     0
  9
$USERI3
 70
     0
  9
$USERI4
 70
     0
  9
$USERI5
 70
     0
  9
$USERR1
 40
0.0
  9
$USERR2
 40
0.0
  9
$USERR3
 40
0.0
  9
$USERR4
 40
0.0
  9
$USERR5
 40
0.0
  9
$WORLDVIEW
 70
     1
  9
$SHADEDGE
 70
     3
  9
$SHADEDIF
 70
    70
  9
$TILEMODE
 70
     1
  9
$MAXACTVP
 70
    64
  9
$PLIMCHECK
 70
     0
  9
$PEXTMIN
 10
1.0000000000000000E+020
 20
1.0000000000000000E+020
 30
1.0000000000000000E+020
  9
$PEXTMAX
 10
-1.0000000000000000E+020
 20
-1.0000000000000000E+020
 30
-1.0000000000000000E+020
  9
$PLIMMIN
 10
-0.2500002402958907
 20
-0.2499999962453767
  9
$PLIMMAX
 10
10.74999951940821
 20
8.2499997634587316
  9
$UNITMODE
 70
     0
  9
$VISRETAIN
 70
     1
  9
$PLINEGEN
 70
     0
  9
$PSLTSCALE
 70
     1
  0
ENDSEC
  0
SECTION
  2
TABLES
  0
TABLE
  2
VPORT
 70
    25
  0
VPORT
  2
*ACTIVE
 70
     0
 10
0.0
 20
0.0
 11
1.0
 21
1.0
 12
315.00577093366297
 22
222.7492124562844
 13
0.0
 23
0.0
 14
3.75
 24
3.75
 15
15.0
 25
15.0
 16
0.0
 26
0.0
 36
1.0
 17
0.0
 27
0.0
 37
0.0
 40
430.64341812696119
 41
1.4612590799031471
 42
50.0
 43
0.0
 44
0.0
 50
0.0
 51
0.0
 71
    16
 72
   100
 73
     1
 74
     3
 75
     0
 76
     0
 77
     0
 78
     0
  0
ENDTAB
  0
TABLE
  2
LTYPE
 70
    25
  0
LTYPE
  2
CONTINUOUS
 70
     0
  3
Solid line
 72
    65
 73
     0
 40
0.0
  0
LTYPE
  2
AM_ISO02W050
 70
     0
  3
__ __ __ __ __ __ __ __ __ __ __ __ __ __ __
 72
    65
 73
     2
 40
7.5
 49
6.0
 49
-1.5
  0
LTYPE
  2
AM_ISO08W050
 70
     0
  3
____ . ____ . ____ . ____ . ____ . ____ . ____
 72
    65
 73
     4
 40
18.0
 49
12.0
 49
-1.5
 49
3.0
 49
-1.5
  0
LTYPE
  2
AM_ISO09W050
 70
     0
  3
_____ . . _____ . . _____ . . ____ .. ____
 72
    65
 73
     6
 40
22.5
 49
12.0
 49
-1.5
 49
3.0
 49
-1.5
 49
3.0
 49
-1.5
  0
LTYPE
  2
AMCONSTR
 70
     0
  3
_______________________
 72
    65
 73
     2
 40
9999.0
 49
9999.0
 49
0.0
  0
LTYPE
  2
AM_ISO08W050X2
 70
     0
  3
__ . __ . __ . __ . __ . __
 72
    65
 73
     4
 40
9.0
 49
6.0
 49
-0.75
 49
1.5
 49
-0.75
  0
LTYPE
  2
AM_ISO02W050X2
 70
     0
  3
 _ _ _ _ _ _ _ _ _ _ _ _
 72
    65
 73
     2
 40
3.75
 49
3.0
 49
-0.75
  0
LTYPE
  2
AMZIGZAG
 70
     0
  3
/\/-/\/-/\/-/\/-/\/-/\/
 72
    65
 73
     2
 40
11.0001
 49
0.0001
 49
-11.0
  0
LTYPE
  2
HIDDEN
 70
     0
  3
Hidden __ __ __ __ __ __ __ __ __ __ __ __ __ _
 72
    65
 73
     2
 40
0.375
 49
0.25
 49
-0.125
  0
LTYPE
  2
CENTER
 70
     0
  3
Center ____ _ ____ _ ____ _ ____ _ ____ _ ____
 72
    65
 73
     4
 40
2.0
 49
1.25
 49
-0.25
 49
0.25
 49
-0.25
  0
LTYPE
  2
PHANTOM2
 70
     0
  3
Phantom (.5x) ___ _ _ ___ _ _ ___ _ _ ___ _ _
 72
    65
 73
     6
 40
1.25
 49
0.625
 49
-0.125
 49
0.125
 49
-0.125
 49
0.125
 49
-0.125
  0
LTYPE
  2
CENTER2
 70
     0
  3
Center (.5x) ___ _ ___ _ ___ _ ___ _ ___ _ ___
 72
    65
 73
     4
 40
1.125
 49
0.75
 49
-0.125
 49
0.125
 49
-0.125
  0
LTYPE
  2
HIDDEN2
 70
     0
  3
Hidden (.5x) _ _ _ _ _ _ _ _ _ _ _ _ _ _ _ _ _
 72
    65
 73
     2
 40
0.1875
 49
0.125
 49
-0.0625
  0
LTYPE
  2
AMZIGZAG2
 70
     0
  3
/\/-/\/-/\/-/\/-/\/-/\/
 72
    65
 73
     2
 40
0.4401
 49
0.0001
 49
-0.4400000000000001
  0
LTYPE
  2
ACANSTGB
 70
     0
  3
__ . . __ . .
 72
    65
 73
     6
 40
0.35433070866
 49
0.15748031496
 49
-0.03937007874
 49
0.03937007874
 49
-0.03937007874
 49
0.03937007874
 49
-0.03937007874
  0
LTYPE
  2
ACANSTGL
 70
     0
  3
_ _ _ _ _
 72
    65
 73
     2
 40
0.11811023622
 49
0.07874015748
 49
-0.03937007874
  0
LTYPE
  2
ACISOWELD
 70
     0
  3
_ _ _ _ _
 72
    65
 73
     2
 40
2.0
 49
2.0
 49
-1.0
  0
LTYPE
  2
ACISOTGB
 70
     0
  3
__ . . __ . .
 72
    65
 73
     6
 40
9.0
 49
4.0
 49
-1.0
 49
1.0
 49
-1.0
 49
1.0
 49
-1.0
  0
LTYPE
  2
ACISOTGL
 70
     0
  3
_ _ _ _ _
 72
    65
 73
     2
 40
3.0
 49
2.0
 49
-1.0
  0
LTYPE
  2
GEN3
 70
     0
  3
-- -- -- -- -- -- -- -- -- -- -- -- -- -- --
 72
    65
 73
     2
 40
6.25
 49
4.75
 49
-1.5
  0
LTYPE
  2
GEN7
 70
     0
  3
____ . ____ . ____ . ____ . ____ . ____ . ____
 72
    65
 73
     4
 40
13.75
 49
9.75
 49
-1.5
 49
1.0
 49
-1.5
  0
LTYPE
  2
GEN3A
 70
     0
  3
 - - - - -
 72
    65
 73
     2
 40
3.125
 49
2.25
 49
-0.875
  0
LTYPE
  2
GEN7A
 70
     0
  3
__ . __ . __
 72
    65
 73
     4
 40
6.875
 49
4.75
 49
-0.875
 49
0.375
 49
-0.875
  0
LTYPE
  2
GEN4A
 70
     0
  3
_____ . . _____ . . _____ . . ____ .. ____
 72
    65
 73
     6
 40
16.25
 49
9.75
 49
-1.5
 49
1.0
 49
-1.5
 49
1.0
 49
-1.5
  0
LTYPE
  2
GENZIGZAG
 70
     0
  3
/\/-/\/-/\/-/\/-/\/-/\/
 72
    65
 73
     2
 40
12.0001
 49
0.0001
 49
-12.0
  0
ENDTAB
  0
TABLE
  2
LAYER
 70
    13
  0
LAYER
  2
0
 70
     0
 62
     7
  6
CONTINUOUS
  0
LAYER
  2
AM_5
 70
     0
 62
     3
  6
CONTINUOUS
  0
LAYER
  2
DEFPOINTS
 70
     0
 62
     7
  6
CONTINUOUS
  0
LAYER
  2
7A
 70
     0
 62
     4
  6
GEN7A
  0
LAYER
  2
RAHM2
 70
     0
 62
     1
  6
CONTINUOUS
  0
LAYER
  2
KLIN
 70
     0
 62
     1
  6
CONTINUOUS
  0
LAYER
  2
ﾙ_ﾌ
 70
     0
 62
     7
  6
CONTINUOUS
  0
LAYER
  2
ﾙ_ﾌ0
 70
     0
 62
     7
  6
AM_ISO02W050X2
  0
LAYER
  2
ｽﾍ__ｻ_
 70
     0
 62
     2
  6
CONTINUOUS
  0
LAYER
  2
AM_7
 70
     0
 62
     4
  6
AM_ISO08W050
  0
LAYER
  2
AM_CL
 70
     0
 62
     1
  6
AMCONSTR
  0
LAYER
  2
AM_12
 70
     0
 62
     7
  6
CONTINUOUS
  0
LAYER
  2
AM_PAREF
 70
     0
 62
     4
  6
CONTINUOUS
  0
ENDTAB
  0
TABLE
  2
STYLE
 70
    11
  0
STYLE
  2
STANDARD
 70
     0
 40
0.0
 41
1.0
 50
0.0
 71
     0
 42
0.2
  3
ISOCP.SHX
  4
EXTFONT.SHX
  0
STYLE
  2

 70
     1
 40
0.0
 41
1.0
 50
0.0
 71
     0
 42
0.2
  3
ltypeshp.shx
  4

  0
STYLE
  2
ACANSTS
 70
     0
 40
1.0
 41
1.0
 50
0.0
 71
     0
 42
0.2
  3
isoct.shx
  4
extfont.shx
  0
STYLE
  2
ACANSGDT
 70
     0
 40
0.0
 41
1.0
 50
0.0
 71
     0
 42
0.2
  3
amgdtans.shx
  4

  0
STYLE
  2
USER1
 70
     0
 40
0.0
 41
1.0
 50
0.0
 71
     0
 42
0.2
  3
TXT.SHX
  4

  0
STYLE
  2
USER2
 70
     0
 40
0.0
 41
1.0
 50
0.0
 71
     0
 42
0.2
  3
SIMPLEX.SHX
  4

  0
STYLE
  2
USER3
 70
     0
 40
0.0
 41
1.0
 50
0.0
 71
     0
 42
0.2
  3
ITALIC.SHX
  4

  0
STYLE
  2
ACISOTS
 70
     0
 40
1.0
 41
1.0
 50
0.0
 71
     0
 42
0.2
  3
isocp.shx
  4
extfont.shx
  0
STYLE
  2
ACISOGDT
 70
     0
 40
0.0
 41
1.0
 50
0.0
 71
     0
 42
0.2
  3
amgdt.shx
  4

  0
STYLE
  2

 70
     1
 40
0.0
 41
1.0
 50
0.0
 71
     0
 42
3.0
  3
genltshp.shx
  4

  0
STYLE
  2
TAKACHI1
 70
     0
 40
2.5
 41
1.0
 50
0.0
 71
     0
 42
2.5
  3
txt
  4

  0
ENDTAB
  0
TABLE
  2
VIEW
 70
     6
  0
VIEW
  2
AM_VIEW1
 70
     0
 40
213.75000000000011
 10
159.4538009888752
 20
320.62500000000011
 41
318.9076019777504
 11
0.0
 21
0.0
 31
1.0
 12
0.0
 22
0.0
 32
0.0
 42
50.0
 43
0.0
 44
0.0
 50
0.0
 71
    16
  0
VIEW
  2
AM_VIEW2
 70
     0
 40
213.75000000000011
 10
452.54619901112483
 20
320.62500000000011
 41
318.9076019777504
 11
0.0
 21
0.0
 31
1.0
 12
0.0
 22
0.0
 32
0.0
 42
50.0
 43
0.0
 44
0.0
 50
0.0
 71
    16
  0
VIEW
  2
AM_VIEW3
 70
     0
 40
213.75000000000011
 10
159.4538009888752
 20
106.875
 41
318.9076019777504
 11
0.0
 21
0.0
 31
1.0
 12
0.0
 22
0.0
 32
0.0
 42
50.0
 43
0.0
 44
0.0
 50
0.0
 71
    16
  0
VIEW
  2
AM_VIEW4
 70
     0
 40
213.75000000000011
 10
452.54619901112483
 20
106.875
 41
318.9076019777504
 11
0.0
 21
0.0
 31
1.0
 12
0.0
 22
0.0
 32
0.0
 42
50.0
 43
0.0
 44
0.0
 50
0.0
 71
    16
  0
VIEW
  2
AM_VIEW5
 70
     0
 40
213.75000000000011
 10
306.0
 20
213.75000000000011
 41
318.9076019777504
 11
0.0
 21
0.0
 31
1.0
 12
0.0
 22
0.0
 32
0.0
 42
50.0
 43
0.0
 44
0.0
 50
0.0
 71
    16
  0
VIEW
  2
AM_VIEW6
 70
     0
 40
427.49572499999999
 10
306.0
 20
213.75000000000011
 41
637.80882580346133
 11
0.0
 21
0.0
 31
1.0
 12
0.0
 22
0.0
 32
0.0
 42
50.0
 43
0.0
 44
0.0
 50
0.0
 71
    16
  0
ENDTAB
  0
TABLE
  2
UCS
 70
     0
  0
ENDTAB
  0
TABLE
  2
APPID
 70
    34
  0
APPID
  2
ACAD
 70
     0
  0
APPID
  2
MCAD_NO_VIS
 70
     0
  0
APPID
  2
ACAD_TEMP_GRAPHIC
 70
     0
  0
APPID
  2
ACATTRIBSERVICES
 70
     0
  0
APPID
  2
AD_DRAW
 70
     0
  0
APPID
  2
DESIGNERASSEMBLIES
 70
     0
  0
APPID
  2
ACADM_DIM_EDIT
 70
     0
  0
APPID
  2
AMDT_DM_ADJ
 70
     0
  0
APPID
  2
GENIUS_GENREC_14
 70
     0
  0
APPID
  2
GENIUS_GENODEF_13
 70
     0
  0
APPID
  2
GENIUS_GENOBJ-N-REC_13
 70
     0
  0
APPID
  2
GENIUS_GENCFG_13
 70
     0
  0
APPID
  2
GENIUS_GENCFG0_13
 70
     0
  0
APPID
  2
GENIUS_GENCFG1_13
 70
     0
  0
APPID
  2
GENIUS_GENCFG2_13
 70
     0
  0
APPID
  2
GENIUS_GENCFG3_13
 70
     0
  0
APPID
  2
GENIUS_GENCFG4_13
 70
     0
  0
APPID
  2
GENIUS_GEVCFG0_13
 70
     0
  0
APPID
  2
GENIUS_GENOENT_13
 70
     0
  0
APPID
  2
GENIUS_GENDIMSH_14
 70
     0
  0
APPID
  2
GENIUS_GENOBJ-N-CRS_13
 70
     0
  0
APPID
  2
GENIUS_GENOREF_13
 70
     0
  0
APPID
  2
GENIUS_GENOLIS_13
 70
     0
  0
APPID
  2
GENIUS_GENOBJ-N-TIT_13
 70
     0
  0
APPID
  2
GENIUS_GENTITLE_13
 70
     0
  0
APPID
  2
GENIUS_GENSCREG_15
 70
     0
  0
APPID
  2
GENIUS_GENOBJ-N-SDF_13
 70
     0
  0
APPID
  2
GENIUS_GENOBJ-N-CEN_13
 70
     0
  0
APPID
  2
GENIUS_GENOBJ-N-HTC_13
 70
     0
  0
APPID
  2
GENIUS_GENHATCH_13
 70
     0
  0
APPID
  2
GENIUS_GENOBJ-N-ZOO_13
 70
     0
  0
APPID
  2
GENIUS_GENZOO_17
 70
     0
  0
APPID
  2
GENIUS_GENDTOL_13
 70
     0
  0
APPID
  2
GENIUS_GENSCREG_13
 70
     0
  0
ENDTAB
  0
TABLE
  2
DIMSTYLE
 70
    26
  0
DIMSTYLE
  2
STANDARD
 70
     0
  3

  4

  5

  6

  7

 40
1.0
 41
0.18
 42
0.0625
 43
0.38
 44
0.18
 45
0.0
 46
0.0
 47
0.0
 48
0.0
140
0.18
141
0.09
142
0.0
143
25.399999999999999
144
1.0
145
0.0
146
1.0
147
0.09
 71
     0
 72
     0
 73
     1
 74
     1
 75
     0
 76
     0
 77
     0
 78
     0
170
     0
171
     2
172
     0
173
     0
174
     0
175
     0
176
     0
177
     0
178
     0
  0
DIMSTYLE
  2
AM_ANSI
 70
     0
  3

  4
mm
  5

  6

  7

 40
1.0
 41
0.1
 42
0.05
 43
0.5
 44
0.1
 45
0.0
 46
0.0
 47
0.1
 48
0.1
140
0.12
141
0.0
142
0.0
143
25.399999999999999
144
1.0
145
0.0
146
0.71
147
0.06
 71
     0
 72
     0
 73
     1
 74
     1
 75
     0
 76
     0
 77
     0
 78
     7
170
     0
171
     2
172
     0
173
     0
174
     0
175
     0
176
   256
177
   256
178
     2
  0
DIMSTYLE
  2
AM_ANSI$3
 70
     0
  3

  4
mm
  5

  6

  7

 40
1.0
 41
0.1
 42
0.05
 43
0.5
 44
0.1
 45
0.0
 46
0.0
 47
0.1
 48
0.1
140
0.12
141
0.0
142
0.0
143
25.399999999999999
144
1.0
145
0.0
146
0.71
147
0.06
 71
     0
 72
     0
 73
     1
 74
     1
 75
     0
 76
     0
 77
     0
 78
     7
170
     0
171
     2
172
     0
173
     0
174
     0
175
     0
176
   256
177
   256
178
     2
  0
DIMSTYLE
  2
AM_ANSI$4
 70
     0
  3

  4
mm
  5

  6

  7

 40
1.0
 41
0.1
 42
0.05
 43
0.5
 44
0.1
 45
0.0
 46
0.0
 47
0.1
 48
0.1
140
0.12
141
0.0
142
0.0
143
25.399999999999999
144
1.0
145
0.0
146
0.71
147
0.06
 71
     0
 72
     0
 73
     1
 74
     1
 75
     0
 76
     0
 77
     0
 78
     7
170
     0
171
     2
172
     0
173
     0
174
     0
175
     0
176
   256
177
   256
178
     2
  0
DIMSTYLE
  2
AM_ANSI$7
 70
     0
  3

  4
mm
  5

  6

  7

 40
1.0
 41
0.1
 42
0.05
 43
0.5
 44
0.1
 45
0.0
 46
0.0
 47
0.1
 48
0.1
140
0.24
141
0.0
142
0.0
143
25.399999999999999
144
1.0
145
0.0
146
0.71
147
0.06
 71
     0
 72
     0
 73
     1
 74
     1
 75
     0
 76
     0
 77
     0
 78
     7
170
     0
171
     2
172
     0
173
     0
174
     0
175
     0
176
   256
177
   256
178
     2
  0
DIMSTYLE
  2
AM_ANSI$SF
 70
     0
  3

  4
mm
  5

  6

  7

 40
1.0
 41
0.1
 42
0.05
 43
0.5
 44
0.1
 45
0.0
 46
0.0
 47
0.1
 48
0.1
140
0.12
141
0.0
142
0.0
143
25.399999999999999
144
1.0
145
0.0
146
0.71
147
0.06
 71
     0
 72
     0
 73
     1
 74
     1
 75
     1
 76
     1
 77
     0
 78
     7
170
     0
171
     2
172
     0
173
     0
174
     0
175
     0
176
   256
177
   256
178
     2
  0
DIMSTYLE
  2
AM_ANSI$SH
 70
     0
  3

  4
mm
  5

  6
GENAXEH
  7

 40
1.0
 41
0.1
 42
0.05
 43
0.5
 44
0.1
 45
0.0
 46
0.0
 47
0.1
 48
0.1
140
0.12
141
0.0
142
0.0
143
25.399999999999999
144
1.0
145
0.0
146
0.71
147
0.06
 71
     0
 72
     0
 73
     1
 74
     1
 75
     1
 76
     1
 77
     0
 78
     7
170
     0
171
     2
172
     0
173
     1
174
     0
175
     0
176
   256
177
   256
178
     2
  0
DIMSTYLE
  2
AM_ISO
 70
     0
  3

  4
"
  5
OPEN30
  6

  7

 40
1.0
 41
2.5
 42
1.0
 43
10.0
 44
1.0
 45
0.0
 46
0.0
 47
0.1
 48
0.1
140
3.5
141
0.0
142
0.0
143
0.0393701
144
1.0
145
0.0
146
0.71
147
1.5
 71
     0
 72
     0
 73
     0
 74
     0
 75
     0
 76
     0
 77
     1
 78
     8
170
     0
171
     2
172
     1
173
     0
174
     0
175
     0
176
     3
177
     3
178
     2
  0
DIMSTYLE
  2
AM_ISO$3
 70
     0
  3

  4
"
  5
OPEN30
  6

  7

 40
1.0
 41
2.5
 42
1.0
 43
10.0
 44
1.0
 45
0.0
 46
0.0
 47
0.1
 48
0.1
140
3.5
141
0.0
142
0.0
143
0.0393701
144
1.0
145
0.0
146
0.71
147
1.5
 71
     0
 72
     0
 73
     0
 74
     1
 75
     0
 76
     0
 77
     1
 78
     8
170
     0
171
     2
172
     0
173
     0
174
     0
175
     0
176
     3
177
     3
178
     2
  0
DIMSTYLE
  2
AM_ISO$4
 70
     0
  3

  4
"
  5
OPEN30
  6

  7

 40
1.0
 41
2.5
 42
1.0
 43
10.0
 44
1.0
 45
0.0
 46
0.0
 47
0.1
 48
0.1
140
3.5
141
0.0
142
0.0
143
0.0393701
144
1.0
145
0.0
146
0.71
147
1.5
 71
     0
 72
     0
 73
     0
 74
     1
 75
     0
 76
     0
 77
     1
 78
     8
170
     0
171
     2
172
     0
173
     0
174
     0
175
     0
176
     3
177
     3
178
     2
  0
DIMSTYLE
  2
AM_ISO$6
 70
     0
  3

  4
"
  5
OPEN30
  6

  7

 40
1.0
 41
2.5
 42
1.0
 43
10.0
 44
1.0
 45
0.0
 46
0.0
 47
0.1
 48
0.1
140
3.5
141
0.0
142
0.0
143
0.0393701
144
1.0
145
0.0
146
0.71
147
1.5
 71
     0
 72
     0
 73
     0
 74
     0
 75
     0
 76
     0
 77
     0
 78
     8
170
     0
171
     2
172
     1
173
     0
174
     0
175
     0
176
     3
177
     3
178
     2
  0
DIMSTYLE
  2
AM_ISO$7
 70
     0
  3

  4
"
  5
OPEN30
  6

  7

 40
1.0
 41
2.5
 42
1.0
 43
10.0
 44
1.0
 45
0.0
 46
0.0
 47
0.1
 48
0.1
140
5.0
141
0.0
142
0.0
143
0.0393701
144
1.0
145
0.0
146
0.71
147
1.5
 71
     0
 72
     0
 73
     0
 74
     0
 75
     0
 76
     0
 77
     1
 78
     8
170
     0
171
     2
172
     1
173
     0
174
     0
175
     0
176
     3
177
     3
178
     2
  0
DIMSTYLE
  2
AM_ISO$SF
 70
     0
  3

  4
"
  5

  6

  7

 40
1.0
 41
2.5
 42
1.0
 43
10.0
 44
1.0
 45
0.0
 46
0.0
 47
0.1
 48
0.1
140
3.5
141
0.0
142
0.0
143
0.0393701
144
1.0
145
0.0
146
0.71
147
1.5
 71
     0
 72
     0
 73
     0
 74
     0
 75
     1
 76
     1
 77
     1
 78
     8
170
     0
171
     2
172
     1
173
     0
174
     0
175
     0
176
   256
177
   256
178
     2
  0
DIMSTYLE
  2
AM_ISO$SH
 70
     0
  3

  4
"
  5

  6
GENAXEH
  7

 40
1.0
 41
2.5
 42
1.0
 43
10.0
 44
1.0
 45
0.0
 46
0.0
 47
0.1
 48
0.1
140
3.5
141
0.0
142
0.0
143
0.0393701
144
2.0
145
0.0
146
0.71
147
1.5
 71
     0
 72
     0
 73
     0
 74
     0
 75
     1
 76
     1
 77
     1
 78
     8
170
     0
171
     2
172
     1
173
     1
174
     0
175
     0
176
   256
177
   256
178
     2
  0
DIMSTYLE
  2
GEN-ISO
 70
     0
  3

  4
"
  5

  6

  7

 40
1.0
 41
2.5
 42
1.0
 43
10.0
 44
1.0
 45
0.0
 46
0.0
 47
0.1
 48
0.1
140
3.5
141
0.0
142
0.0
143
0.0393701
144
1.0
145
0.0
146
0.71
147
1.5
 71
     0
 72
     0
 73
     0
 74
     0
 75
     0
 76
     0
 77
     1
 78
     8
170
     0
171
     2
172
     1
173
     0
174
     0
175
     0
176
   256
177
   256
178
     2
  0
DIMSTYLE
  2
GEN-ISO$3
 70
     0
  3

  4
"
  5

  6

  7

 40
1.0
 41
2.5
 42
1.0
 43
10.0
 44
1.0
 45
0.0
 46
0.0
 47
0.1
 48
0.1
140
3.5
141
0.0
142
0.0
143
0.0393701
144
1.0
145
0.0
146
0.71
147
1.5
 71
     0
 72
     0
 73
     0
 74
     1
 75
     0
 76
     0
 77
     1
 78
     8
170
     0
171
     2
172
     0
173
     0
174
     0
175
     0
176
   256
177
   256
178
     2
  0
DIMSTYLE
  2
GEN-ISO$4
 70
     0
  3

  4
"
  5

  6

  7

 40
1.0
 41
2.5
 42
1.0
 43
10.0
 44
1.0
 45
0.0
 46
0.0
 47
0.1
 48
0.1
140
3.5
141
0.0
142
0.0
143
0.0393701
144
1.0
145
0.0
146
0.71
147
1.5
 71
     0
 72
     0
 73
     0
 74
     1
 75
     0
 76
     0
 77
     1
 78
     8
170
     0
171
     2
172
     0
173
     0
174
     0
175
     0
176
   256
177
   256
178
     2
  0
DIMSTYLE
  2
GEN-ISO$6
 70
     0
  3

  4
"
  5

  6

  7

 40
1.0
 41
2.5
 42
1.0
 43
10.0
 44
1.0
 45
0.0
 46
0.0
 47
0.1
 48
0.1
140
3.5
141
0.0
142
0.0
143
0.0393701
144
1.0
145
0.0
146
0.71
147
1.5
 71
     0
 72
     0
 73
     0
 74
     0
 75
     0
 76
     0
 77
     0
 78
     8
170
     0
171
     2
172
     0
173
     0
174
     0
175
     0
176
   256
177
   256
178
     2
  0
DIMSTYLE
  2
GEN-ISO-POS
 70
     0
  3

  4
"
  5

  6

  7

 40
1.0
 41
2.5
 42
1.0
 43
10.0
 44
1.0
 45
0.0
 46
0.0
 47
0.1
 48
0.1
140
5.0
141
0.0
142
0.0
143
0.0393701
144
1.0
145
0.0
146
0.71
147
1.5
 71
     0
 72
     0
 73
     0
 74
     0
 75
     0
 76
     0
 77
     0
 78
     8
170
     0
171
     2
172
     0
173
     0
174
     0
175
     0
176
   256
177
   256
178
     2
  0
DIMSTYLE
  2
GEN-ISO-AXE-F
 70
     0
  3

  4
"
  5

  6

  7

 40
1.0
 41
2.5
 42
1.0
 43
10.0
 44
1.0
 45
0.0
 46
0.0
 47
0.1
 48
0.1
140
3.5
141
0.0
142
0.0
143
0.0393701
144
1.0
145
0.0
146
0.71
147
1.5
 71
     0
 72
     0
 73
     0
 74
     0
 75
     1
 76
     1
 77
     1
 78
     8
170
     0
171
     2
172
     1
173
     0
174
     0
175
     0
176
   256
177
   256
178
     2
  0
DIMSTYLE
  2
GEN-ISO-AXE-H
 70
     0
  3

  4
"
  5

  6

  7

 40
1.0
 41
2.5
 42
1.0
 43
10.0
 44
1.0
 45
0.0
 46
0.0
 47
0.1
 48
0.1
140
3.5
141
0.0
142
0.0
143
0.0393701
144
2.0
145
0.0
146
0.71
147
1.5
 71
     0
 72
     0
 73
     0
 74
     0
 75
     1
 76
     1
 77
     1
 78
     8
170
     0
171
     2
172
     1
173
     1
174
     0
175
     0
176
   256
177
   256
178
     2
  0
DIMSTYLE
  2
ISO-35
 70
     0
  3

  4

  5
OPEN30
  6

  7

 40
1.0
 41
3.5
 42
0.875
 43
5.25
 44
1.75
 45
0.0
 46
0.0
 47
0.0
 48
0.0
140
3.5
141
3.5
142
0.0
143
0.0394
144
1.0
145
0.0
146
1.0
147
0.875
 71
     0
 72
     0
 73
     0
 74
     0
 75
     0
 76
     0
 77
     1
 78
     8
170
     0
171
     4
172
     1
173
     0
174
     0
175
     0
176
     0
177
     0
178
     0
  0
DIMSTYLE
  2
ISO-5
 70
     0
  3

  4

  5
OPEN30
  6

  7

 40
1.0
 41
5.0
 42
1.25
 43
7.5
 44
2.5
 45
0.0
 46
0.0
 47
0.0
 48
0.0
140
5.0
141
5.0
142
0.0
143
0.0394
144
1.0
145
0.0
146
1.0
147
1.25
 71
     0
 72
     0
 73
     0
 74
     0
 75
     0
 76
     0
 77
     1
 78
     8
170
     0
171
     4
172
     1
173
     0
174
     0
175
     0
176
     0
177
     0
178
     0
  0
DIMSTYLE
  2
ISO-7
 70
     0
  3

  4

  5
OPEN30
  6

  7

 40
1.0
 41
7.0
 42
1.75
 43
10.5
 44
3.5
 45
0.0
 46
0.0
 47
0.0
 48
0.0
140
7.0
141
7.0
142
0.0
143
0.0394
144
1.0
145
0.0
146
1.0
147
1.75
 71
     0
 72
     0
 73
     0
 74
     0
 75
     0
 76
     0
 77
     1
 78
     8
170
     0
171
     4
172
     1
173
     0
174
     0
175
     0
176
     0
177
     0
178
     0
  0
DIMSTYLE
  2
ISO-4
 70
     0
  3

  4

  5
OPEN30
  6

  7

 40
1.0
 41
14.0
 42
3.5
 43
21.0
 44
7.0
 45
0.0
 46
0.0
 47
0.0
 48
0.0
140
14.0
141
14.0
142
0.0
143
0.0394
144
1.0
145
0.0
146
1.0
147
3.5
 71
     0
 72
     0
 73
     0
 74
     0
 75
     0
 76
     0
 77
     1
 78
     8
170
     0
171
     4
172
     1
173
     0
174
     0
175
     0
176
     0
177
     0
178
     0
  0
DIMSTYLE
  2
AM_ISO$0
 70
     0
  3

  4
"
  5
OPEN30
  6

  7

 40
1.0
 41
2.5
 42
1.0
 43
10.0
 44
1.0
 45
0.0
 46
0.0
 47
0.1
 48
0.1
140
3.5
141
0.0
142
0.0
143
0.0393701
144
1.0
145
0.0
146
0.71
147
1.5
 71
     0
 72
     0
 73
     0
 74
     0
 75
     0
 76
     0
 77
     1
 78
     8
170
     0
171
     2
172
     1
173
     0
174
     0
175
     0
176
     3
177
     3
178
     2
  0
ENDTAB
  0
ENDSEC
  0
SECTION
  2
BLOCKS
  0
BLOCK
  8
0
  2
$MODEL_SPACE
 70
     0
 10
0.0
 20
0.0
 30
0.0
  3
$MODEL_SPACE
  1

  0
ENDBLK
  5
21
  8
0
  0
BLOCK
 67
     1
  8
0
  2
$PAPER_SPACE
 70
     0
 10
0.0
 20
0.0
 30
0.0
  3
$PAPER_SPACE
  1

  0
ENDBLK
  5
25
 67
     1
  8
0
  0
BLOCK
  8
0
  2
GENAXEH
 70
     0
 10
0.0
 20
0.0
 30
0.0
  3
GENAXEH
  1

  0
LINE
  5
92
  8
0
 10
-1.0
 20
0.0
 30
0.0
 11
1.0
 21
0.0
 31
0.0
  0
ENDBLK
  5
94
  8
0
  0
BLOCK
  8
0
  2
_OPEN30
 70
     0
 10
0.0
 20
0.0
 30
0.0
  3
_OPEN30
  1

  0
LINE
  5
1FA
  8
0
  6
BYBLOCK
 62
     0
 10
-1.0
 20
0.26794919
 30
0.0
 11
0.0
 21
0.0
 31
0.0
  0
LINE
  5
1FB
  8
0
  6
BYBLOCK
 62
     0
 10
0.0
 20
0.0
 30
0.0
 11
-1.0
 21
-0.26794919
 31
0.0
  0
LINE
  5
1FC
  8
0
  6
BYBLOCK
 62
     0
 10
0.0
 20
0.0
 30
0.0
 11
-1.0
 21
0.0
 31
0.0
  0
ENDBLK
  5
1FD
  8
0
  0
BLOCK
  8
0
  2
TAKACHI-A3
 70
     0
 10
0.0
 20
0.0
 30
0.0
  3
TAKACHI-A3
  1

  0
POLYLINE
  5
225
  8
0
 66
     1
 10
0.0
 20
0.0
 30
0.0
 70
     1
1001
GENIUS_GENREC_14
1002
{
1000
PYDIR
1011
10.000000000000011
1021
0.0
1031
7.7542625739721449E+228
1021
280.0
1031
0.0
1002
}
1002
{
1000
PXDIR
1011
410.0
1021
0.0
1031
7.7542625739721449E+228
1021
0.0
1031
0.0
1002
}
1002
{
1000
PORI
1011
10.0
1021
0.0
1031
7.7542625739721449E+228
1021
0.0
1031
0.0
1002
}
1002
{
1000
PINS
1011
210.0
1021
0.0
1031
7.7542625739721449E+228
1021
139.99999999999989
1031
0.0
1002
}
1002
{
1000
HVAL
1000
280
1002
}
1002
{
1000
H
1070
     2
1002
}
1002
{
1000
WVAL
1000
400
1002
}
1002
{
1000
W
1070
     2
1002
}
1002
{
1000
C
1070
     4
1002
}
1001
GENIUS_GENODEF_13
1002
{
1000
HIER
1070
     0
1002
}
1002
{
1000
MANEDIT
1070
     0
1002
}
1002
{
1000
NOSEL
1070
     0
1002
}
1002
{
1000
BEHIND
1070
     0
1002
}
1002
{
1000
REACTOR
1002
}
1001
GENIUS_GENOBJ-N-REC_13
1002
{
1000
OWNER
1000
GEN
1002
}
  0
VERTEX
  5
10BE
  8
0
 10
10.0
 20
0.0
 30
0.0
  0
VERTEX
  5
10BF
  8
0
 10
410.0
 20
0.0
 30
0.0
  0
VERTEX
  5
10C0
  8
0
 10
410.0
 20
280.0
 30
0.0
  0
VERTEX
  5
10C1
  8
0
 10
10.00000000000003
 20
280.0
 30
0.0
  0
SEQEND
  5
10C2
  8
0
  0
TEXT
  5
226
  8
0
 10
15.00000000000003
 20
50.0
 30
0.0
 40
2.5
  1
!GENTITLE-LL
  0
TEXT
  5
227
  8
0
 10
410.0
 20
0.0
 30
0.0
 40
2.5
  1
!GENTITLE-INSERT
  0
TEXT
  5
228
  8
0
 10
405.0
 20
275.0
 30
0.0
 40
2.5
  1
!GENTITLE-RU
  0
TEXT
  5
229
  8
0
 10
410.0
 20
280.0
 30
0.0
 40
2.5
  1
!GENTITLE-MAX
  0
LINE
  5
22A
  8
0
 10
366.0
 20
275.0
 30
0.0
 11
410.0
 21
275.0
 31
0.0
  0
INSERT
  5
22B
  8
0
  2
*U29
 10
0.0
 20
0.0
 30
0.0
  0
LINE
  5
22C
  8
0
 10
366.0
 20
280.0
 30
0.0
 11
366.0
 21
275.0
 31
0.0
  0
ENDBLK
  5
22F
  8
0
  0
BLOCK
  8
0
  2
TAKACHI-TITLE
 70
     2
 10
0.0
 20
0.0
 30
0.0
  3
TAKACHI-TITLE
  1

  0
LINE
  5
243
  8
RAHM2
 10
-195.0
 20
30.000000000000028
 30
0.0
 11
-94.0
 21
30.000000000000028
 31
0.0
  0
LINE
  5
244
  8
RAHM2
 10
-195.0
 20
35.000000000000028
 30
0.0
 11
-94.0
 21
35.000000000000028
 31
0.0
  0
LINE
  5
245
  8
RAHM2
 10
-195.0
 20
40.000000000000021
 30
0.0
 11
-94.0
 21
40.000000000000021
 31
0.0
  0
LINE
  5
246
  8
RAHM2
 10
-195.0
 20
45.000000000000021
 30
0.0
 11
-94.0
 21
45.000000000000021
 31
0.0
  0
LINE
  5
247
  8
0
 10
-195.0
 20
7.0
 30
0.0
 11
-94.0
 21
7.0
 31
0.0
  0
LINE
  5
248
  8
0
 10
-195.0
 20
19.999999999999972
 30
0.0
 11
-94.0
 21
19.999999999999972
 31
0.0
  0
ATTDEF
  5
249
  8
0
 10
-183.24385271456069
 20
8.6175171910947483
 30
0.0
 40
2.5
  1

 11
-183.24385271456069
 21
8.6175171910947483
 31
0.0
  3
サブタイトル
  2
GEN-TITLE-DES2
 70
     0
 74
     1
  0
ATTDEF
  5
24A
  8
0
 10
-183.24385271456069
 20
1.6175171910947479
 30
0.0
 40
3.0
  1

 11
-183.24385271456069
 21
1.6175171910947479
 31
0.0
  3
図番
  2
GEN-TITLE-NR
 70
     0
 74
     1
  0
INSERT
  5
24B
  8
0
  2
*U30
 10
0.0
 20
0.0
 30
0.0
  0
ATTDEF
  5
24C
  8
0
 10
-183.24385271456069
 20
13.873952861685011
 30
0.0
 40
4.0
  1

 11
-183.24385271456069
 21
13.873952861685011
 31
0.0
  3
品名
  2
GEN-TITLE-DES1
 70
     0
 74
     1
  0
LINE
  5
24D
  8
RAHM2
 10
-187.57512886940361
 20
30.400000000000041
 30
0.0
 11
-190.0
 21
34.60000000000003
 31
0.0
  0
LINE
  5
24E
  8
RAHM2
 10
-190.0
 20
34.60000000000003
 30
0.0
 11
-192.42487113059639
 21
30.400000000000041
 31
0.0
  0
LINE
  5
24F
  8
RAHM2
 10
-185.0
 20
50.000000000000028
 30
0.0
 11
-185.0
 21
19.99999999999994
 31
0.0
  0
LINE
  5
250
  8
RAHM2
 10
-192.42487113059639
 20
30.400000000000041
 30
0.0
 11
-187.57512886940361
 21
30.400000000000041
 31
0.0
  0
INSERT
  5
251
  8
0
  2
*U31
 10
0.0
 20
0.0
 30
0.0
  0
INSERT
  5
252
  8
0
  2
*U32
 10
0.0
 20
0.0
 30
0.0
  0
LINE
  5
253
  8
RAHM2
 10
-192.42487113059639
 20
45.400000000000027
 30
0.0
 11
-187.57512886940361
 21
45.400000000000027
 31
0.0
  0
LINE
  5
254
  8
RAHM2
 10
-187.57512886940361
 20
45.400000000000027
 30
0.0
 11
-190.0
 21
49.600000000000023
 31
0.0
  0
LINE
  5
255
  8
RAHM2
 10
-192.42487113059639
 20
40.400000000000027
 30
0.0
 11
-187.57512886940361
 21
40.400000000000027
 31
0.0
  0
LINE
  5
256
  8
RAHM2
 10
-187.57512886940361
 20
40.400000000000027
 30
0.0
 11
-190.0
 21
44.600000000000023
 31
0.0
  0
LINE
  5
257
  8
RAHM2
 10
-192.42487113059639
 20
35.400000000000041
 30
0.0
 11
-187.57512886940361
 21
35.400000000000041
 31
0.0
  0
LINE
  5
258
  8
RAHM2
 10
-187.57512886940361
 20
35.400000000000041
 30
0.0
 11
-190.0
 21
39.600000000000023
 31
0.0
  0
LINE
  5
259
  8
RAHM2
 10
-190.0
 20
39.600000000000023
 30
0.0
 11
-192.42487113059639
 21
35.400000000000041
 31
0.0
  0
LINE
  5
25A
  8
RAHM2
 10
-190.0
 20
44.600000000000023
 30
0.0
 11
-192.42487113059639
 21
40.400000000000027
 31
0.0
  0
LINE
  5
25B
  8
RAHM2
 10
-190.0
 20
49.600000000000023
 30
0.0
 11
-192.42487113059639
 21
45.400000000000027
 31
0.0
  0
LINE
  5
25C
  8
RAHM2
 10
-129.0
 20
50.000000000000028
 30
0.0
 11
-129.0
 21
19.99999999999994
 31
0.0
  0
INSERT
  5
25D
  8
0
  2
*U33
 10
0.0
 20
0.0
 30
0.0
  0
LINE
  5
25E
  8
0
 10
-34.0
 20
50.0
 30
0.0
 11
-34.0
 21
0.0
 31
0.0
  0
LINE
  5
25F
  8
0
 10
-94.0
 20
50.0
 30
0.0
 11
-94.0
 21
0.0
 31
0.0
  0
INSERT
  5
260
  8
0
  2
*U34
 10
0.0
 20
0.0
 30
0.0
  0
LINE
  5
261
  8
0
 10
-94.0
 20
10.0
 30
0.0
 11
-34.0
 21
10.0
 31
0.0
  0
ATTDEF
  5
262
  8
0
 10
-58.014051197997453
 20
39.255005561783491
 30
0.0
 40
3.0
  1

 72
     2
 11
-58.014051197997453
 21
39.255005561783491
 31
0.0
  3
尺度
  2
GEN-TITLE-SCA
 70
     0
  0
ATTDEF
  5
263
  8
0
 10
-77.002849666490064
 20
30.621807879434751
 30
0.0
 40
3.0
  1

 11
-77.002849666490064
 21
30.621807879434751
 31
0.0
  3
材質
  2
GEN-TITLE-MAT1
 70
     0
 74
     1
  0
ATTDEF
  5
264
  8
0
 10
-77.002849666490064
 20
20.621807879434751
 30
0.0
 40
3.0
  1

 11
-77.002849666490064
 21
20.621807879434751
 31
0.0
  3
表面処理
  2
GEN-TITLE-MAT2
 70
     0
 74
     1
  0
ATTDEF
  5
265
  8
0
 10
-77.002849666490064
 20
11.61751719109475
 30
0.0
 40
3.0
  1

 11
-77.002849666490064
 21
11.61751719109475
 31
0.0
  3
日付
  2
GEN-TITLE-DAT
 70
     0
 74
     1
  0
LINE
  5
266
  8
0
 10
-94.0
 20
37.5
 30
0.0
 11
-34.0
 21
37.5
 31
0.0
  0
LINE
  5
267
  8
0
 10
-94.0
 20
27.5
 30
0.0
 11
-34.0
 21
27.5
 31
0.0
  0
LINE
  5
268
  8
0
 10
-94.0
 20
17.5
 30
0.0
 11
-34.0
 21
17.5
 31
0.0
  0
LINE
  5
269
  8
RAHM2
 10
-109.0
 20
50.000000000000028
 30
0.0
 11
-109.0
 21
19.99999999999994
 31
0.0
  0
INSERT
  5
26A
  8
0
  2
*U35
 10
0.0
 20
0.0
 30
0.0
  0
INSERT
  5
26B
  8
0
  2
*U36
 10
0.0
 20
0.0
 30
0.0
  0
INSERT
  5
26C
  8
0
  2
*U37
 10
0.0
 20
0.0
 30
0.0
  0
INSERT
  5
26D
  8
0
  2
*U38
 10
0.0
 20
0.0
 30
0.0
  0
INSERT
  5
26E
  8
0
  2
*U39
 10
0.0
 20
0.0
 30
0.0
  0
INSERT
  5
26F
  8
0
  2
*U40
 10
0.0
 20
0.0
 30
0.0
  0
INSERT
  5
270
  8
0
  2
*U41
 10
0.0
 20
0.0
 30
0.0
  0
INSERT
  5
271
  8
0
  2
*U42
 10
0.0
 20
0.0
 30
0.0
  0
LINE
  5
272
  8
7A
 10
-89.0
 20
43.75
 30
0.0
 11
-75.218691599714703
 21
43.75
 31
0.0
1001
GENIUS_GENOREF_13
1005
285
  0
LINE
  5
273
  8
0
 10
-84.0
 20
45.75
 30
0.0
 11
-76.0
 21
46.749999999999993
 31
0.0
  0
LINE
  5
274
  8
0
 10
-76.0
 20
40.75
 30
0.0
 11
-84.0
 21
41.749999999999993
 31
0.0
  0
LINE
  5
275
  8
7A
 10
-89.0
 20
43.75
 30
0.0
 11
-89.0
 21
47.324786644731482
 31
0.0
1001
GENIUS_GENOREF_13
1005
285
  0
CIRCLE
  5
276
  8
0
 10
-89.0
 20
43.75
 30
0.0
 40
2.0
  0
CIRCLE
  5
277
  8
0
 10
-89.0
 20
43.75
 30
0.0
 40
3.0
  0
LINE
  5
278
  8
0
 10
-84.0
 20
41.749999999999993
 30
0.0
 11
-84.0
 21
45.75
 31
0.0
  0
INSERT
  5
279
  8
0
  2
*U43
 10
0.0
 20
0.0
 30
0.0
  0
LINE
  5
27A
  8
7A
 10
-89.0
 20
43.75
 30
0.0
 11
-92.723037371251166
 21
43.75
 31
0.0
1001
GENIUS_GENOREF_13
1005
285
  0
LINE
  5
27B
  8
7A
 10
-89.0
 20
43.75
 30
0.0
 11
-89.0
 21
40.039917242284787
 31
0.0
1001
GENIUS_GENOREF_13
1005
285
  0
LINE
  5
27C
  8
0
 10
-76.0
 20
46.749999999999993
 30
0.0
 11
-76.0
 21
40.75
 31
0.0
  0
LINE
  5
27D
  8
0
 10
-74.0
 20
50.0
 30
0.0
 11
-74.0
 21
37.5
 31
0.0
  0
INSERT
  5
27E
  8
0
  2
*U44
 10
0.0
 20
0.0
 30
0.0
  0
ATTDEF
  5
27F
  8
0
 10
-37.76317379391503
 20
39.255005561783491
 30
0.0
 40
3.0
  1

 72
     2
 11
-37.76317379391503
 21
39.255005561783491
 31
0.0
  3
数量
  2
GEN-TITLE-QTY
 70
     0
  0
LINE
  5
280
  8
0
 10
-34.0
 20
25.0
 30
0.0
 11
0.0
 21
25.0
 31
0.0
  0
LINE
  5
281
  8
0
 10
-54.0
 20
50.0
 30
0.0
 11
-54.0
 21
37.5
 31
0.0
  0
INSERT
  5
282
  8
0
  2
*U45
 10
0.0
 20
0.0
 30
0.0
  0
INSERT
  5
283
  8
0
  2
*U46
 10
0.0
 20
0.0
 30
0.0
  0
INSERT
  5
284
  8
0
  2
*U47
 10
0.0
 20
0.0
 30
0.0
  0
POINT
  5
285
  8
0
 10
-320.5355579819676
 20
-138.11048412682541
 30
0.0
1001
GENIUS_GENODEF_13
1002
{
1000
HIER
1070
    10
1002
}
1002
{
1000
MANEDIT
1070
     0
1002
}
1002
{
1000
NOSEL
1070
     0
1002
}
1002
{
1000
BEHIND
1070
     0
1002
}
1002
{
1000
REACTOR
1002
}
1001
GENIUS_GENOBJ-N-CRS_13
1002
{
1000
OWNER
1000
GEN
1002
}
1001
GENIUS_GENOENT_13
1002
{
1000
MYREF
1005
285
1002
}
1002
{
1000
GRP
1005
0
1002
}
1001
GENIUS_GENOLIS_13
1002
{
1000
ENT
1005
27B
1005
27A
1005
275
1005
272
1002
}
  0
LINE
  5
286
  8
RAHM2
 10
-190.0
 20
29.600000000000019
 30
0.0
 11
-192.42487113059639
 21
25.400000000000041
 31
0.0
  0
LINE
  5
287
  8
RAHM2
 10
-187.57512886940361
 20
25.400000000000041
 30
0.0
 11
-190.0
 21
29.600000000000019
 31
0.0
  0
LINE
  5
288
  8
RAHM2
 10
-192.42487113059639
 20
25.400000000000041
 30
0.0
 11
-187.57512886940361
 21
25.400000000000041
 31
0.0
  0
LINE
  5
289
  8
RAHM2
 10
-195.0
 20
25.000000000000028
 30
0.0
 11
-94.0
 21
25.000000000000028
 31
0.0
  0
INSERT
  5
28A
  8
0
  2
*U48
 10
0.0
 20
0.0
 30
0.0
  0
TEXT
  5
28B
  8
RAHM2
 10
-190.8155863565801
 20
25.650000000000031
 30
0.0
 40
2.5
  1
1
 72
     1
 11
-190.19058635658021
 21
25.650000000000031
 31
0.0
 73
     1
  0
TEXT
  5
28C
  8
RAHM2
 10
-190.9183316929134
 20
30.650000000000031
 30
0.0
 40
2.5
  1
2
 72
     1
 11
-190.0
 21
30.650000000000031
 31
0.0
 73
     1
  0
TEXT
  5
28D
  8
RAHM2
 10
-190.92677669529661
 20
35.650000000000013
 30
0.0
 40
2.5
  1
3
 72
     1
 11
-190.0
 21
35.650000000000013
 31
0.0
 73
     1
  0
TEXT
  5
28E
  8
RAHM2
 10
-191.0
 20
40.650000000000027
 30
0.0
 40
2.5
  1
4
 72
     1
 11
-190.0
 21
40.650000000000027
 31
0.0
 73
     1
  0
TEXT
  5
28F
  8
RAHM2
 10
-190.92677669529661
 20
45.650000000000027
 30
0.0
 40
2.5
  1
5
 72
     1
 11
-190.0
 21
45.650000000000027
 31
0.0
 73
     1
  0
LINE
  5
290
  8
0
 10
-17.0
 20
50.0
 30
0.0
 11
-17.0
 21
0.0
 31
0.0
  0
LINE
  5
291
  8
0
 10
-195.0
 20
0.0
 30
0.0
 11
0.0
 21
0.0
 31
0.0
1001
GENIUS_GENREC_14
1002
{
1000
PYDIR
1011
-184.0
1021
0.0
1031
7.7542625739721449E+228
1021
50.0
1031
0.0
1002
}
1002
{
1000
PXDIR
1011
0.0
1021
0.0
1031
7.7542625739721449E+228
1021
0.0
1031
0.0
1002
}
1002
{
1000
PORI
1011
-184.0
1021
0.0
1031
7.7542625739721449E+228
1021
0.0
1031
0.0
1002
}
1002
{
1000
PINS
1011
-100.5
1021
0.0
1031
7.7542625739721449E+228
1021
25.0
1031
0.0
1002
}
1002
{
1000
HVAL
1000
50
1002
}
1002
{
1000
H
1070
     2
1002
}
1002
{
1000
WVAL
1000
167
1002
}
1002
{
1000
W
1070
     2
1002
}
1002
{
1000
C
1070
     4
1002
}
1001
GENIUS_GENODEF_13
1002
{
1000
HIER
1070
     0
1002
}
1002
{
1000
MANEDIT
1070
     0
1002
}
1002
{
1000
NOSEL
1070
     0
1002
}
1002
{
1000
BEHIND
1070
     0
1002
}
1002
{
1000
REACTOR
1002
}
1001
GENIUS_GENOBJ-N-REC_13
1002
{
1000
OWNER
1000
GEN
1002
}
  0
LINE
  5
292
  8
0
 10
0.0
 20
0.0
 30
0.0
 11
0.0
 21
50.0
 31
0.0
1001
GENIUS_GENREC_14
1002
{
1000
PYDIR
1011
-184.0
1021
0.0
1031
7.7542625739721449E+228
1021
50.0
1031
0.0
1002
}
1002
{
1000
PXDIR
1011
0.0
1021
0.0
1031
7.7542625739721449E+228
1021
0.0
1031
0.0
1002
}
1002
{
1000
PORI
1011
-184.0
1021
0.0
1031
7.7542625739721449E+228
1021
0.0
1031
0.0
1002
}
1002
{
1000
PINS
1011
-100.5
1021
0.0
1031
7.7542625739721449E+228
1021
25.0
1031
0.0
1002
}
1002
{
1000
HVAL
1000
50
1002
}
1002
{
1000
H
1070
     2
1002
}
1002
{
1000
WVAL
1000
167
1002
}
1002
{
1000
W
1070
     2
1002
}
1002
{
1000
C
1070
     4
1002
}
1001
GENIUS_GENODEF_13
1002
{
1000
HIER
1070
     0
1002
}
1002
{
1000
MANEDIT
1070
     0
1002
}
1002
{
1000
NOSEL
1070
     0
1002
}
1002
{
1000
BEHIND
1070
     0
1002
}
1002
{
1000
REACTOR
1002
}
1001
GENIUS_GENOBJ-N-REC_13
1002
{
1000
OWNER
1000
GEN
1002
}
  0
LINE
  5
293
  8
0
 10
0.0
 20
50.0
 30
0.0
 11
-195.0
 21
50.000000000000028
 31
0.0
1001
GENIUS_GENREC_14
1002
{
1000
PYDIR
1011
-184.0
1021
0.0
1031
7.7542625739721449E+228
1021
50.0
1031
0.0
1002
}
1002
{
1000
PXDIR
1011
0.0
1021
0.0
1031
7.7542625739721449E+228
1021
0.0
1031
0.0
1002
}
1002
{
1000
PORI
1011
-184.0
1021
0.0
1031
7.7542625739721449E+228
1021
0.0
1031
0.0
1002
}
1002
{
1000
PINS
1011
-100.5
1021
0.0
1031
7.7542625739721449E+228
1021
25.0
1031
0.0
1002
}
1002
{
1000
HVAL
1000
50
1002
}
1002
{
1000
H
1070
     2
1002
}
1002
{
1000
WVAL
1000
167
1002
}
1002
{
1000
W
1070
     2
1002
}
1002
{
1000
C
1070
     4
1002
}
1001
GENIUS_GENODEF_13
1002
{
1000
HIER
1070
     0
1002
}
1002
{
1000
MANEDIT
1070
     0
1002
}
1002
{
1000
NOSEL
1070
     0
1002
}
1002
{
1000
BEHIND
1070
     0
1002
}
1002
{
1000
REACTOR
1002
}
1001
GENIUS_GENOBJ-N-REC_13
1002
{
1000
OWNER
1000
GEN
1002
}
  0
LINE
  5
294
  8
0
 10
-195.0
 20
50.000000000000028
 30
0.0
 11
-195.0
 21
0.0
 31
0.0
1001
GENIUS_GENREC_14
1002
{
1000
PYDIR
1011
-195.0
1021
0.0
1031
7.7542625739721449E+228
1021
50.0
1031
0.0
1002
}
1002
{
1000
PXDIR
1011
-11.0
1021
0.0
1031
7.7542625739721449E+228
1021
0.0
1031
0.0
1002
}
1002
{
1000
PORI
1011
-195.0
1021
0.0
1031
7.7542625739721449E+228
1021
0.0
1031
0.0
1002
}
1002
{
1000
PINS
1011
-111.5
1021
0.0
1031
7.7542625739721449E+228
1021
25.0
1031
0.0
1002
}
1002
{
1000
HVAL
1000
50
1002
}
1002
{
1000
H
1070
     2
1002
}
1002
{
1000
WVAL
1000
167
1002
}
1002
{
1000
W
1070
     2
1002
}
1002
{
1000
C
1070
     4
1002
}
1001
GENIUS_GENODEF_13
1002
{
1000
HIER
1070
     0
1002
}
1002
{
1000
MANEDIT
1070
     0
1002
}
1002
{
1000
NOSEL
1070
     0
1002
}
1002
{
1000
BEHIND
1070
     0
1002
}
1002
{
1000
REACTOR
1002
}
1001
GENIUS_GENOBJ-N-REC_13
1002
{
1000
OWNER
1000
GEN
1002
}
  0
INSERT
  5
295
  8
0
  2
*U49
 10
0.0
 20
0.0
 30
0.0
  0
INSERT
  5
296
  8
0
  2
*U50
 10
0.0
 20
0.0
 30
0.0
  0
ENDBLK
  5
299
  8
0
  0
BLOCK
  8
0
  2
TAKACHI-A3横
 70
     0
 10
0.0
 20
0.0
 30
0.0
  3
TAKACHI-A3横
  1

  0
TEXT
  5
A93
  8
0
 10
414.00000004212581
 20
291.0
 30
0.0
 40
2.5
  1
!GENTITLE-MAX
  7
TAKACHI1
  0
TEXT
  5
A94
  8
0
 10
6.0000000421258051
 20
6.0
 30
0.0
 40
2.5
  1
!GENTITLE-LL
  7
TAKACHI1
  0
TEXT
  5
A95
  8
0
 10
414.00000004212581
 20
6.0
 30
0.0
 40
2.5
  1
!GENTITLE-INSERT
  7
TAKACHI1
  0
LINE
  5
A97
  8
0
 10
370.00000004212581
 20
291.0
 30
0.0
 11
370.00000004212581
 21
286.0
 31
0.0
  0
TEXT
  8
0
  40
2.5
  5
121C
  72
0
  71
0
 10
413.359
 20
283.859
 30
0.000000
  1
(文書番号：TY-34)2004.10.29
  0
LINE
  5
A99
  8
0
 10
370.00000004212581
 20
286.0
 30
0.0
 11
414.00000004212581
 21
286.0
 31
0.0
  0
ENDBLK
  5
A9C
  8
0
  0
BLOCK
  8
0
  2
TK-TITLE-A3横-A4縦
 70
     2
 10
0.0
 20
0.0
 30
0.0
  3
TK-TITLE-A3横-A4縦
  1

  0
ATTDEF
  5
AA6
  8
0
 10
-186.0
 20
13.15
 30
0.0
 40
4.0
  1

  3
品名
  2
GEN-TITLE-DES1
 70
     0
  0
ATTDEF
  5
AA7
  8
0
 10
-186.0
 20
9.1500000000000004
 30
0.0
 40
2.5
  1

  3
サブタイトル
  2
GEN-TITLE-DES2
 70
     0
  0
ATTDEF
  5
AA8
  8
0
 10
-186.0
 20
2.0
 30
0.0
 40
3.0
  1

  3
図番
  2
GEN-TITLE-NR
 70
     0
  0
ATTDEF
  5
AA9
  8
0
 10
-64.0
 20
12.15
 30
0.0
 40
3.0
  1

 72
     1
 11
-64.0
 21
12.15
 31
0.0
  3
日付
  2
GEN-TITLE-DAT
 70
     0
 74
     1
  0
ATTDEF
  5
AAA
  8
0
 10
-76.944630854439694
 20
30.800000000000001
 30
0.0
 40
3.0
  1

  3
材質
  2
GEN-TITLE-MAT1
 70
     0
  0
ATTDEF
  5
AAB
  8
0
 10
-76.944630854439694
 20
20.800000000000001
 30
0.0
 40
3.0
  1

  3
表面処理
  2
GEN-TITLE-MAT2
 70
     0
  0
ATTDEF
  5
AAC
  8
0
 10
-58.0
 20
40.799999999999997
 30
0.0
 40
3.0
  1

 72
     2
 11
-58.0
 21
40.799999999999997
 31
0.0
  3
尺度
  2
GEN-TITLE-SCA
 70
     0
 74
     1
  0
ATTDEF
  5
AAD
  8
0
 10
-38.0
 20
40.799999999999997
 30
0.0
 40
3.0
  1

 72
     2
 11
-38.0
 21
40.799999999999997
 31
0.0
  3
数量
  2
GEN-TITLE-QTY
 70
     0
 74
     1
  0
INSERT
  5
AAE
  8
0
  2
*U51
 10
0.0
 20
0.0
 30
0.0
  0
INSERT
  5
AAF
  8
0
  2
*U52
 10
0.0
 20
0.0
 30
0.0
  0
LINE
  5
AB0
  8
0
 10
-198.0
 20
50.000000000000057
 30
0.0
 11
-198.0
 21
0.0000000000000284
 31
0.0
1001
GENIUS_GENREC_14
1002
{
1000
PYDIR
1011
-198.0
1021
0.0
1031
7.7542625739721449E+228
1021
50.000000000000028
1031
0.0
1002
}
1002
{
1000
PXDIR
1011
-14.0
1021
0.0
1031
7.7542625739721449E+228
1021
0.0000000000000284
1031
0.0
1002
}
1002
{
1000
PORI
1011
-198.0
1021
0.0
1031
7.7542625739721449E+228
1021
0.0000000000000284
1031
0.0
1002
}
1002
{
1000
PINS
1011
-114.5
1021
0.0
1031
7.7542625739721449E+228
1021
25.000000000000028
1031
0.0
1002
}
1002
{
1000
HVAL
1000
50
1002
}
1002
{
1000
H
1070
     2
1002
}
1002
{
1000
WVAL
1000
167
1002
}
1002
{
1000
W
1070
     2
1002
}
1002
{
1000
C
1070
     4
1002
}
1001
GENIUS_GENODEF_13
1002
{
1000
HIER
1070
     0
1002
}
1002
{
1000
MANEDIT
1070
     0
1002
}
1002
{
1000
NOSEL
1070
     0
1002
}
1002
{
1000
BEHIND
1070
     0
1002
}
1002
{
1000
REACTOR
1002
}
1001
GENIUS_GENOBJ-N-REC_13
1002
{
1000
OWNER
1000
GEN
1002
}
  0
LINE
  5
AB1
  8
0
 10
0.0
 20
50.0
 30
0.0
 11
-198.0
 21
50.000000000000028
 31
0.0
1001
GENIUS_GENREC_14
1002
{
1000
PYDIR
1011
-184.0
1021
0.0
1031
7.7542625739721449E+228
1021
50.0
1031
0.0
1002
}
1002
{
1000
PXDIR
1011
0.0
1021
0.0
1031
7.7542625739721449E+228
1021
0.0
1031
0.0
1002
}
1002
{
1000
PORI
1011
-184.0
1021
0.0
1031
7.7542625739721449E+228
1021
0.0
1031
0.0
1002
}
1002
{
1000
PINS
1011
-100.5
1021
0.0
1031
7.7542625739721449E+228
1021
25.0
1031
0.0
1002
}
1002
{
1000
HVAL
1000
50
1002
}
1002
{
1000
H
1070
     2
1002
}
1002
{
1000
WVAL
1000
167
1002
}
1002
{
1000
W
1070
     2
1002
}
1002
{
1000
C
1070
     4
1002
}
1001
GENIUS_GENODEF_13
1002
{
1000
HIER
1070
     0
1002
}
1002
{
1000
MANEDIT
1070
     0
1002
}
1002
{
1000
NOSEL
1070
     0
1002
}
1002
{
1000
BEHIND
1070
     0
1002
}
1002
{
1000
REACTOR
1002
}
1001
GENIUS_GENOBJ-N-REC_13
1002
{
1000
OWNER
1000
GEN
1002
}
  0
LINE
  5
AB2
  8
0
 10
0.0
 20
0.0
 30
0.0
 11
0.0
 21
50.0
 31
0.0
1001
GENIUS_GENREC_14
1002
{
1000
PYDIR
1011
-184.0
1021
0.0
1031
7.7542625739721449E+228
1021
50.0
1031
0.0
1002
}
1002
{
1000
PXDIR
1011
0.0
1021
0.0
1031
7.7542625739721449E+228
1021
0.0
1031
0.0
1002
}
1002
{
1000
PORI
1011
-184.0
1021
0.0
1031
7.7542625739721449E+228
1021
0.0
1031
0.0
1002
}
1002
{
1000
PINS
1011
-100.5
1021
0.0
1031
7.7542625739721449E+228
1021
25.0
1031
0.0
1002
}
1002
{
1000
HVAL
1000
50
1002
}
1002
{
1000
H
1070
     2
1002
}
1002
{
1000
WVAL
1000
167
1002
}
1002
{
1000
W
1070
     2
1002
}
1002
{
1000
C
1070
     4
1002
}
1001
GENIUS_GENODEF_13
1002
{
1000
HIER
1070
     0
1002
}
1002
{
1000
MANEDIT
1070
     0
1002
}
1002
{
1000
NOSEL
1070
     0
1002
}
1002
{
1000
BEHIND
1070
     0
1002
}
1002
{
1000
REACTOR
1002
}
1001
GENIUS_GENOBJ-N-REC_13
1002
{
1000
OWNER
1000
GEN
1002
}
  0
LINE
  5
AB3
  8
0
 10
-198.0
 20
0.0
 30
0.0
 11
0.0
 21
0.0
 31
0.0
1001
GENIUS_GENREC_14
1002
{
1000
PYDIR
1011
-184.0
1021
0.0
1031
7.7542625739721449E+228
1021
50.0
1031
0.0
1002
}
1002
{
1000
PXDIR
1011
0.0
1021
0.0
1031
7.7542625739721449E+228
1021
0.0
1031
0.0
1002
}
1002
{
1000
PORI
1011
-184.0
1021
0.0
1031
7.7542625739721449E+228
1021
0.0
1031
0.0
1002
}
1002
{
1000
PINS
1011
-100.5
1021
0.0
1031
7.7542625739721449E+228
1021
25.0
1031
0.0
1002
}
1002
{
1000
HVAL
1000
50
1002
}
1002
{
1000
H
1070
     2
1002
}
1002
{
1000
WVAL
1000
167
1002
}
1002
{
1000
W
1070
     2
1002
}
1002
{
1000
C
1070
     4
1002
}
1001
GENIUS_GENODEF_13
1002
{
1000
HIER
1070
     0
1002
}
1002
{
1000
MANEDIT
1070
     0
1002
}
1002
{
1000
NOSEL
1070
     0
1002
}
1002
{
1000
BEHIND
1070
     0
1002
}
1002
{
1000
REACTOR
1002
}
1001
GENIUS_GENOBJ-N-REC_13
1002
{
1000
OWNER
1000
GEN
1002
}
  0
LINE
  5
AB4
  8
0
 10
-17.0
 20
50.0
 30
0.0
 11
-17.0
 21
0.0
 31
0.0
  0
TEXT
  5
AB5
  8
RAHM2
 10
-193.92677669529661
 20
45.650000000000063
 30
0.0
 40
2.5
  1
5
 72
     1
 11
-193.0
 21
45.650000000000063
 31
0.0
 73
     1
  0
TEXT
  5
AB6
  8
RAHM2
 10
-194.0
 20
40.650000000000063
 30
0.0
 40
2.5
  1
4
 72
     1
 11
-193.0
 21
40.650000000000063
 31
0.0
 73
     1
  0
TEXT
  5
AB7
  8
RAHM2
 10
-193.92677669529661
 20
35.650000000000027
 30
0.0
 40
2.5
  1
3
 72
     1
 11
-193.0
 21
35.650000000000027
 31
0.0
 73
     1
  0
TEXT
  5
AB8
  8
RAHM2
 10
-193.9183316929134
 20
30.65000000000007
 30
0.0
 40
2.5
  1
2
 72
     1
 11
-193.0
 21
30.65000000000007
 31
0.0
 73
     1
  0
TEXT
  5
AB9
  8
RAHM2
 10
-193.81558635658021
 20
25.65000000000007
 30
0.0
 40
2.5
  1
1
 72
     1
 11
-193.19058635658021
 21
25.65000000000007
 31
0.0
 73
     1
  0
INSERT
  5
ABA
  8
0
  2
*U53
 10
0.0
 20
0.0
 30
0.0
  0
LINE
  5
ABB
  8
RAHM2
 10
-198.0
 20
25.000000000000028
 30
0.0
 11
-94.0
 21
25.000000000000028
 31
0.0
  0
LINE
  5
ABC
  8
RAHM2
 10
-195.42487113059639
 20
25.400000000000059
 30
0.0
 11
-190.57512886940361
 21
25.400000000000059
 31
0.0
  0
LINE
  5
ABD
  8
RAHM2
 10
-190.57512886940361
 20
25.400000000000059
 30
0.0
 11
-193.0
 21
29.600000000000051
 31
0.0
  0
LINE
  5
ABE
  8
RAHM2
 10
-193.0
 20
29.600000000000051
 30
0.0
 11
-195.42487113059639
 21
25.400000000000059
 31
0.0
  0
INSERT
  5
ABF
  8
0
  2
*U54
 10
0.0
 20
0.0
 30
0.0
  0
INSERT
  5
AC0
  8
0
  2
*U55
 10
0.0
 20
0.0
 30
0.0
  0
INSERT
  5
AC1
  8
0
  2
*U56
 10
0.0
 20
0.0
 30
0.0
  0
LINE
  5
AC2
  8
0
 10
-54.0
 20
50.0
 30
0.0
 11
-54.0
 21
37.5
 31
0.0
  0
LINE
  5
AC3
  8
0
 10
-34.0
 20
25.0
 30
0.0
 11
0.0
 21
25.0
 31
0.0
  0
INSERT
  5
AC4
  8
0
  2
*U57
 10
0.0
 20
0.0
 30
0.0
  0
LINE
  5
AC5
  8
0
 10
-74.0
 20
50.0
 30
0.0
 11
-74.0
 21
37.5
 31
0.0
  0
LINE
  5
AC6
  8
0
 10
-76.0
 20
46.749999999999993
 30
0.0
 11
-76.0
 21
40.75
 31
0.0
  0
LINE
  5
AC7
  8
7A
 10
-89.0
 20
43.75
 30
0.0
 11
-89.0
 21
40.039917242284787
 31
0.0
1001
GENIUS_GENOREF_13
1005
AF9
  0
LINE
  5
AC8
  8
7A
 10
-89.0
 20
43.75
 30
0.0
 11
-92.723037371251166
 21
43.75
 31
0.0
1001
GENIUS_GENOREF_13
1005
AF9
  0
INSERT
  5
AC9
  8
0
  2
*U58
 10
0.0
 20
0.0
 30
0.0
  0
LINE
  5
ACA
  8
0
 10
-84.0
 20
41.749999999999993
 30
0.0
 11
-84.0
 21
45.75
 31
0.0
  0
CIRCLE
  5
ACB
  8
0
 10
-89.0
 20
43.75
 30
0.0
 40
3.0
  0
CIRCLE
  5
ACC
  8
0
 10
-89.0
 20
43.75
 30
0.0
 40
2.0
  0
LINE
  5
ACD
  8
7A
 10
-89.0
 20
43.75
 30
0.0
 11
-89.0
 21
47.324786644731482
 31
0.0
1001
GENIUS_GENOREF_13
1005
AF9
  0
LINE
  5
ACE
  8
0
 10
-76.0
 20
40.75
 30
0.0
 11
-84.0
 21
41.749999999999993
 31
0.0
  0
LINE
  5
ACF
  8
0
 10
-84.0
 20
45.75
 30
0.0
 11
-76.0
 21
46.749999999999993
 31
0.0
  0
LINE
  5
AD0
  8
7A
 10
-89.0
 20
43.75
 30
0.0
 11
-75.218691599714703
 21
43.75
 31
0.0
1001
GENIUS_GENOREF_13
1005
AF9
  0
INSERT
  5
AD1
  8
0
  2
*U59
 10
0.0
 20
0.0
 30
0.0
  0
INSERT
  5
AD2
  8
0
  2
*U60
 10
0.0
 20
0.0
 30
0.0
  0
INSERT
  5
AD3
  8
0
  2
*U61
 10
0.0
 20
0.0
 30
0.0
  0
INSERT
  5
AD4
  8
0
  2
*U62
 10
0.0
 20
0.0
 30
0.0
  0
INSERT
  5
AD5
  8
0
  2
*U63
 10
0.0
 20
0.0
 30
0.0
  0
INSERT
  5
AD6
  8
0
  2
*U64
 10
0.0
 20
0.0
 30
0.0
  0
INSERT
  5
AD7
  8
0
  2
*U65
 10
0.0
 20
0.0
 30
0.0
  0
INSERT
  5
AD8
  8
0
  2
*U66
 10
0.0
 20
0.0
 30
0.0
  0
LINE
  5
AD9
  8
RAHM2
 10
-109.0
 20
50.000000000000028
 30
0.0
 11
-109.0
 21
19.99999999999994
 31
0.0
  0
LINE
  5
ADA
  8
0
 10
-94.0
 20
17.5
 30
0.0
 11
-34.0
 21
17.5
 31
0.0
  0
LINE
  5
ADB
  8
0
 10
-94.0
 20
27.5
 30
0.0
 11
-34.0
 21
27.5
 31
0.0
  0
LINE
  5
ADC
  8
0
 10
-94.0
 20
37.5
 30
0.0
 11
-34.0
 21
37.5
 31
0.0
  0
LINE
  5
ADD
  8
0
 10
-94.0
 20
10.0
 30
0.0
 11
-34.0
 21
10.0
 31
0.0
  0
INSERT
  5
ADE
  8
0
  2
*U67
 10
0.0
 20
0.0
 30
0.0
  0
LINE
  5
ADF
  8
0
 10
-94.0
 20
50.0
 30
0.0
 11
-94.0
 21
0.0
 31
0.0
  0
LINE
  5
AE0
  8
0
 10
-34.0
 20
50.0
 30
0.0
 11
-34.0
 21
0.0
 31
0.0
  0
INSERT
  5
AE1
  8
0
  2
*U68
 10
0.0
 20
0.0
 30
0.0
  0
LINE
  5
AE2
  8
RAHM2
 10
-129.0
 20
50.000000000000028
 30
0.0
 11
-129.0
 21
19.99999999999994
 31
0.0
  0
LINE
  5
AE3
  8
RAHM2
 10
-193.0
 20
49.600000000000051
 30
0.0
 11
-195.42487113059639
 21
45.400000000000063
 31
0.0
  0
LINE
  5
AE4
  8
RAHM2
 10
-193.0
 20
44.600000000000051
 30
0.0
 11
-195.42487113059639
 21
40.400000000000063
 31
0.0
  0
LINE
  5
AE5
  8
RAHM2
 10
-193.0
 20
39.600000000000051
 30
0.0
 11
-195.42487113059639
 21
35.400000000000063
 31
0.0
  0
LINE
  5
AE6
  8
RAHM2
 10
-190.57512886940361
 20
35.400000000000063
 30
0.0
 11
-193.0
 21
39.600000000000051
 31
0.0
  0
LINE
  5
AE7
  8
RAHM2
 10
-195.42487113059639
 20
35.400000000000063
 30
0.0
 11
-190.57512886940361
 21
35.400000000000063
 31
0.0
  0
LINE
  5
AE8
  8
RAHM2
 10
-190.57512886940361
 20
40.400000000000063
 30
0.0
 11
-193.0
 21
44.600000000000051
 31
0.0
  0
LINE
  5
AE9
  8
RAHM2
 10
-195.42487113059639
 20
40.400000000000063
 30
0.0
 11
-190.57512886940361
 21
40.400000000000063
 31
0.0
  0
LINE
  5
AEA
  8
RAHM2
 10
-190.57512886940361
 20
45.400000000000063
 30
0.0
 11
-193.0
 21
49.600000000000051
 31
0.0
  0
LINE
  5
AEB
  8
RAHM2
 10
-195.42487113059639
 20
45.400000000000063
 30
0.0
 11
-190.57512886940361
 21
45.400000000000063
 31
0.0
  0
INSERT
  5
AEC
  8
0
  2
*U69
 10
0.0
 20
0.0
 30
0.0
  0
INSERT
  5
AED
  8
0
  2
*U70
 10
0.0
 20
0.0
 30
0.0
  0
LINE
  5
AEE
  8
RAHM2
 10
-195.42487113059639
 20
30.400000000000059
 30
0.0
 11
-190.57512886940361
 21
30.400000000000059
 31
0.0
  0
LINE
  5
AEF
  8
RAHM2
 10
-188.0
 20
50.000000000000057
 30
0.0
 11
-188.0
 21
19.999999999999972
 31
0.0
  0
LINE
  5
AF0
  8
RAHM2
 10
-193.0
 20
34.600000000000051
 30
0.0
 11
-195.42487113059639
 21
30.400000000000059
 31
0.0
  0
LINE
  5
AF1
  8
RAHM2
 10
-190.57512886940361
 20
30.400000000000059
 30
0.0
 11
-193.0
 21
34.600000000000051
 31
0.0
  0
INSERT
  5
AF2
  8
0
  2
*U71
 10
0.0
 20
0.0
 30
0.0
  0
LINE
  5
AF3
  8
0
 10
-198.0
 20
19.999999999999972
 30
0.0
 11
-94.0
 21
19.999999999999972
 31
0.0
  0
LINE
  5
AF4
  8
0
 10
-198.0
 20
7.0000000000000009
 30
0.0
 11
-94.0
 21
7.0
 31
0.0
  0
LINE
  5
AF5
  8
RAHM2
 10
-198.0
 20
45.000000000000028
 30
0.0
 11
-94.0
 21
45.000000000000021
 31
0.0
  0
LINE
  5
AF6
  8
RAHM2
 10
-198.0
 20
40.000000000000021
 30
0.0
 11
-94.0
 21
40.000000000000021
 31
0.0
  0
LINE
  5
AF7
  8
RAHM2
 10
-198.0
 20
35.000000000000028
 30
0.0
 11
-94.0
 21
35.000000000000028
 31
0.0
  0
LINE
  5
AF8
  8
RAHM2
 10
-198.0
 20
30.000000000000028
 30
0.0
 11
-94.0
 21
30.000000000000028
 31
0.0
  0
POINT
  5
AF9
  8
0
 10
-320.5355579819676
 20
-138.11048412682541
 30
0.0
1001
GENIUS_GENODEF_13
1002
{
1000
HIER
1070
    10
1002
}
1002
{
1000
MANEDIT
1070
     0
1002
}
1002
{
1000
NOSEL
1070
     0
1002
}
1002
{
1000
BEHIND
1070
     0
1002
}
1002
{
1000
REACTOR
1002
}
1001
GENIUS_GENOBJ-N-CRS_13
1002
{
1000
OWNER
1000
GEN
1002
}
1001
GENIUS_GENOENT_13
1002
{
1000
MYREF
1005
AF9
1002
}
1002
{
1000
GRP
1005
0
1002
}
1001
GENIUS_GENOLIS_13
1002
{
1000
ENT
1005
AC7
1005
AC8
1005
ACD
1005
AD0
1002
}
  0
ENDBLK
  5
AFC
  8
0
  0
BLOCK
  8
0
  2
*D8
 70
     1
 10
0.0
 20
0.0
 30
0.0
  3
*D8
  1

  0
LINE
  5
BCD
  8
AM_5
 62
     3
 10
102.2326865103516
 20
325.6009756408655
 30
0.0
 11
102.2326865103516
 21
343.6009766408655
 31
0.0
  0
LINE
  5
BCE
  8
AM_5
 62
     3
 10
302.23268651035158
 20
325.6009756408655
 30
0.0
 11
302.23268651035158
 21
343.6009766408655
 31
0.0
  0
LINE
  5
BCF
  8
AM_5
 62
     3
 10
105.9826865103516
 20
342.1009766408655
 30
0.0
 11
298.48268651035158
 21
342.1009766408655
 31
0.0
  0
INSERT
  5
BD0
  8
AM_5
 62
     3
  2
_OPEN30
 10
102.2326865103516
 20
342.1009766408655
 30
0.0
 41
3.75
 42
3.75
 43
3.75
 50
180.0
  0
INSERT
  5
BD1
  8
AM_5
 62
     3
  2
_OPEN30
 10
302.23268651035158
 20
342.1009766408655
 30
0.0
 41
3.75
 42
3.75
 43
3.75
  0
INSERT
  5
BD2
  8
0
  2
*U72
 10
0.0
 20
0.0
 30
0.0
  0
POINT
  5
BD3
  8
DEFPOINTS
 62
     0
 10
102.2326865103516
 20
324.1009756408655
 30
0.0
  0
POINT
  5
BD4
  8
DEFPOINTS
 62
     0
 10
302.23268651035158
 20
324.1009756408655
 30
0.0
  0
POINT
  5
BD5
  8
DEFPOINTS
 62
     0
 10
302.23268651035158
 20
342.1009766408655
 30
0.0
  0
ENDBLK
  5
C88
  8
0
  0
BLOCK
  8
0
  2
*D9
 70
     1
 10
0.0
 20
0.0
 30
0.0
  3
*D9
  1

  0
LINE
  5
BEF
  8
AM_5
 62
     3
 10
100.7326865103516
 20
324.1009756408655
 30
0.0
 11
82.732685500351593
 21
324.1009756408655
 31
0.0
  0
LINE
  5
BF0
  8
AM_5
 62
     3
 10
104.7326865103516
 20
294.1009756408655
 30
0.0
 11
82.732685500351593
 21
294.1009756408655
 31
0.0
  0
LINE
  5
BF1
  8
AM_5
 62
     3
 10
84.232685500351593
 20
320.3509756408655
 30
0.0
 11
84.232685500351593
 21
297.8509756408655
 31
0.0
  0
INSERT
  5
BF2
  8
AM_5
 62
     3
  2
_OPEN30
 10
84.232685500351593
 20
324.1009756408655
 30
0.0
 41
3.75
 42
3.75
 43
3.75
 50
90.0
  0
INSERT
  5
BF3
  8
AM_5
 62
     3
  2
_OPEN30
 10
84.232685500351593
 20
294.1009756408655
 30
0.0
 41
3.75
 42
3.75
 43
3.75
 50
270.0
  0
INSERT
  5
BF4
  8
0
  2
*U73
 10
0.0
 20
0.0
 30
0.0
  0
POINT
  5
BF5
  8
DEFPOINTS
 62
     0
 10
102.2326865103516
 20
324.1009756408655
 30
0.0
  0
POINT
  5
BF6
  8
DEFPOINTS
 62
     0
 10
106.2326865103516
 20
294.1009756408655
 30
0.0
  0
POINT
  5
BF7
  8
DEFPOINTS
 62
     0
 10
84.232685500351593
 20
294.1009756408655
 30
0.0
  0
ENDBLK
  5
C8A
  8
0
  0
BLOCK
  8
0
  2
*D10
 70
     1
 10
0.0
 20
0.0
 30
0.0
  3
*D10
  1

  0
LINE
  5
C11
  8
AM_5
 62
     3
 10
104.7326865103516
 20
149.1009756408655
 30
0.0
 11
86.732686510351598
 21
149.1009756408655
 31
0.0
  0
LINE
  5
C12
  8
AM_5
 62
     3
 10
104.7326865103516
 20
134.1009756408655
 30
0.0
 11
86.732686510351598
 21
134.1009756408655
 31
0.0
  0
LINE
  5
C13
  8
AM_5
 62
     3
 10
88.232686510351598
 20
145.3509756408655
 30
0.0
 11
88.232686510351598
 21
137.8509756408655
 31
0.0
  0
INSERT
  5
C14
  8
AM_5
 62
     3
  2
_OPEN30
 10
88.232686510351598
 20
149.1009756408655
 30
0.0
 41
3.75
 42
3.75
 43
3.75
 50
90.0
  0
INSERT
  5
C15
  8
AM_5
 62
     3
  2
_OPEN30
 10
88.232686510351598
 20
134.1009756408655
 30
0.0
 41
3.75
 42
3.75
 43
3.75
 50
270.0
  0
INSERT
  5
C16
  8
0
  2
*U74
 10
0.0
 20
0.0
 30
0.0
  0
POINT
  5
C17
  8
DEFPOINTS
 62
     0
 10
106.2326865103516
 20
149.1009756408655
 30
0.0
  0
POINT
  5
C18
  8
DEFPOINTS
 62
     0
 10
106.2326865103516
 20
134.1009756408655
 30
0.0
  0
POINT
  5
C19
  8
DEFPOINTS
 62
     0
 10
88.232686510351598
 20
134.1009756408655
 30
0.0
  0
ENDBLK
  5
C8C
  8
0
  0
BLOCK
  8
0
  2
*D11
 70
     1
 10
0.0
 20
0.0
 30
0.0
  3
*D11
  1

  0
LINE
  5
C33
  8
AM_5
 62
     3
 10
102.2326865103516
 20
136.6009756408655
 30
0.0
 11
102.2326865103516
 21
118.6009756408654
 31
0.0
  0
LINE
  5
C34
  8
AM_5
 62
     3
 10
302.23268651035158
 20
136.6009756408655
 30
0.0
 11
302.23268651035158
 21
118.6009756408654
 31
0.0
  0
LINE
  5
C35
  8
AM_5
 62
     3
 10
105.9826865103516
 20
120.1009756408654
 30
0.0
 11
298.48268651035158
 21
120.1009756408654
 31
0.0
  0
INSERT
  5
C36
  8
AM_5
 62
     3
  2
_OPEN30
 10
102.2326865103516
 20
120.1009756408654
 30
0.0
 41
3.75
 42
3.75
 43
3.75
 50
180.0
  0
INSERT
  5
C37
  8
AM_5
 62
     3
  2
_OPEN30
 10
302.23268651035158
 20
120.1009756408654
 30
0.0
 41
3.75
 42
3.75
 43
3.75
  0
INSERT
  5
C38
  8
0
  2
*U75
 10
0.0
 20
0.0
 30
0.0
  0
POINT
  5
C39
  8
DEFPOINTS
 62
     0
 10
102.2326865103516
 20
138.1009756408655
 30
0.0
  0
POINT
  5
C3A
  8
DEFPOINTS
 62
     0
 10
302.23268651035158
 20
138.1009756408655
 30
0.0
  0
POINT
  5
C3B
  8
DEFPOINTS
 62
     0
 10
302.23268651035158
 20
120.1009756408654
 30
0.0
  0
ENDBLK
  5
C8E
  8
0
  0
BLOCK
  8
0
  2
*D12
 70
     1
 10
0.0
 20
0.0
 30
0.0
  3
*D12
  1

  0
LINE
  5
EB9
  8
AM_5
 62
     3
 10
383.14752475371938
 20
132.6009756408655
 30
0.0
 11
383.14752475371938
 21
118.6009756408652
 31
0.0
  0
LINE
  5
EBA
  8
AM_5
 62
     3
 10
386.14752475371938
 20
132.6009756408655
 30
0.0
 11
386.14752475371938
 21
118.6009756408652
 31
0.0
  0
LINE
  5
EBB
  8
AM_5
 62
     3
 10
379.39752475371938
 20
120.1009756408653
 30
0.0
 11
375.64752475371938
 21
120.1009756408653
 31
0.0
  0
LINE
  5
EBC
  8
AM_5
 62
     3
 10
389.89752475371938
 20
120.1009756408653
 30
0.0
 11
400.46498687396519
 21
120.1009756408653
 31
0.0
  0
LINE
  5
EBD
  8
AM_5
 62
     3
 10
383.14752475371938
 20
120.1009756408653
 30
0.0
 11
386.14752475371938
 21
120.1009756408653
 31
0.0
  0
INSERT
  5
EBE
  8
AM_5
 62
     3
  2
_OPEN30
 10
383.14752475371938
 20
120.1009756408653
 30
0.0
 41
3.75
 42
3.75
 43
3.75
  0
INSERT
  5
EBF
  8
AM_5
 62
     3
  2
_OPEN30
 10
386.14752475371938
 20
120.1009756408653
 30
0.0
 41
3.75
 42
3.75
 43
3.75
 50
180.0
  0
INSERT
  5
EC0
  8
0
  2
*U80
 10
0.0
 20
0.0
 30
0.0
  0
POINT
  5
EC1
  8
DEFPOINTS
 62
     0
 10
383.14752475371938
 20
134.1009756408655
 30
0.0
  0
POINT
  5
EC2
  8
DEFPOINTS
 62
     0
 10
386.14752475371938
 20
134.1009756408655
 30
0.0
  0
POINT
  5
EC3
  8
DEFPOINTS
 62
     0
 10
386.14752475371938
 20
120.1009756408653
 30
0.0
  0
ENDBLK
  5
C90
  8
0
  0
BLOCK
  8
0
  2
*D13
 70
     1
 10
0.0
 20
0.0
 30
0.0
  3
*D13
  1

  0
LINE
  5
FC1
  8
AM_5
 62
     3
 10
383.14752475371938
 20
322.6009756408655
 30
0.0
 11
383.14752475371938
 21
343.6009766408655
 31
0.0
  0
LINE
  5
FC2
  8
AM_5
 62
     3
 10
498.14752475371932
 20
315.6009756408655
 30
0.0
 11
498.14752475371932
 21
343.6009766408655
 31
0.0
  0
LINE
  5
FC3
  8
AM_5
 62
     3
 10
386.89752475371938
 20
342.10097664086538
 30
0.0
 11
494.39752475371938
 21
342.10097664086538
 31
0.0
  0
INSERT
  5
FC4
  8
AM_5
 62
     3
  2
_OPEN30
 10
383.14752475371938
 20
342.10097664086538
 30
0.0
 41
3.75
 42
3.75
 43
3.75
 50
180.0
  0
INSERT
  5
FC5
  8
AM_5
 62
     3
  2
_OPEN30
 10
498.14752475371932
 20
342.10097664086538
 30
0.0
 41
3.75
 42
3.75
 43
3.75
  0
INSERT
  5
FC6
  8
0
  2
*U85
 10
0.0
 20
0.0
 30
0.0
  0
POINT
  5
FC7
  8
DEFPOINTS
 62
     0
 10
383.14752475371938
 20
321.1009756408655
 30
0.0
  0
POINT
  5
FC8
  8
DEFPOINTS
 62
     0
 10
498.14752475371932
 20
314.1009756408655
 30
0.0
  0
POINT
  5
FC9
  8
DEFPOINTS
 62
     0
 10
498.14752475371932
 20
342.10097664086538
 30
0.0
  0
ENDBLK
  5
C92
  8
0
  0
BLOCK
  8
0
  2
*D14
 70
     1
 10
0.0
 20
0.0
 30
0.0
  3
*D14
  1

  0
LINE
  5
ECD
  8
AM_5
 62
     3
 10
386.14752475371938
 20
292.6009756408655
 30
0.0
 11
386.14752475371938
 21
274.6009756408655
 31
0.0
  0
LINE
  5
ECE
  8
AM_5
 62
     3
 10
383.14752475371938
 20
292.6009756408655
 30
0.0
 11
383.14752475371938
 21
274.6009756408655
 31
0.0
  0
LINE
  5
ECF
  8
AM_5
 62
     3
 10
389.89752475371938
 20
276.1009756408655
 30
0.0
 11
393.64752475371938
 21
276.1009756408655
 31
0.0
  0
LINE
  5
ED0
  8
AM_5
 62
     3
 10
379.39752475371938
 20
276.1009756408655
 30
0.0
 11
368.83006263347352
 21
276.1009756408655
 31
0.0
  0
LINE
  5
ED1
  8
AM_5
 62
     3
 10
386.14752475371938
 20
276.1009756408655
 30
0.0
 11
383.14752475371938
 21
276.1009756408655
 31
0.0
  0
INSERT
  5
ED2
  8
AM_5
 62
     3
  2
_OPEN30
 10
386.14752475371938
 20
276.1009756408655
 30
0.0
 41
3.75
 42
3.75
 43
3.75
 50
180.0
  0
INSERT
  5
ED3
  8
AM_5
 62
     3
  2
_OPEN30
 10
383.14752475371938
 20
276.1009756408655
 30
0.0
 41
3.75
 42
3.75
 43
3.75
  0
INSERT
  5
ED4
  8
0
  2
*U81
 10
0.0
 20
0.0
 30
0.0
  0
POINT
  5
ED5
  8
DEFPOINTS
 62
     0
 10
386.14752475371938
 20
294.1009756408655
 30
0.0
  0
POINT
  5
ED6
  8
DEFPOINTS
 62
     0
 10
383.14752475371938
 20
294.1009756408655
 30
0.0
  0
POINT
  5
ED7
  8
DEFPOINTS
 62
     0
 10
383.14752475371938
 20
276.1009756408655
 30
0.0
  0
ENDBLK
  5
E14
  8
0
  0
BLOCK
  8
0
  2
*D15
 70
     1
 10
0.0
 20
0.0
 30
0.0
  3
*D15
  1

  0
LINE
  5
ED8
  8
AM_5
 62
     3
 10
386.14752475371938
 20
150.6009756408655
 30
0.0
 11
386.14752475371938
 21
168.6009756408655
 31
0.0
  0
LINE
  5
ED9
  8
AM_5
 62
     3
 10
383.14752475371938
 20
150.6009756408655
 30
0.0
 11
383.14752475371938
 21
168.6009756408655
 31
0.0
  0
LINE
  5
EDA
  8
AM_5
 62
     3
 10
389.89752475371938
 20
167.1009756408655
 30
0.0
 11
393.64752475371938
 21
167.1009756408655
 31
0.0
  0
LINE
  5
EDB
  8
AM_5
 62
     3
 10
379.39752475371938
 20
167.1009756408655
 30
0.0
 11
368.83006263347352
 21
167.1009756408655
 31
0.0
  0
LINE
  5
EDC
  8
AM_5
 62
     3
 10
386.14752475371938
 20
167.1009756408655
 30
0.0
 11
383.14752475371938
 21
167.1009756408655
 31
0.0
  0
INSERT
  5
EDD
  8
AM_5
 62
     3
  2
_OPEN30
 10
386.14752475371938
 20
167.1009756408655
 30
0.0
 41
3.75
 42
3.75
 43
3.75
 50
180.0
  0
INSERT
  5
EDE
  8
AM_5
 62
     3
  2
_OPEN30
 10
383.14752475371938
 20
167.1009756408655
 30
0.0
 41
3.75
 42
3.75
 43
3.75
  0
INSERT
  5
EDF
  8
0
  2
*U82
 10
0.0
 20
0.0
 30
0.0
  0
POINT
  5
EE0
  8
DEFPOINTS
 62
     0
 10
386.14752475371938
 20
149.1009756408655
 30
0.0
  0
POINT
  5
EE1
  8
DEFPOINTS
 62
     0
 10
383.14752475371938
 20
149.1009756408655
 30
0.0
  0
POINT
  5
EE2
  8
DEFPOINTS
 62
     0
 10
383.14752475371938
 20
167.1009756408655
 30
0.0
  0
ENDBLK
  5
E16
  8
0
  0
BLOCK
  8
0
  2
*D16
 70
     1
 10
0.0
 20
0.0
 30
0.0
  3
*D16
  1

  0
LINE
  5
E38
  8
AM_5
 62
     3
 10
283.37953078336801
 20
147.23544528879589
 30
0.0
 11
296.65335913860213
 21
212.4500387075594
 31
0.0
  0
LINE
  5
E39
  8
AM_5
 62
     3
 10
296.65335913860213
 20
212.4500387075594
 30
0.0
 11
313.73667606773603
 21
212.4500387075594
 31
0.0
  0
INSERT
  5
E3A
  8
AM_5
 62
     3
  2
_OPEN30
 10
282.63158886618339
 20
143.56079117058039
 30
0.0
 41
3.75
 42
3.75
 43
3.75
 50
258.49513274606971
  0
INSERT
  5
E3B
  8
0
  2
*U76
 10
0.0
 20
0.0
 30
0.0
  0
POINT
  5
E3C
  8
DEFPOINTS
 62
     0
 10
282.63158886618339
 20
143.56079117058039
 30
0.0
  0
POINT
  5
E3D
  8
DEFPOINTS
 62
     0
 10
281.83378415451972
 20
139.6411601111505
 30
0.0
  0
ENDBLK
  5
E42
  8
0
  0
BLOCK
  8
0
  2
*D17
 70
     1
 10
0.0
 20
0.0
 30
0.0
  3
*D17
  1

  0
LINE
  5
E5D
  8
AM_5
 62
     3
 10
298.058845245329
 20
147.79613195403641
 30
0.0
 11
303.75565180659322
 21
190.5150498069097
 31
0.0
  0
LINE
  5
E5E
  8
AM_5
 62
     3
 10
303.75565180659322
 20
190.5150498069097
 30
0.0
 11
320.53143085597299
 21
190.51504980690979
 31
0.0
  0
INSERT
  5
E5F
  8
AM_5
 62
     3
  2
_OPEN30
 10
297.56315000434262
 20
144.0790381661339
 30
0.0
 41
3.75
 42
3.75
 43
3.75
 50
262.40410360838831
  0
INSERT
  5
E60
  8
0
  2
*U77
 10
0.0
 20
0.0
 30
0.0
  0
POINT
  5
E61
  8
DEFPOINTS
 62
     0
 10
297.56315000434262
 20
144.0790381661339
 30
0.0
  0
POINT
  5
E62
  8
DEFPOINTS
 62
     0
 10
296.90222301636078
 20
139.1229131155971
 30
0.0
  0
ENDBLK
  5
E67
  8
0
  0
BLOCK
  8
0
  2
*D18
 70
     1
 10
0.0
 20
0.0
 30
0.0
  3
*D18
  1

  0
LINE
  5
E82
  8
AM_5
 62
     3
 10
106.24485247601039
 20
295.4295346486341
 30
0.0
 11
98.819166682946545
 21
249.03795457991521
 31
0.0
  0
LINE
  5
E83
  8
AM_5
 62
     3
 10
98.819166682946545
 20
249.03795457991521
 30
0.0
 11
82.043387633566795
 21
249.03795457991509
 31
0.0
  0
INSERT
  5
E84
  8
AM_5
 62
     3
  2
_OPEN30
 10
106.83755289661519
 20
299.13239924397311
 30
0.0
 41
3.75
 42
3.75
 43
3.75
 50
80.906070741964115
  0
INSERT
  5
E85
  8
0
  2
*U78
 10
0.0
 20
0.0
 30
0.0
  0
POINT
  5
E86
  8
DEFPOINTS
 62
     0
 10
106.83755289661519
 20
299.13239924397311
 30
0.0
  0
POINT
  5
E87
  8
DEFPOINTS
 62
     0
 10
107.6278201240881
 20
304.06955203775823
 30
0.0
  0
ENDBLK
  5
E8C
  8
0
  0
BLOCK
  8
0
  2
*D19
 70
     1
 10
0.0
 20
0.0
 30
0.0
  3
*D19
  1

  0
LINE
  5
EAD
  8
AM_5
 62
     3
 10
121.6682949297322
 20
295.87874162400391
 30
0.0
 11
114.14083857292979
 21
219.5596250665524
 31
0.0
  0
LINE
  5
EAE
  8
AM_5
 62
     3
 10
114.14083857292979
 20
219.5596250665524
 30
0.0
 11
97.057521643795965
 21
219.5596250665524
 31
0.0
  0
INSERT
  5
EAF
  8
AM_5
 62
     3
  2
_OPEN30
 10
122.0363763953535
 20
299.61063337413088
 30
0.0
 41
3.75
 42
3.75
 43
3.75
 50
84.367059639305197
  0
INSERT
  5
EB0
  8
0
  2
*U79
 10
0.0
 20
0.0
 30
0.0
  0
POINT
  5
EB1
  8
DEFPOINTS
 62
     0
 10
122.0363763953535
 20
299.61063337413088
 30
0.0
  0
POINT
  5
EB2
  8
DEFPOINTS
 62
     0
 10
122.4289966253496
 20
303.59131790759972
 30
0.0
  0
ENDBLK
  5
EB7
  8
0
  0
BLOCK
  8
0
  2
*D20
 70
     1
 10
0.0
 20
0.0
 30
0.0
  3
*D20
  1

  0
LINE
  5
EFD
  8
AM_5
 62
     3
 10
303.7326865103517
 20
324.1009756408655
 30
0.0
 11
321.73268651035158
 21
324.1009756408655
 31
0.0
  0
LINE
  5
EFE
  8
AM_5
 62
     3
 10
299.73268651035158
 20
294.1009756408655
 30
0.0
 11
321.73268651035158
 21
294.1009756408655
 31
0.0
  0
LINE
  5
EFF
  8
AM_5
 62
     3
 10
320.2326865103517
 20
320.3509756408655
 30
0.0
 11
320.2326865103517
 21
297.8509756408655
 31
0.0
  0
INSERT
  5
F00
  8
AM_5
 62
     3
  2
_OPEN30
 10
320.2326865103517
 20
324.1009756408655
 30
0.0
 41
3.75
 42
3.75
 43
3.75
 50
90.0
  0
INSERT
  5
F01
  8
AM_5
 62
     3
  2
_OPEN30
 10
320.2326865103517
 20
294.1009756408655
 30
0.0
 41
3.75
 42
3.75
 43
3.75
 50
270.0
  0
INSERT
  5
F02
  8
0
  2
*U83
 10
0.0
 20
0.0
 30
0.0
  0
POINT
  5
F03
  8
DEFPOINTS
 62
     0
 10
302.23268651035158
 20
324.1009756408655
 30
0.0
  0
POINT
  5
F04
  8
DEFPOINTS
 62
     0
 10
298.23268651035158
 20
294.1009756408655
 30
0.0
  0
POINT
  5
F05
  8
DEFPOINTS
 62
     0
 10
320.2326865103517
 20
294.1009756408655
 30
0.0
  0
ENDBLK
  5
F0A
  8
0
  0
BLOCK
  8
0
  2
*D21
 70
     1
 10
0.0
 20
0.0
 30
0.0
  3
*D21
  1

  0
LINE
  5
F25
  8
AM_5
 62
     3
 10
299.73268651035158
 20
149.1009756408655
 30
0.0
 11
321.7326875203517
 21
149.10097564086541
 31
0.0
  0
LINE
  5
F26
  8
AM_5
 62
     3
 10
299.73268651035158
 20
134.1009756408655
 30
0.0
 11
321.7326875203517
 21
134.10097564086541
 31
0.0
  0
LINE
  5
F27
  8
AM_5
 62
     3
 10
320.23268752035159
 20
145.3509756408655
 30
0.0
 11
320.23268752035159
 21
137.8509756408655
 31
0.0
  0
INSERT
  5
F28
  8
AM_5
 62
     3
  2
_OPEN30
 10
320.23268752035159
 20
149.10097564086541
 30
0.0
 41
3.75
 42
3.75
 43
3.75
 50
90.0
  0
INSERT
  5
F29
  8
AM_5
 62
     3
  2
_OPEN30
 10
320.23268752035159
 20
134.10097564086541
 30
0.0
 41
3.75
 42
3.75
 43
3.75
 50
270.0
  0
INSERT
  5
F2A
  8
0
  2
*U84
 10
0.0
 20
0.0
 30
0.0
  0
POINT
  5
F2B
  8
DEFPOINTS
 62
     0
 10
298.23268651035158
 20
149.1009756408655
 30
0.0
  0
POINT
  5
F2C
  8
DEFPOINTS
 62
     0
 10
298.23268651035158
 20
134.1009756408655
 30
0.0
  0
POINT
  5
F2D
  8
DEFPOINTS
 62
     0
 10
320.23268752035159
 20
134.10097564086541
 30
0.0
  0
ENDBLK
  5
F32
  8
0
  0
BLOCK
  8
0
  2
*S22
 70
     1
 10
0.0
 20
0.0
 30
0.0
  3
*S22
  1

  0
CIRCLE
  5
1044
  8
AM_12
 62
     4
 10
204.75808102541461
 20
315.91320215644959
 30
0.0
 40
2.625
  0
LINE
  5
1045
  8
AM_12
 62
     4
 10
202.13308102541461
 20
313.28820215644959
 30
0.0
 11
207.38308102541461
 21
318.5382021564497
 31
0.0
  0
LINE
  5
1046
  8
AM_12
 62
     4
 10
202.13308102541461
 20
318.5382021564497
 30
0.0
 11
207.38308102541461
 21
313.28820215644959
 31
0.0
  0
ENDBLK
  5
1048
  8
0
  0
BLOCK
  8
0
  2
*S23
 70
     1
 10
0.0
 20
0.0
 30
0.0
  3
*S23
  1

  0
LINE
  5
104B
  8
AM_5
 10
179.35114794652191
 20
281.75919643777542
 30
0.0
 11
201.6245683980969
 21
311.70088704306602
 31
0.0
  0
TRACE
  5
104C
  8
AM_5
 10
202.1791302009247
 20
311.28835228129861
 30
0.0
 11
201.07000659526909
 21
312.11342180483342
 31
0.0
 12
204.75808102541461
 22
315.91320215644959
 32
0.0
 13
204.75808102541461
 23
315.91320215644959
 33
0.0
  0
INSERT
  5
104D
  8
0
  2
*U86
 10
0.0
 20
0.0
 30
0.0
  0
CIRCLE
  5
104E
  8
AM_5
 62
     3
 10
173.86750084871591
 20
274.38764498935387
 30
0.0
 40
9.1875
  0
ENDBLK
  5
1050
  8
0
  0
BLOCK
  8
0
  2
*S24
 70
     1
 10
0.0
 20
0.0
 30
0.0
  3
*S24
  1

  0
CIRCLE
  5
1053
  8
AM_12
 62
     4
 10
205.04630739982369
 20
136.87567850425401
 30
0.0
 40
2.625
  0
LINE
  5
1054
  8
AM_12
 62
     4
 10
202.42130739982369
 20
134.25067850425401
 30
0.0
 11
207.67130739982369
 21
139.50067850425401
 31
0.0
  0
LINE
  5
1055
  8
AM_12
 62
     4
 10
202.42130739982369
 20
139.50067850425401
 30
0.0
 11
207.67130739982369
 21
134.25067850425401
 31
0.0
  0
ENDBLK
  5
1057
  8
0
  0
BLOCK
  8
0
  2
*S25
 70
     1
 10
0.0
 20
0.0
 30
0.0
  3
*S25
  1

  0
LINE
  5
105A
  8
AM_5
 10
224.5434698550913
 20
166.9878583424497
 30
0.0
 11
207.8996980206885
 21
141.2825665178936
 31
0.0
  0
TRACE
  5
105B
  8
AM_5
 10
207.31952020969351
 20
141.65822251804681
 30
0.0
 11
208.47987583168359
 21
140.9069105177403
 31
0.0
 12
205.04630739982369
 22
136.87567850425401
 32
0.0
 13
205.04630739982369
 23
136.87567850425401
 33
0.0
  0
INSERT
  5
105C
  8
0
  2
*U87
 10
0.0
 20
0.0
 30
0.0
  0
CIRCLE
  5
105D
  8
AM_5
 62
     3
 10
229.53690344160489
 20
174.69991236631901
 30
0.0
 40
9.1875
  0
ENDBLK
  5
105F
  8
0
  0
BLOCK
  8
0
  2
*S26
 70
     1
 10
0.0
 20
0.0
 30
0.0
  3
*S26
  1

  0
CIRCLE
  5
1062
  8
AM_12
 62
     4
 10
309.73223929858631
 20
20.870654245178681
 30
0.0
 40
2.625
  0
LINE
  5
1063
  8
AM_12
 62
     4
 10
307.10723929858642
 20
18.245654245178681
 30
0.0
 11
312.35723929858642
 21
23.495654245178681
 31
0.0
  0
LINE
  5
1064
  8
AM_12
 62
     4
 10
307.10723929858642
 20
23.495654245178681
 30
0.0
 11
312.35723929858642
 21
18.245654245178681
 31
0.0
  0
ENDBLK
  5
1066
  8
0
  0
BLOCK
  8
0
  2
*S27
 70
     1
 10
0.0
 20
0.0
 30
0.0
  3
*S27
  1

  0
CIRCLE
  5
1069
  8
AM_12
 62
     4
 10
298.34035945764191
 20
20.870654245178681
 30
0.0
 40
2.625
  0
LINE
  5
106A
  8
AM_12
 62
     4
 10
295.71535945764191
 20
18.245654245178681
 30
0.0
 11
300.9653594576418
 21
23.495654245178681
 31
0.0
  0
LINE
  5
106B
  8
AM_12
 62
     4
 10
295.71535945764191
 20
23.495654245178681
 30
0.0
 11
300.9653594576418
 21
18.245654245178681
 31
0.0
  0
ENDBLK
  5
106D
  8
0
  0
BLOCK
  8
0
  2
*S28
 70
     1
 10
0.0
 20
0.0
 30
0.0
  3
*S28
  1

  0
LINE
  5
1070
  8
0
 62
     1
 10
324.00000006318879
 20
408.71249999999992
 30
0.0
 11
621.00000006318874
 21
408.71249999999992
 31
0.0
  0
LINE
  5
1071
  8
0
 62
     1
 10
324.00000006318879
 20
399.44999999999999
 30
0.0
 11
621.00000006318874
 21
399.44999999999999
 31
0.0
  0
LINE
  5
1072
  8
0
 62
     1
 10
324.00000006318879
 20
380.92500000000001
 30
0.0
 11
621.00000006318874
 21
380.92500000000001
 31
0.0
  0
INSERT
  5
1073
  8
0
  2
*U88
 10
0.0
 20
0.0
 30
0.0
  0
LINE
  5
1074
  8
0
 62
     1
 10
346.50000006318868
 20
417.97500000000002
 30
0.0
 11
346.50000006318868
 21
408.71249999999992
 31
0.0
  0
INSERT
  5
1075
  8
0
  2
*U89
 10
0.0
 20
0.0
 30
0.0
  0
LINE
  5
1076
  8
0
 62
     1
 10
414.00000006318868
 20
417.97500000000002
 30
0.0
 11
414.00000006318868
 21
408.71249999999992
 31
0.0
  0
INSERT
  5
1077
  8
0
  2
*U90
 10
0.0
 20
0.0
 30
0.0
  0
LINE
  5
1078
  8
0
 62
     1
 10
436.50000006318868
 20
417.97500000000002
 30
0.0
 11
436.50000006318868
 21
408.71249999999992
 31
0.0
  0
INSERT
  5
1079
  8
0
  2
*U91
 10
0.0
 20
0.0
 30
0.0
  0
LINE
  5
107A
  8
0
 62
     1
 10
519.00000006318874
 20
417.97500000000002
 30
0.0
 11
519.00000006318874
 21
408.71249999999992
 31
0.0
  0
INSERT
  5
107B
  8
0
  2
*U92
 10
0.0
 20
0.0
 30
0.0
  0
INSERT
  5
107C
  8
0
  2
*U93
 10
0.0
 20
0.0
 30
0.0
  0
LINE
  5
107D
  8
0
 62
     1
 10
346.50000006318868
 20
408.71249999999992
 30
0.0
 11
346.50000006318868
 21
399.44999999999999
 31
0.0
  0
INSERT
  5
107E
  8
0
  2
*U94
 10
0.0
 20
0.0
 30
0.0
  0
LINE
  5
107F
  8
0
 62
     1
 10
414.00000006318868
 20
408.71249999999992
 30
0.0
 11
414.00000006318868
 21
399.44999999999999
 31
0.0
  0
INSERT
  5
1080
  8
0
  2
*U95
 10
0.0
 20
0.0
 30
0.0
  0
LINE
  5
1081
  8
0
 62
     1
 10
436.50000006318868
 20
408.71249999999992
 30
0.0
 11
436.50000006318868
 21
399.44999999999999
 31
0.0
  0
INSERT
  5
1082
  8
0
  2
*U96
 10
0.0
 20
0.0
 30
0.0
  0
LINE
  5
1083
  8
0
 62
     1
 10
519.00000006318874
 20
408.71249999999992
 30
0.0
 11
519.00000006318874
 21
399.44999999999999
 31
0.0
  0
INSERT
  5
1084
  8
0
  2
*U97
 10
0.0
 20
0.0
 30
0.0
  0
INSERT
  5
1085
  8
0
  2
*U98
 10
0.0
 20
0.0
 30
0.0
  0
LINE
  5
1086
  8
0
 62
     1
 10
346.50000006318868
 20
399.44999999999999
 30
0.0
 11
346.50000006318868
 21
380.92500000000001
 31
0.0
  0
INSERT
  5
1087
  8
0
  2
*U99
 10
0.0
 20
0.0
 30
0.0
  0
LINE
  5
1088
  8
0
 62
     1
 10
414.00000006318868
 20
399.44999999999999
 30
0.0
 11
414.00000006318868
 21
380.92500000000001
 31
0.0
  0
INSERT
  5
1089
  8
0
  2
*U100
 10
0.0
 20
0.0
 30
0.0
  0
LINE
  5
108A
  8
0
 62
     1
 10
436.50000006318868
 20
399.44999999999999
 30
0.0
 11
436.50000006318868
 21
380.92500000000001
 31
0.0
  0
INSERT
  5
108B
  8
0
  2
*U101
 10
0.0
 20
0.0
 30
0.0
  0
LINE
  5
108C
  8
0
 62
     1
 10
519.00000006318874
 20
399.44999999999999
 30
0.0
 11
519.00000006318874
 21
380.92500000000001
 31
0.0
  0
INSERT
  5
108D
  8
0
  2
*U102
 10
0.0
 20
0.0
 30
0.0
  0
INSERT
  5
108E
  8
0
  2
*U103
 10
0.0
 20
0.0
 30
0.0
  0
LINE
  5
108F
  8
0
 62
     1
 10
346.50000006318868
 20
380.92500000000001
 30
0.0
 11
346.50000006318868
 21
371.66250000000002
 31
0.0
  0
INSERT
  5
1090
  8
0
  2
*U104
 10
0.0
 20
0.0
 30
0.0
  0
LINE
  5
1091
  8
0
 62
     1
 10
414.00000006318868
 20
380.92500000000001
 30
0.0
 11
414.00000006318868
 21
371.66250000000002
 31
0.0
  0
INSERT
  5
1092
  8
0
  2
*U105
 10
0.0
 20
0.0
 30
0.0
  0
LINE
  5
1093
  8
0
 62
     1
 10
436.50000006318868
 20
380.92500000000001
 30
0.0
 11
436.50000006318868
 21
371.66250000000002
 31
0.0
  0
INSERT
  5
1094
  8
0
  2
*U106
 10
0.0
 20
0.0
 30
0.0
  0
LINE
  5
1095
  8
0
 62
     1
 10
519.00000006318874
 20
380.92500000000001
 30
0.0
 11
519.00000006318874
 21
371.66250000000002
 31
0.0
  0
INSERT
  5
1096
  8
0
  2
*U107
 10
0.0
 20
0.0
 30
0.0
  0
LINE
  5
1097
  8
0
 62
     1
 10
324.00000006318879
 20
417.97500000000002
 30
0.0
 11
621.00000006318874
 21
417.97500000000002
 31
0.0
  0
INSERT
  5
1098
  8
0
  2
*U108
 10
0.0
 20
0.0
 30
0.0
  0
LINE
  5
1099
  8
0
 62
     1
 10
346.50000006318868
 20
427.23750000000001
 30
0.0
 11
346.50000006318868
 21
417.97500000000002
 31
0.0
  0
INSERT
  5
109A
  8
0
  2
*U109
 10
0.0
 20
0.0
 30
0.0
  0
LINE
  5
109B
  8
0
 62
     1
 10
414.00000006318868
 20
427.23750000000001
 30
0.0
 11
414.00000006318868
 21
417.97500000000002
 31
0.0
  0
INSERT
  5
109C
  8
0
  2
*U110
 10
0.0
 20
0.0
 30
0.0
  0
LINE
  5
109D
  8
0
 62
     1
 10
436.50000006318868
 20
427.23750000000001
 30
0.0
 11
436.50000006318868
 21
417.97500000000002
 31
0.0
  0
INSERT
  5
109E
  8
0
  2
*U111
 10
0.0
 20
0.0
 30
0.0
  0
LINE
  5
109F
  8
0
 62
     1
 10
519.00000006318874
 20
427.23750000000001
 30
0.0
 11
519.00000006318874
 21
417.97500000000002
 31
0.0
  0
INSERT
  5
10A0
  8
0
  2
*U112
 10
0.0
 20
0.0
 30
0.0
  0
INSERT
  5
10A1
  8
0
  2
*U113
 10
0.0
 20
0.0
 30
0.0
  0
LINE
  5
10A2
  8
0
 62
     1
 10
324.00000006318879
 20
427.23750000000001
 30
0.0
 11
621.00000006318874
 21
427.23750000000001
 31
0.0
  0
LINE
  5
10A3
  8
0
 62
     7
 10
324.00000006318879
 20
436.5
 30
0.0
 11
621.00000006318874
 21
436.5
 31
0.0
  0
LINE
  5
10A4
  8
0
 62
     7
 10
621.00000006318874
 20
436.5
 30
0.0
 11
621.00000006318874
 21
371.66250000000002
 31
0.0
  0
LINE
  5
10A5
  8
0
 62
     7
 10
621.00000006318874
 20
371.66250000000002
 30
0.0
 11
324.00000006318879
 21
371.66250000000002
 31
0.0
  0
LINE
  5
10A6
  8
0
 62
     7
 10
324.00000006318879
 20
371.66250000000002
 30
0.0
 11
324.00000006318879
 21
436.5
 31
0.0
  0
ENDBLK
  5
10A8
  8
0
  0
BLOCK
  8
0
  2
*U29
 70
     1
 10
0.0
 20
0.0
 30
0.0
  3
*U29
  1

  0
TEXT
  5
10C4
  8
0
 10
367.55531168523049
 20
276.233542987227
 30
0.0
 40
2.5
  1
(文書番号：TY-34)2004.10.29
  0
ENDBLK
  5
10C6
  8
0
  0
BLOCK
  8
0
  2
*U30
 70
     1
 10
0.0
 20
0.0
 30
0.0
  3
*U30
  1

  0
TEXT
  5
10C8
  8
RAHM2
 10
-193.80025513713139
 20
3.3010354072796408
 30
0.0
 40
2.5
  1
図番
  0
ENDBLK
  5
10CA
  8
0
  0
BLOCK
  8
0
  2
*U31
 70
     1
 10
0.0
 20
0.0
 30
0.0
  3
*U31
  1

  0
TEXT
  5
10CC
  8
RAHM2
 10
-193.0
 20
21.249999999999972
 30
0.0
 40
2.5
  1
符号
  0
ENDBLK
  5
10CE
  8
0
  0
BLOCK
  8
0
  2
*U32
 70
     1
 10
0.0
 20
0.0
 30
0.0
  3
*U32
  1

  0
TEXT
  5
10D0
  8
RAHM2
 10
-193.80025513713139
 20
16.30103540727961
 30
0.0
 40
2.5
  1
品名
  0
ENDBLK
  5
10D2
  8
0
  0
BLOCK
  8
0
  2
*U33
 70
     1
 10
0.0
 20
0.0
 30
0.0
  3
*U33
  1

  0
TEXT
  5
10D4
  8
RAHM2
 10
-163.1448171868856
 20
21.249999999999972
 30
0.0
 40
2.5
  1
変更記事
  0
ENDBLK
  5
10D6
  8
0
  0
BLOCK
  8
0
  2
*U34
 70
     1
 10
0.0
 20
0.0
 30
0.0
  3
*U34
  1

  0
TEXT
  5
10D8
  8
0
 10
-88.85532994923858
 20
3.4187817258883251
 30
0.0
 40
3.5
  1
株式会社タカチ電機工業
  0
ENDBLK
  5
10DA
  8
0
  0
BLOCK
  8
0
  2
*U35
 70
     1
 10
0.0
 20
0.0
 30
0.0
  3
*U35
  1

  0
TEXT
  5
10DC
  8
RAHM2
 10
-123.3362656628704
 20
31.250000000000028
 30
0.0
 40
2.5
  1
・  ・   
  0
ENDBLK
  5
10DE
  8
0
  0
BLOCK
  8
0
  2
*U36
 70
     1
 10
0.0
 20
0.0
 30
0.0
  3
*U36
  1

  0
TEXT
  5
10E0
  8
RAHM2
 10
-126.238119805002
 20
21.249999999999972
 30
0.0
 40
2.5
  1
年・月・日
  0
ENDBLK
  5
10E2
  8
0
  0
BLOCK
  8
0
  2
*U37
 70
     1
 10
0.0
 20
0.0
 30
0.0
  3
*U37
  1

  0
TEXT
  5
10E4
  8
RAHM2
 10
-104.4702380952381
 20
21.249999999999972
 30
0.0
 40
2.5
  1
担当
  0
ENDBLK
  5
10E6
  8
0
  0
BLOCK
  8
0
  2
*U38
 70
     1
 10
0.0
 20
0.0
 30
0.0
  3
*U38
  1

  0
TEXT
  5
10E8
  8
RAHM2
 10
-123.3362656628704
 20
41.250000000000021
 30
0.0
 40
2.5
  1
・  ・   
  0
ENDBLK
  5
10EA
  8
0
  0
BLOCK
  8
0
  2
*U39
 70
     1
 10
0.0
 20
0.0
 30
0.0
  3
*U39
  1

  0
TEXT
  5
10EC
  8
RAHM2
 10
-123.3362656628704
 20
36.250000000000028
 30
0.0
 40
2.5
  1
・  ・   
  0
ENDBLK
  5
10EE
  8
0
  0
BLOCK
  8
0
  2
*U40
 70
     1
 10
0.0
 20
0.0
 30
0.0
  3
*U40
  1

  0
TEXT
  5
10F0
  8
RAHM2
 10
-123.3362656628704
 20
46.250000000000021
 30
0.0
 40
2.5
  1
・  ・   
  0
ENDBLK
  5
10F2
  8
0
  0
BLOCK
  8
0
  2
*U41
 70
     1
 10
0.0
 20
0.0
 30
0.0
  3
*U41
  1

  0
TEXT
  5
10F4
  8
RAHM2
 10
-92.800255137131444
 20
13.80103540727964
 30
0.0
 40
2.5
  1
日付
  0
ENDBLK
  5
10F6
  8
0
  0
BLOCK
  8
0
  2
*U42
 70
     1
 10
0.0
 20
0.0
 30
0.0
  3
*U42
  1

  0
TEXT
  5
10F8
  8
RAHM2
 10
-92.800255137131444
 20
23.801035407279642
 30
0.0
 40
2.5
  1
表面処理
  0
ENDBLK
  5
10FA
  8
0
  0
BLOCK
  8
0
  2
*U43
 70
     1
 10
0.0
 20
0.0
 30
0.0
  3
*U43
  1

  0
TEXT
  5
10FC
  8
RAHM2
 10
-92.800255137131444
 20
33.801035407279642
 30
0.0
 40
2.5
  1
材質
  0
ENDBLK
  5
10FE
  8
0
  0
BLOCK
  8
0
  2
*U44
 70
     1
 10
0.0
 20
0.0
 30
0.0
  3
*U44
  1

  0
TEXT
  5
1100
  8
RAHM2
 10
-72.800255137131444
 20
46.301035407279642
 30
0.0
 40
2.5
  1
尺度
  0
ENDBLK
  5
1102
  8
0
  0
BLOCK
  8
0
  2
*U45
 70
     1
 10
0.0
 20
0.0
 30
0.0
  3
*U45
  1

  0
TEXT
  5
1104
  8
RAHM2
 10
-52.800255137131451
 20
46.301035407279642
 30
0.0
 40
2.5
  1
数量
  0
ENDBLK
  5
1106
  8
0
  0
BLOCK
  8
0
  2
*U46
 70
     1
 10
0.0
 20
0.0
 30
0.0
  3
*U46
  1

  0
TEXT
  5
1108
  8
RAHM2
 10
-28.3125
 20
21.301035407279642
 30
0.0
 40
2.5
  1
承認
  0
ENDBLK
  5
110A
  8
0
  0
BLOCK
  8
0
  2
*U47
 70
     1
 10
0.0
 20
0.0
 30
0.0
  3
*U47
  1

  0
TEXT
  5
110C
  8
RAHM2
 10
-28.3125
 20
46.301035407279642
 30
0.0
 40
2.5
  1
承認
  0
ENDBLK
  5
110E
  8
0
  0
BLOCK
  8
0
  2
*U48
 70
     1
 10
0.0
 20
0.0
 30
0.0
  3
*U48
  1

  0
TEXT
  5
1110
  8
RAHM2
 10
-123.3362656628704
 20
26.250000000000028
 30
0.0
 40
2.5
  1
・  ・   
  0
ENDBLK
  5
1112
  8
0
  0
BLOCK
  8
0
  2
*U49
 70
     1
 10
0.0
 20
0.0
 30
0.0
  3
*U49
  1

  0
TEXT
  5
1114
  8
RAHM2
 10
-11.3125
 20
46.301035407279642
 30
0.0
 40
2.5
  1
検図
  0
ENDBLK
  5
1116
  8
0
  0
BLOCK
  8
0
  2
*U50
 70
     1
 10
0.0
 20
0.0
 30
0.0
  3
*U50
  1

  0
TEXT
  5
1118
  8
RAHM2
 10
-11.3125
 20
21.301035407279642
 30
0.0
 40
2.5
  1
製図
  0
ENDBLK
  5
111A
  8
0
  0
BLOCK
  8
0
  2
*U51
 70
     1
 10
0.0
 20
0.0
 30
0.0
  3
*U51
  1

  0
TEXT
  5
1120
  8
RAHM2
 10
-11.3125
 20
21.301035407279642
 30
0.0
 40
2.5
  1
製図
  0
ENDBLK
  5
1122
  8
0
  0
BLOCK
  8
0
  2
*U52
 70
     1
 10
0.0
 20
0.0
 30
0.0
  3
*U52
  1

  0
TEXT
  5
1124
  8
RAHM2
 10
-11.3125
 20
46.301035407279642
 30
0.0
 40
2.5
  1
検図
  0
ENDBLK
  5
1126
  8
0
  0
BLOCK
  8
0
  2
*U53
 70
     1
 10
0.0
 20
0.0
 30
0.0
  3
*U53
  1

  0
TEXT
  5
1128
  8
RAHM2
 10
-123.3362656628704
 20
26.250000000000028
 30
0.0
 40
2.5
  1
・  ・   
  0
ENDBLK
  5
112A
  8
0
  0
BLOCK
  8
0
  2
*U54
 70
     1
 10
0.0
 20
0.0
 30
0.0
  3
*U54
  1

  0
TEXT
  5
112C
  8
RAHM2
 10
-28.3125
 20
46.301035407279642
 30
0.0
 40
2.5
  1
承認
  0
ENDBLK
  5
112E
  8
0
  0
BLOCK
  8
0
  2
*U55
 70
     1
 10
0.0
 20
0.0
 30
0.0
  3
*U55
  1

  0
TEXT
  5
1130
  8
RAHM2
 10
-28.3125
 20
21.301035407279642
 30
0.0
 40
2.5
  1
承認
  0
ENDBLK
  5
1132
  8
0
  0
BLOCK
  8
0
  2
*U56
 70
     1
 10
0.0
 20
0.0
 30
0.0
  3
*U56
  1

  0
TEXT
  5
1134
  8
RAHM2
 10
-52.800255137131451
 20
46.301035407279642
 30
0.0
 40
2.5
  1
数量
  0
ENDBLK
  5
1136
  8
0
  0
BLOCK
  8
0
  2
*U57
 70
     1
 10
0.0
 20
0.0
 30
0.0
  3
*U57
  1

  0
TEXT
  5
1138
  8
RAHM2
 10
-72.800255137131444
 20
46.301035407279642
 30
0.0
 40
2.5
  1
尺度
  0
ENDBLK
  5
113A
  8
0
  0
BLOCK
  8
0
  2
*U58
 70
     1
 10
0.0
 20
0.0
 30
0.0
  3
*U58
  1

  0
TEXT
  5
113C
  8
RAHM2
 10
-92.800255137131444
 20
33.801035407279642
 30
0.0
 40
2.5
  1
材質
  0
ENDBLK
  5
113E
  8
0
  0
BLOCK
  8
0
  2
*U59
 70
     1
 10
0.0
 20
0.0
 30
0.0
  3
*U59
  1

  0
TEXT
  5
1140
  8
RAHM2
 10
-92.800255137131444
 20
23.801035407279642
 30
0.0
 40
2.5
  1
表面処理
  0
ENDBLK
  5
1142
  8
0
  0
BLOCK
  8
0
  2
*U60
 70
     1
 10
0.0
 20
0.0
 30
0.0
  3
*U60
  1

  0
TEXT
  5
1144
  8
RAHM2
 10
-92.800255137131444
 20
13.80103540727964
 30
0.0
 40
2.5
  1
日付
  0
ENDBLK
  5
1146
  8
0
  0
BLOCK
  8
0
  2
*U61
 70
     1
 10
0.0
 20
0.0
 30
0.0
  3
*U61
  1

  0
TEXT
  5
1148
  8
RAHM2
 10
-123.3362656628704
 20
46.250000000000021
 30
0.0
 40
2.5
  1
・  ・   
  0
ENDBLK
  5
114A
  8
0
  0
BLOCK
  8
0
  2
*U62
 70
     1
 10
0.0
 20
0.0
 30
0.0
  3
*U62
  1

  0
TEXT
  5
114C
  8
RAHM2
 10
-123.3362656628704
 20
36.250000000000028
 30
0.0
 40
2.5
  1
・  ・   
  0
ENDBLK
  5
114E
  8
0
  0
BLOCK
  8
0
  2
*U63
 70
     1
 10
0.0
 20
0.0
 30
0.0
  3
*U63
  1

  0
TEXT
  5
1150
  8
RAHM2
 10
-123.3362656628704
 20
41.250000000000021
 30
0.0
 40
2.5
  1
・  ・   
  0
ENDBLK
  5
1152
  8
0
  0
BLOCK
  8
0
  2
*U64
 70
     1
 10
0.0
 20
0.0
 30
0.0
  3
*U64
  1

  0
TEXT
  5
1154
  8
RAHM2
 10
-104.4702380952381
 20
21.249999999999972
 30
0.0
 40
2.5
  1
担当
  0
ENDBLK
  5
1156
  8
0
  0
BLOCK
  8
0
  2
*U65
 70
     1
 10
0.0
 20
0.0
 30
0.0
  3
*U65
  1

  0
TEXT
  5
1158
  8
RAHM2
 10
-126.238119805002
 20
21.249999999999972
 30
0.0
 40
2.5
  1
年・月・日
  0
ENDBLK
  5
115A
  8
0
  0
BLOCK
  8
0
  2
*U66
 70
     1
 10
0.0
 20
0.0
 30
0.0
  3
*U66
  1

  0
TEXT
  5
115C
  8
RAHM2
 10
-123.3362656628704
 20
31.250000000000028
 30
0.0
 40
2.5
  1
・  ・   
  0
ENDBLK
  5
115E
  8
0
  0
BLOCK
  8
0
  2
*U67
 70
     1
 10
0.0
 20
0.0
 30
0.0
  3
*U67
  1

  0
TEXT
  5
1160
  8
0
 10
-88.85532994923858
 20
3.4187817258883251
 30
0.0
 40
3.5
  1
株式会社タカチ電機工業
  0
ENDBLK
  5
1162
  8
0
  0
BLOCK
  8
0
  2
*U68
 70
     1
 10
0.0
 20
0.0
 30
0.0
  3
*U68
  1

  0
TEXT
  5
1164
  8
RAHM2
 10
-164.5
 20
21.25
 30
0.0
 40
2.5
  1
変更記事
  0
ENDBLK
  5
1166
  8
0
  0
BLOCK
  8
0
  2
*U69
 70
     1
 10
0.0
 20
0.0
 30
0.0
  3
*U69
  1

  0
TEXT
  5
1168
  8
RAHM2
 10
-196.80025513713139
 20
16.301035407279642
 30
0.0
 40
2.5
  1
品名
  0
ENDBLK
  5
116A
  8
0
  0
BLOCK
  8
0
  2
*U70
 70
     1
 10
0.0
 20
0.0
 30
0.0
  3
*U70
  1

  0
TEXT
  5
116C
  8
RAHM2
 10
-196.0
 20
21.25
 30
0.0
 40
2.5
  1
符号
  0
ENDBLK
  5
116E
  8
0
  0
BLOCK
  8
0
  2
*U71
 70
     1
 10
0.0
 20
0.0
 30
0.0
  3
*U71
  1

  0
TEXT
  5
1170
  8
RAHM2
 10
-196.80025513713139
 20
3.3010354072796702
 30
0.0
 40
2.5
  1
図番
  0
ENDBLK
  5
1172
  8
0
  0
BLOCK
  8
0
  2
*U72
 70
     1
 10
0.0
 20
0.0
 30
0.0
  3
*U72
  1

  0
TEXT
  5
1174
  8
AM_5
 62
     2
 10
196.78477804578469
 20
344.35097664086561
 30
0.0
 40
5.25
  1
200
  0
ENDBLK
  5
1176
  8
0
  0
BLOCK
  8
0
  2
*U73
 70
     1
 10
0.0
 20
0.0
 30
0.0
  3
*U73
  1

  0
TEXT
  5
1178
  8
AM_5
 62
     2
 10
81.98268550035155
 20
305.4239087117316
 30
0.0
 40
5.25
  1
30
 50
90.0
  0
ENDBLK
  5
117A
  8
0
  0
BLOCK
  8
0
  2
*U74
 70
     1
 10
0.0
 20
0.0
 30
0.0
  3
*U74
  1

  0
TEXT
  5
117C
  8
AM_5
 62
     2
 10
85.982686510351584
 20
138.3422445807426
 30
0.0
 40
5.25
  1
15
 50
90.0
  0
ENDBLK
  5
117E
  8
0
  0
BLOCK
  8
0
  2
*U75
 70
     1
 10
0.0
 20
0.0
 30
0.0
  3
*U75
  1

  0
TEXT
  5
1180
  8
AM_5
 62
     2
 10
196.78477804578469
 20
122.3509756408654
 30
0.0
 40
5.25
  1
200
  0
ENDBLK
  5
1182
  8
0
  0
BLOCK
  8
0
  2
*U76
 70
     1
 10
0.0
 20
0.0
 30
0.0
  3
*U76
  1

  0
TEXT
  5
1184
  8
AM_5
 62
     2
 10
298.24917606773579
 20
214.7000387075594
 30
0.0
 40
5.25
  1
2-M4
  0
ENDBLK
  5
1186
  8
0
  0
BLOCK
  8
0
  2
*U77
 70
     1
 10
0.0
 20
0.0
 30
0.0
  3
*U77
  1

  0
TEXT
  5
1188
  8
AM_5
 62
     2
 10
305.35146873572722
 20
192.7650498069097
 30
0.0
 40
5.25
  1
2-\U+22055
  0
ENDBLK
  5
118A
  8
0
  0
BLOCK
  8
0
  2
*U78
 70
     1
 10
0.0
 20
0.0
 30
0.0
  3
*U78
  1

  0
TEXT
  5
118C
  8
AM_5
 62
     2
 10
81.389204562700556
 20
251.28795457991509
 30
0.0
 40
5.25
  1
2-\U+22055
  0
ENDBLK
  5
118E
  8
0
  0
BLOCK
  8
0
  2
*U79
 70
     1
 10
0.0
 20
0.0
 30
0.0
  3
*U79
  1

  0
TEXT
  5
1190
  8
AM_5
 62
     2
 10
96.403338572929755
 20
221.8096250665524
 30
0.0
 40
5.25
  1
2-M4
  0
ENDBLK
  5
1192
  8
0
  0
BLOCK
  8
0
  2
*U80
 70
     1
 10
0.0
 20
0.0
 30
0.0
  3
*U80
  1

  0
TEXT
  5
1194
  8
AM_5
 62
     2
 10
395.11002475371942
 20
122.3509756408653
 30
0.0
 40
5.25
  1
3
  0
ENDBLK
  5
1196
  8
0
  0
BLOCK
  8
0
  2
*U81
 70
     1
 10
0.0
 20
0.0
 30
0.0
  3
*U81
  1

  0
TEXT
  5
1198
  8
AM_5
 62
     2
 10
370.29256263347349
 20
278.3509756408655
 30
0.0
 40
5.25
  1
3
  0
ENDBLK
  5
119A
  8
0
  0
BLOCK
  8
0
  2
*U82
 70
     1
 10
0.0
 20
0.0
 30
0.0
  3
*U82
  1

  0
TEXT
  5
119C
  8
AM_5
 62
     2
 10
370.29256263347349
 20
169.3509756408655
 30
0.0
 40
5.25
  1
3
  0
ENDBLK
  5
119E
  8
0
  0
BLOCK
  8
0
  2
*U83
 70
     1
 10
0.0
 20
0.0
 30
0.0
  3
*U83
  1

  0
TEXT
  5
11A0
  8
AM_5
 62
     2
 10
317.98268651035158
 20
305.42390871173171
 30
0.0
 40
5.25
  1
30
 50
90.0
  0
ENDBLK
  5
11A2
  8
0
  0
BLOCK
  8
0
  2
*U84
 70
     1
 10
0.0
 20
0.0
 30
0.0
  3
*U84
  1

  0
TEXT
  5
11A4
  8
AM_5
 62
     2
 10
317.98268752035159
 20
138.3422445807426
 30
0.0
 40
5.25
  1
15
 50
90.0
  0
ENDBLK
  5
11A6
  8
0
  0
BLOCK
  8
0
  2
*U85
 70
     1
 10
0.0
 20
0.0
 30
0.0
  3
*U85
  1

  0
TEXT
  5
11A8
  8
AM_5
 62
     2
 10
436.07629369359643
 20
344.35097664086538
 30
0.0
 40
5.25
  1
115
  0
ENDBLK
  5
11AA
  8
0
  0
BLOCK
  8
0
  2
*U86
 70
     1
 10
0.0
 20
0.0
 30
0.0
  3
*U86
  1

  0
TEXT
  5
11AC
  8
AM_5
 62
     7
 10
172.55500084871591
 20
271.76264498935387
 30
0.0
 40
5.25
  1
1
  7
ACISOTS
  0
ENDBLK
  5
11AE
  8
0
  0
BLOCK
  8
0
  2
*U87
 70
     1
 10
0.0
 20
0.0
 30
0.0
  3
*U87
  1

  0
TEXT
  5
11B0
  8
AM_5
 62
     7
 10
227.60840688648679
 20
172.07439563403551
 30
0.0
 40
5.25
  1
2
  7
ACISOTS
  0
ENDBLK
  5
11B2
  8
0
  0
BLOCK
  8
0
  2
*U88
 70
     1
 10
0.0
 20
0.0
 30
0.0
  3
*U88
  1

  0
TEXT
  5
11B4
  8
0
 62
     2
 10
333.93750006318868
 20
410.69999999999999
 30
0.0
 40
5.25
  1
1
  7
ACISOTS
  0
ENDBLK
  5
11B6
  8
0
  0
BLOCK
  8
0
  2
*U89
 70
     1
 10
0.0
 20
0.0
 30
0.0
  3
*U89
  1

  0
TEXT
  5
11B8
  8
0
 62
     2
 10
347.85000006318882
 20
410.69999999999999
 30
0.0
 40
5.25
  1
ルーフ
  7
ACISOTS
  0
ENDBLK
  5
11BA
  8
0
  0
BLOCK
  8
0
  2
*U90
 70
     1
 10
0.0
 20
0.0
 30
0.0
  3
*U90
  1

  0
TEXT
  5
11BC
  8
0
 62
     2
 10
423.93750006318868
 20
410.69999999999999
 30
0.0
 40
5.25
  1
1
  7
ACISOTS
  0
ENDBLK
  5
11BE
  8
0
  0
BLOCK
  8
0
  2
*U91
 70
     1
 10
0.0
 20
0.0
 30
0.0
  3
*U91
  1

  0
TEXT
  5
11C0
  8
0
 62
     2
 10
437.06250006318868
 20
410.69896653543299
 30
0.0
 40
5.25
  1
A1050P-H24 t3.0
  7
ACISOTS
  0
ENDBLK
  5
11C2
  8
0
  0
BLOCK
  8
0
  2
*U92
 70
     1
 10
0.0
 20
0.0
 30
0.0
  3
*U92
  1

  0
TEXT
  5
11C4
  8
0
 62
     2
 10
520.35000006318865
 20
410.69999999999999
 30
0.0
 40
5.25
  1
ライトグレー塗装
  7
ACISOTS
  0
ENDBLK
  5
11C6
  8
0
  0
BLOCK
  8
0
  2
*U93
 70
     1
 10
0.0
 20
0.0
 30
0.0
  3
*U93
  1

  0
TEXT
  5
11C8
  8
0
 62
     2
 10
333.32150350807058
 20
401.436466535433
 30
0.0
 40
5.25
  1
2
  7
ACISOTS
  0
ENDBLK
  5
11CA
  8
0
  0
BLOCK
  8
0
  2
*U94
 70
     1
 10
0.0
 20
0.0
 30
0.0
  3
*U94
  1

  0
TEXT
  5
11CC
  8
0
 62
     2
 10
347.85000006318882
 20
401.4375
 30
0.0
 40
5.25
  1
スペーサー
  7
ACISOTS
  0
ENDBLK
  5
11CE
  8
0
  0
BLOCK
  8
0
  2
*U95
 70
     1
 10
0.0
 20
0.0
 30
0.0
  3
*U95
  1

  0
TEXT
  5
11D0
  8
0
 62
     2
 10
423.93750006318868
 20
401.4375
 30
0.0
 40
5.25
  1
1
  7
ACISOTS
  0
ENDBLK
  5
11D2
  8
0
  0
BLOCK
  8
0
  2
*U96
 70
     1
 10
0.0
 20
0.0
 30
0.0
  3
*U96
  1

  0
TEXT
  5
11D4
  8
0
 62
     2
 10
437.06250006318868
 20
401.436466535433
 30
0.0
 40
5.25
  1
A1050P-H24 t3.0
  7
ACISOTS
  0
ENDBLK
  5
11D6
  8
0
  0
BLOCK
  8
0
  2
*U97
 70
     1
 10
0.0
 20
0.0
 30
0.0
  3
*U97
  1

  0
TEXT
  5
11D8
  8
0
 62
     2
 10
520.35000006318865
 20
401.4375
 30
0.0
 40
5.25
  1
ライトグレー塗装
  7
ACISOTS
  0
ENDBLK
  5
11DA
  8
0
  0
BLOCK
  8
0
  2
*U98
 70
     1
 10
0.0
 20
0.0
 30
0.0
  3
*U98
  1

  0
TEXT
  5
11DC
  8
0
 62
     2
 10
333.30376900306578
 20
392.17500000000001
 30
0.0
 40
5.25
  1
3
  7
ACISOTS
  0
ENDBLK
  5
11DE
  8
0
  0
BLOCK
  8
0
  2
*U99
 70
     1
 10
0.0
 20
0.0
 30
0.0
  3
*U99
  1

  0
TEXT
  5
11E0
  8
0
 62
     2
 10
347.85000006318882
 20
392.17500000000001
 30
0.0
 40
5.25
  1
取付ネジ 
  7
ACISOTS
  0
TEXT
  5
11E1
  8
0
 62
     2
 10
347.85000006318882
 20
383.42500000000001
 30
0.0
 40
5.25
  1
（ナベM4×14）
  7
ACISOTS
  0
ENDBLK
  5
11E3
  8
0
  0
BLOCK
  8
0
  2
*U100
 70
     1
 10
0.0
 20
0.0
 30
0.0
  3
*U100
  1

  0
TEXT
  5
11E5
  8
0
 62
     2
 10
423.15000006318871
 20
392.17500000000001
 30
0.0
 40
5.25
  1
4
  7
ACISOTS
  0
ENDBLK
  5
11E7
  8
0
  0
BLOCK
  8
0
  2
*U101
 70
     1
 10
0.0
 20
0.0
 30
0.0
  3
*U101
  1

  0
TEXT
  5
11E9
  8
0
 62
     2
 10
437.8500000631887
 20
392.17500000000001
 30
0.0
 40
5.25
  1
ステンレス
  7
ACISOTS
  0
ENDBLK
  5
11EB
  8
0
  0
BLOCK
  8
0
  2
*U102
 70
     1
 10
0.0
 20
0.0
 30
0.0
  3
*U102
  1

  0
TEXT
  5
11ED
  8
0
 62
     2
 10
520.35000006318865
 20
392.17500000000001
 30
0.0
 40
5.25
  1
無処理
  7
ACISOTS
  0
ENDBLK
  5
11EF
  8
0
  0
BLOCK
  8
0
  2
*U103
 70
     1
 10
0.0
 20
0.0
 30
0.0
  3
*U103
  1

  0
TEXT
  5
11F1
  8
0
 62
     2
 10
333.15000006318871
 20
373.64999999999998
 30
0.0
 40
5.25
  1
4
  7
ACISOTS
  0
ENDBLK
  5
11F3
  8
0
  0
BLOCK
  8
0
  2
*U104
 70
     1
 10
0.0
 20
0.0
 30
0.0
  3
*U104
  1

  0
TEXT
  5
11F5
  8
0
 62
     2
 10
347.06250006318868
 20
373.64896653543298
 30
0.0
 40
5.25
  1
Oリング （線径φ2）
  7
ACISOTS
  0
ENDBLK
  5
11F7
  8
0
  0
BLOCK
  8
0
  2
*U105
 70
     1
 10
0.0
 20
0.0
 30
0.0
  3
*U105
  1

  0
TEXT
  5
11F9
  8
0
 62
     2
 10
423.15000006318871
 20
373.64999999999998
 30
0.0
 40
5.25
  1
4
  7
ACISOTS
  0
ENDBLK
  5
11FB
  8
0
  0
BLOCK
  8
0
  2
*U106
 70
     1
 10
0.0
 20
0.0
 30
0.0
  3
*U106
  1

  0
TEXT
  5
11FD
  8
0
 62
     2
 10
437.06250006318868
 20
373.64999999999998
 30
0.0
 40
5.25
  1
NBR
  7
ACISOTS
  0
ENDBLK
  5
11FF
  8
0
  0
BLOCK
  8
0
  2
*U107
 70
     1
 10
0.0
 20
0.0
 30
0.0
  3
*U107
  1

  0
TEXT
  5
1201
  8
0
 62
     2
 10
520.35000006318865
 20
373.64999999999998
 30
0.0
 40
5.25
  1
ブラック
  7
ACISOTS
  0
ENDBLK
  5
1203
  8
0
  0
BLOCK
  8
0
  2
*U108
 70
     1
 10
0.0
 20
0.0
 30
0.0
  3
*U108
  1

  0
TEXT
  5
1205
  8
0
 62
     2
 10
329.4750000631887
 20
419.96249999999998
 30
0.0
 40
5.25
  1
照番
  7
ACISOTS
  0
ENDBLK
  5
1207
  8
0
  0
BLOCK
  8
0
  2
*U109
 70
     1
 10
0.0
 20
0.0
 30
0.0
  3
*U109
  1

  0
TEXT
  5
1209
  8
0
 62
     2
 10
374.47500006318882
 20
419.96249999999998
 30
0.0
 40
5.25
  1
名称
  7
ACISOTS
  0
ENDBLK
  5
120B
  8
0
  0
BLOCK
  8
0
  2
*U110
 70
     1
 10
0.0
 20
0.0
 30
0.0
  3
*U110
  1

  0
TEXT
  5
120D
  8
0
 62
     2
 10
419.4750000631887
 20
419.96249999999998
 30
0.0
 40
5.25
  1
数量
  7
ACISOTS
  0
ENDBLK
  5
120F
  8
0
  0
BLOCK
  8
0
  2
*U111
 70
     1
 10
0.0
 20
0.0
 30
0.0
  3
*U111
  1

  0
TEXT
  5
1211
  8
0
 62
     2
 10
471.9750000631887
 20
419.96249999999998
 30
0.0
 40
5.25
  1
材質
  7
ACISOTS
  0
ENDBLK
  5
1213
  8
0
  0
BLOCK
  8
0
  2
*U112
 70
     1
 10
0.0
 20
0.0
 30
0.0
  3
*U112
  1

  0
TEXT
  5
1215
  8
0
 62
     2
 10
551.10000006318865
 20
419.96249999999998
 30
0.0
 40
5.25
  1
色・表面処理
  7
ACISOTS
  0
ENDBLK
  5
1217
  8
0
  0
BLOCK
  8
0
  2
*U113
 70
     1
 10
0.0
 20
0.0
 30
0.0
  3
*U113
  1

  0
TEXT
  5
1219
  8
0
 62
     2
 10
460.29375006318872
 20
429.24374999999998
 30
0.0
 40
5.25
  1
構成内容
  7
ACISOTS
  0
ENDBLK
  5
121B
  8
0
  0
ENDSEC
  0
SECTION
  2
ENTITIES
  0
LINE
  5
A45
  8
AM_7
  6
AM_ISO08W050X2
 10
380.14752475371938
 20
141.6009756408655
 30
0.0
 11
389.14752475371938
 21
141.6009756408655
 31
0.0
1001
GENIUS_GENOBJ-N-CEN_13
1002
{
1000
OWNER
1000
GEN
1002
}
1001
GENIUS_GENODEF_13
1002
{
1000
HIER
1070
     0
1002
}
1002
{
1000
MANEDIT
1070
     0
1002
}
1002
{
1000
NOSEL
1070
     0
1002
}
1002
{
1000
BEHIND
1070
     0
1002
}
1002
{
1000
OTHER
1070
     0
1002
}
1002
{
1000
REACTOR
1002
}
  0
LINE
  5
A46
  8
ｽﾍ__ｻ_
 10
386.14752475371938
 20
149.1009756408655
 30
0.0
 11
383.14752475371938
 21
149.1009756408655
 31
0.0
  0
LINE
  5
A47
  8
ｽﾍ__ｻ_
 10
386.14752475371938
 20
134.1009756408655
 30
0.0
 11
386.14752475371938
 21
149.1009756408655
 31
0.0
  0
LINE
  5
A48
  8
ｽﾍ__ｻ_
 10
383.14752475371938
 20
134.1009756408655
 30
0.0
 11
386.14752475371938
 21
134.1009756408655
 31
0.0
  0
LINE
  5
A49
  8
ｽﾍ__ｻ_
 10
383.14752475371938
 20
149.1009756408655
 30
0.0
 11
383.14752475371938
 21
134.1009756408655
 31
0.0
  0
LINE
  5
A4B
  8
AM_7
 10
302.73268651035158
 20
141.6009756408655
 30
0.0
 11
277.23268651035158
 21
141.6009756408655
 31
0.0
1001
GENIUS_GENOBJ-N-CEN_13
1002
{
1000
OWNER
1000
GEN
1002
}
1001
GENIUS_GENODEF_13
1002
{
1000
HIER
1070
     0
1002
}
1002
{
1000
MANEDIT
1070
     0
1002
}
1002
{
1000
NOSEL
1070
     0
1002
}
1002
{
1000
BEHIND
1070
     0
1002
}
1002
{
1000
OTHER
1070
     0
1002
}
1002
{
1000
REACTOR
1002
}
  0
LINE
  5
A4C
  8
AM_7
  6
AM_ISO08W050X2
 10
297.23268651035158
 20
147.1009756408655
 30
0.0
 11
297.23268651035158
 21
136.1009756408655
 31
0.0
1001
GENIUS_GENOBJ-N-CEN_13
1002
{
1000
OWNER
1000
GEN
1002
}
1001
GENIUS_GENODEF_13
1002
{
1000
HIER
1070
     0
1002
}
1002
{
1000
MANEDIT
1070
     0
1002
}
1002
{
1000
NOSEL
1070
     0
1002
}
1002
{
1000
BEHIND
1070
     0
1002
}
1002
{
1000
OTHER
1070
     0
1002
}
1002
{
1000
REACTOR
1002
}
  0
LINE
  5
A4D
  8
AM_7
  6
AM_ISO08W050X2
 10
282.23268651035158
 20
146.6009756408655
 30
0.0
 11
282.23268651035158
 21
136.6009756408655
 31
0.0
1001
GENIUS_GENODEF_13
1002
{
1000
HIER
1070
     0
1002
}
1002
{
1000
MANEDIT
1070
     0
1002
}
1002
{
1000
NOSEL
1070
     0
1002
}
1002
{
1000
BEHIND
1070
     0
1002
}
1002
{
1000
OTHER
1070
     0
1002
}
1002
{
1000
REACTOR
1002
}
1001
GENIUS_GENOBJ-N-CEN_13
1002
{
1000
OWNER
1000
GEN
1002
}
  0
CIRCLE
  5
A4E
  8
ｽﾍ__ｻ_
 10
282.23268651035158
 20
141.6009756408655
 30
0.0
 40
2.0
  0
CIRCLE
  5
A4F
  8
ｽﾍ__ｻ_
 10
282.23268651035158
 20
141.6009756408655
 30
0.0
 40
1.6000000000000001
  0
CIRCLE
  5
A50
  8
ｽﾍ__ｻ_
 10
297.23268651035158
 20
141.6009756408655
 30
0.0
 40
2.5
  0
CIRCLE
  5
A51
  8
ｽﾍ__ｻ_
 10
107.2326865103516
 20
141.6009756408655
 30
0.0
 40
2.5
  0
CIRCLE
  5
A52
  8
ｽﾍ__ｻ_
 10
122.2326865103516
 20
141.6009756408655
 30
0.0
 40
1.6000000000000001
  0
CIRCLE
  5
A53
  8
ｽﾍ__ｻ_
 10
122.2326865103516
 20
141.6009756408655
 30
0.0
 40
2.0
  0
LINE
  5
A54
  8
AM_7
 10
101.7326865103516
 20
141.6009756408655
 30
0.0
 11
127.2326865103516
 21
141.6009756408655
 31
0.0
1001
GENIUS_GENOBJ-N-CEN_13
1002
{
1000
OWNER
1000
GEN
1002
}
1001
GENIUS_GENODEF_13
1002
{
1000
HIER
1070
     0
1002
}
1002
{
1000
MANEDIT
1070
     0
1002
}
1002
{
1000
NOSEL
1070
     0
1002
}
1002
{
1000
BEHIND
1070
     0
1002
}
1002
{
1000
OTHER
1070
     0
1002
}
1002
{
1000
REACTOR
1002
}
  0
LINE
  5
A55
  8
AM_7
  6
AM_ISO08W050X2
 10
122.2326865103516
 20
146.6009756408655
 30
0.0
 11
122.2326865103516
 21
136.6009756408655
 31
0.0
1001
GENIUS_GENODEF_13
1002
{
1000
HIER
1070
     0
1002
}
1002
{
1000
MANEDIT
1070
     0
1002
}
1002
{
1000
NOSEL
1070
     0
1002
}
1002
{
1000
BEHIND
1070
     0
1002
}
1002
{
1000
OTHER
1070
     0
1002
}
1002
{
1000
REACTOR
1002
}
1001
GENIUS_GENOBJ-N-CEN_13
1002
{
1000
OWNER
1000
GEN
1002
}
  0
LINE
  5
A56
  8
AM_7
  6
AM_ISO08W050X2
 10
107.2326865103516
 20
147.1009756408655
 30
0.0
 11
107.2326865103516
 21
136.1009756408655
 31
0.0
1001
GENIUS_GENOBJ-N-CEN_13
1002
{
1000
OWNER
1000
GEN
1002
}
1001
GENIUS_GENODEF_13
1002
{
1000
HIER
1070
     0
1002
}
1002
{
1000
MANEDIT
1070
     0
1002
}
1002
{
1000
NOSEL
1070
     0
1002
}
1002
{
1000
BEHIND
1070
     0
1002
}
1002
{
1000
OTHER
1070
     0
1002
}
1002
{
1000
REACTOR
1002
}
  0
ARC
  5
A57
  8
ｽﾍ__ｻ_
 10
128.23268651035161
 20
145.1009756408655
 30
0.0
 40
4.0
 50
0.0
 51
90.0
  0
ARC
  5
A58
  8
ｽﾍ__ｻ_
 10
136.23268651035161
 20
143.1009756408655
 30
0.0
 40
4.0
 50
180.0
 51
269.9999999999992
  0
ARC
  5
A59
  8
ｽﾍ__ｻ_
 10
268.2326865103517
 20
143.1009756408655
 30
0.0
 40
4.0
 50
269.9999999999992
 51
0.0
  0
ARC
  5
A5A
  8
ｽﾍ__ｻ_
 10
106.2326865103516
 20
138.1009756408655
 30
0.0
 40
4.0
 50
180.0
 51
270.0
  0
ARC
  5
A5B
  8
ｽﾍ__ｻ_
 10
106.2326865103516
 20
145.1009756408655
 30
0.0
 40
4.0
 50
90.0
 51
180.0
  0
ARC
  5
A5C
  8
ｽﾍ__ｻ_
 10
276.2326865103517
 20
145.1009756408655
 30
0.0
 40
4.0
 50
90.0
 51
180.0
  0
ARC
  5
A5D
  8
ｽﾍ__ｻ_
 10
298.23268651035158
 20
138.1009756408655
 30
0.0
 40
4.0
 50
270.0
 51
0.0
  0
ARC
  5
A5E
  8
ｽﾍ__ｻ_
 10
298.23268651035158
 20
145.1009756408655
 30
0.0
 40
4.0
 50
0.0
 51
90.0
  0
LINE
  5
A5F
  8
ｽﾍ__ｻ_
 10
302.23268651035158
 20
145.1009756408655
 30
0.0
 11
302.23268651035158
 21
138.1009756408655
 31
0.0
  0
LINE
  5
A60
  8
ｽﾍ__ｻ_
 10
276.2326865103517
 20
149.1009756408655
 30
0.0
 11
298.23268651035158
 21
149.1009756408655
 31
0.0
  0
LINE
  5
A61
  8
ｽﾍ__ｻ_
 10
272.2326865103517
 20
143.1009756408655
 30
0.0
 11
272.2326865103517
 21
145.1009756408655
 31
0.0
  0
LINE
  5
A62
  8
ｽﾍ__ｻ_
 10
136.23268651035161
 20
139.1009756408655
 30
0.0
 11
268.2326865103517
 21
139.1009756408655
 31
0.0
  0
LINE
  5
A63
  8
ｽﾍ__ｻ_
 10
132.23268651035161
 20
145.1009756408655
 30
0.0
 11
132.23268651035161
 21
143.1009756408655
 31
0.0
  0
LINE
  5
A64
  8
ｽﾍ__ｻ_
 10
106.2326865103516
 20
149.1009756408655
 30
0.0
 11
128.23268651035161
 21
149.1009756408655
 31
0.0
  0
LINE
  5
A65
  8
ｽﾍ__ｻ_
 10
102.2326865103516
 20
138.1009756408655
 30
0.0
 11
102.2326865103516
 21
145.1009756408655
 31
0.0
  0
LINE
  5
A66
  8
ｽﾍ__ｻ_
 10
298.23268651035158
 20
134.1009756408655
 30
0.0
 11
106.2326865103516
 21
134.1009756408655
 31
0.0
  0
LINE
  5
A67
  8
AM_7
  6
AM_ISO08W050X2
 10
380.14752475371938
 20
301.6009756408655
 30
0.0
 11
389.14752475371938
 21
301.6009756408655
 31
0.0
1001
GENIUS_GENODEF_13
1002
{
1000
HIER
1070
     0
1002
}
1002
{
1000
MANEDIT
1070
     0
1002
}
1002
{
1000
NOSEL
1070
     0
1002
}
1002
{
1000
BEHIND
1070
     0
1002
}
1002
{
1000
OTHER
1070
     0
1002
}
1002
{
1000
REACTOR
1002
}
1001
GENIUS_GENOBJ-N-CEN_13
1002
{
1000
OWNER
1000
GEN
1002
}
  0
LINE
  5
A68
  8
AM_7
  6
AM_ISO08W050X2
 10
107.2326865103516
 20
307.1009756408655
 30
0.0
 11
107.2326865103516
 21
296.1009756408655
 31
0.0
1001
GENIUS_GENOBJ-N-CEN_13
1002
{
1000
OWNER
1000
GEN
1002
}
1001
GENIUS_GENODEF_13
1002
{
1000
HIER
1070
     0
1002
}
1002
{
1000
MANEDIT
1070
     0
1002
}
1002
{
1000
NOSEL
1070
     0
1002
}
1002
{
1000
BEHIND
1070
     0
1002
}
1002
{
1000
OTHER
1070
     0
1002
}
1002
{
1000
REACTOR
1002
}
  0
LINE
  5
A69
  8
AM_7
  6
AM_ISO08W050X2
 10
122.2326865103516
 20
306.6009756408655
 30
0.0
 11
122.2326865103516
 21
296.6009756408655
 31
0.0
1001
GENIUS_GENODEF_13
1002
{
1000
HIER
1070
     0
1002
}
1002
{
1000
MANEDIT
1070
     0
1002
}
1002
{
1000
NOSEL
1070
     0
1002
}
1002
{
1000
BEHIND
1070
     0
1002
}
1002
{
1000
OTHER
1070
     0
1002
}
1002
{
1000
REACTOR
1002
}
1001
GENIUS_GENOBJ-N-CEN_13
1002
{
1000
OWNER
1000
GEN
1002
}
  0
LINE
  5
A6A
  8
AM_7
 10
101.7326865103516
 20
301.6009756408655
 30
0.0
 11
127.2326865103516
 21
301.6009756408655
 31
0.0
1001
GENIUS_GENOBJ-N-CEN_13
1002
{
1000
OWNER
1000
GEN
1002
}
1001
GENIUS_GENODEF_13
1002
{
1000
HIER
1070
     0
1002
}
1002
{
1000
MANEDIT
1070
     0
1002
}
1002
{
1000
NOSEL
1070
     0
1002
}
1002
{
1000
BEHIND
1070
     0
1002
}
1002
{
1000
OTHER
1070
     0
1002
}
1002
{
1000
REACTOR
1002
}
  0
LINE
  5
A6B
  8
AM_7
  6
AM_ISO08W050X2
 10
282.23268651035158
 20
306.6009756408655
 30
0.0
 11
282.23268651035158
 21
296.6009756408655
 31
0.0
1001
GENIUS_GENOBJ-N-CEN_13
1002
{
1000
OWNER
1000
GEN
1002
}
1001
GENIUS_GENODEF_13
1002
{
1000
HIER
1070
     0
1002
}
1002
{
1000
MANEDIT
1070
     0
1002
}
1002
{
1000
NOSEL
1070
     0
1002
}
1002
{
1000
BEHIND
1070
     0
1002
}
1002
{
1000
OTHER
1070
     0
1002
}
1002
{
1000
REACTOR
1002
}
  0
LINE
  5
A6C
  8
AM_7
  6
AM_ISO08W050X2
 10
297.23268651035158
 20
307.1009756408655
 30
0.0
 11
297.23268651035158
 21
296.1009756408655
 31
0.0
1001
GENIUS_GENODEF_13
1002
{
1000
HIER
1070
     0
1002
}
1002
{
1000
MANEDIT
1070
     0
1002
}
1002
{
1000
NOSEL
1070
     0
1002
}
1002
{
1000
BEHIND
1070
     0
1002
}
1002
{
1000
OTHER
1070
     0
1002
}
1002
{
1000
REACTOR
1002
}
1001
GENIUS_GENOBJ-N-CEN_13
1002
{
1000
OWNER
1000
GEN
1002
}
  0
LINE
  5
A6D
  8
AM_7
 10
277.23268651035158
 20
301.6009756408655
 30
0.0
 11
302.73268651035158
 21
301.6009756408655
 31
0.0
1001
GENIUS_GENOBJ-N-CEN_13
1002
{
1000
OWNER
1000
GEN
1002
}
1001
GENIUS_GENODEF_13
1002
{
1000
HIER
1070
     0
1002
}
1002
{
1000
MANEDIT
1070
     0
1002
}
1002
{
1000
NOSEL
1070
     0
1002
}
1002
{
1000
BEHIND
1070
     0
1002
}
1002
{
1000
OTHER
1070
     0
1002
}
1002
{
1000
REACTOR
1002
}
  0
ARC
  5
A6E
  8
ﾙ_ﾌ
 10
386.14752475371938
 20
321.1009756408655
 30
0.0
 40
3.0
 50
90.0
 51
180.0
  0
LINE
  5
A70
  8
ﾙ_ﾌ
 10
495.8049183253903
 20
312.22689049820218
 30
0.0
 11
488.70565021125969
 21
321.1009756408655
 31
0.0
  0
LINE
  5
A71
  8
ﾙ_ﾌ
 10
498.14752475371932
 20
314.1009756408655
 30
0.0
 11
495.8049183253903
 21
312.22689049820218
 31
0.0
  0
LINE
  5
A72
  8
ﾙ_ﾌ
 10
490.14752475371932
 20
324.1009756408655
 30
0.0
 11
498.14752475371932
 21
314.1009756408655
 31
0.0
  0
LINE
  5
A73
  8
ﾙ_ﾌ
 10
386.14752475371938
 20
321.1009756408655
 30
0.0
 11
386.14752475371938
 21
294.1009756408655
 31
0.0
  0
LINE
  5
A74
  8
ﾙ_ﾌ
 10
386.14752475371938
 20
324.1009756408655
 30
0.0
 11
490.14752475371932
 21
324.10097564086561
 31
0.0
  0
LINE
  5
A75
  8
ﾙ_ﾌ
 10
383.14752475371938
 20
294.1009756408655
 30
0.0
 11
383.14752475371938
 21
321.1009756408655
 31
0.0
  0
LINE
  5
A76
  8
ﾙ_ﾌ
 10
386.14752475371938
 20
294.1009756408655
 30
0.0
 11
383.14752475371938
 21
294.1009756408655
 31
0.0
  0
LINE
  5
A78
  8
ﾙ_ﾌ
 10
102.2326865103516
 20
324.1009756408655
 30
0.0
 11
102.2326865103516
 21
298.1009756408655
 31
0.0
  0
LINE
  5
A79
  8
ﾙ_ﾌ
 10
106.2326865103516
 20
294.1009756408655
 30
0.0
 11
128.23268651035161
 21
294.1009756408655
 31
0.0
  0
LINE
  5
A7B
  8
ﾙ_ﾌ
 10
132.23268651035161
 20
305.1009756408655
 30
0.0
 11
132.23268651035161
 21
298.1009756408655
 31
0.0
  0
CIRCLE
  5
A7C
  8
ﾙ_ﾌ
 10
122.2326865103516
 20
301.6009756408655
 30
0.0
 40
2.0
  0
CIRCLE
  5
A7D
  8
ﾙ_ﾌ
 10
122.2326865103516
 20
301.6009756408655
 30
0.0
 40
1.6000000000000001
  0
CIRCLE
  5
A7E
  8
ﾙ_ﾌ
 10
107.2326865103516
 20
301.6009756408655
 30
0.0
 40
2.5
  0
ARC
  5
A7F
  8
ﾙ_ﾌ
 10
106.2326865103516
 20
298.1009756408655
 30
0.0
 40
4.0
 50
180.0
 51
270.0
  0
ARC
  5
A80
  8
ﾙ_ﾌ
 10
128.23268651035161
 20
298.1009756408655
 30
0.0
 40
4.0
 50
270.0
 51
0.0
  0
ARC
  5
A81
  8
ﾙ_ﾌ
 10
136.23268651035161
 20
305.1009756408655
 30
0.0
 40
4.0
 50
90.0
 51
180.0
  0
ARC
  5
A82
  8
ﾙ_ﾌ
 10
268.2326865103517
 20
305.1009756408655
 30
0.0
 40
4.0
 50
0.0
 51
90.0
  0
ARC
  5
A83
  8
ﾙ_ﾌ
 10
276.2326865103517
 20
298.1009756408655
 30
0.0
 40
4.0
 50
180.0
 51
270.0
  0
ARC
  5
A84
  8
ﾙ_ﾌ
 10
298.23268651035158
 20
298.1009756408655
 30
0.0
 40
4.0
 50
270.0
 51
0.0
  0
CIRCLE
  5
A85
  8
ﾙ_ﾌ
 10
297.23268651035158
 20
301.6009756408655
 30
0.0
 40
2.5
  0
CIRCLE
  5
A86
  8
ﾙ_ﾌ
 10
282.23268651035158
 20
301.6009756408655
 30
0.0
 40
1.6000000000000001
  0
CIRCLE
  5
A87
  8
ﾙ_ﾌ
 10
282.23268651035158
 20
301.6009756408655
 30
0.0
 40
2.0
  0
LINE
  5
A88
  8
ﾙ_ﾌ
 10
272.2326865103517
 20
305.1009756408655
 30
0.0
 11
272.2326865103517
 21
298.1009756408655
 31
0.0
  0
LINE
  5
A89
  8
ﾙ_ﾌ
 10
136.23268651035161
 20
309.1009756408655
 30
0.0
 11
268.2326865103517
 21
309.1009756408655
 31
0.0
  0
LINE
  5
A8B
  8
ﾙ_ﾌ
 10
298.23268651035158
 20
294.1009756408655
 30
0.0
 11
276.2326865103517
 21
294.1009756408655
 31
0.0
  0
LINE
  5
A8C
  8
ﾙ_ﾌ
 10
302.23268651035158
 20
324.1009756408655
 30
0.0
 11
302.23268651035158
 21
298.1009756408655
 31
0.0
  0
LINE
  5
A8D
  8
ﾙ_ﾌ
 10
102.2326865103516
 20
324.1009756408655
 30
0.0
 11
302.23268651035158
 21
324.1009756408655
 31
0.0
  0
INSERT
  5
AA3
  8
0
  2
TAKACHI-A3横
 10
0.0
 20
0.0
 30
0.0
 41
1.5
 42
1.5
 43
1.5
1001
GENIUS_GENOREF_13
1005
B08
1001
GENIUS_GENODEF_13
1002
{
1000
HIER
1070
     0
1002
}
1002
{
1000
MANEDIT
1070
     0
1002
}
1002
{
1000
NOSEL
1070
     0
1002
}
1002
{
1000
BEHIND
1070
     0
1002
}
1002
{
1000
OTHER
1070
     0
1002
}
1002
{
1000
REACTOR
1002
}
1001
GENIUS_GENOBJ-N-SDF_13
1002
{
1000
OWNER
1000
GEN
1002
}
1001
GENIUS_GENSCREG_13
1040
1.5
1040
1.0
1011
0.0
1021
0.0
1031
7.7542625739721449E+228
1021
0.0
1031
0.0
1011
612.0
1021
0.0
1031
7.7542625739721449E+228
1021
427.50000000000011
1031
0.0
1070
     3
  0
INSERT
  5
AFE
  8
0
 66
     1
  2
TK-TITLE-A3横-A4縦
 10
621.00000006318874
 20
9.0
 30
0.0
 41
1.5
 42
1.5
 43
1.5
1001
GENIUS_GENOREF_13
1005
B08
  0
ATTRIB
  5
B8C
  8
0
 10
342.00000006318868
 20
28.725000000000001
 30
0.0
 40
6.0
  1
SR1810
  2
GEN-TITLE-DES1
 70
     0
  0
ATTRIB
  5
B8D
  8
0
 10
342.00000006318868
 20
22.725000000000001
 30
0.0
 40
3.75
  1

  2
GEN-TITLE-DES2
 70
     0
  0
ATTRIB
  5
B8E
  8
0
 10
342.00000006318868
 20
12.0
 30
0.0
 40
4.5
  1

  2
GEN-TITLE-NR
 70
     0
  0
ATTRIB
  5
B8F
  8
0
 10
509.63765947311992
 20
27.225000000000001
 30
0.0
 40
4.5
  1
2009/03/16
 72
     1
 11
525.00000006318874
 21
27.225000000000001
 31
0.0
  2
GEN-TITLE-DAT
 70
     0
 74
     1
  0
ATTRIB
  5
B90
  8
0
 10
505.5830537815292
 20
55.199999999999989
 30
0.0
 40
4.5
  1

  2
GEN-TITLE-MAT1
 70
     0
  0
ATTRIB
  5
B91
  8
0
 10
505.5830537815292
 20
40.200000000000003
 30
0.0
 40
4.5
  1

  2
GEN-TITLE-MAT2
 70
     0
  0
ATTRIB
  5
B92
  8
0
 10
524.13860396012069
 20
70.199999999999989
 30
0.0
 40
4.5
  1
1:1.5
 72
     2
 11
534.00000006318874
 21
70.199999999999989
 31
0.0
  2
GEN-TITLE-SCA
 70
     0
 74
     1
  0
ATTRIB
  5
B93
  8
0
 10
564.00000006318874
 20
70.199999999999989
 30
0.0
 40
4.5
  1

 72
     2
 11
564.00000006318874
 21
70.199999999999989
 31
0.0
  2
GEN-TITLE-QTY
 70
     0
 74
     1
  0
SEQEND
  5
B8B
  8
0
  0
POINT
  5
B08
  8
0
 10
0.0
 20
0.0
 30
0.0
1001
GENIUS_GENODEF_13
1002
{
1000
HIER
1070
     1
1002
}
1002
{
1000
MANEDIT
1070
     0
1002
}
1002
{
1000
NOSEL
1070
     0
1002
}
1002
{
1000
BEHIND
1070
     0
1002
}
1002
{
1000
OTHER
1070
     0
1002
}
1002
{
1000
REACTOR
1002
}
1001
GENIUS_GENOENT_13
1002
{
1000
MYREF
1005
B08
1002
}
1002
{
1000
GRP
1005
0
1002
}
1001
GENIUS_GENOBJ-N-TIT_13
1002
{
1000
OWNER
1000
GEN
1002
}
1001
GENIUS_GENOLIS_13
1002
{
1000
ENT
1005
AFE
1005
AA3
1005
B8A
1002
}
1001
GENIUS_GENTITLE_13
1002
{
1000
BORDER
1000
TAKACHI-A3横
1002
}
1002
{
1000
TITLE
1000
TK-TITLE-A3横-A4縦
1002
}
1002
{
1000
SCALE
1000
1:1.5
1002
}
1002
{
1000
TITLESTD
1000
ISO
1002
}
1002
{
1000
HRA
1005
AA3
1002
}
1002
{
1000
HTIT
1005
AFE
1002
}
1002
{
1000
GENIUSID
1005
B08
1002
}
1002
{
1000
UNCHG
1002
{
1000
GEN-TITLE-SIZ
1000
GEN-TITLE-SCA
1002
}
1002
}
  0
DIMENSION
  5
BC2
  8
AM_5
  2
*D8
 10
302.23268651035158
 20
342.1009766408655
 30
0.0
 11
202.23268651035161
 21
346.97649337314903
 31
0.0
 70
     0
 13
102.2326865103516
 23
324.1009756408655
 33
0.0
 14
302.23268651035158
 24
324.1009756408655
 34
0.0
 50
0.0000000000000114
1001
ACAD
1000
DSTYLE
1002
{
1070
    40
1040
1.5
1002
}
  0
DIMENSION
  5
BE4
  8
AM_5
  2
*D9
 10
84.232685500351593
 20
294.1009756408655
 30
0.0
 11
79.35768550035155
 21
309.1009756408655
 31
0.0
 70
     0
 13
102.2326865103516
 23
324.1009756408655
 33
0.0
 14
106.2326865103516
 24
294.1009756408655
 34
0.0
 50
90.000000000000028
1001
ACAD
1000
DSTYLE
1002
{
1070
    40
1040
1.5
1002
}
  0
DIMENSION
  5
C06
  8
AM_5
  2
*D10
 10
88.232686510351598
 20
134.1009756408655
 30
0.0
 11
83.357686510351584
 21
141.6009756408655
 31
0.0
 70
     0
 13
106.2326865103516
 23
149.1009756408655
 33
0.0
 14
106.2326865103516
 24
134.1009756408655
 34
0.0
 50
90.000000000000028
1001
ACAD
1000
DSTYLE
1002
{
1070
    40
1040
1.5
1002
}
  0
DIMENSION
  5
C28
  8
AM_5
  2
*D11
 10
302.23268651035158
 20
120.1009756408654
 30
0.0
 11
202.23268651035161
 21
124.9764923731488
 31
0.0
 70
     0
 13
102.2326865103516
 23
138.1009756408655
 33
0.0
 14
302.23268651035158
 24
138.1009756408655
 34
0.0
 50
0.0000000000001132
1001
ACAD
1000
DSTYLE
1002
{
1070
    40
1040
1.5
1002
}
  0
DIMENSION
  5
C4A
  8
AM_5
  2
*D12
 10
386.14752475371938
 20
120.1009756408653
 30
0.0
 11
397.05625581384231
 21
124.9759756408652
 31
0.0
 70
     0
 13
383.14752475371938
 23
134.1009756408655
 33
0.0
 14
386.14752475371938
 24
134.1009756408655
 34
0.0
 50
0.0000000000001132
1001
ACAD
1000
DSTYLE
1002
{
1070
    40
1040
1.5
1002
}
  0
DIMENSION
  5
C70
  8
AM_5
  2
*D13
 10
498.14752475371932
 20
342.10097664086538
 30
0.0
 11
440.64752475371932
 21
346.9759766408655
 31
0.0
 70
     0
 13
383.14752475371938
 23
321.1009756408655
 33
0.0
 14
498.14752475371932
 24
314.1009756408655
 34
0.0
1001
ACAD
1000
DSTYLE
1002
{
1070
    40
1040
1.5
1002
}
  0
INSERT
  5
C98
  8
AM_12
  2
*S22
 10
0.0
 20
0.0
 30
0.0
  0
INSERT
  5
C9D
  8
AM_5
  2
*S23
 10
0.0
 20
0.0
 30
0.0
  0
INSERT
  5
C9F
  8
AM_12
  2
*S24
 10
0.0
 20
0.0
 30
0.0
  0
INSERT
  5
CA2
  8
AM_5
  2
*S25
 10
0.0
 20
0.0
 30
0.0
  0
INSERT
  5
CA4
  8
AM_12
  2
*S26
 10
0.0
 20
0.0
 30
0.0
  0
INSERT
  5
CA8
  8
AM_12
  2
*S27
 10
0.0
 20
0.0
 30
0.0
  0
INSERT
  5
CAB
  8
0
  2
*S28
 10
0.0
 20
0.0
 30
0.0
  0
LINE
  5
D67
  8
ﾙ_ﾌ
 10
488.70565021125969
 20
321.1009756408655
 30
0.0
 11
386.14752475371938
 21
321.1009756408655
 31
0.0
  0
DIMENSION
  5
DD2
  8
AM_5
  2
*D14
 10
383.14752475371938
 20
276.1009756408655
 30
0.0
 11
372.23879369359651
 21
280.9759756408655
 31
0.0
 70
     0
 13
386.14752475371938
 23
294.1009756408655
 33
0.0
 14
383.14752475371938
 24
294.1009756408655
 34
0.0
 50
0.0000000000001132
1001
ACAD
1000
DSTYLE
1002
{
1070
    40
1040
1.5
1002
}
  0
DIMENSION
  5
DF8
  8
AM_5
  2
*D15
 10
383.14752475371938
 20
167.1009756408655
 30
0.0
 11
372.23879369359651
 21
171.9759756408655
 31
0.0
 70
     0
 13
386.14752475371938
 23
149.1009756408655
 33
0.0
 14
383.14752475371938
 24
149.1009756408655
 34
0.0
1001
ACAD
1000
DSTYLE
1002
{
1070
    40
1040
1.5
1002
}
  0
DIMENSION
  5
E1B
  8
AM_5
  2
*D16
 10
281.83378415451972
 20
139.6411601111505
 30
0.0
 11
306.32001760316888
 21
212.4500387075594
 31
0.0
 70
   131
  1
2-M4
 15
282.63158886618339
 25
143.56079117058039
 35
0.0
 40
0.0
1001
ACAD
1000
DSTYLE
1002
{
1070
    40
1040
1.5
1002
}
  0
DIMENSION
  5
E47
  8
AM_5
  2
*D17
 10
296.90222301636078
 20
139.1229131155971
 30
0.0
 11
313.26854133128319
 21
190.5150498069097
 31
0.0
 70
   131
  1
2-<>
 15
297.56315000434262
 25
144.0790381661339
 35
0.0
 40
0.0
1001
ACAD
1000
DSTYLE
1002
{
1070
    40
1040
1.5
1002
}
  0
DIMENSION
  5
E6C
  8
AM_5
  2
*D18
 10
107.6278201240881
 20
304.06955203775823
 30
0.0
 11
89.306277158256549
 21
249.03795457991509
 31
0.0
 70
   131
  1
2-<>
 15
106.83755289661519
 25
299.13239924397311
 35
0.0
 40
0.0
1001
ACAD
1000
DSTYLE
1002
{
1070
    40
1040
1.5
1002
}
  0
DIMENSION
  5
E91
  8
AM_5
  2
*D19
 10
122.4289966253496
 20
303.59131790759972
 30
0.0
 11
104.4741801083628
 21
219.5596250665524
 31
0.0
 70
   131
  1
2-M4
 15
122.0363763953535
 25
299.61063337413088
 35
0.0
 40
0.0
1001
ACAD
1000
DSTYLE
1002
{
1070
    40
1040
1.5
1002
}
  0
DIMENSION
  5
EF2
  8
AM_5
  2
*D20
 10
320.2326865103517
 20
294.1009756408655
 30
0.0
 11
315.35768651035158
 21
309.10097564086561
 31
0.0
 70
     0
 13
302.23268651035158
 23
324.1009756408655
 33
0.0
 14
298.23268651035158
 24
294.1009756408655
 34
0.0
 50
90.000000000000028
1001
ACAD
1000
DSTYLE
1002
{
1070
    40
1040
1.5
1002
}
  0
DIMENSION
  5
F1A
  8
AM_5
  2
*D21
 10
320.23268752035159
 20
134.10097564086541
 30
0.0
 11
315.35768752035159
 21
141.6009756408655
 31
0.0
 70
     0
 13
298.23268651035158
 23
149.1009756408655
 33
0.0
 14
298.23268651035158
 24
134.1009756408655
 34
0.0
 50
90.000000000000028
1001
ACAD
1000
DSTYLE
1002
{
1070
    40
1040
1.5
1002
}
  0
VIEWPORT
  5
186
 67
     1
  8
0
 10
5.2499996395561626
 20
3.999999883606677
 30
0.0
 40
14.57585398793907
 41
8.9929997457669462
 68
     1
 69
     1
1001
ACAD
1000
MVIEW
1002
{
1070
    16
1010
0.0
1020
0.0
1030
0.0
1010
0.0
1020
0.0
1030
1.0
1040
0.0
1040
8.9929997457669462
1040
5.2499996395561626
1040
3.999999883606677
1040
50.0
1040
0.0
1040
0.0
1070
     0
1070
   100
1070
     1
1070
     1
1070
     0
1070
     0
1070
     0
1070
     0
1040
0.0
1040
0.0
1040
0.0
1040
10.0
1040
10.0
1040
10.0
1040
10.0
1070
     0
1002
{
1002
}
1002
}
1001
GENIUS_GENOBJ-N-SDF_13
1002
{
1000
OWNER
1000
GEN
1002
}
1001
GENIUS_GENODEF_13
1002
{
1000
HIER
1070
     0
1002
}
1002
{
1000
MANEDIT
1070
     0
1002
}
1002
{
1000
NOSEL
1070
     0
1002
}
1002
{
1000
BEHIND
1070
     0
1002
}
1002
{
1000
OTHER
1070
     0
1002
}
1002
{
1000
REACTOR
1002
}
1001
GENIUS_GENSCREG_15
1000
PF
1040
1.0
1000
DF
1040
1.0
1000
MIN
1011
-2.0379273544133709
1021
0.0
1031
7.7542625739721449E+228
1021
-0.4964999892767957
1031
0.0
1000
MAX
1011
12.5379266335257
1021
0.0
1031
7.7542625739721449E+228
1021
8.4964997564901523
1031
0.0
1000
FLAGS
1070
     4
  0
ENDSEC
  0
EOF
