  0
SECTION
  2
HEADER
  9
$ACADVER
  1
AC1009
  9
$INSBASE
 10
0.0
 20
0.0
 30
0.0
  9
$EXTMIN
 10
-0.012717360259785
 20
-0.008538923833612
 30
-0.0000000000112498
  9
$EXTMAX
 10
806.06055624312978
 20
560.0085467474205
 30
0.0000000000002956
  9
$LIMMIN
 10
0.0
 20
0.0
  9
$LIMMAX
 10
806.0
 20
560.00000000000011
  9
$ORTHOMODE
 70
     0
  9
$REGENMODE
 70
     1
  9
$FILLMODE
 70
     1
  9
$QTEXTMODE
 70
     0
  9
$MIRRTEXT
 70
     1
  9
$DRAGMODE
 70
     2
  9
$LTSCALE
 40
2.0
  9
$OSMODE
 70
   431
  9
$ATTMODE
 70
     1
  9
$TEXTSIZE
 40
1.0
  9
$TRACEWID
 40
1.0
  9
$TEXTSTYLE
  7
ACISOTS
  9
$CLAYER
  8
RAHM2
  9
$CELTYPE
  6
BYLAYER
  9
$CECOLOR
 62
   256
  9
$DIMSCALE
 40
2.0
  9
$DIMASZ
 40
2.5
  9
$DIMEXO
 40
1.0
  9
$DIMDLI
 40
10.0
  9
$DIMRND
 40
0.0
  9
$DIMDLE
 40
0.0
  9
$DIMEXE
 40
1.0
  9
$DIMTP
 40
0.1
  9
$DIMTM
 40
0.1
  9
$DIMTXT
 40
3.5
  9
$DIMCEN
 40
0.0
  9
$DIMTSZ
 40
0.0
  9
$DIMTOL
 70
     0
  9
$DIMLIM
 70
     0
  9
$DIMTIH
 70
     0
  9
$DIMTOH
 70
     0
  9
$DIMSE1
 70
     0
  9
$DIMSE2
 70
     0
  9
$DIMTAD
 70
     1
  9
$DIMZIN
 70
     8
  9
$DIMBLK
  1

  9
$DIMASO
 70
     1
  9
$DIMSHO
 70
     1
  9
$DIMPOST
  1

  9
$DIMAPOST
  1
"
  9
$DIMALT
 70
     0
  9
$DIMALTD
 70
     2
  9
$DIMALTF
 40
0.0393701
  9
$DIMLFAC
 40
1.0
  9
$DIMTOFL
 70
     1
  9
$DIMTVP
 40
0.0
  9
$DIMTIX
 70
     0
  9
$DIMSOXD
 70
     0
  9
$DIMSAH
 70
     0
  9
$DIMBLK1
  1

  9
$DIMBLK2
  1

  9
$DIMSTYLE
  2
AM_ISO
  9
$DIMCLRD
 70
   256
  9
$DIMCLRE
 70
   256
  9
$DIMCLRT
 70
     2
  9
$DIMTFAC
 40
0.71
  9
$DIMGAP
 40
1.5
  9
$LUNITS
 70
     2
  9
$LUPREC
 70
     2
  9
$SKETCHINC
 40
1.0
  9
$FILLETRAD
 40
5.0
  9
$AUNITS
 70
     0
  9
$AUPREC
 70
     0
  9
$MENU
  1
.
  9
$ELEVATION
 40
0.0
  9
$PELEVATION
 40
0.0
  9
$THICKNESS
 40
0.0
  9
$LIMCHECK
 70
     0
  9
$BLIPMODE
 70
     0
  9
$CHAMFERA
 40
5.0
  9
$CHAMFERB
 40
5.0
  9
$SKPOLY
 70
     0
  9
$TDCREATE
 40
2454061.595910544
  9
$TDUPDATE
 40
2454767.7677756022
  9
$TDINDWG
 40
0.0303139699
  9
$TDUSRTIMER
 40
0.0303139699
  9
$USRTIMER
 70
     1
  9
$ANGBASE
 50
0.0
  9
$ANGDIR
 70
     0
  9
$PDMODE
 70
     0
  9
$PDSIZE
 40
0.0
  9
$PLINEWID
 40
0.0
  9
$COORDS
 70
     2
  9
$SPLFRAME
 70
     0
  9
$SPLINETYPE
 70
     6
  9
$SPLINESEGS
 70
     8
  9
$ATTDIA
 70
     1
  9
$ATTREQ
 70
     1
  9
$HANDLING
 70
     1
  9
$HANDSEED
  5
1168
  9
$SURFTAB1
 70
     6
  9
$SURFTAB2
 70
     6
  9
$SURFTYPE
 70
     6
  9
$SURFU
 70
     6
  9
$SURFV
 70
     6
  9
$UCSNAME
  2

  9
$UCSORG
 10
0.0
 20
0.0
 30
0.0
  9
$UCSXDIR
 10
1.0
 20
0.0
 30
0.0
  9
$UCSYDIR
 10
0.0
 20
1.0
 30
0.0
  9
$PUCSNAME
  2

  9
$PUCSORG
 10
0.0
 20
0.0
 30
0.0
  9
$PUCSXDIR
 10
1.0
 20
0.0
 30
0.0
  9
$PUCSYDIR
 10
0.0
 20
1.0
 30
0.0
  9
$USERI1
 70
     0
  9
$USERI2
 70
     0
  9
$USERI3
 70
     0
  9
$USERI4
 70
     0
  9
$USERI5
 70
     0
  9
$USERR1
 40
0.0
  9
$USERR2
 40
0.0
  9
$USERR3
 40
0.0
  9
$USERR4
 40
0.0
  9
$USERR5
 40
0.0
  9
$WORLDVIEW
 70
     1
  9
$SHADEDGE
 70
     3
  9
$SHADEDIF
 70
    70
  9
$TILEMODE
 70
     1
  9
$MAXACTVP
 70
    64
  9
$PLIMCHECK
 70
     0
  9
$PEXTMIN
 10
1.0000000000000000E+020
 20
1.0000000000000000E+020
 30
1.0000000000000000E+020
  9
$PEXTMAX
 10
-1.0000000000000000E+020
 20
-1.0000000000000000E+020
 30
-1.0000000000000000E+020
  9
$PLIMMIN
 10
-6.350006103515625
 20
-6.3499999046325684
  9
$PLIMMAX
 10
273.04998779296881
 20
209.54999399185181
  9
$UNITMODE
 70
     0
  9
$VISRETAIN
 70
     1
  9
$PLINEGEN
 70
     0
  9
$PSLTSCALE
 70
     1
  0
ENDSEC
  0
SECTION
  2
TABLES
  0
TABLE
  2
VPORT
 70
     3
  0
VPORT
  2
*ACTIVE
 70
     0
 10
0.0
 20
0.0
 11
1.0
 21
1.0
 12
403.023919441435
 22
280.00000391179339
 13
0.0
 23
0.0
 14
5.0
 24
5.0
 15
20.0
 25
20.0
 16
0.0
 26
0.0
 36
1.0
 17
0.0
 27
0.0
 37
0.0
 40
651.45286683841721
 41
1.245110821382007
 42
50.0
 43
0.0
 44
0.0
 50
0.0
 51
0.0
 71
     0
 72
   100
 73
     1
 74
     3
 75
     0
 76
     0
 77
     0
 78
     0
  0
ENDTAB
  0
TABLE
  2
LTYPE
 70
    20
  0
LTYPE
  2
CONTINUOUS
 70
     0
  3
Solid line
 72
    65
 73
     0
 40
0.0
  0
LTYPE
  2
AM_ISO02W050
 70
     0
  3
__ __ __ __ __ __ __ __ __ __ __ __ __ __ __
 72
    65
 73
     2
 40
7.5
 49
6.0
 49
-1.5
  0
LTYPE
  2
AM_ISO08W050
 70
     0
  3
____ . ____ . ____ . ____ . ____ . ____ . ____
 72
    65
 73
     4
 40
18.0
 49
12.0
 49
-1.5
 49
3.0
 49
-1.5
  0
LTYPE
  2
AM_ISO09W050
 70
     0
  3
_____ . . _____ . . _____ . . ____ .. ____
 72
    65
 73
     6
 40
22.5
 49
12.0
 49
-1.5
 49
3.0
 49
-1.5
 49
3.0
 49
-1.5
  0
LTYPE
  2
AMCONSTR
 70
     0
  3
_______________________
 72
    65
 73
     2
 40
9999.0
 49
9999.0
 49
0.0
  0
LTYPE
  2
AM_ISO08W050X2
 70
     0
  3
__ . __ . __ . __ . __ . __
 72
    65
 73
     4
 40
9.0
 49
6.0
 49
-0.75
 49
1.5
 49
-0.75
  0
LTYPE
  2
AM_ISO02W050X2
 70
     0
  3
 _ _ _ _ _ _ _ _ _ _ _ _
 72
    65
 73
     2
 40
3.75
 49
3.0
 49
-0.75
  0
LTYPE
  2
AMZIGZAG
 70
     0
  3
/\/-/\/-/\/-/\/-/\/-/\/
 72
    65
 73
     2
 40
11.0001
 49
0.0001
 49
-11.0
  0
LTYPE
  2
ACISOWELD
 70
     0
  3
_ _ _ _ _
 72
    65
 73
     2
 40
2.0
 49
2.0
 49
-1.0
  0
LTYPE
  2
ACISOTGB
 70
     0
  3
__ . . __ . .
 72
    65
 73
     6
 40
9.0
 49
4.0
 49
-1.0
 49
1.0
 49
-1.0
 49
1.0
 49
-1.0
  0
LTYPE
  2
ACISOTGL
 70
     0
  3
_ _ _ _ _
 72
    65
 73
     2
 40
3.0
 49
2.0
 49
-1.0
  0
LTYPE
  2
CENTER
 70
     0
  3
__ . __
 72
    65
 73
     4
 40
7.0
 49
4.0
 49
-1.0
 49
1.0
 49
-1.0
  0
LTYPE
  2
HIDDEN
 70
     0
  3
Hidden __ __ __ __ __ __ __ __ __ __ __ __ __ _
 72
    65
 73
     2
 40
9.5249999999999986
 49
6.3499999999999988
 49
-3.1749999999999989
  0
LTYPE
  2
PHANTOM2
 70
     0
  3
Phantom (.5x) ___ _ _ ___ _ _ ___ _ _ ___ _ _
 72
    65
 73
     6
 40
31.75
 49
15.875
 49
-3.1749999999999989
 49
3.1749999999999989
 49
-3.1749999999999989
 49
3.1749999999999989
 49
-3.1749999999999989
  0
LTYPE
  2
GEN3
 70
     0
  3
-- -- -- -- -- -- -- -- -- -- -- -- -- -- --
 72
    65
 73
     2
 40
6.25
 49
4.75
 49
-1.5
  0
LTYPE
  2
GEN7
 70
     0
  3
____ . ____ . ____ . ____ . ____ . ____ . ____
 72
    65
 73
     4
 40
13.75
 49
9.75
 49
-1.5
 49
1.0
 49
-1.5
  0
LTYPE
  2
GEN3A
 70
     0
  3
 - - - - -
 72
    65
 73
     2
 40
3.125
 49
2.25
 49
-0.875
  0
LTYPE
  2
GEN7A
 70
     0
  3
__ . __ . __
 72
    65
 73
     4
 40
6.875
 49
4.75
 49
-0.875
 49
0.375
 49
-0.875
  0
LTYPE
  2
GEN4A
 70
     0
  3
_____ . . _____ . . _____ . . ____ .. ____
 72
    65
 73
     6
 40
16.25
 49
9.75
 49
-1.5
 49
1.0
 49
-1.5
 49
1.0
 49
-1.5
  0
LTYPE
  2
GENZIGZAG
 70
     0
  3
/\/-/\/-/\/-/\/-/\/-/\/
 72
    65
 73
     2
 40
12.0001
 49
0.0001
 49
-12.0
  0
ENDTAB
  0
TABLE
  2
LAYER
 70
     7
  0
LAYER
  2
0
 70
     0
 62
     7
  6
CONTINUOUS
  0
LAYER
  2
AM_5
 70
     0
 62
     3
  6
CONTINUOUS
  0
LAYER
  2
DEFPOINTS
 70
     0
 62
     7
  6
CONTINUOUS
  0
LAYER
  2
7A
 70
     0
 62
     4
  6
GEN7A
  0
LAYER
  2
RAHM2
 70
     0
 62
     1
  6
CONTINUOUS
  0
LAYER
  2
ユニットパネル取付バ_
 70
     0
 62
     7
  6
CONTINUOUS
  0
LAYER
  2
ﾕﾆｯﾄﾊ_ﾈﾙ取付ﾊ__2
 70
     0
 62
     7
  6
AM_ISO02W050
  0
ENDTAB
  0
TABLE
  2
STYLE
 70
     8
  0
STYLE
  2
STANDARD
 70
     0
 40
0.0
 41
1.0
 50
0.0
 71
     0
 42
1.0
  3
ISOCP.SHX
  4
EXTFONT.SHX
  0
STYLE
  2

 70
     1
 40
0.0
 41
1.0
 50
0.0
 71
     0
 42
2.5
  3
ltypeshp.shx
  4

  0
STYLE
  2
ACISOTS
 70
     0
 40
1.0
 41
1.0
 50
0.0
 71
     0
 42
1.0
  3
isocp.shx
  4
bigfont.shx
  0
STYLE
  2
ACISOGDT
 70
     0
 40
0.0
 41
1.0
 50
0.0
 71
     0
 42
2.5
  3
amgdt.shx
  4

  0
STYLE
  2
USER1
 70
     0
 40
0.0
 41
1.0
 50
0.0
 71
     0
 42
2.5
  3
TXT.SHX
  4

  0
STYLE
  2
USER2
 70
     0
 40
0.0
 41
1.0
 50
0.0
 71
     0
 42
2.5
  3
SIMPLEX.SHX
  4

  0
STYLE
  2
USER3
 70
     0
 40
0.0
 41
1.0
 50
0.0
 71
     0
 42
2.5
  3
ITALIC.SHX
  4

  0
STYLE
  2

 70
     1
 40
0.0
 41
1.0
 50
0.0
 71
     0
 42
3.0
  3
genltshp.shx
  4

  0
ENDTAB
  0
TABLE
  2
VIEW
 70
     6
  0
VIEW
  2
AM_VIEW1
 70
     0
 40
323.74895397489541
 10
201.5
 20
398.12552301255238
 41
403.0
 11
0.0
 21
0.0
 31
1.0
 12
0.0
 22
0.0
 32
0.0
 42
50.0
 43
0.0
 44
0.0
 50
0.0
 71
     0
  0
VIEW
  2
AM_VIEW2
 70
     0
 40
323.74895397489541
 10
604.49999999999989
 20
398.12552301255238
 41
403.0
 11
0.0
 21
0.0
 31
1.0
 12
0.0
 22
0.0
 32
0.0
 42
50.0
 43
0.0
 44
0.0
 50
0.0
 71
     0
  0
VIEW
  2
AM_VIEW3
 70
     0
 40
323.74895397489541
 10
201.5
 20
161.87447698744771
 41
403.0
 11
0.0
 21
0.0
 31
1.0
 12
0.0
 22
0.0
 32
0.0
 42
50.0
 43
0.0
 44
0.0
 50
0.0
 71
     0
  0
VIEW
  2
AM_VIEW4
 70
     0
 40
323.74895397489541
 10
604.49999999999989
 20
161.87447698744771
 41
403.0
 11
0.0
 21
0.0
 31
1.0
 12
0.0
 22
0.0
 32
0.0
 42
50.0
 43
0.0
 44
0.0
 50
0.0
 71
     0
  0
VIEW
  2
AM_VIEW5
 70
     0
 40
323.74895397489541
 10
403.0
 20
280.00000000000011
 41
403.0
 11
0.0
 21
0.0
 31
1.0
 12
0.0
 22
0.0
 32
0.0
 42
50.0
 43
0.0
 44
0.0
 50
0.0
 71
     0
  0
VIEW
  2
AM_VIEW6
 70
     0
 40
647.49143297071123
 10
403.0
 20
280.0
 41
805.99193999999977
 11
0.0
 21
0.0
 31
1.0
 12
0.0
 22
0.0
 32
0.0
 42
50.0
 43
0.0
 44
0.0
 50
0.0
 71
     0
  0
ENDTAB
  0
TABLE
  2
UCS
 70
     0
  0
ENDTAB
  0
TABLE
  2
APPID
 70
    35
  0
APPID
  2
ACAD
 70
     0
  0
APPID
  2
MCAD_NO_VIS
 70
     0
  0
APPID
  2
ACAD_TEMP_GRAPHIC
 70
     0
  0
APPID
  2
ACATTRIBSERVICES
 70
     0
  0
APPID
  2
AD_DRAW
 70
     0
  0
APPID
  2
DESIGNERASSEMBLIES
 70
     0
  0
APPID
  2
ACADM_DIM_EDIT
 70
     0
  0
APPID
  2
AMDT_DM_ADJ
 70
     0
  0
APPID
  2
GENIUS_GENREC_14
 70
     0
  0
APPID
  2
GENIUS_GENODEF_13
 70
     0
  0
APPID
  2
GENIUS_GENOBJ-N-REC_13
 70
     0
  0
APPID
  2
GENIUS_GENCFG_13
 70
     0
  0
APPID
  2
GENIUS_GENCFG0_13
 70
     0
  0
APPID
  2
GENIUS_GENCFG1_13
 70
     0
  0
APPID
  2
GENIUS_GENCFG2_13
 70
     0
  0
APPID
  2
GENIUS_GENCFG3_13
 70
     0
  0
APPID
  2
GENIUS_GENCFG4_13
 70
     0
  0
APPID
  2
GENIUS_GEVCFG0_13
 70
     0
  0
APPID
  2
GENIUS_GENOENT_13
 70
     0
  0
APPID
  2
GENIUS_GENDIMSH_14
 70
     0
  0
APPID
  2
GENIUS_GENOBJ-N-CRS_13
 70
     0
  0
APPID
  2
GENIUS_GENOREF_13
 70
     0
  0
APPID
  2
GENIUS_GENOLIS_13
 70
     0
  0
APPID
  2
GENIUS_GENOBJ-N-TIT_13
 70
     0
  0
APPID
  2
GENIUS_GENTITLE_13
 70
     0
  0
APPID
  2
GENIUS_GENSCREG_15
 70
     0
  0
APPID
  2
GENIUS_GENOBJ-N-SDF_13
 70
     0
  0
APPID
  2
GENIUS_GENOBJ-N-CEN_13
 70
     0
  0
APPID
  2
GENIUS_GENOBJ-N-HTC_13
 70
     0
  0
APPID
  2
GENIUS_GENHATCH_13
 70
     0
  0
APPID
  2
GENIUS_GENOBJ-N-ZOO_13
 70
     0
  0
APPID
  2
GENIUS_GENZOO_17
 70
     0
  0
APPID
  2
RAK
 70
     0
  0
APPID
  2
GENIUS_GENOBJ-N-FIL_13
 70
     0
  0
APPID
  2
GENIUS_GENSCREG_13
 70
     0
  0
ENDTAB
  0
TABLE
  2
DIMSTYLE
 70
    16
  0
DIMSTYLE
  2
ISO-25
 70
     0
  3

  4

  5

  6

  7

 40
1.0
 41
2.5
 42
0.625
 43
3.75
 44
1.25
 45
0.0
 46
0.0
 47
0.0
 48
0.0
140
2.5
141
2.5
142
0.0
143
0.03937007874016
144
1.0
145
0.0
146
1.0
147
0.625
 71
     0
 72
     0
 73
     0
 74
     0
 75
     0
 76
     0
 77
     1
 78
     8
170
     0
171
     3
172
     1
173
     0
174
     0
175
     0
176
     0
177
     0
178
     0
  0
DIMSTYLE
  2
AM_ISO
 70
     0
  3

  4
"
  5

  6

  7

 40
1.0
 41
2.5
 42
1.0
 43
10.0
 44
1.0
 45
0.0
 46
0.0
 47
0.1
 48
0.1
140
3.5
141
0.0
142
0.0
143
0.0393701
144
1.0
145
0.0
146
0.71
147
1.5
 71
     0
 72
     0
 73
     0
 74
     0
 75
     0
 76
     0
 77
     1
 78
     8
170
     0
171
     2
172
     1
173
     0
174
     0
175
     0
176
   256
177
   256
178
     2
  0
DIMSTYLE
  2
AM_ISO$3
 70
     0
  3

  4
"
  5

  6

  7

 40
1.0
 41
2.5
 42
1.0
 43
10.0
 44
1.0
 45
0.0
 46
0.0
 47
0.1
 48
0.1
140
3.5
141
0.0
142
0.0
143
0.0393701
144
1.0
145
0.0
146
0.71
147
1.5
 71
     0
 72
     0
 73
     0
 74
     1
 75
     0
 76
     0
 77
     1
 78
     8
170
     0
171
     2
172
     0
173
     0
174
     0
175
     0
176
   256
177
   256
178
     2
  0
DIMSTYLE
  2
AM_ISO$4
 70
     0
  3

  4
"
  5

  6

  7

 40
1.0
 41
2.5
 42
1.0
 43
10.0
 44
1.0
 45
0.0
 46
0.0
 47
0.1
 48
0.1
140
3.5
141
0.0
142
0.0
143
0.0393701
144
1.0
145
0.0
146
0.71
147
1.5
 71
     0
 72
     0
 73
     0
 74
     1
 75
     0
 76
     0
 77
     1
 78
     8
170
     0
171
     2
172
     0
173
     0
174
     0
175
     0
176
   256
177
   256
178
     2
  0
DIMSTYLE
  2
AM_ISO$6
 70
     0
  3

  4
"
  5

  6

  7

 40
1.0
 41
2.5
 42
1.0
 43
10.0
 44
1.0
 45
0.0
 46
0.0
 47
0.1
 48
0.1
140
3.5
141
0.0
142
0.0
143
0.0393701
144
1.0
145
0.0
146
0.71
147
1.5
 71
     0
 72
     0
 73
     0
 74
     0
 75
     0
 76
     0
 77
     0
 78
     8
170
     0
171
     2
172
     1
173
     0
174
     0
175
     0
176
   256
177
   256
178
     2
  0
DIMSTYLE
  2
AM_ISO$7
 70
     0
  3

  4
"
  5

  6

  7

 40
1.0
 41
2.5
 42
1.0
 43
10.0
 44
1.0
 45
0.0
 46
0.0
 47
0.1
 48
0.1
140
5.0
141
0.0
142
0.0
143
0.0393701
144
1.0
145
0.0
146
0.71
147
1.5
 71
     0
 72
     0
 73
     0
 74
     0
 75
     0
 76
     0
 77
     1
 78
     8
170
     0
171
     2
172
     1
173
     0
174
     0
175
     0
176
   256
177
   256
178
     2
  0
DIMSTYLE
  2
AM_ISO$SF
 70
     0
  3

  4
"
  5

  6

  7

 40
1.0
 41
2.5
 42
1.0
 43
10.0
 44
1.0
 45
0.0
 46
0.0
 47
0.1
 48
0.1
140
3.5
141
0.0
142
0.0
143
0.0393701
144
1.0
145
0.0
146
0.71
147
1.5
 71
     0
 72
     0
 73
     0
 74
     0
 75
     1
 76
     1
 77
     1
 78
     8
170
     0
171
     2
172
     1
173
     0
174
     0
175
     0
176
   256
177
   256
178
     2
  0
DIMSTYLE
  2
AM_ISO$SH
 70
     0
  3

  4
"
  5

  6
GENAXEH
  7

 40
1.0
 41
2.5
 42
1.0
 43
10.0
 44
1.0
 45
0.0
 46
0.0
 47
0.1
 48
0.1
140
3.5
141
0.0
142
0.0
143
0.0393701
144
2.0
145
0.0
146
0.71
147
1.5
 71
     0
 72
     0
 73
     0
 74
     0
 75
     1
 76
     1
 77
     1
 78
     8
170
     0
171
     2
172
     1
173
     1
174
     0
175
     0
176
   256
177
   256
178
     2
  0
DIMSTYLE
  2
GEN-ISO
 70
     0
  3

  4
"
  5

  6

  7

 40
1.0
 41
2.5
 42
1.0
 43
10.0
 44
1.0
 45
0.0
 46
0.0
 47
0.1
 48
0.1
140
3.5
141
0.0
142
0.0
143
0.0393701
144
1.0
145
0.0
146
0.71
147
1.5
 71
     0
 72
     0
 73
     0
 74
     0
 75
     0
 76
     0
 77
     1
 78
     8
170
     0
171
     2
172
     1
173
     0
174
     0
175
     0
176
   256
177
   256
178
     2
  0
DIMSTYLE
  2
GEN-ISO$3
 70
     0
  3

  4
"
  5

  6

  7

 40
1.0
 41
2.5
 42
1.0
 43
10.0
 44
1.0
 45
0.0
 46
0.0
 47
0.1
 48
0.1
140
3.5
141
0.0
142
0.0
143
0.0393701
144
1.0
145
0.0
146
0.71
147
1.5
 71
     0
 72
     0
 73
     0
 74
     1
 75
     0
 76
     0
 77
     1
 78
     8
170
     0
171
     2
172
     0
173
     0
174
     0
175
     0
176
   256
177
   256
178
     2
  0
DIMSTYLE
  2
GEN-ISO$4
 70
     0
  3

  4
"
  5

  6

  7

 40
1.0
 41
2.5
 42
1.0
 43
10.0
 44
1.0
 45
0.0
 46
0.0
 47
0.1
 48
0.1
140
3.5
141
0.0
142
0.0
143
0.0393701
144
1.0
145
0.0
146
0.71
147
1.5
 71
     0
 72
     0
 73
     0
 74
     1
 75
     0
 76
     0
 77
     1
 78
     8
170
     0
171
     2
172
     0
173
     0
174
     0
175
     0
176
   256
177
   256
178
     2
  0
DIMSTYLE
  2
GEN-ISO$6
 70
     0
  3

  4
"
  5

  6

  7

 40
1.0
 41
2.5
 42
1.0
 43
10.0
 44
1.0
 45
0.0
 46
0.0
 47
0.1
 48
0.1
140
3.5
141
0.0
142
0.0
143
0.0393701
144
1.0
145
0.0
146
0.71
147
1.5
 71
     0
 72
     0
 73
     0
 74
     0
 75
     0
 76
     0
 77
     0
 78
     8
170
     0
171
     2
172
     0
173
     0
174
     0
175
     0
176
   256
177
   256
178
     2
  0
DIMSTYLE
  2
GEN-ISO-POS
 70
     0
  3

  4
"
  5

  6

  7

 40
1.0
 41
2.5
 42
1.0
 43
10.0
 44
1.0
 45
0.0
 46
0.0
 47
0.1
 48
0.1
140
5.0
141
0.0
142
0.0
143
0.0393701
144
1.0
145
0.0
146
0.71
147
1.5
 71
     0
 72
     0
 73
     0
 74
     0
 75
     0
 76
     0
 77
     0
 78
     8
170
     0
171
     2
172
     0
173
     0
174
     0
175
     0
176
   256
177
   256
178
     2
  0
DIMSTYLE
  2
GEN-ISO-AXE-F
 70
     0
  3

  4
"
  5

  6

  7

 40
1.0
 41
2.5
 42
1.0
 43
10.0
 44
1.0
 45
0.0
 46
0.0
 47
0.1
 48
0.1
140
3.5
141
0.0
142
0.0
143
0.0393701
144
1.0
145
0.0
146
0.71
147
1.5
 71
     0
 72
     0
 73
     0
 74
     0
 75
     1
 76
     1
 77
     1
 78
     8
170
     0
171
     2
172
     1
173
     0
174
     0
175
     0
176
   256
177
   256
178
     2
  0
DIMSTYLE
  2
GEN-ISO-AXE-H
 70
     0
  3

  4
"
  5

  6

  7

 40
1.0
 41
2.5
 42
1.0
 43
10.0
 44
1.0
 45
0.0
 46
0.0
 47
0.1
 48
0.1
140
3.5
141
0.0
142
0.0
143
0.0393701
144
2.0
145
0.0
146
0.71
147
1.5
 71
     0
 72
     0
 73
     0
 74
     0
 75
     1
 76
     1
 77
     1
 78
     8
170
     0
171
     2
172
     1
173
     1
174
     0
175
     0
176
   256
177
   256
178
     2
  0
DIMSTYLE
  2
AM_ANSI
 70
     0
  3

  4
mm
  5

  6

  7

 40
1.0
 41
0.1
 42
0.05
 43
0.5
 44
0.1
 45
0.0
 46
0.0
 47
0.1
 48
0.1
140
0.12
141
0.0
142
0.0
143
25.399999999999999
144
1.0
145
0.0
146
0.71
147
0.06
 71
     0
 72
     0
 73
     1
 74
     1
 75
     0
 76
     0
 77
     0
 78
     7
170
     0
171
     2
172
     0
173
     0
174
     0
175
     0
176
   256
177
   256
178
     2
  0
ENDTAB
  0
ENDSEC
  0
SECTION
  2
BLOCKS
  0
BLOCK
  8
0
  2
$MODEL_SPACE
 70
     0
 10
0.0
 20
0.0
 30
0.0
  3
$MODEL_SPACE
  1

  0
ENDBLK
  5
21
  8
0
  0
BLOCK
 67
     1
  8
0
  2
$PAPER_SPACE
 70
     0
 10
0.0
 20
0.0
 30
0.0
  3
$PAPER_SPACE
  1

  0
ENDBLK
  5
1D
 67
     1
  8
0
  0
BLOCK
  8
0
  2
GENAXEH
 70
     0
 10
0.0
 20
0.0
 30
0.0
  3
GENAXEH
  1

  0
LINE
  5
88
  8
0
 10
-1.0
 20
0.0
 30
0.0
 11
1.0
 21
0.0
 31
0.0
  0
ENDBLK
  5
8A
  8
0
  0
BLOCK
  8
0
  2
_OPEN30
 70
     0
 10
0.0
 20
0.0
 30
0.0
  3
_OPEN30
  1

  0
LINE
  5
2FD
  8
0
  6
BYBLOCK
 62
     0
 10
-1.0
 20
0.26794919
 30
0.0
 11
0.0
 21
0.0
 31
0.0
  0
LINE
  5
2FE
  8
0
  6
BYBLOCK
 62
     0
 10
0.0
 20
0.0
 30
0.0
 11
-1.0
 21
-0.26794919
 31
0.0
  0
LINE
  5
2FF
  8
0
  6
BYBLOCK
 62
     0
 10
0.0
 20
0.0
 30
0.0
 11
-1.0
 21
0.0
 31
0.0
  0
ENDBLK
  5
300
  8
0
  0
BLOCK
  8
0
  2
TAKACHI-A3
 70
     0
 10
0.0
 20
0.0
 30
0.0
  3
TAKACHI-A3
  1

  0
POLYLINE
  5
328
  8
0
 66
     1
 10
0.0
 20
0.0
 30
0.0
 70
     1
1001
GENIUS_GENREC_14
1002
{
1000
PYDIR
1011
10.000000000000011
1021
0.0
1031
0.0
1021
280.0
1031
0.0
1002
}
1002
{
1000
PXDIR
1011
410.0
1021
0.0
1031
0.0
1021
0.0
1031
0.0
1002
}
1002
{
1000
PORI
1011
10.0
1021
0.0
1031
0.0
1021
0.0
1031
0.0
1002
}
1002
{
1000
PINS
1011
210.0
1021
0.0
1031
0.0
1021
139.99999999999989
1031
0.0
1002
}
1002
{
1000
HVAL
1000
280
1002
}
1002
{
1000
H
1070
     2
1002
}
1002
{
1000
WVAL
1000
400
1002
}
1002
{
1000
W
1070
     2
1002
}
1002
{
1000
C
1070
     4
1002
}
1001
GENIUS_GENODEF_13
1002
{
1000
HIER
1070
     0
1002
}
1002
{
1000
MANEDIT
1070
     0
1002
}
1002
{
1000
NOSEL
1070
     0
1002
}
1002
{
1000
BEHIND
1070
     0
1002
}
1002
{
1000
REACTOR
1002
}
1001
GENIUS_GENOBJ-N-REC_13
1002
{
1000
OWNER
1000
GEN
1002
}
  0
VERTEX
  5
1048
  8
0
 10
10.0
 20
0.0
 30
0.0
  0
VERTEX
  5
1049
  8
0
 10
410.0
 20
0.0
 30
0.0
  0
VERTEX
  5
104A
  8
0
 10
410.0
 20
280.0
 30
0.0
  0
VERTEX
  5
104B
  8
0
 10
10.00000000000003
 20
280.0
 30
0.0
  0
SEQEND
  5
104C
  8
0
  0
TEXT
  5
329
  8
0
 10
15.00000000000003
 20
50.0
 30
0.0
 40
2.5
  1
!GENTITLE-LL
  0
TEXT
  5
32A
  8
0
 10
410.0
 20
0.0
 30
0.0
 40
2.5
  1
!GENTITLE-INSERT
  0
TEXT
  5
32B
  8
0
 10
405.0
 20
275.0
 30
0.0
 40
2.5
  1
!GENTITLE-RU
  0
TEXT
  5
32C
  8
0
 10
410.0
 20
280.0
 30
0.0
 40
2.5
  1
!GENTITLE-MAX
  0
LINE
  5
32D
  8
0
 10
366.0
 20
275.0
 30
0.0
 11
410.0
 21
275.0
 31
0.0
  0
INSERT
  5
32E
  8
RAHM2
  2
*U24
 10
0.0
 20
0.0
 30
0.0
  0
LINE
  5
32F
  8
0
 10
366.0
 20
280.0
 30
0.0
 11
366.0
 21
275.0
 31
0.0
  0
ENDBLK
  5
332
  8
0
  0
BLOCK
  8
0
  2
TAKACHI-TITLE
 70
     2
 10
0.0
 20
0.0
 30
0.0
  3
TAKACHI-TITLE
  1

  0
LINE
  5
341
  8
RAHM2
 10
-195.0
 20
30.000000000000028
 30
0.0
 11
-94.0
 21
30.000000000000028
 31
0.0
  0
LINE
  5
342
  8
RAHM2
 10
-195.0
 20
35.000000000000028
 30
0.0
 11
-94.0
 21
35.000000000000028
 31
0.0
  0
LINE
  5
343
  8
RAHM2
 10
-195.0
 20
40.000000000000021
 30
0.0
 11
-94.0
 21
40.000000000000021
 31
0.0
  0
LINE
  5
344
  8
RAHM2
 10
-195.0
 20
45.000000000000021
 30
0.0
 11
-94.0
 21
45.000000000000021
 31
0.0
  0
LINE
  5
345
  8
0
 10
-195.0
 20
7.0
 30
0.0
 11
-94.0
 21
7.0
 31
0.0
  0
LINE
  5
346
  8
0
 10
-195.0
 20
19.999999999999972
 30
0.0
 11
-94.0
 21
19.999999999999972
 31
0.0
  0
ATTDEF
  5
347
  8
0
 10
-183.24385271456069
 20
8.6175171910947483
 30
0.0
 40
2.5
  1

 11
-183.24385271456069
 21
8.6175171910947483
 31
0.0
  3
サブタイトル
  2
GEN-TITLE-DES2
 70
     0
 74
     1
  0
ATTDEF
  5
348
  8
0
 10
-183.24385271456069
 20
1.6175171910947479
 30
0.0
 40
3.0
  1

 11
-183.24385271456069
 21
1.6175171910947479
 31
0.0
  3
図番
  2
GEN-TITLE-NR
 70
     0
 74
     1
  0
INSERT
  5
349
  8
RAHM2
  2
*U25
 10
0.0
 20
0.0
 30
0.0
  0
ATTDEF
  5
34A
  8
0
 10
-183.24385271456069
 20
13.873952861685011
 30
0.0
 40
4.0
  1

 11
-183.24385271456069
 21
13.873952861685011
 31
0.0
  3
品名
  2
GEN-TITLE-DES1
 70
     0
 74
     1
  0
LINE
  5
34B
  8
RAHM2
 10
-187.57512886940361
 20
30.400000000000041
 30
0.0
 11
-190.0
 21
34.60000000000003
 31
0.0
  0
LINE
  5
34C
  8
RAHM2
 10
-190.0
 20
34.60000000000003
 30
0.0
 11
-192.42487113059639
 21
30.400000000000041
 31
0.0
  0
LINE
  5
34D
  8
RAHM2
 10
-185.0
 20
50.000000000000028
 30
0.0
 11
-185.0
 21
19.99999999999994
 31
0.0
  0
LINE
  5
34E
  8
RAHM2
 10
-192.42487113059639
 20
30.400000000000041
 30
0.0
 11
-187.57512886940361
 21
30.400000000000041
 31
0.0
  0
INSERT
  5
34F
  8
RAHM2
  2
*U26
 10
0.0
 20
0.0
 30
0.0
  0
INSERT
  5
350
  8
RAHM2
  2
*U27
 10
0.0
 20
0.0
 30
0.0
  0
LINE
  5
351
  8
RAHM2
 10
-192.42487113059639
 20
45.400000000000027
 30
0.0
 11
-187.57512886940361
 21
45.400000000000027
 31
0.0
  0
LINE
  5
352
  8
RAHM2
 10
-187.57512886940361
 20
45.400000000000027
 30
0.0
 11
-190.0
 21
49.600000000000023
 31
0.0
  0
LINE
  5
353
  8
RAHM2
 10
-192.42487113059639
 20
40.400000000000027
 30
0.0
 11
-187.57512886940361
 21
40.400000000000027
 31
0.0
  0
LINE
  5
354
  8
RAHM2
 10
-187.57512886940361
 20
40.400000000000027
 30
0.0
 11
-190.0
 21
44.600000000000023
 31
0.0
  0
LINE
  5
355
  8
RAHM2
 10
-192.42487113059639
 20
35.400000000000041
 30
0.0
 11
-187.57512886940361
 21
35.400000000000041
 31
0.0
  0
LINE
  5
356
  8
RAHM2
 10
-187.57512886940361
 20
35.400000000000041
 30
0.0
 11
-190.0
 21
39.600000000000023
 31
0.0
  0
LINE
  5
357
  8
RAHM2
 10
-190.0
 20
39.600000000000023
 30
0.0
 11
-192.42487113059639
 21
35.400000000000041
 31
0.0
  0
LINE
  5
358
  8
RAHM2
 10
-190.0
 20
44.600000000000023
 30
0.0
 11
-192.42487113059639
 21
40.400000000000027
 31
0.0
  0
LINE
  5
359
  8
RAHM2
 10
-190.0
 20
49.600000000000023
 30
0.0
 11
-192.42487113059639
 21
45.400000000000027
 31
0.0
  0
LINE
  5
35A
  8
RAHM2
 10
-129.0
 20
50.000000000000028
 30
0.0
 11
-129.0
 21
19.99999999999994
 31
0.0
  0
INSERT
  5
35B
  8
RAHM2
  2
*U28
 10
0.0
 20
0.0
 30
0.0
  0
LINE
  5
35C
  8
0
 10
-34.0
 20
50.0
 30
0.0
 11
-34.0
 21
0.0
 31
0.0
  0
LINE
  5
35D
  8
0
 10
-94.0
 20
50.0
 30
0.0
 11
-94.0
 21
0.0
 31
0.0
  0
INSERT
  5
35E
  8
RAHM2
  2
*U29
 10
0.0
 20
0.0
 30
0.0
  0
LINE
  5
35F
  8
0
 10
-94.0
 20
10.0
 30
0.0
 11
-34.0
 21
10.0
 31
0.0
  0
ATTDEF
  5
360
  8
0
 10
-58.014051197997453
 20
39.255005561783491
 30
0.0
 40
3.0
  1

 72
     2
 11
-58.014051197997453
 21
39.255005561783491
 31
0.0
  3
尺度
  2
GEN-TITLE-SCA
 70
     0
  0
ATTDEF
  5
361
  8
0
 10
-77.002849666490064
 20
30.621807879434751
 30
0.0
 40
3.0
  1

 11
-77.002849666490064
 21
30.621807879434751
 31
0.0
  3
材質
  2
GEN-TITLE-MAT1
 70
     0
 74
     1
  0
ATTDEF
  5
362
  8
0
 10
-77.002849666490064
 20
20.621807879434751
 30
0.0
 40
3.0
  1

 11
-77.002849666490064
 21
20.621807879434751
 31
0.0
  3
表面処理
  2
GEN-TITLE-MAT2
 70
     0
 74
     1
  0
ATTDEF
  5
363
  8
0
 10
-77.002849666490064
 20
11.61751719109475
 30
0.0
 40
3.0
  1

 11
-77.002849666490064
 21
11.61751719109475
 31
0.0
  3
日付
  2
GEN-TITLE-DAT
 70
     0
 74
     1
  0
LINE
  5
364
  8
0
 10
-94.0
 20
37.5
 30
0.0
 11
-34.0
 21
37.5
 31
0.0
  0
LINE
  5
365
  8
0
 10
-94.0
 20
27.5
 30
0.0
 11
-34.0
 21
27.5
 31
0.0
  0
LINE
  5
366
  8
0
 10
-94.0
 20
17.5
 30
0.0
 11
-34.0
 21
17.5
 31
0.0
  0
LINE
  5
367
  8
RAHM2
 10
-109.0
 20
50.000000000000028
 30
0.0
 11
-109.0
 21
19.99999999999994
 31
0.0
  0
INSERT
  5
368
  8
RAHM2
  2
*U30
 10
0.0
 20
0.0
 30
0.0
  0
INSERT
  5
369
  8
RAHM2
  2
*U31
 10
0.0
 20
0.0
 30
0.0
  0
INSERT
  5
36A
  8
RAHM2
  2
*U32
 10
0.0
 20
0.0
 30
0.0
  0
INSERT
  5
36B
  8
RAHM2
  2
*U33
 10
0.0
 20
0.0
 30
0.0
  0
INSERT
  5
36C
  8
RAHM2
  2
*U34
 10
0.0
 20
0.0
 30
0.0
  0
INSERT
  5
36D
  8
RAHM2
  2
*U35
 10
0.0
 20
0.0
 30
0.0
  0
INSERT
  5
36E
  8
RAHM2
  2
*U36
 10
0.0
 20
0.0
 30
0.0
  0
INSERT
  5
36F
  8
RAHM2
  2
*U37
 10
0.0
 20
0.0
 30
0.0
  0
LINE
  5
370
  8
7A
 10
-89.0
 20
43.75
 30
0.0
 11
-75.218691599714703
 21
43.75
 31
0.0
1001
GENIUS_GENOREF_13
1005
383
  0
LINE
  5
371
  8
0
 10
-84.0
 20
45.75
 30
0.0
 11
-76.0
 21
46.749999999999993
 31
0.0
  0
LINE
  5
372
  8
0
 10
-76.0
 20
40.75
 30
0.0
 11
-84.0
 21
41.749999999999993
 31
0.0
  0
LINE
  5
373
  8
7A
 10
-89.0
 20
43.75
 30
0.0
 11
-89.0
 21
47.324786644731482
 31
0.0
1001
GENIUS_GENOREF_13
1005
383
  0
CIRCLE
  5
374
  8
0
 10
-89.0
 20
43.75
 30
0.0
 40
2.0
  0
CIRCLE
  5
375
  8
0
 10
-89.0
 20
43.75
 30
0.0
 40
3.0
  0
LINE
  5
376
  8
0
 10
-84.0
 20
41.749999999999993
 30
0.0
 11
-84.0
 21
45.75
 31
0.0
  0
INSERT
  5
377
  8
RAHM2
  2
*U38
 10
0.0
 20
0.0
 30
0.0
  0
LINE
  5
378
  8
7A
 10
-89.0
 20
43.75
 30
0.0
 11
-92.723037371251166
 21
43.75
 31
0.0
1001
GENIUS_GENOREF_13
1005
383
  0
LINE
  5
379
  8
7A
 10
-89.0
 20
43.75
 30
0.0
 11
-89.0
 21
40.039917242284787
 31
0.0
1001
GENIUS_GENOREF_13
1005
383
  0
LINE
  5
37A
  8
0
 10
-76.0
 20
46.749999999999993
 30
0.0
 11
-76.0
 21
40.75
 31
0.0
  0
LINE
  5
37B
  8
0
 10
-74.0
 20
50.0
 30
0.0
 11
-74.0
 21
37.5
 31
0.0
  0
INSERT
  5
37C
  8
RAHM2
  2
*U39
 10
0.0
 20
0.0
 30
0.0
  0
ATTDEF
  5
37D
  8
0
 10
-37.76317379391503
 20
39.255005561783491
 30
0.0
 40
3.0
  1

 72
     2
 11
-37.76317379391503
 21
39.255005561783491
 31
0.0
  3
数量
  2
GEN-TITLE-QTY
 70
     0
  0
LINE
  5
37E
  8
0
 10
-34.0
 20
25.0
 30
0.0
 11
0.0
 21
25.0
 31
0.0
  0
LINE
  5
37F
  8
0
 10
-54.0
 20
50.0
 30
0.0
 11
-54.0
 21
37.5
 31
0.0
  0
INSERT
  5
380
  8
RAHM2
  2
*U40
 10
0.0
 20
0.0
 30
0.0
  0
INSERT
  5
381
  8
RAHM2
  2
*U41
 10
0.0
 20
0.0
 30
0.0
  0
INSERT
  5
382
  8
RAHM2
  2
*U42
 10
0.0
 20
0.0
 30
0.0
  0
POINT
  5
383
  8
0
 10
-320.5355579819676
 20
-138.11048412682541
 30
0.0
1001
GENIUS_GENODEF_13
1002
{
1000
HIER
1070
    10
1002
}
1002
{
1000
MANEDIT
1070
     0
1002
}
1002
{
1000
NOSEL
1070
     0
1002
}
1002
{
1000
BEHIND
1070
     0
1002
}
1002
{
1000
REACTOR
1002
}
1001
GENIUS_GENOBJ-N-CRS_13
1002
{
1000
OWNER
1000
GEN
1002
}
1001
GENIUS_GENOENT_13
1002
{
1000
MYREF
1005
383
1002
}
1002
{
1000
GRP
1005
0
1002
}
1001
GENIUS_GENOLIS_13
1002
{
1000
ENT
1005
379
1005
378
1005
373
1005
370
1002
}
  0
LINE
  5
384
  8
RAHM2
 10
-190.0
 20
29.600000000000019
 30
0.0
 11
-192.42487113059639
 21
25.400000000000041
 31
0.0
  0
LINE
  5
385
  8
RAHM2
 10
-187.57512886940361
 20
25.400000000000041
 30
0.0
 11
-190.0
 21
29.600000000000019
 31
0.0
  0
LINE
  5
386
  8
RAHM2
 10
-192.42487113059639
 20
25.400000000000041
 30
0.0
 11
-187.57512886940361
 21
25.400000000000041
 31
0.0
  0
LINE
  5
387
  8
RAHM2
 10
-195.0
 20
25.000000000000028
 30
0.0
 11
-94.0
 21
25.000000000000028
 31
0.0
  0
INSERT
  5
388
  8
RAHM2
  2
*U43
 10
0.0
 20
0.0
 30
0.0
  0
TEXT
  5
389
  8
RAHM2
 10
-190.8155863565801
 20
25.650000000000031
 30
0.0
 40
2.5
  1
1
 72
     1
 11
-190.19058635658021
 21
25.650000000000031
 31
0.0
 73
     1
  0
TEXT
  5
38A
  8
RAHM2
 10
-190.9183316929134
 20
30.650000000000031
 30
0.0
 40
2.5
  1
2
 72
     1
 11
-190.0
 21
30.650000000000031
 31
0.0
 73
     1
  0
TEXT
  5
38B
  8
RAHM2
 10
-190.92677669529661
 20
35.650000000000013
 30
0.0
 40
2.5
  1
3
 72
     1
 11
-190.0
 21
35.650000000000013
 31
0.0
 73
     1
  0
TEXT
  5
38C
  8
RAHM2
 10
-191.0
 20
40.650000000000027
 30
0.0
 40
2.5
  1
4
 72
     1
 11
-190.0
 21
40.650000000000027
 31
0.0
 73
     1
  0
TEXT
  5
38D
  8
RAHM2
 10
-190.92677669529661
 20
45.650000000000027
 30
0.0
 40
2.5
  1
5
 72
     1
 11
-190.0
 21
45.650000000000027
 31
0.0
 73
     1
  0
LINE
  5
38E
  8
0
 10
-17.0
 20
50.0
 30
0.0
 11
-17.0
 21
0.0
 31
0.0
  0
LINE
  5
38F
  8
0
 10
-195.0
 20
0.0
 30
0.0
 11
0.0
 21
0.0
 31
0.0
1001
GENIUS_GENREC_14
1002
{
1000
PYDIR
1011
-184.0
1021
0.0
1031
0.0
1021
50.0
1031
0.0
1002
}
1002
{
1000
PXDIR
1011
0.0
1021
0.0
1031
0.0
1021
0.0
1031
0.0
1002
}
1002
{
1000
PORI
1011
-184.0
1021
0.0
1031
0.0
1021
0.0
1031
0.0
1002
}
1002
{
1000
PINS
1011
-100.5
1021
0.0
1031
0.0
1021
25.0
1031
0.0
1002
}
1002
{
1000
HVAL
1000
50
1002
}
1002
{
1000
H
1070
     2
1002
}
1002
{
1000
WVAL
1000
167
1002
}
1002
{
1000
W
1070
     2
1002
}
1002
{
1000
C
1070
     4
1002
}
1001
GENIUS_GENODEF_13
1002
{
1000
HIER
1070
     0
1002
}
1002
{
1000
MANEDIT
1070
     0
1002
}
1002
{
1000
NOSEL
1070
     0
1002
}
1002
{
1000
BEHIND
1070
     0
1002
}
1002
{
1000
REACTOR
1002
}
1001
GENIUS_GENOBJ-N-REC_13
1002
{
1000
OWNER
1000
GEN
1002
}
  0
LINE
  5
390
  8
0
 10
0.0
 20
0.0
 30
0.0
 11
0.0
 21
50.0
 31
0.0
1001
GENIUS_GENREC_14
1002
{
1000
PYDIR
1011
-184.0
1021
0.0
1031
0.0
1021
50.0
1031
0.0
1002
}
1002
{
1000
PXDIR
1011
0.0
1021
0.0
1031
0.0
1021
0.0
1031
0.0
1002
}
1002
{
1000
PORI
1011
-184.0
1021
0.0
1031
0.0
1021
0.0
1031
0.0
1002
}
1002
{
1000
PINS
1011
-100.5
1021
0.0
1031
0.0
1021
25.0
1031
0.0
1002
}
1002
{
1000
HVAL
1000
50
1002
}
1002
{
1000
H
1070
     2
1002
}
1002
{
1000
WVAL
1000
167
1002
}
1002
{
1000
W
1070
     2
1002
}
1002
{
1000
C
1070
     4
1002
}
1001
GENIUS_GENODEF_13
1002
{
1000
HIER
1070
     0
1002
}
1002
{
1000
MANEDIT
1070
     0
1002
}
1002
{
1000
NOSEL
1070
     0
1002
}
1002
{
1000
BEHIND
1070
     0
1002
}
1002
{
1000
REACTOR
1002
}
1001
GENIUS_GENOBJ-N-REC_13
1002
{
1000
OWNER
1000
GEN
1002
}
  0
LINE
  5
391
  8
0
 10
0.0
 20
50.0
 30
0.0
 11
-195.0
 21
50.000000000000028
 31
0.0
1001
GENIUS_GENREC_14
1002
{
1000
PYDIR
1011
-184.0
1021
0.0
1031
0.0
1021
50.0
1031
0.0
1002
}
1002
{
1000
PXDIR
1011
0.0
1021
0.0
1031
0.0
1021
0.0
1031
0.0
1002
}
1002
{
1000
PORI
1011
-184.0
1021
0.0
1031
0.0
1021
0.0
1031
0.0
1002
}
1002
{
1000
PINS
1011
-100.5
1021
0.0
1031
0.0
1021
25.0
1031
0.0
1002
}
1002
{
1000
HVAL
1000
50
1002
}
1002
{
1000
H
1070
     2
1002
}
1002
{
1000
WVAL
1000
167
1002
}
1002
{
1000
W
1070
     2
1002
}
1002
{
1000
C
1070
     4
1002
}
1001
GENIUS_GENODEF_13
1002
{
1000
HIER
1070
     0
1002
}
1002
{
1000
MANEDIT
1070
     0
1002
}
1002
{
1000
NOSEL
1070
     0
1002
}
1002
{
1000
BEHIND
1070
     0
1002
}
1002
{
1000
REACTOR
1002
}
1001
GENIUS_GENOBJ-N-REC_13
1002
{
1000
OWNER
1000
GEN
1002
}
  0
LINE
  5
392
  8
0
 10
-195.0
 20
50.000000000000028
 30
0.0
 11
-195.0
 21
0.0
 31
0.0
1001
GENIUS_GENREC_14
1002
{
1000
PYDIR
1011
-195.0
1021
0.0
1031
0.0
1021
50.0
1031
0.0
1002
}
1002
{
1000
PXDIR
1011
-11.0
1021
0.0
1031
0.0
1021
0.0
1031
0.0
1002
}
1002
{
1000
PORI
1011
-195.0
1021
0.0
1031
0.0
1021
0.0
1031
0.0
1002
}
1002
{
1000
PINS
1011
-111.5
1021
0.0
1031
0.0
1021
25.0
1031
0.0
1002
}
1002
{
1000
HVAL
1000
50
1002
}
1002
{
1000
H
1070
     2
1002
}
1002
{
1000
WVAL
1000
167
1002
}
1002
{
1000
W
1070
     2
1002
}
1002
{
1000
C
1070
     4
1002
}
1001
GENIUS_GENODEF_13
1002
{
1000
HIER
1070
     0
1002
}
1002
{
1000
MANEDIT
1070
     0
1002
}
1002
{
1000
NOSEL
1070
     0
1002
}
1002
{
1000
BEHIND
1070
     0
1002
}
1002
{
1000
REACTOR
1002
}
1001
GENIUS_GENOBJ-N-REC_13
1002
{
1000
OWNER
1000
GEN
1002
}
  0
INSERT
  5
393
  8
RAHM2
  2
*U44
 10
0.0
 20
0.0
 30
0.0
  0
INSERT
  5
394
  8
RAHM2
  2
*U45
 10
0.0
 20
0.0
 30
0.0
  0
ENDBLK
  5
397
  8
0
  0
BLOCK
  8
0
  2
*D6
 70
     1
 10
0.0
 20
0.0
 30
0.0
  3
*D6
  1

  0
LINE
  5
B13
  8
AM_5
 10
190.64019102620159
 20
354.55893113437469
 30
0.0
 11
190.64019102620159
 21
398.55893213437298
 31
0.0
  0
LINE
  5
B14
  8
AM_5
 10
610.64019102620148
 20
354.55893113437469
 30
0.0
 11
610.64019102620148
 21
398.55893213437298
 31
0.0
  0
LINE
  5
B15
  8
AM_5
 10
195.64019102620159
 20
396.55893213437298
 30
0.0
 11
605.64019102620159
 21
396.55893213437298
 31
0.0
  0
SOLID
  5
B16
  8
AM_5
 10
195.64019102620159
 20
397.3922654677063
 30
0.0
 11
195.64019102620159
 21
395.72559880103972
 31
0.0
 12
190.64019102620159
 22
396.55893213437298
 32
0.0
 13
190.64019102620159
 23
396.55893213437298
 33
0.0
  0
SOLID
  5
B17
  8
AM_5
 10
605.64019102620159
 20
397.3922654677063
 30
0.0
 11
605.64019102620159
 21
395.72559880103972
 31
0.0
 12
610.64019102620148
 22
396.55893213437298
 32
0.0
 13
610.64019102620148
 23
396.55893213437298
 33
0.0
  0
INSERT
  5
B18
  8
RAHM2
  2
*U46
 10
0.0
 20
0.0
 30
0.0
  0
POINT
  5
B19
  8
DEFPOINTS
 62
     0
 10
190.64019102620159
 20
352.55893113437469
 30
0.0
  0
POINT
  5
B1A
  8
DEFPOINTS
 62
     0
 10
610.64019102620148
 20
352.55893113437469
 30
0.0
  0
POINT
  5
B1B
  8
DEFPOINTS
 62
     0
 10
610.64019102620148
 20
396.55893213437298
 30
0.0
  0
ENDBLK
  5
AFE
  8
0
  0
BLOCK
  8
0
  2
*D7
 70
     1
 10
0.0
 20
0.0
 30
0.0
  3
*D7
  1

  0
LINE
  5
B51
  8
AM_5
 10
699.07376060124852
 20
354.55893113437457
 30
0.0
 11
699.07376060124852
 21
378.55893113437457
 31
0.0
  0
LINE
  5
B52
  8
AM_5
 10
697.87376060124848
 20
354.55893113437457
 30
0.0
 11
697.87376060124848
 21
378.55893113437457
 31
0.0
  0
LINE
  5
B53
  8
AM_5
 10
704.07376060124852
 20
376.55893113437457
 30
0.0
 11
709.07376060124852
 21
376.55893113437457
 31
0.0
  0
LINE
  5
B54
  8
AM_5
 10
692.87376060124836
 20
376.55893113437457
 30
0.0
 11
673.0533472154217
 21
376.55893113437457
 31
0.0
  0
LINE
  5
B55
  8
AM_5
 10
699.07376060124852
 20
376.55893113437457
 30
0.0
 11
697.87376060124848
 21
376.55893113437457
 31
0.0
  0
SOLID
  5
B56
  8
AM_5
 10
704.07376060124852
 20
377.39226446770789
 30
0.0
 11
704.07376060124852
 21
375.72559780104132
 31
0.0
 12
699.07376060124852
 22
376.55893113437457
 32
0.0
 13
699.07376060124852
 23
376.55893113437457
 33
0.0
  0
SOLID
  5
B57
  8
AM_5
 10
692.87376060124836
 20
377.39226446770789
 30
0.0
 11
692.87376060124836
 21
375.72559780104132
 31
0.0
 12
697.87376060124848
 22
376.55893113437457
 32
0.0
 13
697.87376060124848
 23
376.55893113437457
 33
0.0
  0
INSERT
  5
B58
  8
RAHM2
  2
*U47
 10
0.0
 20
0.0
 30
0.0
  0
POINT
  5
B59
  8
DEFPOINTS
 62
     0
 10
699.07376060124852
 20
352.55893113437457
 30
0.0
  0
POINT
  5
B5A
  8
DEFPOINTS
 62
     0
 10
697.87376060124848
 20
352.55893113437457
 30
0.0
  0
POINT
  5
B5B
  8
DEFPOINTS
 62
     0
 10
697.87376060124848
 20
376.55893113437457
 30
0.0
  0
ENDBLK
  5
B38
  8
0
  0
BLOCK
  8
0
  2
*D8
 70
     1
 10
0.0
 20
0.0
 30
0.0
  3
*D8
  1

  0
LINE
  5
B91
  8
AM_5
 10
697.87376060124848
 20
354.55893113437457
 30
0.0
 11
697.87376060124848
 21
398.55893113437457
 31
0.0
  0
LINE
  5
B92
  8
AM_5
 10
712.87376060124836
 20
354.55893113437457
 30
0.0
 11
712.87376060124836
 21
398.55893113437457
 31
0.0
  0
LINE
  5
B93
  8
AM_5
 10
692.87376060124836
 20
396.55893113437457
 30
0.0
 11
687.87376060124836
 21
396.55893113437457
 31
0.0
  0
LINE
  5
B94
  8
AM_5
 10
717.87376060124836
 20
396.55893113437457
 30
0.0
 11
722.87376060124848
 21
396.55893113437457
 31
0.0
  0
LINE
  5
B95
  8
AM_5
 10
697.87376060124848
 20
396.55893113437457
 30
0.0
 11
712.87376060124836
 21
396.55893113437457
 31
0.0
  0
SOLID
  5
B96
  8
AM_5
 10
692.87376060124836
 20
397.39226446770789
 30
0.0
 11
692.87376060124836
 21
395.72559780104132
 31
0.0
 12
697.87376060124848
 22
396.55893113437457
 32
0.0
 13
697.87376060124848
 23
396.55893113437457
 33
0.0
  0
SOLID
  5
B97
  8
AM_5
 10
717.87376060124836
 20
397.39226446770789
 30
0.0
 11
717.87376060124836
 21
395.72559780104132
 31
0.0
 12
712.87376060124836
 22
396.55893113437457
 32
0.0
 13
712.87376060124836
 23
396.55893113437457
 33
0.0
  0
INSERT
  5
B98
  8
RAHM2
  2
*U48
 10
0.0
 20
0.0
 30
0.0
  0
POINT
  5
B99
  8
DEFPOINTS
 62
     0
 10
697.87376060124848
 20
352.55893113437457
 30
0.0
  0
POINT
  5
B9A
  8
DEFPOINTS
 62
     0
 10
712.87376060124836
 20
352.55893113437457
 30
0.0
  0
POINT
  5
B9B
  8
DEFPOINTS
 62
     0
 10
712.87376060124836
 20
396.55893113437457
 30
0.0
  0
ENDBLK
  5
B78
  8
0
  0
BLOCK
  8
0
  2
*D9
 70
     1
 10
0.0
 20
0.0
 30
0.0
  3
*D9
  1

  0
LINE
  5
10B1
  8
AM_5
 10
196.14019102620159
 20
346.55893113437497
 30
0.0
 11
164.64019102620159
 21
346.55893113437497
 31
0.0
  0
LINE
  5
10B2
  8
AM_5
 10
188.64019102620159
 20
352.55893113437469
 30
0.0
 11
164.64019102620159
 21
352.55893113437469
 31
0.0
  0
LINE
  5
10B3
  8
AM_5
 10
166.64019102620159
 20
346.55893113437497
 30
0.0
 11
166.64019102620159
 21
341.55893113437497
 31
0.0
  0
LINE
  5
10B4
  8
AM_5
 10
166.64019102620159
 20
357.5589311343748
 30
0.0
 11
166.64019102620159
 21
372.12507286665829
 31
0.0
  0
LINE
  5
10B5
  8
AM_5
 10
166.64019102620159
 20
346.55893113437497
 30
0.0
 11
166.64019102620159
 21
352.55893113437469
 31
0.0
  0
INSERT
  5
10B6
  8
AM_5
  2
_DOTSMALL
 10
166.64019102620159
 20
346.55893113437497
 30
0.0
 41
5.0
 42
5.0
 43
5.0
 50
90.0
  0
SOLID
  5
10B7
  8
AM_5
 10
165.80685769286819
 20
357.5589311343748
 30
0.0
 11
167.47352435953491
 21
357.5589311343748
 31
0.0
 12
166.64019102620159
 22
352.55893113437469
 32
0.0
 13
166.64019102620159
 23
352.55893113437469
 33
0.0
  0
TEXT
  8
AM_5
  40
7
  5
1162
  62
2
  72
0
  71
0
 10
160.140
 20
358.242
 30
0.000000
  1
6
  0
POINT
  5
10B9
  8
DEFPOINTS
 62
     0
 10
198.14019102620159
 20
346.55893113437497
 30
0.0
  0
POINT
  5
10BA
  8
DEFPOINTS
 62
     0
 10
190.64019102620159
 20
352.55893113437469
 30
0.0
  0
POINT
  5
10BB
  8
DEFPOINTS
 62
     0
 10
166.64019102620159
 20
352.55893113437469
 30
0.0
  0
ENDBLK
  5
BB8
  8
0
  0
BLOCK
  8
0
  2
*D10
 70
     1
 10
0.0
 20
0.0
 30
0.0
  3
*D10
  1

  0
LINE
  5
10BC
  8
AM_5
 10
196.14019102620159
 20
346.55893113437497
 30
0.0
 11
164.64019102620159
 21
346.55893113437497
 31
0.0
  0
LINE
  5
10BD
  8
AM_5
 10
189.84019102620161
 20
340.5589311343748
 30
0.0
 11
164.64019102620159
 21
340.5589311343748
 31
0.0
  0
LINE
  5
10BE
  8
AM_5
 10
166.64019102620159
 20
346.55893113437497
 30
0.0
 11
166.64019102620159
 21
351.55893113437497
 31
0.0
  0
LINE
  5
10BF
  8
AM_5
 10
166.64019102620159
 20
335.55893113437469
 30
0.0
 11
166.64019102620159
 21
320.99278940209132
 31
0.0
  0
LINE
  5
10C0
  8
AM_5
 10
166.64019102620159
 20
346.55893113437497
 30
0.0
 11
166.64019102620159
 21
340.5589311343748
 31
0.0
  0
INSERT
  5
10C1
  8
AM_5
  2
_DOTSMALL
 10
166.64019102620159
 20
346.55893113437497
 30
0.0
 41
5.0
 42
5.0
 43
5.0
 50
270.0
  0
SOLID
  5
10C2
  8
AM_5
 10
165.80685769286819
 20
335.55893113437469
 30
0.0
 11
167.47352435953491
 21
335.55893113437469
 31
0.0
 12
166.64019102620159
 22
340.5589311343748
 32
0.0
 13
166.64019102620159
 23
340.5589311343748
 33
0.0
  0
TEXT
  8
AM_5
  40
7
  5
1163
  62
2
  72
0
  71
0
 10
160.140
 20
316.676
 30
0.000000
  1
6
  0
POINT
  5
10C4
  8
DEFPOINTS
 62
     0
 10
198.14019102620159
 20
346.55893113437497
 30
0.0
  0
POINT
  5
10C5
  8
DEFPOINTS
 62
     0
 10
191.84019102620161
 20
340.5589311343748
 30
0.0
  0
POINT
  5
10C6
  8
DEFPOINTS
 62
     0
 10
166.64019102620159
 20
340.5589311343748
 30
0.0
  0
ENDBLK
  5
BF8
  8
0
  0
BLOCK
  8
0
  2
*D11
 70
     1
 10
0.0
 20
0.0
 30
0.0
  3
*D11
  1

  0
LINE
  5
10C7
  8
AM_5
 10
189.84019102620161
 20
340.5589311343748
 30
0.0
 11
144.64019102620159
 21
340.5589311343748
 31
0.0
  0
LINE
  5
10C8
  8
AM_5
 10
188.64019102620159
 20
352.55893113437469
 30
0.0
 11
144.64019102620159
 21
352.55893113437469
 31
0.0
  0
LINE
  5
10C9
  8
AM_5
 10
146.64019102620159
 20
335.55893113437469
 30
0.0
 11
146.64019102620159
 21
330.5589311343748
 31
0.0
  0
LINE
  5
10CA
  8
AM_5
 10
146.64019102620159
 20
357.5589311343748
 30
0.0
 11
146.64019102620159
 21
362.55893113437469
 31
0.0
  0
TEXT
  8
AM_5
  40
7
  5
1164
  62
2
  72
0
  71
0
 10
139.769
 20
337.736
 30
0.000000
  1
12
  0
LINE
  5
10CC
  8
AM_5
 10
146.64019102620159
 20
340.5589311343748
 30
0.0
 11
146.64019102620159
 21
352.55893113437469
 31
0.0
  0
SOLID
  5
10CD
  8
AM_5
 10
145.80685769286819
 20
335.55893113437469
 30
0.0
 11
147.47352435953491
 21
335.55893113437469
 31
0.0
 12
146.64019102620159
 22
340.5589311343748
 32
0.0
 13
146.64019102620159
 23
340.5589311343748
 33
0.0
  0
SOLID
  5
10CE
  8
AM_5
 10
145.80685769286819
 20
357.5589311343748
 30
0.0
 11
147.47352435953491
 21
357.5589311343748
 31
0.0
 12
146.64019102620159
 22
352.55893113437469
 32
0.0
 13
146.64019102620159
 23
352.55893113437469
 33
0.0
  0
POINT
  5
10CF
  8
DEFPOINTS
 62
     0
 10
191.84019102620161
 20
340.5589311343748
 30
0.0
  0
POINT
  5
10D0
  8
DEFPOINTS
 62
     0
 10
190.64019102620159
 20
352.55893113437469
 30
0.0
  0
POINT
  5
10D1
  8
DEFPOINTS
 62
     0
 10
146.64019102620159
 20
352.55893113437469
 30
0.0
  0
ENDBLK
  5
C38
  8
0
  0
BLOCK
  8
0
  2
*D12
 70
     1
 10
0.0
 20
0.0
 30
0.0
  3
*D12
  1

  0
LINE
  5
10D2
  8
AM_5
 10
194.14019102620159
 20
205.2478823931358
 30
0.0
 11
164.64019102620171
 21
205.2478823931358
 31
0.0
  0
LINE
  5
10D3
  8
AM_5
 10
188.64019102620171
 20
197.74788239313551
 30
0.0
 11
164.64019102620171
 21
197.74788239313551
 31
0.0
  0
LINE
  5
10D4
  8
AM_5
 10
166.64019102620171
 20
210.2478823931358
 30
0.0
 11
166.64019102620171
 21
215.2478823931358
 31
0.0
  0
LINE
  5
10D5
  8
AM_5
 10
166.64019102620171
 20
192.74788239313551
 30
0.0
 11
166.64019102620171
 21
187.74788239313551
 31
0.0
  0
TEXT
  8
AM_5
  40
7
  5
1165
  62
2
  72
0
  71
0
 10
160.390
 20
179.803
 30
0.000000
  1
7.5
  0
LINE
  5
10D7
  8
AM_5
 10
166.64019102620171
 20
205.2478823931358
 30
0.0
 11
166.64019102620171
 21
197.74788239313551
 31
0.0
  0
INSERT
  5
10D8
  8
AM_5
  2
GENDOT
 10
166.64019102620171
 20
205.2478823931358
 30
0.0
 41
5.0
 42
5.0
 43
5.0
 50
270.0
  0
SOLID
  5
10D9
  8
AM_5
 10
165.80685769286831
 20
192.74788239313551
 30
0.0
 11
167.47352435953499
 21
192.74788239313551
 31
0.0
 12
166.64019102620171
 22
197.74788239313551
 32
0.0
 13
166.64019102620171
 23
197.74788239313551
 33
0.0
  0
POINT
  5
10DA
  8
DEFPOINTS
 62
     0
 10
196.14019102620159
 20
205.2478823931358
 30
0.0
  0
POINT
  5
10DB
  8
DEFPOINTS
 62
     0
 10
190.64019102620171
 20
197.74788239313551
 30
0.0
  0
POINT
  5
10DC
  8
DEFPOINTS
 62
     0
 10
166.64019102620171
 20
197.74788239313551
 30
0.0
  0
ENDBLK
  5
CB8
  8
0
  0
BLOCK
  8
0
  2
*D13
 70
     1
 10
0.0
 20
0.0
 30
0.0
  3
*D13
  1

  0
LINE
  5
10DD
  8
AM_5
 10
188.64019102620171
 20
212.74788239313551
 30
0.0
 11
164.64019102620171
 21
212.74788239313551
 31
0.0
  0
LINE
  5
10DE
  8
AM_5
 10
194.14019102620159
 20
205.2478823931358
 30
0.0
 11
164.64019102620171
 21
205.2478823931358
 31
0.0
  0
LINE
  5
10DF
  8
AM_5
 10
166.64019102620171
 20
217.74788239313551
 30
0.0
 11
166.64019102620171
 21
222.74788239313551
 31
0.0
  0
LINE
  5
10E0
  8
AM_5
 10
166.64019102620171
 20
205.2478823931358
 30
0.0
 11
166.64019102620171
 21
200.2478823931358
 31
0.0
  0
TEXT
  8
AM_5
  40
7
  5
1166
  62
2
  72
0
  71
0
 10
159.502
 20
211.224
 30
0.000000
  1
7.5
  0
LINE
  5
10E2
  8
AM_5
 10
166.64019102620171
 20
212.74788239313551
 30
0.0
 11
166.64019102620171
 21
205.2478823931358
 31
0.0
  0
SOLID
  5
10E3
  8
AM_5
 10
165.80685769286831
 20
217.74788239313551
 30
0.0
 11
167.47352435953499
 21
217.74788239313551
 31
0.0
 12
166.64019102620171
 22
212.74788239313551
 32
0.0
 13
166.64019102620171
 23
212.74788239313551
 33
0.0
  0
INSERT
  5
10E4
  8
AM_5
  2
_DOTSMALL
 10
166.64019102620171
 20
205.2478823931358
 30
0.0
 41
5.0
 42
5.0
 43
5.0
 50
90.0
  0
POINT
  5
10E5
  8
DEFPOINTS
 62
     0
 10
190.64019102620171
 20
212.74788239313551
 30
0.0
  0
POINT
  5
10E6
  8
DEFPOINTS
 62
     0
 10
196.14019102620159
 20
205.2478823931358
 30
0.0
  0
POINT
  5
10E7
  8
DEFPOINTS
 62
     0
 10
166.64019102620171
 20
205.2478823931358
 30
0.0
  0
ENDBLK
  5
CEA
  8
0
  0
BLOCK
  8
0
  2
GENDOT
 70
     0
 10
0.0
 20
0.0
 30
0.0
  3
GENDOT
  1

  0
LINE
  5
D0F
  8
0
 10
0.0
 20
0.0
 30
0.0
 11
-1.0
 21
0.0
 31
0.0
  0
POLYLINE
  5
D10
  8
0
 66
     1
 10
0.0
 20
0.0
 30
0.0
 70
     1
 40
0.25
 41
0.25
  0
VERTEX
  5
10E8
  8
0
 10
-0.125
 20
0.0
 30
0.0
 42
1.0
  0
VERTEX
  5
10E9
  8
0
 10
0.125
 20
0.0
 30
0.0
 42
1.0
  0
SEQEND
  5
10EA
  8
0
  0
ENDBLK
  5
D12
  8
0
  0
BLOCK
  8
0
  2
*D15
 70
     1
 10
0.0
 20
0.0
 30
0.0
  3
*D15
  1

  0
LINE
  5
D69
  8
AM_5
 10
188.64019102620171
 20
212.74788239313551
 30
0.0
 11
144.64019102620159
 21
212.74788239313551
 31
0.0
  0
LINE
  5
D6A
  8
AM_5
 10
186.64019102620171
 20
197.74788239313551
 30
0.0
 11
144.64019102620159
 21
197.74788239313551
 31
0.0
  0
LINE
  5
D6B
  8
AM_5
 10
146.64019102620159
 20
217.74788239313551
 30
0.0
 11
146.64019102620159
 21
222.74788239313551
 31
0.0
  0
LINE
  5
D6C
  8
AM_5
 10
146.64019102620159
 20
192.74788239313551
 30
0.0
 11
146.64019102620159
 21
187.74788239313551
 31
0.0
  0
LINE
  5
D6D
  8
AM_5
 10
146.64019102620159
 20
212.74788239313551
 30
0.0
 11
146.64019102620159
 21
197.74788239313551
 31
0.0
  0
SOLID
  5
D6E
  8
AM_5
 10
145.80685769286831
 20
217.74788239313551
 30
0.0
 11
147.47352435953499
 21
217.74788239313551
 31
0.0
 12
146.64019102620159
 22
212.74788239313551
 32
0.0
 13
146.64019102620159
 23
212.74788239313551
 33
0.0
  0
SOLID
  5
D6F
  8
AM_5
 10
145.80685769286831
 20
192.74788239313551
 30
0.0
 11
147.47352435953499
 21
192.74788239313551
 31
0.0
 12
146.64019102620159
 22
197.74788239313551
 32
0.0
 13
146.64019102620159
 23
197.74788239313551
 33
0.0
  0
INSERT
  5
D70
  8
RAHM2
  2
*U49
 10
0.0
 20
0.0
 30
0.0
  0
POINT
  5
D71
  8
DEFPOINTS
 62
     0
 10
190.64019102620171
 20
212.74788239313551
 30
0.0
  0
POINT
  5
D72
  8
DEFPOINTS
 62
     0
 10
188.64019102620171
 20
197.74788239313551
 30
0.0
  0
POINT
  5
D73
  8
DEFPOINTS
 62
     0
 10
146.64019102620159
 20
197.74788239313551
 30
0.0
  0
ENDBLK
  5
D50
  8
0
  0
BLOCK
  8
0
  2
_DOTSMALL
 70
     0
 10
0.0
 20
0.0
 30
0.0
  3
_DOTSMALL
  1

  0
POLYLINE
  5
DA5
  8
0
  6
BYBLOCK
 62
     0
 66
     1
 10
0.0
 20
0.0
 30
0.0
 70
     1
 40
0.5
 41
0.5
  0
VERTEX
  5
10EF
  8
0
  6
BYBLOCK
 62
     0
 10
-0.0625
 20
0.0
 30
0.0
 42
1.0
  0
VERTEX
  5
10F0
  8
0
  6
BYBLOCK
 62
     0
 10
0.0625
 20
0.0
 30
0.0
 42
1.0
  0
SEQEND
  5
10F1
  8
0
  6
BYBLOCK
 62
     0
  0
ENDBLK
  5
DA7
  8
0
  0
BLOCK
  8
0
  2
*D17
 70
     1
 10
0.0
 20
0.0
 30
0.0
  3
*D17
  1

  0
LINE
  5
E4F
  8
AM_5
 10
200.64019102620159
 20
211.7478823931358
 30
0.0
 11
200.64019102620159
 21
238.74788239313551
 31
0.0
  0
LINE
  5
E50
  8
AM_5
 10
190.64019102620171
 20
214.74788239313551
 30
0.0
 11
190.64019102620171
 21
238.74788239313551
 31
0.0
  0
LINE
  5
E51
  8
AM_5
 10
205.64019102620159
 20
236.74788239313551
 30
0.0
 11
210.64019102620159
 21
236.74788239313551
 31
0.0
  0
LINE
  5
E52
  8
AM_5
 10
185.64019102620171
 20
236.74788239313551
 30
0.0
 11
168.33467921517811
 21
236.74788239313551
 31
0.0
  0
LINE
  5
E53
  8
AM_5
 10
200.64019102620159
 20
236.74788239313551
 30
0.0
 11
190.64019102620171
 21
236.74788239313551
 31
0.0
  0
SOLID
  5
E54
  8
AM_5
 10
205.64019102620159
 20
237.58121572646891
 30
0.0
 11
205.64019102620159
 21
235.9145490598022
 31
0.0
 12
200.64019102620159
 22
236.74788239313551
 32
0.0
 13
200.64019102620159
 23
236.74788239313551
 33
0.0
  0
SOLID
  5
E55
  8
AM_5
 10
185.64019102620171
 20
237.58121572646891
 30
0.0
 11
185.64019102620171
 21
235.9145490598022
 31
0.0
 12
190.64019102620171
 22
236.74788239313551
 32
0.0
 13
190.64019102620171
 23
236.74788239313551
 33
0.0
  0
INSERT
  5
E56
  8
RAHM2
  2
*U50
 10
0.0
 20
0.0
 30
0.0
  0
POINT
  5
E57
  8
DEFPOINTS
 62
     0
 10
200.64019102620159
 20
209.74788239313571
 30
0.0
  0
POINT
  5
E58
  8
DEFPOINTS
 62
     0
 10
190.64019102620171
 20
212.74788239313551
 30
0.0
  0
POINT
  5
E59
  8
DEFPOINTS
 62
     0
 10
190.64019102620171
 20
236.74788239313551
 30
0.0
  0
ENDBLK
  5
E36
  8
0
  0
BLOCK
  8
0
  2
*D18
 70
     1
 10
0.0
 20
0.0
 30
0.0
  3
*D18
  1

  0
LINE
  5
E8F
  8
AM_5
 10
600.64019102620159
 20
211.95162722960919
 30
0.0
 11
600.64019102620159
 21
238.74788239313571
 31
0.0
  0
LINE
  5
E90
  8
AM_5
 10
610.64019102620148
 20
214.74788239313571
 30
0.0
 11
610.64019102620148
 21
238.74788239313571
 31
0.0
  0
LINE
  5
E91
  8
AM_5
 10
595.64019102620148
 20
236.74788239313571
 30
0.0
 11
590.64019102620148
 21
236.74788239313571
 31
0.0
  0
LINE
  5
E92
  8
AM_5
 10
615.64019102620148
 20
236.74788239313571
 30
0.0
 11
632.94570283722521
 21
236.74788239313571
 31
0.0
  0
LINE
  5
E93
  8
AM_5
 10
600.64019102620159
 20
236.74788239313571
 30
0.0
 11
610.64019102620148
 21
236.74788239313571
 31
0.0
  0
SOLID
  5
E94
  8
AM_5
 10
595.64019102620148
 20
237.581215726469
 30
0.0
 11
595.64019102620148
 21
235.91454905980231
 31
0.0
 12
600.64019102620159
 22
236.74788239313571
 32
0.0
 13
600.64019102620159
 23
236.74788239313571
 33
0.0
  0
SOLID
  5
E95
  8
AM_5
 10
615.64019102620148
 20
237.581215726469
 30
0.0
 11
615.64019102620148
 21
235.91454905980231
 31
0.0
 12
610.64019102620148
 22
236.74788239313571
 32
0.0
 13
610.64019102620148
 23
236.74788239313571
 33
0.0
  0
INSERT
  5
E96
  8
RAHM2
  2
*U51
 10
0.0
 20
0.0
 30
0.0
  0
POINT
  5
E97
  8
DEFPOINTS
 62
     0
 10
600.64019102620159
 20
209.95162722960919
 30
0.0
  0
POINT
  5
E98
  8
DEFPOINTS
 62
     0
 10
610.64019102620148
 20
212.74788239313571
 30
0.0
  0
POINT
  5
E99
  8
DEFPOINTS
 62
     0
 10
610.64019102620148
 20
236.74788239313571
 30
0.0
  0
ENDBLK
  5
E76
  8
0
  0
BLOCK
  8
0
  2
TK-A3
 70
     0
 10
0.0
 20
0.0
 30
0.0
  3
TK-A3
  1

  0
TEXT
  5
ED8
  8
0
 10
403.0
 20
280.0
 30
0.0
 40
2.5
  1
!GENTITLE-MAX
  0
TEXT
  5
ED9
  8
0
 10
0.0
 20
0.0
 30
0.0
 40
2.5
  1
!GENTITLE-LL
  0
TEXT
  5
EDA
  8
0
 10
403.0
 20
0.0
 30
0.0
 40
2.5
  1
!GENTITLE-INSERT
  0
LINE
  5
EDB
  8
0
 10
359.0
 20
275.0
 30
0.0
 11
403.0
 21
275.0
 31
0.0
  0
TEXT
  8
0
  40
2.5
  5
1167
  72
0
  71
0
 10
402.359
 20
272.859
 30
0.000000
  1
(文書番号：TY-34)2008.02.08
  0
LINE
  5
EDD
  8
0
 10
359.0
 20
280.0
 30
0.0
 11
359.0
 21
275.0
 31
0.0
  0
ENDBLK
  5
EE0
  8
0
  0
BLOCK
  8
0
  2
TK-TITLE
 70
     2
 10
0.0
 20
0.0
 30
0.0
  3
TK-TITLE
  1

  0
ATTDEF
  5
EE5
  8
0
 10
-8.0023091895458265
 20
1.705189434395036
 30
0.0
 40
2.5
  1

  3
Rev.
  2
GEN-TITLE-NR2
 70
     0
  0
ATTDEF
  5
EE6
  8
0
 10
-84.142519015853296
 20
12.82790432564377
 30
0.0
 40
3.5
  1

  3
品名
  2
GEN-TITLE-DES1
 70
     0
  0
LINE
  5
EE7
  8
0
 10
0.0
 20
0.0
 30
0.0
 11
0.0
 21
50.0
 31
0.0
1001
GENIUS_GENREC_14
1002
{
1000
PYDIR
1011
-414.0
1021
0.0
1031
0.0
1021
291.0
1031
0.0
1002
}
1002
{
1000
PXDIR
1011
6.0
1021
0.0
1031
0.0
1021
-6.0
1031
0.0
1002
}
1002
{
1000
PORI
1011
-414.0
1021
0.0
1031
0.0
1021
-6.0
1031
0.0
1002
}
1002
{
1000
PINS
1011
-414.0
1021
0.0
1031
0.0
1021
-6.0
1031
0.0
1002
}
1002
{
1000
HVAL
1000
297
1002
}
1002
{
1000
H
1070
     2
1002
}
1002
{
1000
WVAL
1000
420
1002
}
1002
{
1000
W
1070
     2
1002
}
1002
{
1000
C
1070
     1
1002
}
1001
GENIUS_GENODEF_13
1002
{
1000
HIER
1070
     0
1002
}
1002
{
1000
MANEDIT
1070
     0
1002
}
1002
{
1000
NOSEL
1070
     0
1002
}
1002
{
1000
BEHIND
1070
     0
1002
}
1002
{
1000
OTHER
1070
     0
1002
}
1002
{
1000
REACTOR
1002
}
1001
GENIUS_GENOBJ-N-REC_13
1002
{
1000
OWNER
1000
GEN
1002
}
  0
ATTDEF
  5
EE8
  8
0
 10
-84.0
 20
9.1499999999999488
 30
0.0
 40
2.5
  1

  3
サブタイトル
  2
GEN-TITLE-DES2
 70
     0
  0
ATTDEF
  5
EE9
  8
0
 10
-84.0
 20
1.9999999999999569
 30
0.0
 40
3.0
  1

  3
図番
  2
GEN-TITLE-NR1
 70
     0
  0
LINE
  5
EEA
  8
0
 10
-96.0
 20
50.000000000000007
 30
0.0
 11
-96.0
 21
-0.0000000000000142
 31
0.0
1001
GENIUS_GENREC_14
1002
{
1000
PYDIR
1011
-96.0
1021
0.0
1031
0.0
1021
49.999999999999993
1031
0.0
1002
}
1002
{
1000
PXDIR
1011
88.0
1021
0.0
1031
0.0
1021
-0.0000000000000142
1031
0.0
1002
}
1002
{
1000
PORI
1011
-96.0
1021
0.0
1031
0.0
1021
-0.0000000000000142
1031
0.0
1002
}
1002
{
1000
PINS
1011
-12.5
1021
0.0
1031
0.0
1021
24.999999999999989
1031
0.0
1002
}
1002
{
1000
HVAL
1000
50
1002
}
1002
{
1000
H
1070
     2
1002
}
1002
{
1000
WVAL
1000
167
1002
}
1002
{
1000
W
1070
     2
1002
}
1002
{
1000
C
1070
     4
1002
}
1001
GENIUS_GENODEF_13
1002
{
1000
HIER
1070
     0
1002
}
1002
{
1000
MANEDIT
1070
     0
1002
}
1002
{
1000
NOSEL
1070
     0
1002
}
1002
{
1000
BEHIND
1070
     0
1002
}
1002
{
1000
REACTOR
1002
}
1001
GENIUS_GENOBJ-N-REC_13
1002
{
1000
OWNER
1000
GEN
1002
}
  0
LINE
  5
EEB
  8
0
 10
0.0
 20
50.0
 30
0.0
 11
-193.00000000000011
 21
50.000000000000021
 31
0.0
1001
GENIUS_GENREC_14
1002
{
1000
PYDIR
1011
-184.0
1021
0.0
1031
0.0
1021
50.0
1031
0.0
1002
}
1002
{
1000
PXDIR
1011
0.0
1021
0.0
1031
0.0
1021
0.0
1031
0.0
1002
}
1002
{
1000
PORI
1011
-184.0
1021
0.0
1031
0.0
1021
0.0
1031
0.0
1002
}
1002
{
1000
PINS
1011
-100.5
1021
0.0
1031
0.0
1021
25.0
1031
0.0
1002
}
1002
{
1000
HVAL
1000
50
1002
}
1002
{
1000
H
1070
     2
1002
}
1002
{
1000
WVAL
1000
167
1002
}
1002
{
1000
W
1070
     2
1002
}
1002
{
1000
C
1070
     4
1002
}
1001
GENIUS_GENODEF_13
1002
{
1000
HIER
1070
     0
1002
}
1002
{
1000
MANEDIT
1070
     0
1002
}
1002
{
1000
NOSEL
1070
     0
1002
}
1002
{
1000
BEHIND
1070
     0
1002
}
1002
{
1000
REACTOR
1002
}
1001
GENIUS_GENOBJ-N-REC_13
1002
{
1000
OWNER
1000
GEN
1002
}
  0
LINE
  5
EEC
  8
0
 10
-193.00000000000011
 20
0.0
 30
0.0
 11
0.0
 21
0.0
 31
0.0
1001
GENIUS_GENREC_14
1002
{
1000
PYDIR
1011
-184.0
1021
0.0
1031
0.0
1021
50.0
1031
0.0
1002
}
1002
{
1000
PXDIR
1011
0.0
1021
0.0
1031
0.0
1021
0.0
1031
0.0
1002
}
1002
{
1000
PORI
1011
-184.0
1021
0.0
1031
0.0
1021
0.0
1031
0.0
1002
}
1002
{
1000
PINS
1011
-100.5
1021
0.0
1031
0.0
1021
25.0
1031
0.0
1002
}
1002
{
1000
HVAL
1000
50
1002
}
1002
{
1000
H
1070
     2
1002
}
1002
{
1000
WVAL
1000
167
1002
}
1002
{
1000
W
1070
     2
1002
}
1002
{
1000
C
1070
     4
1002
}
1001
GENIUS_GENODEF_13
1002
{
1000
HIER
1070
     0
1002
}
1002
{
1000
MANEDIT
1070
     0
1002
}
1002
{
1000
NOSEL
1070
     0
1002
}
1002
{
1000
BEHIND
1070
     0
1002
}
1002
{
1000
REACTOR
1002
}
1001
GENIUS_GENOBJ-N-REC_13
1002
{
1000
OWNER
1000
GEN
1002
}
  0
TEXT
  5
EED
  8
RAHM2
 10
-91.926776695296624
 20
45.65000000000002
 30
0.0
 40
2.5
  1
5
 72
     1
 11
-91.0
 21
45.65000000000002
 31
0.0
 73
     1
  0
TEXT
  5
EEE
  8
RAHM2
 10
-92.0
 20
40.65000000000002
 30
0.0
 40
2.5
  1
4
 72
     1
 11
-91.0
 21
40.65000000000002
 31
0.0
 73
     1
  0
TEXT
  5
EEF
  8
RAHM2
 10
-91.926776695296624
 20
35.649999999999991
 30
0.0
 40
2.5
  1
3
 72
     1
 11
-91.0
 21
35.649999999999991
 31
0.0
 73
     1
  0
TEXT
  5
EF0
  8
RAHM2
 10
-91.918331692913384
 20
30.65000000000002
 30
0.0
 40
2.5
  1
2
 72
     1
 11
-91.0
 21
30.65000000000002
 31
0.0
 73
     1
  0
TEXT
  5
EF1
  8
RAHM2
 10
-91.815586356580184
 20
25.65000000000002
 30
0.0
 40
2.5
  1
1
 72
     1
 11
-91.190586356580184
 21
25.65000000000002
 31
0.0
 73
     1
  0
INSERT
  5
EF2
  8
RAHM2
  2
*U52
 10
0.0
 20
0.0
 30
0.0
  0
LINE
  5
EF3
  8
RAHM2
 10
-96.0
 20
25.0
 30
0.0
 11
0.0000000000001137
 21
25.000000000000028
 31
0.0
  0
LINE
  5
EF4
  8
RAHM2
 10
-93.424871130596443
 20
25.40000000000002
 30
0.0
 11
-88.575128869403557
 21
25.40000000000002
 31
0.0
  0
LINE
  5
EF5
  8
RAHM2
 10
-88.575128869403557
 20
25.40000000000002
 30
0.0
 11
-91.0
 21
29.600000000000009
 31
0.0
  0
LINE
  5
EF6
  8
RAHM2
 10
-91.0
 20
29.600000000000009
 30
0.0
 11
-93.424871130596443
 21
25.40000000000002
 31
0.0
  0
INSERT
  5
EF7
  8
RAHM2
  2
*U53
 10
0.0
 20
0.0
 30
0.0
  0
INSERT
  5
EF8
  8
RAHM2
  2
*U54
 10
0.0
 20
0.0
 30
0.0
  0
INSERT
  5
EF9
  8
RAHM2
  2
*U55
 10
0.0
 20
0.0
 30
0.0
  0
INSERT
  5
EFA
  8
RAHM2
  2
*U56
 10
0.0
 20
0.0
 30
0.0
  0
INSERT
  5
EFB
  8
RAHM2
  2
*U57
 10
0.0
 20
0.0
 30
0.0
  0
INSERT
  5
EFC
  8
RAHM2
  2
*U58
 10
0.0
 20
0.0
 30
0.0
  0
LINE
  5
EFD
  8
RAHM2
 10
-11.82081941068907
 20
50.000000000000028
 30
0.0
 11
-11.82081941068907
 21
19.99999999999994
 31
0.0
  0
INSERT
  5
EFE
  8
RAHM2
  2
*U59
 10
0.0
 20
0.0
 30
0.0
  0
LINE
  5
EFF
  8
RAHM2
 10
-31.820819410689069
 20
50.000000000000028
 30
0.0
 11
-31.820819410689179
 21
19.99999999999994
 31
0.0
  0
LINE
  5
F00
  8
RAHM2
 10
-91.0
 20
49.600000000000001
 30
0.0
 11
-93.424871130596443
 21
45.400000000000013
 31
0.0
  0
LINE
  5
F01
  8
RAHM2
 10
-91.0
 20
44.600000000000001
 30
0.0
 11
-93.424871130596443
 21
40.400000000000013
 31
0.0
  0
LINE
  5
F02
  8
RAHM2
 10
-91.0
 20
39.600000000000009
 30
0.0
 11
-93.424871130596443
 21
35.40000000000002
 31
0.0
  0
LINE
  5
F03
  8
RAHM2
 10
-88.575128869403557
 20
35.40000000000002
 30
0.0
 11
-91.0
 21
39.600000000000009
 31
0.0
  0
LINE
  5
F04
  8
RAHM2
 10
-93.424871130596443
 20
35.40000000000002
 30
0.0
 11
-88.575128869403557
 21
35.40000000000002
 31
0.0
  0
LINE
  5
F05
  8
RAHM2
 10
-88.575128869403557
 20
40.400000000000013
 30
0.0
 11
-91.0
 21
44.600000000000001
 31
0.0
  0
LINE
  5
F06
  8
RAHM2
 10
-93.424871130596443
 20
40.400000000000013
 30
0.0
 11
-88.575128869403557
 21
40.400000000000013
 31
0.0
  0
LINE
  5
F07
  8
RAHM2
 10
-88.575128869403557
 20
45.400000000000013
 30
0.0
 11
-91.0
 21
49.600000000000001
 31
0.0
  0
LINE
  5
F08
  8
RAHM2
 10
-93.424871130596443
 20
45.400000000000013
 30
0.0
 11
-88.575128869403557
 21
45.400000000000013
 31
0.0
  0
INSERT
  5
F09
  8
RAHM2
  2
*U60
 10
0.0
 20
0.0
 30
0.0
  0
INSERT
  5
F0A
  8
RAHM2
  2
*U61
 10
0.0
 20
0.0
 30
0.0
  0
LINE
  5
F0B
  8
RAHM2
 10
-93.424871130596443
 20
30.40000000000002
 30
0.0
 11
-88.575128869403557
 21
30.40000000000002
 31
0.0
  0
LINE
  5
F0C
  8
RAHM2
 10
-86.0
 20
50.000000000000007
 30
0.0
 11
-86.0
 21
19.999999999999929
 31
0.0
  0
LINE
  5
F0D
  8
RAHM2
 10
-91.0
 20
34.600000000000009
 30
0.0
 11
-93.424871130596443
 21
30.40000000000002
 31
0.0
  0
LINE
  5
F0E
  8
RAHM2
 10
-88.575128869403557
 20
30.40000000000002
 30
0.0
 11
-91.0
 21
34.600000000000009
 31
0.0
  0
INSERT
  5
F0F
  8
RAHM2
  2
*U62
 10
0.0
 20
0.0
 30
0.0
  0
LINE
  5
F10
  8
0
 10
-96.0
 20
19.999999999999972
 30
0.0
 11
0.0000000000001137
 21
19.999999999999972
 31
0.0
  0
LINE
  5
F11
  8
0
 10
-96.0
 20
7.0
 30
0.0
 11
0.0000000000001137
 21
7.0
 31
0.0
  0
LINE
  5
F12
  8
RAHM2
 10
-96.0
 20
45.000000000000021
 30
0.0
 11
0.0000000000001137
 21
45.000000000000021
 31
0.0
  0
LINE
  5
F13
  8
RAHM2
 10
-96.0
 20
39.999999999999929
 30
0.0
 11
0.0000000000001137
 21
40.000000000000021
 31
0.0
  0
LINE
  5
F14
  8
RAHM2
 10
-96.0
 20
35.000000000000028
 30
0.0
 11
0.0000000000001137
 21
35.000000000000028
 31
0.0
  0
LINE
  5
F15
  8
RAHM2
 10
-96.0
 20
29.999999999999918
 30
0.0
 11
0.0000000000001137
 21
30.000000000000028
 31
0.0
  0
LINE
  5
F16
  8
0
 10
-21.175419266257109
 20
0.0
 30
0.0
 11
-21.17541926625734
 21
7.0
 31
0.0
  0
INSERT
  5
F17
  8
RAHM2
  2
*U63
 10
0.0
 20
0.0
 30
0.0
  0
INSERT
  5
F18
  8
RAHM2
  2
*U64
 10
0.0
 20
0.0
 30
0.0
  0
LINE
  5
F19
  8
0
 10
-167.0
 20
19.999999999999929
 30
0.0
 11
-96.0
 21
19.999999999999929
 31
0.0
  0
LINE
  5
F1A
  8
0
 10
-113.75
 20
19.999999999999929
 30
0.0
 11
-113.75
 21
-0.0000000000000533
 31
0.0
  0
LINE
  5
F1B
  8
0
 10
-131.50000000000011
 20
19.999999999999929
 30
0.0
 11
-131.50000000000011
 21
-0.0000000000000533
 31
0.0
  0
INSERT
  5
F1C
  8
RAHM2
  2
*U65
 10
0.0
 20
0.0
 30
0.0
  0
LINE
  5
F1D
  8
0
 10
-167.0
 20
49.99999999999995
 30
0.0
 11
-167.0
 21
-0.0000000000000497
 31
0.0
  0
LINE
  5
F1E
  8
0
 10
-149.25000000000011
 20
19.999999999999929
 30
0.0
 11
-149.25000000000011
 21
-0.0000000000000462
 31
0.0
  0
INSERT
  5
F1F
  8
RAHM2
  2
*U66
 10
0.0
 20
0.0
 30
0.0
  0
INSERT
  5
F20
  8
RAHM2
  2
*U67
 10
0.0
 20
0.0
 30
0.0
  0
LINE
  5
F21
  8
0
 10
-167.0
 20
29.999999999999918
 30
0.0
 11
-96.0
 21
29.999999999999918
 31
0.0
  0
INSERT
  5
F22
  8
RAHM2
  2
*U68
 10
0.0
 20
0.0
 30
0.0
  0
ATTDEF
  5
F23
  8
0
 10
-148.96186758352911
 20
43.299999999999912
 30
0.0
 40
3.0
  1

  3
材質
  2
GEN-TITLE-MAT1
 70
     0
  0
ATTDEF
  5
F24
  8
0
 10
-148.96186758352911
 20
33.299999999999912
 30
0.0
 40
3.0
  1

  3
表面処理
  2
GEN-TITLE-MAT2
 70
     0
  0
INSERT
  5
F25
  8
RAHM2
  2
*U69
 10
0.0
 20
0.0
 30
0.0
  0
INSERT
  5
F26
  8
RAHM2
  2
*U70
 10
0.0
 20
0.0
 30
0.0
  0
LINE
  5
F27
  8
0
 10
-167.0
 20
39.999999999999908
 30
0.0
 11
-96.0
 21
39.999999999999922
 31
0.0
  0
LINE
  5
F28
  8
0
 10
-167.0
 20
24.999999999999972
 30
0.0
 11
-193.00000000000011
 21
24.999999999999972
 31
0.0
  0
LINE
  5
F29
  8
0
 10
-171.71674187457961
 20
46.74999999999995
 30
0.0
 11
-171.71674187457961
 21
40.749999999999943
 31
0.0
  0
LINE
  5
F2A
  8
7A
 10
-184.71674187457961
 20
43.74999999999995
 30
0.0
 11
-184.71674187457961
 21
40.03991724228473
 31
0.0
1001
GENIUS_GENOREF_13
1005
F3C
  0
LINE
  5
F2B
  8
7A
 10
-184.71674187457961
 20
43.74999999999995
 30
0.0
 11
-188.43977924583069
 21
43.74999999999995
 31
0.0
1001
GENIUS_GENOREF_13
1005
F3C
  0
LINE
  5
F2C
  8
0
 10
-179.71674187457961
 20
41.74999999999995
 30
0.0
 11
-179.71674187457961
 21
45.749999999999943
 31
0.0
  0
CIRCLE
  5
F2D
  8
0
 10
-184.71674187457961
 20
43.74999999999995
 30
0.0
 40
3.0
  0
CIRCLE
  5
F2E
  8
0
 10
-184.71674187457961
 20
43.74999999999995
 30
0.0
 40
2.0
  0
LINE
  5
F2F
  8
7A
 10
-184.71674187457961
 20
43.74999999999995
 30
0.0
 11
-184.71674187457961
 21
47.324786644731439
 31
0.0
1001
GENIUS_GENOREF_13
1005
F3C
  0
LINE
  5
F30
  8
0
 10
-171.71674187457961
 20
40.749999999999943
 30
0.0
 11
-179.71674187457961
 21
41.74999999999995
 31
0.0
  0
LINE
  5
F31
  8
0
 10
-179.71674187457961
 20
45.749999999999943
 30
0.0
 11
-171.71674187457961
 21
46.74999999999995
 31
0.0
  0
LINE
  5
F32
  8
7A
 10
-184.71674187457961
 20
43.74999999999995
 30
0.0
 11
-170.93543347429431
 21
43.74999999999995
 31
0.0
1001
GENIUS_GENOREF_13
1005
F3C
  0
LINE
  5
F33
  8
0
 10
-193.00000000000011
 20
49.999999999999993
 30
0.0
 11
-193.00000000000011
 21
-0.0000000000000142
 31
0.0
  0
ATTDEF
  5
F34
  8
0
 10
-175.6127409126095
 20
15.79999999999994
 30
0.0
 40
3.0
  1

 72
     2
 11
-175.6127409126095
 21
15.79999999999994
 31
0.0
  3
数量
  2
GEN-TITLE-QTY
 70
     0
 74
     1
  0
INSERT
  5
F35
  8
RAHM2
  2
*U71
 10
0.0
 20
0.0
 30
0.0
  0
INSERT
  5
F36
  8
RAHM2
  2
*U72
 10
0.0
 20
0.0
 30
0.0
  0
ATTDEF
  5
F37
  8
0
 10
-177.824739614424
 20
28.299999999999979
 30
0.0
 40
3.0
  1

 72
     2
 11
-177.824739614424
 21
28.299999999999979
 31
0.0
  3
尺度
  2
GEN-TITLE-SCA
 70
     0
 74
     1
  0
INSERT
  5
F38
  8
RAHM2
  2
*U73
 10
0.0
 20
0.0
 30
0.0
  0
ATTDEF
  5
F39
  8
0
 10
-180.2171951662138
 20
3.5883425376106639
 30
0.0
 40
3.0
  1

 72
     1
 11
-180.2171951662138
 21
3.5883425376106639
 31
0.0
  3
日付
  2
GEN-TITLE-DAT
 70
     0
 74
     1
  0
LINE
  5
F3A
  8
0
 10
-167.0
 20
37.499999999999979
 30
0.0
 11
-193.00000000000011
 21
37.499999999999979
 31
0.0
  0
LINE
  5
F3B
  8
0
 10
-167.0
 20
12.499999999999959
 30
0.0
 11
-193.00000000000011
 21
12.499999999999959
 31
0.0
  0
POINT
  5
F3C
  8
0
 10
-418.53555798196749
 20
-138.11048412682541
 30
0.0
1001
GENIUS_GENODEF_13
1002
{
1000
HIER
1070
    10
1002
}
1002
{
1000
MANEDIT
1070
     0
1002
}
1002
{
1000
NOSEL
1070
     0
1002
}
1002
{
1000
BEHIND
1070
     0
1002
}
1002
{
1000
REACTOR
1002
}
1001
GENIUS_GENOBJ-N-CRS_13
1002
{
1000
OWNER
1000
GEN
1002
}
1001
GENIUS_GENOENT_13
1002
{
1000
MYREF
1005
F3C
1002
}
1002
{
1000
GRP
1005
0
1002
}
1001
GENIUS_GENOLIS_13
1002
{
1000
ENT
1005
F2A
1005
F2B
1005
F2F
1005
F32
1002
}
  0
ENDBLK
  5
F3F
  8
0
  0
BLOCK
  8
0
  2
*S21
 70
     1
 10
0.0
 20
0.0
 30
0.0
  3
*S21
  1

  0
LINE
  5
101F
  8
AM_5
 62
     3
 10
186.52763342083011
 20
314.06506944361081
 30
0.0
 11
216.91758291449119
 21
314.06506944361081
 31
0.0
  0
LINE
  5
1020
  8
AM_5
 62
     3
 10
216.91758291449119
 20
314.06506944361081
 30
0.0
 11
231.39660671290531
 21
339.19401482962678
 31
0.0
  0
TRACE
  5
1021
  8
AM_5
 62
     3
 10
232.1951087543186
 20
338.73392667697652
 30
0.0
 11
230.598104671492
 21
339.65410298227732
 31
0.0
 12
234.8913232062082
 22
345.25924002177243
 32
0.0
 13
234.8913232062082
 23
345.25924002177243
 33
0.0
  0
INSERT
  5
1022
  8
RAHM2
  2
*U74
 10
0.0
 20
0.0
 30
0.0
  0
ENDBLK
  5
1024
  8
0
  0
BLOCK
  8
0
  2
*S22
 70
     1
 10
0.0
 20
0.0
 30
0.0
  3
*S22
  1

  0
LINE
  5
1027
  8
AM_5
 62
     3
 10
153.4256225239229
 20
168.9471304698373
 30
0.0
 11
179.79332792309589
 21
168.9471304698373
 31
0.0
  0
LINE
  5
1028
  8
AM_5
 62
     3
 10
179.79332792309589
 20
168.9471304698373
 30
0.0
 11
196.40716525531781
 21
197.87689244449021
 31
0.0
  0
TRACE
  5
1029
  8
AM_5
 62
     3
 10
197.20632579940099
 20
197.41794904587661
 30
0.0
 11
195.6080047112346
 21
198.33583584310381
 31
0.0
 12
199.89318647839849
 22
203.9471194610218
 32
0.0
 13
199.89318647839849
 23
203.9471194610218
 33
0.0
  0
INSERT
  5
102A
  8
RAHM2
  2
*U75
 10
0.0
 20
0.0
 30
0.0
  0
ENDBLK
  5
102C
  8
0
  0
BLOCK
  8
0
  2
*S23
 70
     1
 10
0.0
 20
0.0
 30
0.0
  3
*S23
  1

  0
LINE
  5
102F
  8
AM_5
 62
     3
 10
747.31439623747883
 20
372.70960238480029
 30
0.0
 11
720.53664033196696
 21
372.70960238480029
 31
0.0
  0
LINE
  5
1030
  8
AM_5
 62
     3
 10
720.53664033196696
 20
372.70960238480029
 30
0.0
 11
709.8882186980577
 21
354.34479448355791
 31
0.0
  0
TRACE
  5
1031
  8
AM_5
 62
     3
 10
709.09097442488587
 20
354.80705867992759
 30
0.0
 11
710.68546297122941
 21
353.8825302871881
 31
0.0
 12
706.37697351165059
 22
348.28912298974859
 32
0.0
 13
706.37697351165059
 23
348.28912298974859
 33
0.0
  0
INSERT
  5
1032
  8
RAHM2
  2
*U76
 10
0.0
 20
0.0
 30
0.0
  0
ENDBLK
  5
1034
  8
0
  0
BLOCK
  8
0
  2
*U24
 70
     1
 10
0.0
 20
0.0
 30
0.0
  3
*U24
  1

  0
TEXT
  5
104E
  8
0
 10
367.55531168523049
 20
276.233542987227
 30
0.0
 40
2.5
  1
(文書番号：TY-34)2004.10.29
  0
ENDBLK
  5
1050
  8
0
  0
BLOCK
  8
0
  2
*U25
 70
     1
 10
0.0
 20
0.0
 30
0.0
  3
*U25
  1

  0
TEXT
  5
1052
  8
RAHM2
 10
-193.80025513713139
 20
3.3010354072796408
 30
0.0
 40
2.5
  1
図番
  0
ENDBLK
  5
1054
  8
0
  0
BLOCK
  8
0
  2
*U26
 70
     1
 10
0.0
 20
0.0
 30
0.0
  3
*U26
  1

  0
TEXT
  5
1056
  8
RAHM2
 10
-193.0
 20
21.249999999999972
 30
0.0
 40
2.5
  1
符号
  0
ENDBLK
  5
1058
  8
0
  0
BLOCK
  8
0
  2
*U27
 70
     1
 10
0.0
 20
0.0
 30
0.0
  3
*U27
  1

  0
TEXT
  5
105A
  8
RAHM2
 10
-193.80025513713139
 20
16.30103540727961
 30
0.0
 40
2.5
  1
品名
  0
ENDBLK
  5
105C
  8
0
  0
BLOCK
  8
0
  2
*U28
 70
     1
 10
0.0
 20
0.0
 30
0.0
  3
*U28
  1

  0
TEXT
  5
105E
  8
RAHM2
 10
-163.1448171868856
 20
21.249999999999972
 30
0.0
 40
2.5
  1
変更記事
  0
ENDBLK
  5
1060
  8
0
  0
BLOCK
  8
0
  2
*U29
 70
     1
 10
0.0
 20
0.0
 30
0.0
  3
*U29
  1

  0
TEXT
  5
1062
  8
0
 10
-88.85532994923858
 20
3.4187817258883251
 30
0.0
 40
3.5
  1
株式会社タカチ電機工業
  0
ENDBLK
  5
1064
  8
0
  0
BLOCK
  8
0
  2
*U30
 70
     1
 10
0.0
 20
0.0
 30
0.0
  3
*U30
  1

  0
TEXT
  5
1066
  8
RAHM2
 10
-123.3362656628704
 20
31.250000000000028
 30
0.0
 40
2.5
  1
・  ・   
  0
ENDBLK
  5
1068
  8
0
  0
BLOCK
  8
0
  2
*U31
 70
     1
 10
0.0
 20
0.0
 30
0.0
  3
*U31
  1

  0
TEXT
  5
106A
  8
RAHM2
 10
-126.238119805002
 20
21.249999999999972
 30
0.0
 40
2.5
  1
年・月・日
  0
ENDBLK
  5
106C
  8
0
  0
BLOCK
  8
0
  2
*U32
 70
     1
 10
0.0
 20
0.0
 30
0.0
  3
*U32
  1

  0
TEXT
  5
106E
  8
RAHM2
 10
-104.4702380952381
 20
21.249999999999972
 30
0.0
 40
2.5
  1
担当
  0
ENDBLK
  5
1070
  8
0
  0
BLOCK
  8
0
  2
*U33
 70
     1
 10
0.0
 20
0.0
 30
0.0
  3
*U33
  1

  0
TEXT
  5
1072
  8
RAHM2
 10
-123.3362656628704
 20
41.250000000000021
 30
0.0
 40
2.5
  1
・  ・   
  0
ENDBLK
  5
1074
  8
0
  0
BLOCK
  8
0
  2
*U34
 70
     1
 10
0.0
 20
0.0
 30
0.0
  3
*U34
  1

  0
TEXT
  5
1076
  8
RAHM2
 10
-123.3362656628704
 20
36.250000000000028
 30
0.0
 40
2.5
  1
・  ・   
  0
ENDBLK
  5
1078
  8
0
  0
BLOCK
  8
0
  2
*U35
 70
     1
 10
0.0
 20
0.0
 30
0.0
  3
*U35
  1

  0
TEXT
  5
107A
  8
RAHM2
 10
-123.3362656628704
 20
46.250000000000021
 30
0.0
 40
2.5
  1
・  ・   
  0
ENDBLK
  5
107C
  8
0
  0
BLOCK
  8
0
  2
*U36
 70
     1
 10
0.0
 20
0.0
 30
0.0
  3
*U36
  1

  0
TEXT
  5
107E
  8
RAHM2
 10
-92.800255137131444
 20
13.80103540727964
 30
0.0
 40
2.5
  1
日付
  0
ENDBLK
  5
1080
  8
0
  0
BLOCK
  8
0
  2
*U37
 70
     1
 10
0.0
 20
0.0
 30
0.0
  3
*U37
  1

  0
TEXT
  5
1082
  8
RAHM2
 10
-92.800255137131444
 20
23.801035407279642
 30
0.0
 40
2.5
  1
表面処理
  0
ENDBLK
  5
1084
  8
0
  0
BLOCK
  8
0
  2
*U38
 70
     1
 10
0.0
 20
0.0
 30
0.0
  3
*U38
  1

  0
TEXT
  5
1086
  8
RAHM2
 10
-92.800255137131444
 20
33.801035407279642
 30
0.0
 40
2.5
  1
材質
  0
ENDBLK
  5
1088
  8
0
  0
BLOCK
  8
0
  2
*U39
 70
     1
 10
0.0
 20
0.0
 30
0.0
  3
*U39
  1

  0
TEXT
  5
108A
  8
RAHM2
 10
-72.800255137131444
 20
46.301035407279642
 30
0.0
 40
2.5
  1
尺度
  0
ENDBLK
  5
108C
  8
0
  0
BLOCK
  8
0
  2
*U40
 70
     1
 10
0.0
 20
0.0
 30
0.0
  3
*U40
  1

  0
TEXT
  5
108E
  8
RAHM2
 10
-52.800255137131451
 20
46.301035407279642
 30
0.0
 40
2.5
  1
数量
  0
ENDBLK
  5
1090
  8
0
  0
BLOCK
  8
0
  2
*U41
 70
     1
 10
0.0
 20
0.0
 30
0.0
  3
*U41
  1

  0
TEXT
  5
1092
  8
RAHM2
 10
-28.3125
 20
21.301035407279642
 30
0.0
 40
2.5
  1
承認
  0
ENDBLK
  5
1094
  8
0
  0
BLOCK
  8
0
  2
*U42
 70
     1
 10
0.0
 20
0.0
 30
0.0
  3
*U42
  1

  0
TEXT
  5
1096
  8
RAHM2
 10
-28.3125
 20
46.301035407279642
 30
0.0
 40
2.5
  1
承認
  0
ENDBLK
  5
1098
  8
0
  0
BLOCK
  8
0
  2
*U43
 70
     1
 10
0.0
 20
0.0
 30
0.0
  3
*U43
  1

  0
TEXT
  5
109A
  8
RAHM2
 10
-123.3362656628704
 20
26.250000000000028
 30
0.0
 40
2.5
  1
・  ・   
  0
ENDBLK
  5
109C
  8
0
  0
BLOCK
  8
0
  2
*U44
 70
     1
 10
0.0
 20
0.0
 30
0.0
  3
*U44
  1

  0
TEXT
  5
109E
  8
RAHM2
 10
-11.3125
 20
46.301035407279642
 30
0.0
 40
2.5
  1
検図
  0
ENDBLK
  5
10A0
  8
0
  0
BLOCK
  8
0
  2
*U45
 70
     1
 10
0.0
 20
0.0
 30
0.0
  3
*U45
  1

  0
TEXT
  5
10A2
  8
RAHM2
 10
-11.3125
 20
21.301035407279642
 30
0.0
 40
2.5
  1
製図
  0
ENDBLK
  5
10A4
  8
0
  0
BLOCK
  8
0
  2
*U46
 70
     1
 10
0.0
 20
0.0
 30
0.0
  3
*U46
  1

  0
TEXT
  5
10A6
  8
AM_5
 62
     2
 10
392.93743512068983
 20
399.55893213437298
 30
0.0
 40
7.0
  1
420
  0
ENDBLK
  5
10A8
  8
0
  0
BLOCK
  8
0
  2
*U47
 70
     1
 10
0.0
 20
0.0
 30
0.0
  3
*U47
  1

  0
TEXT
  5
10AA
  8
AM_5
 62
     2
 10
675.00334721542185
 20
379.55893113437457
 30
0.0
 40
7.0
  1
1.2
  0
ENDBLK
  5
10AC
  8
0
  0
BLOCK
  8
0
  2
*U48
 70
     1
 10
0.0
 20
0.0
 30
0.0
  3
*U48
  1

  0
TEXT
  5
10AE
  8
AM_5
 62
     2
 10
701.02878585441795
 20
399.55893113437457
 30
0.0
 40
7.0
  1
15
  0
ENDBLK
  5
10B0
  8
0
  0
BLOCK
  8
0
  2
*U49
 70
     1
 10
0.0
 20
0.0
 30
0.0
  3
*U49
  1

  0
TEXT
  5
10EC
  8
AM_5
 62
     2
 10
143.64019102620159
 20
200.90290764630501
 30
0.0
 40
7.0
  1
15
 50
90.0
  0
ENDBLK
  5
10EE
  8
0
  0
BLOCK
  8
0
  2
*U50
 70
     1
 10
0.0
 20
0.0
 30
0.0
  3
*U50
  1

  0
TEXT
  5
10F3
  8
AM_5
 62
     2
 10
170.28467921517799
 20
239.74788239313551
 30
0.0
 40
7.0
  1
10
  0
ENDBLK
  5
10F5
  8
0
  0
BLOCK
  8
0
  2
*U51
 70
     1
 10
0.0
 20
0.0
 30
0.0
  3
*U51
  1

  0
TEXT
  5
10F7
  8
AM_5
 62
     2
 10
622.59019102620164
 20
239.74788239313571
 30
0.0
 40
7.0
  1
10
  0
ENDBLK
  5
10F9
  8
0
  0
BLOCK
  8
0
  2
*U52
 70
     1
 10
0.0
 20
0.0
 30
0.0
  3
*U52
  1

  0
TEXT
  5
10FF
  8
RAHM2
 10
-26.157085073559461
 20
26.250000000000028
 30
0.0
 40
2.5
  1
・  ・   
  0
ENDBLK
  5
1101
  8
0
  0
BLOCK
  8
0
  2
*U53
 70
     1
 10
0.0
 20
0.0
 30
0.0
  3
*U53
  1

  0
TEXT
  5
1103
  8
RAHM2
 10
-26.157085073559461
 20
46.250000000000021
 30
0.0
 40
2.5
  1
・  ・   
  0
ENDBLK
  5
1105
  8
0
  0
BLOCK
  8
0
  2
*U54
 70
     1
 10
0.0
 20
0.0
 30
0.0
  3
*U54
  1

  0
TEXT
  5
1107
  8
RAHM2
 10
-26.157085073559461
 20
36.250000000000028
 30
0.0
 40
2.5
  1
・  ・   
  0
ENDBLK
  5
1109
  8
0
  0
BLOCK
  8
0
  2
*U55
 70
     1
 10
0.0
 20
0.0
 30
0.0
  3
*U55
  1

  0
TEXT
  5
110B
  8
RAHM2
 10
-26.157085073559461
 20
41.250000000000021
 30
0.0
 40
2.5
  1
・  ・   
  0
ENDBLK
  5
110D
  8
0
  0
BLOCK
  8
0
  2
*U56
 70
     1
 10
0.0
 20
0.0
 30
0.0
  3
*U56
  1

  0
TEXT
  5
110F
  8
RAHM2
 10
-8.8806478005825724
 20
21.249999999999972
 30
0.0
 40
2.5
  1
担当
  0
ENDBLK
  5
1111
  8
0
  0
BLOCK
  8
0
  2
*U57
 70
     1
 10
0.0
 20
0.0
 30
0.0
  3
*U57
  1

  0
TEXT
  5
1113
  8
RAHM2
 10
-29.058939215691112
 20
21.249999999999972
 30
0.0
 40
2.5
  1
年・月・日
  0
ENDBLK
  5
1115
  8
0
  0
BLOCK
  8
0
  2
*U58
 70
     1
 10
0.0
 20
0.0
 30
0.0
  3
*U58
  1

  0
TEXT
  5
1117
  8
RAHM2
 10
-26.157085073559461
 20
31.250000000000028
 30
0.0
 40
2.5
  1
・  ・   
  0
ENDBLK
  5
1119
  8
0
  0
BLOCK
  8
0
  2
*U59
 70
     1
 10
0.0
 20
0.0
 30
0.0
  3
*U59
  1

  0
TEXT
  5
111B
  8
RAHM2
 10
-65.0
 20
21.249999999999961
 30
0.0
 40
2.5
  1
変更記事
  0
ENDBLK
  5
111D
  8
0
  0
BLOCK
  8
0
  2
*U60
 70
     1
 10
0.0
 20
0.0
 30
0.0
  3
*U60
  1

  0
TEXT
  5
111F
  8
RAHM2
 10
-94.800255137131444
 20
16.301035407279599
 30
0.0
 40
2.5
  1
品名
  0
ENDBLK
  5
1121
  8
0
  0
BLOCK
  8
0
  2
*U61
 70
     1
 10
0.0
 20
0.0
 30
0.0
  3
*U61
  1

  0
TEXT
  5
1123
  8
RAHM2
 10
-94.0
 20
21.249999999999961
 30
0.0
 40
2.5
  1
符号
  0
ENDBLK
  5
1125
  8
0
  0
BLOCK
  8
0
  2
*U62
 70
     1
 10
0.0
 20
0.0
 30
0.0
  3
*U62
  1

  0
TEXT
  5
1127
  8
RAHM2
 10
-94.800255137131444
 20
3.3010354072796271
 30
0.0
 40
2.5
  1
図番
  0
ENDBLK
  5
1129
  8
0
  0
BLOCK
  8
0
  2
*U63
 70
     1
 10
0.0
 20
0.0
 30
0.0
  3
*U63
  1

  0
TEXT
  5
112B
  8
RAHM2
 10
-19.982425929334909
 20
2.1847624665659851
 30
0.0
 40
2.5
  1
Rev.
  0
ENDBLK
  5
112D
  8
0
  0
BLOCK
  8
0
  2
*U64
 70
     1
 10
0.0
 20
0.0
 30
0.0
  3
*U64
  1

  0
TEXT
  5
112F
  8
RAHM2
 10
-107.6875
 20
16.301035407279571
 30
0.0
 40
2.5
  1
製図
  0
ENDBLK
  5
1131
  8
0
  0
BLOCK
  8
0
  2
*U65
 70
     1
 10
0.0
 20
0.0
 30
0.0
  3
*U65
  1

  0
TEXT
  5
1133
  8
RAHM2
 10
-125.4375000000001
 20
16.301035407279581
 30
0.0
 40
2.5
  1
検図
  0
ENDBLK
  5
1135
  8
0
  0
BLOCK
  8
0
  2
*U66
 70
     1
 10
0.0
 20
0.0
 30
0.0
  3
*U66
  1

  0
TEXT
  5
1137
  8
RAHM2
 10
-143.18750000000011
 20
16.301035407279581
 30
0.0
 40
2.5
  1
承認
  0
ENDBLK
  5
1139
  8
0
  0
BLOCK
  8
0
  2
*U67
 70
     1
 10
0.0
 20
0.0
 30
0.0
  3
*U67
  1

  0
TEXT
  5
113B
  8
RAHM2
 10
-160.93750000000011
 20
16.30103540727956
 30
0.0
 40
2.5
  1
承認
  0
ENDBLK
  5
113D
  8
0
  0
BLOCK
  8
0
  2
*U68
 70
     1
 10
0.0
 20
0.0
 30
0.0
  3
*U68
  1

  0
TEXT
  5
113F
  8
0
 10
-156.35532994923869
 20
23.418781725888241
 30
0.0
 40
3.5
  1
株式会社タカチ電機工業
  0
ENDBLK
  5
1141
  8
0
  0
BLOCK
  8
0
  2
*U69
 70
     1
 10
0.0
 20
0.0
 30
0.0
  3
*U69
  1

  0
TEXT
  5
1143
  8
RAHM2
 10
-165.80025513713139
 20
46.301035407279549
 30
0.0
 40
2.5
  1
材質
  0
ENDBLK
  5
1145
  8
0
  0
BLOCK
  8
0
  2
*U70
 70
     1
 10
0.0
 20
0.0
 30
0.0
  3
*U70
  1

  0
TEXT
  5
1147
  8
RAHM2
 10
-165.80025513713139
 20
36.301035407279556
 30
0.0
 40
2.5
  1
表面処理
  0
ENDBLK
  5
1149
  8
0
  0
BLOCK
  8
0
  2
*U71
 70
     1
 10
0.0
 20
0.0
 30
0.0
  3
*U71
  1

  0
TEXT
  5
114B
  8
RAHM2
 10
-191.8002551371315
 20
21.301035407279631
 30
0.0
 40
2.5
  1
数量
  0
ENDBLK
  5
114D
  8
0
  0
BLOCK
  8
0
  2
*U72
 70
     1
 10
0.0
 20
0.0
 30
0.0
  3
*U72
  1

  0
TEXT
  5
114F
  8
RAHM2
 10
-191.8002551371315
 20
33.801035407279663
 30
0.0
 40
2.5
  1
尺度
  0
ENDBLK
  5
1151
  8
0
  0
BLOCK
  8
0
  2
*U73
 70
     1
 10
0.0
 20
0.0
 30
0.0
  3
*U73
  1

  0
TEXT
  5
1153
  8
RAHM2
 10
-191.8002551371315
 20
8.8010354072796062
 30
0.0
 40
2.5
  1
日付
  0
ENDBLK
  5
1155
  8
0
  0
BLOCK
  8
0
  2
*U74
 70
     1
 10
0.0
 20
0.0
 30
0.0
  3
*U74
  1

  0
TEXT
  5
1157
  8
AM_5
 62
     2
 10
185.4776334208301
 20
317.56506944361081
 30
0.0
 40
7.0
  1
14-M3
  7
ACISOTS
  0
ENDBLK
  5
1159
  8
0
  0
BLOCK
  8
0
  2
*U75
 70
     1
 10
0.0
 20
0.0
 30
0.0
  3
*U75
  1

  0
TEXT
  5
115B
  8
AM_5
 62
     2
 10
152.5533784294347
 20
172.4471304698373
 30
0.0
 40
7.0
  1
2-M3
  7
ACISOTS
  0
ENDBLK
  5
115D
  8
0
  0
BLOCK
  8
0
  2
*U76
 70
     1
 10
0.0
 20
0.0
 30
0.0
  3
*U76
  1

  0
TEXT
  5
115F
  8
AM_5
 62
     2
 10
726.66439623747885
 20
376.20960238480041
 30
0.0
 40
7.0
  1
2-M4
  7
ACISOTS
  0
ENDBLK
  5
1161
  8
0
  0
ENDSEC
  0
SECTION
  2
ENTITIES
  0
LINE
  5
535
  8
ユニットパネル取付バ_
 10
610.64019102620148
 20
352.55893113437469
 30
0.0
 11
190.64019102620159
 21
352.55893113437469
 31
0.0
  0
LINE
  5
536
  8
ﾕﾆｯﾄﾊ_ﾈﾙ取付ﾊ__2
 10
609.44019102620155
 20
341.75893113437468
 30
0.0
 11
191.84019102620161
 21
341.75893113437479
 31
0.0
  0
LINE
  5
537
  8
ユニットパネル取付バ_
 10
609.44019102620155
 20
340.55893113437469
 30
0.0
 11
191.84019102620161
 21
340.5589311343748
 31
0.0
  0
LINE
  5
53C
  8
ﾕﾆｯﾄﾊ_ﾈﾙ取付ﾊ__2
 10
191.84019102620161
 20
352.55893113437469
 30
0.0
 11
191.84019102620161
 21
341.75893113437479
 31
0.0
  0
LINE
  5
53D
  8
ユニットパネル取付バ_
 10
190.64019102620159
 20
352.55893113437469
 30
0.0
 11
190.64019102620159
 21
341.75893113437479
 31
0.0
  0
ARC
  5
53E
  8
ユニットパネル取付バ_
 10
191.84019102620161
 20
341.75893113437479
 30
0.0
 40
1.1999999999999991
 50
180.0
 51
270.0
1001
GENIUS_GENODEF_13
1002
{
1000
HIER
1070
     0
1002
}
1002
{
1000
MANEDIT
1070
     0
1002
}
1002
{
1000
NOSEL
1070
     0
1002
}
1002
{
1000
BEHIND
1070
     0
1002
}
1002
{
1000
REACTOR
1002
}
1001
GENIUS_GENOBJ-N-FIL_13
1002
{
1000
OWNER
1000
GEN
1002
}
  0
CIRCLE
  5
53F
  8
ﾕﾆｯﾄﾊ_ﾈﾙ取付ﾊ__2
 10
205.64019102620159
 20
346.55893113437497
 30
0.0
 40
1.5
  0
CIRCLE
  5
540
  8
ユニットパネル取付バ_
 10
205.64019102620159
 20
346.55893113437497
 30
0.0
 40
1.1999999999999991
  0
CIRCLE
  5
541
  8
ﾕﾆｯﾄﾊ_ﾈﾙ取付ﾊ__2
 10
235.64019102620159
 20
346.55893113437497
 30
0.0
 40
1.5
  0
CIRCLE
  5
542
  8
ユニットパネル取付バ_
 10
235.64019102620159
 20
346.55893113437497
 30
0.0
 40
1.1999999999999991
  0
CIRCLE
  5
543
  8
ﾕﾆｯﾄﾊ_ﾈﾙ取付ﾊ__2
 10
265.64019102620159
 20
346.55893113437497
 30
0.0
 40
1.5
  0
CIRCLE
  5
544
  8
ユニットパネル取付バ_
 10
265.64019102620159
 20
346.55893113437497
 30
0.0
 40
1.1999999999999991
  0
CIRCLE
  5
545
  8
ﾕﾆｯﾄﾊ_ﾈﾙ取付ﾊ__2
 10
295.64019102620159
 20
346.5589311343748
 30
0.0
 40
1.5
  0
CIRCLE
  5
546
  8
ユニットパネル取付バ_
 10
295.64019102620159
 20
346.5589311343748
 30
0.0
 40
1.1999999999999991
  0
CIRCLE
  5
547
  8
ﾕﾆｯﾄﾊ_ﾈﾙ取付ﾊ__2
 10
325.64019102620159
 20
346.5589311343748
 30
0.0
 40
1.5
  0
CIRCLE
  5
548
  8
ユニットパネル取付バ_
 10
325.64019102620159
 20
346.5589311343748
 30
0.0
 40
1.1999999999999991
  0
CIRCLE
  5
549
  8
ﾕﾆｯﾄﾊ_ﾈﾙ取付ﾊ__2
 10
355.64019102620159
 20
346.5589311343748
 30
0.0
 40
1.5
  0
CIRCLE
  5
54A
  8
ユニットパネル取付バ_
 10
355.64019102620159
 20
346.5589311343748
 30
0.0
 40
1.1999999999999991
  0
CIRCLE
  5
54B
  8
ﾕﾆｯﾄﾊ_ﾈﾙ取付ﾊ__2
 10
385.64019102620159
 20
346.5589311343748
 30
0.0
 40
1.5
  0
CIRCLE
  5
54C
  8
ユニットパネル取付バ_
 10
385.64019102620159
 20
346.5589311343748
 30
0.0
 40
1.1999999999999991
  0
CIRCLE
  5
54D
  8
ﾕﾆｯﾄﾊ_ﾈﾙ取付ﾊ__2
 10
415.64019102620148
 20
346.5589311343748
 30
0.0
 40
1.5
  0
CIRCLE
  5
54E
  8
ユニットパネル取付バ_
 10
415.64019102620148
 20
346.5589311343748
 30
0.0
 40
1.1999999999999991
  0
CIRCLE
  5
54F
  8
ユニットパネル取付バ_
 10
445.64019102620148
 20
346.5589311343748
 30
0.0
 40
1.1999999999999991
  0
CIRCLE
  5
550
  8
ﾕﾆｯﾄﾊ_ﾈﾙ取付ﾊ__2
 10
445.64019102620148
 20
346.5589311343748
 30
0.0
 40
1.5
  0
CIRCLE
  5
551
  8
ﾕﾆｯﾄﾊ_ﾈﾙ取付ﾊ__2
 10
475.64019102620159
 20
346.5589311343748
 30
0.0
 40
1.5
  0
CIRCLE
  5
552
  8
ユニットパネル取付バ_
 10
475.64019102620159
 20
346.5589311343748
 30
0.0
 40
1.1999999999999991
  0
CIRCLE
  5
553
  8
ﾕﾆｯﾄﾊ_ﾈﾙ取付ﾊ__2
 10
505.64019102620159
 20
346.5589311343748
 30
0.0
 40
1.5
  0
CIRCLE
  5
554
  8
ユニットパネル取付バ_
 10
505.64019102620159
 20
346.5589311343748
 30
0.0
 40
1.1999999999999991
  0
CIRCLE
  5
555
  8
ﾕﾆｯﾄﾊ_ﾈﾙ取付ﾊ__2
 10
535.64019102620148
 20
346.5589311343748
 30
0.0
 40
1.5
  0
CIRCLE
  5
556
  8
ユニットパネル取付バ_
 10
535.64019102620148
 20
346.5589311343748
 30
0.0
 40
1.1999999999999991
  0
CIRCLE
  5
557
  8
ユニットパネル取付バ_
 10
565.64019102620148
 20
346.5589311343748
 30
0.0
 40
1.1999999999999991
  0
CIRCLE
  5
558
  8
ﾕﾆｯﾄﾊ_ﾈﾙ取付ﾊ__2
 10
565.64019102620148
 20
346.5589311343748
 30
0.0
 40
1.5
  0
LINE
  5
559
  8
ユニットパネル取付バ_
 10
610.64019102620148
 20
352.55893113437469
 30
0.0
 11
610.64019102620148
 21
341.75893113437468
 31
0.0
  0
LINE
  5
55A
  8
ﾕﾆｯﾄﾊ_ﾈﾙ取付ﾊ__2
 10
609.44019102620155
 20
352.55893113437469
 30
0.0
 11
609.44019102620155
 21
341.75893113437468
 31
0.0
  0
ARC
  5
55B
  8
ユニットパネル取付バ_
 10
609.44019102620155
 20
341.75893113437451
 30
0.0
 40
1.1999999999999991
 50
270.0
 51
0.0
1001
GENIUS_GENODEF_13
1002
{
1000
HIER
1070
     0
1002
}
1002
{
1000
MANEDIT
1070
     0
1002
}
1002
{
1000
NOSEL
1070
     0
1002
}
1002
{
1000
BEHIND
1070
     0
1002
}
1002
{
1000
REACTOR
1002
}
1001
GENIUS_GENOBJ-N-FIL_13
1002
{
1000
OWNER
1000
GEN
1002
}
  0
CIRCLE
  5
55C
  8
ﾕﾆｯﾄﾊ_ﾈﾙ取付ﾊ__2
 10
595.64019102620148
 20
346.5589311343748
 30
0.0
 40
1.5
  0
CIRCLE
  5
55D
  8
ユニットパネル取付バ_
 10
595.64019102620148
 20
346.5589311343748
 30
0.0
 40
1.1999999999999991
  0
LINE
  5
565
  8
ﾕﾆｯﾄﾊ_ﾈﾙ取付ﾊ__2
 10
610.64019102620148
 20
198.9478823931359
 30
0.0
 11
190.64019102620171
 21
198.94788239313581
 31
0.0
  0
LINE
  5
566
  8
ﾕﾆｯﾄﾊ_ﾈﾙ取付ﾊ__2
 10
610.64019102620148
 20
211.54788239313589
 30
0.0
 11
190.64019102620171
 21
211.54788239313569
 31
0.0
  0
LINE
  5
567
  8
ユニットパネル取付バ_
 10
610.64019102620148
 20
197.7478823931356
 30
0.0
 11
190.64019102620171
 21
197.74788239313551
 31
0.0
  0
LINE
  5
568
  8
ユニットパネル取付バ_
 10
610.64019102620148
 20
212.74788239313571
 30
0.0
 11
190.64019102620171
 21
212.74788239313551
 31
0.0
  0
CIRCLE
  5
56A
  8
ﾕﾆｯﾄﾊ_ﾈﾙ取付ﾊ__2
 10
600.64019102620159
 20
205.4516272296093
 30
0.0
 40
1.5
  0
LINE
  5
56B
  8
ﾕﾆｯﾄﾊ_ﾈﾙ取付ﾊ__2
 10
609.44019102620155
 20
198.9478823931359
 30
0.0
 11
609.44019102620155
 21
211.54788239313589
 31
0.0
  0
LINE
  5
56C
  8
ユニットパネル取付バ_
 10
610.64019102620148
 20
197.7478823931356
 30
0.0
 11
610.64019102620148
 21
212.74788239313571
 31
0.0
  0
CIRCLE
  5
570
  8
ユニットパネル取付バ_
 10
600.64019102620159
 20
205.4516272296093
 30
0.0
 40
1.1999999999999991
  0
CIRCLE
  5
572
  8
ﾕﾆｯﾄﾊ_ﾈﾙ取付ﾊ__2
 10
200.64019102620159
 20
205.2478823931358
 30
0.0
 40
1.5
  0
CIRCLE
  5
573
  8
ユニットパネル取付バ_
 10
200.64019102620159
 20
205.2478823931358
 30
0.0
 40
1.1999999999999991
  0
LINE
  5
574
  8
ﾕﾆｯﾄﾊ_ﾈﾙ取付ﾊ__2
 10
191.8401910262015
 20
198.94788239313581
 30
0.0
 11
191.8401910262015
 21
211.54788239313569
 31
0.0
  0
LINE
  5
575
  8
ユニットパネル取付バ_
 10
190.64019102620171
 20
197.74788239313551
 30
0.0
 11
190.64019102620171
 21
212.74788239313551
 31
0.0
  0
INSERT
  5
613
  8
0
  2
TK-A3
 10
0.0
 20
0.0
 30
0.0
 41
2.0
 42
2.0
 43
2.0
1001
GENIUS_GENOREF_13
1005
624
1001
GENIUS_GENOBJ-N-SDF_13
1002
{
1000
OWNER
1000
GEN
1002
}
1001
GENIUS_GENODEF_13
1002
{
1000
HIER
1070
     0
1002
}
1002
{
1000
MANEDIT
1070
     0
1002
}
1002
{
1000
NOSEL
1070
     0
1002
}
1002
{
1000
BEHIND
1070
     0
1002
}
1002
{
1000
OTHER
1070
     0
1002
}
1002
{
1000
REACTOR
1002
}
1001
GENIUS_GENSCREG_13
1040
2.0
1040
1.0
1011
0.0
1021
0.0
1031
0.0
1021
0.0
1031
0.0
1011
806.0
1021
0.0
1031
0.0
1021
560.00000000000011
1031
0.0
1070
     3
  0
INSERT
  5
615
  8
0
 66
     1
  2
TK-TITLE
 10
806.0
 20
0.0
 30
0.0
 41
2.0
 42
2.0
 43
2.0
1001
GENIUS_GENOREF_13
1005
624
  0
ATTRIB
  5
F43
  8
0
 10
789.99538162090835
 20
3.410378868790072
 30
0.0
 40
5.0
  1

  2
GEN-TITLE-NR2
 70
     0
  0
ATTRIB
  5
F44
  8
0
 10
637.71496196829344
 20
25.655808651287551
 30
0.0
 40
7.0
  1
UTB-1
  2
GEN-TITLE-DES1
 70
     0
  0
ATTRIB
  5
F45
  8
0
 10
638.0
 20
18.299999999999901
 30
0.0
 40
5.0
  1
UTB型ユニットパネル取付バー
  2
GEN-TITLE-DES2
 70
     0
  0
ATTRIB
  5
F46
  8
0
 10
638.0
 20
3.9999999999999138
 30
0.0
 40
6.0
  1

  2
GEN-TITLE-NR1
 70
     0
  0
ATTRIB
  5
F47
  8
0
 10
508.0762648329416
 20
86.599999999999824
 30
0.0
 40
6.0
  1
SPCC 1.2t
  2
GEN-TITLE-MAT1
 70
     0
  0
ATTRIB
  5
F48
  8
0
 10
508.0762648329416
 20
66.599999999999824
 30
0.0
 40
6.0
  1
三価クローメイト
  2
GEN-TITLE-MAT2
 70
     0
  0
ATTRIB
  5
F49
  8
0
 10
454.77451817478089
 20
31.599999999999881
 30
0.0
 40
6.0
  1

 72
     2
 11
454.77451817478089
 21
31.599999999999881
 31
0.0
  2
GEN-TITLE-QTY
 70
     0
 74
     1
  0
ATTRIB
  5
F4A
  8
0
 10
441.89016644044318
 20
56.599999999999952
 30
0.0
 40
6.0
  1
1:2
 72
     2
 11
450.35052077115182
 21
56.599999999999952
 31
0.0
  2
GEN-TITLE-SCA
 70
     0
 74
     1
  0
ATTRIB
  5
F4B
  8
0
 10
425.6929718722966
 20
7.1766850752213278
 30
0.0
 40
6.0
  1
2008/10/16
 72
     1
 11
445.56560966757218
 21
7.1766850752213278
 31
0.0
  2
GEN-TITLE-DAT
 70
     0
 74
     1
  0
SEQEND
  5
F42
  8
0
  0
POINT
  5
624
  8
0
 10
0.0
 20
0.0
 30
0.0
1001
GENIUS_GENOBJ-N-TIT_13
1002
{
1000
OWNER
1000
GEN
1002
}
1001
GENIUS_GENODEF_13
1002
{
1000
HIER
1070
     1
1002
}
1002
{
1000
MANEDIT
1070
     0
1002
}
1002
{
1000
NOSEL
1070
     0
1002
}
1002
{
1000
BEHIND
1070
     0
1002
}
1002
{
1000
OTHER
1070
     0
1002
}
1002
{
1000
REACTOR
1002
}
1001
GENIUS_GENOENT_13
1002
{
1000
MYREF
1005
624
1002
}
1002
{
1000
GRP
1005
0
1002
}
1001
GENIUS_GENOLIS_13
1002
{
1000
ENT
1005
615
1005
613
1005
F41
1002
}
1001
GENIUS_GENTITLE_13
1002
{
1000
BORDER
1000
TK-A3
1002
}
1002
{
1000
TITLE
1000
TK-TITLE
1002
}
1002
{
1000
SCALE
1000
1:2
1002
}
1002
{
1000
TITLESTD
1000
ISO
1002
}
1002
{
1000
HRA
1005
613
1002
}
1002
{
1000
HTIT
1005
615
1002
}
1002
{
1000
GENIUSID
1005
624
1002
}
1002
{
1000
INVTXTID
1005
0
1002
}
1002
{
1000
UNCHG
1002
{
1000
GEN-TITLE-SIZ
1000
GEN-TITLE-SCA
1002
}
1002
}
  0
ARC
  5
629
  8
ユニットパネル取付バ_
 10
699.07376060124852
 20
341.75893113437439
 30
0.0
 40
1.1999999999999991
 50
180.0
 51
270.0
1001
GENIUS_GENODEF_13
1002
{
1000
HIER
1070
     0
1002
}
1002
{
1000
MANEDIT
1070
     0
1002
}
1002
{
1000
NOSEL
1070
     0
1002
}
1002
{
1000
BEHIND
1070
     0
1002
}
1002
{
1000
REACTOR
1002
}
1001
GENIUS_GENOBJ-N-FIL_13
1002
{
1000
OWNER
1000
GEN
1002
}
  0
LINE
  5
62A
  8
ユニットパネル取付バ_
 10
697.87376060124848
 20
352.55893113437457
 30
0.0
 11
697.87376060124848
 21
341.75893113437462
 31
0.0
  0
LINE
  5
62B
  8
ユニットパネル取付バ_
 10
699.07376060124852
 20
352.55893113437457
 30
0.0
 11
699.07376060124852
 21
341.75893113437462
 31
0.0
  0
ARC
  5
62C
  8
ユニットパネル取付バ_
 10
711.67376060124843
 20
341.75893113437439
 30
0.0
 40
1.1999999999999991
 50
270.0
 51
0.000000000000007
1001
GENIUS_GENODEF_13
1002
{
1000
HIER
1070
     0
1002
}
1002
{
1000
MANEDIT
1070
     0
1002
}
1002
{
1000
NOSEL
1070
     0
1002
}
1002
{
1000
BEHIND
1070
     0
1002
}
1002
{
1000
REACTOR
1002
}
1001
GENIUS_GENOBJ-N-FIL_13
1002
{
1000
OWNER
1000
GEN
1002
}
  0
LINE
  5
62D
  8
ユニットパネル取付バ_
 10
712.87376060124836
 20
352.55893113437457
 30
0.0
 11
712.87376060124836
 21
341.75893113437462
 31
0.0
  0
LINE
  5
62E
  8
ユニットパネル取付バ_
 10
711.67376060124843
 20
352.55893113437457
 30
0.0
 11
711.67376060124843
 21
341.75893113437462
 31
0.0
  0
LINE
  5
62F
  8
ユニットパネル取付バ_
 10
699.07376060124852
 20
340.55893113437457
 30
0.0
 11
711.67376060124843
 21
340.55893113437457
 31
0.0
  0
LINE
  5
630
  8
ユニットパネル取付バ_
 10
697.87376060124848
 20
352.55893113437457
 30
0.0
 11
712.87376060124836
 21
352.55893113437457
 31
0.0
  0
LINE
  5
631
  8
ﾕﾆｯﾄﾊ_ﾈﾙ取付ﾊ__2
 10
699.07376060124852
 20
341.75893113437462
 30
0.0
 11
711.67376060124843
 21
341.75893113437462
 31
0.0
  0
CIRCLE
  5
632
  8
ﾕﾆｯﾄﾊ_ﾈﾙ取付ﾊ__2
 10
705.3737606012487
 20
346.55893113437457
 30
0.0
 40
2.0
  0
CIRCLE
  5
633
  8
ユニットパネル取付バ_
 10
705.3737606012487
 20
346.55893113437457
 30
0.0
 40
1.6000000000000001
  0
DIMENSION
  5
AF2
  8
AM_5
  2
*D6
 10
610.64019102620148
 20
396.55893213437298
 30
0.0
 11
400.64019102620159
 21
403.05962111075092
 31
0.0
 70
     0
 13
190.64019102620159
 23
352.55893113437469
 33
0.0
 14
610.64019102620148
 24
352.55893113437469
 34
0.0
1001
ACAD
1000
DSTYLE
1002
{
1070
    40
1040
2.0
1002
}
  0
DIMENSION
  5
B2A
  8
AM_5
  2
*D7
 10
697.87376060124848
 20
376.55893113437457
 30
0.0
 11
680.46355390833514
 21
383.05962011075252
 31
0.0
 70
     0
 13
699.07376060124852
 23
352.55893113437457
 33
0.0
 14
697.87376060124848
 24
352.55893113437457
 34
0.0
 50
0.0000000000000114
1001
ACAD
1000
DSTYLE
1002
{
1070
    40
1040
2.0
1002
}
  0
DIMENSION
  5
B6A
  8
AM_5
  2
*D8
 10
712.87376060124836
 20
396.55893113437457
 30
0.0
 11
705.37376060124836
 21
403.05893113437452
 31
0.0
 70
     0
 13
697.87376060124848
 23
352.55893113437457
 33
0.0
 14
712.87376060124836
 24
352.55893113437457
 34
0.0
 50
0.0000000000000114
1001
ACAD
1000
DSTYLE
1002
{
1070
    40
1040
2.0
1002
}
  0
DIMENSION
  5
BAA
  8
AM_5
  2
*D9
 10
166.64019102620159
 20
352.55893113437469
 30
0.0
 11
160.14019102620151
 21
367.34200200051652
 31
0.0
 70
     0
 13
198.14019102620159
 23
346.55893113437497
 33
0.0
 14
190.64019102620159
 24
352.55893113437469
 34
0.0
 50
90.000000000000028
1001
ACAD
1000
DSTYLE
1002
{
1070
    40
1040
2.0
1070
   173
1070
     1
1070
     6
1000
DOTSMALL
1002
}
  0
DIMENSION
  5
BEA
  8
AM_5
  2
*D10
 10
166.64019102620159
 20
340.5589311343748
 30
0.0
 11
160.14019102620151
 21
325.77586026823309
 31
0.0
 70
     0
 13
198.14019102620159
 23
346.55893113437497
 33
0.0
 14
191.84019102620161
 24
340.5589311343748
 34
0.0
 50
90.000000000000028
1001
ACAD
1000
DSTYLE
1002
{
1070
    40
1040
2.0
1070
   173
1070
     1
1070
     6
1000
DOTSMALL
1002
}
  0
DIMENSION
  5
C2A
  8
AM_5
  2
*D11
 10
146.64019102620159
 20
352.55893113437469
 30
0.0
 11
139.7686315677513
 21
346.83620130175899
 31
0.0
 70
   128
 13
191.84019102620161
 23
340.5589311343748
 33
0.0
 14
190.64019102620159
 24
352.55893113437469
 34
0.0
 50
90.000000000000028
1001
ACAD
1000
DSTYLE
1002
{
1070
   287
1070
     5
1070
    40
1040
2.0
1070
   279
1070
     2
1002
}
  0
DIMENSION
  5
CAA
  8
AM_5
  2
*D12
 10
166.64019102620171
 20
197.74788239313551
 30
0.0
 11
160.3902928064287
 21
188.90337024163631
 31
0.0
 70
   128
 13
196.14019102620159
 23
205.2478823931358
 33
0.0
 14
190.64019102620171
 24
197.74788239313551
 34
0.0
 50
90.000000000000028
1001
ACAD
1000
DSTYLE
1002
{
1070
   287
1070
     5
1070
    40
1040
2.0
1070
   173
1070
     1
1070
   279
1070
     2
1070
     6
1000
GENDOT
1002
}
  0
DIMENSION
  5
CDC
  8
AM_5
  2
*D13
 10
166.64019102620171
 20
205.2478823931358
 30
0.0
 11
159.50172734504159
 21
220.3241780075796
 31
0.0
 70
   128
 13
190.64019102620171
 23
212.74788239313551
 33
0.0
 14
196.14019102620159
 24
205.2478823931358
 34
0.0
 50
90.0
1001
ACAD
1000
DSTYLE
1002
{
1070
   287
1070
     5
1070
    40
1040
2.0
1070
   173
1070
     1
1070
   279
1070
     2
1070
     7
1000
DOTSMALL
1002
}
  0
DIMENSION
  5
D42
  8
AM_5
  2
*D15
 10
146.64019102620159
 20
197.74788239313551
 30
0.0
 11
140.14019102620159
 21
205.24788239313551
 31
0.0
 70
     0
 13
190.64019102620171
 23
212.74788239313551
 33
0.0
 14
188.64019102620171
 24
197.74788239313551
 34
0.0
 50
90.0
1001
ACAD
1000
DSTYLE
1002
{
1070
    40
1040
2.0
1002
}
  0
DIMENSION
  5
E28
  8
AM_5
  2
*D17
 10
190.64019102620171
 20
236.74788239313551
 30
0.0
 11
174.4874351206899
 21
243.24788239313551
 31
0.0
 70
     0
 13
200.64019102620159
 23
209.74788239313571
 33
0.0
 14
190.64019102620171
 24
212.74788239313551
 34
0.0
1001
ACAD
1000
DSTYLE
1002
{
1070
    40
1040
2.0
1002
}
  0
DIMENSION
  5
E68
  8
AM_5
  2
*D18
 10
610.64019102620148
 20
236.74788239313571
 30
0.0
 11
626.79294693171346
 21
243.24788239313571
 31
0.0
 70
     0
 13
600.64019102620159
 23
209.95162722960919
 33
0.0
 14
610.64019102620148
 24
212.74788239313571
 34
0.0
1001
ACAD
1000
DSTYLE
1002
{
1070
    40
1040
2.0
1002
}
  0
INSERT
  5
E9E
  8
AM_5
  2
*S21
 10
0.0
 20
0.0
 30
0.0
1001
ACAD
1000
AcRTDxfName
1000
AMDTNOTE
  0
INSERT
  5
EA2
  8
AM_5
  2
*S22
 10
0.0
 20
0.0
 30
0.0
1001
ACAD
1000
AcRTDxfName
1000
AMDTNOTE
  0
INSERT
  5
EA5
  8
AM_5
  2
*S23
 10
0.0
 20
0.0
 30
0.0
1001
ACAD
1000
AcRTDxfName
1000
AMDTNOTE
  0
VIEWPORT
  5
178
 67
     1
  8
0
 10
133.34999084472659
 20
123.6089706563676
 30
0.0
 40
370.22669129365238
 41
272.44014076799652
 68
     1
 69
     1
1001
ACAD
1000
MVIEW
1002
{
1070
    16
1010
0.0
1020
0.0
1030
0.0
1010
0.0
1020
0.0
1030
1.0
1040
0.0
1040
272.44014076799652
1040
133.34999084472659
1040
123.6089706563676
1040
50.0
1040
0.0
1040
0.0
1070
     0
1070
   100
1070
     1
1070
     1
1070
     0
1070
     0
1070
     0
1070
     0
1040
0.0
1040
0.0
1040
0.0
1040
10.0
1040
10.0
1040
10.0
1040
10.0
1070
     0
1002
{
1002
}
1002
}
1001
GENIUS_GENOBJ-N-SDF_13
1002
{
1000
OWNER
1000
GEN
1002
}
1001
GENIUS_GENODEF_13
1002
{
1000
HIER
1070
     0
1002
}
1002
{
1000
MANEDIT
1070
     0
1002
}
1002
{
1000
NOSEL
1070
     0
1002
}
1002
{
1000
BEHIND
1070
     0
1002
}
1002
{
1000
OTHER
1070
     0
1002
}
1002
{
1000
REACTOR
1002
}
1001
GENIUS_GENSCREG_15
1000
PF
1040
1.0
1000
DF
1040
1.0
1000
MIN
1011
-51.763354802099627
1021
0.0
1031
0.0
1021
-12.611099727630631
1031
0.0
1000
MAX
1011
318.46333649155281
1021
0.0
1031
0.0
1021
259.82904104036589
1031
0.0
1000
FLAGS
1070
     2
  0
ENDSEC
  0
EOF
