  0
SECTION
  2
HEADER
  9
$ACADVER
  1
AC1009
  9
$INSBASE
 10
0.0
 20
0.0
 30
0.0
  9
$EXTMIN
 10
-0.0036145299544614
 20
-0.0045752579476357
 30
-0.0000000000000053
  9
$EXTMAX
 10
193.0125121357091
 20
280.00055564901658
 30
0.0000000000000099
  9
$LIMMIN
 10
0.0
 20
0.0
  9
$LIMMAX
 10
193.0
 20
280.00000000000011
  9
$ORTHOMODE
 70
     0
  9
$REGENMODE
 70
     1
  9
$FILLMODE
 70
     1
  9
$QTEXTMODE
 70
     0
  9
$MIRRTEXT
 70
     1
  9
$DRAGMODE
 70
     2
  9
$LTSCALE
 40
1.0
  9
$OSMODE
 70
   431
  9
$ATTMODE
 70
     1
  9
$TEXTSIZE
 40
73.985717453579113
  9
$TRACEWID
 40
1.0
  9
$TEXTSTYLE
  7
STANDARD
  9
$CLAYER
  8
ﾊ_ﾈﾙ0
  9
$CELTYPE
  6
BYLAYER
  9
$CECOLOR
 62
   256
  9
$DIMSCALE
 40
1.0
  9
$DIMASZ
 40
2.5
  9
$DIMEXO
 40
1.0
  9
$DIMDLI
 40
10.0
  9
$DIMRND
 40
0.0
  9
$DIMDLE
 40
0.0
  9
$DIMEXE
 40
1.0
  9
$DIMTP
 40
0.1
  9
$DIMTM
 40
0.1
  9
$DIMTXT
 40
3.5
  9
$DIMCEN
 40
0.0
  9
$DIMTSZ
 40
0.0
  9
$DIMTOL
 70
     0
  9
$DIMLIM
 70
     0
  9
$DIMTIH
 70
     0
  9
$DIMTOH
 70
     0
  9
$DIMSE1
 70
     0
  9
$DIMSE2
 70
     0
  9
$DIMTAD
 70
     1
  9
$DIMZIN
 70
     8
  9
$DIMBLK
  1
OPEN30
  9
$DIMASO
 70
     1
  9
$DIMSHO
 70
     1
  9
$DIMPOST
  1

  9
$DIMAPOST
  1
"
  9
$DIMALT
 70
     0
  9
$DIMALTD
 70
     2
  9
$DIMALTF
 40
0.0393701
  9
$DIMLFAC
 40
1.0
  9
$DIMTOFL
 70
     1
  9
$DIMTVP
 40
0.0
  9
$DIMTIX
 70
     0
  9
$DIMSOXD
 70
     0
  9
$DIMSAH
 70
     0
  9
$DIMBLK1
  1

  9
$DIMBLK2
  1

  9
$DIMSTYLE
  2
AM_ISO
  9
$DIMCLRD
 70
   256
  9
$DIMCLRE
 70
   256
  9
$DIMCLRT
 70
     2
  9
$DIMTFAC
 40
0.71
  9
$DIMGAP
 40
1.5
  9
$LUNITS
 70
     2
  9
$LUPREC
 70
     2
  9
$SKETCHINC
 40
1.0
  9
$FILLETRAD
 40
2.5
  9
$AUNITS
 70
     0
  9
$AUPREC
 70
     0
  9
$MENU
  1
.
  9
$ELEVATION
 40
0.0
  9
$PELEVATION
 40
0.0
  9
$THICKNESS
 40
0.0
  9
$LIMCHECK
 70
     0
  9
$BLIPMODE
 70
     0
  9
$CHAMFERA
 40
2.5
  9
$CHAMFERB
 40
2.5
  9
$SKPOLY
 70
     0
  9
$TDCREATE
 40
2453622.6565625011
  9
$TDUPDATE
 40
2454767.771663229
  9
$TDINDWG
 40
0.0375990972
  9
$TDUSRTIMER
 40
0.0375990972
  9
$USRTIMER
 70
     1
  9
$ANGBASE
 50
0.0
  9
$ANGDIR
 70
     0
  9
$PDMODE
 70
     0
  9
$PDSIZE
 40
0.0
  9
$PLINEWID
 40
0.0
  9
$COORDS
 70
     2
  9
$SPLFRAME
 70
     0
  9
$SPLINETYPE
 70
     6
  9
$SPLINESEGS
 70
     8
  9
$ATTDIA
 70
     1
  9
$ATTREQ
 70
     1
  9
$HANDLING
 70
     1
  9
$HANDSEED
  5
11B4
  9
$SURFTAB1
 70
     6
  9
$SURFTAB2
 70
     6
  9
$SURFTYPE
 70
     6
  9
$SURFU
 70
     6
  9
$SURFV
 70
     6
  9
$UCSNAME
  2

  9
$UCSORG
 10
0.0
 20
0.0
 30
0.0
  9
$UCSXDIR
 10
1.0
 20
0.0
 30
0.0
  9
$UCSYDIR
 10
0.0
 20
1.0
 30
0.0
  9
$PUCSNAME
  2

  9
$PUCSORG
 10
0.0
 20
0.0
 30
0.0
  9
$PUCSXDIR
 10
1.0
 20
0.0
 30
0.0
  9
$PUCSYDIR
 10
0.0
 20
1.0
 30
0.0
  9
$USERI1
 70
     0
  9
$USERI2
 70
     0
  9
$USERI3
 70
     0
  9
$USERI4
 70
     0
  9
$USERI5
 70
     0
  9
$USERR1
 40
0.0
  9
$USERR2
 40
0.0
  9
$USERR3
 40
0.0
  9
$USERR4
 40
0.0
  9
$USERR5
 40
0.0
  9
$WORLDVIEW
 70
     1
  9
$SHADEDGE
 70
     3
  9
$SHADEDIF
 70
    70
  9
$TILEMODE
 70
     1
  9
$MAXACTVP
 70
    64
  9
$PLIMCHECK
 70
     0
  9
$PEXTMIN
 10
1.0000000000000000E+020
 20
1.0000000000000000E+020
 30
1.0000000000000000E+020
  9
$PEXTMAX
 10
-1.0000000000000000E+020
 20
-1.0000000000000000E+020
 30
-1.0000000000000000E+020
  9
$PLIMMIN
 10
-6.350006103515625
 20
-6.3499999046325684
  9
$PLIMMAX
 10
273.04998779296881
 20
209.54999399185181
  9
$UNITMODE
 70
     0
  9
$VISRETAIN
 70
     1
  9
$PLINEGEN
 70
     0
  9
$PSLTSCALE
 70
     1
  0
ENDSEC
  0
SECTION
  2
TABLES
  0
TABLE
  2
VPORT
 70
     3
  0
VPORT
  2
*ACTIVE
 70
     0
 10
0.0
 20
0.0
 11
1.0
 21
1.0
 12
96.504448802877334
 22
139.9979901955345
 13
0.0
 23
0.0
 14
2.5
 24
2.5
 15
10.0
 25
10.0
 16
0.0
 26
0.0
 36
1.0
 17
0.0
 27
0.0
 37
0.0
 40
282.19267099217501
 41
1.245110821382007
 42
50.0
 43
0.0
 44
0.0
 50
0.0
 51
0.0
 71
    16
 72
   100
 73
     1
 74
     3
 75
     0
 76
     0
 77
     0
 78
     0
  0
ENDTAB
  0
TABLE
  2
LTYPE
 70
    22
  0
LTYPE
  2
CONTINUOUS
 70
     0
  3
Solid line
 72
    65
 73
     0
 40
0.0
  0
LTYPE
  2
AM_ISO02W050
 70
     0
  3
__ __ __ __ __ __ __ __ __ __ __ __ __ __ __
 72
    65
 73
     2
 40
7.5
 49
6.0
 49
-1.5
  0
LTYPE
  2
AM_ISO08W050
 70
     0
  3
____ . ____ . ____ . ____ . ____ . ____ . ____
 72
    65
 73
     4
 40
18.0
 49
12.0
 49
-1.5
 49
3.0
 49
-1.5
  0
LTYPE
  2
AM_ISO09W050
 70
     0
  3
_____ . . _____ . . _____ . . ____ .. ____
 72
    65
 73
     6
 40
22.5
 49
12.0
 49
-1.5
 49
3.0
 49
-1.5
 49
3.0
 49
-1.5
  0
LTYPE
  2
AMCONSTR
 70
     0
  3
_______________________
 72
    65
 73
     2
 40
9999.0
 49
9999.0
 49
0.0
  0
LTYPE
  2
AM_ISO08W050X2
 70
     0
  3
__ . __ . __ . __ . __ . __
 72
    65
 73
     4
 40
9.0
 49
6.0
 49
-0.75
 49
1.5
 49
-0.75
  0
LTYPE
  2
AM_ISO02W050X2
 70
     0
  3
 _ _ _ _ _ _ _ _ _ _ _ _
 72
    65
 73
     2
 40
3.75
 49
3.0
 49
-0.75
  0
LTYPE
  2
AMZIGZAG
 70
     0
  3
/\/-/\/-/\/-/\/-/\/-/\/
 72
    65
 73
     2
 40
11.0001
 49
0.0001
 49
-11.0
  0
LTYPE
  2
ACISOWELD
 70
     0
  3
_ _ _ _ _
 72
    65
 73
     2
 40
2.0
 49
2.0
 49
-1.0
  0
LTYPE
  2
ACISOTGB
 70
     0
  3
__ . . __ . .
 72
    65
 73
     6
 40
9.0
 49
4.0
 49
-1.0
 49
1.0
 49
-1.0
 49
1.0
 49
-1.0
  0
LTYPE
  2
ACISOTGL
 70
     0
  3
_ _ _ _ _
 72
    65
 73
     2
 40
3.0
 49
2.0
 49
-1.0
  0
LTYPE
  2
CENTER
 70
     0
  3
__ . __
 72
    65
 73
     4
 40
7.0
 49
4.0
 49
-1.0
 49
1.0
 49
-1.0
  0
LTYPE
  2
HIDDEN
 70
     0
  3
Hidden __ __ __ __ __ __ __ __ __ __ __ __ __ _
 72
    65
 73
     2
 40
9.5249999999999986
 49
6.3499999999999988
 49
-3.1749999999999989
  0
LTYPE
  2
PHANTOM2
 70
     0
  3
Phantom (.5x) ___ _ _ ___ _ _ ___ _ _ ___ _ _
 72
    65
 73
     6
 40
31.75
 49
15.875
 49
-3.1749999999999989
 49
3.1749999999999989
 49
-3.1749999999999989
 49
3.1749999999999989
 49
-3.1749999999999989
  0
LTYPE
  2
GEN3
 70
     0
  3
-- -- -- -- -- -- -- -- -- -- -- -- -- -- --
 72
    65
 73
     2
 40
6.25
 49
4.75
 49
-1.5
  0
LTYPE
  2
GEN7
 70
     0
  3
____ . ____ . ____ . ____ . ____ . ____ . ____
 72
    65
 73
     4
 40
13.75
 49
9.75
 49
-1.5
 49
1.0
 49
-1.5
  0
LTYPE
  2
GEN3A
 70
     0
  3
 - - - - -
 72
    65
 73
     2
 40
3.125
 49
2.25
 49
-0.875
  0
LTYPE
  2
GEN7A
 70
     0
  3
__ . __ . __
 72
    65
 73
     4
 40
6.875
 49
4.75
 49
-0.875
 49
0.375
 49
-0.875
  0
LTYPE
  2
GEN4A
 70
     0
  3
_____ . . _____ . . _____ . . ____ .. ____
 72
    65
 73
     6
 40
16.25
 49
9.75
 49
-1.5
 49
1.0
 49
-1.5
 49
1.0
 49
-1.5
  0
LTYPE
  2
GENZIGZAG
 70
     0
  3
/\/-/\/-/\/-/\/-/\/-/\/
 72
    65
 73
     2
 40
12.0001
 49
0.0001
 49
-12.0
  0
LTYPE
  2
ACJISTGB
 70
     0
  3
__ . . __ . .
 72
    65
 73
     6
 40
9.0
 49
4.0
 49
-1.0
 49
1.0
 49
-1.0
 49
1.0
 49
-1.0
  0
LTYPE
  2
ACJISTGL
 70
     0
  3
_ _ _ _ _
 72
    65
 73
     2
 40
3.0
 49
2.0
 49
-1.0
  0
ENDTAB
  0
TABLE
  2
LAYER
 70
    12
  0
LAYER
  2
0
 70
     0
 62
     7
  6
CONTINUOUS
  0
LAYER
  2
DEFPOINTS
 70
     0
 62
     7
  6
CONTINUOUS
  0
LAYER
  2
ﾊ_ﾈﾙ
 70
     0
 62
     2
  6
CONTINUOUS
  0
LAYER
  2
ﾊ_ﾈﾙ0
 70
     0
 62
     2
  6
AM_ISO02W050X2
  0
LAYER
  2
7A
 70
     0
 62
     4
  6
GEN7A
  0
LAYER
  2
RAHM2
 70
     0
 62
     1
  6
CONTINUOUS
  0
LAYER
  2
AM_5
 70
     0
 62
     3
  6
CONTINUOUS
  0
LAYER
  2
AM_7
 70
     0
 62
     4
  6
AM_ISO08W050
  0
LAYER
  2
AM_12
 70
     0
 62
     7
  6
CONTINUOUS
  0
LAYER
  2
AM_PAREF
 70
     0
 62
     4
  6
CONTINUOUS
  0
LAYER
  2
ﾋ_ｽ
 70
     0
 62
     8
  6
CONTINUOUS
  0
LAYER
  2
ﾋ_ｽ0
 70
     0
 62
     8
  6
AM_ISO02W050X2
  0
ENDTAB
  0
TABLE
  2
STYLE
 70
     7
  0
STYLE
  2
STANDARD
 70
     0
 40
0.0
 41
1.0
 50
0.0
 71
     0
 42
73.985717453579113
  3
ISOCP.SHX
  4
bigfont.shx
  0
STYLE
  2

 70
     1
 40
0.0
 41
1.0
 50
0.0
 71
     0
 42
2.5
  3
ltypeshp.shx
  4

  0
STYLE
  2
ACISOTS
 70
     0
 40
1.0
 41
1.0
 50
0.0
 71
     0
 42
2.5
  3
isocp.shx
  4
extfont.shx
  0
STYLE
  2
ACISOGDT
 70
     0
 40
0.0
 41
1.0
 50
0.0
 71
     0
 42
2.5
  3
amgdt.shx
  4

  0
STYLE
  2

 70
     1
 40
0.0
 41
1.0
 50
0.0
 71
     0
 42
3.0
  3
genltshp.shx
  4

  0
STYLE
  2
ACJISTS
 70
     0
 40
1.0
 41
1.0
 50
0.0
 71
     0
 42
2.5
  3
isocp.shx
  4
bigfont.shx
  0
STYLE
  2
ACJISGDT
 70
     0
 40
0.0
 41
1.0
 50
0.0
 71
     0
 42
2.5
  3
amgdt.shx
  4

  0
ENDTAB
  0
TABLE
  2
VIEW
 70
     6
  0
VIEW
  2
AM_VIEW1
 70
     0
 40
140.0
 10
87.135416666666686
 20
210.0
 41
174.27083333333329
 11
0.0
 21
0.0
 31
1.0
 12
0.0
 22
0.0
 32
0.0
 42
50.0
 43
0.0
 44
0.0
 50
0.0
 71
    16
  0
VIEW
  2
AM_VIEW2
 70
     0
 40
140.0
 10
105.8645833333333
 20
210.0
 41
174.27083333333329
 11
0.0
 21
0.0
 31
1.0
 12
0.0
 22
0.0
 32
0.0
 42
50.0
 43
0.0
 44
0.0
 50
0.0
 71
    16
  0
VIEW
  2
AM_VIEW3
 70
     0
 40
140.0
 10
87.135416666666686
 20
70.000000000000014
 41
174.27083333333329
 11
0.0
 21
0.0
 31
1.0
 12
0.0
 22
0.0
 32
0.0
 42
50.0
 43
0.0
 44
0.0
 50
0.0
 71
    16
  0
VIEW
  2
AM_VIEW4
 70
     0
 40
140.0
 10
105.8645833333333
 20
70.000000000000014
 41
174.27083333333329
 11
0.0
 21
0.0
 31
1.0
 12
0.0
 22
0.0
 32
0.0
 42
50.0
 43
0.0
 44
0.0
 50
0.0
 71
    16
  0
VIEW
  2
AM_VIEW5
 70
     0
 40
140.0
 10
96.5
 20
140.0
 41
174.27083333333329
 11
0.0
 21
0.0
 31
1.0
 12
0.0
 22
0.0
 32
0.0
 42
50.0
 43
0.0
 44
0.0
 50
0.0
 71
    16
  0
VIEW
  2
AM_VIEW6
 70
     0
 40
279.99720000000008
 10
96.5
 20
140.0
 41
348.53818125000009
 11
0.0
 21
0.0
 31
1.0
 12
0.0
 22
0.0
 32
0.0
 42
50.0
 43
0.0
 44
0.0
 50
0.0
 71
    16
  0
ENDTAB
  0
TABLE
  2
UCS
 70
     0
  0
ENDTAB
  0
TABLE
  2
APPID
 70
    38
  0
APPID
  2
ACAD
 70
     0
  0
APPID
  2
MCAD_NO_VIS
 70
     0
  0
APPID
  2
ACAD_TEMP_GRAPHIC
 70
     0
  0
APPID
  2
ACATTRIBSERVICES
 70
     0
  0
APPID
  2
AD_DRAW
 70
     0
  0
APPID
  2
DESIGNERASSEMBLIES
 70
     0
  0
APPID
  2
ACADM_DIM_EDIT
 70
     0
  0
APPID
  2
AMDT_DM_ADJ
 70
     0
  0
APPID
  2
GENIUS_GENREC_14
 70
     0
  0
APPID
  2
GENIUS_GENODEF_13
 70
     0
  0
APPID
  2
GENIUS_GENOBJ-N-REC_13
 70
     0
  0
APPID
  2
GENIUS_GENDIMSH_14
 70
     0
  0
APPID
  2
GENIUS_GENCFG_13
 70
     0
  0
APPID
  2
GENIUS_GENCFG0_13
 70
     0
  0
APPID
  2
GENIUS_GENCFG1_13
 70
     0
  0
APPID
  2
GENIUS_GENCFG2_13
 70
     0
  0
APPID
  2
GENIUS_GENCFG3_13
 70
     0
  0
APPID
  2
GENIUS_GENCFG4_13
 70
     0
  0
APPID
  2
GENIUS_GEVCFG0_13
 70
     0
  0
APPID
  2
GENIUS_GENOENT_13
 70
     0
  0
APPID
  2
GENIUS_GENOBJ-N-CRS_13
 70
     0
  0
APPID
  2
GENIUS_GENOREF_13
 70
     0
  0
APPID
  2
GENIUS_GENOLIS_13
 70
     0
  0
APPID
  2
GENIUS_GENOBJ-N-TIT_13
 70
     0
  0
APPID
  2
GENIUS_GENTITLE_13
 70
     0
  0
APPID
  2
GENIUS_GENSCREG_15
 70
     0
  0
APPID
  2
GENIUS_GENOBJ-N-SDF_13
 70
     0
  0
APPID
  2
GENIUS_GENOBJ-N-CEN_13
 70
     0
  0
APPID
  2
GENIUS_GENOBJ-N-HTC_13
 70
     0
  0
APPID
  2
GENIUS_GENHATCH_13
 70
     0
  0
APPID
  2
GENIUS_GENOBJ-N-ZOO_13
 70
     0
  0
APPID
  2
GENIUS_GENZOO_17
 70
     0
  0
APPID
  2
GEV_VCCNULL_SWITCH_OFF
 70
     0
  0
APPID
  2
GENIUS_GENDTOL_13
 70
     0
  0
APPID
  2
RAK
 70
     0
  0
APPID
  2
ACAD_PSEXT
 70
     0
  0
APPID
  2
GENIUS_GENOBJ-N-FIL_13
 70
     0
  0
APPID
  2
GENIUS_GENSCREG_13
 70
     0
  0
ENDTAB
  0
TABLE
  2
DIMSTYLE
 70
    23
  0
DIMSTYLE
  2
AM_ISO
 70
     0
  3

  4
"
  5
OPEN30
  6

  7

 40
1.0
 41
2.5
 42
1.0
 43
10.0
 44
1.0
 45
0.0
 46
0.0
 47
0.1
 48
0.1
140
3.5
141
0.0
142
0.0
143
0.0393701
144
1.0
145
0.0
146
0.71
147
1.5
 71
     0
 72
     0
 73
     0
 74
     0
 75
     0
 76
     0
 77
     1
 78
     8
170
     0
171
     2
172
     1
173
     0
174
     0
175
     0
176
   256
177
   256
178
     2
  0
DIMSTYLE
  2
AM_ISO$3
 70
     0
  3

  4
"
  5
OPEN30
  6

  7

 40
1.0
 41
2.5
 42
1.0
 43
10.0
 44
1.0
 45
0.0
 46
0.0
 47
0.1
 48
0.1
140
3.5
141
0.0
142
0.0
143
0.0393701
144
1.0
145
0.0
146
0.71
147
1.5
 71
     0
 72
     0
 73
     0
 74
     1
 75
     0
 76
     0
 77
     1
 78
     8
170
     0
171
     2
172
     0
173
     0
174
     0
175
     0
176
   256
177
   256
178
     2
  0
DIMSTYLE
  2
AM_ISO$4
 70
     0
  3

  4
"
  5
OPEN30
  6

  7

 40
1.0
 41
2.5
 42
1.0
 43
10.0
 44
1.0
 45
0.0
 46
0.0
 47
0.1
 48
0.1
140
3.5
141
0.0
142
0.0
143
0.0393701
144
1.0
145
0.0
146
0.71
147
1.5
 71
     0
 72
     0
 73
     0
 74
     1
 75
     0
 76
     0
 77
     1
 78
     8
170
     0
171
     2
172
     0
173
     0
174
     0
175
     0
176
   256
177
   256
178
     2
  0
DIMSTYLE
  2
AM_ISO$6
 70
     0
  3

  4
"
  5
OPEN30
  6

  7

 40
1.0
 41
2.5
 42
1.0
 43
10.0
 44
1.0
 45
0.0
 46
0.0
 47
0.1
 48
0.1
140
3.5
141
0.0
142
0.0
143
0.0393701
144
1.0
145
0.0
146
0.71
147
1.5
 71
     0
 72
     0
 73
     0
 74
     0
 75
     0
 76
     0
 77
     0
 78
     8
170
     0
171
     2
172
     1
173
     0
174
     0
175
     0
176
   256
177
   256
178
     2
  0
DIMSTYLE
  2
AM_ISO$7
 70
     0
  3

  4
"
  5
OPEN30
  6

  7

 40
1.0
 41
2.5
 42
1.0
 43
10.0
 44
1.0
 45
0.0
 46
0.0
 47
0.1
 48
0.1
140
5.0
141
0.0
142
0.0
143
0.0393701
144
1.0
145
0.0
146
0.71
147
1.5
 71
     0
 72
     0
 73
     0
 74
     0
 75
     0
 76
     0
 77
     1
 78
     8
170
     0
171
     2
172
     1
173
     0
174
     0
175
     0
176
   256
177
   256
178
     2
  0
DIMSTYLE
  2
AM_ISO$SF
 70
     0
  3

  4
"
  5
OPEN30
  6

  7

 40
1.0
 41
2.5
 42
1.0
 43
10.0
 44
1.0
 45
0.0
 46
0.0
 47
0.1
 48
0.1
140
3.5
141
0.0
142
0.0
143
0.0393701
144
1.0
145
0.0
146
0.71
147
1.5
 71
     0
 72
     0
 73
     0
 74
     0
 75
     1
 76
     1
 77
     1
 78
     8
170
     0
171
     2
172
     1
173
     0
174
     0
175
     0
176
   256
177
   256
178
     2
  0
DIMSTYLE
  2
AM_ISO$SH
 70
     0
  3

  4
"
  5

  6
GENAXEH
  7
OPEN30
 40
1.0
 41
2.5
 42
1.0
 43
10.0
 44
1.0
 45
0.0
 46
0.0
 47
0.1
 48
0.1
140
3.5
141
0.0
142
0.0
143
0.0393701
144
2.0
145
0.0
146
0.71
147
1.5
 71
     0
 72
     0
 73
     0
 74
     0
 75
     1
 76
     1
 77
     1
 78
     8
170
     0
171
     2
172
     1
173
     1
174
     0
175
     0
176
   256
177
   256
178
     2
  0
DIMSTYLE
  2
GEN-ISO
 70
     0
  3

  4
"
  5

  6

  7

 40
1.0
 41
2.5
 42
1.0
 43
10.0
 44
1.0
 45
0.0
 46
0.0
 47
0.1
 48
0.1
140
3.5
141
0.0
142
0.0
143
0.0393701
144
1.0
145
0.0
146
0.71
147
1.5
 71
     0
 72
     0
 73
     0
 74
     0
 75
     0
 76
     0
 77
     1
 78
     8
170
     0
171
     2
172
     1
173
     0
174
     0
175
     0
176
   256
177
   256
178
     2
  0
DIMSTYLE
  2
GEN-ISO$4
 70
     0
  3

  4
"
  5

  6

  7

 40
1.0
 41
2.5
 42
1.0
 43
10.0
 44
1.0
 45
0.0
 46
0.0
 47
0.1
 48
0.1
140
3.5
141
0.0
142
0.0
143
0.0393701
144
1.0
145
0.0
146
0.71
147
1.5
 71
     0
 72
     0
 73
     0
 74
     1
 75
     0
 76
     0
 77
     1
 78
     8
170
     0
171
     2
172
     0
173
     0
174
     0
175
     0
176
   256
177
   256
178
     2
  0
DIMSTYLE
  2
GEN-ISO$3
 70
     0
  3

  4
"
  5

  6

  7

 40
1.0
 41
2.5
 42
1.0
 43
10.0
 44
1.0
 45
0.0
 46
0.0
 47
0.1
 48
0.1
140
3.5
141
0.0
142
0.0
143
0.0393701
144
1.0
145
0.0
146
0.71
147
1.5
 71
     0
 72
     0
 73
     0
 74
     1
 75
     0
 76
     0
 77
     1
 78
     8
170
     0
171
     2
172
     0
173
     0
174
     0
175
     0
176
   256
177
   256
178
     2
  0
DIMSTYLE
  2
ISO-25
 70
     0
  3

  4

  5

  6

  7

 40
1.0
 41
2.5
 42
0.625
 43
3.75
 44
1.25
 45
0.0
 46
0.0
 47
0.0
 48
0.0
140
2.5
141
2.5
142
0.0
143
0.0394
144
1.0
145
1.0
146
1.0
147
0.625
 71
     0
 72
     0
 73
     1
 74
     0
 75
     0
 76
     0
 77
     1
 78
     8
170
     0
171
     2
172
     1
173
     0
174
     0
175
     0
176
     0
177
     0
178
     0
  0
DIMSTYLE
  2
GEN-ISO$6
 70
     0
  3

  4
"
  5

  6

  7

 40
1.0
 41
2.5
 42
1.0
 43
10.0
 44
1.0
 45
0.0
 46
0.0
 47
0.1
 48
0.1
140
3.5
141
0.0
142
0.0
143
0.0393701
144
1.0
145
0.0
146
0.71
147
1.5
 71
     0
 72
     0
 73
     0
 74
     0
 75
     0
 76
     0
 77
     0
 78
     8
170
     0
171
     2
172
     0
173
     0
174
     0
175
     0
176
   256
177
   256
178
     2
  0
DIMSTYLE
  2
GEN-ISO-POS
 70
     0
  3

  4
"
  5

  6

  7

 40
1.0
 41
2.5
 42
1.0
 43
10.0
 44
1.0
 45
0.0
 46
0.0
 47
0.1
 48
0.1
140
5.0
141
0.0
142
0.0
143
0.0393701
144
1.0
145
0.0
146
0.71
147
1.5
 71
     0
 72
     0
 73
     0
 74
     0
 75
     0
 76
     0
 77
     0
 78
     8
170
     0
171
     2
172
     0
173
     0
174
     0
175
     0
176
   256
177
   256
178
     2
  0
DIMSTYLE
  2
GEN-ISO-AXE-F
 70
     0
  3

  4
"
  5

  6

  7

 40
1.0
 41
2.5
 42
1.0
 43
10.0
 44
1.0
 45
0.0
 46
0.0
 47
0.1
 48
0.1
140
3.5
141
0.0
142
0.0
143
0.0393701
144
1.0
145
0.0
146
0.71
147
1.5
 71
     0
 72
     0
 73
     0
 74
     0
 75
     1
 76
     1
 77
     1
 78
     8
170
     0
171
     2
172
     1
173
     0
174
     0
175
     0
176
   256
177
   256
178
     2
  0
DIMSTYLE
  2
GEN-ISO-AXE-H
 70
     0
  3

  4
"
  5

  6

  7

 40
1.0
 41
2.5
 42
1.0
 43
10.0
 44
1.0
 45
0.0
 46
0.0
 47
0.1
 48
0.1
140
3.5
141
0.0
142
0.0
143
0.0393701
144
2.0
145
0.0
146
0.71
147
1.5
 71
     0
 72
     0
 73
     0
 74
     0
 75
     1
 76
     1
 77
     1
 78
     8
170
     0
171
     2
172
     1
173
     1
174
     0
175
     0
176
   256
177
   256
178
     2
  0
DIMSTYLE
  2
AM_JIS
 70
     0
  3

  4
"
  5
OPEN30
  6
OPEN30
  7
OPEN30
 40
1.0
 41
2.5
 42
1.0
 43
10.0
 44
1.0
 45
0.0
 46
0.0
 47
0.1
 48
0.1
140
3.5
141
0.0
142
0.0
143
0.0393701
144
1.0
145
0.0
146
0.71
147
1.5
 71
     0
 72
     0
 73
     0
 74
     0
 75
     0
 76
     0
 77
     3
 78
     8
170
     0
171
     2
172
     1
173
     0
174
     0
175
     0
176
   256
177
   256
178
     2
  0
DIMSTYLE
  2
AM_JIS$3
 70
     0
  3

  4
"
  5
OPEN30
  6
OPEN30
  7
OPEN30
 40
1.0
 41
2.5
 42
1.0
 43
10.0
 44
1.0
 45
0.0
 46
0.0
 47
0.1
 48
0.1
140
3.5
141
0.0
142
0.0
143
0.0393701
144
1.0
145
0.0
146
0.71
147
1.5
 71
     0
 72
     0
 73
     0
 74
     1
 75
     0
 76
     0
 77
     3
 78
     8
170
     0
171
     2
172
     0
173
     0
174
     0
175
     0
176
   256
177
   256
178
     2
  0
DIMSTYLE
  2
AM_JIS$4
 70
     0
  3

  4
"
  5
OPEN30
  6
OPEN30
  7
OPEN30
 40
1.0
 41
2.5
 42
1.0
 43
10.0
 44
1.0
 45
0.0
 46
0.0
 47
0.1
 48
0.1
140
3.5
141
0.0
142
0.0
143
0.0393701
144
1.0
145
0.0
146
0.71
147
1.5
 71
     0
 72
     0
 73
     0
 74
     1
 75
     0
 76
     0
 77
     3
 78
     8
170
     0
171
     2
172
     0
173
     0
174
     0
175
     0
176
   256
177
   256
178
     2
  0
DIMSTYLE
  2
AM_JIS$6
 70
     0
  3

  4
"
  5
OPEN30
  6
OPEN30
  7
OPEN30
 40
1.0
 41
2.5
 42
1.0
 43
10.0
 44
1.0
 45
0.0
 46
0.0
 47
0.1
 48
0.1
140
3.5
141
0.0
142
0.0
143
0.0393701
144
1.0
145
0.0
146
0.71
147
1.5
 71
     0
 72
     0
 73
     0
 74
     0
 75
     0
 76
     0
 77
     0
 78
     8
170
     0
171
     2
172
     1
173
     0
174
     0
175
     0
176
   256
177
   256
178
     2
  0
DIMSTYLE
  2
AM_JIS$7
 70
     0
  3

  4
"
  5
OPEN30
  6
OPEN30
  7
OPEN30
 40
1.0
 41
2.5
 42
1.0
 43
10.0
 44
1.0
 45
0.0
 46
0.0
 47
0.1
 48
0.1
140
5.0
141
0.0
142
0.0
143
0.0393701
144
1.0
145
0.0
146
0.71
147
1.5
 71
     0
 72
     0
 73
     0
 74
     0
 75
     0
 76
     0
 77
     3
 78
     8
170
     0
171
     2
172
     1
173
     0
174
     0
175
     0
176
   256
177
   256
178
     2
  0
DIMSTYLE
  2
AM_JIS$SF
 70
     0
  3

  4
"
  5
OPEN30
  6
OPEN30
  7
OPEN30
 40
1.0
 41
2.5
 42
1.0
 43
10.0
 44
1.0
 45
0.0
 46
0.0
 47
0.1
 48
0.1
140
3.5
141
0.0
142
0.0
143
0.0393701
144
1.0
145
0.0
146
0.71
147
1.5
 71
     0
 72
     0
 73
     0
 74
     0
 75
     1
 76
     1
 77
     3
 78
     8
170
     0
171
     2
172
     1
173
     0
174
     0
175
     0
176
   256
177
   256
178
     2
  0
DIMSTYLE
  2
AM_JIS$SH
 70
     0
  3

  4
"
  5
OPEN30
  6
GENAXEH
  7
OPEN30
 40
1.0
 41
2.5
 42
1.0
 43
10.0
 44
1.0
 45
0.0
 46
0.0
 47
0.1
 48
0.1
140
3.5
141
0.0
142
0.0
143
0.0393701
144
2.0
145
0.0
146
0.71
147
1.5
 71
     0
 72
     0
 73
     0
 74
     0
 75
     1
 76
     1
 77
     3
 78
     8
170
     0
171
     2
172
     1
173
     1
174
     0
175
     0
176
   256
177
   256
178
     2
  0
DIMSTYLE
  2
AM_ANSI
 70
     0
  3

  4
mm
  5

  6

  7

 40
1.0
 41
0.1
 42
0.05
 43
0.5
 44
0.1
 45
0.0
 46
0.0
 47
0.1
 48
0.1
140
0.12
141
0.0
142
0.0
143
25.399999999999999
144
1.0
145
0.0
146
0.71
147
0.06
 71
     0
 72
     0
 73
     1
 74
     1
 75
     0
 76
     0
 77
     0
 78
     7
170
     0
171
     2
172
     0
173
     0
174
     0
175
     0
176
   256
177
   256
178
     2
  0
ENDTAB
  0
ENDSEC
  0
SECTION
  2
BLOCKS
  0
BLOCK
  8
0
  2
$MODEL_SPACE
 70
     0
 10
0.0
 20
0.0
 30
0.0
  3
$MODEL_SPACE
  1

  0
ENDBLK
  5
21
  8
0
  0
BLOCK
 67
     1
  8
0
  2
$PAPER_SPACE
 70
     0
 10
0.0
 20
0.0
 30
0.0
  3
$PAPER_SPACE
  1

  0
ENDBLK
  5
25
 67
     1
  8
0
  0
BLOCK
  8
0
  2
GENAXEH
 70
     0
 10
0.0
 20
0.0
 30
0.0
  3
GENAXEH
  1

  0
LINE
  5
88
  8
0
 10
-1.0
 20
0.0
 30
0.0
 11
1.0
 21
0.0
 31
0.0
  0
ENDBLK
  5
8A
  8
0
  0
BLOCK
  8
0
  2
_OPEN30
 70
     0
 10
0.0
 20
0.0
 30
0.0
  3
_OPEN30
  1

  0
LINE
  5
408
  8
0
  6
BYBLOCK
 62
     0
 10
-1.0
 20
0.26794919
 30
0.0
 11
0.0
 21
0.0
 31
0.0
  0
LINE
  5
409
  8
0
  6
BYBLOCK
 62
     0
 10
0.0
 20
0.0
 30
0.0
 11
-1.0
 21
-0.26794919
 31
0.0
  0
LINE
  5
40A
  8
0
  6
BYBLOCK
 62
     0
 10
0.0
 20
0.0
 30
0.0
 11
-1.0
 21
0.0
 31
0.0
  0
ENDBLK
  5
40C
  8
0
  0
BLOCK
  8
0
  2
GEVCON
 70
     0
 10
0.0
 20
0.0
 30
0.0
  3
GEVCON
  1
GEVCON
  0
ENDBLK
  5
5A6
  8
0
  0
BLOCK
  8
0
  2
GEVEP
 70
     0
 10
0.0
 20
0.0
 30
0.0
  3
GEVEP
  1

  0
LINE
  5
5A9
  8
0
 10
2.0
 20
-2.0
 30
0.0
 11
-2.0
 21
-2.0
 31
0.0
  0
LINE
  5
5AA
  8
0
 10
-2.0
 20
2.0
 30
0.0
 11
2.0
 21
2.0
 31
0.0
  0
LINE
  5
5AB
  8
0
 10
2.0
 20
-2.0
 30
0.0
 11
-2.0
 21
2.0
 31
0.0
  0
LINE
  5
5AC
  8
0
 10
-2.0
 20
-2.0
 30
0.0
 11
2.0
 21
2.0
 31
0.0
  0
LINE
  5
5AD
  8
0
 10
-2.0
 20
-2.0
 30
0.0
 11
-2.0
 21
2.0
 31
0.0
  0
LINE
  5
5AE
  8
0
 10
2.0
 20
2.0
 30
0.0
 11
2.0
 21
-2.0
 31
0.0
  0
ENDBLK
  5
5AF
  8
0
  0
BLOCK
  8
0
  2
GEVFRAME
 70
     0
 10
0.0
 20
0.0
 30
0.0
  3
GEVFRAME
  1
GEVFRAME
  0
LINE
  5
5B2
  8
0
 10
0.0
 20
0.0
 30
0.0
 11
1.0
 21
0.0
 31
0.0
  0
LINE
  5
5B3
  8
0
 10
1.0
 20
0.0
 30
0.0
 11
1.0
 21
1.0
 31
0.0
  0
LINE
  5
5B4
  8
0
 10
1.0
 20
1.0
 30
0.0
 11
0.0
 21
1.0
 31
0.0
  0
LINE
  5
5B5
  8
0
 10
0.0
 20
1.0
 30
0.0
 11
0.0
 21
0.0
 31
0.0
  0
ENDBLK
  5
5B6
  8
0
  0
BLOCK
  8
0
  2
TAKACHI-A4
 70
     0
 10
0.0
 20
0.0
 30
0.0
  3
TAKACHI-A4
  1

  0
TEXT
  5
5CB
  8
0
 10
10.0
 20
54.999999999999943
 30
0.0
 40
2.5
  1
!GENTITLE-LL
  0
TEXT
  5
5CC
  8
0
 10
215.0
 20
15.0
 30
0.0
 40
2.5
  1
!GENTITLE-INSERT
  0
TEXT
  5
5CD
  8
0
 10
215.0
 20
285.00000000000011
 30
0.0
 40
2.5
  1
!GENTITLE-RU
  0
TEXT
  5
5CE
  8
0
 10
215.00000000000011
 20
290.0
 30
0.0
 40
2.5
  1
!GENTITLE-MAX
  0
LINE
  5
5CF
  8
0
 10
215.0
 20
290.00000000000011
 30
0.0
 11
20.000000000000028
 21
290.0
 31
0.0
1001
GENIUS_GENREC_14
1002
{
1000
PYDIR
1011
15.00000000000003
1021
0.0
1031
0.0
1021
295.0
1031
0.0
1002
}
1002
{
1000
PXDIR
1011
215.0
1021
0.0
1031
0.0
1021
15.0
1031
0.0
1002
}
1002
{
1000
PORI
1011
15.0
1021
0.0
1031
0.0
1021
15.0
1031
0.0
1002
}
1002
{
1000
PINS
1011
115.0
1021
0.0
1031
0.0
1021
155.0
1031
0.0
1002
}
1002
{
1000
HVAL
1000
280
1002
}
1002
{
1000
H
1070
     2
1002
}
1002
{
1000
WVAL
1000
200
1002
}
1002
{
1000
W
1070
     2
1002
}
1002
{
1000
C
1070
     4
1002
}
  0
LINE
  5
5D0
  8
0
 10
20.000000000000028
 20
290.0
 30
0.0
 11
19.999999999999972
 21
15.0
 31
0.0
1001
GENIUS_GENREC_14
1002
{
1000
PYDIR
1011
15.00000000000003
1021
0.0
1031
0.0
1021
295.0
1031
0.0
1002
}
1002
{
1000
PXDIR
1011
215.0
1021
0.0
1031
0.0
1021
15.0
1031
0.0
1002
}
1002
{
1000
PORI
1011
15.0
1021
0.0
1031
0.0
1021
15.0
1031
0.0
1002
}
1002
{
1000
PINS
1011
115.0
1021
0.0
1031
0.0
1021
155.0
1031
0.0
1002
}
1002
{
1000
HVAL
1000
280
1002
}
1002
{
1000
H
1070
     2
1002
}
1002
{
1000
WVAL
1000
200
1002
}
1002
{
1000
W
1070
     2
1002
}
1002
{
1000
C
1070
     4
1002
}
  0
LINE
  5
5D1
  8
0
 10
19.999999999999972
 20
15.0
 30
0.0
 11
215.0
 21
15.0
 31
0.0
1001
GENIUS_GENREC_14
1002
{
1000
PYDIR
1011
15.00000000000003
1021
0.0
1031
0.0
1021
295.0
1031
0.0
1002
}
1002
{
1000
PXDIR
1011
215.0
1021
0.0
1031
0.0
1021
15.0
1031
0.0
1002
}
1002
{
1000
PORI
1011
15.0
1021
0.0
1031
0.0
1021
15.0
1031
0.0
1002
}
1002
{
1000
PINS
1011
115.0
1021
0.0
1031
0.0
1021
155.0
1031
0.0
1002
}
1002
{
1000
HVAL
1000
280
1002
}
1002
{
1000
H
1070
     2
1002
}
1002
{
1000
WVAL
1000
200
1002
}
1002
{
1000
W
1070
     2
1002
}
1002
{
1000
C
1070
     4
1002
}
  0
LINE
  5
5D2
  8
0
 10
215.0
 20
15.0
 30
0.0
 11
215.00000000000011
 21
290.00000000000011
 31
0.0
1001
GENIUS_GENREC_14
1002
{
1000
PYDIR
1011
15.00000000000003
1021
0.0
1031
0.0
1021
295.0
1031
0.0
1002
}
1002
{
1000
PXDIR
1011
215.0
1021
0.0
1031
0.0
1021
15.0
1031
0.0
1002
}
1002
{
1000
PORI
1011
15.0
1021
0.0
1031
0.0
1021
15.0
1031
0.0
1002
}
1002
{
1000
PINS
1011
115.0
1021
0.0
1031
0.0
1021
155.0
1031
0.0
1002
}
1002
{
1000
HVAL
1000
280
1002
}
1002
{
1000
H
1070
     2
1002
}
1002
{
1000
WVAL
1000
200
1002
}
1002
{
1000
W
1070
     2
1002
}
1002
{
1000
C
1070
     4
1002
}
  0
LINE
  5
5D3
  8
0
 10
171.00000000000011
 20
285.00000000000011
 30
0.0
 11
215.00000000000011
 21
285.00000000000011
 31
0.0
  0
LINE
  5
5D4
  8
0
 10
171.00000000000011
 20
290.00000000000011
 30
0.0
 11
171.00000000000011
 21
285.00000000000011
 31
0.0
  0
INSERT
  5
5D5
  8
ﾊ_ﾈﾙ0
  2
*U22
 10
0.0
 20
0.0
 30
0.0
  0
ENDBLK
  5
5D8
  8
0
  0
BLOCK
  8
0
  2
TAKACHI-TITLE
 70
     2
 10
0.0
 20
0.0
 30
0.0
  3
TAKACHI-TITLE
  1

  0
LINE
  5
5E7
  8
RAHM2
 10
-195.0
 20
30.000000000000028
 30
0.0
 11
-94.0
 21
30.000000000000028
 31
0.0
  0
LINE
  5
5E8
  8
RAHM2
 10
-195.0
 20
35.000000000000028
 30
0.0
 11
-94.0
 21
35.000000000000028
 31
0.0
  0
LINE
  5
5E9
  8
RAHM2
 10
-195.0
 20
40.000000000000021
 30
0.0
 11
-94.0
 21
40.000000000000021
 31
0.0
  0
LINE
  5
5EA
  8
RAHM2
 10
-195.0
 20
45.000000000000021
 30
0.0
 11
-94.0
 21
45.000000000000021
 31
0.0
  0
LINE
  5
5EB
  8
0
 10
-195.0
 20
7.0
 30
0.0
 11
-94.0
 21
7.0
 31
0.0
  0
LINE
  5
5EC
  8
0
 10
-195.0
 20
19.999999999999972
 30
0.0
 11
-94.0
 21
19.999999999999972
 31
0.0
  0
ATTDEF
  5
5ED
  8
0
 10
-183.24385271456069
 20
8.9508505244280823
 30
0.0
 40
2.5
  1

 11
-183.24385271456069
 21
8.6175171910947483
 31
0.0
  3
サブタイトル
  2
GEN-TITLE-DES2
 70
     0
 74
     1
  0
ATTDEF
  5
5EE
  8
0
 10
-183.24385271456069
 20
2.0175171910947478
 30
0.0
 40
3.0
  1

 11
-183.24385271456069
 21
1.6175171910947479
 31
0.0
  3
図番
  2
GEN-TITLE-NR
 70
     0
 74
     1
  0
INSERT
  5
5EF
  8
ﾊ_ﾈﾙ0
  2
*U23
 10
0.0
 20
0.0
 30
0.0
  0
ATTDEF
  5
5F0
  8
0
 10
-183.24385271456069
 20
14.40728619501834
 30
0.0
 40
4.0
  1

 11
-183.24385271456069
 21
13.873952861685011
 31
0.0
  3
品名
  2
GEN-TITLE-DES1
 70
     0
 74
     1
  0
LINE
  5
5F1
  8
RAHM2
 10
-187.57512886940361
 20
30.400000000000041
 30
0.0
 11
-190.0
 21
34.60000000000003
 31
0.0
  0
LINE
  5
5F2
  8
RAHM2
 10
-190.0
 20
34.60000000000003
 30
0.0
 11
-192.42487113059639
 21
30.400000000000041
 31
0.0
  0
LINE
  5
5F3
  8
RAHM2
 10
-185.0
 20
50.000000000000028
 30
0.0
 11
-185.0
 21
19.99999999999994
 31
0.0
  0
LINE
  5
5F4
  8
RAHM2
 10
-192.42487113059639
 20
30.400000000000041
 30
0.0
 11
-187.57512886940361
 21
30.400000000000041
 31
0.0
  0
INSERT
  5
5F5
  8
ﾊ_ﾈﾙ0
  2
*U24
 10
0.0
 20
0.0
 30
0.0
  0
INSERT
  5
5F6
  8
ﾊ_ﾈﾙ0
  2
*U25
 10
0.0
 20
0.0
 30
0.0
  0
LINE
  5
5F7
  8
RAHM2
 10
-192.42487113059639
 20
45.400000000000027
 30
0.0
 11
-187.57512886940361
 21
45.400000000000027
 31
0.0
  0
LINE
  5
5F8
  8
RAHM2
 10
-187.57512886940361
 20
45.400000000000027
 30
0.0
 11
-190.0
 21
49.600000000000023
 31
0.0
  0
LINE
  5
5F9
  8
RAHM2
 10
-192.42487113059639
 20
40.400000000000027
 30
0.0
 11
-187.57512886940361
 21
40.400000000000027
 31
0.0
  0
LINE
  5
5FA
  8
RAHM2
 10
-187.57512886940361
 20
40.400000000000027
 30
0.0
 11
-190.0
 21
44.600000000000023
 31
0.0
  0
LINE
  5
5FB
  8
RAHM2
 10
-192.42487113059639
 20
35.400000000000041
 30
0.0
 11
-187.57512886940361
 21
35.400000000000041
 31
0.0
  0
LINE
  5
5FC
  8
RAHM2
 10
-187.57512886940361
 20
35.400000000000041
 30
0.0
 11
-190.0
 21
39.600000000000023
 31
0.0
  0
LINE
  5
5FD
  8
RAHM2
 10
-190.0
 20
39.600000000000023
 30
0.0
 11
-192.42487113059639
 21
35.400000000000041
 31
0.0
  0
LINE
  5
5FE
  8
RAHM2
 10
-190.0
 20
44.600000000000023
 30
0.0
 11
-192.42487113059639
 21
40.400000000000027
 31
0.0
  0
LINE
  5
5FF
  8
RAHM2
 10
-190.0
 20
49.600000000000023
 30
0.0
 11
-192.42487113059639
 21
45.400000000000027
 31
0.0
  0
LINE
  5
600
  8
RAHM2
 10
-129.0
 20
50.000000000000028
 30
0.0
 11
-129.0
 21
19.99999999999994
 31
0.0
  0
INSERT
  5
601
  8
ﾊ_ﾈﾙ0
  2
*U26
 10
0.0
 20
0.0
 30
0.0
  0
LINE
  5
602
  8
0
 10
-34.0
 20
50.0
 30
0.0
 11
-34.0
 21
0.0
 31
0.0
  0
LINE
  5
603
  8
0
 10
-94.0
 20
50.0
 30
0.0
 11
-94.0
 21
0.0
 31
0.0
  0
INSERT
  5
604
  8
ﾊ_ﾈﾙ0
  2
*U27
 10
0.0
 20
0.0
 30
0.0
  0
LINE
  5
605
  8
0
 10
-94.0
 20
10.0
 30
0.0
 11
-34.0
 21
10.0
 31
0.0
  0
ATTDEF
  5
606
  8
0
 10
-58.014051197997453
 20
39.255005561783491
 30
0.0
 40
3.0
  1

 72
     2
 11
-58.014051197997453
 21
39.255005561783491
 31
0.0
  3
尺度
  2
GEN-TITLE-SCA
 70
     0
  0
ATTDEF
  5
607
  8
0
 10
-77.002849666490064
 20
31.02180787943475
 30
0.0
 40
3.0
  1

 11
-77.002849666490064
 21
30.621807879434751
 31
0.0
  3
材質
  2
GEN-TITLE-MAT1
 70
     0
 74
     1
  0
ATTDEF
  5
608
  8
0
 10
-77.002849666490064
 20
21.02180787943475
 30
0.0
 40
3.0
  1

 11
-77.002849666490064
 21
20.621807879434751
 31
0.0
  3
表面処理
  2
GEN-TITLE-MAT2
 70
     0
 74
     1
  0
ATTDEF
  5
609
  8
0
 10
-77.002849666490064
 20
12.01751719109475
 30
0.0
 40
3.0
  1

 11
-77.002849666490064
 21
11.61751719109475
 31
0.0
  3
日付
  2
GEN-TITLE-DAT
 70
     0
 74
     1
  0
LINE
  5
60A
  8
0
 10
-94.0
 20
37.5
 30
0.0
 11
-34.0
 21
37.5
 31
0.0
  0
LINE
  5
60B
  8
0
 10
-94.0
 20
27.5
 30
0.0
 11
-34.0
 21
27.5
 31
0.0
  0
LINE
  5
60C
  8
0
 10
-94.0
 20
17.5
 30
0.0
 11
-34.0
 21
17.5
 31
0.0
  0
LINE
  5
60D
  8
RAHM2
 10
-109.0
 20
50.000000000000028
 30
0.0
 11
-109.0
 21
19.99999999999994
 31
0.0
  0
INSERT
  5
60E
  8
ﾊ_ﾈﾙ0
  2
*U28
 10
0.0
 20
0.0
 30
0.0
  0
INSERT
  5
60F
  8
ﾊ_ﾈﾙ0
  2
*U29
 10
0.0
 20
0.0
 30
0.0
  0
INSERT
  5
610
  8
ﾊ_ﾈﾙ0
  2
*U30
 10
0.0
 20
0.0
 30
0.0
  0
INSERT
  5
611
  8
ﾊ_ﾈﾙ0
  2
*U31
 10
0.0
 20
0.0
 30
0.0
  0
INSERT
  5
612
  8
ﾊ_ﾈﾙ0
  2
*U32
 10
0.0
 20
0.0
 30
0.0
  0
INSERT
  5
613
  8
ﾊ_ﾈﾙ0
  2
*U33
 10
0.0
 20
0.0
 30
0.0
  0
INSERT
  5
614
  8
ﾊ_ﾈﾙ0
  2
*U34
 10
0.0
 20
0.0
 30
0.0
  0
INSERT
  5
615
  8
ﾊ_ﾈﾙ0
  2
*U35
 10
0.0
 20
0.0
 30
0.0
  0
LINE
  5
616
  8
7A
 10
-89.0
 20
43.75
 30
0.0
 11
-75.218691599714703
 21
43.75
 31
0.0
1001
GENIUS_GENOREF_13
1005
629
  0
LINE
  5
617
  8
0
 10
-84.0
 20
45.75
 30
0.0
 11
-76.0
 21
46.749999999999993
 31
0.0
  0
LINE
  5
618
  8
0
 10
-76.0
 20
40.75
 30
0.0
 11
-84.0
 21
41.749999999999993
 31
0.0
  0
LINE
  5
619
  8
7A
 10
-89.0
 20
43.75
 30
0.0
 11
-89.0
 21
47.324786644731482
 31
0.0
1001
GENIUS_GENOREF_13
1005
629
  0
CIRCLE
  5
61A
  8
0
 10
-89.0
 20
43.75
 30
0.0
 40
2.0
  0
CIRCLE
  5
61B
  8
0
 10
-89.0
 20
43.75
 30
0.0
 40
3.0
  0
LINE
  5
61C
  8
0
 10
-84.0
 20
41.749999999999993
 30
0.0
 11
-84.0
 21
45.75
 31
0.0
  0
INSERT
  5
61D
  8
ﾊ_ﾈﾙ0
  2
*U36
 10
0.0
 20
0.0
 30
0.0
  0
LINE
  5
61E
  8
7A
 10
-89.0
 20
43.75
 30
0.0
 11
-92.723037371251166
 21
43.75
 31
0.0
1001
GENIUS_GENOREF_13
1005
629
  0
LINE
  5
61F
  8
7A
 10
-89.0
 20
43.75
 30
0.0
 11
-89.0
 21
40.039917242284787
 31
0.0
1001
GENIUS_GENOREF_13
1005
629
  0
LINE
  5
620
  8
0
 10
-76.0
 20
46.749999999999993
 30
0.0
 11
-76.0
 21
40.75
 31
0.0
  0
LINE
  5
621
  8
0
 10
-74.0
 20
50.0
 30
0.0
 11
-74.0
 21
37.5
 31
0.0
  0
INSERT
  5
622
  8
ﾊ_ﾈﾙ0
  2
*U37
 10
0.0
 20
0.0
 30
0.0
  0
ATTDEF
  5
623
  8
0
 10
-37.76317379391503
 20
39.255005561783491
 30
0.0
 40
3.0
  1

 72
     2
 11
-37.76317379391503
 21
39.255005561783491
 31
0.0
  3
数量
  2
GEN-TITLE-QTY
 70
     0
  0
LINE
  5
624
  8
0
 10
-34.0
 20
25.0
 30
0.0
 11
0.0
 21
25.0
 31
0.0
  0
LINE
  5
625
  8
0
 10
-54.0
 20
50.0
 30
0.0
 11
-54.0
 21
37.5
 31
0.0
  0
INSERT
  5
626
  8
ﾊ_ﾈﾙ0
  2
*U38
 10
0.0
 20
0.0
 30
0.0
  0
INSERT
  5
627
  8
ﾊ_ﾈﾙ0
  2
*U39
 10
0.0
 20
0.0
 30
0.0
  0
INSERT
  5
628
  8
ﾊ_ﾈﾙ0
  2
*U40
 10
0.0
 20
0.0
 30
0.0
  0
POINT
  5
629
  8
0
 10
-320.5355579819676
 20
-138.11048412682541
 30
0.0
1001
GENIUS_GENODEF_13
1002
{
1000
HIER
1070
    10
1002
}
1002
{
1000
MANEDIT
1070
     0
1002
}
1002
{
1000
NOSEL
1070
     0
1002
}
1002
{
1000
BEHIND
1070
     0
1002
}
1002
{
1000
REACTOR
1002
}
1001
GENIUS_GENOBJ-N-CRS_13
1002
{
1000
OWNER
1000
GEN
1002
}
1001
GENIUS_GENOENT_13
1002
{
1000
MYREF
1005
629
1002
}
1002
{
1000
GRP
1005
0
1002
}
1001
GENIUS_GENOLIS_13
1002
{
1000
ENT
1005
61F
1005
61E
1005
619
1005
616
1002
}
  0
LINE
  5
62A
  8
RAHM2
 10
-190.0
 20
29.600000000000019
 30
0.0
 11
-192.42487113059639
 21
25.400000000000041
 31
0.0
  0
LINE
  5
62B
  8
RAHM2
 10
-187.57512886940361
 20
25.400000000000041
 30
0.0
 11
-190.0
 21
29.600000000000019
 31
0.0
  0
LINE
  5
62C
  8
RAHM2
 10
-192.42487113059639
 20
25.400000000000041
 30
0.0
 11
-187.57512886940361
 21
25.400000000000041
 31
0.0
  0
LINE
  5
62D
  8
RAHM2
 10
-195.0
 20
25.000000000000028
 30
0.0
 11
-94.0
 21
25.000000000000028
 31
0.0
  0
INSERT
  5
62E
  8
ﾊ_ﾈﾙ0
  2
*U41
 10
0.0
 20
0.0
 30
0.0
  0
TEXT
  5
62F
  8
RAHM2
 10
-190.8155863565801
 20
25.98333333333337
 30
0.0
 40
2.5
  1
1
 72
     1
 11
-190.19058635658021
 21
25.650000000000031
 31
0.0
 73
     1
  0
TEXT
  5
630
  8
RAHM2
 10
-190.9183316929134
 20
30.98333333333337
 30
0.0
 40
2.5
  1
2
 72
     1
 11
-190.0
 21
30.650000000000031
 31
0.0
 73
     1
  0
TEXT
  5
631
  8
RAHM2
 10
-190.92677669529661
 20
35.983333333333341
 30
0.0
 40
2.5
  1
3
 72
     1
 11
-190.0
 21
35.650000000000013
 31
0.0
 73
     1
  0
TEXT
  5
632
  8
RAHM2
 10
-191.0
 20
40.98333333333337
 30
0.0
 40
2.5
  1
4
 72
     1
 11
-190.0
 21
40.650000000000027
 31
0.0
 73
     1
  0
TEXT
  5
633
  8
RAHM2
 10
-190.92677669529661
 20
45.98333333333337
 30
0.0
 40
2.5
  1
5
 72
     1
 11
-190.0
 21
45.650000000000027
 31
0.0
 73
     1
  0
LINE
  5
634
  8
0
 10
-17.0
 20
50.0
 30
0.0
 11
-17.0
 21
0.0
 31
0.0
  0
LINE
  5
635
  8
0
 10
-195.0
 20
0.0
 30
0.0
 11
0.0
 21
0.0
 31
0.0
1001
GENIUS_GENREC_14
1002
{
1000
PYDIR
1011
-184.0
1021
0.0
1031
0.0
1021
50.0
1031
0.0
1002
}
1002
{
1000
PXDIR
1011
0.0
1021
0.0
1031
0.0
1021
0.0
1031
0.0
1002
}
1002
{
1000
PORI
1011
-184.0
1021
0.0
1031
0.0
1021
0.0
1031
0.0
1002
}
1002
{
1000
PINS
1011
-100.5
1021
0.0
1031
0.0
1021
25.0
1031
0.0
1002
}
1002
{
1000
HVAL
1000
50
1002
}
1002
{
1000
H
1070
     2
1002
}
1002
{
1000
WVAL
1000
167
1002
}
1002
{
1000
W
1070
     2
1002
}
1002
{
1000
C
1070
     4
1002
}
1001
GENIUS_GENODEF_13
1002
{
1000
HIER
1070
     0
1002
}
1002
{
1000
MANEDIT
1070
     0
1002
}
1002
{
1000
NOSEL
1070
     0
1002
}
1002
{
1000
BEHIND
1070
     0
1002
}
1002
{
1000
REACTOR
1002
}
1001
GENIUS_GENOBJ-N-REC_13
1002
{
1000
OWNER
1000
GEN
1002
}
  0
LINE
  5
636
  8
0
 10
0.0
 20
0.0
 30
0.0
 11
0.0
 21
50.0
 31
0.0
1001
GENIUS_GENREC_14
1002
{
1000
PYDIR
1011
-184.0
1021
0.0
1031
0.0
1021
50.0
1031
0.0
1002
}
1002
{
1000
PXDIR
1011
0.0
1021
0.0
1031
0.0
1021
0.0
1031
0.0
1002
}
1002
{
1000
PORI
1011
-184.0
1021
0.0
1031
0.0
1021
0.0
1031
0.0
1002
}
1002
{
1000
PINS
1011
-100.5
1021
0.0
1031
0.0
1021
25.0
1031
0.0
1002
}
1002
{
1000
HVAL
1000
50
1002
}
1002
{
1000
H
1070
     2
1002
}
1002
{
1000
WVAL
1000
167
1002
}
1002
{
1000
W
1070
     2
1002
}
1002
{
1000
C
1070
     4
1002
}
1001
GENIUS_GENODEF_13
1002
{
1000
HIER
1070
     0
1002
}
1002
{
1000
MANEDIT
1070
     0
1002
}
1002
{
1000
NOSEL
1070
     0
1002
}
1002
{
1000
BEHIND
1070
     0
1002
}
1002
{
1000
REACTOR
1002
}
1001
GENIUS_GENOBJ-N-REC_13
1002
{
1000
OWNER
1000
GEN
1002
}
  0
LINE
  5
637
  8
0
 10
0.0
 20
50.0
 30
0.0
 11
-195.0
 21
50.000000000000028
 31
0.0
1001
GENIUS_GENREC_14
1002
{
1000
PYDIR
1011
-184.0
1021
0.0
1031
0.0
1021
50.0
1031
0.0
1002
}
1002
{
1000
PXDIR
1011
0.0
1021
0.0
1031
0.0
1021
0.0
1031
0.0
1002
}
1002
{
1000
PORI
1011
-184.0
1021
0.0
1031
0.0
1021
0.0
1031
0.0
1002
}
1002
{
1000
PINS
1011
-100.5
1021
0.0
1031
0.0
1021
25.0
1031
0.0
1002
}
1002
{
1000
HVAL
1000
50
1002
}
1002
{
1000
H
1070
     2
1002
}
1002
{
1000
WVAL
1000
167
1002
}
1002
{
1000
W
1070
     2
1002
}
1002
{
1000
C
1070
     4
1002
}
1001
GENIUS_GENODEF_13
1002
{
1000
HIER
1070
     0
1002
}
1002
{
1000
MANEDIT
1070
     0
1002
}
1002
{
1000
NOSEL
1070
     0
1002
}
1002
{
1000
BEHIND
1070
     0
1002
}
1002
{
1000
REACTOR
1002
}
1001
GENIUS_GENOBJ-N-REC_13
1002
{
1000
OWNER
1000
GEN
1002
}
  0
LINE
  5
638
  8
0
 10
-195.0
 20
50.000000000000028
 30
0.0
 11
-195.0
 21
0.0
 31
0.0
1001
GENIUS_GENREC_14
1002
{
1000
PYDIR
1011
-195.0
1021
0.0
1031
0.0
1021
50.0
1031
0.0
1002
}
1002
{
1000
PXDIR
1011
-11.0
1021
0.0
1031
0.0
1021
0.0
1031
0.0
1002
}
1002
{
1000
PORI
1011
-195.0
1021
0.0
1031
0.0
1021
0.0
1031
0.0
1002
}
1002
{
1000
PINS
1011
-111.5
1021
0.0
1031
0.0
1021
25.0
1031
0.0
1002
}
1002
{
1000
HVAL
1000
50
1002
}
1002
{
1000
H
1070
     2
1002
}
1002
{
1000
WVAL
1000
167
1002
}
1002
{
1000
W
1070
     2
1002
}
1002
{
1000
C
1070
     4
1002
}
1001
GENIUS_GENODEF_13
1002
{
1000
HIER
1070
     0
1002
}
1002
{
1000
MANEDIT
1070
     0
1002
}
1002
{
1000
NOSEL
1070
     0
1002
}
1002
{
1000
BEHIND
1070
     0
1002
}
1002
{
1000
REACTOR
1002
}
1001
GENIUS_GENOBJ-N-REC_13
1002
{
1000
OWNER
1000
GEN
1002
}
  0
INSERT
  5
639
  8
ﾊ_ﾈﾙ0
  2
*U42
 10
0.0
 20
0.0
 30
0.0
  0
INSERT
  5
63A
  8
ﾊ_ﾈﾙ0
  2
*U43
 10
0.0
 20
0.0
 30
0.0
  0
ENDBLK
  5
63D
  8
0
  0
BLOCK
  8
0
  2
*D9
 70
     1
 10
0.0
 20
0.0
 30
0.0
  3
*D9
  1

  0
LINE
  5
F6A
  8
AM_5
 10
136.09810914605521
 20
239.1305269926884
 30
0.0
 11
136.09810914605521
 21
247.7285304919923
 31
0.0
  0
LINE
  5
F6B
  8
AM_5
 10
148.09810914605521
 20
224.1305269926884
 30
0.0
 11
148.09810914605521
 21
247.7285304919923
 31
0.0
  0
LINE
  5
F6C
  8
AM_5
 10
138.59810914605521
 20
246.7285304919923
 30
0.0
 11
145.59810914605521
 21
246.7285304919923
 31
0.0
  0
INSERT
  5
F6D
  8
AM_5
  2
_OPEN30
 10
136.09810914605521
 20
246.7285304919923
 30
0.0
 41
2.5
 42
2.5
 43
2.5
 50
180.0
  0
INSERT
  5
F6E
  8
AM_5
  2
_OPEN30
 10
148.09810914605521
 20
246.7285304919923
 30
0.0
 41
2.5
 42
2.5
 43
2.5
  0
INSERT
  5
F6F
  8
ﾊ_ﾈﾙ0
  2
*U67
 10
0.0
 20
0.0
 30
0.0
  0
POINT
  5
F70
  8
DEFPOINTS
 62
     0
 10
136.09810914605521
 20
238.1305269926884
 30
0.0
  0
POINT
  5
F71
  8
DEFPOINTS
 62
     0
 10
148.09810914605521
 20
223.1305269926884
 30
0.0
  0
POINT
  5
F72
  8
DEFPOINTS
 62
     0
 10
148.09810914605521
 20
246.7285304919923
 30
0.0
  0
ENDBLK
  5
7DB
  8
0
  0
BLOCK
  8
0
  2
*D10
 70
     1
 10
0.0
 20
0.0
 30
0.0
  3
*D10
  1

  0
LINE
  5
F73
  8
AM_5
 10
46.919945978064668
 20
239.1305269926884
 30
0.0
 11
46.919945978064668
 21
247.3156231288622
 31
0.0
  0
LINE
  5
F74
  8
AM_5
 10
106.7199459780646
 20
239.1305269926884
 30
0.0
 11
106.7199459780646
 21
247.3156231288622
 31
0.0
  0
LINE
  5
F75
  8
AM_5
 10
49.419945978064668
 20
246.3156231288622
 30
0.0
 11
104.2199459780646
 21
246.3156231288622
 31
0.0
  0
INSERT
  5
F76
  8
AM_5
  2
_OPEN30
 10
46.919945978064668
 20
246.3156231288622
 30
0.0
 41
2.5
 42
2.5
 43
2.5
 50
180.0
  0
INSERT
  5
F77
  8
AM_5
  2
_OPEN30
 10
106.7199459780646
 20
246.3156231288622
 30
0.0
 41
2.5
 42
2.5
 43
2.5
  0
INSERT
  5
F78
  8
ﾊ_ﾈﾙ0
  2
*U68
 10
0.0
 20
0.0
 30
0.0
  0
POINT
  5
F79
  8
DEFPOINTS
 62
     0
 10
46.919945978064668
 20
238.1305269926884
 30
0.0
  0
POINT
  5
F7A
  8
DEFPOINTS
 62
     0
 10
106.7199459780646
 20
238.1305269926884
 30
0.0
  0
POINT
  5
F7B
  8
DEFPOINTS
 62
     0
 10
106.7199459780646
 20
246.3156231288622
 30
0.0
  0
ENDBLK
  5
900
  8
0
  0
BLOCK
  8
0
  2
*D11
 70
     1
 10
0.0
 20
0.0
 30
0.0
  3
*D11
  1

  0
LINE
  5
F7C
  8
AM_5
 10
45.919945978064682
 20
238.1305269926884
 30
0.0
 11
33.048117005060362
 21
238.1305269926884
 31
0.0
  0
LINE
  5
F7D
  8
AM_5
 10
45.919945978064703
 20
64.130526992688374
 30
0.0
 11
33.04811700506032
 21
64.130526992688374
 31
0.0
  0
LINE
  5
F7E
  8
AM_5
 10
34.048117005060362
 20
235.6305269926884
 30
0.0
 11
34.04811700506032
 21
66.630526992688374
 31
0.0
  0
INSERT
  5
F7F
  8
AM_5
  2
_OPEN30
 10
34.048117005060362
 20
238.1305269926884
 30
0.0
 41
2.5
 42
2.5
 43
2.5
 50
90.0
  0
INSERT
  5
F80
  8
AM_5
  2
_OPEN30
 10
34.04811700506032
 20
64.130526992688374
 30
0.0
 41
2.5
 42
2.5
 43
2.5
 50
270.0
  0
INSERT
  5
F81
  8
ﾊ_ﾈﾙ0
  2
*U69
 10
0.0
 20
0.0
 30
0.0
  0
POINT
  5
F82
  8
DEFPOINTS
 62
     0
 10
46.919945978064668
 20
238.1305269926884
 30
0.0
  0
POINT
  5
F83
  8
DEFPOINTS
 62
     0
 10
46.919945978064703
 20
64.130526992688374
 30
0.0
  0
POINT
  5
F84
  8
DEFPOINTS
 62
     0
 10
34.04811700506032
 20
64.130526992688374
 30
0.0
  0
ENDBLK
  5
945
  8
0
  0
BLOCK
  8
0
  2
*D12
 70
     1
 10
0.0
 20
0.0
 30
0.0
  3
*D12
  1

  0
LINE
  5
F8B
  8
AM_5
 10
95.348837806933673
 20
234.74894892725609
 30
0.0
 11
114.5477241655425
 21
247.63431514874659
 31
0.0
  0
LINE
  5
F8C
  8
AM_5
 10
114.5477241655425
 20
247.63431514874659
 30
0.0
 11
129.49269891237299
 21
247.63431514874659
 31
0.0
  0
INSERT
  5
F8D
  8
AM_5
  2
_OPEN30
 10
93.273019084069574
 20
233.35575955398099
 30
0.0
 41
2.5
 42
2.5
 43
2.5
 50
213.86760623597081
  0
INSERT
  5
F8E
  8
ﾊ_ﾈﾙ0
  2
*U70
 10
0.0
 20
0.0
 30
0.0
  0
POINT
  5
F8F
  8
DEFPOINTS
 62
     0
 10
93.273019084069574
 20
233.35575955398099
 30
0.0
  0
POINT
  5
F90
  8
DEFPOINTS
 62
     0
 10
90.366872872059787
 20
231.40529443139579
 30
0.0
  0
ENDBLK
  5
9C4
  8
0
  0
BLOCK
  8
0
  2
TK-A4
 70
     0
 10
0.0
 20
0.0
 30
0.0
  3
TK-A4
  1

  0
TEXT
  5
EAA
  8
0
 10
0.0
 20
0.0
 30
0.0
 40
2.5
  1
!GENTITLE-LL
  0
TEXT
  5
EAB
  8
0
 10
193.0
 20
280.0
 30
0.0
 40
2.5
  1
!GENTITLE-MAX
  0
TEXT
  5
EAC
  8
0
 10
193.0
 20
0.0
 30
0.0
 40
2.5
  1
!GENTITLE-INSERT
  0
LINE
  5
EAE
  8
0
 10
149.0
 20
280.00000000000011
 30
0.0
 11
149.0
 21
275.0
 31
0.0
  0
TEXT
  8
0
  40
2.5
  5
11B3
  72
0
  71
0
 10
192.359
 20
272.859
 30
0.000000
  1
(文書番号：TY-34)2008.02.08
  0
LINE
  5
EB0
  8
0
 10
149.0
 20
275.0
 30
0.0
 11
193.0
 21
275.0
 31
0.0
  0
ENDBLK
  5
EB3
  8
0
  0
BLOCK
  8
0
  2
TK-TITLE
 70
     2
 10
0.0
 20
0.0
 30
0.0
  3
TK-TITLE
  1

  0
ATTDEF
  5
EB8
  8
0
 10
-8.0023091895458265
 20
1.705189434395036
 30
0.0
 40
2.5
  1

  3
Rev.
  2
GEN-TITLE-NR2
 70
     0
  0
ATTDEF
  5
EB9
  8
0
 10
-84.142519015853296
 20
12.82790432564377
 30
0.0
 40
3.5
  1

  3
品名
  2
GEN-TITLE-DES1
 70
     0
  0
LINE
  5
EBA
  8
0
 10
0.0
 20
0.0
 30
0.0
 11
0.0
 21
50.0
 31
0.0
1001
GENIUS_GENREC_14
1002
{
1000
PYDIR
1011
-414.0
1021
0.0
1031
0.0
1021
291.0
1031
0.0
1002
}
1002
{
1000
PXDIR
1011
6.0
1021
0.0
1031
0.0
1021
-6.0
1031
0.0
1002
}
1002
{
1000
PORI
1011
-414.0
1021
0.0
1031
0.0
1021
-6.0
1031
0.0
1002
}
1002
{
1000
PINS
1011
-414.0
1021
0.0
1031
0.0
1021
-6.0
1031
0.0
1002
}
1002
{
1000
HVAL
1000
297
1002
}
1002
{
1000
H
1070
     2
1002
}
1002
{
1000
WVAL
1000
420
1002
}
1002
{
1000
W
1070
     2
1002
}
1002
{
1000
C
1070
     1
1002
}
1001
GENIUS_GENODEF_13
1002
{
1000
HIER
1070
     0
1002
}
1002
{
1000
MANEDIT
1070
     0
1002
}
1002
{
1000
NOSEL
1070
     0
1002
}
1002
{
1000
BEHIND
1070
     0
1002
}
1002
{
1000
OTHER
1070
     0
1002
}
1002
{
1000
REACTOR
1002
}
1001
GENIUS_GENOBJ-N-REC_13
1002
{
1000
OWNER
1000
GEN
1002
}
  0
ATTDEF
  5
EBB
  8
0
 10
-84.0
 20
9.1499999999999488
 30
0.0
 40
2.5
  1

  3
サブタイトル
  2
GEN-TITLE-DES2
 70
     0
  0
ATTDEF
  5
EBC
  8
0
 10
-84.0
 20
1.9999999999999569
 30
0.0
 40
3.0
  1

  3
図番
  2
GEN-TITLE-NR1
 70
     0
  0
LINE
  5
EBD
  8
0
 10
-96.0
 20
50.000000000000007
 30
0.0
 11
-96.0
 21
-0.0000000000000142
 31
0.0
1001
GENIUS_GENREC_14
1002
{
1000
PYDIR
1011
-96.0
1021
0.0
1031
0.0
1021
49.999999999999993
1031
0.0
1002
}
1002
{
1000
PXDIR
1011
88.0
1021
0.0
1031
0.0
1021
-0.0000000000000142
1031
0.0
1002
}
1002
{
1000
PORI
1011
-96.0
1021
0.0
1031
0.0
1021
-0.0000000000000142
1031
0.0
1002
}
1002
{
1000
PINS
1011
-12.5
1021
0.0
1031
0.0
1021
24.999999999999989
1031
0.0
1002
}
1002
{
1000
HVAL
1000
50
1002
}
1002
{
1000
H
1070
     2
1002
}
1002
{
1000
WVAL
1000
167
1002
}
1002
{
1000
W
1070
     2
1002
}
1002
{
1000
C
1070
     4
1002
}
1001
GENIUS_GENODEF_13
1002
{
1000
HIER
1070
     0
1002
}
1002
{
1000
MANEDIT
1070
     0
1002
}
1002
{
1000
NOSEL
1070
     0
1002
}
1002
{
1000
BEHIND
1070
     0
1002
}
1002
{
1000
REACTOR
1002
}
1001
GENIUS_GENOBJ-N-REC_13
1002
{
1000
OWNER
1000
GEN
1002
}
  0
LINE
  5
EBE
  8
0
 10
0.0
 20
50.0
 30
0.0
 11
-193.00000000000011
 21
50.000000000000021
 31
0.0
1001
GENIUS_GENREC_14
1002
{
1000
PYDIR
1011
-184.0
1021
0.0
1031
0.0
1021
50.0
1031
0.0
1002
}
1002
{
1000
PXDIR
1011
0.0
1021
0.0
1031
0.0
1021
0.0
1031
0.0
1002
}
1002
{
1000
PORI
1011
-184.0
1021
0.0
1031
0.0
1021
0.0
1031
0.0
1002
}
1002
{
1000
PINS
1011
-100.5
1021
0.0
1031
0.0
1021
25.0
1031
0.0
1002
}
1002
{
1000
HVAL
1000
50
1002
}
1002
{
1000
H
1070
     2
1002
}
1002
{
1000
WVAL
1000
167
1002
}
1002
{
1000
W
1070
     2
1002
}
1002
{
1000
C
1070
     4
1002
}
1001
GENIUS_GENODEF_13
1002
{
1000
HIER
1070
     0
1002
}
1002
{
1000
MANEDIT
1070
     0
1002
}
1002
{
1000
NOSEL
1070
     0
1002
}
1002
{
1000
BEHIND
1070
     0
1002
}
1002
{
1000
REACTOR
1002
}
1001
GENIUS_GENOBJ-N-REC_13
1002
{
1000
OWNER
1000
GEN
1002
}
  0
LINE
  5
EBF
  8
0
 10
-193.00000000000011
 20
0.0
 30
0.0
 11
0.0
 21
0.0
 31
0.0
1001
GENIUS_GENREC_14
1002
{
1000
PYDIR
1011
-184.0
1021
0.0
1031
0.0
1021
50.0
1031
0.0
1002
}
1002
{
1000
PXDIR
1011
0.0
1021
0.0
1031
0.0
1021
0.0
1031
0.0
1002
}
1002
{
1000
PORI
1011
-184.0
1021
0.0
1031
0.0
1021
0.0
1031
0.0
1002
}
1002
{
1000
PINS
1011
-100.5
1021
0.0
1031
0.0
1021
25.0
1031
0.0
1002
}
1002
{
1000
HVAL
1000
50
1002
}
1002
{
1000
H
1070
     2
1002
}
1002
{
1000
WVAL
1000
167
1002
}
1002
{
1000
W
1070
     2
1002
}
1002
{
1000
C
1070
     4
1002
}
1001
GENIUS_GENODEF_13
1002
{
1000
HIER
1070
     0
1002
}
1002
{
1000
MANEDIT
1070
     0
1002
}
1002
{
1000
NOSEL
1070
     0
1002
}
1002
{
1000
BEHIND
1070
     0
1002
}
1002
{
1000
REACTOR
1002
}
1001
GENIUS_GENOBJ-N-REC_13
1002
{
1000
OWNER
1000
GEN
1002
}
  0
TEXT
  5
EC0
  8
RAHM2
 10
-91.926776695296624
 20
45.983333333333348
 30
0.0
 40
2.5
  1
5
 72
     1
 11
-91.0
 21
45.65000000000002
 31
0.0
 73
     1
  0
TEXT
  5
EC1
  8
RAHM2
 10
-92.0
 20
40.983333333333348
 30
0.0
 40
2.5
  1
4
 72
     1
 11
-91.0
 21
40.65000000000002
 31
0.0
 73
     1
  0
TEXT
  5
EC2
  8
RAHM2
 10
-91.926776695296624
 20
35.983333333333327
 30
0.0
 40
2.5
  1
3
 72
     1
 11
-91.0
 21
35.649999999999991
 31
0.0
 73
     1
  0
TEXT
  5
EC3
  8
RAHM2
 10
-91.918331692913384
 20
30.983333333333348
 30
0.0
 40
2.5
  1
2
 72
     1
 11
-91.0
 21
30.65000000000002
 31
0.0
 73
     1
  0
TEXT
  5
EC4
  8
RAHM2
 10
-91.815586356580184
 20
25.983333333333348
 30
0.0
 40
2.5
  1
1
 72
     1
 11
-91.190586356580184
 21
25.65000000000002
 31
0.0
 73
     1
  0
INSERT
  5
EC5
  8
ﾊ_ﾈﾙ0
  2
*U44
 10
0.0
 20
0.0
 30
0.0
  0
LINE
  5
EC6
  8
RAHM2
 10
-96.0
 20
25.0
 30
0.0
 11
0.0000000000001137
 21
25.000000000000028
 31
0.0
  0
LINE
  5
EC7
  8
RAHM2
 10
-93.424871130596443
 20
25.40000000000002
 30
0.0
 11
-88.575128869403557
 21
25.40000000000002
 31
0.0
  0
LINE
  5
EC8
  8
RAHM2
 10
-88.575128869403557
 20
25.40000000000002
 30
0.0
 11
-91.0
 21
29.600000000000009
 31
0.0
  0
LINE
  5
EC9
  8
RAHM2
 10
-91.0
 20
29.600000000000009
 30
0.0
 11
-93.424871130596443
 21
25.40000000000002
 31
0.0
  0
INSERT
  5
ECA
  8
ﾊ_ﾈﾙ0
  2
*U45
 10
0.0
 20
0.0
 30
0.0
  0
INSERT
  5
ECB
  8
ﾊ_ﾈﾙ0
  2
*U46
 10
0.0
 20
0.0
 30
0.0
  0
INSERT
  5
ECC
  8
ﾊ_ﾈﾙ0
  2
*U47
 10
0.0
 20
0.0
 30
0.0
  0
INSERT
  5
ECD
  8
ﾊ_ﾈﾙ0
  2
*U48
 10
0.0
 20
0.0
 30
0.0
  0
INSERT
  5
ECE
  8
ﾊ_ﾈﾙ0
  2
*U49
 10
0.0
 20
0.0
 30
0.0
  0
INSERT
  5
ECF
  8
ﾊ_ﾈﾙ0
  2
*U50
 10
0.0
 20
0.0
 30
0.0
  0
LINE
  5
ED0
  8
RAHM2
 10
-11.82081941068907
 20
50.000000000000028
 30
0.0
 11
-11.82081941068907
 21
19.99999999999994
 31
0.0
  0
INSERT
  5
ED1
  8
ﾊ_ﾈﾙ0
  2
*U51
 10
0.0
 20
0.0
 30
0.0
  0
LINE
  5
ED2
  8
RAHM2
 10
-31.820819410689069
 20
50.000000000000028
 30
0.0
 11
-31.820819410689179
 21
19.99999999999994
 31
0.0
  0
LINE
  5
ED3
  8
RAHM2
 10
-91.0
 20
49.600000000000001
 30
0.0
 11
-93.424871130596443
 21
45.400000000000013
 31
0.0
  0
LINE
  5
ED4
  8
RAHM2
 10
-91.0
 20
44.600000000000001
 30
0.0
 11
-93.424871130596443
 21
40.400000000000013
 31
0.0
  0
LINE
  5
ED5
  8
RAHM2
 10
-91.0
 20
39.600000000000009
 30
0.0
 11
-93.424871130596443
 21
35.40000000000002
 31
0.0
  0
LINE
  5
ED6
  8
RAHM2
 10
-88.575128869403557
 20
35.40000000000002
 30
0.0
 11
-91.0
 21
39.600000000000009
 31
0.0
  0
LINE
  5
ED7
  8
RAHM2
 10
-93.424871130596443
 20
35.40000000000002
 30
0.0
 11
-88.575128869403557
 21
35.40000000000002
 31
0.0
  0
LINE
  5
ED8
  8
RAHM2
 10
-88.575128869403557
 20
40.400000000000013
 30
0.0
 11
-91.0
 21
44.600000000000001
 31
0.0
  0
LINE
  5
ED9
  8
RAHM2
 10
-93.424871130596443
 20
40.400000000000013
 30
0.0
 11
-88.575128869403557
 21
40.400000000000013
 31
0.0
  0
LINE
  5
EDA
  8
RAHM2
 10
-88.575128869403557
 20
45.400000000000013
 30
0.0
 11
-91.0
 21
49.600000000000001
 31
0.0
  0
LINE
  5
EDB
  8
RAHM2
 10
-93.424871130596443
 20
45.400000000000013
 30
0.0
 11
-88.575128869403557
 21
45.400000000000013
 31
0.0
  0
INSERT
  5
EDC
  8
ﾊ_ﾈﾙ0
  2
*U52
 10
0.0
 20
0.0
 30
0.0
  0
INSERT
  5
EDD
  8
ﾊ_ﾈﾙ0
  2
*U53
 10
0.0
 20
0.0
 30
0.0
  0
LINE
  5
EDE
  8
RAHM2
 10
-93.424871130596443
 20
30.40000000000002
 30
0.0
 11
-88.575128869403557
 21
30.40000000000002
 31
0.0
  0
LINE
  5
EDF
  8
RAHM2
 10
-86.0
 20
50.000000000000007
 30
0.0
 11
-86.0
 21
19.999999999999929
 31
0.0
  0
LINE
  5
EE0
  8
RAHM2
 10
-91.0
 20
34.600000000000009
 30
0.0
 11
-93.424871130596443
 21
30.40000000000002
 31
0.0
  0
LINE
  5
EE1
  8
RAHM2
 10
-88.575128869403557
 20
30.40000000000002
 30
0.0
 11
-91.0
 21
34.600000000000009
 31
0.0
  0
INSERT
  5
EE2
  8
ﾊ_ﾈﾙ0
  2
*U54
 10
0.0
 20
0.0
 30
0.0
  0
LINE
  5
EE3
  8
0
 10
-96.0
 20
19.999999999999972
 30
0.0
 11
0.0000000000001137
 21
19.999999999999972
 31
0.0
  0
LINE
  5
EE4
  8
0
 10
-96.0
 20
7.0
 30
0.0
 11
0.0000000000001137
 21
7.0
 31
0.0
  0
LINE
  5
EE5
  8
RAHM2
 10
-96.0
 20
45.000000000000021
 30
0.0
 11
0.0000000000001137
 21
45.000000000000021
 31
0.0
  0
LINE
  5
EE6
  8
RAHM2
 10
-96.0
 20
39.999999999999929
 30
0.0
 11
0.0000000000001137
 21
40.000000000000021
 31
0.0
  0
LINE
  5
EE7
  8
RAHM2
 10
-96.0
 20
35.000000000000028
 30
0.0
 11
0.0000000000001137
 21
35.000000000000028
 31
0.0
  0
LINE
  5
EE8
  8
RAHM2
 10
-96.0
 20
29.999999999999918
 30
0.0
 11
0.0000000000001137
 21
30.000000000000028
 31
0.0
  0
LINE
  5
EE9
  8
0
 10
-21.175419266257109
 20
0.0
 30
0.0
 11
-21.17541926625734
 21
7.0
 31
0.0
  0
INSERT
  5
EEA
  8
ﾊ_ﾈﾙ0
  2
*U55
 10
0.0
 20
0.0
 30
0.0
  0
INSERT
  5
EEB
  8
ﾊ_ﾈﾙ0
  2
*U56
 10
0.0
 20
0.0
 30
0.0
  0
LINE
  5
EEC
  8
0
 10
-167.0
 20
19.999999999999929
 30
0.0
 11
-96.0
 21
19.999999999999929
 31
0.0
  0
LINE
  5
EED
  8
0
 10
-113.75
 20
19.999999999999929
 30
0.0
 11
-113.75
 21
-0.0000000000000533
 31
0.0
  0
LINE
  5
EEE
  8
0
 10
-131.50000000000011
 20
19.999999999999929
 30
0.0
 11
-131.50000000000011
 21
-0.0000000000000533
 31
0.0
  0
INSERT
  5
EEF
  8
ﾊ_ﾈﾙ0
  2
*U57
 10
0.0
 20
0.0
 30
0.0
  0
LINE
  5
EF0
  8
0
 10
-167.0
 20
49.99999999999995
 30
0.0
 11
-167.0
 21
-0.0000000000000497
 31
0.0
  0
LINE
  5
EF1
  8
0
 10
-149.25000000000011
 20
19.999999999999929
 30
0.0
 11
-149.25000000000011
 21
-0.0000000000000462
 31
0.0
  0
INSERT
  5
EF2
  8
ﾊ_ﾈﾙ0
  2
*U58
 10
0.0
 20
0.0
 30
0.0
  0
INSERT
  5
EF3
  8
ﾊ_ﾈﾙ0
  2
*U59
 10
0.0
 20
0.0
 30
0.0
  0
LINE
  5
EF4
  8
0
 10
-167.0
 20
29.999999999999918
 30
0.0
 11
-96.0
 21
29.999999999999918
 31
0.0
  0
INSERT
  5
EF5
  8
ﾊ_ﾈﾙ0
  2
*U60
 10
0.0
 20
0.0
 30
0.0
  0
ATTDEF
  5
EF6
  8
0
 10
-148.96186758352911
 20
43.299999999999912
 30
0.0
 40
3.0
  1

  3
材質
  2
GEN-TITLE-MAT1
 70
     0
  0
ATTDEF
  5
EF7
  8
0
 10
-148.96186758352911
 20
33.299999999999912
 30
0.0
 40
3.0
  1

  3
表面処理
  2
GEN-TITLE-MAT2
 70
     0
  0
INSERT
  5
EF8
  8
ﾊ_ﾈﾙ0
  2
*U61
 10
0.0
 20
0.0
 30
0.0
  0
INSERT
  5
EF9
  8
ﾊ_ﾈﾙ0
  2
*U62
 10
0.0
 20
0.0
 30
0.0
  0
LINE
  5
EFA
  8
0
 10
-167.0
 20
39.999999999999908
 30
0.0
 11
-96.0
 21
39.999999999999922
 31
0.0
  0
LINE
  5
EFB
  8
0
 10
-167.0
 20
24.999999999999972
 30
0.0
 11
-193.00000000000011
 21
24.999999999999972
 31
0.0
  0
LINE
  5
EFC
  8
0
 10
-171.71674187457961
 20
46.74999999999995
 30
0.0
 11
-171.71674187457961
 21
40.749999999999943
 31
0.0
  0
LINE
  5
EFD
  8
7A
 10
-184.71674187457961
 20
43.74999999999995
 30
0.0
 11
-184.71674187457961
 21
40.03991724228473
 31
0.0
1001
GENIUS_GENOREF_13
1005
F0F
  0
LINE
  5
EFE
  8
7A
 10
-184.71674187457961
 20
43.74999999999995
 30
0.0
 11
-188.43977924583069
 21
43.74999999999995
 31
0.0
1001
GENIUS_GENOREF_13
1005
F0F
  0
LINE
  5
EFF
  8
0
 10
-179.71674187457961
 20
41.74999999999995
 30
0.0
 11
-179.71674187457961
 21
45.749999999999943
 31
0.0
  0
CIRCLE
  5
F00
  8
0
 10
-184.71674187457961
 20
43.74999999999995
 30
0.0
 40
3.0
  0
CIRCLE
  5
F01
  8
0
 10
-184.71674187457961
 20
43.74999999999995
 30
0.0
 40
2.0
  0
LINE
  5
F02
  8
7A
 10
-184.71674187457961
 20
43.74999999999995
 30
0.0
 11
-184.71674187457961
 21
47.324786644731439
 31
0.0
1001
GENIUS_GENOREF_13
1005
F0F
  0
LINE
  5
F03
  8
0
 10
-171.71674187457961
 20
40.749999999999943
 30
0.0
 11
-179.71674187457961
 21
41.74999999999995
 31
0.0
  0
LINE
  5
F04
  8
0
 10
-179.71674187457961
 20
45.749999999999943
 30
0.0
 11
-171.71674187457961
 21
46.74999999999995
 31
0.0
  0
LINE
  5
F05
  8
7A
 10
-184.71674187457961
 20
43.74999999999995
 30
0.0
 11
-170.93543347429431
 21
43.74999999999995
 31
0.0
1001
GENIUS_GENOREF_13
1005
F0F
  0
LINE
  5
F06
  8
0
 10
-193.00000000000011
 20
49.999999999999993
 30
0.0
 11
-193.00000000000011
 21
-0.0000000000000142
 31
0.0
  0
ATTDEF
  5
F07
  8
0
 10
-175.6127409126095
 20
16.199999999999939
 30
0.0
 40
3.0
  1

 72
     2
 11
-175.6127409126095
 21
15.79999999999994
 31
0.0
  3
数量
  2
GEN-TITLE-QTY
 70
     0
 74
     1
  0
INSERT
  5
F08
  8
ﾊ_ﾈﾙ0
  2
*U63
 10
0.0
 20
0.0
 30
0.0
  0
INSERT
  5
F09
  8
ﾊ_ﾈﾙ0
  2
*U64
 10
0.0
 20
0.0
 30
0.0
  0
ATTDEF
  5
F0A
  8
0
 10
-177.824739614424
 20
28.699999999999971
 30
0.0
 40
3.0
  1

 72
     2
 11
-177.824739614424
 21
28.299999999999979
 31
0.0
  3
尺度
  2
GEN-TITLE-SCA
 70
     0
 74
     1
  0
INSERT
  5
F0B
  8
ﾊ_ﾈﾙ0
  2
*U65
 10
0.0
 20
0.0
 30
0.0
  0
ATTDEF
  5
F0C
  8
0
 10
-180.2171951662138
 20
3.9883425376106638
 30
0.0
 40
3.0
  1

 72
     1
 11
-180.2171951662138
 21
3.5883425376106639
 31
0.0
  3
日付
  2
GEN-TITLE-DAT
 70
     0
 74
     1
  0
LINE
  5
F0D
  8
0
 10
-167.0
 20
37.499999999999979
 30
0.0
 11
-193.00000000000011
 21
37.499999999999979
 31
0.0
  0
LINE
  5
F0E
  8
0
 10
-167.0
 20
12.499999999999959
 30
0.0
 11
-193.00000000000011
 21
12.499999999999959
 31
0.0
  0
POINT
  5
F0F
  8
0
 10
-418.53555798196749
 20
-138.11048412682541
 30
0.0
1001
GENIUS_GENODEF_13
1002
{
1000
HIER
1070
    10
1002
}
1002
{
1000
MANEDIT
1070
     0
1002
}
1002
{
1000
NOSEL
1070
     0
1002
}
1002
{
1000
BEHIND
1070
     0
1002
}
1002
{
1000
REACTOR
1002
}
1001
GENIUS_GENOBJ-N-CRS_13
1002
{
1000
OWNER
1000
GEN
1002
}
1001
GENIUS_GENOENT_13
1002
{
1000
MYREF
1005
F0F
1002
}
1002
{
1000
GRP
1005
0
1002
}
1001
GENIUS_GENOLIS_13
1002
{
1000
ENT
1005
EFD
1005
EFE
1005
F02
1005
F05
1002
}
  0
ENDBLK
  5
F12
  8
0
  0
BLOCK
  8
0
  2
A$C6A3E1CEC
 70
     0
 10
0.0
 20
0.0
 30
0.0
  3
A$C6A3E1CEC
  1

  0
CIRCLE
  5
F23
  8
ﾋ_ｽ
 10
0.0
 20
0.0
 30
0.0
 40
3.1499999999994519
  0
LINE
  5
F24
  8
ﾋ_ｽ
 10
0.4204545454545042
 20
-1.8500000000000221
 30
0.0
 11
-0.4204545454545042
 21
-1.8500000000000221
 31
0.0
  0
LINE
  5
F25
  8
ﾋ_ｽ
 10
-0.4204545454545042
 20
1.8500000000000221
 30
0.0
 11
0.4204545454545042
 21
1.8500000000000221
 31
0.0
  0
LINE
  5
F26
  8
ﾋ_ｽ
 10
-1.8500000000000221
 20
0.4204545454545326
 30
0.0
 11
-1.5977272727272971
 21
0.4204545454545326
 31
0.0
  0
LINE
  5
F27
  8
ﾋ_ｽ
 10
-0.4204545454545042
 20
1.5977272727272691
 30
0.0
 11
-0.4204545454545042
 21
1.8500000000000221
 31
0.0
  0
ARC
  5
F28
  8
ﾋ_ｽ
 10
-1.5977272727272971
 20
1.5977272727272691
 30
0.0
 40
1.177272727272711
 50
270.0
 51
0.0
  0
ARC
  5
F29
  8
ﾋ_ｽ
 10
-1.597727272727183
 20
-1.59772727272724
 30
0.0
 40
1.177272727272711
 50
0.0
 51
90.0
  0
LINE
  5
F2A
  8
ﾋ_ｽ
 10
-1.8500000000000221
 20
-0.4204545454545326
 30
0.0
 11
-1.8500000000000221
 21
0.420454545454561
 31
0.0
  0
LINE
  5
F2B
  8
ﾋ_ｽ
 10
-1.59772727272724
 20
-0.4204545454545326
 30
0.0
 11
-1.8500000000000221
 21
-0.4204545454545326
 31
0.0
  0
LINE
  5
F2C
  8
ﾋ_ｽ
 10
-0.4204545454545042
 20
-1.8499999999999091
 30
0.0
 11
-0.4204545454545042
 21
-1.59772727272724
 31
0.0
  0
ARC
  5
F2D
  8
ﾋ_ｽ
 10
1.5977272727272971
 20
-1.59772727272724
 30
0.0
 40
1.177272727272711
 50
90.0
 51
180.0
  0
LINE
  5
F2E
  8
ﾋ_ｽ
 10
0.4204545454545042
 20
-1.59772727272724
 30
0.0
 11
0.4204545454545042
 21
-1.8500000000000221
 31
0.0
  0
LINE
  5
F2F
  8
ﾋ_ｽ
 10
1.849999999999965
 20
-0.4204545454545326
 30
0.0
 11
1.5977272727272971
 21
-0.4204545454545326
 31
0.0
  0
LINE
  5
F30
  8
ﾋ_ｽ
 10
1.849999999999965
 20
0.4204545454545042
 30
0.0
 11
1.849999999999965
 21
-0.4204545454545326
 31
0.0
  0
ARC
  5
F31
  8
ﾋ_ｽ
 10
1.597727272727183
 20
1.5977272727272691
 30
0.0
 40
1.177272727272711
 50
180.0
 51
270.0
  0
LINE
  5
F32
  8
ﾋ_ｽ
 10
1.597727272727183
 20
0.4204545454545326
 30
0.0
 11
1.8500000000000221
 21
0.4204545454545326
 31
0.0
  0
LINE
  5
F33
  8
ﾋ_ｽ
 10
0.4204545454545042
 20
1.8500000000000221
 30
0.0
 11
0.4204545454545042
 21
1.5977272727273539
 31
0.0
  0
ENDBLK
  5
F34
  8
0
  0
BLOCK
  8
0
  2
A$C648C1BE0
 70
     0
 10
0.0
 20
0.0
 30
0.0
  3
A$C648C1BE0
  1

  0
LINE
  5
F38
  8
ﾋ_ｽ
 10
-4.9999999999999432
 20
-3.1499999999999768
 30
0.0
 11
-4.9999999999999432
 21
3.1500000000000341
 31
0.0
  0
ARC
  5
F39
  8
ﾋ_ｽ
 10
-4.9000000000000341
 20
1.326839681057407
 30
0.0
 40
0.1
 50
179.99999999999841
 51
283.49573328080072
1001
GENIUS_GENODEF_13
1002
{
1000
HIER
1070
     0
1002
}
1002
{
1000
MANEDIT
1070
     0
1002
}
1002
{
1000
NOSEL
1070
     0
1002
}
1002
{
1000
BEHIND
1070
     0
1002
}
1002
{
1000
OTHER
1070
     0
1002
}
1002
{
1000
REACTOR
1002
}
1001
GENIUS_GENOBJ-N-FIL_13
1002
{
1000
OWNER
1000
GEN
1002
}
  0
ARC
  5
F3A
  8
ﾋ_ｽ
 10
-4.9000000000000901
 20
-1.3268396810574921
 30
0.0
 40
0.1
 50
76.50426671919935
 51
179.99999999999841
1001
GENIUS_GENODEF_13
1002
{
1000
HIER
1070
     0
1002
}
1002
{
1000
MANEDIT
1070
     0
1002
}
1002
{
1000
NOSEL
1070
     0
1002
}
1002
{
1000
BEHIND
1070
     0
1002
}
1002
{
1000
OTHER
1070
     0
1002
}
1002
{
1000
REACTOR
1002
}
1001
GENIUS_GENOBJ-N-FIL_13
1002
{
1000
OWNER
1000
GEN
1002
}
  0
LINE
  5
F3B
  8
ﾋ_ｽ
 10
0.0
 20
-1.5
 30
0.0
 11
0.0
 21
1.5
 31
0.0
  0
LINE
  5
F3C
  8
ﾋ_ｽ
 10
-4.876662704752504
 20
1.2296009508593491
 30
0.0
 11
-3.7500000000003411
 21
1.5
 31
0.0
  0
LINE
  5
F3D
  8
ﾋ_ｽ
 10
-4.8766627047525608
 20
-1.229600950859435
 30
0.0
 11
-3.7500000000004539
 21
-1.5
 31
0.0
  0
LINE
  5
F3E
  8
ﾋ_ｽ
 10
-3.7500000000004539
 20
-1.5
 30
0.0
 11
-3.7500000000003411
 21
1.5
 31
0.0
  0
LINE
  5
F3F
  8
ﾋ_ｽ
 10
-3.7500000000004539
 20
-1.500000000000028
 30
0.0
 11
0.0
 21
-1.5
 31
0.0
  0
LINE
  5
F40
  8
ﾋ_ｽ
 10
0.0
 20
1.5
 30
0.0
 11
-3.7500000000003411
 21
1.5
 31
0.0
  0
LINE
  5
F41
  8
ﾋ_ｽ0
 10
-5.000000000000056
 20
-1.199999999999988
 30
0.0
 11
0.0
 21
-1.199999999999988
 31
0.0
  0
LINE
  5
F42
  8
ﾋ_ｽ0
 10
-5.000000000000056
 20
1.199999999999988
 30
0.0
 11
0.0
 21
1.199999999999988
 31
0.0
  0
LINE
  5
F43
  8
ﾋ_ｽ
 10
-4.9999999999999432
 20
3.1500000000000341
 30
0.0
 11
-6.2999999999999536
 21
3.0362647374163312
 31
0.0
  0
LINE
  5
F44
  8
ﾋ_ｽ
 10
-4.9999999999999432
 20
-3.1499999999999768
 30
0.0
 11
-6.2999999999999536
 21
-3.0362647374162739
 31
0.0
  0
LINE
  5
F45
  8
ﾋ_ｽ
 10
-6.2999999999999536
 20
3.0362647374163312
 30
0.0
 11
-6.2999999999999536
 21
-3.0362647374162739
 31
0.0
  0
ARC
  5
F46
  8
ﾋ_ｽ
 10
1.0824196297310771
 20
0.0000000000000568
 30
0.0
 40
7.9824196297310488
 50
157.6434605857294
 51
202.35653941427211
  0
ENDBLK
  5
F47
  8
0
  0
BLOCK
  8
0
  2
A$C03BB3959
 70
     0
 10
0.0
 20
0.0
 30
0.0
  3
A$C03BB3959
  1

  0
INSERT
  5
F4B
  8
AM_7
  2
A$C6A3E1CEC
 10
0.0
 20
0.0
 30
0.0
  0
INSERT
  5
F4C
  8
AM_7
  2
A$C648C1BE0
 10
24.213502179770622
 20
-0.0000000000000284
 30
0.0
  0
INSERT
  5
F4D
  8
AM_7
  2
A$C648C1BE0
 10
0.0000000000000284
 20
24.213502179770622
 30
0.0
 50
90.0
  0
ENDBLK
  5
F4E
  8
0
  0
BLOCK
  8
0
  2
*S18
 70
     1
 10
0.0
 20
0.0
 30
0.0
  3
*S18
  1

  0
CIRCLE
  5
1059
  8
AM_12
 62
     4
 10
51.305784284953802
 20
233.4913433889528
 30
0.0
 40
1.75
  0
LINE
  5
105A
  8
AM_12
 62
     4
 10
49.555784284953802
 20
231.7413433889528
 30
0.0
 11
53.055784284953802
 21
235.2413433889528
 31
0.0
  0
LINE
  5
105B
  8
AM_12
 62
     4
 10
49.555784284953802
 20
235.2413433889528
 30
0.0
 11
53.055784284953802
 21
231.7413433889528
 31
0.0
  0
ENDBLK
  5
105D
  8
0
  0
BLOCK
  8
0
  2
*S19
 70
     1
 10
0.0
 20
0.0
 30
0.0
  3
*S19
  1

  0
CIRCLE
  5
1060
  8
AM_12
 62
     4
 10
166.9292798985874
 20
58.638874345249519
 30
0.0
 40
1.75
  0
LINE
  5
1061
  8
AM_12
 62
     4
 10
165.1792798985874
 20
56.888874345249519
 30
0.0
 11
168.6792798985874
 21
60.388874345249512
 31
0.0
  0
LINE
  5
1062
  8
AM_12
 62
     4
 10
165.1792798985874
 20
60.388874345249512
 30
0.0
 11
168.6792798985874
 21
56.888874345249519
 31
0.0
  0
ENDBLK
  5
1064
  8
0
  0
BLOCK
  8
0
  2
*S20
 70
     1
 10
0.0
 20
0.0
 30
0.0
  3
*S20
  1

  0
LINE
  5
1067
  8
0
 62
     1
 10
0.0
 20
261.47500000000002
 30
0.0
 11
193.0
 21
261.47500000000002
 31
0.0
  0
INSERT
  5
1068
  8
ﾊ_ﾈﾙ0
  2
*U71
 10
0.0
 20
0.0
 30
0.0
  0
LINE
  5
1069
  8
0
 62
     1
 10
15.0
 20
267.64999999999998
 30
0.0
 11
15.0
 21
261.47500000000002
 31
0.0
  0
INSERT
  5
106A
  8
ﾊ_ﾈﾙ0
  2
*U72
 10
0.0
 20
0.0
 30
0.0
  0
LINE
  5
106B
  8
0
 62
     1
 10
75.0
 20
267.64999999999998
 30
0.0
 11
75.0
 21
261.47500000000002
 31
0.0
  0
INSERT
  5
106C
  8
ﾊ_ﾈﾙ0
  2
*U73
 10
0.0
 20
0.0
 30
0.0
  0
LINE
  5
106D
  8
0
 62
     1
 10
90.0
 20
267.64999999999998
 30
0.0
 11
90.0
 21
261.47500000000002
 31
0.0
  0
INSERT
  5
106E
  8
ﾊ_ﾈﾙ0
  2
*U74
 10
0.0
 20
0.0
 30
0.0
  0
LINE
  5
106F
  8
0
 62
     1
 10
130.0
 20
267.64999999999998
 30
0.0
 11
130.0
 21
261.47500000000002
 31
0.0
  0
INSERT
  5
1070
  8
ﾊ_ﾈﾙ0
  2
*U75
 10
0.0
 20
0.0
 30
0.0
  0
INSERT
  5
1071
  8
ﾊ_ﾈﾙ0
  2
*U76
 10
0.0
 20
0.0
 30
0.0
  0
LINE
  5
1072
  8
0
 62
     1
 10
15.0
 20
261.47500000000002
 30
0.0
 11
15.0
 21
255.30000000000001
 31
0.0
  0
INSERT
  5
1073
  8
ﾊ_ﾈﾙ0
  2
*U77
 10
0.0
 20
0.0
 30
0.0
  0
LINE
  5
1074
  8
0
 62
     1
 10
75.0
 20
261.47500000000002
 30
0.0
 11
75.0
 21
255.30000000000001
 31
0.0
  0
INSERT
  5
1075
  8
ﾊ_ﾈﾙ0
  2
*U78
 10
0.0
 20
0.0
 30
0.0
  0
LINE
  5
1076
  8
0
 62
     1
 10
90.0
 20
261.47500000000002
 30
0.0
 11
90.0
 21
255.30000000000001
 31
0.0
  0
INSERT
  5
1077
  8
ﾊ_ﾈﾙ0
  2
*U79
 10
0.0
 20
0.0
 30
0.0
  0
LINE
  5
1078
  8
0
 62
     1
 10
130.0
 20
261.47500000000002
 30
0.0
 11
130.0
 21
255.30000000000001
 31
0.0
  0
INSERT
  5
1079
  8
ﾊ_ﾈﾙ0
  2
*U80
 10
0.0
 20
0.0
 30
0.0
  0
LINE
  5
107A
  8
0
 62
     1
 10
0.0
 20
267.64999999999998
 30
0.0
 11
193.0
 21
267.64999999999998
 31
0.0
  0
INSERT
  5
107B
  8
ﾊ_ﾈﾙ0
  2
*U81
 10
0.0
 20
0.0
 30
0.0
  0
LINE
  5
107C
  8
0
 62
     1
 10
15.0
 20
273.82499999999999
 30
0.0
 11
15.0
 21
267.64999999999998
 31
0.0
  0
INSERT
  5
107D
  8
ﾊ_ﾈﾙ0
  2
*U82
 10
0.0
 20
0.0
 30
0.0
  0
LINE
  5
107E
  8
0
 62
     1
 10
75.0
 20
273.82499999999999
 30
0.0
 11
75.0
 21
267.64999999999998
 31
0.0
  0
INSERT
  5
107F
  8
ﾊ_ﾈﾙ0
  2
*U83
 10
0.0
 20
0.0
 30
0.0
  0
LINE
  5
1080
  8
0
 62
     1
 10
90.0
 20
273.82499999999999
 30
0.0
 11
90.0
 21
267.64999999999998
 31
0.0
  0
INSERT
  5
1081
  8
ﾊ_ﾈﾙ0
  2
*U84
 10
0.0
 20
0.0
 30
0.0
  0
LINE
  5
1082
  8
0
 62
     1
 10
130.0
 20
273.82499999999999
 30
0.0
 11
130.0
 21
267.64999999999998
 31
0.0
  0
INSERT
  5
1083
  8
ﾊ_ﾈﾙ0
  2
*U85
 10
0.0
 20
0.0
 30
0.0
  0
INSERT
  5
1084
  8
ﾊ_ﾈﾙ0
  2
*U86
 10
0.0
 20
0.0
 30
0.0
  0
LINE
  5
1085
  8
0
 62
     1
 10
0.0
 20
273.82499999999999
 30
0.0
 11
193.0
 21
273.82499999999999
 31
0.0
  0
LINE
  5
1086
  8
0
 62
     7
 10
0.0
 20
280.0
 30
0.0
 11
193.0
 21
280.0
 31
0.0
  0
LINE
  5
1087
  8
0
 62
     7
 10
193.0
 20
280.0
 30
0.0
 11
193.0
 21
255.30000000000001
 31
0.0
  0
LINE
  5
1088
  8
0
 62
     7
 10
193.0
 20
255.30000000000001
 30
0.0
 11
0.0
 21
255.30000000000001
 31
0.0
  0
LINE
  5
1089
  8
0
 62
     7
 10
0.0
 20
255.30000000000001
 30
0.0
 11
0.0
 21
280.0
 31
0.0
  0
ENDBLK
  5
108B
  8
0
  0
BLOCK
  8
0
  2
*S21
 70
     1
 10
0.0
 20
0.0
 30
0.0
  3
*S21
  1

  0
LINE
  5
108E
  8
AM_5
 10
33.111645330479469
 20
243.74941676144729
 30
0.0
 11
50.561169388526991
 21
234.51819655414121
 31
0.0
  0
TRACE
  5
108F
  8
AM_5
 10
50.345697648104569
 20
234.1108961936369
 30
0.0
 11
50.7766411289494
 21
234.92549691464549
 31
0.0
 12
53.654922790745438
 22
232.8815261883492
 32
0.0
 13
53.654922790745438
 23
232.8815261883492
 33
0.0
  0
INSERT
  5
1090
  8
ﾊ_ﾈﾙ0
  2
*U87
 10
0.0
 20
0.0
 30
0.0
  0
CIRCLE
  5
1091
  8
AM_5
 62
     3
 10
27.697576876597171
 20
246.61358990158331
 30
0.0
 40
6.125
  0
ENDBLK
  5
1093
  8
0
  0
BLOCK
  8
0
  2
*U22
 70
     1
 10
0.0
 20
0.0
 30
0.0
  3
*U22
  1

  0
TEXT
  5
10A8
  8
0
 10
172.55531168523049
 20
286.233542987227
 30
0.0
 40
2.5
  1
(文書番号：TY-34)2004.10.29
  0
ENDBLK
  5
10AA
  8
0
  0
BLOCK
  8
0
  2
*U23
 70
     1
 10
0.0
 20
0.0
 30
0.0
  3
*U23
  1

  0
TEXT
  5
10AC
  8
RAHM2
 10
-193.80025513713139
 20
3.3010354072796408
 30
0.0
 40
2.5
  1
図番
  0
ENDBLK
  5
10AE
  8
0
  0
BLOCK
  8
0
  2
*U24
 70
     1
 10
0.0
 20
0.0
 30
0.0
  3
*U24
  1

  0
TEXT
  5
10B0
  8
RAHM2
 10
-193.0
 20
21.249999999999972
 30
0.0
 40
2.5
  1
符号
  0
ENDBLK
  5
10B2
  8
0
  0
BLOCK
  8
0
  2
*U25
 70
     1
 10
0.0
 20
0.0
 30
0.0
  3
*U25
  1

  0
TEXT
  5
10B4
  8
RAHM2
 10
-193.80025513713139
 20
16.30103540727961
 30
0.0
 40
2.5
  1
品名
  0
ENDBLK
  5
10B6
  8
0
  0
BLOCK
  8
0
  2
*U26
 70
     1
 10
0.0
 20
0.0
 30
0.0
  3
*U26
  1

  0
TEXT
  5
10B8
  8
RAHM2
 10
-163.1448171868856
 20
21.249999999999972
 30
0.0
 40
2.5
  1
変更記事
  0
ENDBLK
  5
10BA
  8
0
  0
BLOCK
  8
0
  2
*U27
 70
     1
 10
0.0
 20
0.0
 30
0.0
  3
*U27
  1

  0
TEXT
  5
10BC
  8
0
 10
-88.85532994923858
 20
3.4187817258883251
 30
0.0
 40
3.5
  1
株式会社タカチ電機工業
  0
ENDBLK
  5
10BE
  8
0
  0
BLOCK
  8
0
  2
*U28
 70
     1
 10
0.0
 20
0.0
 30
0.0
  3
*U28
  1

  0
TEXT
  5
10C0
  8
RAHM2
 10
-123.3541228057275
 20
31.250000000000028
 30
0.0
 40
2.5
  1
・  ・   
  0
ENDBLK
  5
10C2
  8
0
  0
BLOCK
  8
0
  2
*U29
 70
     1
 10
0.0
 20
0.0
 30
0.0
  3
*U29
  1

  0
TEXT
  5
10C4
  8
RAHM2
 10
-126.238119805002
 20
21.249999999999972
 30
0.0
 40
2.5
  1
年・月・日
  0
ENDBLK
  5
10C6
  8
0
  0
BLOCK
  8
0
  2
*U30
 70
     1
 10
0.0
 20
0.0
 30
0.0
  3
*U30
  1

  0
TEXT
  5
10C8
  8
RAHM2
 10
-104.5
 20
21.249999999999972
 30
0.0
 40
2.5
  1
担当
  0
ENDBLK
  5
10CA
  8
0
  0
BLOCK
  8
0
  2
*U31
 70
     1
 10
0.0
 20
0.0
 30
0.0
  3
*U31
  1

  0
TEXT
  5
10CC
  8
RAHM2
 10
-123.3541228057275
 20
41.250000000000021
 30
0.0
 40
2.5
  1
・  ・   
  0
ENDBLK
  5
10CE
  8
0
  0
BLOCK
  8
0
  2
*U32
 70
     1
 10
0.0
 20
0.0
 30
0.0
  3
*U32
  1

  0
TEXT
  5
10D0
  8
RAHM2
 10
-123.3541228057275
 20
36.250000000000028
 30
0.0
 40
2.5
  1
・  ・   
  0
ENDBLK
  5
10D2
  8
0
  0
BLOCK
  8
0
  2
*U33
 70
     1
 10
0.0
 20
0.0
 30
0.0
  3
*U33
  1

  0
TEXT
  5
10D4
  8
RAHM2
 10
-123.3541228057275
 20
46.250000000000021
 30
0.0
 40
2.5
  1
・  ・   
  0
ENDBLK
  5
10D6
  8
0
  0
BLOCK
  8
0
  2
*U34
 70
     1
 10
0.0
 20
0.0
 30
0.0
  3
*U34
  1

  0
TEXT
  5
10D8
  8
RAHM2
 10
-92.800255137131444
 20
13.80103540727964
 30
0.0
 40
2.5
  1
日付
  0
ENDBLK
  5
10DA
  8
0
  0
BLOCK
  8
0
  2
*U35
 70
     1
 10
0.0
 20
0.0
 30
0.0
  3
*U35
  1

  0
TEXT
  5
10DC
  8
RAHM2
 10
-92.800255137131444
 20
23.801035407279642
 30
0.0
 40
2.5
  1
表面処理
  0
ENDBLK
  5
10DE
  8
0
  0
BLOCK
  8
0
  2
*U36
 70
     1
 10
0.0
 20
0.0
 30
0.0
  3
*U36
  1

  0
TEXT
  5
10E0
  8
RAHM2
 10
-92.800255137131444
 20
33.801035407279642
 30
0.0
 40
2.5
  1
材質
  0
ENDBLK
  5
10E2
  8
0
  0
BLOCK
  8
0
  2
*U37
 70
     1
 10
0.0
 20
0.0
 30
0.0
  3
*U37
  1

  0
TEXT
  5
10E4
  8
RAHM2
 10
-72.800255137131444
 20
46.301035407279642
 30
0.0
 40
2.5
  1
尺度
  0
ENDBLK
  5
10E6
  8
0
  0
BLOCK
  8
0
  2
*U38
 70
     1
 10
0.0
 20
0.0
 30
0.0
  3
*U38
  1

  0
TEXT
  5
10E8
  8
RAHM2
 10
-52.800255137131451
 20
46.301035407279642
 30
0.0
 40
2.5
  1
数量
  0
ENDBLK
  5
10EA
  8
0
  0
BLOCK
  8
0
  2
*U39
 70
     1
 10
0.0
 20
0.0
 30
0.0
  3
*U39
  1

  0
TEXT
  5
10EC
  8
RAHM2
 10
-28.3125
 20
21.301035407279642
 30
0.0
 40
2.5
  1
承認
  0
ENDBLK
  5
10EE
  8
0
  0
BLOCK
  8
0
  2
*U40
 70
     1
 10
0.0
 20
0.0
 30
0.0
  3
*U40
  1

  0
TEXT
  5
10F0
  8
RAHM2
 10
-28.3125
 20
46.301035407279642
 30
0.0
 40
2.5
  1
承認
  0
ENDBLK
  5
10F2
  8
0
  0
BLOCK
  8
0
  2
*U41
 70
     1
 10
0.0
 20
0.0
 30
0.0
  3
*U41
  1

  0
TEXT
  5
10F4
  8
RAHM2
 10
-123.3541228057275
 20
26.250000000000028
 30
0.0
 40
2.5
  1
・  ・   
  0
ENDBLK
  5
10F6
  8
0
  0
BLOCK
  8
0
  2
*U42
 70
     1
 10
0.0
 20
0.0
 30
0.0
  3
*U42
  1

  0
TEXT
  5
10F8
  8
RAHM2
 10
-11.3125
 20
46.301035407279642
 30
0.0
 40
2.5
  1
検図
  0
ENDBLK
  5
10FA
  8
0
  0
BLOCK
  8
0
  2
*U43
 70
     1
 10
0.0
 20
0.0
 30
0.0
  3
*U43
  1

  0
TEXT
  5
10FC
  8
RAHM2
 10
-11.3125
 20
21.301035407279642
 30
0.0
 40
2.5
  1
製図
  0
ENDBLK
  5
10FE
  8
0
  0
BLOCK
  8
0
  2
*U44
 70
     1
 10
0.0
 20
0.0
 30
0.0
  3
*U44
  1

  0
TEXT
  5
1104
  8
RAHM2
 10
-26.1749422164166
 20
26.250000000000028
 30
0.0
 40
2.5
  1
・  ・   
  0
ENDBLK
  5
1106
  8
0
  0
BLOCK
  8
0
  2
*U45
 70
     1
 10
0.0
 20
0.0
 30
0.0
  3
*U45
  1

  0
TEXT
  5
1108
  8
RAHM2
 10
-26.1749422164166
 20
46.250000000000021
 30
0.0
 40
2.5
  1
・  ・   
  0
ENDBLK
  5
110A
  8
0
  0
BLOCK
  8
0
  2
*U46
 70
     1
 10
0.0
 20
0.0
 30
0.0
  3
*U46
  1

  0
TEXT
  5
110C
  8
RAHM2
 10
-26.1749422164166
 20
36.250000000000028
 30
0.0
 40
2.5
  1
・  ・   
  0
ENDBLK
  5
110E
  8
0
  0
BLOCK
  8
0
  2
*U47
 70
     1
 10
0.0
 20
0.0
 30
0.0
  3
*U47
  1

  0
TEXT
  5
1110
  8
RAHM2
 10
-26.1749422164166
 20
41.250000000000021
 30
0.0
 40
2.5
  1
・  ・   
  0
ENDBLK
  5
1112
  8
0
  0
BLOCK
  8
0
  2
*U48
 70
     1
 10
0.0
 20
0.0
 30
0.0
  3
*U48
  1

  0
TEXT
  5
1114
  8
RAHM2
 10
-8.9104097053444775
 20
21.249999999999972
 30
0.0
 40
2.5
  1
担当
  0
ENDBLK
  5
1116
  8
0
  0
BLOCK
  8
0
  2
*U49
 70
     1
 10
0.0
 20
0.0
 30
0.0
  3
*U49
  1

  0
TEXT
  5
1118
  8
RAHM2
 10
-29.058939215691112
 20
21.249999999999972
 30
0.0
 40
2.5
  1
年・月・日
  0
ENDBLK
  5
111A
  8
0
  0
BLOCK
  8
0
  2
*U50
 70
     1
 10
0.0
 20
0.0
 30
0.0
  3
*U50
  1

  0
TEXT
  5
111C
  8
RAHM2
 10
-26.1749422164166
 20
31.250000000000028
 30
0.0
 40
2.5
  1
・  ・   
  0
ENDBLK
  5
111E
  8
0
  0
BLOCK
  8
0
  2
*U51
 70
     1
 10
0.0
 20
0.0
 30
0.0
  3
*U51
  1

  0
TEXT
  5
1120
  8
RAHM2
 10
-65.0
 20
21.249999999999961
 30
0.0
 40
2.5
  1
変更記事
  0
ENDBLK
  5
1122
  8
0
  0
BLOCK
  8
0
  2
*U52
 70
     1
 10
0.0
 20
0.0
 30
0.0
  3
*U52
  1

  0
TEXT
  5
1124
  8
RAHM2
 10
-94.800255137131444
 20
16.301035407279599
 30
0.0
 40
2.5
  1
品名
  0
ENDBLK
  5
1126
  8
0
  0
BLOCK
  8
0
  2
*U53
 70
     1
 10
0.0
 20
0.0
 30
0.0
  3
*U53
  1

  0
TEXT
  5
1128
  8
RAHM2
 10
-94.0
 20
21.249999999999961
 30
0.0
 40
2.5
  1
符号
  0
ENDBLK
  5
112A
  8
0
  0
BLOCK
  8
0
  2
*U54
 70
     1
 10
0.0
 20
0.0
 30
0.0
  3
*U54
  1

  0
TEXT
  5
112C
  8
RAHM2
 10
-94.800255137131444
 20
3.3010354072796271
 30
0.0
 40
2.5
  1
図番
  0
ENDBLK
  5
112E
  8
0
  0
BLOCK
  8
0
  2
*U55
 70
     1
 10
0.0
 20
0.0
 30
0.0
  3
*U55
  1

  0
TEXT
  5
1130
  8
RAHM2
 10
-19.982425929334909
 20
2.1847624665659851
 30
0.0
 40
2.5
  1
Rev.
  0
ENDBLK
  5
1132
  8
0
  0
BLOCK
  8
0
  2
*U56
 70
     1
 10
0.0
 20
0.0
 30
0.0
  3
*U56
  1

  0
TEXT
  5
1134
  8
RAHM2
 10
-107.6875
 20
16.301035407279571
 30
0.0
 40
2.5
  1
製図
  0
ENDBLK
  5
1136
  8
0
  0
BLOCK
  8
0
  2
*U57
 70
     1
 10
0.0
 20
0.0
 30
0.0
  3
*U57
  1

  0
TEXT
  5
1138
  8
RAHM2
 10
-125.4375000000001
 20
16.301035407279581
 30
0.0
 40
2.5
  1
検図
  0
ENDBLK
  5
113A
  8
0
  0
BLOCK
  8
0
  2
*U58
 70
     1
 10
0.0
 20
0.0
 30
0.0
  3
*U58
  1

  0
TEXT
  5
113C
  8
RAHM2
 10
-143.18750000000011
 20
16.301035407279581
 30
0.0
 40
2.5
  1
承認
  0
ENDBLK
  5
113E
  8
0
  0
BLOCK
  8
0
  2
*U59
 70
     1
 10
0.0
 20
0.0
 30
0.0
  3
*U59
  1

  0
TEXT
  5
1140
  8
RAHM2
 10
-160.93750000000011
 20
16.30103540727956
 30
0.0
 40
2.5
  1
承認
  0
ENDBLK
  5
1142
  8
0
  0
BLOCK
  8
0
  2
*U60
 70
     1
 10
0.0
 20
0.0
 30
0.0
  3
*U60
  1

  0
TEXT
  5
1144
  8
0
 10
-156.35532994923869
 20
23.418781725888241
 30
0.0
 40
3.5
  1
株式会社タカチ電機工業
  0
ENDBLK
  5
1146
  8
0
  0
BLOCK
  8
0
  2
*U61
 70
     1
 10
0.0
 20
0.0
 30
0.0
  3
*U61
  1

  0
TEXT
  5
1148
  8
RAHM2
 10
-165.80025513713139
 20
46.301035407279549
 30
0.0
 40
2.5
  1
材質
  0
ENDBLK
  5
114A
  8
0
  0
BLOCK
  8
0
  2
*U62
 70
     1
 10
0.0
 20
0.0
 30
0.0
  3
*U62
  1

  0
TEXT
  5
114C
  8
RAHM2
 10
-165.80025513713139
 20
36.301035407279556
 30
0.0
 40
2.5
  1
表面処理
  0
ENDBLK
  5
114E
  8
0
  0
BLOCK
  8
0
  2
*U63
 70
     1
 10
0.0
 20
0.0
 30
0.0
  3
*U63
  1

  0
TEXT
  5
1150
  8
RAHM2
 10
-191.8002551371315
 20
21.301035407279631
 30
0.0
 40
2.5
  1
数量
  0
ENDBLK
  5
1152
  8
0
  0
BLOCK
  8
0
  2
*U64
 70
     1
 10
0.0
 20
0.0
 30
0.0
  3
*U64
  1

  0
TEXT
  5
1154
  8
RAHM2
 10
-191.8002551371315
 20
33.801035407279663
 30
0.0
 40
2.5
  1
尺度
  0
ENDBLK
  5
1156
  8
0
  0
BLOCK
  8
0
  2
*U65
 70
     1
 10
0.0
 20
0.0
 30
0.0
  3
*U65
  1

  0
TEXT
  5
1158
  8
RAHM2
 10
-191.8002551371315
 20
8.8010354072796062
 30
0.0
 40
2.5
  1
日付
  0
ENDBLK
  5
115A
  8
0
  0
BLOCK
  8
0
  2
*U66
 70
     1
 10
0.0
 20
0.0
 30
0.0
  3
*U66
  1

  0
TEXT
  5
115C
  8
AM_5
 62
     7
 10
176.43093623031069
 20
71.125066925969094
 30
0.0
 40
3.5
  1
2
  7
ACISOTS
  0
ENDBLK
  5
115E
  8
0
  0
BLOCK
  8
0
  2
*U67
 70
     1
 10
0.0
 20
0.0
 30
0.0
  3
*U67
  1

  0
TEXT
  5
1160
  8
AM_5
 62
     2
 10
139.89300579959851
 20
248.2285304919923
 30
0.0
 40
3.5
  1
12
  0
ENDBLK
  5
1162
  8
0
  0
BLOCK
  8
0
  2
*U68
 70
     1
 10
0.0
 20
0.0
 30
0.0
  3
*U68
  1

  0
TEXT
  5
1164
  8
AM_5
 62
     2
 10
72.613830899699693
 20
247.8156231288622
 30
0.0
 40
3.5
  1
59.8
  0
ENDBLK
  5
1166
  8
0
  0
BLOCK
  8
0
  2
*U69
 70
     1
 10
0.0
 20
0.0
 30
0.0
  3
*U69
  1

  0
TEXT
  5
1168
  8
AM_5
 62
     2
 10
32.54811700506032
 20
147.63052699268829
 30
0.0
 40
3.5
  1
174
 50
90.0
  0
ENDBLK
  5
116A
  8
0
  0
BLOCK
  8
0
  2
*U70
 70
     1
 10
0.0
 20
0.0
 30
0.0
  3
*U70
  1

  0
TEXT
  5
116C
  8
AM_5
 62
     2
 10
115.5227241655426
 20
249.13431514874631
 30
0.0
 40
3.5
  1
4-\U+22053.5
  0
ENDBLK
  5
116E
  8
0
  0
BLOCK
  8
0
  2
*U71
 70
     1
 10
0.0
 20
0.0
 30
0.0
  3
*U71
  1

  0
TEXT
  5
1170
  8
0
 62
     2
 10
6.625
 20
262.80000000000001
 30
0.0
 40
3.5
  1
1
  7
ACISOTS
  0
ENDBLK
  5
1172
  8
0
  0
BLOCK
  8
0
  2
*U72
 70
     1
 10
0.0
 20
0.0
 30
0.0
  3
*U72
  1

  0
TEXT
  5
1174
  8
0
 62
     2
 10
15.9
 20
262.80000000000001
 30
0.0
 40
3.5
  1
ユニットパネル
  7
ACISOTS
  0
ENDBLK
  5
1176
  8
0
  0
BLOCK
  8
0
  2
*U73
 70
     1
 10
0.0
 20
0.0
 30
0.0
  3
*U73
  1

  0
TEXT
  5
1178
  8
0
 62
     2
 10
81.624999999999986
 20
262.80000000000001
 30
0.0
 40
3.5
  1
1
  7
ACISOTS
  0
ENDBLK
  5
117A
  8
0
  0
BLOCK
  8
0
  2
*U74
 70
     1
 10
0.0
 20
0.0
 30
0.0
  3
*U74
  1

  0
TEXT
  5
117C
  8
0
 62
     2
 10
90.513622047244098
 20
262.80000000000001
 30
0.0
 40
3.5
  1
SPCC t1.6
  7
ACISOTS
  0
ENDBLK
  5
117E
  8
0
  0
BLOCK
  8
0
  2
*U75
 70
     1
 10
0.0
 20
0.0
 30
0.0
  3
*U75
  1

  0
TEXT
  5
1180
  8
0
 62
     2
 10
130.90000000000001
 20
262.80000000000001
 30
0.0
 40
3.5
  1
三価ｸﾛｰﾒｲﾄ
  7
ACISOTS
  0
ENDBLK
  5
1182
  8
0
  0
BLOCK
  8
0
  2
*U76
 70
     1
 10
0.0
 20
0.0
 30
0.0
  3
*U76
  1

  0
TEXT
  5
1184
  8
0
 62
     2
 10
6.2143356299212593
 20
256.62431102362211
 30
0.0
 40
3.5
  1
2
  7
ACISOTS
  0
ENDBLK
  5
1186
  8
0
  0
BLOCK
  8
0
  2
*U77
 70
     1
 10
0.0
 20
0.0
 30
0.0
  3
*U77
  1

  0
TEXT
  5
1188
  8
0
 62
     2
 10
15.9
 20
256.44999999999999
 30
0.0
 40
3.5
  1
パネル取付ビス(ﾊﾞｲﾝﾄﾞM3×5)
  7
ACISOTS
  0
ENDBLK
  5
118A
  8
0
  0
BLOCK
  8
0
  2
*U78
 70
     1
 10
0.0
 20
0.0
 30
0.0
  3
*U78
  1

  0
TEXT
  5
118C
  8
0
 62
     2
 10
81.099999999999994
 20
256.625
 30
0.0
 40
3.5
  1
4
  7
ACISOTS
  0
ENDBLK
  5
118E
  8
0
  0
BLOCK
  8
0
  2
*U79
 70
     1
 10
0.0
 20
0.0
 30
0.0
  3
*U79
  1

  0
TEXT
  5
1190
  8
0
 62
     2
 10
90.900000000000006
 20
256.625
 30
0.0
 40
3.5
  1
鉄
  7
ACISOTS
  0
ENDBLK
  5
1192
  8
0
  0
BLOCK
  8
0
  2
*U80
 70
     1
 10
0.0
 20
0.0
 30
0.0
  3
*U80
  1

  0
TEXT
  5
1194
  8
0
 62
     2
 10
130.90000000000001
 20
256.625
 30
0.0
 40
3.5
  1
ﾆｯｹﾙﾒｯｷ
  7
ACISOTS
  0
ENDBLK
  5
1196
  8
0
  0
BLOCK
  8
0
  2
*U81
 70
     1
 10
0.0
 20
0.0
 30
0.0
  3
*U81
  1

  0
TEXT
  5
1198
  8
0
 62
     2
 10
3.6499999999999999
 20
268.97500000000002
 30
0.0
 40
3.5
  1
照番
  7
ACISOTS
  0
ENDBLK
  5
119A
  8
0
  0
BLOCK
  8
0
  2
*U82
 70
     1
 10
0.0
 20
0.0
 30
0.0
  3
*U82
  1

  0
TEXT
  5
119C
  8
0
 62
     2
 10
41.149999999999999
 20
268.97500000000002
 30
0.0
 40
3.5
  1
名称
  7
ACISOTS
  0
ENDBLK
  5
119E
  8
0
  0
BLOCK
  8
0
  2
*U83
 70
     1
 10
0.0
 20
0.0
 30
0.0
  3
*U83
  1

  0
TEXT
  5
11A0
  8
0
 62
     2
 10
78.650000000000006
 20
268.97500000000002
 30
0.0
 40
3.5
  1
数量
  7
ACISOTS
  0
ENDBLK
  5
11A2
  8
0
  0
BLOCK
  8
0
  2
*U84
 70
     1
 10
0.0
 20
0.0
 30
0.0
  3
*U84
  1

  0
TEXT
  5
11A4
  8
0
 62
     2
 10
106.15000000000001
 20
268.97500000000002
 30
0.0
 40
3.5
  1
材質
  7
ACISOTS
  0
ENDBLK
  5
11A6
  8
0
  0
BLOCK
  8
0
  2
*U85
 70
     1
 10
0.0
 20
0.0
 30
0.0
  3
*U85
  1

  0
TEXT
  5
11A8
  8
0
 62
     2
 10
148.90000000000001
 20
268.97500000000002
 30
0.0
 40
3.5
  1
色・表面処理
  7
ACISOTS
  0
ENDBLK
  5
11AA
  8
0
  0
BLOCK
  8
0
  2
*U86
 70
     1
 10
0.0
 20
0.0
 30
0.0
  3
*U86
  1

  0
TEXT
  5
11AC
  8
0
 62
     2
 10
88.362499999999983
 20
275.16250000000002
 30
0.0
 40
3.5
  1
構成内容
  7
ACISOTS
  0
ENDBLK
  5
11AE
  8
0
  0
BLOCK
  8
0
  2
*U87
 70
     1
 10
0.0
 20
0.0
 30
0.0
  3
*U87
  1

  0
TEXT
  5
11B0
  8
AM_5
 62
     7
 10
26.822576876597171
 20
244.86358990158331
 30
0.0
 40
3.5
  1
1
  7
ACISOTS
  0
ENDBLK
  5
11B2
  8
0
  0
ENDSEC
  0
SECTION
  2
ENTITIES
  0
INSERT
  5
5E0
  8
0
  2
TK-A4
 10
0.0
 20
0.0
 30
0.0
1001
GENIUS_GENOREF_13
1005
649
1001
GENIUS_GENOBJ-N-SDF_13
1002
{
1000
OWNER
1000
GEN
1002
}
1001
GENIUS_GENODEF_13
1002
{
1000
HIER
1070
     0
1002
}
1002
{
1000
MANEDIT
1070
     0
1002
}
1002
{
1000
NOSEL
1070
     0
1002
}
1002
{
1000
BEHIND
1070
     0
1002
}
1002
{
1000
OTHER
1070
     0
1002
}
1002
{
1000
REACTOR
1002
}
1001
GENIUS_GENSCREG_13
1040
1.0
1040
1.0
1011
0.0
1021
0.0
1031
0.0
1021
0.0
1031
0.0
1011
193.0
1021
0.0
1031
0.0
1021
280.00000000000011
1031
0.0
1070
     3
  0
INSERT
  5
63F
  8
0
 66
     1
  2
TK-TITLE
 10
193.0
 20
0.0
 30
0.0
1001
GENIUS_GENOREF_13
1005
649
  0
ATTRIB
  5
F16
  8
0
 10
184.9976908104542
 20
1.705189434395036
 30
0.0
 40
2.5
  1

  2
GEN-TITLE-NR2
 70
     0
  0
ATTRIB
  5
F17
  8
0
 10
108.8574809841467
 20
12.82790432564377
 30
0.0
 40
3.5
  1
UTR-421
  2
GEN-TITLE-DES1
 70
     0
  0
ATTRIB
  5
F18
  8
0
 10
109.0
 20
9.1499999999999488
 30
0.0
 40
2.5
  1
UTR型ユニットパネル
  2
GEN-TITLE-DES2
 70
     0
  0
ATTRIB
  5
F19
  8
0
 10
109.0
 20
1.9999999999999569
 30
0.0
 40
3.0
  1

  2
GEN-TITLE-NR1
 70
     0
  0
ATTRIB
  5
F1A
  8
0
 10
44.03813241647083
 20
43.299999999999912
 30
0.0
 40
3.0
  1

  2
GEN-TITLE-MAT1
 70
     0
  0
ATTRIB
  5
F1B
  8
0
 10
44.03813241647083
 20
33.299999999999912
 30
0.0
 40
3.0
  1

  2
GEN-TITLE-MAT2
 70
     0
  0
ATTRIB
  5
F1C
  8
0
 10
17.387259087390468
 20
16.199999999999939
 30
0.0
 40
3.0
  1

 72
     2
 11
17.387259087390468
 21
15.79999999999994
 31
0.0
  2
GEN-TITLE-QTY
 70
     0
 74
     1
  0
ATTRIB
  5
F1D
  8
0
 10
11.72526038557594
 20
28.699999999999971
 30
0.0
 40
3.0
  1
1:1
 72
     2
 11
15.175260385575941
 21
28.299999999999979
 31
0.0
  2
GEN-TITLE-SCA
 70
     0
 74
     1
  0
ATTRIB
  5
F1E
  8
0
 10
2.9208953849672481
 20
3.9883425376106638
 30
0.0
 40
3.0
  1
2008/10/17
 72
     1
 11
12.782804833786139
 21
3.5883425376106639
 31
0.0
  2
GEN-TITLE-DAT
 70
     0
 74
     1
  0
SEQEND
  5
F15
  8
0
  0
POINT
  5
649
  8
0
 10
0.0
 20
0.0
 30
0.0
1001
GENIUS_GENOENT_13
1002
{
1000
MYREF
1005
649
1002
}
1002
{
1000
GRP
1005
0
1002
}
1001
GENIUS_GENOBJ-N-TIT_13
1002
{
1000
OWNER
1000
GEN
1002
}
1001
GENIUS_GENODEF_13
1002
{
1000
HIER
1070
     1
1002
}
1002
{
1000
MANEDIT
1070
     0
1002
}
1002
{
1000
NOSEL
1070
     0
1002
}
1002
{
1000
BEHIND
1070
     0
1002
}
1002
{
1000
OTHER
1070
     0
1002
}
1002
{
1000
REACTOR
1002
}
1001
GENIUS_GENOLIS_13
1002
{
1000
ENT
1005
63F
1005
5E0
1005
F14
1002
}
1001
GENIUS_GENTITLE_13
1002
{
1000
BORDER
1000
TK-A4
1002
}
1002
{
1000
TITLE
1000
TK-TITLE
1002
}
1002
{
1000
SCALE
1000
1:1
1002
}
1002
{
1000
TITLESTD
1000
ISO
1002
}
1002
{
1000
HRA
1005
5E0
1002
}
1002
{
1000
HTIT
1005
63F
1002
}
1002
{
1000
GENIUSID
1005
649
1002
}
1002
{
1000
INVTXTID
1005
0
1002
}
1002
{
1000
UNCHG
1002
{
1000
GEN-TITLE-SIZ
1000
GEN-TITLE-SCA
1002
}
1002
}
  0
POLYLINE
  5
657
  8
ﾊ_ﾈﾙ
 66
     1
 10
0.0
 20
0.0
 30
0.0
 70
     1
1001
GENIUS_GENREC_14
1002
{
1000
PYDIR
1011
46.919945978064668
1021
0.0
1031
0.0
1021
238.1305269926884
1031
0.0
1002
}
1002
{
1000
PXDIR
1011
106.7199459780646
1021
0.0
1031
0.0
1021
64.130526992688374
1031
0.0
1002
}
1002
{
1000
PORI
1011
46.919945978064668
1021
0.0
1031
0.0
1021
64.130526992688374
1031
0.0
1002
}
1002
{
1000
PINS
1011
46.919945978064668
1021
0.0
1031
0.0
1021
64.130526992688374
1031
0.0
1002
}
1002
{
1000
HVAL
1000
130
1002
}
1002
{
1000
H
1070
     2
1002
}
1002
{
1000
WVAL
1000
29.8
1002
}
1002
{
1000
W
1070
     2
1002
}
1002
{
1000
C
1070
     1
1002
}
1001
GENIUS_GENODEF_13
1002
{
1000
HIER
1070
     0
1002
}
1002
{
1000
MANEDIT
1070
     0
1002
}
1002
{
1000
NOSEL
1070
     0
1002
}
1002
{
1000
BEHIND
1070
     0
1002
}
1002
{
1000
OTHER
1070
     0
1002
}
1002
{
1000
REACTOR
1002
}
1001
GENIUS_GENOBJ-N-REC_13
1002
{
1000
OWNER
1000
GEN
1002
}
  0
VERTEX
  5
658
  8
ﾊ_ﾈﾙ
 10
46.919945978064668
 20
64.130526992688374
 30
0.0
  0
VERTEX
  5
659
  8
ﾊ_ﾈﾙ
 10
106.7199459780647
 20
64.130526992688374
 30
0.0
  0
VERTEX
  5
65A
  8
ﾊ_ﾈﾙ
 10
106.7199459780647
 20
238.1305269926884
 30
0.0
  0
VERTEX
  5
65B
  8
ﾊ_ﾈﾙ
 10
46.919945978064668
 20
238.1305269926884
 30
0.0
  0
SEQEND
  5
65C
  8
ﾊ_ﾈﾙ
  0
LINE
  5
6B1
  8
ﾊ_ﾈﾙ
 10
148.09810914605521
 20
79.130526992688402
 30
0.0
 11
148.09810914605521
 21
223.1305269926884
 31
0.0
  0
LINE
  5
6B2
  8
ﾊ_ﾈﾙ
 10
136.09810914605521
 20
238.1305269926884
 30
0.0
 11
136.09810914605521
 21
64.130526992688402
 31
0.0
  0
LINE
  5
6B3
  8
ﾊ_ﾈﾙ
 10
137.69810914605529
 20
238.1305269926884
 30
0.0
 11
137.69810914605529
 21
64.130526992688402
 31
0.0
  0
LINE
  5
6B6
  8
ﾊ_ﾈﾙ
 10
136.09810914605521
 20
64.130526992688402
 30
0.0
 11
137.69810914605529
 21
64.130526992688402
 31
0.0
  0
LINE
  5
6B7
  8
ﾊ_ﾈﾙ
 10
148.09810914605521
 20
79.130526992688402
 30
0.0
 11
137.69810914605529
 21
79.130526992688402
 31
0.0
  0
LINE
  5
6BA
  8
ﾊ_ﾈﾙ
 10
148.09810914605521
 20
223.1305269926884
 30
0.0
 11
137.69810914605529
 21
223.1305269926884
 31
0.0
  0
LINE
  5
6BB
  8
ﾊ_ﾈﾙ
 10
136.09810914605521
 20
238.1305269926884
 30
0.0
 11
137.69810914605529
 21
238.1305269926884
 31
0.0
  0
DIMENSION
  5
7CF
  8
AM_5
  2
*D9
 10
148.09810914605521
 20
246.7285304919923
 30
0.0
 11
142.09810914605521
 21
249.97887498018119
 31
0.0
 70
     0
 13
136.09810914605521
 23
238.1305269926884
 33
0.0
 14
148.09810914605521
 24
223.1305269926884
 34
0.0
  0
LINE
  5
811
  8
ﾊ_ﾈﾙ0
 10
48.519945978064698
 20
79.130526992688402
 30
0.0
 11
46.919945978064668
 21
79.130526992688402
 31
0.0
  0
LINE
  5
81F
  8
ﾊ_ﾈﾙ0
 10
48.519945978064662
 20
223.1305269926884
 30
0.0
 11
48.519945978064698
 21
79.130526992688402
 31
0.0
  0
LINE
  5
820
  8
ﾊ_ﾈﾙ0
 10
46.919945978064668
 20
223.1305269926884
 30
0.0
 11
48.519945978064662
 21
223.1305269926884
 31
0.0
  0
CIRCLE
  5
84E
  8
ﾊ_ﾈﾙ
 10
91.819945978064681
 20
232.3805269926884
 30
0.0
 40
1.75
  0
DIMENSION
  5
8F4
  8
AM_5
  2
*D10
 10
106.7199459780646
 20
246.3156231288622
 30
0.0
 11
76.819945978064681
 21
249.5656231288622
 31
0.0
 70
     0
 13
46.919945978064668
 23
238.1305269926884
 33
0.0
 14
106.7199459780646
 24
238.1305269926884
 34
0.0
  0
DIMENSION
  5
939
  8
AM_5
  2
*D11
 10
34.04811700506032
 20
64.130526992688374
 30
0.0
 11
30.79811700506032
 21
151.1305269926884
 31
0.0
 70
     0
 13
46.919945978064668
 23
238.1305269926884
 33
0.0
 14
46.919945978064703
 24
64.130526992688374
 34
0.0
 50
90.0
  0
DIMENSION
  5
9B9
  8
AM_5
  2
*D12
 10
90.366872872059787
 20
231.40529443139579
 30
0.0
 11
122.77021153895789
 21
247.63431514874631
 31
0.0
 70
   131
  1
4-<>
 15
93.273019084069574
 25
233.35575955398099
 35
0.0
 40
0.0
  0
INSERT
  5
A51
  8
AM_12
  2
*S18
 10
0.0
 20
0.0
 30
0.0
1001
ACAD
1000
AcRTDxfName
1000
ACMPARTREF
  0
CIRCLE
  5
DB0
  8
ﾊ_ﾈﾙ
 10
61.819945978064652
 20
232.3805269926884
 30
0.0
 40
1.75
  0
CIRCLE
  5
DB1
  8
ﾊ_ﾈﾙ
 10
61.819945978064652
 20
69.880526992688374
 30
0.0
 40
1.75
  0
CIRCLE
  5
DB2
  8
ﾊ_ﾈﾙ
 10
91.819945978064681
 20
69.880526992688374
 30
0.0
 40
1.75
  0
INSERT
  5
F62
  8
AM_12
  2
*S19
 10
0.0
 20
0.0
 30
0.0
1001
ACAD
1000
AcRTDxfName
1000
ACMPARTREF
  0
INSERT
  5
F64
  8
AM_7
  2
A$C03BB3959
 10
166.8383174765635
 20
57.805679783205193
 30
0.0
  0
CIRCLE
  5
F65
  8
AM_5
 62
     3
 10
177.71660060038951
 20
72.875411414158066
 30
0.0
 40
6.125
  0
INSERT
  5
F66
  8
ﾊ_ﾈﾙ0
  2
*U66
 10
0.0
 20
0.0
 30
0.0
  0
TRACE
  5
F67
  8
AM_5
 10
168.74060726207861
 20
61.67833513889348
 30
0.0
 11
169.47779319170601
 21
61.125303925027737
 31
0.0
 12
167.0088556589281
 22
58.602077991063759
 32
0.0
 13
167.0088556589281
 23
58.602077991063759
 33
0.0
  0
LINE
  5
F68
  8
AM_5
 10
174.04099760645221
 20
67.975863717588581
 30
0.0
 11
169.10920022689231
 21
61.401819531960612
 31
0.0
  0
INSERT
  5
F96
  8
0
  2
*S20
 10
0.0
 20
0.0
 30
0.0
1001
ACAD
1000
AcRTDxfName
1000
ACMPARTLIST
  0
INSERT
  5
F9C
  8
AM_5
  2
*S21
 10
0.0
 20
0.0
 30
0.0
1001
ACAD
1000
AcRTDxfName
1000
ACMBALLOON
  0
VIEWPORT
  5
17C
 67
     1
  8
0
 10
133.34999084472651
 20
101.5999970436096
 30
0.0
 40
370.22669129365238
 41
228.4221935424805
 68
     1
 69
     1
1001
ACAD
1000
MVIEW
1002
{
1070
    16
1010
0.0
1020
0.0
1030
0.0
1010
0.0
1020
0.0
1030
1.0
1040
0.0
1040
228.4221935424805
1040
133.34999084472651
1040
101.5999970436096
1040
50.0
1040
0.0
1040
0.0
1070
     0
1070
   100
1070
     1
1070
     1
1070
     0
1070
     0
1070
     0
1070
     0
1040
0.0
1040
0.0
1040
0.0
1040
10.0
1040
10.0
1040
10.0
1040
10.0
1070
     0
1002
{
1002
}
1002
}
1001
GENIUS_GENODEF_13
1002
{
1000
HIER
1070
     0
1002
}
1002
{
1000
MANEDIT
1070
     0
1002
}
1002
{
1000
NOSEL
1070
     0
1002
}
1002
{
1000
BEHIND
1070
     0
1002
}
1002
{
1000
OTHER
1070
     0
1002
}
1002
{
1000
REACTOR
1002
}
1001
GENIUS_GENOBJ-N-SDF_13
1002
{
1000
OWNER
1000
GEN
1002
}
1001
GENIUS_GENSCREG_15
1000
PF
1040
1.0
1000
DF
1040
1.0
1000
MIN
1011
-51.763354802099627
1021
0.0
1031
0.0
1021
-12.6110997276306
1031
0.0
1000
MAX
1011
318.4633364915527
1021
0.0
1031
0.0
1021
215.8110938148499
1031
0.0
1000
FLAGS
1070
     4
  0
ENDSEC
  0
EOF
