  0
SECTION
  2
HEADER
  9
$ACADVER
  1
AC1015
  9
$ACADMAINTVER
 70
    20
  9
$DWGCODEPAGE
  3
ANSI_932
  9
$INSBASE
 10
0.0
 20
0.0
 30
0.0
  9
$EXTMIN
 10
0.0
 20
-0.0000000000000799
 30
0.0
  9
$EXTMAX
 10
604.5000000000002
 20
420.0000000000001
 30
0.0
  9
$LIMMIN
 10
0.0
 20
0.0
  9
$LIMMAX
 10
604.4999999999999
 20
420.0000000000001
  9
$ORTHOMODE
 70
     0
  9
$REGENMODE
 70
     1
  9
$FILLMODE
 70
     1
  9
$QTEXTMODE
 70
     0
  9
$MIRRTEXT
 70
     1
  9
$LTSCALE
 40
1.5
  9
$ATTMODE
 70
     1
  9
$TEXTSIZE
 40
73.98571745357912
  9
$TRACEWID
 40
1.0
  9
$TEXTSTYLE
  7
STANDARD
  9
$CLAYER
  8
0
  9
$CELTYPE
  6
ByLayer
  9
$CECOLOR
 62
   256
  9
$CELTSCALE
 40
1.0
  9
$DISPSILH
 70
     0
  9
$DIMSCALE
 40
1.5
  9
$DIMASZ
 40
2.5
  9
$DIMEXO
 40
1.0
  9
$DIMDLI
 40
10.0
  9
$DIMRND
 40
0.0
  9
$DIMDLE
 40
0.0
  9
$DIMEXE
 40
1.0
  9
$DIMTP
 40
0.1
  9
$DIMTM
 40
0.1
  9
$DIMTXT
 40
3.5
  9
$DIMCEN
 40
0.0
  9
$DIMTSZ
 40
0.0
  9
$DIMTOL
 70
     0
  9
$DIMLIM
 70
     0
  9
$DIMTIH
 70
     0
  9
$DIMTOH
 70
     0
  9
$DIMSE1
 70
     0
  9
$DIMSE2
 70
     0
  9
$DIMTAD
 70
     1
  9
$DIMZIN
 70
     8
  9
$DIMBLK
  1
Open30
  9
$DIMASO
 70
     1
  9
$DIMSHO
 70
     1
  9
$DIMPOST
  1

  9
$DIMAPOST
  1
"
  9
$DIMALT
 70
     0
  9
$DIMALTD
 70
     2
  9
$DIMALTF
 40
0.0393701
  9
$DIMLFAC
 40
1.0
  9
$DIMTOFL
 70
     1
  9
$DIMTVP
 40
0.0
  9
$DIMTIX
 70
     0
  9
$DIMSOXD
 70
     0
  9
$DIMSAH
 70
     0
  9
$DIMBLK1
  1

  9
$DIMBLK2
  1

  9
$DIMSTYLE
  2
AM_ISO
  9
$DIMCLRD
 70
   256
  9
$DIMCLRE
 70
   256
  9
$DIMCLRT
 70
     2
  9
$DIMTFAC
 40
0.71
  9
$DIMGAP
 40
1.5
  9
$DIMJUST
 70
     0
  9
$DIMSD1
 70
     0
  9
$DIMSD2
 70
     0
  9
$DIMTOLJ
 70
     0
  9
$DIMTZIN
 70
     8
  9
$DIMALTZ
 70
     0
  9
$DIMALTTZ
 70
     0
  9
$DIMUPT
 70
     0
  9
$DIMDEC
 70
     2
  9
$DIMTDEC
 70
     2
  9
$DIMALTU
 70
     2
  9
$DIMALTTD
 70
     2
  9
$DIMTXSTY
  7
STANDARD
  9
$DIMAUNIT
 70
     0
  9
$DIMADEC
 70
     0
  9
$DIMALTRND
 40
0.0
  9
$DIMAZIN
 70
     2
  9
$DIMDSEP
 70
    46
  9
$DIMATFIT
 70
     3
  9
$DIMFRAC
 70
     0
  9
$DIMLDRBLK
  1
Open30
  9
$DIMLUNIT
 70
     2
  9
$DIMLWD
 70
    -1
  9
$DIMLWE
 70
    -1
  9
$DIMTMOVE
 70
     0
  9
$LUNITS
 70
     2
  9
$LUPREC
 70
     2
  9
$SKETCHINC
 40
1.0
  9
$FILLETRAD
 40
2.25
  9
$AUNITS
 70
     0
  9
$AUPREC
 70
     0
  9
$MENU
  1
.
  9
$ELEVATION
 40
0.0
  9
$PELEVATION
 40
0.0
  9
$THICKNESS
 40
0.0
  9
$LIMCHECK
 70
     0
  9
$CHAMFERA
 40
3.75
  9
$CHAMFERB
 40
3.75
  9
$CHAMFERC
 40
20.0
  9
$CHAMFERD
 40
0.0
  9
$SKPOLY
 70
     0
  9
$TDCREATE
 40
2455329.706164098
  9
$TDUCREATE
 40
2455329.331164098
  9
$TDUPDATE
 40
2455988.620858102
  9
$TDUUPDATE
 40
2455988.245858102
  9
$TDINDWG
 40
0.2095346875
  9
$TDUSRTIMER
 40
0.2095346875
  9
$USRTIMER
 70
     1
  9
$ANGBASE
 50
0.0
  9
$ANGDIR
 70
     0
  9
$PDMODE
 70
     0
  9
$PDSIZE
 40
0.0
  9
$PLINEWID
 40
0.0
  9
$SPLFRAME
 70
     0
  9
$SPLINETYPE
 70
     6
  9
$SPLINESEGS
 70
     8
  9
$HANDSEED
  5
2E2F
  9
$SURFTAB1
 70
     6
  9
$SURFTAB2
 70
     6
  9
$SURFTYPE
 70
     6
  9
$SURFU
 70
     6
  9
$SURFV
 70
     6
  9
$UCSBASE
  2

  9
$UCSNAME
  2

  9
$UCSORG
 10
0.0
 20
0.0
 30
0.0
  9
$UCSXDIR
 10
1.0
 20
0.0
 30
0.0
  9
$UCSYDIR
 10
0.0
 20
1.0
 30
0.0
  9
$UCSORTHOREF
  2

  9
$UCSORTHOVIEW
 70
     0
  9
$UCSORGTOP
 10
0.0
 20
0.0
 30
0.0
  9
$UCSORGBOTTOM
 10
0.0
 20
0.0
 30
0.0
  9
$UCSORGLEFT
 10
0.0
 20
0.0
 30
0.0
  9
$UCSORGRIGHT
 10
0.0
 20
0.0
 30
0.0
  9
$UCSORGFRONT
 10
0.0
 20
0.0
 30
0.0
  9
$UCSORGBACK
 10
0.0
 20
0.0
 30
0.0
  9
$PUCSBASE
  2

  9
$PUCSNAME
  2

  9
$PUCSORG
 10
0.0
 20
0.0
 30
0.0
  9
$PUCSXDIR
 10
1.0
 20
0.0
 30
0.0
  9
$PUCSYDIR
 10
0.0
 20
1.0
 30
0.0
  9
$PUCSORTHOREF
  2

  9
$PUCSORTHOVIEW
 70
     0
  9
$PUCSORGTOP
 10
0.0
 20
0.0
 30
0.0
  9
$PUCSORGBOTTOM
 10
0.0
 20
0.0
 30
0.0
  9
$PUCSORGLEFT
 10
0.0
 20
0.0
 30
0.0
  9
$PUCSORGRIGHT
 10
0.0
 20
0.0
 30
0.0
  9
$PUCSORGFRONT
 10
0.0
 20
0.0
 30
0.0
  9
$PUCSORGBACK
 10
0.0
 20
0.0
 30
0.0
  9
$USERI1
 70
     0
  9
$USERI2
 70
     0
  9
$USERI3
 70
     0
  9
$USERI4
 70
     0
  9
$USERI5
 70
     0
  9
$USERR1
 40
0.0
  9
$USERR2
 40
0.0
  9
$USERR3
 40
0.0
  9
$USERR4
 40
0.0
  9
$USERR5
 40
0.0
  9
$WORLDVIEW
 70
     1
  9
$SHADEDGE
 70
     3
  9
$SHADEDIF
 70
    70
  9
$TILEMODE
 70
     1
  9
$MAXACTVP
 70
    64
  9
$PINSBASE
 10
0.0
 20
0.0
 30
0.0
  9
$PLIMCHECK
 70
     0
  9
$PEXTMIN
 10
1.000000000000000E+20
 20
1.000000000000000E+20
 30
1.000000000000000E+20
  9
$PEXTMAX
 10
-1.000000000000000E+20
 20
-1.000000000000000E+20
 30
-1.000000000000000E+20
  9
$PLIMMIN
 10
-6.350006103515625
 20
-6.349999904632568
  9
$PLIMMAX
 10
273.0499877929688
 20
209.5499939918518
  9
$UNITMODE
 70
     0
  9
$VISRETAIN
 70
     1
  9
$PLINEGEN
 70
     0
  9
$PSLTSCALE
 70
     1
  9
$TREEDEPTH
 70
  3020
  9
$CMLSTYLE
  2
Standard
  9
$CMLJUST
 70
     0
  9
$CMLSCALE
 40
20.0
  9
$PROXYGRAPHICS
 70
     1
  9
$MEASUREMENT
 70
     1
  9
$CELWEIGHT
370
    -1
  9
$ENDCAPS
280
     0
  9
$JOINSTYLE
280
     0
  9
$LWDISPLAY
290
     0
  9
$INSUNITS
 70
     4
  9
$HYPERLINKBASE
  1

  9
$STYLESHEET
  1
takachi-2.ctb
  9
$XEDIT
290
     1
  9
$CEPSNTYPE
380
     0
  9
$PSTYLEMODE
290
     1
  9
$FINGERPRINTGUID
  2
{0B73D592-C53E-4F41-8098-6688BAA96583}
  9
$VERSIONGUID
  2
{2EA0217C-065E-4765-B5AB-217106C269C9}
  9
$EXTNAMES
290
     1
  9
$PSVPSCALE
 40
0.0
  9
$OLESTARTUP
290
     0
  0
ENDSEC
  0
SECTION
  2
CLASSES
  0
CLASS
  1
ACDBDICTIONARYWDFLT
  2
AcDbDictionaryWithDefault
  3
ObjectDBX Classes
 90
        0
280
     0
281
     0
  0
CLASS
  1
ACDBPLACEHOLDER
  2
AcDbPlaceHolder
  3
ObjectDBX Classes
 90
        0
280
     0
281
     0
  0
CLASS
  1
LAYOUT
  2
AcDbLayout
  3
ObjectDBX Classes
 90
        0
280
     0
281
     0
  0
CLASS
  1
ACME_DOCUMENT
  2
AcMeDbDoc
  3
AcMeServices
 90
     1024
280
     0
281
     0
  0
CLASS
  1
AMGSETTINGSOBJ
  2
AmgSettingsObj
  3
"AcadM|Product Description: AutoCAD Mechanical|Company: Autodesk, Inc."
 90
     1024
280
     0
281
     0
  0
CLASS
  1
ACMESCOPE
  2
AcMeScope
  3
AcMeServices
 90
     1024
280
     0
281
     0
  0
CLASS
  1
ACMECOMMANDHISTORY
  2
AcMeCommandHistory
  3
AcMeServices
 90
     1024
280
     0
281
     0
  0
CLASS
  1
ACIMSYSVARMAN
  2
AcImSysVarManager
  3
AcMeServices
 90
     1024
280
     0
281
     0
  0
CLASS
  1
ACIMREALSYSVAR
  2
AcImRealSysVar
  3
AcMeServices
 90
     1024
280
     0
281
     0
  0
CLASS
  1
ACIMINTSYSVAR
  2
AcImIntSysVar
  3
AcMeServices
 90
     1024
280
     0
281
     0
  0
CLASS
  1
ACMEDRAWINGMAN
  2
AcMeDrawingMan
  3
AcMeServices
 90
     1024
280
     0
281
     0
  0
CLASS
  1
ACMEVIEW
  2
AcMeView
  3
AcMeServices
 90
     1024
280
     0
281
     0
  0
CLASS
  1
ACDBENTITYCACHE
  2
AcMeEntityCache
  3
AcMeServices
 90
     1024
280
     0
281
     0
  0
CLASS
  1
GSMANAGER
  2
AcMeGSManager
  3
AcMeServices
 90
     1024
280
     0
281
     0
  0
CLASS
  1
AMDTINTERNALREACTOR
  2
AmdtInternalReactor
  3
AcMeServices
 90
     1024
280
     0
281
     0
  0
CLASS
  1
ACMESTATEMGR
  2
AcMeStateMgr
  3
AcMeServices
 90
     1024
280
     0
281
     0
  0
CLASS
  1
ACGREFMASTER
  2
AcGrefMaster
  3
AcAttribServices
 90
     1024
280
     0
281
     0
  0
CLASS
  1
ACME_DATABASE
  2
AcMeDbDatabase
  3
AcMeServices
 90
     1024
280
     0
281
     0
  0
CLASS
  1
ACRFINSADJUSTERMGR
  2
AcRfInsAdjusterMgr
  3
AcMeServices
 90
     1024
280
     0
281
     0
  0
CLASS
  1
ACGREFACADMASTER
  2
AcGrefacadMaster
  3
AcGrefServices
 90
     1024
280
     0
281
     0
  0
CLASS
  1
AMIMASTER
  2
AmiMaster
  3
AmiServices
 90
     1024
280
     0
281
     0
  0
CLASS
  1
ACMDATADICTIONARY
  2
AcmDataDictionary
  3
"AcmSymBB|Product Description: AutoCAD Mechanical|Company: Autodesk, Inc."
 90
     1024
280
     0
281
     0
  0
CLASS
  1
ACMDATAENTRYBLOCK
  2
AcmDataEntryBlock
  3
AcmSymBB|Product Description: AutoCAD Mechanical|Company: Autodesk, Inc.
 90
     1024
280
     0
281
     0
  0
CLASS
  1
ACIMSTRSYSVAR
  2
AcImStrSysVar
  3
AcMeServices
 90
     1024
280
     0
281
     0
  0
CLASS
  1
ACMSTANDARDISO
  2
AcmStandardISO
  3
"Amdt_StdImp|Product Description: AutoCAD Mechanical|Company: Autodesk, Inc."
 90
     1024
280
     0
281
     0
  0
CLASS
  1
AMGOBJPROPCFG
  2
AmgObjPropCfg
  3
"AmgLay|Product Description: AutoCAD Mechanical|Company: Autodesk, Inc."
 90
     1025
280
     0
281
     0
  0
CLASS
  1
AMDTEDGESTANDARDISO
  2
AmdtEdgeStdISO
  3
"Amdt_StdImp|Product Description: AutoCAD Mechanical|Company: Autodesk, Inc."
 90
     1024
280
     0
281
     0
  0
CLASS
  1
ACMSURFSTANDARDISO
  2
AcmSurfTextStdISO
  3
"Amdt_StdImp|Product Description: AutoCAD Mechanical|Company: Autodesk, Inc."
 90
     1024
280
     0
281
     0
  0
CLASS
  1
ACMFCFSTANDARDISO
  2
AcmFCFStdISO
  3
"Amdt_StdImp|Product Description: AutoCAD Mechanical|Company: Autodesk, Inc."
 90
     1024
280
     0
281
     0
  0
CLASS
  1
ACMWELDSTANDARDISO
  2
AcmWeldingStdISO
  3
"Amdt_StdImp|Product Description: AutoCAD Mechanical|Company: Autodesk, Inc."
 90
     1024
280
     0
281
     0
  0
CLASS
  1
ACMIDSTANDARDISO
  2
AcmIdStdISO
  3
"Amdt_StdImp|Product Description: AutoCAD Mechanical|Company: Autodesk, Inc."
 90
     1024
280
     0
281
     0
  0
CLASS
  1
ACMDATUMSTANDARDISO
  2
AcmDatumStdISO
  3
"Amdt_StdImp|Product Description: AutoCAD Mechanical|Company: Autodesk, Inc."
 90
     1024
280
     0
281
     0
  0
CLASS
  1
ACMBOMSTANDARDISO
  2
AcmBOMStdISO
  3
"Amdt_StdImp|Product Description: AutoCAD Mechanical|Company: Autodesk, Inc."
 90
     1024
280
     0
281
     0
  0
CLASS
  1
ACMDETAILSTANDARDISO
  2
AmdtDetailSymStdISO
  3
"Amdt_StdImp|Product Description: AutoCAD Mechanical|Company: Autodesk, Inc."
 90
     1024
280
     0
281
     0
  0
CLASS
  1
ACMSECTIONSTANDARDISO
  2
AmdtSectionSymStdISO
  3
"Amdt_StdImp|Product Description: AutoCAD Mechanical|Company: Autodesk, Inc."
 90
     1024
280
     0
281
     0
  0
CLASS
  1
ACMCENTERLINESTANDARDISO
  2
AmdtCenterLineStdISO
  3
"Amdt_StdImp|Product Description: AutoCAD Mechanical|Company: Autodesk, Inc."
 90
     1024
280
     0
281
     0
  0
CLASS
  1
ACMNOTESTANDARDISO
  2
AmdtNoteStdISO
  3
"Amdt_StdImp|Product Description: AutoCAD Mechanical|Company: Autodesk, Inc."
 90
     1024
280
     0
281
     0
  0
CLASS
  1
ACAMGLAYSTD
  2
AcAmgLayStd
  3
"AmgLay|Product Description: AutoCAD Mechanical|Company: Autodesk, Inc."
 90
     1024
280
     0
281
     0
  0
CLASS
  1
ACAMGDIMSTD
  2
AcAmgDimStd
  3
"AmgDim|Product Description: AutoCAD Mechanical|Company: Autodesk, Inc."
 90
     1024
280
     0
281
     0
  0
CLASS
  1
ACAMGHOLECHARTSTDISO
  2
AcAmgHoleChartStdISO
  3
AmgDim|Product Description: AutoCAD Mechanical|Company: Autodesk, Inc.
 90
     1024
280
     0
281
     0
  0
CLASS
  1
ACAMGTITLESTD
  2
AcAmgTitleStd
  3
"AmgTitle|Product Description: AutoCAD Mechanical|Company: Autodesk, Inc."
 90
     4095
280
     0
281
     0
  0
CLASS
  1
LAYER_INDEX
  2
AcDbLayerIndex
  3
ObjectDBX Classes
 90
    32768
280
     0
281
     0
  0
CLASS
  1
IDBUFFER
  2
AcDbIdBuffer
  3
ObjectDBX Classes
 90
    32768
280
     0
281
     0
  0
CLASS
  1
DICTIONARYVAR
  2
AcDbDictionaryVar
  3
ObjectDBX Classes
 90
        0
280
     0
281
     0
  0
CLASS
  1
AM_DRAWING_MGR
  2
AcDmDwgMgr
  3
AcMechDwgViewMgmt
 90
     1024
280
     0
281
     0
  0
CLASS
  1
AM_DWG_DOCUMENT
  2
AcDmDwgDocument
  3
AcMechDwgViewMgmt
 90
     1024
280
     0
281
     0
  0
CLASS
  1
AM_DWG_SHEET
  2
AcDmSheet
  3
AcMechDwgViewMgmt
 90
     1024
280
     0
281
     0
  0
CLASS
  1
AM_VIEWDIMPARMAP
  2
AcDmViewDimParMap
  3
AcMechDwgViewMgmt
 90
     1024
280
     0
281
     0
  0
CLASS
  1
AM_DWGMGR_NAME
  2
AcDmDwgMgrName
  3
AcMechDwgViewMgmt
 90
     1024
280
     0
281
     0
  0
CLASS
  1
AMDTMENUSTATEMGR
  2
AmdtMenuStateMgr
  3
McadcomServices
 90
     1024
280
     0
281
     0
  0
CLASS
  1
AMDTMCOMMENUSTATE
  2
AmdtMcomMenuState
  3
McadcomServices
 90
     1024
280
     0
281
     0
  0
CLASS
  1
MAPIAMMOUDLE
  2
MApiAmModule
  3
MApiAmServices
 90
     1024
280
     0
281
     0
  0
CLASS
  1
AMDTADMENUSTATE
  2
AmdtAdMenuState
  3
DesignerServices
 90
     1024
280
     0
281
     0
  0
CLASS
  1
ADAPPL
  2
AcAdAppl
  3
DesignerServices
 90
     1024
280
     0
281
     0
  0
CLASS
  1
DEPMGR
  2
AcAdDepMgr
  3
DesignerServices
 90
     1024
280
     0
281
     0
  0
CLASS
  1
PARAMMGR
  2
AcAdParamMgr
  3
DesignerServices
 90
     1024
280
     0
281
     0
  0
CLASS
  1
PARAMSCOPE
  2
AcAdParamScope
  3
DesignerServices
 90
     1024
280
     0
281
     0
  0
CLASS
  1
NAMEDAPPL
  2
AcAdNamedAppl
  3
DesignerServices
 90
     1024
280
     0
281
     0
  0
CLASS
  1
AMDTDMMENUSTATE
  2
AmdtDmMenuState
  3
AcMechDwgViewMgmt
 90
     1024
280
     0
281
     0
  0
CLASS
  1
AMDTAMMENUSTATE
  2
AmdtAmMenuState
  3
DesignerAssemblies
 90
     1024
280
     0
281
     0
  0
CLASS
  1
ACAMPROJECT
  2
AcAmProject
  3
DesignerAssemblies
 90
     1024
280
     0
281
     0
  0
CLASS
  1
ACAMGRCOMPDEF
  2
AcAmGrCompDef
  3
DesignerAssemblies
 90
     1024
280
     0
281
     0
  0
CLASS
  1
ACCMCONTEXT
  2
AcCmContext
  3
DesignerAssemblies
 90
     1024
280
     0
281
     0
  0
CLASS
  1
ACAMCOMPDEF
  2
AcAmCompDef
  3
DesignerAssemblies
 90
     1024
280
     0
281
     0
  0
CLASS
  1
ACAMCOMPDEFMGR
  2
AcAmCompDefMgr
  3
DesignerAssemblies
 90
     1024
280
     0
281
     0
  0
CLASS
  1
AMCONTEXTMGR
  2
AcAmContextMgr
  3
DesignerAssemblies
 90
     1024
280
     0
281
     0
  0
CLASS
  1
ACAMCONTEXTMODELER
  2
AcAmContextModeler
  3
DesignerAssemblies
 90
     1024
280
     0
281
     0
  0
CLASS
  1
ACMTHREADLINESTANDARDISO
  2
AmdtThreadLineStdISO
  3
"Amdt_StdImp|Product Description: AutoCAD Mechanical|Company: Autodesk, Inc."
 90
     1024
280
     0
281
     0
  0
CLASS
  1
CATALOGSTATE
  2
AcAmCatalogState
  3
DesignerAssemblies
 90
     1024
280
     0
281
     0
  0
CLASS
  1
ACAMGRCOMPDEFSET
  2
AcAmGrCompDefSet
  3
DesignerAssemblies
 90
     1024
280
     0
281
     0
  0
CLASS
  1
AMDTBROWSERDBTAB
  2
AmdtBrowserDbTab
  3
McadcomServices
 90
     1024
280
     0
281
     0
  0
CLASS
  1
CBROWSERAPPOBJECT
  2
CBrowserAppObject
  3
McadcomServices
 90
     1024
280
     0
281
     0
  0
CLASS
  1
DM_PLACEHOLDER
  2
AcDmSelsetPlaceholder
  3
AcMechDwgViewMgmt
 90
     1024
280
     0
281
     0
  0
CLASS
  1
AMDTNOTETEMPLATEDB
  2
AmdtNoteTemplateDB
  3
AcmSymBB|Product Description: AutoCAD Mechanical|Company: Autodesk, Inc.
 90
     1024
280
     0
281
     0
  0
CLASS
  1
ACAMGFILTERDAT
  2
AcAmgFilterDat
  3
"AcadM|Product Description: AutoCAD Mechanical|Company: Autodesk, Inc."
 90
     1024
280
     0
281
     0
  0
CLASS
  1
AMDTNOTE
  2
AmdtNote
  3
"AcmSymBB|Product Description: AutoCAD Mechanical|Company: Autodesk, Inc."
 90
    36863
280
     0
281
     1
  0
CLASS
  1
AMDTFORMULAUPDATEDISPATCHER
  2
AmdtFormulaUpdateDispatcher
  3
AcMeServices
 90
     1024
280
     0
281
     0
  0
CLASS
  1
AMDTSECTIONSYM
  2
AmdtSectionSym
  3
"AcmSymBB|Product Description: AutoCAD Mechanical|Company: Autodesk, Inc."
 90
    36863
280
     0
281
     1
  0
CLASS
  1
AMDTSECTIONSYMLABEL
  2
AmdtSectionSymLabel
  3
"AcmSymBB|Product Description: AutoCAD Mechanical|Company: Autodesk, Inc."
 90
    36863
280
     0
281
     1
  0
CLASS
  1
AMDTDETAILSYM
  2
AmdtDetailSym
  3
"AcmSymBB|Product Description: AutoCAD Mechanical|Company: Autodesk, Inc."
 90
    36863
280
     0
281
     1
  0
CLASS
  1
AMDTDETAILSYMLABEL
  2
AmdtDetailSymLabel
  3
"AcmSymBB|Product Description: AutoCAD Mechanical|Company: Autodesk, Inc."
 90
    36863
280
     0
281
     1
  0
CLASS
  1
TABLESTYLE
  2
AcDbTableStyle
  3
ObjectDBX Classes
 90
     4095
280
     0
281
     0
  0
CLASS
  1
VAACXREFPANELOBJECT
  2
VaAcXREFPanelObject
  3
VAAC_ADDIN
 90
    32768
280
     0
281
     0
  0
CLASS
  1
VAACIMAGEINVENTORY
  2
VaAcImageInventory
  3
VAAC_ADDIN
 90
    32768
280
     0
281
     0
  0
CLASS
  1
DIMASSOC
  2
AcDbDimAssoc
  3
"AcDbDimAssoc|Product Desc:     AcDim ARX App For Dimension|Company:          Autodesk, Inc.|WEB Address:      www.autodesk.com"
 90
        0
280
     0
281
     0
  0
CLASS
  1
SORTENTSTABLE
  2
AcDbSortentsTable
  3
ObjectDBX Classes
 90
        0
280
     0
281
     0
  0
CLASS
  1
MATERIAL
  2
AcDbMaterial
  3
ObjectDBX Classes
 90
     1153
280
     0
281
     0
  0
CLASS
  1
VISUALSTYLE
  2
AcDbVisualStyle
  3
ObjectDBX Classes
 90
     4095
280
     0
281
     0
  0
CLASS
  1
SCALE
  2
AcDbScale
  3
ObjectDBX Classes
 90
     1153
280
     0
281
     0
  0
CLASS
  1
MLEADERSTYLE
  2
AcDbMLeaderStyle
  3
ACDB_MLEADERSTYLE_CLASS
 90
     4095
280
     0
281
     0
  0
CLASS
  1
ACRFATTGENMGR
  2
AcRfAttGeneralMgr
  3
AcAttribServices
 90
     1024
280
     0
281
     0
  0
CLASS
  1
ACRFOBJATTMGR
  2
AcRfObjAttGroupMgr
  3
AcAttribServices
 90
     1024
280
     0
281
     0
  0
CLASS
  1
ACRFMCADAPIATTHOLDER
  2
AcRfMCADAPIAttHolder
  3
AcAttribServices
 90
     1024
280
     0
281
     0
  0
CLASS
  1
AMDTSYSATTR
  2
AmdtSystemAttribute
  3
AcAttribServices
 90
     1024
280
     0
281
     0
  0
CLASS
  1
ACMTAPERSTANDARDISO
  2
AcmTaperStdISO
  3
"Amdt_StdImp|Product Description: AutoCAD Mechanical|Company: Autodesk, Inc."
 90
     1024
280
     0
281
     0
  0
CLASS
  1
ACMANOOTATIONVIEWSTANDARDISO
  2
AmdtAnViewStdISO
  3
"Amdt_StdImp|Product Description: AutoCAD Mechanical|Company: Autodesk, Inc."
 90
     1024
280
     0
281
     0
  0
CLASS
  1
EXACXREFPANELOBJECT
  2
ExAcXREFPanelObject
  3
EXAC_ESW
 90
     1025
280
     0
281
     0
  0
CLASS
  1
NPOCOLLECTION
  2
AcDbImpNonPersistentObjectsCollection
  3
ObjectDBX Classes
 90
     1153
280
     0
281
     0
  0
CLASS
  1
CELLSTYLEMAP
  2
AcDbCellStyleMap
  3
ObjectDBX Classes
 90
     1152
280
     0
281
     0
  0
ENDSEC
  0
SECTION
  2
TABLES
  0
TABLE
  2
VPORT
  5
8
330
0
100
AcDbSymbolTable
 70
     1
  0
VPORT
  5
2D5D
330
8
100
AcDbSymbolTableRecord
100
AcDbViewportTableRecord
  2
*Active
 70
     0
 10
0.0
 20
0.0
 11
1.0
 21
1.0
 12
309.0882725440792
 22
210.0000019558371
 13
0.0
 23
0.0
 14
3.75
 24
3.75
 15
15.0
 25
15.0
 16
0.0
 26
0.0
 36
1.0
 17
0.0
 27
0.0
 37
0.0
 40
396.109445677813
 41
1.614727854855923
 42
50.0
 43
0.0
 44
0.0
 50
0.0
 51
0.0
 71
     0
 72
   100
 73
     1
 74
     3
 75
     0
 76
     0
 77
     0
 78
     0
281
     0
 65
     1
110
0.0
120
0.0
130
0.0
111
1.0
121
0.0
131
0.0
112
0.0
122
1.0
132
0.0
 79
     0
146
0.0
  0
ENDTAB
  0
TABLE
  2
LTYPE
  5
5
330
0
100
AcDbSymbolTable
 70
    20
  0
LTYPE
  5
14
330
5
100
AcDbSymbolTableRecord
100
AcDbLinetypeTableRecord
  2
ByBlock
 70
     0
  3

 72
    65
 73
     0
 40
0.0
  0
LTYPE
  5
15
330
5
100
AcDbSymbolTableRecord
100
AcDbLinetypeTableRecord
  2
ByLayer
 70
     0
  3

 72
    65
 73
     0
 40
0.0
  0
LTYPE
  5
16
330
5
100
AcDbSymbolTableRecord
100
AcDbLinetypeTableRecord
  2
Continuous
 70
     0
  3
Solid line
 72
    65
 73
     0
 40
0.0
  0
LTYPE
  5
64
330
5
100
AcDbSymbolTableRecord
100
AcDbLinetypeTableRecord
  2
AM_ISO02W050
 70
     0
  3
__ __ __ __ __ __ __ __ __ __ __ __ __ __ __
 72
    65
 73
     2
 40
7.5
 49
6.0
 74
     0
 49
-1.5
 74
     0
  0
LTYPE
  5
65
330
5
100
AcDbSymbolTableRecord
100
AcDbLinetypeTableRecord
  2
AM_ISO08W050
 70
     0
  3
____ . ____ . ____ . ____ . ____ . ____ . ____
 72
    65
 73
     4
 40
18.0
 49
12.0
 74
     0
 49
-1.5
 74
     0
 49
3.0
 74
     0
 49
-1.5
 74
     0
  0
LTYPE
  5
66
330
5
100
AcDbSymbolTableRecord
100
AcDbLinetypeTableRecord
  2
AM_ISO09W050
 70
     0
  3
_____ . . _____ . . _____ . . ____ .. ____
 72
    65
 73
     6
 40
22.5
 49
12.0
 74
     0
 49
-1.5
 74
     0
 49
3.0
 74
     0
 49
-1.5
 74
     0
 49
3.0
 74
     0
 49
-1.5
 74
     0
  0
LTYPE
  5
67
330
5
100
AcDbSymbolTableRecord
100
AcDbLinetypeTableRecord
  2
Amconstr
 70
     0
  3
_______________________
 72
    65
 73
     2
 40
9999.0
 49
9999.0
 74
     0
 49
0.0
 74
     0
  0
LTYPE
  5
68
330
5
100
AcDbSymbolTableRecord
100
AcDbLinetypeTableRecord
  2
AM_ISO08W050x2
 70
     0
  3
__ . __ . __ . __ . __ . __
 72
    65
 73
     4
 40
9.0
 49
6.0
 74
     0
 49
-0.75
 74
     0
 49
1.5
 74
     0
 49
-0.75
 74
     0
  0
LTYPE
  5
69
330
5
100
AcDbSymbolTableRecord
100
AcDbLinetypeTableRecord
  2
AM_ISO02W050x2
 70
     0
  3
 _ _ _ _ _ _ _ _ _ _ _ _
 72
    65
 73
     2
 40
3.75
 49
3.0
 74
     0
 49
-0.75
 74
     0
  0
LTYPE
  5
6C
330
5
100
AcDbSymbolTableRecord
100
AcDbLinetypeTableRecord
  2
Amzigzag
 70
     0
  3
/\/-/\/-/\/-/\/-/\/-/\/
 72
    65
 73
     2
 40
11.0001
 49
0.0001
 74
     4
 75
   135
340
6B
 46
0.04
 50
0.0
 44
0.0
 45
0.0
 49
-11.0
 74
     0
  0
LTYPE
  5
7A
330
5
100
AcDbSymbolTableRecord
100
AcDbLinetypeTableRecord
  2
ACISOWELD
 70
     0
  3
_ _ _ _ _
 72
    65
 73
     2
 40
2.0
 49
2.0
 74
     0
 49
-1.0
 74
     0
  0
LTYPE
  5
7B
330
5
100
AcDbSymbolTableRecord
100
AcDbLinetypeTableRecord
  2
ACISOTGB
 70
     0
  3
__ . . __ . .
 72
    65
 73
     6
 40
9.0
 49
4.0
 74
     0
 49
-1.0
 74
     0
 49
1.0
 74
     0
 49
-1.0
 74
     0
 49
1.0
 74
     0
 49
-1.0
 74
     0
  0
LTYPE
  5
7C
330
5
100
AcDbSymbolTableRecord
100
AcDbLinetypeTableRecord
  2
ACISOTGL
 70
     0
  3
_ _ _ _ _
 72
    65
 73
     2
 40
3.0
 49
2.0
 74
     0
 49
-1.0
 74
     0
  0
LTYPE
  5
7E
330
5
100
AcDbSymbolTableRecord
100
AcDbLinetypeTableRecord
  2
CENTER
 70
     0
  3
__ . __
 72
    65
 73
     4
 40
7.0
 49
4.0
 74
     0
 49
-1.0
 74
     0
 49
1.0
 74
     0
 49
-1.0
 74
     0
  0
LTYPE
  5
D8
330
5
100
AcDbSymbolTableRecord
100
AcDbLinetypeTableRecord
  2
HIDDEN
 70
     0
  3
Hidden __ __ __ __ __ __ __ __ __ __ __ __ __ _
 72
    65
 73
     2
 40
9.524999999999998
 49
6.349999999999999
 74
     0
 49
-3.174999999999999
 74
     0
  0
LTYPE
  5
D9
330
5
100
AcDbSymbolTableRecord
100
AcDbLinetypeTableRecord
  2
PHANTOM2
 70
     0
  3
Phantom (.5x) ___ _ _ ___ _ _ ___ _ _ ___ _ _
 72
    65
 73
     6
 40
31.75
 49
15.875
 74
     0
 49
-3.174999999999999
 74
     0
 49
3.174999999999999
 74
     0
 49
-3.174999999999999
 74
     0
 49
3.174999999999999
 74
     0
 49
-3.174999999999999
 74
     0
  0
LTYPE
  5
5ED
330
5
100
AcDbSymbolTableRecord
100
AcDbLinetypeTableRecord
  2
gen3
 70
     0
  3
-- -- -- -- -- -- -- -- -- -- -- -- -- -- --
 72
    65
 73
     2
 40
6.25
 49
4.75
 74
     0
 49
-1.5
 74
     0
  0
LTYPE
  5
5EE
330
5
100
AcDbSymbolTableRecord
100
AcDbLinetypeTableRecord
  2
gen7
 70
     0
  3
____ . ____ . ____ . ____ . ____ . ____ . ____
 72
    65
 73
     4
 40
13.75
 49
9.75
 74
     0
 49
-1.5
 74
     0
 49
1.0
 74
     0
 49
-1.5
 74
     0
  0
LTYPE
  5
5EF
330
5
100
AcDbSymbolTableRecord
100
AcDbLinetypeTableRecord
  2
gen3a
 70
     0
  3
 - - - - -
 72
    65
 73
     2
 40
3.125
 49
2.25
 74
     0
 49
-0.875
 74
     0
  0
LTYPE
  5
5F0
330
5
100
AcDbSymbolTableRecord
100
AcDbLinetypeTableRecord
  2
gen7a
 70
     0
  3
__ . __ . __
 72
    65
 73
     4
 40
6.875
 49
4.75
 74
     0
 49
-0.875
 74
     0
 49
0.375
 74
     0
 49
-0.875
 74
     0
  0
LTYPE
  5
5F1
330
5
100
AcDbSymbolTableRecord
100
AcDbLinetypeTableRecord
  2
gen4a
 70
     0
  3
_____ . . _____ . . _____ . . ____ .. ____
 72
    65
 73
     6
 40
16.25
 49
9.75
 74
     0
 49
-1.5
 74
     0
 49
1.0
 74
     0
 49
-1.5
 74
     0
 49
1.0
 74
     0
 49
-1.5
 74
     0
  0
LTYPE
  5
5F2
330
5
100
AcDbSymbolTableRecord
100
AcDbLinetypeTableRecord
  2
genzigzag
 70
     0
  3
/\/-/\/-/\/-/\/-/\/-/\/
 72
    65
 73
     2
 40
12.0001
 49
0.0001
 74
     4
 75
   135
340
6B
 46
2.0
 50
0.0
 44
0.0
 45
0.0
 49
-12.0
 74
     0
  0
ENDTAB
  0
TABLE
  2
LAYER
  5
2
102
{ACAD_XDICTIONARY
360
35D
102
}
330
0
100
AcDbSymbolTable
 70
    24
  0
LAYER
  5
10
102
{ACAD_XDICTIONARY
360
2DC5
102
}
330
2
100
AcDbSymbolTableRecord
100
AcDbLayerTableRecord
  2
0
 70
     0
 62
     7
  6
Continuous
370
    -3
390
F
  0
LAYER
  5
1E1
330
2
100
AcDbSymbolTableRecord
100
AcDbLayerTableRecord
  2
Defpoints
 70
     0
 62
     7
  6
Continuous
290
     0
370
    -3
390
F
  0
LAYER
  5
518
102
{ACAD_XDICTIONARY
360
2DC7
102
}
330
2
100
AcDbSymbolTableRecord
100
AcDbLayerTableRecord
  2
TK1
 70
     0
 62
     7
  6
Continuous
370
    25
390
F
  0
LAYER
  5
519
102
{ACAD_XDICTIONARY
360
2DC9
102
}
330
2
100
AcDbSymbolTableRecord
100
AcDbLayerTableRecord
  2
TK10
 70
     0
 62
     7
  6
AM_ISO02W050x2
370
    13
390
F
  0
LAYER
  5
51A
102
{ACAD_XDICTIONARY
360
2DCB
102
}
330
2
100
AcDbSymbolTableRecord
100
AcDbLayerTableRecord
  2
TK2
 70
     0
 62
     2
  6
Continuous
370
    25
390
F
  0
LAYER
  5
51B
102
{ACAD_XDICTIONARY
360
2DCD
102
}
330
2
100
AcDbSymbolTableRecord
100
AcDbLayerTableRecord
  2
TK3
 70
     0
 62
     5
  6
Continuous
370
    25
390
F
  0
LAYER
  5
51C
102
{ACAD_XDICTIONARY
360
2DCF
102
}
330
2
100
AcDbSymbolTableRecord
100
AcDbLayerTableRecord
  2
TK20
 70
     0
 62
     2
  6
AM_ISO02W050x2
370
    13
390
F
  0
LAYER
  5
51D
102
{ACAD_XDICTIONARY
360
2DD1
102
}
330
2
100
AcDbSymbolTableRecord
100
AcDbLayerTableRecord
  2
TK30
 70
     0
 62
     5
  6
AM_ISO02W050x2
370
    13
390
F
  0
LAYER
  5
5AE
102
{ACAD_XDICTIONARY
360
2DD3
102
}
330
2
100
AcDbSymbolTableRecord
100
AcDbLayerTableRecord
  2
TK4
 70
     0
 62
     3
  6
Continuous
370
    25
390
F
  0
LAYER
  5
5AF
102
{ACAD_XDICTIONARY
360
2DD5
102
}
330
2
100
AcDbSymbolTableRecord
100
AcDbLayerTableRecord
  2
TK5
 70
     0
 62
     4
  6
Continuous
370
    25
390
F
  0
LAYER
  5
5B0
102
{ACAD_XDICTIONARY
360
2DD7
102
}
330
2
100
AcDbSymbolTableRecord
100
AcDbLayerTableRecord
  2
TK6
 70
     0
 62
     6
  6
Continuous
370
    25
390
F
  0
LAYER
  5
5B1
102
{ACAD_XDICTIONARY
360
2DD9
102
}
330
2
100
AcDbSymbolTableRecord
100
AcDbLayerTableRecord
  2
TK7
 70
     0
 62
     1
  6
Continuous
370
    25
390
F
  0
LAYER
  5
5B2
102
{ACAD_XDICTIONARY
360
2DDB
102
}
330
2
100
AcDbSymbolTableRecord
100
AcDbLayerTableRecord
  2
TK8
 70
     0
 62
     8
  6
Continuous
370
    25
390
F
  0
LAYER
  5
5B4
102
{ACAD_XDICTIONARY
360
2DDD
102
}
330
2
100
AcDbSymbolTableRecord
100
AcDbLayerTableRecord
  2
TK40
 70
     0
 62
     3
  6
AM_ISO02W050x2
370
    13
390
F
  0
LAYER
  5
5B5
102
{ACAD_XDICTIONARY
360
2DDF
102
}
330
2
100
AcDbSymbolTableRecord
100
AcDbLayerTableRecord
  2
TK50
 70
     0
 62
     4
  6
AM_ISO02W050x2
370
    13
390
F
  0
LAYER
  5
5B6
102
{ACAD_XDICTIONARY
360
2DE1
102
}
330
2
100
AcDbSymbolTableRecord
100
AcDbLayerTableRecord
  2
TK60
 70
     0
 62
     6
  6
AM_ISO02W050x2
370
    13
390
F
  0
LAYER
  5
5B7
102
{ACAD_XDICTIONARY
360
2DE3
102
}
330
2
100
AcDbSymbolTableRecord
100
AcDbLayerTableRecord
  2
TK70
 70
     0
 62
     1
  6
AM_ISO02W050x2
370
    13
390
F
  0
LAYER
  5
5B8
102
{ACAD_XDICTIONARY
360
2DE5
102
}
330
2
100
AcDbSymbolTableRecord
100
AcDbLayerTableRecord
  2
TK80
 70
     0
 62
     8
  6
AM_ISO02W050x2
370
    13
390
F
  0
LAYER
  5
5E3
102
{ACAD_XDICTIONARY
360
2DE7
102
}
330
2
100
AcDbSymbolTableRecord
100
AcDbLayerTableRecord
  2
AM_7
 70
     0
 62
     4
  6
AM_ISO08W050
370
    25
390
F
  0
LAYER
  5
5E4
102
{ACAD_XDICTIONARY
360
2DE9
102
}
330
2
100
AcDbSymbolTableRecord
100
AcDbLayerTableRecord
  2
AM_5
 70
     0
 62
     3
  6
Continuous
370
    25
390
F
  0
LAYER
  5
60F
102
{ACAD_XDICTIONARY
360
2DEB
102
}
330
2
100
AcDbSymbolTableRecord
100
AcDbLayerTableRecord
  2
7A
 70
     0
 62
     4
  6
gen7a
370
    -3
390
F
  0
LAYER
  5
610
102
{ACAD_XDICTIONARY
360
2DED
102
}
330
2
100
AcDbSymbolTableRecord
100
AcDbLayerTableRecord
  2
RAHM2
 70
     0
 62
     1
  6
Continuous
370
    -3
390
F
  0
LAYER
  5
C6F
102
{ACAD_XDICTIONARY
360
2DEF
102
}
330
2
100
AcDbSymbolTableRecord
100
AcDbLayerTableRecord
  2
AM_CL
 70
     0
 62
     1
  6
Amconstr
370
    25
390
F
  0
LAYER
  5
F37
102
{ACAD_XDICTIONARY
360
2DF1
102
}
330
2
100
AcDbSymbolTableRecord
100
AcDbLayerTableRecord
  2
AM_0
 70
     0
 62
     7
  6
Continuous
370
    50
390
F
  0
ENDTAB
  0
TABLE
  2
STYLE
  5
3
330
0
100
AcDbSymbolTable
 70
     5
  0
STYLE
  5
11
330
3
100
AcDbSymbolTableRecord
100
AcDbTextStyleTableRecord
  2
STANDARD
 70
     0
 40
0.0
 41
1.0
 50
0.0
 71
     0
 42
73.98571745357912
  3
ISOCP.SHX
  4
bigfont.shx
  0
STYLE
  5
6B
330
3
100
AcDbSymbolTableRecord
100
AcDbTextStyleTableRecord
  2

 70
     1
 40
0.0
 41
1.0
 50
0.0
 71
     0
 42
2.5
  3
ltypeshp.shx
  4

  0
STYLE
  5
6D
330
3
100
AcDbSymbolTableRecord
100
AcDbTextStyleTableRecord
  2
ACISOTS
 70
     0
 40
1.0
 41
1.0
 50
0.0
 71
     0
 42
2.5
  3
isocp.shx
  4
extfont.shx
  0
STYLE
  5
79
330
3
100
AcDbSymbolTableRecord
100
AcDbTextStyleTableRecord
  2
ACISOGDT
 70
     0
 40
0.0
 41
1.0
 50
0.0
 71
     0
 42
2.5
  3
amgdt.shx
  4

  0
STYLE
  5
612
330
3
100
AcDbSymbolTableRecord
100
AcDbTextStyleTableRecord
  2

 70
     1
 40
0.0
 41
1.0
 50
0.0
 71
     0
 42
3.0
  3
genltshp.shx
  4

  0
ENDTAB
  0
TABLE
  2
VIEW
  5
6
330
0
100
AcDbSymbolTable
 70
     6
  0
VIEW
  5
291
330
6
100
AcDbSymbolTableRecord
100
AcDbViewTableRecord
  2
AM_VIEW1
 70
     0
 40
210.0
 10
153.3736396614269
 20
315.0000000000001
 41
306.7472793228538
 11
0.0
 21
0.0
 31
1.0
 12
0.0
 22
0.0
 32
0.0
 42
50.0
 43
0.0
 44
0.0
 50
0.0
 71
     0
281
     0
 72
     0
  0
VIEW
  5
292
330
6
100
AcDbSymbolTableRecord
100
AcDbViewTableRecord
  2
AM_VIEW2
 70
     0
 40
210.0
 10
451.1263603385731
 20
315.0000000000001
 41
306.7472793228538
 11
0.0
 21
0.0
 31
1.0
 12
0.0
 22
0.0
 32
0.0
 42
50.0
 43
0.0
 44
0.0
 50
0.0
 71
     0
281
     0
 72
     0
  0
VIEW
  5
293
330
6
100
AcDbSymbolTableRecord
100
AcDbViewTableRecord
  2
AM_VIEW3
 70
     0
 40
210.0
 10
153.3736396614269
 20
105.0
 41
306.7472793228538
 11
0.0
 21
0.0
 31
1.0
 12
0.0
 22
0.0
 32
0.0
 42
50.0
 43
0.0
 44
0.0
 50
0.0
 71
     0
281
     0
 72
     0
  0
VIEW
  5
294
330
6
100
AcDbSymbolTableRecord
100
AcDbViewTableRecord
  2
AM_VIEW4
 70
     0
 40
210.0
 10
451.1263603385731
 20
105.0
 41
306.7472793228538
 11
0.0
 21
0.0
 31
1.0
 12
0.0
 22
0.0
 32
0.0
 42
50.0
 43
0.0
 44
0.0
 50
0.0
 71
     0
281
     0
 72
     0
  0
VIEW
  5
295
330
6
100
AcDbSymbolTableRecord
100
AcDbViewTableRecord
  2
AM_VIEW5
 70
     0
 40
210.0000000000001
 10
302.25
 20
210.0
 41
306.7472793228537
 11
0.0
 21
0.0
 31
1.0
 12
0.0
 22
0.0
 32
0.0
 42
50.0
 43
0.0
 44
0.0
 50
0.0
 71
     0
281
     0
 72
     0
  0
VIEW
  5
296
330
6
100
AcDbSymbolTableRecord
100
AcDbViewTableRecord
  2
AM_VIEW6
 70
     0
 40
419.9958000000001
 10
302.25
 20
210.0
 41
613.4884237001211
 11
0.0
 21
0.0
 31
1.0
 12
0.0
 22
0.0
 32
0.0
 42
50.0
 43
0.0
 44
0.0
 50
0.0
 71
     0
281
     0
 72
     0
  0
ENDTAB
  0
TABLE
  2
UCS
  5
7
330
0
100
AcDbSymbolTable
 70
     0
  0
ENDTAB
  0
TABLE
  2
APPID
  5
9
330
0
100
AcDbSymbolTable
 70
    35
  0
APPID
  5
12
330
9
100
AcDbSymbolTableRecord
100
AcDbRegAppTableRecord
  2
ACAD
 70
     0
  0
APPID
  5
46
330
9
100
AcDbSymbolTableRecord
100
AcDbRegAppTableRecord
  2
MCAD_NO_VIS
 70
     0
  0
APPID
  5
47
330
9
100
AcDbSymbolTableRecord
100
AcDbRegAppTableRecord
  2
ACAD_TEMP_GRAPHIC
 70
     0
  0
APPID
  5
58
330
9
100
AcDbSymbolTableRecord
100
AcDbRegAppTableRecord
  2
ACATTRIBSERVICES
 70
     0
  0
APPID
  5
EE
330
9
100
AcDbSymbolTableRecord
100
AcDbRegAppTableRecord
  2
AD_DRAW
 70
     0
  0
APPID
  5
10C
330
9
100
AcDbSymbolTableRecord
100
AcDbRegAppTableRecord
  2
DESIGNERASSEMBLIES
 70
     0
  0
APPID
  5
111
330
9
100
AcDbSymbolTableRecord
100
AcDbRegAppTableRecord
  2
ACADM_DIM_EDIT
 70
     0
  0
APPID
  5
112
330
9
100
AcDbSymbolTableRecord
100
AcDbRegAppTableRecord
  2
AMDT_DM_ADJ
 70
     0
  0
APPID
  5
1E2
330
9
100
AcDbSymbolTableRecord
100
AcDbRegAppTableRecord
  2
GENIUS_GENREC_14
 70
     0
  0
APPID
  5
1E3
330
9
100
AcDbSymbolTableRecord
100
AcDbRegAppTableRecord
  2
GENIUS_GENODEF_13
 70
     0
  0
APPID
  5
1E4
330
9
100
AcDbSymbolTableRecord
100
AcDbRegAppTableRecord
  2
GENIUS_GENOBJ-N-REC_13
 70
     0
  0
APPID
  5
1E5
330
9
100
AcDbSymbolTableRecord
100
AcDbRegAppTableRecord
  2
GENIUS_GENDIMSH_14
 70
     0
  0
APPID
  5
1E6
330
9
100
AcDbSymbolTableRecord
100
AcDbRegAppTableRecord
  2
GENIUS_GENCFG_13
 70
     0
  0
APPID
  5
1E7
330
9
100
AcDbSymbolTableRecord
100
AcDbRegAppTableRecord
  2
GENIUS_GENCFG0_13
 70
     0
  0
APPID
  5
1E8
330
9
100
AcDbSymbolTableRecord
100
AcDbRegAppTableRecord
  2
GENIUS_GENCFG1_13
 70
     0
  0
APPID
  5
1E9
330
9
100
AcDbSymbolTableRecord
100
AcDbRegAppTableRecord
  2
GENIUS_GENCFG2_13
 70
     0
  0
APPID
  5
1EA
330
9
100
AcDbSymbolTableRecord
100
AcDbRegAppTableRecord
  2
GENIUS_GENCFG3_13
 70
     0
  0
APPID
  5
1EB
330
9
100
AcDbSymbolTableRecord
100
AcDbRegAppTableRecord
  2
GENIUS_GENCFG4_13
 70
     0
  0
APPID
  5
1EC
330
9
100
AcDbSymbolTableRecord
100
AcDbRegAppTableRecord
  2
GENIUS_GEVCFG0_13
 70
     0
  0
APPID
  5
1ED
330
9
100
AcDbSymbolTableRecord
100
AcDbRegAppTableRecord
  2
GENIUS_GENOENT_13
 70
     0
  0
APPID
  5
1EE
330
9
100
AcDbSymbolTableRecord
100
AcDbRegAppTableRecord
  2
GENIUS_GENOBJ-N-CRS_13
 70
     0
  0
APPID
  5
1EF
330
9
100
AcDbSymbolTableRecord
100
AcDbRegAppTableRecord
  2
GENIUS_GENOREF_13
 70
     0
  0
APPID
  5
1F0
330
9
100
AcDbSymbolTableRecord
100
AcDbRegAppTableRecord
  2
GENIUS_GENOLIS_13
 70
     0
  0
APPID
  5
1F1
330
9
100
AcDbSymbolTableRecord
100
AcDbRegAppTableRecord
  2
GENIUS_GENOBJ-N-TIT_13
 70
     0
  0
APPID
  5
1F2
330
9
100
AcDbSymbolTableRecord
100
AcDbRegAppTableRecord
  2
GENIUS_GENTITLE_13
 70
     0
  0
APPID
  5
1F3
330
9
100
AcDbSymbolTableRecord
100
AcDbRegAppTableRecord
  2
GENIUS_GENSCREG_15
 70
     0
  0
APPID
  5
1F4
330
9
100
AcDbSymbolTableRecord
100
AcDbRegAppTableRecord
  2
GENIUS_GENOBJ-N-SDF_13
 70
     0
  0
APPID
  5
1F5
330
9
100
AcDbSymbolTableRecord
100
AcDbRegAppTableRecord
  2
GENIUS_GENOBJ-N-CEN_13
 70
     0
  0
APPID
  5
1F6
330
9
100
AcDbSymbolTableRecord
100
AcDbRegAppTableRecord
  2
GENIUS_GENOBJ-N-HTC_13
 70
     0
  0
APPID
  5
1F7
330
9
100
AcDbSymbolTableRecord
100
AcDbRegAppTableRecord
  2
GENIUS_GENHATCH_13
 70
     0
  0
APPID
  5
484
330
9
100
AcDbSymbolTableRecord
100
AcDbRegAppTableRecord
  2
GENIUS_GENOBJ-N-ZOO_13
 70
     0
  0
APPID
  5
485
330
9
100
AcDbSymbolTableRecord
100
AcDbRegAppTableRecord
  2
GENIUS_GENZOO_17
 70
     0
  0
APPID
  5
85F
330
9
100
AcDbSymbolTableRecord
100
AcDbRegAppTableRecord
  2
GENIUS_GENOBJ-N-FIL_13
 70
     0
  0
APPID
  5
860
330
9
100
AcDbSymbolTableRecord
100
AcDbRegAppTableRecord
  2
GENIUS_GENCEN_19
 70
     0
  0
APPID
  5
2D9C
330
9
100
AcDbSymbolTableRecord
100
AcDbRegAppTableRecord
  2
ACAD_MLEADERVER
 70
     0
  0
ENDTAB
  0
TABLE
  2
DIMSTYLE
  5
A
330
0
100
AcDbSymbolTable
 70
    16
100
AcDbDimStyleTable
 71
     1
340
81
  0
DIMSTYLE
105
81
330
A
100
AcDbSymbolTableRecord
100
AcDbDimStyleTableRecord
  2
AM_ISO
 70
     0
  4
"
 41
2.5
 42
1.0
 43
10.0
 44
1.0
 47
0.1
 48
0.1
 73
     0
 74
     0
 77
     1
 78
     8
 79
     2
140
3.5
141
0.0
143
0.0393701
146
0.71
147
1.5
172
     1
176
   256
177
   256
178
     2
271
     2
272
     2
283
     0
284
     8
340
11
341
407
342
407
371
    -1
372
    -1
  0
DIMSTYLE
105
82
102
{ACAD_REACTORS
330
EFE
102
}
330
A
100
AcDbSymbolTableRecord
100
AcDbDimStyleTableRecord
  2
AM_ISO$3
 70
     0
  4
"
 41
2.5
 42
1.0
 43
10.0
 44
1.0
 47
0.1
 48
0.1
 73
     0
 77
     1
 78
     8
 79
     2
140
3.5
141
0.0
143
0.0393701
146
0.71
147
1.5
176
   256
177
   256
178
     2
271
     2
272
     2
283
     0
284
     8
288
     1
289
     0
340
11
341
407
342
407
371
    -1
372
    -1
  0
DIMSTYLE
105
83
102
{ACAD_REACTORS
330
F38
102
}
330
A
100
AcDbSymbolTableRecord
100
AcDbDimStyleTableRecord
  2
AM_ISO$4
 70
     0
  4
"
 41
2.5
 42
1.0
 43
10.0
 44
1.0
 47
0.1
 48
0.1
 73
     0
 77
     1
 78
     8
 79
     2
140
3.5
141
0.0
143
0.0393701
146
0.71
147
1.5
176
   256
177
   256
178
     2
271
     2
272
     2
283
     0
284
     8
288
     1
289
     0
340
11
341
407
342
407
371
    -1
372
    -1
  0
DIMSTYLE
105
84
330
A
100
AcDbSymbolTableRecord
100
AcDbDimStyleTableRecord
  2
AM_ISO$6
 70
     0
  4
"
 41
2.5
 42
1.0
 43
10.0
 44
1.0
 47
0.1
 48
0.1
 73
     0
 74
     0
 78
     8
 79
     2
140
3.5
141
0.0
143
0.0393701
146
0.71
147
1.5
172
     1
176
   256
177
   256
178
     2
271
     2
272
     2
283
     0
284
     8
340
11
341
407
342
407
371
    -1
372
    -1
  0
DIMSTYLE
105
85
330
A
100
AcDbSymbolTableRecord
100
AcDbDimStyleTableRecord
  2
AM_ISO$7
 70
     0
  4
"
 41
2.5
 42
1.0
 43
10.0
 44
1.0
 47
0.1
 48
0.1
 73
     0
 74
     0
 77
     1
 78
     8
 79
     2
140
5.0
141
0.0
143
0.0393701
146
0.71
147
1.5
172
     1
176
   256
177
   256
178
     2
271
     2
272
     2
283
     0
284
     8
340
11
341
407
342
407
371
    -1
372
    -1
  0
DIMSTYLE
105
86
330
A
100
AcDbSymbolTableRecord
100
AcDbDimStyleTableRecord
  2
AM_ISO$SF
 70
     0
  4
"
 41
2.5
 42
1.0
 43
10.0
 44
1.0
 47
0.1
 48
0.1
 73
     0
 74
     0
 75
     1
 76
     1
 77
     1
 78
     8
 79
     2
140
3.5
141
0.0
143
0.0393701
146
0.71
147
1.5
172
     1
176
   256
177
   256
178
     2
271
     2
272
     2
283
     0
284
     8
340
11
341
407
342
407
371
    -1
372
    -1
  0
DIMSTYLE
105
8B
330
A
100
AcDbSymbolTableRecord
100
AcDbDimStyleTableRecord
  2
AM_ISO$SH
 70
     0
  4
"
 41
2.5
 42
1.0
 43
10.0
 44
1.0
 47
0.1
 48
0.1
 73
     0
 74
     0
 75
     1
 76
     1
 77
     1
 78
     8
 79
     2
140
3.5
141
0.0
143
0.0393701
144
2.0
146
0.71
147
1.5
172
     1
173
     1
176
   256
177
   256
178
     2
271
     2
272
     2
283
     0
284
     8
340
11
341
407
343
87
344
407
371
    -1
372
    -1
  0
DIMSTYLE
105
5F3
330
A
100
AcDbSymbolTableRecord
100
AcDbDimStyleTableRecord
  2
GEN-ISO
 70
     0
  4
"
 41
2.5
 42
1.0
 43
10.0
 44
1.0
 47
0.1
 48
0.1
 73
     0
 74
     0
 77
     1
 78
     8
140
3.5
141
0.0
143
0.0393701
146
0.71
147
1.5
172
     1
176
   256
177
   256
178
     2
271
     2
272
     3
274
     4
283
     0
340
11
  0
DIMSTYLE
105
5F4
330
A
100
AcDbSymbolTableRecord
100
AcDbDimStyleTableRecord
  2
GEN-ISO$3
 70
     0
  4
"
 41
2.5
 42
1.0
 43
10.0
 44
1.0
 47
0.1
 48
0.1
 73
     0
 77
     1
 78
     8
140
3.5
141
0.0
143
0.0393701
146
0.71
147
1.5
176
   256
177
   256
178
     2
271
     2
272
     3
274
     4
283
     0
288
     1
289
     0
340
11
  0
DIMSTYLE
105
5F5
330
A
100
AcDbSymbolTableRecord
100
AcDbDimStyleTableRecord
  2
GEN-ISO$4
 70
     0
  4
"
 41
2.5
 42
1.0
 43
10.0
 44
1.0
 47
0.1
 48
0.1
 73
     0
 77
     1
 78
     8
140
3.5
141
0.0
143
0.0393701
146
0.71
147
1.5
176
   256
177
   256
178
     2
271
     2
272
     3
274
     4
283
     0
288
     1
289
     0
340
11
  0
DIMSTYLE
105
5F6
330
A
100
AcDbSymbolTableRecord
100
AcDbDimStyleTableRecord
  2
GEN-ISO$6
 70
     0
  4
"
 41
2.5
 42
1.0
 43
10.0
 44
1.0
 47
0.1
 48
0.1
 73
     0
 74
     0
 78
     8
140
3.5
141
0.0
143
0.0393701
146
0.71
147
1.5
176
   256
177
   256
178
     2
271
     2
272
     3
274
     4
283
     0
340
11
  0
DIMSTYLE
105
5F7
330
A
100
AcDbSymbolTableRecord
100
AcDbDimStyleTableRecord
  2
GEN-ISO-POS
 70
     0
  4
"
 41
2.5
 42
1.0
 43
10.0
 44
1.0
 47
0.1
 48
0.1
 73
     0
 74
     0
 78
     8
140
5.0
141
0.0
143
0.0393701
146
0.71
147
1.5
176
   256
177
   256
178
     2
271
     2
272
     3
274
     4
283
     0
340
11
  0
DIMSTYLE
105
5F8
330
A
100
AcDbSymbolTableRecord
100
AcDbDimStyleTableRecord
  2
GEN-ISO-AXE-F
 70
     0
  4
"
 41
2.5
 42
1.0
 43
10.0
 44
1.0
 47
0.1
 48
0.1
 73
     0
 74
     0
 75
     1
 76
     1
 77
     1
 78
     8
140
3.5
141
0.0
143
0.0393701
146
0.71
147
1.5
172
     1
176
   256
177
   256
178
     2
271
     2
272
     3
274
     4
283
     0
340
11
  0
DIMSTYLE
105
5F9
330
A
100
AcDbSymbolTableRecord
100
AcDbDimStyleTableRecord
  2
GEN-ISO-AXE-H
 70
     0
  4
"
 41
2.5
 42
1.0
 43
10.0
 44
1.0
 47
0.1
 48
0.1
 73
     0
 74
     0
 75
     1
 76
     1
 77
     1
 78
     8
140
3.5
141
0.0
143
0.0393701
144
2.0
146
0.71
147
1.5
172
     1
173
     1
176
   256
177
   256
178
     2
271
     2
272
     3
274
     4
283
     0
340
11
  0
DIMSTYLE
105
6C5
330
A
100
AcDbSymbolTableRecord
100
AcDbDimStyleTableRecord
  2
AM_ANSI
 70
     0
  4
mm
 41
0.1
 42
0.05
 43
0.5
 44
0.1
 47
0.1
 48
0.1
 78
     7
 79
     2
140
0.12
141
0.0
146
0.71
147
0.06
176
   256
177
   256
178
     2
274
     4
284
     7
340
11
371
    -1
372
    -1
  0
DIMSTYLE
105
85E
102
{ACAD_REACTORS
330
E1D
330
E45
330
E61
330
E8F
330
EB9
330
EDD
330
2982
330
29A6
330
29CA
330
2A01
330
2BB1
330
2BF5
330
2C2F
330
2C68
330
2CAB
330
2CE5
330
2D0B
330
2D25
102
}
330
A
100
AcDbSymbolTableRecord
100
AcDbDimStyleTableRecord
  2
AM_ISO$0
 70
     0
  4
"
 41
2.5
 42
1.0
 43
10.0
 44
1.0
 47
0.1
 48
0.1
 73
     0
 74
     0
 77
     1
 78
     8
 79
     2
140
3.5
141
0.0
143
0.0393701
146
0.71
147
1.5
172
     1
176
   256
177
   256
178
     2
271
     2
272
     2
283
     0
284
     8
340
11
341
407
342
407
371
    -1
372
    -1
  0
ENDTAB
  0
TABLE
  2
BLOCK_RECORD
  5
1
330
0
100
AcDbSymbolTable
 70
    28
  0
BLOCK_RECORD
  5
1F
102
{ACAD_XDICTIONARY
360
8F
102
}
330
1
100
AcDbSymbolTableRecord
100
AcDbBlockTableRecord
  2
*Model_Space
340
22
  0
BLOCK_RECORD
  5
23
330
1
100
AcDbSymbolTableRecord
100
AcDbBlockTableRecord
  2
*Paper_Space
340
26
  0
BLOCK_RECORD
  5
1B
330
1
100
AcDbSymbolTableRecord
100
AcDbBlockTableRecord
  2
*Paper_Space0
340
1E
  0
BLOCK_RECORD
  5
87
330
1
100
AcDbSymbolTableRecord
100
AcDbBlockTableRecord
  2
GENAXEH
340
0
  0
BLOCK_RECORD
  5
407
330
1
100
AcDbSymbolTableRecord
100
AcDbBlockTableRecord
  2
_Open30
340
0
102
{BLKREFS
331
2926
331
2927
331
292F
331
2930
331
2938
331
2939
331
2941
331
2942
331
294A
331
294B
331
2953
331
2954
331
2966
331
296B
331
29DA
331
29DB
331
29EC
331
29ED
331
2A11
331
2A12
331
2A2F
331
2A30
331
2A62
331
2BE0
331
2BE1
331
2C19
331
2C1A
331
2C78
331
2C79
331
2C88
331
2C89
331
2CCF
331
2CD0
331
2D45
331
2D46
331
2D4E
331
2D4F
331
2D57
331
2D58
102
}
  0
BLOCK_RECORD
  5
5FA
102
{ACAD_XDICTIONARY
360
603
102
}
330
1
100
AcDbSymbolTableRecord
100
AcDbBlockTableRecord
  2
TAKACHI-A3
340
0
  0
BLOCK_RECORD
  5
613
102
{ACAD_XDICTIONARY
360
668
102
}
330
1
100
AcDbSymbolTableRecord
100
AcDbBlockTableRecord
  2
TAKACHI-TITLE
340
0
  0
BLOCK_RECORD
  5
6C6
102
{ACAD_XDICTIONARY
360
6CE
102
}
330
1
100
AcDbSymbolTableRecord
100
AcDbBlockTableRecord
  2
TK-A3
340
0
102
{BLKREFS
331
A9A
102
}
  0
BLOCK_RECORD
  5
6D9
102
{ACAD_XDICTIONARY
360
732
102
}
330
1
100
AcDbSymbolTableRecord
100
AcDbBlockTableRecord
  2
TK-TITLE
340
0
102
{BLKREFS
331
A9B
102
}
  0
BLOCK_RECORD
  5
E1E
330
1
100
AcDbSymbolTableRecord
100
AcDbBlockTableRecord
  2
*D8
340
0
  0
BLOCK_RECORD
  5
E46
330
1
100
AcDbSymbolTableRecord
100
AcDbBlockTableRecord
  2
*D9
340
0
  0
BLOCK_RECORD
  5
E62
330
1
100
AcDbSymbolTableRecord
100
AcDbBlockTableRecord
  2
*D10
340
0
  0
BLOCK_RECORD
  5
E90
330
1
100
AcDbSymbolTableRecord
100
AcDbBlockTableRecord
  2
*D11
340
0
  0
BLOCK_RECORD
  5
EBA
330
1
100
AcDbSymbolTableRecord
100
AcDbBlockTableRecord
  2
*D12
340
0
  0
BLOCK_RECORD
  5
EDE
330
1
100
AcDbSymbolTableRecord
100
AcDbBlockTableRecord
  2
*D13
340
0
  0
BLOCK_RECORD
  5
EFF
330
1
100
AcDbSymbolTableRecord
100
AcDbBlockTableRecord
  2
*D14
340
0
  0
BLOCK_RECORD
  5
F39
330
1
100
AcDbSymbolTableRecord
100
AcDbBlockTableRecord
  2
*D15
340
0
  0
BLOCK_RECORD
  5
2983
330
1
100
AcDbSymbolTableRecord
100
AcDbBlockTableRecord
  2
*D16
340
0
  0
BLOCK_RECORD
  5
29A7
330
1
100
AcDbSymbolTableRecord
100
AcDbBlockTableRecord
  2
*D17
340
0
  0
BLOCK_RECORD
  5
29CB
330
1
100
AcDbSymbolTableRecord
100
AcDbBlockTableRecord
  2
*D18
340
0
  0
BLOCK_RECORD
  5
2A02
330
1
100
AcDbSymbolTableRecord
100
AcDbBlockTableRecord
  2
*D19
340
0
  0
BLOCK_RECORD
  5
2BB2
330
1
100
AcDbSymbolTableRecord
100
AcDbBlockTableRecord
  2
*D20
340
0
  0
BLOCK_RECORD
  5
2BF6
330
1
100
AcDbSymbolTableRecord
100
AcDbBlockTableRecord
  2
*D21
340
0
  0
BLOCK_RECORD
  5
2C30
330
1
100
AcDbSymbolTableRecord
100
AcDbBlockTableRecord
  2
*D22
340
0
  0
BLOCK_RECORD
  5
2C69
330
1
100
AcDbSymbolTableRecord
100
AcDbBlockTableRecord
  2
*D23
340
0
  0
BLOCK_RECORD
  5
2CAC
330
1
100
AcDbSymbolTableRecord
100
AcDbBlockTableRecord
  2
*D24
340
0
  0
BLOCK_RECORD
  5
2CE6
330
1
100
AcDbSymbolTableRecord
100
AcDbBlockTableRecord
  2
*D25
340
0
  0
BLOCK_RECORD
  5
2D0C
330
1
100
AcDbSymbolTableRecord
100
AcDbBlockTableRecord
  2
*D26
340
0
  0
BLOCK_RECORD
  5
2D26
330
1
100
AcDbSymbolTableRecord
100
AcDbBlockTableRecord
  2
*D27
340
0
  0
ENDTAB
  0
ENDSEC
  0
SECTION
  2
BLOCKS
  0
BLOCK
  5
20
330
1F
100
AcDbEntity
  8
0
100
AcDbBlockBegin
  2
*Model_Space
 70
     0
 10
0.0
 20
0.0
 30
0.0
  3
*Model_Space
  1

  0
ENDBLK
  5
21
330
1F
100
AcDbEntity
  8
0
100
AcDbBlockEnd
  0
BLOCK
  5
24
330
23
100
AcDbEntity
 67
     1
  8
0
100
AcDbBlockBegin
  2
*Paper_Space
 70
     0
 10
0.0
 20
0.0
 30
0.0
  3
*Paper_Space
  1

  0
ENDBLK
  5
25
330
23
100
AcDbEntity
 67
     1
  8
0
100
AcDbBlockEnd
  0
BLOCK
  5
1C
330
1B
100
AcDbEntity
 67
     1
  8
0
100
AcDbBlockBegin
  2
*Paper_Space0
 70
     0
 10
0.0
 20
0.0
 30
0.0
  3
*Paper_Space0
  1

  0
VIEWPORT
  5
178
102
{ACAD_XDICTIONARY
360
2E25
102
}
330
1B
100
AcDbEntity
 67
     1
  8
0
100
AcDbViewport
 10
133.3499908447265
 20
101.5999970436096
 30
0.0
 40
370.2266912936524
 41
228.4221935424805
 68
     0
 69
     0
 12
133.3499908447265
 22
101.5999970436096
 13
0.0
 23
0.0
 14
10.0
 24
10.0
 15
10.0
 25
10.0
 16
0.0
 26
0.0
 36
1.0
 17
0.0
 27
0.0
 37
0.0
 42
50.0
 43
0.0
 44
0.0
 45
228.4221935424805
 50
0.0
 51
0.0
 72
   100
 90
    32800
  1

281
     0
 71
     1
 74
     0
110
0.0
120
0.0
130
0.0
111
1.0
121
0.0
131
0.0
112
0.0
122
1.0
132
0.0
 79
     0
146
0.0
  0
ENDBLK
  5
1D
330
1B
100
AcDbEntity
 67
     1
  8
0
100
AcDbBlockEnd
  0
BLOCK
  5
89
330
87
100
AcDbEntity
  8
0
100
AcDbBlockBegin
  2
GENAXEH
 70
     0
 10
0.0
 20
0.0
 30
0.0
  3
GENAXEH
  1

  0
LINE
  5
88
330
87
100
AcDbEntity
  8
0
100
AcDbLine
 10
-1.0
 20
0.0
 30
0.0
 11
1.0
 21
0.0
 31
0.0
  0
ENDBLK
  5
8A
330
87
100
AcDbEntity
  8
0
100
AcDbBlockEnd
  0
BLOCK
  5
40B
330
407
100
AcDbEntity
  8
0
100
AcDbBlockBegin
  2
_Open30
 70
     0
 10
0.0
 20
0.0
 30
0.0
  3
_Open30
  1

  0
LINE
  5
408
330
407
100
AcDbEntity
  8
0
  6
ByBlock
 62
     0
370
    -2
100
AcDbLine
 10
-1.0
 20
0.26794919
 30
0.0
 11
0.0
 21
0.0
 31
0.0
  0
LINE
  5
409
330
407
100
AcDbEntity
  8
0
  6
ByBlock
 62
     0
370
    -2
100
AcDbLine
 10
0.0
 20
0.0
 30
0.0
 11
-1.0
 21
-0.26794919
 31
0.0
  0
LINE
  5
40A
330
407
100
AcDbEntity
  8
0
  6
ByBlock
 62
     0
370
    -2
100
AcDbLine
 10
0.0
 20
0.0
 30
0.0
 11
-1.0
 21
0.0
 31
0.0
  0
ENDBLK
  5
40C
330
407
100
AcDbEntity
  8
0
100
AcDbBlockEnd
  0
BLOCK
  5
604
330
5FA
100
AcDbEntity
  8
0
100
AcDbBlockBegin
  2
TAKACHI-A3
 70
     0
 10
0.0
 20
0.0
 30
0.0
  3
TAKACHI-A3
  1

  0
LWPOLYLINE
  5
5FB
330
5FA
100
AcDbEntity
  8
0
100
AcDbPolyline
 90
        4
 70
     1
 43
0.0
 10
10.0
 20
0.0
 10
410.0
 20
0.0
 10
410.0
 20
280.0
 10
10.00000000000003
 20
280.0
1001
GENIUS_GENREC_14
1002
{
1000
PYDIR
1011
10.00000000000001
1021
280.0
1031
0.0
1002
}
1002
{
1000
PXDIR
1011
410.0
1021
0.0
1031
0.0
1002
}
1002
{
1000
PORI
1011
10.0
1021
0.0
1031
0.0
1002
}
1002
{
1000
PINS
1011
210.0
1021
139.9999999999999
1031
0.0
1002
}
1002
{
1000
HVAL
1000
280
1002
}
1002
{
1000
H
1070
     2
1002
}
1002
{
1000
WVAL
1000
400
1002
}
1002
{
1000
W
1070
     2
1002
}
1002
{
1000
C
1070
     4
1002
}
1001
GENIUS_GENODEF_13
1002
{
1000
HIER
1070
     0
1002
}
1002
{
1000
MANEDIT
1070
     0
1002
}
1002
{
1000
NOSEL
1070
     0
1002
}
1002
{
1000
BEHIND
1070
     0
1002
}
1002
{
1000
REACTOR
1002
}
1001
GENIUS_GENOBJ-N-REC_13
1002
{
1000
OWNER
1000
GEN
1002
}
  0
TEXT
  5
5FC
330
5FA
100
AcDbEntity
  8
0
 60
     1
100
AcDbText
 10
15.00000000000003
 20
50.0
 30
0.0
 40
2.5
  1
!GENTITLE-LL
100
AcDbText
  0
TEXT
  5
5FD
330
5FA
100
AcDbEntity
  8
0
 60
     1
100
AcDbText
 10
410.0
 20
0.0
 30
0.0
 40
2.5
  1
!GENTITLE-INSERT
100
AcDbText
  0
TEXT
  5
5FE
330
5FA
100
AcDbEntity
  8
0
 60
     1
100
AcDbText
 10
405.0
 20
275.0
 30
0.0
 40
2.5
  1
!GENTITLE-RU
100
AcDbText
  0
TEXT
  5
5FF
330
5FA
100
AcDbEntity
  8
0
 60
     1
100
AcDbText
 10
410.0
 20
280.0
 30
0.0
 40
2.5
  1
!GENTITLE-MAX
100
AcDbText
  0
LINE
  5
600
330
5FA
100
AcDbEntity
  8
0
100
AcDbLine
 10
366.0
 20
275.0
 30
0.0
 11
410.0
 21
275.0
 31
0.0
  0
MTEXT
  5
601
330
5FA
100
AcDbEntity
  8
0
100
AcDbMText
 10
409.3592953827348
 20
276.108542987227
 30
0.0
 40
2.5
 41
43.07840397728298
 71
     9
 72
     5
  1
(文書番号：TY-34)2004.10.29
 73
     1
 44
1.0
1001
ACAD
1000
MTEXTBEGIN
1070
    73
1070
     1
1070
    44
1040
1.0
1070
    74
1070
     0
1000
MTEXTEND
  0
LINE
  5
602
330
5FA
100
AcDbEntity
  8
0
100
AcDbLine
 10
366.0
 20
280.0
 30
0.0
 11
366.0
 21
275.0
 31
0.0
  0
ENDBLK
  5
605
330
5FA
100
AcDbEntity
  8
0
100
AcDbBlockEnd
  0
BLOCK
  5
669
330
613
100
AcDbEntity
  8
0
100
AcDbBlockBegin
  2
TAKACHI-TITLE
 70
     2
 10
0.0
 20
0.0
 30
0.0
  3
TAKACHI-TITLE
  1

  0
LINE
  5
614
330
613
100
AcDbEntity
  8
RAHM2
100
AcDbLine
 10
-195.0
 20
30.00000000000003
 30
0.0
 11
-94.0
 21
30.00000000000003
 31
0.0
  0
LINE
  5
615
330
613
100
AcDbEntity
  8
RAHM2
100
AcDbLine
 10
-195.0
 20
35.00000000000003
 30
0.0
 11
-94.0
 21
35.00000000000003
 31
0.0
  0
LINE
  5
616
330
613
100
AcDbEntity
  8
RAHM2
100
AcDbLine
 10
-195.0
 20
40.00000000000002
 30
0.0
 11
-94.0
 21
40.00000000000002
 31
0.0
  0
LINE
  5
617
330
613
100
AcDbEntity
  8
RAHM2
100
AcDbLine
 10
-195.0
 20
45.00000000000002
 30
0.0
 11
-94.0
 21
45.00000000000002
 31
0.0
  0
LINE
  5
618
330
613
100
AcDbEntity
  8
0
100
AcDbLine
 10
-195.0
 20
7.0
 30
0.0
 11
-94.0
 21
7.0
 31
0.0
  0
LINE
  5
619
330
613
100
AcDbEntity
  8
0
100
AcDbLine
 10
-195.0
 20
19.99999999999997
 30
0.0
 11
-94.0
 21
19.99999999999997
 31
0.0
  0
ATTDEF
  5
61A
330
613
100
AcDbEntity
  8
0
100
AcDbText
 10
-183.2438527145607
 20
8.950850524428082
 30
0.0
 40
2.5
  1

 11
-183.2438527145607
 21
8.617517191094748
 31
0.0
100
AcDbAttributeDefinition
  3
サブタイトル
  2
GEN-TITLE-DES2
 70
     0
 74
     1
  0
ATTDEF
  5
61B
330
613
100
AcDbEntity
  8
0
100
AcDbText
 10
-183.2438527145607
 20
2.017517191094748
 30
0.0
 40
3.0
  1

 11
-183.2438527145607
 21
1.617517191094748
 31
0.0
100
AcDbAttributeDefinition
  3
図番
  2
GEN-TITLE-NR
 70
     0
 74
     1
  0
MTEXT
  5
61C
330
613
100
AcDbEntity
  8
RAHM2
100
AcDbMText
 10
-193.8002551371314
 20
5.801035407279641
 30
0.0
 40
2.5
 41
90.0
 71
     1
 72
     5
  1
図番
 73
     1
 44
1.0
1001
ACAD
1000
MTEXTBEGIN
1070
    73
1070
     1
1070
    44
1040
1.0
1070
    74
1070
     0
1000
MTEXTEND
  0
ATTDEF
  5
61D
330
613
100
AcDbEntity
  8
0
100
AcDbText
 10
-183.2438527145607
 20
14.40728619501834
 30
0.0
 40
4.0
  1

 11
-183.2438527145607
 21
13.87395286168501
 31
0.0
100
AcDbAttributeDefinition
  3
品名
  2
GEN-TITLE-DES1
 70
     0
 74
     1
  0
LINE
  5
61E
330
613
100
AcDbEntity
  8
RAHM2
100
AcDbLine
 10
-187.5751288694036
 20
30.40000000000004
 30
0.0
 11
-190.0
 21
34.60000000000003
 31
0.0
  0
LINE
  5
61F
330
613
100
AcDbEntity
  8
RAHM2
100
AcDbLine
 10
-190.0
 20
34.60000000000003
 30
0.0
 11
-192.4248711305964
 21
30.40000000000004
 31
0.0
  0
LINE
  5
620
330
613
100
AcDbEntity
  8
RAHM2
100
AcDbLine
 10
-185.0
 20
50.00000000000003
 30
0.0
 11
-185.0
 21
19.99999999999994
 31
0.0
  0
LINE
  5
621
330
613
100
AcDbEntity
  8
RAHM2
100
AcDbLine
 10
-192.4248711305964
 20
30.40000000000004
 30
0.0
 11
-187.5751288694036
 21
30.40000000000004
 31
0.0
  0
MTEXT
  5
622
330
613
100
AcDbEntity
  8
RAHM2
100
AcDbMText
 10
-190.0
 20
22.49999999999997
 30
0.0
 40
2.5
 41
10.0
 71
     5
 72
     5
  1
符号
 73
     1
 44
1.0
1001
ACAD
1000
MTEXTBEGIN
1070
    73
1070
     1
1070
    44
1040
1.0
1070
    74
1070
     0
1000
MTEXTEND
  0
MTEXT
  5
623
330
613
100
AcDbEntity
  8
RAHM2
100
AcDbMText
 10
-193.8002551371314
 20
18.80103540727961
 30
0.0
 40
2.5
 41
90.0
 71
     1
 72
     5
  1
品名
 73
     1
 44
1.0
1001
ACAD
1000
MTEXTBEGIN
1070
    73
1070
     1
1070
    44
1040
1.0
1070
    74
1070
     0
1000
MTEXTEND
  0
LINE
  5
624
330
613
100
AcDbEntity
  8
RAHM2
100
AcDbLine
 10
-192.4248711305964
 20
45.40000000000003
 30
0.0
 11
-187.5751288694036
 21
45.40000000000003
 31
0.0
  0
LINE
  5
625
330
613
100
AcDbEntity
  8
RAHM2
100
AcDbLine
 10
-187.5751288694036
 20
45.40000000000003
 30
0.0
 11
-190.0
 21
49.60000000000002
 31
0.0
  0
LINE
  5
626
330
613
100
AcDbEntity
  8
RAHM2
100
AcDbLine
 10
-192.4248711305964
 20
40.40000000000003
 30
0.0
 11
-187.5751288694036
 21
40.40000000000003
 31
0.0
  0
LINE
  5
627
330
613
100
AcDbEntity
  8
RAHM2
100
AcDbLine
 10
-187.5751288694036
 20
40.40000000000003
 30
0.0
 11
-190.0
 21
44.60000000000002
 31
0.0
  0
LINE
  5
628
330
613
100
AcDbEntity
  8
RAHM2
100
AcDbLine
 10
-192.4248711305964
 20
35.40000000000004
 30
0.0
 11
-187.5751288694036
 21
35.40000000000004
 31
0.0
  0
LINE
  5
629
330
613
100
AcDbEntity
  8
RAHM2
100
AcDbLine
 10
-187.5751288694036
 20
35.40000000000004
 30
0.0
 11
-190.0
 21
39.60000000000002
 31
0.0
  0
LINE
  5
62A
330
613
100
AcDbEntity
  8
RAHM2
100
AcDbLine
 10
-190.0
 20
39.60000000000002
 30
0.0
 11
-192.4248711305964
 21
35.40000000000004
 31
0.0
  0
LINE
  5
62B
330
613
100
AcDbEntity
  8
RAHM2
100
AcDbLine
 10
-190.0
 20
44.60000000000002
 30
0.0
 11
-192.4248711305964
 21
40.40000000000003
 31
0.0
  0
LINE
  5
62C
330
613
100
AcDbEntity
  8
RAHM2
100
AcDbLine
 10
-190.0
 20
49.60000000000002
 30
0.0
 11
-192.4248711305964
 21
45.40000000000003
 31
0.0
  0
LINE
  5
62D
330
613
100
AcDbEntity
  8
RAHM2
100
AcDbLine
 10
-129.0
 20
50.00000000000003
 30
0.0
 11
-129.0
 21
19.99999999999994
 31
0.0
  0
MTEXT
  5
62E
330
613
100
AcDbEntity
  8
RAHM2
100
AcDbMText
 10
-157.1448171868856
 20
22.49999999999997
 30
0.0
 40
2.5
 41
45.0
 71
     5
 72
     5
  1
変更記事
 73
     1
 44
1.0
1001
ACAD
1000
MTEXTBEGIN
1070
    73
1070
     1
1070
    44
1040
1.0
1070
    74
1070
     0
1000
MTEXTEND
  0
LINE
  5
62F
330
613
100
AcDbEntity
  8
0
100
AcDbLine
 10
-34.0
 20
50.0
 30
0.0
 11
-34.0
 21
0.0
 31
0.0
  0
LINE
  5
630
330
613
100
AcDbEntity
  8
0
100
AcDbLine
 10
-94.0
 20
50.0
 30
0.0
 11
-94.0
 21
0.0
 31
0.0
  0
MTEXT
  5
631
330
613
100
AcDbEntity
  8
0
100
AcDbMText
 10
-64.0
 20
5.0
 30
0.0
 40
3.5
 41
60.0
 71
     5
 72
     5
  1
\fＭＳ ゴシック|b0|i0|c128|p49;株式会社タカチ電機工業
 73
     1
 44
1.0
1001
ACAD
1000
MTEXTBEGIN
1070
    73
1070
     1
1070
    44
1040
1.0
1070
    74
1070
     0
1000
MTEXTEND
  0
LINE
  5
632
330
613
100
AcDbEntity
  8
0
100
AcDbLine
 10
-94.0
 20
10.0
 30
0.0
 11
-34.0
 21
10.0
 31
0.0
  0
ATTDEF
  5
633
330
613
100
AcDbEntity
  8
0
100
AcDbText
 10
-58.01405119799745
 20
39.25500556178349
 30
0.0
 40
3.0
  1

 72
     2
 11
-58.01405119799745
 21
39.25500556178349
 31
0.0
100
AcDbAttributeDefinition
  3
尺度
  2
GEN-TITLE-SCA
 70
     0
  0
ATTDEF
  5
634
330
613
100
AcDbEntity
  8
0
100
AcDbText
 10
-77.00284966649007
 20
31.02180787943475
 30
0.0
 40
3.0
  1

 11
-77.00284966649007
 21
30.62180787943475
 31
0.0
100
AcDbAttributeDefinition
  3
材質
  2
GEN-TITLE-MAT1
 70
     0
 74
     1
  0
ATTDEF
  5
635
330
613
100
AcDbEntity
  8
0
100
AcDbText
 10
-77.00284966649007
 20
21.02180787943475
 30
0.0
 40
3.0
  1

 11
-77.00284966649007
 21
20.62180787943475
 31
0.0
100
AcDbAttributeDefinition
  3
表面処理
  2
GEN-TITLE-MAT2
 70
     0
 74
     1
  0
ATTDEF
  5
636
330
613
100
AcDbEntity
  8
0
100
AcDbText
 10
-77.00284966649007
 20
12.01751719109475
 30
0.0
 40
3.0
  1

 11
-77.00284966649007
 21
11.61751719109475
 31
0.0
100
AcDbAttributeDefinition
  3
日付
  2
GEN-TITLE-DAT
 70
     0
 74
     1
  0
LINE
  5
637
330
613
100
AcDbEntity
  8
0
100
AcDbLine
 10
-94.0
 20
37.5
 30
0.0
 11
-34.0
 21
37.5
 31
0.0
  0
LINE
  5
638
330
613
100
AcDbEntity
  8
0
100
AcDbLine
 10
-94.0
 20
27.5
 30
0.0
 11
-34.0
 21
27.5
 31
0.0
  0
LINE
  5
639
330
613
100
AcDbEntity
  8
0
100
AcDbLine
 10
-94.0
 20
17.5
 30
0.0
 11
-34.0
 21
17.5
 31
0.0
  0
LINE
  5
63A
330
613
100
AcDbEntity
  8
RAHM2
100
AcDbLine
 10
-109.0
 20
50.00000000000003
 30
0.0
 11
-109.0
 21
19.99999999999994
 31
0.0
  0
MTEXT
  5
63B
330
613
100
AcDbEntity
  8
RAHM2
100
AcDbMText
 10
-119.4582894723942
 20
32.50000000000003
 30
0.0
 40
2.5
 41
20.0
 71
     5
 72
     5
  1
・  ・   
 73
     1
 44
1.0
1001
ACAD
1000
MTEXTBEGIN
1070
    73
1070
     1
1070
    44
1040
1.0
1070
    74
1070
     0
1000
MTEXTEND
  0
MTEXT
  5
63C
330
613
100
AcDbEntity
  8
RAHM2
100
AcDbMText
 10
-118.738119805002
 20
22.49999999999997
 30
0.0
 40
2.5
 41
20.0
 71
     5
 72
     5
  1
年・月・日
 73
     1
 44
1.0
1001
ACAD
1000
MTEXTBEGIN
1070
    73
1070
     1
1070
    44
1040
1.0
1070
    74
1070
     0
1000
MTEXTEND
  0
MTEXT
  5
63D
330
613
100
AcDbEntity
  8
RAHM2
100
AcDbMText
 10
-101.5
 20
22.49999999999997
 30
0.0
 40
2.5
 41
15.0
 71
     5
 72
     5
  1
担当
 73
     1
 44
1.0
1001
ACAD
1000
MTEXTBEGIN
1070
    73
1070
     1
1070
    44
1040
1.0
1070
    74
1070
     0
1000
MTEXTEND
  0
MTEXT
  5
63E
330
613
100
AcDbEntity
  8
RAHM2
100
AcDbMText
 10
-119.4582894723942
 20
42.50000000000002
 30
0.0
 40
2.5
 41
20.0
 71
     5
 72
     5
  1
・  ・   
 73
     1
 44
1.0
1001
ACAD
1000
MTEXTBEGIN
1070
    73
1070
     1
1070
    44
1040
1.0
1070
    74
1070
     0
1000
MTEXTEND
  0
MTEXT
  5
63F
330
613
100
AcDbEntity
  8
RAHM2
100
AcDbMText
 10
-119.4582894723942
 20
37.50000000000003
 30
0.0
 40
2.5
 41
20.0
 71
     5
 72
     5
  1
・  ・   
 73
     1
 44
1.0
1001
ACAD
1000
MTEXTBEGIN
1070
    73
1070
     1
1070
    44
1040
1.0
1070
    74
1070
     0
1000
MTEXTEND
  0
MTEXT
  5
640
330
613
100
AcDbEntity
  8
RAHM2
100
AcDbMText
 10
-119.4582894723942
 20
47.50000000000002
 30
0.0
 40
2.5
 41
20.0
 71
     5
 72
     5
  1
・  ・   
 73
     1
 44
1.0
1001
ACAD
1000
MTEXTBEGIN
1070
    73
1070
     1
1070
    44
1040
1.0
1070
    74
1070
     0
1000
MTEXTEND
  0
MTEXT
  5
641
330
613
100
AcDbEntity
  8
RAHM2
100
AcDbMText
 10
-92.80025513713145
 20
16.30103540727964
 30
0.0
 40
2.5
 41
60.0
 71
     1
 72
     5
  1
日付
 73
     1
 44
1.0
1001
ACAD
1000
MTEXTBEGIN
1070
    73
1070
     1
1070
    44
1040
1.0
1070
    74
1070
     0
1000
MTEXTEND
  0
MTEXT
  5
642
330
613
100
AcDbEntity
  8
RAHM2
100
AcDbMText
 10
-92.80025513713145
 20
26.30103540727964
 30
0.0
 40
2.5
 41
60.0
 71
     1
 72
     5
  1
表面処理
 73
     1
 44
1.0
1001
ACAD
1000
MTEXTBEGIN
1070
    73
1070
     1
1070
    44
1040
1.0
1070
    74
1070
     0
1000
MTEXTEND
  0
LINE
  5
643
330
613
100
AcDbEntity
  8
7A
100
AcDbLine
 10
-89.0
 20
43.75
 30
0.0
 11
-75.2186915997147
 21
43.75
 31
0.0
1001
GENIUS_GENOREF_13
1005
656
  0
LINE
  5
644
330
613
100
AcDbEntity
  8
0
100
AcDbLine
 10
-84.0
 20
45.75
 30
0.0
 11
-76.0
 21
46.74999999999999
 31
0.0
  0
LINE
  5
645
330
613
100
AcDbEntity
  8
0
100
AcDbLine
 10
-76.0
 20
40.75
 30
0.0
 11
-84.0
 21
41.74999999999999
 31
0.0
  0
LINE
  5
646
330
613
100
AcDbEntity
  8
7A
100
AcDbLine
 10
-89.0
 20
43.75
 30
0.0
 11
-89.0
 21
47.32478664473148
 31
0.0
1001
GENIUS_GENOREF_13
1005
656
  0
CIRCLE
  5
647
330
613
100
AcDbEntity
  8
0
100
AcDbCircle
 10
-89.0
 20
43.75
 30
0.0
 40
2.0
  0
CIRCLE
  5
648
330
613
100
AcDbEntity
  8
0
100
AcDbCircle
 10
-89.0
 20
43.75
 30
0.0
 40
3.0
  0
LINE
  5
649
330
613
100
AcDbEntity
  8
0
100
AcDbLine
 10
-84.0
 20
41.74999999999999
 30
0.0
 11
-84.0
 21
45.75
 31
0.0
  0
MTEXT
  5
64A
330
613
100
AcDbEntity
  8
RAHM2
100
AcDbMText
 10
-92.80025513713145
 20
36.30103540727964
 30
0.0
 40
2.5
 41
60.0
 71
     1
 72
     5
  1
材質
 73
     1
 44
1.0
1001
ACAD
1000
MTEXTBEGIN
1070
    73
1070
     1
1070
    44
1040
1.0
1070
    74
1070
     0
1000
MTEXTEND
  0
LINE
  5
64B
330
613
100
AcDbEntity
  8
7A
100
AcDbLine
 10
-89.0
 20
43.75
 30
0.0
 11
-92.72303737125117
 21
43.75
 31
0.0
1001
GENIUS_GENOREF_13
1005
656
  0
LINE
  5
64C
330
613
100
AcDbEntity
  8
7A
100
AcDbLine
 10
-89.0
 20
43.75
 30
0.0
 11
-89.0
 21
40.03991724228479
 31
0.0
1001
GENIUS_GENOREF_13
1005
656
  0
LINE
  5
64D
330
613
100
AcDbEntity
  8
0
100
AcDbLine
 10
-76.0
 20
46.74999999999999
 30
0.0
 11
-76.0
 21
40.75
 31
0.0
  0
LINE
  5
64E
330
613
100
AcDbEntity
  8
0
100
AcDbLine
 10
-74.0
 20
50.0
 30
0.0
 11
-74.0
 21
37.5
 31
0.0
  0
MTEXT
  5
64F
330
613
100
AcDbEntity
  8
RAHM2
100
AcDbMText
 10
-72.80025513713145
 20
48.80103540727964
 30
0.0
 40
2.5
 41
20.0
 71
     1
 72
     5
  1
尺度
 73
     1
 44
1.0
1001
ACAD
1000
MTEXTBEGIN
1070
    73
1070
     1
1070
    44
1040
1.0
1070
    74
1070
     0
1000
MTEXTEND
  0
ATTDEF
  5
650
330
613
100
AcDbEntity
  8
0
100
AcDbText
 10
-37.76317379391503
 20
39.25500556178349
 30
0.0
 40
3.0
  1

 72
     2
 11
-37.76317379391503
 21
39.25500556178349
 31
0.0
100
AcDbAttributeDefinition
  3
数量
  2
GEN-TITLE-QTY
 70
     0
  0
LINE
  5
651
330
613
100
AcDbEntity
  8
0
100
AcDbLine
 10
-34.0
 20
25.0
 30
0.0
 11
0.0
 21
25.0
 31
0.0
  0
LINE
  5
652
330
613
100
AcDbEntity
  8
0
100
AcDbLine
 10
-54.0
 20
50.0
 30
0.0
 11
-54.0
 21
37.5
 31
0.0
  0
MTEXT
  5
653
330
613
100
AcDbEntity
  8
RAHM2
100
AcDbMText
 10
-52.80025513713145
 20
48.80103540727964
 30
0.0
 40
2.5
 41
20.0
 71
     1
 72
     5
  1
数量
 73
     1
 44
1.0
1001
ACAD
1000
MTEXTBEGIN
1070
    73
1070
     1
1070
    44
1040
1.0
1070
    74
1070
     0
1000
MTEXTEND
  0
MTEXT
  5
654
330
613
100
AcDbEntity
  8
RAHM2
100
AcDbMText
 10
-25.5
 20
23.80103540727964
 30
0.0
 40
2.5
 41
17.0
 71
     2
 72
     5
  1
承認
 73
     1
 44
1.0
1001
ACAD
1000
MTEXTBEGIN
1070
    73
1070
     1
1070
    44
1040
1.0
1070
    74
1070
     0
1000
MTEXTEND
  0
MTEXT
  5
655
330
613
100
AcDbEntity
  8
RAHM2
100
AcDbMText
 10
-25.5
 20
48.80103540727964
 30
0.0
 40
2.5
 41
17.0
 71
     2
 72
     5
  1
承認
 73
     1
 44
1.0
1001
ACAD
1000
MTEXTBEGIN
1070
    73
1070
     1
1070
    44
1040
1.0
1070
    74
1070
     0
1000
MTEXTEND
  0
POINT
  5
656
330
613
100
AcDbEntity
  8
0
 60
     1
100
AcDbPoint
 10
-320.5355579819676
 20
-138.1104841268254
 30
0.0
1001
GENIUS_GENODEF_13
1002
{
1000
HIER
1070
    10
1002
}
1002
{
1000
MANEDIT
1070
     0
1002
}
1002
{
1000
NOSEL
1070
     0
1002
}
1002
{
1000
BEHIND
1070
     0
1002
}
1002
{
1000
REACTOR
1002
}
1001
GENIUS_GENOBJ-N-CRS_13
1002
{
1000
OWNER
1000
GEN
1002
}
1001
GENIUS_GENOENT_13
1002
{
1000
MYREF
1005
656
1002
}
1002
{
1000
GRP
1005
0
1002
}
1001
GENIUS_GENOLIS_13
1002
{
1000
ENT
1005
64C
1005
64B
1005
646
1005
643
1002
}
  0
LINE
  5
657
330
613
100
AcDbEntity
  8
RAHM2
100
AcDbLine
 10
-190.0
 20
29.60000000000002
 30
0.0
 11
-192.4248711305964
 21
25.40000000000004
 31
0.0
  0
LINE
  5
658
330
613
100
AcDbEntity
  8
RAHM2
100
AcDbLine
 10
-187.5751288694036
 20
25.40000000000004
 30
0.0
 11
-190.0
 21
29.60000000000002
 31
0.0
  0
LINE
  5
659
330
613
100
AcDbEntity
  8
RAHM2
100
AcDbLine
 10
-192.4248711305964
 20
25.40000000000004
 30
0.0
 11
-187.5751288694036
 21
25.40000000000004
 31
0.0
  0
LINE
  5
65A
330
613
100
AcDbEntity
  8
RAHM2
100
AcDbLine
 10
-195.0
 20
25.00000000000003
 30
0.0
 11
-94.0
 21
25.00000000000003
 31
0.0
  0
MTEXT
  5
65B
330
613
100
AcDbEntity
  8
RAHM2
100
AcDbMText
 10
-119.4582894723942
 20
27.50000000000003
 30
0.0
 40
2.5
 41
20.0
 71
     5
 72
     5
  1
・  ・   
 73
     1
 44
1.0
1001
ACAD
1000
MTEXTBEGIN
1070
    73
1070
     1
1070
    44
1040
1.0
1070
    74
1070
     0
1000
MTEXTEND
  0
TEXT
  5
65C
330
613
100
AcDbEntity
  8
RAHM2
100
AcDbText
 10
-190.8155863565801
 20
25.98333333333337
 30
0.0
 40
2.5
  1
1
 72
     1
 11
-190.1905863565802
 21
25.65000000000003
 31
0.0
100
AcDbText
 73
     1
  0
TEXT
  5
65D
330
613
100
AcDbEntity
  8
RAHM2
100
AcDbText
 10
-190.9183316929134
 20
30.98333333333337
 30
0.0
 40
2.5
  1
2
 72
     1
 11
-190.0
 21
30.65000000000003
 31
0.0
100
AcDbText
 73
     1
  0
TEXT
  5
65E
330
613
100
AcDbEntity
  8
RAHM2
100
AcDbText
 10
-190.9267766952966
 20
35.98333333333334
 30
0.0
 40
2.5
  1
3
 72
     1
 11
-190.0
 21
35.65000000000001
 31
0.0
100
AcDbText
 73
     1
  0
TEXT
  5
65F
330
613
100
AcDbEntity
  8
RAHM2
100
AcDbText
 10
-191.0
 20
40.98333333333337
 30
0.0
 40
2.5
  1
4
 72
     1
 11
-190.0
 21
40.65000000000003
 31
0.0
100
AcDbText
 73
     1
  0
TEXT
  5
660
330
613
100
AcDbEntity
  8
RAHM2
100
AcDbText
 10
-190.9267766952966
 20
45.98333333333337
 30
0.0
 40
2.5
  1
5
 72
     1
 11
-190.0
 21
45.65000000000003
 31
0.0
100
AcDbText
 73
     1
  0
LINE
  5
661
330
613
100
AcDbEntity
  8
0
100
AcDbLine
 10
-17.0
 20
50.0
 30
0.0
 11
-17.0
 21
0.0
 31
0.0
  0
LINE
  5
662
330
613
100
AcDbEntity
  8
0
100
AcDbLine
 10
-195.0
 20
0.0
 30
0.0
 11
0.0
 21
0.0
 31
0.0
1001
GENIUS_GENREC_14
1002
{
1000
PYDIR
1011
-184.0
1021
50.0
1031
0.0
1002
}
1002
{
1000
PXDIR
1011
0.0
1021
0.0
1031
0.0
1002
}
1002
{
1000
PORI
1011
-184.0
1021
0.0
1031
0.0
1002
}
1002
{
1000
PINS
1011
-100.5
1021
25.0
1031
0.0
1002
}
1002
{
1000
HVAL
1000
50
1002
}
1002
{
1000
H
1070
     2
1002
}
1002
{
1000
WVAL
1000
167
1002
}
1002
{
1000
W
1070
     2
1002
}
1002
{
1000
C
1070
     4
1002
}
1001
GENIUS_GENODEF_13
1002
{
1000
HIER
1070
     0
1002
}
1002
{
1000
MANEDIT
1070
     0
1002
}
1002
{
1000
NOSEL
1070
     0
1002
}
1002
{
1000
BEHIND
1070
     0
1002
}
1002
{
1000
REACTOR
1002
}
1001
GENIUS_GENOBJ-N-REC_13
1002
{
1000
OWNER
1000
GEN
1002
}
  0
LINE
  5
663
330
613
100
AcDbEntity
  8
0
100
AcDbLine
 10
0.0
 20
0.0
 30
0.0
 11
0.0
 21
50.0
 31
0.0
1001
GENIUS_GENREC_14
1002
{
1000
PYDIR
1011
-184.0
1021
50.0
1031
0.0
1002
}
1002
{
1000
PXDIR
1011
0.0
1021
0.0
1031
0.0
1002
}
1002
{
1000
PORI
1011
-184.0
1021
0.0
1031
0.0
1002
}
1002
{
1000
PINS
1011
-100.5
1021
25.0
1031
0.0
1002
}
1002
{
1000
HVAL
1000
50
1002
}
1002
{
1000
H
1070
     2
1002
}
1002
{
1000
WVAL
1000
167
1002
}
1002
{
1000
W
1070
     2
1002
}
1002
{
1000
C
1070
     4
1002
}
1001
GENIUS_GENODEF_13
1002
{
1000
HIER
1070
     0
1002
}
1002
{
1000
MANEDIT
1070
     0
1002
}
1002
{
1000
NOSEL
1070
     0
1002
}
1002
{
1000
BEHIND
1070
     0
1002
}
1002
{
1000
REACTOR
1002
}
1001
GENIUS_GENOBJ-N-REC_13
1002
{
1000
OWNER
1000
GEN
1002
}
  0
LINE
  5
664
330
613
100
AcDbEntity
  8
0
100
AcDbLine
 10
0.0
 20
50.0
 30
0.0
 11
-195.0
 21
50.00000000000003
 31
0.0
1001
GENIUS_GENREC_14
1002
{
1000
PYDIR
1011
-184.0
1021
50.0
1031
0.0
1002
}
1002
{
1000
PXDIR
1011
0.0
1021
0.0
1031
0.0
1002
}
1002
{
1000
PORI
1011
-184.0
1021
0.0
1031
0.0
1002
}
1002
{
1000
PINS
1011
-100.5
1021
25.0
1031
0.0
1002
}
1002
{
1000
HVAL
1000
50
1002
}
1002
{
1000
H
1070
     2
1002
}
1002
{
1000
WVAL
1000
167
1002
}
1002
{
1000
W
1070
     2
1002
}
1002
{
1000
C
1070
     4
1002
}
1001
GENIUS_GENODEF_13
1002
{
1000
HIER
1070
     0
1002
}
1002
{
1000
MANEDIT
1070
     0
1002
}
1002
{
1000
NOSEL
1070
     0
1002
}
1002
{
1000
BEHIND
1070
     0
1002
}
1002
{
1000
REACTOR
1002
}
1001
GENIUS_GENOBJ-N-REC_13
1002
{
1000
OWNER
1000
GEN
1002
}
  0
LINE
  5
665
330
613
100
AcDbEntity
  8
0
100
AcDbLine
 10
-195.0
 20
50.00000000000003
 30
0.0
 11
-195.0
 21
0.0
 31
0.0
1001
GENIUS_GENREC_14
1002
{
1000
PYDIR
1011
-195.0
1021
50.0
1031
0.0
1002
}
1002
{
1000
PXDIR
1011
-11.0
1021
0.0
1031
0.0
1002
}
1002
{
1000
PORI
1011
-195.0
1021
0.0
1031
0.0
1002
}
1002
{
1000
PINS
1011
-111.5
1021
25.0
1031
0.0
1002
}
1002
{
1000
HVAL
1000
50
1002
}
1002
{
1000
H
1070
     2
1002
}
1002
{
1000
WVAL
1000
167
1002
}
1002
{
1000
W
1070
     2
1002
}
1002
{
1000
C
1070
     4
1002
}
1001
GENIUS_GENODEF_13
1002
{
1000
HIER
1070
     0
1002
}
1002
{
1000
MANEDIT
1070
     0
1002
}
1002
{
1000
NOSEL
1070
     0
1002
}
1002
{
1000
BEHIND
1070
     0
1002
}
1002
{
1000
REACTOR
1002
}
1001
GENIUS_GENOBJ-N-REC_13
1002
{
1000
OWNER
1000
GEN
1002
}
  0
MTEXT
  5
666
330
613
100
AcDbEntity
  8
RAHM2
100
AcDbMText
 10
-8.5
 20
48.80103540727964
 30
0.0
 40
2.5
 41
17.0
 71
     2
 72
     5
  1
検図
 73
     1
 44
1.0
1001
ACAD
1000
MTEXTBEGIN
1070
    73
1070
     1
1070
    44
1040
1.0
1070
    74
1070
     0
1000
MTEXTEND
  0
MTEXT
  5
667
330
613
100
AcDbEntity
  8
RAHM2
100
AcDbMText
 10
-8.5
 20
23.80103540727964
 30
0.0
 40
2.5
 41
17.0
 71
     2
 72
     5
  1
製図
 73
     1
 44
1.0
1001
ACAD
1000
MTEXTBEGIN
1070
    73
1070
     1
1070
    44
1040
1.0
1070
    74
1070
     0
1000
MTEXTEND
  0
ENDBLK
  5
66A
330
613
100
AcDbEntity
  8
0
100
AcDbBlockEnd
  0
BLOCK
  5
6CF
330
6C6
100
AcDbEntity
  8
0
100
AcDbBlockBegin
  2
TK-A3
 70
     0
 10
0.0
 20
0.0
 30
0.0
  3
TK-A3
  1

  0
LWPOLYLINE
  5
6C7
330
6C6
100
AcDbEntity
  8
0
100
AcDbPolyline
 90
        4
 70
     1
 43
0.0
 10
0.0
 20
0.0
 10
403.0
 20
0.0
 10
403.0
 20
280.0
 10
0.0
 20
280.0000000000001
1001
GENIUS_GENREC_14
1002
{
1000
PYDIR
1011
0.0000000000000178
1021
280.0
1031
0.0
1002
}
1002
{
1000
PXDIR
1011
403.0
1021
0.0
1031
0.0
1002
}
1002
{
1000
PORI
1011
0.0
1021
0.0
1031
0.0
1002
}
1002
{
1000
PINS
1011
0.0
1021
0.0
1031
0.0
1002
}
1002
{
1000
PINS2
1011
403.0
1021
280.0
1031
0.0
1002
}
1002
{
1000
C
1070
     1
1002
}
1001
GENIUS_GENODEF_13
1002
{
1000
HIER
1070
     0
1002
}
1002
{
1000
MANEDIT
1070
     0
1002
}
1002
{
1000
NOSEL
1070
     0
1002
}
1002
{
1000
BEHIND
1070
     0
1002
}
1002
{
1000
OTHER
1070
     0
1002
}
1002
{
1000
REACTOR
1002
}
1001
GENIUS_GENOBJ-N-REC_13
1002
{
1000
OWNER
1000
GEN
1002
}
  0
TEXT
  5
6C8
330
6C6
100
AcDbEntity
  8
0
 60
     1
100
AcDbText
 10
403.0
 20
280.0
 30
0.0
 40
2.5
  1
!GENTITLE-MAX
100
AcDbText
  0
TEXT
  5
6C9
330
6C6
100
AcDbEntity
  8
0
 60
     1
100
AcDbText
 10
0.0
 20
0.0
 30
0.0
 40
2.5
  1
!GENTITLE-LL
100
AcDbText
  0
TEXT
  5
6CA
330
6C6
100
AcDbEntity
  8
0
 60
     1
100
AcDbText
 10
403.0
 20
0.0
 30
0.0
 40
2.5
  1
!GENTITLE-INSERT
100
AcDbText
  0
LINE
  5
6CB
330
6C6
100
AcDbEntity
  8
0
100
AcDbLine
 10
359.0
 20
275.0
 30
0.0
 11
403.0
 21
275.0
 31
0.0
  0
MTEXT
  5
6CC
330
6C6
100
AcDbEntity
  8
0
100
AcDbMText
 10
402.3592953827349
 20
276.108542987227
 30
0.0
 40
2.5
 41
43.07840397728298
 71
     9
 72
     5
  1
(文書番号：TY-34)2008.02.08
 73
     1
 44
1.0
1001
ACAD
1000
MTEXTBEGIN
1070
    73
1070
     1
1070
    44
1040
1.0
1070
    74
1070
     0
1000
MTEXTEND
  0
LINE
  5
6CD
330
6C6
100
AcDbEntity
  8
0
100
AcDbLine
 10
359.0
 20
280.0
 30
0.0
 11
359.0
 21
275.0
 31
0.0
  0
ENDBLK
  5
6D0
330
6C6
100
AcDbEntity
  8
0
100
AcDbBlockEnd
  0
BLOCK
  5
733
330
6D9
100
AcDbEntity
  8
0
100
AcDbBlockBegin
  2
TK-TITLE
 70
     2
 10
0.0
 20
0.0
 30
0.0
  3
TK-TITLE
  1

  0
ATTDEF
  5
6DA
330
6D9
100
AcDbEntity
  8
0
100
AcDbText
 10
-8.002309189545826
 20
1.705189434395036
 30
0.0
 40
2.5
  1

100
AcDbAttributeDefinition
  3
Rev.
  2
GEN-TITLE-NR2
 70
     0
  0
ATTDEF
  5
6DB
330
6D9
100
AcDbEntity
  8
0
100
AcDbText
 10
-84.14251901585329
 20
12.82790432564377
 30
0.0
 40
3.5
  1

100
AcDbAttributeDefinition
  3
品名
  2
GEN-TITLE-DES1
 70
     0
  0
LINE
  5
6DC
330
6D9
100
AcDbEntity
  8
0
100
AcDbLine
 10
0.0
 20
0.0
 30
0.0
 11
0.0
 21
50.0
 31
0.0
1001
GENIUS_GENREC_14
1002
{
1000
PYDIR
1011
-414.0
1021
291.0
1031
0.0
1002
}
1002
{
1000
PXDIR
1011
6.0
1021
-6.0
1031
0.0
1002
}
1002
{
1000
PORI
1011
-414.0
1021
-6.0
1031
0.0
1002
}
1002
{
1000
PINS
1011
-414.0
1021
-6.0
1031
0.0
1002
}
1002
{
1000
HVAL
1000
297
1002
}
1002
{
1000
H
1070
     2
1002
}
1002
{
1000
WVAL
1000
420
1002
}
1002
{
1000
W
1070
     2
1002
}
1002
{
1000
C
1070
     1
1002
}
1001
GENIUS_GENODEF_13
1002
{
1000
HIER
1070
     0
1002
}
1002
{
1000
MANEDIT
1070
     0
1002
}
1002
{
1000
NOSEL
1070
     0
1002
}
1002
{
1000
BEHIND
1070
     0
1002
}
1002
{
1000
OTHER
1070
     0
1002
}
1002
{
1000
REACTOR
1002
}
1001
GENIUS_GENOBJ-N-REC_13
1002
{
1000
OWNER
1000
GEN
1002
}
  0
ATTDEF
  5
6DD
330
6D9
100
AcDbEntity
  8
0
100
AcDbText
 10
-84.0
 20
9.149999999999948
 30
0.0
 40
2.5
  1

100
AcDbAttributeDefinition
  3
サブタイトル
  2
GEN-TITLE-DES2
 70
     0
  0
ATTDEF
  5
6DE
330
6D9
100
AcDbEntity
  8
0
100
AcDbText
 10
-84.0
 20
1.999999999999957
 30
0.0
 40
3.0
  1

100
AcDbAttributeDefinition
  3
図番
  2
GEN-TITLE-NR1
 70
     0
  0
LINE
  5
6DF
330
6D9
100
AcDbEntity
  8
0
100
AcDbLine
 10
-96.0
 20
50.00000000000001
 30
0.0
 11
-96.0
 21
-0.0000000000000142
 31
0.0
1001
GENIUS_GENREC_14
1002
{
1000
PYDIR
1011
-96.0
1021
49.99999999999999
1031
0.0
1002
}
1002
{
1000
PXDIR
1011
88.0
1021
-0.0000000000000142
1031
0.0
1002
}
1002
{
1000
PORI
1011
-96.0
1021
-0.0000000000000142
1031
0.0
1002
}
1002
{
1000
PINS
1011
-12.5
1021
24.99999999999999
1031
0.0
1002
}
1002
{
1000
HVAL
1000
50
1002
}
1002
{
1000
H
1070
     2
1002
}
1002
{
1000
WVAL
1000
167
1002
}
1002
{
1000
W
1070
     2
1002
}
1002
{
1000
C
1070
     4
1002
}
1001
GENIUS_GENODEF_13
1002
{
1000
HIER
1070
     0
1002
}
1002
{
1000
MANEDIT
1070
     0
1002
}
1002
{
1000
NOSEL
1070
     0
1002
}
1002
{
1000
BEHIND
1070
     0
1002
}
1002
{
1000
REACTOR
1002
}
1001
GENIUS_GENOBJ-N-REC_13
1002
{
1000
OWNER
1000
GEN
1002
}
  0
LINE
  5
6E0
330
6D9
100
AcDbEntity
  8
0
100
AcDbLine
 10
0.0
 20
50.0
 30
0.0
 11
-193.0000000000001
 21
50.00000000000002
 31
0.0
1001
GENIUS_GENREC_14
1002
{
1000
PYDIR
1011
-184.0
1021
50.0
1031
0.0
1002
}
1002
{
1000
PXDIR
1011
0.0
1021
0.0
1031
0.0
1002
}
1002
{
1000
PORI
1011
-184.0
1021
0.0
1031
0.0
1002
}
1002
{
1000
PINS
1011
-100.5
1021
25.0
1031
0.0
1002
}
1002
{
1000
HVAL
1000
50
1002
}
1002
{
1000
H
1070
     2
1002
}
1002
{
1000
WVAL
1000
167
1002
}
1002
{
1000
W
1070
     2
1002
}
1002
{
1000
C
1070
     4
1002
}
1001
GENIUS_GENODEF_13
1002
{
1000
HIER
1070
     0
1002
}
1002
{
1000
MANEDIT
1070
     0
1002
}
1002
{
1000
NOSEL
1070
     0
1002
}
1002
{
1000
BEHIND
1070
     0
1002
}
1002
{
1000
REACTOR
1002
}
1001
GENIUS_GENOBJ-N-REC_13
1002
{
1000
OWNER
1000
GEN
1002
}
  0
LINE
  5
6E1
330
6D9
100
AcDbEntity
  8
0
100
AcDbLine
 10
-193.0000000000001
 20
0.0
 30
0.0
 11
0.0
 21
0.0
 31
0.0
1001
GENIUS_GENREC_14
1002
{
1000
PYDIR
1011
-184.0
1021
50.0
1031
0.0
1002
}
1002
{
1000
PXDIR
1011
0.0
1021
0.0
1031
0.0
1002
}
1002
{
1000
PORI
1011
-184.0
1021
0.0
1031
0.0
1002
}
1002
{
1000
PINS
1011
-100.5
1021
25.0
1031
0.0
1002
}
1002
{
1000
HVAL
1000
50
1002
}
1002
{
1000
H
1070
     2
1002
}
1002
{
1000
WVAL
1000
167
1002
}
1002
{
1000
W
1070
     2
1002
}
1002
{
1000
C
1070
     4
1002
}
1001
GENIUS_GENODEF_13
1002
{
1000
HIER
1070
     0
1002
}
1002
{
1000
MANEDIT
1070
     0
1002
}
1002
{
1000
NOSEL
1070
     0
1002
}
1002
{
1000
BEHIND
1070
     0
1002
}
1002
{
1000
REACTOR
1002
}
1001
GENIUS_GENOBJ-N-REC_13
1002
{
1000
OWNER
1000
GEN
1002
}
  0
TEXT
  5
6E2
330
6D9
100
AcDbEntity
  8
RAHM2
100
AcDbText
 10
-91.92677669529663
 20
45.98333333333335
 30
0.0
 40
2.5
  1
5
 72
     1
 11
-91.0
 21
45.65000000000002
 31
0.0
100
AcDbText
 73
     1
  0
TEXT
  5
6E3
330
6D9
100
AcDbEntity
  8
RAHM2
100
AcDbText
 10
-92.0
 20
40.98333333333335
 30
0.0
 40
2.5
  1
4
 72
     1
 11
-91.0
 21
40.65000000000002
 31
0.0
100
AcDbText
 73
     1
  0
TEXT
  5
6E4
330
6D9
100
AcDbEntity
  8
RAHM2
100
AcDbText
 10
-91.92677669529663
 20
35.98333333333333
 30
0.0
 40
2.5
  1
3
 72
     1
 11
-91.0
 21
35.64999999999999
 31
0.0
100
AcDbText
 73
     1
  0
TEXT
  5
6E5
330
6D9
100
AcDbEntity
  8
RAHM2
100
AcDbText
 10
-91.91833169291339
 20
30.98333333333335
 30
0.0
 40
2.5
  1
2
 72
     1
 11
-91.0
 21
30.65000000000002
 31
0.0
100
AcDbText
 73
     1
  0
TEXT
  5
6E6
330
6D9
100
AcDbEntity
  8
RAHM2
100
AcDbText
 10
-91.81558635658019
 20
25.98333333333335
 30
0.0
 40
2.5
  1
1
 72
     1
 11
-91.19058635658019
 21
25.65000000000002
 31
0.0
100
AcDbText
 73
     1
  0
MTEXT
  5
6E7
330
6D9
100
AcDbEntity
  8
RAHM2
100
AcDbMText
 10
-22.27910888308327
 20
27.50000000000003
 30
0.0
 40
2.5
 41
20.0
 71
     5
 72
     5
  1
・  ・   
 73
     1
 44
1.0
1001
ACAD
1000
MTEXTBEGIN
1070
    73
1070
     1
1070
    44
1040
1.0
1070
    74
1070
     0
1000
MTEXTEND
  0
LINE
  5
6E8
330
6D9
100
AcDbEntity
  8
RAHM2
100
AcDbLine
 10
-96.0
 20
25.0
 30
0.0
 11
0.0000000000001137
 21
25.00000000000003
 31
0.0
  0
LINE
  5
6E9
330
6D9
100
AcDbEntity
  8
RAHM2
100
AcDbLine
 10
-93.42487113059645
 20
25.40000000000002
 30
0.0
 11
-88.57512886940355
 21
25.40000000000002
 31
0.0
  0
LINE
  5
6EA
330
6D9
100
AcDbEntity
  8
RAHM2
100
AcDbLine
 10
-88.57512886940355
 20
25.40000000000002
 30
0.0
 11
-91.0
 21
29.60000000000001
 31
0.0
  0
LINE
  5
6EB
330
6D9
100
AcDbEntity
  8
RAHM2
100
AcDbLine
 10
-91.0
 20
29.60000000000001
 30
0.0
 11
-93.42487113059645
 21
25.40000000000002
 31
0.0
  0
MTEXT
  5
6EC
330
6D9
100
AcDbEntity
  8
RAHM2
100
AcDbMText
 10
-22.27910888308327
 20
47.50000000000002
 30
0.0
 40
2.5
 41
20.0
 71
     5
 72
     5
  1
・  ・   
 73
     1
 44
1.0
1001
ACAD
1000
MTEXTBEGIN
1070
    73
1070
     1
1070
    44
1040
1.0
1070
    74
1070
     0
1000
MTEXTEND
  0
MTEXT
  5
6ED
330
6D9
100
AcDbEntity
  8
RAHM2
100
AcDbMText
 10
-22.27910888308327
 20
37.50000000000003
 30
0.0
 40
2.5
 41
20.0
 71
     5
 72
     5
  1
・  ・   
 73
     1
 44
1.0
1001
ACAD
1000
MTEXTBEGIN
1070
    73
1070
     1
1070
    44
1040
1.0
1070
    74
1070
     0
1000
MTEXTEND
  0
MTEXT
  5
6EE
330
6D9
100
AcDbEntity
  8
RAHM2
100
AcDbMText
 10
-22.27910888308327
 20
42.50000000000002
 30
0.0
 40
2.5
 41
20.0
 71
     5
 72
     5
  1
・  ・   
 73
     1
 44
1.0
1001
ACAD
1000
MTEXTBEGIN
1070
    73
1070
     1
1070
    44
1040
1.0
1070
    74
1070
     0
1000
MTEXTEND
  0
MTEXT
  5
6EF
330
6D9
100
AcDbEntity
  8
RAHM2
100
AcDbMText
 10
-5.910409705344477
 20
22.49999999999997
 30
0.0
 40
2.5
 41
15.0
 71
     5
 72
     5
  1
担当
 73
     1
 44
1.0
1001
ACAD
1000
MTEXTBEGIN
1070
    73
1070
     1
1070
    44
1040
1.0
1070
    74
1070
     0
1000
MTEXTEND
  0
MTEXT
  5
6F0
330
6D9
100
AcDbEntity
  8
RAHM2
100
AcDbMText
 10
-21.55893921569111
 20
22.49999999999997
 30
0.0
 40
2.5
 41
20.0
 71
     5
 72
     5
  1
年・月・日
 73
     1
 44
1.0
1001
ACAD
1000
MTEXTBEGIN
1070
    73
1070
     1
1070
    44
1040
1.0
1070
    74
1070
     0
1000
MTEXTEND
  0
MTEXT
  5
6F1
330
6D9
100
AcDbEntity
  8
RAHM2
100
AcDbMText
 10
-22.27910888308327
 20
32.50000000000003
 30
0.0
 40
2.5
 41
20.0
 71
     5
 72
     5
  1
・  ・   
 73
     1
 44
1.0
1001
ACAD
1000
MTEXTBEGIN
1070
    73
1070
     1
1070
    44
1040
1.0
1070
    74
1070
     0
1000
MTEXTEND
  0
LINE
  5
6F2
330
6D9
100
AcDbEntity
  8
RAHM2
100
AcDbLine
 10
-11.82081941068907
 20
50.00000000000003
 30
0.0
 11
-11.82081941068907
 21
19.99999999999994
 31
0.0
  0
MTEXT
  5
6F3
330
6D9
100
AcDbEntity
  8
RAHM2
100
AcDbMText
 10
-59.0
 20
22.49999999999996
 30
0.0
 40
2.5
 41
45.0
 71
     5
 72
     5
  1
変更記事
 73
     1
 44
1.0
1001
ACAD
1000
MTEXTBEGIN
1070
    73
1070
     1
1070
    44
1040
1.0
1070
    74
1070
     0
1000
MTEXTEND
  0
LINE
  5
6F4
330
6D9
100
AcDbEntity
  8
RAHM2
100
AcDbLine
 10
-31.82081941068907
 20
50.00000000000003
 30
0.0
 11
-31.82081941068918
 21
19.99999999999994
 31
0.0
  0
LINE
  5
6F5
330
6D9
100
AcDbEntity
  8
RAHM2
100
AcDbLine
 10
-91.0
 20
49.6
 30
0.0
 11
-93.42487113059645
 21
45.40000000000001
 31
0.0
  0
LINE
  5
6F6
330
6D9
100
AcDbEntity
  8
RAHM2
100
AcDbLine
 10
-91.0
 20
44.6
 30
0.0
 11
-93.42487113059645
 21
40.40000000000001
 31
0.0
  0
LINE
  5
6F7
330
6D9
100
AcDbEntity
  8
RAHM2
100
AcDbLine
 10
-91.0
 20
39.60000000000001
 30
0.0
 11
-93.42487113059645
 21
35.40000000000002
 31
0.0
  0
LINE
  5
6F8
330
6D9
100
AcDbEntity
  8
RAHM2
100
AcDbLine
 10
-88.57512886940355
 20
35.40000000000002
 30
0.0
 11
-91.0
 21
39.60000000000001
 31
0.0
  0
LINE
  5
6F9
330
6D9
100
AcDbEntity
  8
RAHM2
100
AcDbLine
 10
-93.42487113059645
 20
35.40000000000002
 30
0.0
 11
-88.57512886940355
 21
35.40000000000002
 31
0.0
  0
LINE
  5
6FA
330
6D9
100
AcDbEntity
  8
RAHM2
100
AcDbLine
 10
-88.57512886940355
 20
40.40000000000001
 30
0.0
 11
-91.0
 21
44.6
 31
0.0
  0
LINE
  5
6FB
330
6D9
100
AcDbEntity
  8
RAHM2
100
AcDbLine
 10
-93.42487113059645
 20
40.40000000000001
 30
0.0
 11
-88.57512886940355
 21
40.40000000000001
 31
0.0
  0
LINE
  5
6FC
330
6D9
100
AcDbEntity
  8
RAHM2
100
AcDbLine
 10
-88.57512886940355
 20
45.40000000000001
 30
0.0
 11
-91.0
 21
49.6
 31
0.0
  0
LINE
  5
6FD
330
6D9
100
AcDbEntity
  8
RAHM2
100
AcDbLine
 10
-93.42487113059645
 20
45.40000000000001
 30
0.0
 11
-88.57512886940355
 21
45.40000000000001
 31
0.0
  0
MTEXT
  5
6FE
330
6D9
100
AcDbEntity
  8
RAHM2
100
AcDbMText
 10
-94.80025513713144
 20
18.8010354072796
 30
0.0
 40
2.5
 41
90.0
 71
     1
 72
     5
  1
品名
 73
     1
 44
1.0
1001
ACAD
1000
MTEXTBEGIN
1070
    73
1070
     1
1070
    44
1040
1.0
1070
    74
1070
     0
1000
MTEXTEND
  0
MTEXT
  5
6FF
330
6D9
100
AcDbEntity
  8
RAHM2
100
AcDbMText
 10
-91.0
 20
22.49999999999996
 30
0.0
 40
2.5
 41
10.0
 71
     5
 72
     5
  1
符号
 73
     1
 44
1.0
1001
ACAD
1000
MTEXTBEGIN
1070
    73
1070
     1
1070
    44
1040
1.0
1070
    74
1070
     0
1000
MTEXTEND
  0
LINE
  5
700
330
6D9
100
AcDbEntity
  8
RAHM2
100
AcDbLine
 10
-93.42487113059645
 20
30.40000000000002
 30
0.0
 11
-88.57512886940355
 21
30.40000000000002
 31
0.0
  0
LINE
  5
701
330
6D9
100
AcDbEntity
  8
RAHM2
100
AcDbLine
 10
-86.0
 20
50.00000000000001
 30
0.0
 11
-86.0
 21
19.99999999999993
 31
0.0
  0
LINE
  5
702
330
6D9
100
AcDbEntity
  8
RAHM2
100
AcDbLine
 10
-91.0
 20
34.60000000000001
 30
0.0
 11
-93.42487113059645
 21
30.40000000000002
 31
0.0
  0
LINE
  5
703
330
6D9
100
AcDbEntity
  8
RAHM2
100
AcDbLine
 10
-88.57512886940355
 20
30.40000000000002
 30
0.0
 11
-91.0
 21
34.60000000000001
 31
0.0
  0
MTEXT
  5
704
330
6D9
100
AcDbEntity
  8
RAHM2
100
AcDbMText
 10
-94.80025513713144
 20
5.801035407279627
 30
0.0
 40
2.5
 41
90.0
 71
     1
 72
     5
  1
図番
 73
     1
 44
1.0
1001
ACAD
1000
MTEXTBEGIN
1070
    73
1070
     1
1070
    44
1040
1.0
1070
    74
1070
     0
1000
MTEXTEND
  0
LINE
  5
705
330
6D9
100
AcDbEntity
  8
0
100
AcDbLine
 10
-96.0
 20
19.99999999999997
 30
0.0
 11
0.0000000000001137
 21
19.99999999999997
 31
0.0
  0
LINE
  5
706
330
6D9
100
AcDbEntity
  8
0
100
AcDbLine
 10
-96.0
 20
7.0
 30
0.0
 11
0.0000000000001137
 21
7.0
 31
0.0
  0
LINE
  5
707
330
6D9
100
AcDbEntity
  8
RAHM2
100
AcDbLine
 10
-96.0
 20
45.00000000000002
 30
0.0
 11
0.0000000000001137
 21
45.00000000000002
 31
0.0
  0
LINE
  5
708
330
6D9
100
AcDbEntity
  8
RAHM2
100
AcDbLine
 10
-96.0
 20
39.99999999999993
 30
0.0
 11
0.0000000000001137
 21
40.00000000000002
 31
0.0
  0
LINE
  5
709
330
6D9
100
AcDbEntity
  8
RAHM2
100
AcDbLine
 10
-96.0
 20
35.00000000000003
 30
0.0
 11
0.0000000000001137
 21
35.00000000000003
 31
0.0
  0
LINE
  5
70A
330
6D9
100
AcDbEntity
  8
RAHM2
100
AcDbLine
 10
-96.0
 20
29.99999999999992
 30
0.0
 11
0.0000000000001137
 21
30.00000000000003
 31
0.0
  0
LINE
  5
70B
330
6D9
100
AcDbEntity
  8
0
100
AcDbLine
 10
-21.17541926625711
 20
0.0
 30
0.0
 11
-21.17541926625734
 21
7.0
 31
0.0
  0
MTEXT
  5
70C
330
6D9
100
AcDbEntity
  8
RAHM2
100
AcDbMText
 10
-16.85742592933491
 20
3.434762466565985
 30
0.0
 40
2.5
 41
7.936478436748416
 71
     5
 72
     5
  1
Rev.
 73
     1
 44
1.0
1001
ACAD
1000
MTEXTBEGIN
1070
    73
1070
     1
1070
    44
1040
1.0
1070
    74
1070
     0
1000
MTEXTEND
  0
MTEXT
  5
70D
330
6D9
100
AcDbEntity
  8
RAHM2
100
AcDbMText
 10
-104.875
 20
18.80103540727957
 30
0.0
 40
2.5
 41
17.0
 71
     2
 72
     5
  1
製図
 73
     1
 44
1.0
1001
ACAD
1000
MTEXTBEGIN
1070
    73
1070
     1
1070
    44
1040
1.0
1070
    74
1070
     0
1000
MTEXTEND
  0
LINE
  5
70E
330
6D9
100
AcDbEntity
  8
0
100
AcDbLine
 10
-167.0
 20
19.99999999999993
 30
0.0
 11
-96.0
 21
19.99999999999993
 31
0.0
  0
LINE
  5
70F
330
6D9
100
AcDbEntity
  8
0
100
AcDbLine
 10
-113.75
 20
19.99999999999993
 30
0.0
 11
-113.75
 21
-0.0000000000000533
 31
0.0
  0
LINE
  5
710
330
6D9
100
AcDbEntity
  8
0
100
AcDbLine
 10
-131.5000000000001
 20
19.99999999999993
 30
0.0
 11
-131.5000000000001
 21
-0.0000000000000533
 31
0.0
  0
MTEXT
  5
711
330
6D9
100
AcDbEntity
  8
RAHM2
100
AcDbMText
 10
-122.6250000000001
 20
18.80103540727958
 30
0.0
 40
2.5
 41
17.0
 71
     2
 72
     5
  1
検図
 73
     1
 44
1.0
1001
ACAD
1000
MTEXTBEGIN
1070
    73
1070
     1
1070
    44
1040
1.0
1070
    74
1070
     0
1000
MTEXTEND
  0
LINE
  5
712
330
6D9
100
AcDbEntity
  8
0
100
AcDbLine
 10
-167.0
 20
49.99999999999995
 30
0.0
 11
-167.0
 21
-0.0000000000000497
 31
0.0
  0
LINE
  5
713
330
6D9
100
AcDbEntity
  8
0
100
AcDbLine
 10
-149.2500000000001
 20
19.99999999999993
 30
0.0
 11
-149.2500000000001
 21
-0.0000000000000462
 31
0.0
  0
MTEXT
  5
714
330
6D9
100
AcDbEntity
  8
RAHM2
100
AcDbMText
 10
-140.3750000000001
 20
18.80103540727958
 30
0.0
 40
2.5
 41
17.0
 71
     2
 72
     5
  1
承認
 73
     1
 44
1.0
1001
ACAD
1000
MTEXTBEGIN
1070
    73
1070
     1
1070
    44
1040
1.0
1070
    74
1070
     0
1000
MTEXTEND
  0
MTEXT
  5
715
330
6D9
100
AcDbEntity
  8
RAHM2
100
AcDbMText
 10
-158.1250000000001
 20
18.80103540727956
 30
0.0
 40
2.5
 41
17.0
 71
     2
 72
     5
  1
承認
 73
     1
 44
1.0
1001
ACAD
1000
MTEXTBEGIN
1070
    73
1070
     1
1070
    44
1040
1.0
1070
    74
1070
     0
1000
MTEXTEND
  0
LINE
  5
716
330
6D9
100
AcDbEntity
  8
0
100
AcDbLine
 10
-167.0
 20
29.99999999999992
 30
0.0
 11
-96.0
 21
29.99999999999992
 31
0.0
  0
MTEXT
  5
717
330
6D9
100
AcDbEntity
  8
0
100
AcDbMText
 10
-131.5000000000001
 20
24.99999999999992
 30
0.0
 40
3.5
 41
60.0
 71
     5
 72
     5
  1
\fＭＳ ゴシック|b0|i0|c128|p49;株式会社タカチ電機工業
 73
     1
 44
1.0
1001
ACAD
1000
MTEXTBEGIN
1070
    73
1070
     1
1070
    44
1040
1.0
1070
    74
1070
     0
1000
MTEXTEND
  0
ATTDEF
  5
718
330
6D9
100
AcDbEntity
  8
0
100
AcDbText
 10
-148.9618675835291
 20
43.29999999999991
 30
0.0
 40
3.0
  1

100
AcDbAttributeDefinition
  3
材質
  2
GEN-TITLE-MAT1
 70
     0
  0
ATTDEF
  5
719
330
6D9
100
AcDbEntity
  8
0
100
AcDbText
 10
-148.9618675835291
 20
33.29999999999991
 30
0.0
 40
3.0
  1

100
AcDbAttributeDefinition
  3
表面処理
  2
GEN-TITLE-MAT2
 70
     0
  0
MTEXT
  5
71A
330
6D9
100
AcDbEntity
  8
RAHM2
100
AcDbMText
 10
-165.8002551371314
 20
48.80103540727955
 30
0.0
 40
2.5
 41
60.0
 71
     1
 72
     5
  1
材質
 73
     1
 44
1.0
1001
ACAD
1000
MTEXTBEGIN
1070
    73
1070
     1
1070
    44
1040
1.0
1070
    74
1070
     0
1000
MTEXTEND
  0
MTEXT
  5
71B
330
6D9
100
AcDbEntity
  8
RAHM2
100
AcDbMText
 10
-165.8002551371314
 20
38.80103540727956
 30
0.0
 40
2.5
 41
60.0
 71
     1
 72
     5
  1
表面処理
 73
     1
 44
1.0
1001
ACAD
1000
MTEXTBEGIN
1070
    73
1070
     1
1070
    44
1040
1.0
1070
    74
1070
     0
1000
MTEXTEND
  0
LINE
  5
71C
330
6D9
100
AcDbEntity
  8
0
100
AcDbLine
 10
-167.0
 20
39.99999999999991
 30
0.0
 11
-96.0
 21
39.99999999999992
 31
0.0
  0
LINE
  5
71D
330
6D9
100
AcDbEntity
  8
0
100
AcDbLine
 10
-167.0
 20
24.99999999999997
 30
0.0
 11
-193.0000000000001
 21
24.99999999999997
 31
0.0
  0
LINE
  5
71E
330
6D9
100
AcDbEntity
  8
0
100
AcDbLine
 10
-171.7167418745796
 20
46.74999999999995
 30
0.0
 11
-171.7167418745796
 21
40.74999999999994
 31
0.0
  0
LINE
  5
71F
330
6D9
100
AcDbEntity
  8
7A
100
AcDbLine
 10
-184.7167418745796
 20
43.74999999999995
 30
0.0
 11
-184.7167418745796
 21
40.03991724228473
 31
0.0
1001
GENIUS_GENOREF_13
1005
731
  0
LINE
  5
720
330
6D9
100
AcDbEntity
  8
7A
100
AcDbLine
 10
-184.7167418745796
 20
43.74999999999995
 30
0.0
 11
-188.4397792458307
 21
43.74999999999995
 31
0.0
1001
GENIUS_GENOREF_13
1005
731
  0
LINE
  5
721
330
6D9
100
AcDbEntity
  8
0
100
AcDbLine
 10
-179.7167418745796
 20
41.74999999999995
 30
0.0
 11
-179.7167418745796
 21
45.74999999999994
 31
0.0
  0
CIRCLE
  5
722
330
6D9
100
AcDbEntity
  8
0
100
AcDbCircle
 10
-184.7167418745796
 20
43.74999999999995
 30
0.0
 40
3.0
  0
CIRCLE
  5
723
330
6D9
100
AcDbEntity
  8
0
100
AcDbCircle
 10
-184.7167418745796
 20
43.74999999999995
 30
0.0
 40
2.0
  0
LINE
  5
724
330
6D9
100
AcDbEntity
  8
7A
100
AcDbLine
 10
-184.7167418745796
 20
43.74999999999995
 30
0.0
 11
-184.7167418745796
 21
47.32478664473144
 31
0.0
1001
GENIUS_GENOREF_13
1005
731
  0
LINE
  5
725
330
6D9
100
AcDbEntity
  8
0
100
AcDbLine
 10
-171.7167418745796
 20
40.74999999999994
 30
0.0
 11
-179.7167418745796
 21
41.74999999999995
 31
0.0
  0
LINE
  5
726
330
6D9
100
AcDbEntity
  8
0
100
AcDbLine
 10
-179.7167418745796
 20
45.74999999999994
 30
0.0
 11
-171.7167418745796
 21
46.74999999999995
 31
0.0
  0
LINE
  5
727
330
6D9
100
AcDbEntity
  8
7A
100
AcDbLine
 10
-184.7167418745796
 20
43.74999999999995
 30
0.0
 11
-170.9354334742943
 21
43.74999999999995
 31
0.0
1001
GENIUS_GENOREF_13
1005
731
  0
LINE
  5
728
330
6D9
100
AcDbEntity
  8
0
100
AcDbLine
 10
-193.0000000000001
 20
49.99999999999999
 30
0.0
 11
-193.0000000000001
 21
-0.0000000000000142
 31
0.0
  0
ATTDEF
  5
729
330
6D9
100
AcDbEntity
  8
0
100
AcDbText
 10
-175.6127409126095
 20
16.19999999999994
 30
0.0
 40
3.0
  1

 72
     2
 11
-175.6127409126095
 21
15.79999999999994
 31
0.0
100
AcDbAttributeDefinition
  3
数量
  2
GEN-TITLE-QTY
 70
     0
 74
     1
  0
MTEXT
  5
72A
330
6D9
100
AcDbEntity
  8
RAHM2
100
AcDbMText
 10
-191.8002551371315
 20
23.80103540727963
 30
0.0
 40
2.5
 41
20.0
 71
     1
 72
     5
  1
数量
 73
     1
 44
1.0
1001
ACAD
1000
MTEXTBEGIN
1070
    73
1070
     1
1070
    44
1040
1.0
1070
    74
1070
     0
1000
MTEXTEND
  0
MTEXT
  5
72B
330
6D9
100
AcDbEntity
  8
RAHM2
100
AcDbMText
 10
-191.8002551371315
 20
36.30103540727966
 30
0.0
 40
2.5
 41
20.0
 71
     1
 72
     5
  1
尺度
 73
     1
 44
1.0
1001
ACAD
1000
MTEXTBEGIN
1070
    73
1070
     1
1070
    44
1040
1.0
1070
    74
1070
     0
1000
MTEXTEND
  0
ATTDEF
  5
72C
330
6D9
100
AcDbEntity
  8
0
100
AcDbText
 10
-177.824739614424
 20
28.69999999999997
 30
0.0
 40
3.0
  1

 72
     2
 11
-177.824739614424
 21
28.29999999999998
 31
0.0
100
AcDbAttributeDefinition
  3
尺度
  2
GEN-TITLE-SCA
 70
     0
 74
     1
  0
MTEXT
  5
72D
330
6D9
100
AcDbEntity
  8
RAHM2
100
AcDbMText
 10
-191.8002551371315
 20
11.3010354072796
 30
0.0
 40
2.5
 41
60.0
 71
     1
 72
     5
  1
日付
 73
     1
 44
1.0
1001
ACAD
1000
MTEXTBEGIN
1070
    73
1070
     1
1070
    44
1040
1.0
1070
    74
1070
     0
1000
MTEXTEND
  0
ATTDEF
  5
72E
330
6D9
100
AcDbEntity
  8
0
100
AcDbText
 10
-180.2171951662138
 20
3.988342537610664
 30
0.0
 40
3.0
  1

 72
     1
 11
-180.2171951662138
 21
3.588342537610664
 31
0.0
100
AcDbAttributeDefinition
  3
日付
  2
GEN-TITLE-DAT
 70
     0
 74
     1
  0
LINE
  5
72F
330
6D9
100
AcDbEntity
  8
0
100
AcDbLine
 10
-167.0
 20
37.49999999999998
 30
0.0
 11
-193.0000000000001
 21
37.49999999999998
 31
0.0
  0
LINE
  5
730
330
6D9
100
AcDbEntity
  8
0
100
AcDbLine
 10
-167.0
 20
12.49999999999996
 30
0.0
 11
-193.0000000000001
 21
12.49999999999996
 31
0.0
  0
POINT
  5
731
330
6D9
100
AcDbEntity
  8
0
 60
     1
100
AcDbPoint
 10
-418.5355579819675
 20
-138.1104841268254
 30
0.0
1001
GENIUS_GENODEF_13
1002
{
1000
HIER
1070
    10
1002
}
1002
{
1000
MANEDIT
1070
     0
1002
}
1002
{
1000
NOSEL
1070
     0
1002
}
1002
{
1000
BEHIND
1070
     0
1002
}
1002
{
1000
REACTOR
1002
}
1001
GENIUS_GENOBJ-N-CRS_13
1002
{
1000
OWNER
1000
GEN
1002
}
1001
GENIUS_GENOENT_13
1002
{
1000
MYREF
1005
731
1002
}
1002
{
1000
GRP
1005
0
1002
}
1001
GENIUS_GENOLIS_13
1002
{
1000
ENT
1005
71F
1005
720
1005
724
1005
727
1002
}
  0
ENDBLK
  5
734
330
6D9
100
AcDbEntity
  8
0
100
AcDbBlockEnd
  0
BLOCK
  5
E7A
330
E1E
100
AcDbEntity
  8
0
100
AcDbBlockBegin
  2
*D8
 70
     1
 10
0.0
 20
0.0
 30
0.0
  3
*D8
  1

  0
LINE
  5
2923
330
E1E
100
AcDbEntity
  8
AM_5
100
AcDbLine
 10
353.1873599411658
 20
109.5788945517526
 30
0.0
 11
353.1873599411658
 21
92.82889354175253
 31
0.0
  0
LINE
  5
2924
330
E1E
100
AcDbEntity
  8
AM_5
100
AcDbLine
 10
423.1873599411658
 20
109.5788945517526
 30
0.0
 11
423.1873599411658
 21
92.82889354175253
 31
0.0
  0
LINE
  5
2925
330
E1E
100
AcDbEntity
  8
AM_5
100
AcDbLine
 10
356.9373599411658
 20
94.32889354175253
 30
0.0
 11
419.4373599411658
 21
94.32889354175253
 31
0.0
  0
INSERT
  5
2926
330
E1E
100
AcDbEntity
  8
AM_5
100
AcDbBlockReference
  2
_Open30
 10
353.1873599411658
 20
94.32889354175253
 30
0.0
 41
3.75
 42
3.75
 43
3.75
 50
180.0
  0
INSERT
  5
2927
330
E1E
100
AcDbEntity
  8
AM_5
100
AcDbBlockReference
  2
_Open30
 10
423.1873599411658
 20
94.32889354175253
 30
0.0
 41
3.75
 42
3.75
 43
3.75
  0
MTEXT
  5
2928
330
E1E
100
AcDbEntity
  8
AM_5
 62
     2
100
AcDbMText
 10
388.1873599411658
 20
99.20389354175254
 30
0.0
 40
5.25
 41
0.0
 71
     5
 72
     1
  1
70
 73
     1
 44
1.0
1001
ACAD
1000
MTEXTBEGIN
1070
    73
1070
     1
1070
    44
1040
1.0
1070
    74
1070
     0
1000
MTEXTEND
  0
POINT
  5
2929
330
E1E
100
AcDbEntity
  8
Defpoints
 62
     0
100
AcDbPoint
 10
353.1873599411658
 20
111.0788945517525
 30
0.0
  0
POINT
  5
292A
330
E1E
100
AcDbEntity
  8
Defpoints
 62
     0
100
AcDbPoint
 10
423.1873599411658
 20
111.0788945517525
 30
0.0
  0
POINT
  5
292B
330
E1E
100
AcDbEntity
  8
Defpoints
 62
     0
100
AcDbPoint
 10
423.1873599411658
 20
94.32889354175253
 30
0.0
  0
ENDBLK
  5
E7B
330
E1E
100
AcDbEntity
  8
0
100
AcDbBlockEnd
  0
BLOCK
  5
E7C
330
E46
100
AcDbEntity
  8
0
100
AcDbBlockBegin
  2
*D9
 70
     1
 10
0.0
 20
0.0
 30
0.0
  3
*D9
  1

  0
LINE
  5
292C
330
E46
100
AcDbEntity
  8
AM_5
100
AcDbLine
 10
423.1873599411658
 20
109.5788945517526
 30
0.0
 11
423.1873599411658
 21
92.82889354175258
 31
0.0
  0
LINE
  5
292D
330
E46
100
AcDbEntity
  8
AM_5
100
AcDbLine
 10
458.1873599411657
 20
109.5788945517526
 30
0.0
 11
458.1873599411657
 21
92.82889354175258
 31
0.0
  0
LINE
  5
292E
330
E46
100
AcDbEntity
  8
AM_5
100
AcDbLine
 10
426.9373599411657
 20
94.32889354175257
 30
0.0
 11
454.4373599411658
 21
94.32889354175257
 31
0.0
  0
INSERT
  5
292F
330
E46
100
AcDbEntity
  8
AM_5
100
AcDbBlockReference
  2
_Open30
 10
423.1873599411658
 20
94.32889354175257
 30
0.0
 41
3.75
 42
3.75
 43
3.75
 50
180.0
  0
INSERT
  5
2930
330
E46
100
AcDbEntity
  8
AM_5
100
AcDbBlockReference
  2
_Open30
 10
458.1873599411657
 20
94.32889354175257
 30
0.0
 41
3.75
 42
3.75
 43
3.75
  0
MTEXT
  5
2931
330
E46
100
AcDbEntity
  8
AM_5
 62
     2
100
AcDbMText
 10
440.6873599411658
 20
99.20389354175258
 30
0.0
 40
5.25
 41
0.0
 71
     5
 72
     1
  1
35
 73
     1
 44
1.0
1001
ACAD
1000
MTEXTBEGIN
1070
    73
1070
     1
1070
    44
1040
1.0
1070
    74
1070
     0
1000
MTEXTEND
  0
POINT
  5
2932
330
E46
100
AcDbEntity
  8
Defpoints
 62
     0
100
AcDbPoint
 10
423.1873599411658
 20
111.0788945517525
 30
0.0
  0
POINT
  5
2933
330
E46
100
AcDbEntity
  8
Defpoints
 62
     0
100
AcDbPoint
 10
458.1873599411657
 20
111.0788945517525
 30
0.0
  0
POINT
  5
2934
330
E46
100
AcDbEntity
  8
Defpoints
 62
     0
100
AcDbPoint
 10
458.1873599411657
 20
94.32889354175257
 30
0.0
  0
ENDBLK
  5
E7D
330
E46
100
AcDbEntity
  8
0
100
AcDbBlockEnd
  0
BLOCK
  5
E7E
330
E62
100
AcDbEntity
  8
0
100
AcDbBlockBegin
  2
*D10
 70
     1
 10
0.0
 20
0.0
 30
0.0
  3
*D10
  1

  0
LINE
  5
2935
330
E62
100
AcDbEntity
  8
AM_5
100
AcDbLine
 10
458.1873599411657
 20
109.5788945517526
 30
0.0
 11
458.1873599411657
 21
92.82889354175271
 31
0.0
  0
LINE
  5
2936
330
E62
100
AcDbEntity
  8
AM_5
100
AcDbLine
 10
528.1873599411658
 20
109.5788945517526
 30
0.0
 11
528.1873599411658
 21
92.82889354175271
 31
0.0
  0
LINE
  5
2937
330
E62
100
AcDbEntity
  8
AM_5
100
AcDbLine
 10
461.9373599411658
 20
94.32889354175271
 30
0.0
 11
524.4373599411658
 21
94.32889354175271
 31
0.0
  0
INSERT
  5
2938
330
E62
100
AcDbEntity
  8
AM_5
100
AcDbBlockReference
  2
_Open30
 10
458.1873599411657
 20
94.32889354175271
 30
0.0
 41
3.75
 42
3.75
 43
3.75
 50
180.0
  0
INSERT
  5
2939
330
E62
100
AcDbEntity
  8
AM_5
100
AcDbBlockReference
  2
_Open30
 10
528.1873599411658
 20
94.32889354175271
 30
0.0
 41
3.75
 42
3.75
 43
3.75
  0
MTEXT
  5
293A
330
E62
100
AcDbEntity
  8
AM_5
 62
     2
100
AcDbMText
 10
493.1873599411658
 20
99.2038935417527
 30
0.0
 40
5.25
 41
0.0
 71
     5
 72
     1
  1
70
 73
     1
 44
1.0
1001
ACAD
1000
MTEXTBEGIN
1070
    73
1070
     1
1070
    44
1040
1.0
1070
    74
1070
     0
1000
MTEXTEND
  0
POINT
  5
293B
330
E62
100
AcDbEntity
  8
Defpoints
 62
     0
100
AcDbPoint
 10
458.1873599411657
 20
111.0788945517525
 30
0.0
  0
POINT
  5
293C
330
E62
100
AcDbEntity
  8
Defpoints
 62
     0
100
AcDbPoint
 10
528.1873599411658
 20
111.0788945517526
 30
0.0
  0
POINT
  5
293D
330
E62
100
AcDbEntity
  8
Defpoints
 62
     0
100
AcDbPoint
 10
528.1873599411658
 20
94.32889354175271
 30
0.0
  0
ENDBLK
  5
E7F
330
E62
100
AcDbEntity
  8
0
100
AcDbBlockEnd
  0
BLOCK
  5
EA8
330
E90
100
AcDbEntity
  8
0
100
AcDbBlockBegin
  2
*D11
 70
     1
 10
0.0
 20
0.0
 30
0.0
  3
*D11
  1

  0
LINE
  5
293E
330
E90
100
AcDbEntity
  8
AM_5
100
AcDbLine
 10
532.6873599411658
 20
181.0788945517525
 30
0.0
 11
554.6873609511658
 21
181.0788945517525
 31
0.0
  0
LINE
  5
293F
330
E90
100
AcDbEntity
  8
AM_5
100
AcDbLine
 10
532.6873599411658
 20
114.0788945517525
 30
0.0
 11
554.6873609511658
 21
114.0788945517525
 31
0.0
  0
LINE
  5
2940
330
E90
100
AcDbEntity
  8
AM_5
100
AcDbLine
 10
553.1873609511658
 20
177.3288945517525
 30
0.0
 11
553.1873609511658
 21
117.8288945517525
 31
0.0
  0
INSERT
  5
2941
330
E90
100
AcDbEntity
  8
AM_5
100
AcDbBlockReference
  2
_Open30
 10
553.1873609511658
 20
181.0788945517525
 30
0.0
 41
3.75
 42
3.75
 43
3.75
 50
90.0
  0
INSERT
  5
2942
330
E90
100
AcDbEntity
  8
AM_5
100
AcDbBlockReference
  2
_Open30
 10
553.1873609511658
 20
114.0788945517525
 30
0.0
 41
3.75
 42
3.75
 43
3.75
 50
270.0
  0
MTEXT
  5
2943
330
E90
100
AcDbEntity
  8
AM_5
 62
     2
100
AcDbMText
 10
548.3123609511658
 20
147.5788945517526
 30
0.0
 40
5.25
 41
0.0
 71
     5
 72
     1
  1
67
 11
0.0000000000000001
 21
1.0
 31
0.0
 73
     1
 44
1.0
1001
ACAD
1000
MTEXTBEGIN
1070
    73
1070
     1
1070
    44
1040
1.0
1070
    74
1070
     0
1000
MTEXTEND
  0
POINT
  5
2944
330
E90
100
AcDbEntity
  8
Defpoints
 62
     0
100
AcDbPoint
 10
531.1873599411658
 20
181.0788945517525
 30
0.0
  0
POINT
  5
2945
330
E90
100
AcDbEntity
  8
Defpoints
 62
     0
100
AcDbPoint
 10
531.1873599411658
 20
114.0788945517525
 30
0.0
  0
POINT
  5
2946
330
E90
100
AcDbEntity
  8
Defpoints
 62
     0
100
AcDbPoint
 10
553.1873609511658
 20
114.0788945517525
 30
0.0
  0
ENDBLK
  5
EA9
330
E90
100
AcDbEntity
  8
0
100
AcDbBlockEnd
  0
BLOCK
  5
EF6
330
EBA
100
AcDbEntity
  8
0
100
AcDbBlockBegin
  2
*D12
 70
     1
 10
0.0
 20
0.0
 30
0.0
  3
*D12
  1

  0
LINE
  5
2947
330
EBA
100
AcDbEntity
  8
AM_5
100
AcDbLine
 10
346.1873599411658
 20
173.0788945517525
 30
0.0
 11
346.1873599411658
 21
191.0788945517525
 31
0.0
  0
LINE
  5
2948
330
EBA
100
AcDbEntity
  8
AM_5
100
AcDbLine
 10
535.1873599411658
 20
173.0788945517525
 30
0.0
 11
535.1873599411658
 21
191.0788945517525
 31
0.0
  0
LINE
  5
2949
330
EBA
100
AcDbEntity
  8
AM_5
100
AcDbLine
 10
349.9373599411658
 20
189.5788945517525
 30
0.0
 11
531.4373599411658
 21
189.5788945517525
 31
0.0
  0
INSERT
  5
294A
330
EBA
100
AcDbEntity
  8
AM_5
100
AcDbBlockReference
  2
_Open30
 10
346.1873599411658
 20
189.5788945517525
 30
0.0
 41
3.75
 42
3.75
 43
3.75
 50
180.0
  0
INSERT
  5
294B
330
EBA
100
AcDbEntity
  8
AM_5
100
AcDbBlockReference
  2
_Open30
 10
535.1873599411658
 20
189.5788945517525
 30
0.0
 41
3.75
 42
3.75
 43
3.75
  0
MTEXT
  5
294C
330
EBA
100
AcDbEntity
  8
AM_5
 62
     2
100
AcDbMText
 10
440.6873599411658
 20
194.4538945517525
 30
0.0
 40
5.25
 41
0.0
 71
     5
 72
     1
  1
189
 73
     1
 44
1.0
1001
ACAD
1000
MTEXTBEGIN
1070
    73
1070
     1
1070
    44
1040
1.0
1070
    74
1070
     0
1000
MTEXTEND
  0
POINT
  5
294D
330
EBA
100
AcDbEntity
  8
Defpoints
 62
     0
100
AcDbPoint
 10
346.1873599411658
 20
171.5788945517525
 30
0.0
  0
POINT
  5
294E
330
EBA
100
AcDbEntity
  8
Defpoints
 62
     0
100
AcDbPoint
 10
535.1873599411658
 20
171.5788945517525
 30
0.0
  0
POINT
  5
294F
330
EBA
100
AcDbEntity
  8
Defpoints
 62
     0
100
AcDbPoint
 10
535.1873599411658
 20
189.5788945517525
 30
0.0
  0
ENDBLK
  5
EF7
330
EBA
100
AcDbEntity
  8
0
100
AcDbBlockEnd
  0
BLOCK
  5
EF8
330
EDE
100
AcDbEntity
  8
0
100
AcDbBlockBegin
  2
*D13
 70
     1
 10
0.0
 20
0.0
 30
0.0
  3
*D13
  1

  0
LINE
  5
2950
330
EDE
100
AcDbEntity
  8
AM_5
100
AcDbLine
 10
347.6873599411658
 20
174.5788945517525
 30
0.0
 11
329.6873599411659
 21
174.5788945517525
 31
0.0
  0
LINE
  5
2951
330
EDE
100
AcDbEntity
  8
AM_5
100
AcDbLine
 10
347.6873599411658
 20
120.5788945517525
 30
0.0
 11
329.6873599411658
 21
120.5788945517525
 31
0.0
  0
LINE
  5
2952
330
EDE
100
AcDbEntity
  8
AM_5
100
AcDbLine
 10
331.1873599411659
 20
170.8288945517525
 30
0.0
 11
331.1873599411658
 21
124.3288945517525
 31
0.0
  0
INSERT
  5
2953
330
EDE
100
AcDbEntity
  8
AM_5
100
AcDbBlockReference
  2
_Open30
 10
331.1873599411659
 20
174.5788945517525
 30
0.0
 41
3.75
 42
3.75
 43
3.75
 50
90.0
  0
INSERT
  5
2954
330
EDE
100
AcDbEntity
  8
AM_5
100
AcDbBlockReference
  2
_Open30
 10
331.1873599411658
 20
120.5788945517525
 30
0.0
 41
3.75
 42
3.75
 43
3.75
 50
270.0
  0
MTEXT
  5
2955
330
EDE
100
AcDbEntity
  8
AM_5
 62
     2
100
AcDbMText
 10
326.3123599411658
 20
147.5788945517525
 30
0.0
 40
5.25
 41
0.0
 71
     5
 72
     1
  1
54
 11
0.0000000000000001
 21
1.0
 31
0.0
 73
     1
 44
1.0
1001
ACAD
1000
MTEXTBEGIN
1070
    73
1070
     1
1070
    44
1040
1.0
1070
    74
1070
     0
1000
MTEXTEND
  0
POINT
  5
2956
330
EDE
100
AcDbEntity
  8
Defpoints
 62
     0
100
AcDbPoint
 10
349.1873599411658
 20
174.5788945517525
 30
0.0
  0
POINT
  5
2957
330
EDE
100
AcDbEntity
  8
Defpoints
 62
     0
100
AcDbPoint
 10
349.1873599411658
 20
120.5788945517525
 30
0.0
  0
POINT
  5
2958
330
EDE
100
AcDbEntity
  8
Defpoints
 62
     0
100
AcDbPoint
 10
331.1873599411658
 20
120.5788945517525
 30
0.0
  0
ENDBLK
  5
EF9
330
EDE
100
AcDbEntity
  8
0
100
AcDbBlockEnd
  0
BLOCK
  5
F1F
330
EFF
100
AcDbEntity
  8
0
100
AcDbBlockBegin
  2
*D14
 70
     1
 10
0.0
 20
0.0
 30
0.0
  3
*D14
  1

  0
LINE
  5
2969
330
EFF
100
AcDbEntity
  8
AM_5
100
AcDbLine
 10
530.9601373731814
 20
109.3289782038044
 30
0.0
 11
539.8537973486659
 21
94.09366201041803
 31
0.0
  0
LINE
  5
296A
330
EFF
100
AcDbEntity
  8
AM_5
100
AcDbLine
 10
539.8537973486659
 20
94.09366201041803
 30
0.0
 11
561.7462594689118
 21
94.09366201041809
 31
0.0
  0
INSERT
  5
296B
330
EFF
100
AcDbEntity
  8
AM_5
100
AcDbBlockReference
  2
_Open30
 10
529.0696073058979
 20
112.5675575319509
 30
0.0
 41
3.75
 42
3.75
 43
3.75
 50
120.2743699226286
  0
MTEXT
  5
296C
102
{ACAD_XDICTIONARY
360
2E2A
102
}
330
EFF
100
AcDbEntity
  8
AM_5
 62
     2
100
AcDbMText
 10
551.9250284087887
 20
98.96866201041802
 30
0.0
 40
5.25
 41
0.0
 71
     5
 72
     1
  1
8-\U+22053.5
 73
     1
 44
1.0
1001
ACAD
1000
MTEXTBEGIN
1070
    73
1070
     1
1070
    44
1040
1.0
1070
    74
1070
     0
1000
MTEXTEND
  0
POINT
  5
296D
330
EFF
100
AcDbEntity
  8
Defpoints
 62
     0
100
AcDbPoint
 10
529.0696073058979
 20
112.5675575319509
 30
0.0
  0
POINT
  5
296E
330
EFF
100
AcDbEntity
  8
Defpoints
 62
     0
100
AcDbPoint
 10
527.3051125764334
 20
115.5902315715542
 30
0.0
  0
ENDBLK
  5
F20
330
EFF
100
AcDbEntity
  8
0
100
AcDbBlockEnd
  0
BLOCK
  5
F59
330
F39
100
AcDbEntity
  8
0
100
AcDbBlockBegin
  2
*D15
 70
     1
 10
0.0
 20
0.0
 30
0.0
  3
*D15
  1

  0
LINE
  5
2964
330
F39
100
AcDbEntity
  8
AM_5
100
AcDbLine
 10
324.0007497533486
 20
93.68180485575143
 30
0.0
 11
344.838421999965
 21
118.4166044801289
 31
0.0
  0
MTEXT
  5
2965
330
F39
100
AcDbEntity
  8
AM_5
 62
     2
100
AcDbMText
 10
323.821633518693
 20
101.0356922812731
 30
0.0
 40
5.25
 41
0.0
 71
     5
 72
     1
  1
R3
 11
0.6442871024001227
 21
0.7647837143146122
 31
0.0
 73
     1
 44
1.0
1001
ACAD
1000
MTEXTBEGIN
1070
    73
1070
     1
1070
    44
1040
1.0
1070
    74
1070
     0
1000
MTEXTEND
  0
INSERT
  5
2966
330
F39
100
AcDbEntity
  8
AM_5
100
AcDbBlockReference
  2
_Open30
 10
347.2544986339654
 20
121.2845434088087
 30
0.0
 41
3.75
 42
3.75
 43
3.75
 50
49.88775412053406
  0
POINT
  5
2967
330
F39
100
AcDbEntity
  8
Defpoints
 62
     0
100
AcDbPoint
 10
347.2544986339654
 20
121.2845434088087
 30
0.0
  0
POINT
  5
2968
330
F39
100
AcDbEntity
  8
Defpoints
 62
     0
100
AcDbPoint
 10
349.1873599411658
 20
123.5788945517524
 30
0.0
  0
ENDBLK
  5
F5A
330
F39
100
AcDbEntity
  8
0
100
AcDbBlockEnd
  0
BLOCK
  5
29E3
330
2983
100
AcDbEntity
  8
0
100
AcDbBlockBegin
  2
*D16
 70
     1
 10
0.0
 20
0.0
 30
0.0
  3
*D16
  1

  0
LINE
  5
2A2C
330
2983
100
AcDbEntity
  8
AM_5
100
AcDbLine
 10
66.91256507236436
 20
357.6516508325954
 30
0.0
 11
66.91256507236436
 21
388.2142887225255
 31
0.0
  0
LINE
  5
2A2D
330
2983
100
AcDbEntity
  8
AM_5
100
AcDbLine
 10
266.9125650723644
 20
357.6516508325954
 30
0.0
 11
266.9125650723644
 21
388.2142887225255
 31
0.0
  0
LINE
  5
2A2E
330
2983
100
AcDbEntity
  8
AM_5
100
AcDbLine
 10
70.66256507236436
 20
386.7142887225254
 30
0.0
 11
263.1625650723644
 21
386.7142887225254
 31
0.0
  0
INSERT
  5
2A2F
330
2983
100
AcDbEntity
  8
AM_5
100
AcDbBlockReference
  2
_Open30
 10
66.91256507236436
 20
386.7142887225254
 30
0.0
 41
3.75
 42
3.75
 43
3.75
 50
180.0
  0
INSERT
  5
2A30
330
2983
100
AcDbEntity
  8
AM_5
100
AcDbBlockReference
  2
_Open30
 10
266.9125650723644
 20
386.7142887225254
 30
0.0
 41
3.75
 42
3.75
 43
3.75
  0
MTEXT
  5
2A31
330
2983
100
AcDbEntity
  8
AM_5
 62
     2
100
AcDbMText
 10
166.9125650723644
 20
391.5898054548089
 30
0.0
 40
5.25
 41
0.0
 71
     5
 72
     1
  1
200
 73
     1
 44
1.0
1001
ACAD
1000
MTEXTBEGIN
1070
    73
1070
     1
1070
    44
1040
1.0
1070
    74
1070
     0
1000
MTEXTEND
  0
POINT
  5
2A32
330
2983
100
AcDbEntity
  8
Defpoints
 62
     0
100
AcDbPoint
 10
66.91256507236436
 20
356.1516508325953
 30
0.0
  0
POINT
  5
2A33
330
2983
100
AcDbEntity
  8
Defpoints
 62
     0
100
AcDbPoint
 10
266.9125650723644
 20
356.1516508325953
 30
0.0
  0
POINT
  5
2A34
330
2983
100
AcDbEntity
  8
Defpoints
 62
     0
100
AcDbPoint
 10
266.9125650723644
 20
386.7142887225254
 30
0.0
  0
ENDBLK
  5
29E4
330
2983
100
AcDbEntity
  8
0
100
AcDbBlockEnd
  0
BLOCK
  5
29E5
330
29A7
100
AcDbEntity
  8
0
100
AcDbBlockBegin
  2
*D17
 70
     1
 10
0.0
 20
0.0
 30
0.0
  3
*D17
  1

  0
LINE
  5
29E9
330
29A7
100
AcDbEntity
  8
AM_5
100
AcDbLine
 10
66.41256507236436
 20
357.1516508325954
 30
0.0
 11
34.59376827258201
 21
357.1516508325954
 31
0.0
  0
LINE
  5
29EA
330
29A7
100
AcDbEntity
  8
AM_5
100
AcDbLine
 10
75.41256507236434
 20
280.8516508325954
 30
0.0
 11
34.593768272582
 21
280.8516508325954
 31
0.0
  0
LINE
  5
29EB
330
29A7
100
AcDbEntity
  8
AM_5
100
AcDbLine
 10
36.09376827258201
 20
353.4016508325954
 30
0.0
 11
36.093768272582
 21
284.6016508325954
 31
0.0
  0
INSERT
  5
29EC
330
29A7
100
AcDbEntity
  8
AM_5
100
AcDbBlockReference
  2
_Open30
 10
36.09376827258201
 20
357.1516508325954
 30
0.0
 41
3.75
 42
3.75
 43
3.75
 50
90.0
  0
INSERT
  5
29ED
330
29A7
100
AcDbEntity
  8
AM_5
100
AcDbBlockReference
  2
_Open30
 10
36.093768272582
 20
280.8516508325954
 30
0.0
 41
3.75
 42
3.75
 43
3.75
 50
270.0
  0
MTEXT
  5
29EE
330
29A7
100
AcDbEntity
  8
AM_5
 62
     2
100
AcDbMText
 10
31.21876827258195
 20
319.0016508325954
 30
0.0
 40
5.25
 41
0.0
 71
     5
 72
     1
  1
76.3
 11
0.0000000000000001
 21
1.0
 31
0.0
 73
     1
 44
1.0
1001
ACAD
1000
MTEXTBEGIN
1070
    73
1070
     1
1070
    44
1040
1.0
1070
    74
1070
     0
1000
MTEXTEND
  0
POINT
  5
29EF
330
29A7
100
AcDbEntity
  8
Defpoints
 62
     0
100
AcDbPoint
 10
67.91256507236436
 20
357.1516508325954
 30
0.0
  0
POINT
  5
29F0
330
29A7
100
AcDbEntity
  8
Defpoints
 62
     0
100
AcDbPoint
 10
76.91256507236435
 20
280.8516508325954
 30
0.0
  0
POINT
  5
29F1
330
29A7
100
AcDbEntity
  8
Defpoints
 62
     0
100
AcDbPoint
 10
36.093768272582
 20
280.8516508325954
 30
0.0
  0
ENDBLK
  5
29E6
330
29A7
100
AcDbEntity
  8
0
100
AcDbBlockEnd
  0
BLOCK
  5
29E7
330
29CB
100
AcDbEntity
  8
0
100
AcDbBlockBegin
  2
*D18
 70
     1
 10
0.0
 20
0.0
 30
0.0
  3
*D18
  1

  0
LINE
  5
29D7
330
29CB
100
AcDbEntity
  8
AM_5
100
AcDbLine
 10
319.1585882880585
 20
340.0810203312697
 30
0.0
 11
319.1585882880585
 21
376.6516518425955
 31
0.0
  0
LINE
  5
29D8
330
29CB
100
AcDbEntity
  8
AM_5
100
AcDbLine
 10
344.6585882880586
 20
358.6516508325955
 30
0.0
 11
344.6585882880586
 21
376.6516518425955
 31
0.0
  0
LINE
  5
29D9
330
29CB
100
AcDbEntity
  8
AM_5
100
AcDbLine
 10
322.9085882880585
 20
375.1516518425955
 30
0.0
 11
340.9085882880586
 21
375.1516518425955
 31
0.0
  0
INSERT
  5
29DA
330
29CB
100
AcDbEntity
  8
AM_5
100
AcDbBlockReference
  2
_Open30
 10
319.1585882880585
 20
375.1516518425955
 30
0.0
 41
3.75
 42
3.75
 43
3.75
 50
180.0
  0
INSERT
  5
29DB
330
29CB
100
AcDbEntity
  8
AM_5
100
AcDbBlockReference
  2
_Open30
 10
344.6585882880586
 20
375.1516518425955
 30
0.0
 41
3.75
 42
3.75
 43
3.75
  0
MTEXT
  5
29DC
330
29CB
100
AcDbEntity
  8
AM_5
 62
     2
100
AcDbMText
 10
331.9085882880586
 20
380.027168574879
 30
0.0
 40
5.25
 41
0.0
 71
     5
 72
     1
  1
25.5
 73
     1
 44
1.0
1001
ACAD
1000
MTEXTBEGIN
1070
    73
1070
     1
1070
    44
1040
1.0
1070
    74
1070
     0
1000
MTEXTEND
  0
POINT
  5
29DD
330
29CB
100
AcDbEntity
  8
Defpoints
 62
     0
100
AcDbPoint
 10
319.1585882880585
 20
338.5810203312697
 30
0.0
  0
POINT
  5
29DE
330
29CB
100
AcDbEntity
  8
Defpoints
 62
     0
100
AcDbPoint
 10
344.6585882880586
 20
357.1516508325955
 30
0.0
  0
POINT
  5
29DF
330
29CB
100
AcDbEntity
  8
Defpoints
 62
     0
100
AcDbPoint
 10
344.6585882880586
 20
375.1516518425955
 30
0.0
  0
ENDBLK
  5
29E8
330
29CB
100
AcDbEntity
  8
0
100
AcDbBlockEnd
  0
BLOCK
  5
2A1A
330
2A02
100
AcDbEntity
  8
0
100
AcDbBlockBegin
  2
*D19
 70
     1
 10
0.0
 20
0.0
 30
0.0
  3
*D19
  1

  0
LINE
  5
2A0E
330
2A02
100
AcDbEntity
  8
AM_5
100
AcDbLine
 10
75.31256507236435
 20
344.6516508325954
 30
0.0
 11
53.31256406236434
 21
344.6516508325954
 31
0.0
  0
LINE
  5
2A0F
330
2A02
100
AcDbEntity
  8
AM_5
100
AcDbLine
 10
75.31256507236439
 20
294.8516508325953
 30
0.0
 11
53.31256406236432
 21
294.8516508325953
 31
0.0
  0
LINE
  5
2A10
330
2A02
100
AcDbEntity
  8
AM_5
100
AcDbLine
 10
54.81256406236433
 20
340.9016508325954
 30
0.0
 11
54.81256406236433
 21
298.6016508325953
 31
0.0
  0
INSERT
  5
2A11
330
2A02
100
AcDbEntity
  8
AM_5
100
AcDbBlockReference
  2
_Open30
 10
54.81256406236433
 20
344.6516508325954
 30
0.0
 41
3.75
 42
3.75
 43
3.75
 50
90.0
  0
INSERT
  5
2A12
330
2A02
100
AcDbEntity
  8
AM_5
100
AcDbBlockReference
  2
_Open30
 10
54.81256406236433
 20
294.8516508325953
 30
0.0
 41
3.75
 42
3.75
 43
3.75
 50
270.0
  0
MTEXT
  5
2A13
330
2A02
100
AcDbEntity
  8
AM_5
 62
     2
100
AcDbMText
 10
49.93756406236428
 20
319.7516508325954
 30
0.0
 40
5.25
 41
0.0
 71
     5
 72
     1
  1
49.8
 11
0.0000000000000001
 21
1.0
 31
0.0
 73
     1
 44
1.0
1001
ACAD
1000
MTEXTBEGIN
1070
    73
1070
     1
1070
    44
1040
1.0
1070
    74
1070
     0
1000
MTEXTEND
  0
POINT
  5
2A14
330
2A02
100
AcDbEntity
  8
Defpoints
 62
     0
100
AcDbPoint
 10
76.81256507236435
 20
344.6516508325954
 30
0.0
  0
POINT
  5
2A15
330
2A02
100
AcDbEntity
  8
Defpoints
 62
     0
100
AcDbPoint
 10
76.81256507236439
 20
294.8516508325953
 30
0.0
  0
POINT
  5
2A16
330
2A02
100
AcDbEntity
  8
Defpoints
 62
     0
100
AcDbPoint
 10
54.81256406236433
 20
294.8516508325953
 30
0.0
  0
ENDBLK
  5
2A1B
330
2A02
100
AcDbEntity
  8
0
100
AcDbBlockEnd
  0
BLOCK
  5
2BCE
330
2BB2
100
AcDbEntity
  8
0
100
AcDbBlockBegin
  2
*D20
 70
     1
 10
0.0
 20
0.0
 30
0.0
  3
*D20
  1

  0
LINE
  5
2BDB
330
2BB2
100
AcDbEntity
  8
AM_5
100
AcDbLine
 10
76.61256507236427
 20
206.0044482618677
 30
0.0
 11
53.31256406236431
 21
206.0044482618677
 31
0.0
  0
LINE
  5
2BDC
330
2BB2
100
AcDbEntity
  8
AM_5
100
AcDbLine
 10
76.6125650723642
 20
209.2044482618677
 30
0.0
 11
53.31256406236432
 21
209.2044482618677
 31
0.0
  0
LINE
  5
2BDD
330
2BB2
100
AcDbEntity
  8
AM_5
100
AcDbLine
 10
54.81256406236432
 20
202.2544482618677
 30
0.0
 11
54.81256406236432
 21
198.5044482618677
 31
0.0
  0
LINE
  5
2BDE
330
2BB2
100
AcDbEntity
  8
AM_5
100
AcDbLine
 10
54.81256406236433
 20
212.9544482618677
 30
0.0
 11
54.81256406236433
 21
228.8697583012378
 31
0.0
  0
LINE
  5
2BDF
330
2BB2
100
AcDbEntity
  8
AM_5
100
AcDbLine
 10
54.81256406236432
 20
206.0044482618677
 30
0.0
 11
54.81256406236433
 21
209.2044482618677
 31
0.0
  0
INSERT
  5
2BE0
330
2BB2
100
AcDbEntity
  8
AM_5
100
AcDbBlockReference
  2
_Open30
 10
54.81256406236432
 20
206.0044482618677
 30
0.0
 41
3.75
 42
3.75
 43
3.75
 50
90.0
  0
INSERT
  5
2BE1
330
2BB2
100
AcDbEntity
  8
AM_5
100
AcDbBlockReference
  2
_Open30
 10
54.81256406236433
 20
209.2044482618677
 30
0.0
 41
3.75
 42
3.75
 43
3.75
 50
270.0
  0
MTEXT
  5
2BE2
330
2BB2
100
AcDbEntity
  8
AM_5
 62
     2
100
AcDbMText
 10
49.93704733008082
 20
222.7871032815528
 30
0.0
 40
5.25
 41
0.0
 71
     5
 72
     1
  1
3.2
 11
0.0000000000000001
 21
1.0
 31
0.0
 73
     1
 44
1.0
1001
ACAD
1000
MTEXTBEGIN
1070
    73
1070
     1
1070
    44
1040
1.0
1070
    74
1070
     0
1000
MTEXTEND
  0
POINT
  5
2BE3
330
2BB2
100
AcDbEntity
  8
Defpoints
 62
     0
100
AcDbPoint
 10
78.11256507236428
 20
206.0044482618677
 30
0.0
  0
POINT
  5
2BE4
330
2BB2
100
AcDbEntity
  8
Defpoints
 62
     0
100
AcDbPoint
 10
78.11256507236421
 20
209.2044482618677
 30
0.0
  0
POINT
  5
2BE5
330
2BB2
100
AcDbEntity
  8
Defpoints
 62
     0
100
AcDbPoint
 10
54.81256406236433
 20
209.2044482618677
 30
0.0
  0
ENDBLK
  5
2BCF
330
2BB2
100
AcDbEntity
  8
0
100
AcDbBlockEnd
  0
BLOCK
  5
2C12
330
2BF6
100
AcDbEntity
  8
0
100
AcDbBlockBegin
  2
*D21
 70
     1
 10
0.0
 20
0.0
 30
0.0
  3
*D21
  1

  0
LINE
  5
2C14
330
2BF6
100
AcDbEntity
  8
AM_5
100
AcDbLine
 10
68.91256507236443
 20
202.1044482618675
 30
0.0
 11
34.59376827258199
 21
202.1044482618675
 31
0.0
  0
LINE
  5
2C15
330
2BF6
100
AcDbEntity
  8
AM_5
100
AcDbLine
 10
68.91256507236433
 20
213.1044482618676
 30
0.0
 11
34.593768272582
 21
213.1044482618676
 31
0.0
  0
LINE
  5
2C16
330
2BF6
100
AcDbEntity
  8
AM_5
100
AcDbLine
 10
36.09376827258199
 20
198.3544482618675
 30
0.0
 11
36.09376827258199
 21
194.6044482618675
 31
0.0
  0
LINE
  5
2C17
330
2BF6
100
AcDbEntity
  8
AM_5
100
AcDbLine
 10
36.093768272582
 20
216.8544482618676
 30
0.0
 11
36.093768272582
 21
220.6044482618676
 31
0.0
  0
LINE
  5
2C18
330
2BF6
100
AcDbEntity
  8
AM_5
100
AcDbLine
 10
36.09376827258199
 20
202.1044482618675
 30
0.0
 11
36.093768272582
 21
213.1044482618676
 31
0.0
  0
INSERT
  5
2C19
330
2BF6
100
AcDbEntity
  8
AM_5
100
AcDbBlockReference
  2
_Open30
 10
36.09376827258199
 20
202.1044482618675
 30
0.0
 41
3.75
 42
3.75
 43
3.75
 50
90.0
  0
INSERT
  5
2C1A
330
2BF6
100
AcDbEntity
  8
AM_5
100
AcDbBlockReference
  2
_Open30
 10
36.093768272582
 20
213.1044482618676
 30
0.0
 41
3.75
 42
3.75
 43
3.75
 50
270.0
  0
MTEXT
  5
2C1B
330
2BF6
100
AcDbEntity
  8
AM_5
 62
     2
100
AcDbMText
 10
31.21876827258196
 20
207.6044482618676
 30
0.0
 40
5.25
 41
0.0
 71
     5
 72
     1
  1
11
 11
0.0000000000000001
 21
1.0
 31
0.0
 73
     1
 44
1.0
1001
ACAD
1000
MTEXTBEGIN
1070
    73
1070
     1
1070
    44
1040
1.0
1070
    74
1070
     0
1000
MTEXTEND
  0
POINT
  5
2C1C
330
2BF6
100
AcDbEntity
  8
Defpoints
 62
     0
100
AcDbPoint
 10
70.41256507236443
 20
202.1044482618675
 30
0.0
  0
POINT
  5
2C1D
330
2BF6
100
AcDbEntity
  8
Defpoints
 62
     0
100
AcDbPoint
 10
70.41256507236433
 20
213.1044482618676
 30
0.0
  0
POINT
  5
2C1E
330
2BF6
100
AcDbEntity
  8
Defpoints
 62
     0
100
AcDbPoint
 10
36.093768272582
 20
213.1044482618676
 30
0.0
  0
ENDBLK
  5
2C13
330
2BF6
100
AcDbEntity
  8
0
100
AcDbBlockEnd
  0
BLOCK
  5
2C4C
330
2C30
100
AcDbEntity
  8
0
100
AcDbBlockBegin
  2
*D22
 70
     1
 10
0.0
 20
0.0
 30
0.0
  3
*D22
  1

  0
LINE
  5
2C83
330
2C30
100
AcDbEntity
  8
AM_5
100
AcDbLine
 10
81.71256507236417
 20
209.7044482618677
 30
0.0
 11
81.71256507236417
 21
234.5754513049314
 31
0.0
  0
LINE
  5
2C84
330
2C30
100
AcDbEntity
  8
AM_5
100
AcDbLine
 10
77.1125650723642
 20
209.7044482618676
 30
0.0
 11
77.1125650723642
 21
234.5754513049314
 31
0.0
  0
LINE
  5
2C85
330
2C30
100
AcDbEntity
  8
AM_5
100
AcDbLine
 10
85.46256507236417
 20
233.0754513049313
 30
0.0
 11
89.21256507236417
 21
233.0754513049313
 31
0.0
  0
LINE
  5
2C86
330
2C30
100
AcDbEntity
  8
AM_5
100
AcDbLine
 10
73.3625650723642
 20
233.0754513049313
 30
0.0
 11
69.6125650723642
 21
233.0754513049313
 31
0.0
  0
LINE
  5
2C87
330
2C30
100
AcDbEntity
  8
AM_5
100
AcDbLine
 10
81.71256507236417
 20
233.0754513049313
 30
0.0
 11
77.1125650723642
 21
233.0754513049313
 31
0.0
  0
INSERT
  5
2C88
330
2C30
100
AcDbEntity
  8
AM_5
100
AcDbBlockReference
  2
_Open30
 10
81.71256507236417
 20
233.0754513049313
 30
0.0
 41
3.75
 42
3.75
 43
3.75
 50
180.0
  0
INSERT
  5
2C89
330
2C30
100
AcDbEntity
  8
AM_5
100
AcDbBlockReference
  2
_Open30
 10
77.1125650723642
 20
233.0754513049313
 30
0.0
 41
3.75
 42
3.75
 43
3.75
  0
MTEXT
  5
2C8A
330
2C30
100
AcDbEntity
  8
AM_5
 62
     2
100
AcDbMText
 10
79.41256507236419
 20
237.9504513049313
 30
0.0
 40
5.25
 41
0.0
 71
     5
 72
     1
  1
4.6
 73
     1
 44
1.0
1001
ACAD
1000
MTEXTBEGIN
1070
    73
1070
     1
1070
    44
1040
1.0
1070
    74
1070
     0
1000
MTEXTEND
  0
POINT
  5
2C8B
330
2C30
100
AcDbEntity
  8
Defpoints
 62
     0
100
AcDbPoint
 10
81.71256507236417
 20
208.2044482618677
 30
0.0
  0
POINT
  5
2C8C
330
2C30
100
AcDbEntity
  8
Defpoints
 62
     0
100
AcDbPoint
 10
77.1125650723642
 20
208.2044482618676
 30
0.0
  0
POINT
  5
2C8D
330
2C30
100
AcDbEntity
  8
Defpoints
 62
     0
100
AcDbPoint
 10
77.1125650723642
 20
233.0754513049313
 30
0.0
  0
ENDBLK
  5
2C4D
330
2C30
100
AcDbEntity
  8
0
100
AcDbBlockEnd
  0
BLOCK
  5
2C81
330
2C69
100
AcDbEntity
  8
0
100
AcDbBlockBegin
  2
*D23
 70
     1
 10
0.0
 20
0.0
 30
0.0
  3
*D23
  1

  0
LINE
  5
2C75
330
2C69
100
AcDbEntity
  8
AM_5
100
AcDbLine
 10
67.41256507236433
 20
211.6044482618676
 30
0.0
 11
67.41256507236433
 21
247.7255036592045
 31
0.0
  0
LINE
  5
2C76
330
2C69
100
AcDbEntity
  8
AM_5
100
AcDbLine
 10
266.4125650723643
 20
211.6044482618711
 30
0.0
 11
266.4125650723643
 21
247.7255036592045
 31
0.0
  0
LINE
  5
2C77
330
2C69
100
AcDbEntity
  8
AM_5
100
AcDbLine
 10
71.16256507236433
 20
246.2255036592045
 30
0.0
 11
262.6625650723643
 21
246.2255036592045
 31
0.0
  0
INSERT
  5
2C78
330
2C69
100
AcDbEntity
  8
AM_5
100
AcDbBlockReference
  2
_Open30
 10
67.41256507236433
 20
246.2255036592045
 30
0.0
 41
3.75
 42
3.75
 43
3.75
 50
180.0
  0
INSERT
  5
2C79
330
2C69
100
AcDbEntity
  8
AM_5
100
AcDbBlockReference
  2
_Open30
 10
266.4125650723643
 20
246.2255036592045
 30
0.0
 41
3.75
 42
3.75
 43
3.75
  0
MTEXT
  5
2C7A
330
2C69
100
AcDbEntity
  8
AM_5
 62
     2
100
AcDbMText
 10
166.9125650723643
 20
251.1005036592045
 30
0.0
 40
5.25
 41
0.0
 71
     5
 72
     1
  1
199
 73
     1
 44
1.0
1001
ACAD
1000
MTEXTBEGIN
1070
    73
1070
     1
1070
    44
1040
1.0
1070
    74
1070
     0
1000
MTEXTEND
  0
POINT
  5
2C7B
330
2C69
100
AcDbEntity
  8
Defpoints
 62
     0
100
AcDbPoint
 10
67.41256507236433
 20
210.1044482618676
 30
0.0
  0
POINT
  5
2C7C
330
2C69
100
AcDbEntity
  8
Defpoints
 62
     0
100
AcDbPoint
 10
266.4125650723643
 20
210.1044482618711
 30
0.0
  0
POINT
  5
2C7D
330
2C69
100
AcDbEntity
  8
Defpoints
 62
     0
100
AcDbPoint
 10
266.4125650723643
 20
246.2255036592045
 30
0.0
  0
ENDBLK
  5
2C82
330
2C69
100
AcDbEntity
  8
0
100
AcDbBlockEnd
  0
BLOCK
  5
2CC8
330
2CAC
100
AcDbEntity
  8
0
100
AcDbBlockBegin
  2
*D24
 70
     1
 10
0.0
 20
0.0
 30
0.0
  3
*D24
  1

  0
LINE
  5
2CCA
330
2CAC
100
AcDbEntity
  8
AM_5
100
AcDbLine
 10
280.1096321967174
 20
213.6044482618691
 30
0.0
 11
280.1096321967174
 21
247.7255036592045
 31
0.0
  0
LINE
  5
2CCB
330
2CAC
100
AcDbEntity
  8
AM_5
100
AcDbLine
 10
284.1096321967174
 20
214.6044482618691
 30
0.0
 11
284.1096321967174
 21
247.7255036592045
 31
0.0
  0
LINE
  5
2CCC
330
2CAC
100
AcDbEntity
  8
AM_5
100
AcDbLine
 10
276.3596321967174
 20
246.2255036592045
 30
0.0
 11
272.6096321967174
 21
246.2255036592045
 31
0.0
  0
LINE
  5
2CCD
330
2CAC
100
AcDbEntity
  8
AM_5
100
AcDbLine
 10
287.8596321967174
 20
246.2255036592045
 30
0.0
 11
298.7346321967174
 21
246.2255036592045
 31
0.0
  0
LINE
  5
2CCE
330
2CAC
100
AcDbEntity
  8
AM_5
100
AcDbLine
 10
280.1096321967174
 20
246.2255036592045
 30
0.0
 11
284.1096321967174
 21
246.2255036592045
 31
0.0
  0
INSERT
  5
2CCF
330
2CAC
100
AcDbEntity
  8
AM_5
100
AcDbBlockReference
  2
_Open30
 10
280.1096321967174
 20
246.2255036592045
 30
0.0
 41
3.75
 42
3.75
 43
3.75
  0
INSERT
  5
2CD0
330
2CAC
100
AcDbEntity
  8
AM_5
100
AcDbBlockReference
  2
_Open30
 10
284.1096321967174
 20
246.2255036592045
 30
0.0
 41
3.75
 42
3.75
 43
3.75
 50
180.0
  0
MTEXT
  5
2CD1
330
2CAC
100
AcDbEntity
  8
AM_5
 62
     2
100
AcDbMText
 10
295.1721321967174
 20
251.1005036592045
 30
0.0
 40
5.25
 41
0.0
 71
     5
 72
     1
  1
4
 73
     1
 44
1.0
1001
ACAD
1000
MTEXTBEGIN
1070
    73
1070
     1
1070
    44
1040
1.0
1070
    74
1070
     0
1000
MTEXTEND
  0
POINT
  5
2CD2
330
2CAC
100
AcDbEntity
  8
Defpoints
 62
     0
100
AcDbPoint
 10
280.1096321967174
 20
212.1044482618691
 30
0.0
  0
POINT
  5
2CD3
330
2CAC
100
AcDbEntity
  8
Defpoints
 62
     0
100
AcDbPoint
 10
284.1096321967174
 20
213.1044482618691
 30
0.0
  0
POINT
  5
2CD4
330
2CAC
100
AcDbEntity
  8
Defpoints
 62
     0
100
AcDbPoint
 10
284.1096321967174
 20
246.2255036592045
 30
0.0
  0
ENDBLK
  5
2CC9
330
2CAC
100
AcDbEntity
  8
0
100
AcDbBlockEnd
  0
BLOCK
  5
2D3C
330
2CE6
100
AcDbEntity
  8
0
100
AcDbBlockBegin
  2
*D25
 70
     1
 10
0.0
 20
0.0
 30
0.0
  3
*D25
  1

  0
LINE
  5
2D54
330
2CE6
100
AcDbEntity
  8
AM_5
100
AcDbLine
 10
79.41256507236423
 20
204.5044482618677
 30
0.0
 11
79.41256507236423
 21
173.9979661734238
 31
0.0
  0
LINE
  5
2D55
330
2CE6
100
AcDbEntity
  8
AM_5
100
AcDbLine
 10
149.4125650723644
 20
204.5044482618677
 30
0.0
 11
149.4125650723644
 21
173.9979661734238
 31
0.0
  0
LINE
  5
2D56
330
2CE6
100
AcDbEntity
  8
AM_5
100
AcDbLine
 10
83.16256507236422
 20
175.4979661734238
 30
0.0
 11
145.6625650723644
 21
175.4979661734238
 31
0.0
  0
INSERT
  5
2D57
330
2CE6
100
AcDbEntity
  8
AM_5
100
AcDbBlockReference
  2
_Open30
 10
79.41256507236423
 20
175.4979661734238
 30
0.0
 41
3.75
 42
3.75
 43
3.75
 50
180.0
  0
INSERT
  5
2D58
330
2CE6
100
AcDbEntity
  8
AM_5
100
AcDbBlockReference
  2
_Open30
 10
149.4125650723644
 20
175.4979661734238
 30
0.0
 41
3.75
 42
3.75
 43
3.75
  0
MTEXT
  5
2D59
330
2CE6
100
AcDbEntity
  8
AM_5
 62
     2
100
AcDbMText
 10
114.4125650723643
 20
180.3729661734238
 30
0.0
 40
5.25
 41
0.0
 71
     5
 72
     1
  1
70
 73
     1
 44
1.0
1001
ACAD
1000
MTEXTBEGIN
1070
    73
1070
     1
1070
    44
1040
1.0
1070
    74
1070
     0
1000
MTEXTEND
  0
POINT
  5
2D5A
330
2CE6
100
AcDbEntity
  8
Defpoints
 62
     0
100
AcDbPoint
 10
79.41256507236423
 20
206.0044482618677
 30
0.0
  0
POINT
  5
2D5B
330
2CE6
100
AcDbEntity
  8
Defpoints
 62
     0
100
AcDbPoint
 10
149.4125650723644
 20
206.0044482618677
 30
0.0
  0
POINT
  5
2D5C
330
2CE6
100
AcDbEntity
  8
Defpoints
 62
     0
100
AcDbPoint
 10
149.4125650723644
 20
175.4979661734238
 30
0.0
  0
ENDBLK
  5
2D3D
330
2CE6
100
AcDbEntity
  8
0
100
AcDbBlockEnd
  0
BLOCK
  5
2D3E
330
2D0C
100
AcDbEntity
  8
0
100
AcDbBlockBegin
  2
*D26
 70
     1
 10
0.0
 20
0.0
 30
0.0
  3
*D26
  1

  0
LINE
  5
2D42
330
2D0C
100
AcDbEntity
  8
AM_5
100
AcDbLine
 10
149.4125650723644
 20
204.5044482618677
 30
0.0
 11
149.4125650723644
 21
173.9979661734238
 31
0.0
  0
LINE
  5
2D43
330
2D0C
100
AcDbEntity
  8
AM_5
100
AcDbLine
 10
184.4125650723643
 20
204.5044482618683
 30
0.0
 11
184.4125650723643
 21
173.9979661734238
 31
0.0
  0
LINE
  5
2D44
330
2D0C
100
AcDbEntity
  8
AM_5
100
AcDbLine
 10
153.1625650723644
 20
175.4979661734238
 30
0.0
 11
180.6625650723643
 21
175.4979661734238
 31
0.0
  0
INSERT
  5
2D45
330
2D0C
100
AcDbEntity
  8
AM_5
100
AcDbBlockReference
  2
_Open30
 10
149.4125650723644
 20
175.4979661734238
 30
0.0
 41
3.75
 42
3.75
 43
3.75
 50
180.0
  0
INSERT
  5
2D46
330
2D0C
100
AcDbEntity
  8
AM_5
100
AcDbBlockReference
  2
_Open30
 10
184.4125650723643
 20
175.4979661734238
 30
0.0
 41
3.75
 42
3.75
 43
3.75
  0
MTEXT
  5
2D47
330
2D0C
100
AcDbEntity
  8
AM_5
 62
     2
100
AcDbMText
 10
166.9125650723644
 20
180.3729661734238
 30
0.0
 40
5.25
 41
0.0
 71
     5
 72
     1
  1
35
 73
     1
 44
1.0
1001
ACAD
1000
MTEXTBEGIN
1070
    73
1070
     1
1070
    44
1040
1.0
1070
    74
1070
     0
1000
MTEXTEND
  0
POINT
  5
2D48
330
2D0C
100
AcDbEntity
  8
Defpoints
 62
     0
100
AcDbPoint
 10
149.4125650723644
 20
206.0044482618677
 30
0.0
  0
POINT
  5
2D49
330
2D0C
100
AcDbEntity
  8
Defpoints
 62
     0
100
AcDbPoint
 10
184.4125650723643
 20
206.0044482618683
 30
0.0
  0
POINT
  5
2D4A
330
2D0C
100
AcDbEntity
  8
Defpoints
 62
     0
100
AcDbPoint
 10
184.4125650723643
 20
175.4979661734238
 30
0.0
  0
ENDBLK
  5
2D3F
330
2D0C
100
AcDbEntity
  8
0
100
AcDbBlockEnd
  0
BLOCK
  5
2D40
330
2D26
100
AcDbEntity
  8
0
100
AcDbBlockBegin
  2
*D27
 70
     1
 10
0.0
 20
0.0
 30
0.0
  3
*D27
  1

  0
LINE
  5
2D4B
330
2D26
100
AcDbEntity
  8
AM_5
100
AcDbLine
 10
184.4125650723643
 20
204.5044482618683
 30
0.0
 11
184.4125650723643
 21
173.9979661734239
 31
0.0
  0
LINE
  5
2D4C
330
2D26
100
AcDbEntity
  8
AM_5
100
AcDbLine
 10
254.4125650723645
 20
204.5044482618708
 30
0.0
 11
254.4125650723645
 21
173.9979661734239
 31
0.0
  0
LINE
  5
2D4D
330
2D26
100
AcDbEntity
  8
AM_5
100
AcDbLine
 10
188.1625650723643
 20
175.4979661734239
 30
0.0
 11
250.6625650723645
 21
175.4979661734239
 31
0.0
  0
INSERT
  5
2D4E
330
2D26
100
AcDbEntity
  8
AM_5
100
AcDbBlockReference
  2
_Open30
 10
184.4125650723643
 20
175.4979661734239
 30
0.0
 41
3.75
 42
3.75
 43
3.75
 50
180.0
  0
INSERT
  5
2D4F
330
2D26
100
AcDbEntity
  8
AM_5
100
AcDbBlockReference
  2
_Open30
 10
254.4125650723645
 20
175.4979661734239
 30
0.0
 41
3.75
 42
3.75
 43
3.75
  0
MTEXT
  5
2D50
330
2D26
100
AcDbEntity
  8
AM_5
 62
     2
100
AcDbMText
 10
219.4125650723644
 20
180.3729661734239
 30
0.0
 40
5.25
 41
0.0
 71
     5
 72
     1
  1
70
 73
     1
 44
1.0
1001
ACAD
1000
MTEXTBEGIN
1070
    73
1070
     1
1070
    44
1040
1.0
1070
    74
1070
     0
1000
MTEXTEND
  0
POINT
  5
2D51
330
2D26
100
AcDbEntity
  8
Defpoints
 62
     0
100
AcDbPoint
 10
184.4125650723643
 20
206.0044482618683
 30
0.0
  0
POINT
  5
2D52
330
2D26
100
AcDbEntity
  8
Defpoints
 62
     0
100
AcDbPoint
 10
254.4125650723645
 20
206.0044482618708
 30
0.0
  0
POINT
  5
2D53
330
2D26
100
AcDbEntity
  8
Defpoints
 62
     0
100
AcDbPoint
 10
254.4125650723645
 20
175.4979661734239
 30
0.0
  0
ENDBLK
  5
2D41
330
2D26
100
AcDbEntity
  8
0
100
AcDbBlockEnd
  0
ENDSEC
  0
SECTION
  2
ENTITIES
  0
INSERT
  5
A9A
330
1F
100
AcDbEntity
  8
0
370
     0
100
AcDbBlockReference
  2
TK-A3
 10
0.0
 20
0.0
 30
0.0
 41
1.5
 42
1.5
 43
1.5
1001
GENIUS_GENOREF_13
1005
BB6
1001
GENIUS_GENODEF_13
1002
{
1000
HIER
1070
     0
1002
}
1002
{
1000
MANEDIT
1070
     0
1002
}
1002
{
1000
NOSEL
1070
     0
1002
}
1002
{
1000
BEHIND
1070
     0
1002
}
1002
{
1000
OTHER
1070
     0
1002
}
1002
{
1000
REACTOR
1002
}
1001
GENIUS_GENOBJ-N-SDF_13
1002
{
1000
OWNER
1000
GEN
1002
}
1001
GENIUS_GENSCREG_15
1040
1.5
1040
1.0
1011
0.0
1021
0.0
1031
0.0
1011
604.4999999999999
1021
420.0000000000001
1031
0.0
1070
     3
  0
INSERT
  5
A9B
330
1F
100
AcDbEntity
  8
0
370
     0
100
AcDbBlockReference
 66
     1
  2
TK-TITLE
 10
604.4999999999999
 20
0.0
 30
0.0
 41
1.5
 42
1.5
 43
1.5
1001
GENIUS_GENOREF_13
1005
BB6
  0
ATTRIB
  5
C81
330
A9B
100
AcDbEntity
  8
0
100
AcDbText
 10
592.4965362156813
 20
2.557784151592554
 30
0.0
 40
3.75
  1

100
AcDbAttribute
  2
GEN-TITLE-NR2
 70
     0
  0
ATTRIB
  5
C82
330
A9B
100
AcDbEntity
  8
0
100
AcDbText
 10
478.28622147622
 20
19.24185648846566
 30
0.0
 40
5.25
  1
VMA-10
100
AcDbAttribute
  2
GEN-TITLE-DES1
 70
     0
  0
ATTRIB
  5
C83
330
A9B
100
AcDbEntity
  8
0
100
AcDbText
 10
478.5
 20
13.72499999999992
 30
0.0
 40
3.75
  1

100
AcDbAttribute
  2
GEN-TITLE-DES2
 70
     0
  0
ATTRIB
  5
C84
330
A9B
100
AcDbEntity
  8
0
100
AcDbText
 10
478.5
 20
2.999999999999936
 30
0.0
 40
4.5
  1

100
AcDbAttribute
  2
GEN-TITLE-NR1
 70
     0
  0
ATTRIB
  5
C85
330
A9B
100
AcDbEntity
  8
0
100
AcDbText
 10
381.0571986247063
 20
64.94999999999987
 30
0.0
 40
4.5
  1
ポリカーボネート
100
AcDbAttribute
  2
GEN-TITLE-MAT1
 70
     0
  0
ATTRIB
  5
C86
330
A9B
100
AcDbEntity
  8
0
100
AcDbText
 10
381.0571986247063
 20
49.94999999999986
 30
0.0
 40
4.5
  1
透明
100
AcDbAttribute
  2
GEN-TITLE-MAT2
 70
     0
  0
ATTRIB
  5
C87
330
A9B
100
AcDbEntity
  8
0
100
AcDbText
 10
339.5058886310857
 20
24.29999999999991
 30
0.0
 40
4.5
  1
1
 72
     2
 11
341.0808886310857
 21
23.69999999999991
 31
0.0
100
AcDbAttribute
  2
GEN-TITLE-QTY
 70
     0
 74
     1
  0
ATTRIB
  5
C88
330
A9B
100
AcDbEntity
  8
0
100
AcDbText
 10
327.901494475296
 20
43.04999999999996
 30
0.0
 40
4.5
  1
1:1.5
 72
     2
 11
337.7628905783639
 21
42.44999999999996
 31
0.0
100
AcDbAttribute
  2
GEN-TITLE-SCA
 70
     0
 74
     1
  0
ATTRIB
  5
C89
330
A9B
100
AcDbEntity
  8
0
100
AcDbText
 10
319.2462102034351
 20
5.982513806415996
 30
0.0
 40
4.5
  1
2010/05/12
 72
     1
 11
334.1742072506792
 21
5.382513806415996
 31
0.0
100
AcDbAttribute
  2
GEN-TITLE-DAT
 70
     0
 74
     1
  0
SEQEND
  5
C80
330
A9B
100
AcDbEntity
  8
0
370
     0
  0
ARC
  5
B20
330
1F
100
AcDbEntity
  8
TK3
100
AcDbCircle
 10
281.1096321967174
 20
212.1044482618691
 30
0.0
 40
1.0
100
AcDbArc
 50
90.0
 51
180.0
1001
GENIUS_GENOBJ-N-FIL_13
1002
{
1000
OWNER
1000
GEN
1002
}
1001
GENIUS_GENODEF_13
1002
{
1000
HIER
1070
     0
1002
}
1002
{
1000
MANEDIT
1070
     0
1002
}
1002
{
1000
NOSEL
1070
     0
1002
}
1002
{
1000
BEHIND
1070
     0
1002
}
1002
{
1000
OTHER
1070
     0
1002
}
1002
{
1000
REACTOR
1002
}
  0
ARC
  5
B21
330
1F
100
AcDbEntity
  8
TK3
100
AcDbCircle
 10
281.1096321967174
 20
203.1044482618691
 30
0.0
 40
1.0
100
AcDbArc
 50
180.0
 51
270.0
1001
GENIUS_GENODEF_13
1002
{
1000
HIER
1070
     0
1002
}
1002
{
1000
MANEDIT
1070
     0
1002
}
1002
{
1000
NOSEL
1070
     0
1002
}
1002
{
1000
BEHIND
1070
     0
1002
}
1002
{
1000
OTHER
1070
     0
1002
}
1002
{
1000
REACTOR
1002
}
1001
GENIUS_GENOBJ-N-FIL_13
1002
{
1000
OWNER
1000
GEN
1002
}
  0
LINE
  5
B22
330
1F
100
AcDbEntity
  8
TK3
100
AcDbLine
 10
284.1096321967174
 20
202.1044482618691
 30
0.0
 11
284.1096321967174
 21
213.1044482618691
 31
0.0
  0
LINE
  5
B23
102
{ACAD_REACTORS
330
2CB9
102
}
330
1F
100
AcDbEntity
  8
TK3
100
AcDbLine
 10
281.1096321967174
 20
213.1044482618691
 30
0.0
 11
284.1096321967174
 21
213.1044482618691
 31
0.0
  0
LINE
  5
B24
330
1F
100
AcDbEntity
  8
TK3
100
AcDbLine
 10
281.1096321967174
 20
202.1044482618691
 30
0.0
 11
284.1096321967174
 21
202.1044482618691
 31
0.0
  0
LINE
  5
B25
102
{ACAD_REACTORS
330
2CB9
102
}
330
1F
100
AcDbEntity
  8
TK3
100
AcDbLine
 10
280.1096321967174
 20
203.1044482618691
 30
0.0
 11
280.1096321967174
 21
212.1044482618691
 31
0.0
  0
LINE
  5
B26
330
1F
100
AcDbEntity
  8
AM_7
  6
AM_ISO08W050x2
100
AcDbLine
 10
277.1096321967174
 20
207.6044482618691
 30
0.0
 11
287.1096321967174
 21
207.6044482618691
 31
0.0
1001
GENIUS_GENOBJ-N-CEN_13
1002
{
1000
OWNER
1000
GEN
1002
}
1001
GENIUS_GENODEF_13
1002
{
1000
HIER
1070
     0
1002
}
1002
{
1000
MANEDIT
1070
     0
1002
}
1002
{
1000
NOSEL
1070
     0
1002
}
1002
{
1000
BEHIND
1070
     0
1002
}
1002
{
1000
OTHER
1070
     0
1002
}
1002
{
1000
REACTOR
1002
}
  0
LINE
  5
B2D
330
1F
100
AcDbEntity
  8
AM_7
  6
AM_ISO08W050x2
100
AcDbLine
 10
166.9125650723642
 20
216.1044482618691
 30
0.0
 11
166.9125650723644
 21
199.104448261869
 31
0.0
1001
GENIUS_GENODEF_13
1002
{
1000
HIER
1070
     0
1002
}
1002
{
1000
MANEDIT
1070
     0
1002
}
1002
{
1000
NOSEL
1070
     0
1002
}
1002
{
1000
BEHIND
1070
     0
1002
}
1002
{
1000
OTHER
1070
     0
1002
}
1002
{
1000
REACTOR
1002
}
1001
GENIUS_GENOBJ-N-CEN_13
1002
{
1000
OWNER
1000
GEN
1002
}
1001
GENIUS_GENCEN_19
1002
{
1040
3.0
1002
}
  0
LINE
  5
B2E
330
1F
100
AcDbEntity
  8
TK3
100
AcDbLine
 10
166.9125650723642
 20
213.1044482618691
 30
0.0
 11
70.41256507236422
 21
213.1044482618676
 31
0.0
  0
LINE
  5
B2F
330
1F
100
AcDbEntity
  8
TK3
100
AcDbLine
 10
166.9125650723643
 20
202.1044482618691
 30
0.0
 11
70.41256507236444
 21
202.1044482618675
 31
0.0
  0
LINE
  5
B30
330
1F
100
AcDbEntity
  8
TK3
100
AcDbLine
 10
67.41256507236439
 20
205.1044482618675
 30
0.0
 11
67.41256507236433
 21
210.1044482618676
 31
0.0
  0
ARC
  5
B31
102
{ACAD_REACTORS
330
2C03
102
}
330
1F
100
AcDbEntity
  8
TK3
100
AcDbCircle
 10
70.41256507236439
 20
205.1044482618675
 30
0.0
 40
3.0
100
AcDbArc
 50
180.0000000000008
 51
270.0000000000008
1001
GENIUS_GENOBJ-N-FIL_13
1002
{
1000
OWNER
1000
GEN
1002
}
1001
GENIUS_GENODEF_13
1002
{
1000
HIER
1070
     0
1002
}
1002
{
1000
MANEDIT
1070
     0
1002
}
1002
{
1000
NOSEL
1070
     0
1002
}
1002
{
1000
BEHIND
1070
     0
1002
}
1002
{
1000
OTHER
1070
     0
1002
}
1002
{
1000
REACTOR
1002
}
  0
ARC
  5
B32
102
{ACAD_REACTORS
330
2C03
330
2C74
102
}
330
1F
100
AcDbEntity
  8
TK3
100
AcDbCircle
 10
70.41256507236433
 20
210.1044482618676
 30
0.0
 40
3.0
100
AcDbArc
 50
90.00000000000081
 51
180.0000000000008
1001
GENIUS_GENOBJ-N-FIL_13
1002
{
1000
OWNER
1000
GEN
1002
}
1001
GENIUS_GENODEF_13
1002
{
1000
HIER
1070
     0
1002
}
1002
{
1000
MANEDIT
1070
     0
1002
}
1002
{
1000
NOSEL
1070
     0
1002
}
1002
{
1000
BEHIND
1070
     0
1002
}
1002
{
1000
OTHER
1070
     0
1002
}
1002
{
1000
REACTOR
1002
}
  0
LWPOLYLINE
  5
B33
102
{ACAD_REACTORS
330
2C3D
102
}
330
1F
100
AcDbEntity
  8
TK3
100
AcDbPolyline
 90
        8
 70
     1
 43
0.0
 10
80.71256507236423
 20
206.0044482618677
 10
78.11256507236423
 20
206.0044482618677
 42
-0.4142135623730951
 10
77.11256507236424
 20
207.0044482618677
 10
77.1125650723642
 20
208.2044482618677
 42
-0.4142135623730951
 10
78.11256507236418
 20
209.2044482618677
 10
80.71256507236414
 20
209.2044482618677
 42
-0.4142135623730951
 10
81.71256507236417
 20
208.2044482618677
 10
81.71256507236423
 20
207.0044482618677
 42
-0.4142135623730989
1001
GENIUS_GENREC_14
1002
{
1000
PYDIR
1011
81.71256507236417
1021
209.2044482618677
1031
0.0
1002
}
1002
{
1000
PXDIR
1011
77.11256507236424
1021
206.0044482618677
1031
0.0
1002
}
1002
{
1000
PORI
1011
81.71256507236423
1021
206.0044482618677
1031
0.0
1002
}
1002
{
1000
PINS
1011
79.41256507236419
1021
207.6044482618677
1031
0.0
1002
}
1002
{
1000
HVAL
1000
3.2
1002
}
1002
{
1000
H
1070
     2
1002
}
1002
{
1000
WVAL
1000
4.6
1002
}
1002
{
1000
W
1070
     2
1002
}
1002
{
1000
C
1070
     4
1002
}
1001
GENIUS_GENODEF_13
1002
{
1000
HIER
1070
     0
1002
}
1002
{
1000
MANEDIT
1070
     0
1002
}
1002
{
1000
NOSEL
1070
     0
1002
}
1002
{
1000
BEHIND
1070
     0
1002
}
1002
{
1000
OTHER
1070
     0
1002
}
1002
{
1000
REACTOR
1002
}
1001
GENIUS_GENOBJ-N-REC_13
1002
{
1000
OWNER
1000
GEN
1002
}
  0
LWPOLYLINE
  5
B84
102
{ACAD_REACTORS
330
EC5
330
EE9
102
}
330
1F
100
AcDbEntity
  8
TK1
100
AcDbPolyline
 90
        4
 70
     0
 43
0.0
 10
440.6873599411658
 20
174.5788945517525
 10
349.1873599411658
 20
174.5788945517525
 42
0.4142135623730951
 10
346.1873599411658
 20
171.5788945517525
 10
346.1873599411658
 20
147.5788945517525
1001
GENIUS_GENREC_14
1002
{
1000
PYDIR
1011
346.1873599411658
1021
174.5788945517525
1031
0.0
1002
}
1002
{
1000
PXDIR
1011
497.1873599411658
1021
120.5788945517525
1031
0.0
1002
}
1002
{
1000
PORI
1011
346.1873599411658
1021
120.5788945517525
1031
0.0
1002
}
1002
{
1000
PINS
1011
346.1873599411658
1021
120.5788945517525
1031
0.0
1002
}
1002
{
1000
HVAL
1000
54
1002
}
1002
{
1000
H
1070
     2
1002
}
1002
{
1000
WVAL
1000
151
1002
}
1002
{
1000
W
1070
     2
1002
}
1002
{
1000
C
1070
     1
1002
}
1001
GENIUS_GENOBJ-N-REC_13
1002
{
1000
OWNER
1000
GEN
1002
}
1001
GENIUS_GENODEF_13
1002
{
1000
HIER
1070
     0
1002
}
1002
{
1000
MANEDIT
1070
     0
1002
}
1002
{
1000
NOSEL
1070
     0
1002
}
1002
{
1000
BEHIND
1070
     0
1002
}
1002
{
1000
OTHER
1070
     0
1002
}
1002
{
1000
REACTOR
1002
}
  0
LINE
  5
B86
330
1F
100
AcDbEntity
  8
AM_7
100
AcDbLine
 10
440.6873599411658
 20
177.5788945517525
 30
0.0
 11
440.6873599411658
 21
117.5788945517524
 31
0.0
1001
GENIUS_GENODEF_13
1002
{
1000
HIER
1070
     0
1002
}
1002
{
1000
MANEDIT
1070
     0
1002
}
1002
{
1000
NOSEL
1070
     0
1002
}
1002
{
1000
BEHIND
1070
     0
1002
}
1002
{
1000
OTHER
1070
     0
1002
}
1002
{
1000
REACTOR
1002
}
1001
GENIUS_GENOBJ-N-CEN_13
1002
{
1000
OWNER
1000
GEN
1002
}
1001
GENIUS_GENCEN_19
1002
{
1040
3.0
1002
}
  0
LINE
  5
B87
330
1F
100
AcDbEntity
  8
AM_7
  6
AM_ISO08W050x2
100
AcDbLine
 10
353.1873599411658
 20
181.0788945517525
 30
0.0
 11
356.1873599411658
 21
181.0788945517525
 31
0.0
1001
GENIUS_GENOREF_13
1005
BB1
  0
LINE
  5
B88
330
1F
100
AcDbEntity
  8
AM_7
  6
AM_ISO08W050x2
100
AcDbLine
 10
353.1873599411658
 20
181.0788945517525
 30
0.0
 11
353.1873599411658
 21
184.0788945517525
 31
0.0
1001
GENIUS_GENOREF_13
1005
BB1
  0
LINE
  5
B89
330
1F
100
AcDbEntity
  8
AM_7
  6
AM_ISO08W050x2
100
AcDbLine
 10
353.1873599411658
 20
181.0788945517525
 30
0.0
 11
350.1873599411658
 21
181.0788945517525
 31
0.0
1001
GENIUS_GENOREF_13
1005
BB1
  0
LINE
  5
B8A
330
1F
100
AcDbEntity
  8
AM_7
  6
AM_ISO08W050x2
100
AcDbLine
 10
353.1873599411658
 20
181.0788945517525
 30
0.0
 11
353.1873599411658
 21
178.0788945517525
 31
0.0
1001
GENIUS_GENOREF_13
1005
BB1
  0
CIRCLE
  5
BA5
330
1F
100
AcDbEntity
  8
TK1
100
AcDbCircle
 10
353.1873599411658
 20
181.0788945517525
 30
0.0
 40
1.75
  0
MTEXT
  5
BAD
330
1F
100
AcDbEntity
  8
0
100
AcDbMText
 10
333.3679074824794
 20
209.8252052541254
 30
0.0
 40
5.0
 41
41.42854838884113
 71
     1
 72
     5
  1
取付穴加工図
 73
     1
 44
1.0
1001
ACAD
1000
MTEXTBEGIN
1070
    73
1070
     1
1070
    44
1040
1.0
1070
    74
1070
     0
1000
MTEXTEND
  0
POINT
  5
BB1
330
1F
100
AcDbEntity
  8
0
 60
     1
100
AcDbPoint
 10
46.45979601267595
 20
49.04046403679285
 30
0.0
1001
GENIUS_GENOLIS_13
1002
{
1000
ENT
1005
B8A
1005
B89
1005
B88
1005
B87
1002
}
1001
GENIUS_GENODEF_13
1002
{
1000
HIER
1070
    10
1002
}
1002
{
1000
MANEDIT
1070
     0
1002
}
1002
{
1000
NOSEL
1070
     0
1002
}
1002
{
1000
BEHIND
1070
     0
1002
}
1002
{
1000
OTHER
1070
     0
1002
}
1002
{
1000
REACTOR
1002
}
1001
GENIUS_GENOENT_13
1002
{
1000
MYREF
1005
BB1
1002
}
1002
{
1000
GRP
1005
0
1002
}
1001
GENIUS_GENOBJ-N-CRS_13
1002
{
1000
OWNER
1000
GEN
1002
}
  0
POINT
  5
BB6
330
1F
100
AcDbEntity
  8
0
 60
     1
100
AcDbPoint
 10
46.45979601267595
 20
49.04046403679285
 30
0.0
1001
GENIUS_GENOENT_13
1002
{
1000
MYREF
1005
BB6
1002
}
1002
{
1000
GRP
1005
0
1002
}
1001
GENIUS_GENOBJ-N-TIT_13
1002
{
1000
OWNER
1000
GEN
1002
}
1001
GENIUS_GENODEF_13
1002
{
1000
HIER
1070
     1
1002
}
1002
{
1000
MANEDIT
1070
     0
1002
}
1002
{
1000
NOSEL
1070
     0
1002
}
1002
{
1000
BEHIND
1070
     0
1002
}
1002
{
1000
OTHER
1070
     0
1002
}
1002
{
1000
REACTOR
1002
}
1001
GENIUS_GENOLIS_13
1002
{
1000
ENT
1005
A9B
1005
A9A
1005
C7F
1002
}
1001
GENIUS_GENTITLE_13
1002
{
1000
BORDER
1000
TK-A3
1002
}
1002
{
1000
TITLE
1000
TK-TITLE
1002
}
1002
{
1000
SCALE
1000
1:1.5
1002
}
1002
{
1000
TITLESTD
1000
ISO
1002
}
1002
{
1000
HRA
1005
A9A
1002
}
1002
{
1000
HTIT
1005
A9B
1002
}
1002
{
1000
GENIUSID
1005
BB6
1002
}
1002
{
1000
INVTXTID
1005
0
1002
}
1002
{
1000
UNCHG
1002
{
1000
GEN-TITLE-SIZ
1000
GEN-TITLE-SCA
1002
}
1002
}
  0
LWPOLYLINE
  5
C9C
102
{ACAD_REACTORS
330
EE9
102
}
330
1F
100
AcDbEntity
  8
TK1
100
AcDbPolyline
 90
        4
 70
     0
 43
0.0
 10
440.6873599411658
 20
120.5788945517525
 10
349.1873599411658
 20
120.5788945517525
 42
-0.4142135623730951
 10
346.1873599411658
 20
123.5788945517525
 10
346.1873599411658
 20
147.5788945517525
1001
GENIUS_GENREC_14
1002
{
1000
PYDIR
1011
346.1873599411658
1021
120.5788945517525
1031
0.0
1002
}
1002
{
1000
PXDIR
1011
497.1873599411658
1021
174.5788945517525
1031
0.0
1002
}
1002
{
1000
PORI
1011
346.1873599411658
1021
174.5788945517525
1031
0.0
1002
}
1002
{
1000
PINS
1011
346.1873599411658
1021
174.5788945517525
1031
0.0
1002
}
1002
{
1000
HVAL
1000
54
1002
}
1002
{
1000
H
1070
     2
1002
}
1002
{
1000
WVAL
1000
151
1002
}
1002
{
1000
W
1070
     2
1002
}
1002
{
1000
C
1070
     1
1002
}
1001
GENIUS_GENOBJ-N-REC_13
1002
{
1000
OWNER
1000
GEN
1002
}
1001
GENIUS_GENODEF_13
1002
{
1000
HIER
1070
     0
1002
}
1002
{
1000
MANEDIT
1070
     0
1002
}
1002
{
1000
NOSEL
1070
     0
1002
}
1002
{
1000
BEHIND
1070
     0
1002
}
1002
{
1000
OTHER
1070
     0
1002
}
1002
{
1000
REACTOR
1002
}
  0
LWPOLYLINE
  5
C9D
102
{ACAD_REACTORS
330
EC5
102
}
330
1F
100
AcDbEntity
  8
TK1
100
AcDbPolyline
 90
        4
 70
     0
 43
0.0
 10
440.6873599411658
 20
174.5788945517525
 10
532.1873599411658
 20
174.5788945517525
 42
-0.4142135623730951
 10
535.1873599411658
 20
171.5788945517525
 10
535.1873599411658
 20
147.5788945517525
1001
GENIUS_GENREC_14
1002
{
1000
PYDIR
1011
535.1873599411658
1021
174.5788945517525
1031
0.0
1002
}
1002
{
1000
PXDIR
1011
384.1873599411658
1021
120.5788945517525
1031
0.0
1002
}
1002
{
1000
PORI
1011
535.1873599411658
1021
120.5788945517525
1031
0.0
1002
}
1002
{
1000
PINS
1011
535.1873599411658
1021
120.5788945517525
1031
0.0
1002
}
1002
{
1000
HVAL
1000
54
1002
}
1002
{
1000
H
1070
     2
1002
}
1002
{
1000
WVAL
1000
151
1002
}
1002
{
1000
W
1070
     2
1002
}
1002
{
1000
C
1070
     1
1002
}
1001
GENIUS_GENOBJ-N-REC_13
1002
{
1000
OWNER
1000
GEN
1002
}
1001
GENIUS_GENODEF_13
1002
{
1000
HIER
1070
     0
1002
}
1002
{
1000
MANEDIT
1070
     0
1002
}
1002
{
1000
NOSEL
1070
     0
1002
}
1002
{
1000
BEHIND
1070
     0
1002
}
1002
{
1000
OTHER
1070
     0
1002
}
1002
{
1000
REACTOR
1002
}
  0
LWPOLYLINE
  5
C9E
330
1F
100
AcDbEntity
  8
TK1
100
AcDbPolyline
 90
        4
 70
     0
 43
0.0
 10
440.6873599411658
 20
120.5788945517525
 10
532.1873599411658
 20
120.5788945517525
 42
0.4142135623730951
 10
535.1873599411658
 20
123.5788945517525
 10
535.1873599411658
 20
147.5788945517525
1001
GENIUS_GENREC_14
1002
{
1000
PYDIR
1011
535.1873599411658
1021
120.5788945517525
1031
0.0
1002
}
1002
{
1000
PXDIR
1011
384.1873599411658
1021
174.5788945517525
1031
0.0
1002
}
1002
{
1000
PORI
1011
535.1873599411658
1021
174.5788945517525
1031
0.0
1002
}
1002
{
1000
PINS
1011
535.1873599411658
1021
174.5788945517525
1031
0.0
1002
}
1002
{
1000
HVAL
1000
54
1002
}
1002
{
1000
H
1070
     2
1002
}
1002
{
1000
WVAL
1000
151
1002
}
1002
{
1000
W
1070
     2
1002
}
1002
{
1000
C
1070
     1
1002
}
1001
GENIUS_GENOBJ-N-REC_13
1002
{
1000
OWNER
1000
GEN
1002
}
1001
GENIUS_GENODEF_13
1002
{
1000
HIER
1070
     0
1002
}
1002
{
1000
MANEDIT
1070
     0
1002
}
1002
{
1000
NOSEL
1070
     0
1002
}
1002
{
1000
BEHIND
1070
     0
1002
}
1002
{
1000
OTHER
1070
     0
1002
}
1002
{
1000
REACTOR
1002
}
  0
LINE
  5
CB6
330
1F
100
AcDbEntity
  8
AM_7
100
AcDbLine
 10
341.6873599411658
 20
147.5788945517525
 30
0.0
 11
539.6873599411658
 21
147.5788945517525
 31
0.0
1001
GENIUS_GENOBJ-N-CEN_13
1002
{
1000
OWNER
1000
GEN
1002
}
1001
GENIUS_GENODEF_13
1002
{
1000
HIER
1070
     0
1002
}
1002
{
1000
MANEDIT
1070
     0
1002
}
1002
{
1000
NOSEL
1070
     0
1002
}
1002
{
1000
BEHIND
1070
     0
1002
}
1002
{
1000
OTHER
1070
     0
1002
}
1002
{
1000
REACTOR
1002
}
1001
GENIUS_GENCEN_19
1002
{
1040
4.5
1002
}
  0
LINE
  5
D0F
330
1F
100
AcDbEntity
  8
AM_7
  6
AM_ISO08W050x2
100
AcDbLine
 10
423.1873599411658
 20
181.0788945517525
 30
0.0
 11
426.1873599411658
 21
181.0788945517525
 31
0.0
1001
GENIUS_GENOREF_13
1005
D14
  0
LINE
  5
D10
330
1F
100
AcDbEntity
  8
AM_7
  6
AM_ISO08W050x2
100
AcDbLine
 10
423.1873599411658
 20
181.0788945517525
 30
0.0
 11
423.1873599411658
 21
184.0788945517525
 31
0.0
1001
GENIUS_GENOREF_13
1005
D14
  0
LINE
  5
D11
330
1F
100
AcDbEntity
  8
AM_7
  6
AM_ISO08W050x2
100
AcDbLine
 10
423.1873599411658
 20
181.0788945517525
 30
0.0
 11
420.1873599411658
 21
181.0788945517525
 31
0.0
1001
GENIUS_GENOREF_13
1005
D14
  0
LINE
  5
D12
330
1F
100
AcDbEntity
  8
AM_7
  6
AM_ISO08W050x2
100
AcDbLine
 10
423.1873599411658
 20
181.0788945517525
 30
0.0
 11
423.1873599411658
 21
178.0788945517525
 31
0.0
1001
GENIUS_GENOREF_13
1005
D14
  0
CIRCLE
  5
D13
330
1F
100
AcDbEntity
  8
TK1
100
AcDbCircle
 10
423.1873599411658
 20
181.0788945517525
 30
0.0
 40
1.75
  0
POINT
  5
D14
330
1F
100
AcDbEntity
  8
0
 60
     1
100
AcDbPoint
 10
116.4597960126759
 20
49.04046403679285
 30
0.0
1001
GENIUS_GENOLIS_13
1002
{
1000
ENT
1005
D12
1005
D11
1005
D10
1005
D0F
1002
}
1001
GENIUS_GENODEF_13
1002
{
1000
HIER
1070
    10
1002
}
1002
{
1000
MANEDIT
1070
     0
1002
}
1002
{
1000
NOSEL
1070
     0
1002
}
1002
{
1000
BEHIND
1070
     0
1002
}
1002
{
1000
OTHER
1070
     0
1002
}
1002
{
1000
REACTOR
1002
}
1001
GENIUS_GENOENT_13
1002
{
1000
MYREF
1005
D14
1002
}
1002
{
1000
GRP
1005
0
1002
}
1001
GENIUS_GENOBJ-N-CRS_13
1002
{
1000
OWNER
1000
GEN
1002
}
  0
LINE
  5
D16
330
1F
100
AcDbEntity
  8
AM_7
  6
AM_ISO08W050x2
100
AcDbLine
 10
353.1873599411658
 20
114.0788945517525
 30
0.0
 11
356.1873599411658
 21
114.0788945517525
 31
0.0
1001
GENIUS_GENOREF_13
1005
D20
  0
LINE
  5
D17
102
{ACAD_REACTORS
330
E29
102
}
330
1F
100
AcDbEntity
  8
AM_7
  6
AM_ISO08W050x2
100
AcDbLine
 10
353.1873599411658
 20
114.0788945517525
 30
0.0
 11
353.1873599411658
 21
111.0788945517525
 31
0.0
1001
GENIUS_GENOREF_13
1005
D20
  0
LINE
  5
D18
330
1F
100
AcDbEntity
  8
AM_7
  6
AM_ISO08W050x2
100
AcDbLine
 10
353.1873599411658
 20
114.0788945517525
 30
0.0
 11
350.1873599411658
 21
114.0788945517525
 31
0.0
1001
GENIUS_GENOREF_13
1005
D20
  0
LINE
  5
D19
330
1F
100
AcDbEntity
  8
AM_7
  6
AM_ISO08W050x2
100
AcDbLine
 10
353.1873599411658
 20
114.0788945517525
 30
0.0
 11
353.1873599411658
 21
117.0788945517525
 31
0.0
1001
GENIUS_GENOREF_13
1005
D20
  0
CIRCLE
  5
D1A
330
1F
100
AcDbEntity
  8
TK1
100
AcDbCircle
 10
353.1873599411658
 20
114.0788945517525
 30
0.0
 40
1.75
  0
LINE
  5
D1B
330
1F
100
AcDbEntity
  8
AM_7
  6
AM_ISO08W050x2
100
AcDbLine
 10
423.1873599411658
 20
114.0788945517525
 30
0.0
 11
426.1873599411658
 21
114.0788945517525
 31
0.0
1001
GENIUS_GENOREF_13
1005
D21
  0
LINE
  5
D1C
102
{ACAD_REACTORS
330
E29
330
E51
102
}
330
1F
100
AcDbEntity
  8
AM_7
  6
AM_ISO08W050x2
100
AcDbLine
 10
423.1873599411658
 20
114.0788945517525
 30
0.0
 11
423.1873599411658
 21
111.0788945517525
 31
0.0
1001
GENIUS_GENOREF_13
1005
D21
  0
LINE
  5
D1D
330
1F
100
AcDbEntity
  8
AM_7
  6
AM_ISO08W050x2
100
AcDbLine
 10
423.1873599411658
 20
114.0788945517525
 30
0.0
 11
420.1873599411658
 21
114.0788945517525
 31
0.0
1001
GENIUS_GENOREF_13
1005
D21
  0
LINE
  5
D1E
330
1F
100
AcDbEntity
  8
AM_7
  6
AM_ISO08W050x2
100
AcDbLine
 10
423.1873599411658
 20
114.0788945517525
 30
0.0
 11
423.1873599411658
 21
117.0788945517525
 31
0.0
1001
GENIUS_GENOREF_13
1005
D21
  0
CIRCLE
  5
D1F
330
1F
100
AcDbEntity
  8
TK1
100
AcDbCircle
 10
423.1873599411658
 20
114.0788945517525
 30
0.0
 40
1.75
  0
POINT
  5
D20
330
1F
100
AcDbEntity
  8
0
 60
     1
100
AcDbPoint
 10
46.45979601267595
 20
230.3267632329058
 30
0.0
1001
GENIUS_GENOLIS_13
1002
{
1000
ENT
1005
D19
1005
D18
1005
D17
1005
D16
1002
}
1001
GENIUS_GENODEF_13
1002
{
1000
HIER
1070
    10
1002
}
1002
{
1000
MANEDIT
1070
     0
1002
}
1002
{
1000
NOSEL
1070
     0
1002
}
1002
{
1000
BEHIND
1070
     0
1002
}
1002
{
1000
OTHER
1070
     0
1002
}
1002
{
1000
REACTOR
1002
}
1001
GENIUS_GENOENT_13
1002
{
1000
MYREF
1005
D20
1002
}
1002
{
1000
GRP
1005
0
1002
}
1001
GENIUS_GENOBJ-N-CRS_13
1002
{
1000
OWNER
1000
GEN
1002
}
  0
POINT
  5
D21
330
1F
100
AcDbEntity
  8
0
 60
     1
100
AcDbPoint
 10
116.4597960126759
 20
230.3267632329058
 30
0.0
1001
GENIUS_GENOLIS_13
1002
{
1000
ENT
1005
D1E
1005
D1D
1005
D1C
1005
D1B
1002
}
1001
GENIUS_GENODEF_13
1002
{
1000
HIER
1070
    10
1002
}
1002
{
1000
MANEDIT
1070
     0
1002
}
1002
{
1000
NOSEL
1070
     0
1002
}
1002
{
1000
BEHIND
1070
     0
1002
}
1002
{
1000
OTHER
1070
     0
1002
}
1002
{
1000
REACTOR
1002
}
1001
GENIUS_GENOENT_13
1002
{
1000
MYREF
1005
D21
1002
}
1002
{
1000
GRP
1005
0
1002
}
1001
GENIUS_GENOBJ-N-CRS_13
1002
{
1000
OWNER
1000
GEN
1002
}
  0
LINE
  5
D22
330
1F
100
AcDbEntity
  8
AM_7
  6
AM_ISO08W050x2
100
AcDbLine
 10
528.1873599411658
 20
181.0788945517525
 30
0.0
 11
525.1873599411658
 21
181.0788945517525
 31
0.0
1001
GENIUS_GENOREF_13
1005
D36
  0
LINE
  5
D23
330
1F
100
AcDbEntity
  8
AM_7
  6
AM_ISO08W050x2
100
AcDbLine
 10
528.1873599411658
 20
181.0788945517525
 30
0.0
 11
528.1873599411658
 21
184.0788945517525
 31
0.0
1001
GENIUS_GENOREF_13
1005
D36
  0
LINE
  5
D24
102
{ACAD_REACTORS
330
E9B
102
}
330
1F
100
AcDbEntity
  8
AM_7
  6
AM_ISO08W050x2
100
AcDbLine
 10
528.1873599411658
 20
181.0788945517525
 30
0.0
 11
531.1873599411658
 21
181.0788945517525
 31
0.0
1001
GENIUS_GENOREF_13
1005
D36
  0
LINE
  5
D25
330
1F
100
AcDbEntity
  8
AM_7
  6
AM_ISO08W050x2
100
AcDbLine
 10
528.1873599411658
 20
181.0788945517525
 30
0.0
 11
528.1873599411658
 21
178.0788945517525
 31
0.0
1001
GENIUS_GENOREF_13
1005
D36
  0
CIRCLE
  5
D26
330
1F
100
AcDbEntity
  8
TK1
100
AcDbCircle
 10
528.1873599411658
 20
181.0788945517525
 30
0.0
 40
1.75
  0
LINE
  5
D27
330
1F
100
AcDbEntity
  8
AM_7
  6
AM_ISO08W050x2
100
AcDbLine
 10
458.1873599411657
 20
181.0788945517525
 30
0.0
 11
455.1873599411658
 21
181.0788945517525
 31
0.0
1001
GENIUS_GENOREF_13
1005
D39
  0
LINE
  5
D28
330
1F
100
AcDbEntity
  8
AM_7
  6
AM_ISO08W050x2
100
AcDbLine
 10
458.1873599411657
 20
181.0788945517525
 30
0.0
 11
458.1873599411657
 21
184.0788945517525
 31
0.0
1001
GENIUS_GENOREF_13
1005
D39
  0
LINE
  5
D29
330
1F
100
AcDbEntity
  8
AM_7
  6
AM_ISO08W050x2
100
AcDbLine
 10
458.1873599411657
 20
181.0788945517525
 30
0.0
 11
461.1873599411658
 21
181.0788945517525
 31
0.0
1001
GENIUS_GENOREF_13
1005
D39
  0
LINE
  5
D2A
330
1F
100
AcDbEntity
  8
AM_7
  6
AM_ISO08W050x2
100
AcDbLine
 10
458.1873599411657
 20
181.0788945517525
 30
0.0
 11
458.1873599411657
 21
178.0788945517525
 31
0.0
1001
GENIUS_GENOREF_13
1005
D39
  0
CIRCLE
  5
D2B
330
1F
100
AcDbEntity
  8
TK1
100
AcDbCircle
 10
458.1873599411657
 20
181.0788945517525
 30
0.0
 40
1.75
  0
LINE
  5
D2C
330
1F
100
AcDbEntity
  8
AM_7
  6
AM_ISO08W050x2
100
AcDbLine
 10
528.1873599411658
 20
114.0788945517525
 30
0.0
 11
525.1873599411658
 21
114.0788945517525
 31
0.0
1001
GENIUS_GENOREF_13
1005
D38
  0
LINE
  5
D2D
102
{ACAD_REACTORS
330
E6D
102
}
330
1F
100
AcDbEntity
  8
AM_7
  6
AM_ISO08W050x2
100
AcDbLine
 10
528.1873599411658
 20
114.0788945517525
 30
0.0
 11
528.1873599411658
 21
111.0788945517525
 31
0.0
1001
GENIUS_GENOREF_13
1005
D38
  0
LINE
  5
D2E
102
{ACAD_REACTORS
330
E9B
102
}
330
1F
100
AcDbEntity
  8
AM_7
  6
AM_ISO08W050x2
100
AcDbLine
 10
528.1873599411658
 20
114.0788945517525
 30
0.0
 11
531.1873599411658
 21
114.0788945517525
 31
0.0
1001
GENIUS_GENOREF_13
1005
D38
  0
LINE
  5
D2F
330
1F
100
AcDbEntity
  8
AM_7
  6
AM_ISO08W050x2
100
AcDbLine
 10
528.1873599411658
 20
114.0788945517525
 30
0.0
 11
528.1873599411658
 21
117.0788945517525
 31
0.0
1001
GENIUS_GENOREF_13
1005
D38
  0
CIRCLE
  5
D30
102
{ACAD_REACTORS
330
F06
102
}
330
1F
100
AcDbEntity
  8
TK1
100
AcDbCircle
 10
528.1873599411658
 20
114.0788945517525
 30
0.0
 40
1.75
  0
LINE
  5
D31
330
1F
100
AcDbEntity
  8
AM_7
  6
AM_ISO08W050x2
100
AcDbLine
 10
458.1873599411657
 20
114.0788945517525
 30
0.0
 11
455.1873599411658
 21
114.0788945517525
 31
0.0
1001
GENIUS_GENOREF_13
1005
D37
  0
LINE
  5
D32
102
{ACAD_REACTORS
330
E51
330
E6D
102
}
330
1F
100
AcDbEntity
  8
AM_7
  6
AM_ISO08W050x2
100
AcDbLine
 10
458.1873599411657
 20
114.0788945517525
 30
0.0
 11
458.1873599411657
 21
111.0788945517525
 31
0.0
1001
GENIUS_GENOREF_13
1005
D37
  0
LINE
  5
D33
330
1F
100
AcDbEntity
  8
AM_7
  6
AM_ISO08W050x2
100
AcDbLine
 10
458.1873599411657
 20
114.0788945517525
 30
0.0
 11
461.1873599411658
 21
114.0788945517525
 31
0.0
1001
GENIUS_GENOREF_13
1005
D37
  0
LINE
  5
D34
330
1F
100
AcDbEntity
  8
AM_7
  6
AM_ISO08W050x2
100
AcDbLine
 10
458.1873599411657
 20
114.0788945517525
 30
0.0
 11
458.1873599411657
 21
117.0788945517525
 31
0.0
1001
GENIUS_GENOREF_13
1005
D37
  0
CIRCLE
  5
D35
330
1F
100
AcDbEntity
  8
TK1
100
AcDbCircle
 10
458.1873599411657
 20
114.0788945517525
 30
0.0
 40
1.75
  0
POINT
  5
D36
330
1F
100
AcDbEntity
  8
0
 60
     1
100
AcDbPoint
 10
834.9149238696556
 20
49.04046403679285
 30
0.0
1001
GENIUS_GENOLIS_13
1002
{
1000
ENT
1005
D25
1005
D24
1005
D23
1005
D22
1002
}
1001
GENIUS_GENODEF_13
1002
{
1000
HIER
1070
    10
1002
}
1002
{
1000
MANEDIT
1070
     0
1002
}
1002
{
1000
NOSEL
1070
     0
1002
}
1002
{
1000
BEHIND
1070
     0
1002
}
1002
{
1000
OTHER
1070
     0
1002
}
1002
{
1000
REACTOR
1002
}
1001
GENIUS_GENOENT_13
1002
{
1000
MYREF
1005
D36
1002
}
1002
{
1000
GRP
1005
0
1002
}
1001
GENIUS_GENOBJ-N-CRS_13
1002
{
1000
OWNER
1000
GEN
1002
}
  0
POINT
  5
D37
330
1F
100
AcDbEntity
  8
0
 60
     1
100
AcDbPoint
 10
764.9149238696557
 20
230.3267632329058
 30
0.0
1001
GENIUS_GENOLIS_13
1002
{
1000
ENT
1005
D34
1005
D33
1005
D32
1005
D31
1002
}
1001
GENIUS_GENODEF_13
1002
{
1000
HIER
1070
    10
1002
}
1002
{
1000
MANEDIT
1070
     0
1002
}
1002
{
1000
NOSEL
1070
     0
1002
}
1002
{
1000
BEHIND
1070
     0
1002
}
1002
{
1000
OTHER
1070
     0
1002
}
1002
{
1000
REACTOR
1002
}
1001
GENIUS_GENOENT_13
1002
{
1000
MYREF
1005
D37
1002
}
1002
{
1000
GRP
1005
0
1002
}
1001
GENIUS_GENOBJ-N-CRS_13
1002
{
1000
OWNER
1000
GEN
1002
}
  0
POINT
  5
D38
330
1F
100
AcDbEntity
  8
0
 60
     1
100
AcDbPoint
 10
834.9149238696556
 20
230.3267632329058
 30
0.0
1001
GENIUS_GENOLIS_13
1002
{
1000
ENT
1005
D2F
1005
D2E
1005
D2D
1005
D2C
1002
}
1001
GENIUS_GENODEF_13
1002
{
1000
HIER
1070
    10
1002
}
1002
{
1000
MANEDIT
1070
     0
1002
}
1002
{
1000
NOSEL
1070
     0
1002
}
1002
{
1000
BEHIND
1070
     0
1002
}
1002
{
1000
OTHER
1070
     0
1002
}
1002
{
1000
REACTOR
1002
}
1001
GENIUS_GENOENT_13
1002
{
1000
MYREF
1005
D38
1002
}
1002
{
1000
GRP
1005
0
1002
}
1001
GENIUS_GENOBJ-N-CRS_13
1002
{
1000
OWNER
1000
GEN
1002
}
  0
POINT
  5
D39
330
1F
100
AcDbEntity
  8
0
 60
     1
100
AcDbPoint
 10
764.9149238696557
 20
49.04046403679285
 30
0.0
1001
GENIUS_GENOLIS_13
1002
{
1000
ENT
1005
D2A
1005
D29
1005
D28
1005
D27
1002
}
1001
GENIUS_GENODEF_13
1002
{
1000
HIER
1070
    10
1002
}
1002
{
1000
MANEDIT
1070
     0
1002
}
1002
{
1000
NOSEL
1070
     0
1002
}
1002
{
1000
BEHIND
1070
     0
1002
}
1002
{
1000
OTHER
1070
     0
1002
}
1002
{
1000
REACTOR
1002
}
1001
GENIUS_GENOENT_13
1002
{
1000
MYREF
1005
D39
1002
}
1002
{
1000
GRP
1005
0
1002
}
1001
GENIUS_GENOBJ-N-CRS_13
1002
{
1000
OWNER
1000
GEN
1002
}
  0
DIMENSION
  5
E1D
102
{ACAD_XDICTIONARY
360
E28
102
}
102
{ACAD_REACTORS
330
E29
102
}
330
1F
100
AcDbEntity
  8
AM_5
100
AcDbDimension
  2
*D8
 10
423.1873599411658
 20
94.32889354175253
 30
0.0
 11
388.1873599411658
 21
99.20389354175254
 31
0.0
 70
    32
 71
     5
 42
70.0
  3
AM_ISO$0
100
AcDbAlignedDimension
 13
353.1873599411658
 23
111.0788945517525
 33
0.0
 14
423.1873599411658
 24
111.0788945517525
 34
0.0
 50
0.0000000000001018
100
AcDbRotatedDimension
1001
ACAD
1000
DSTYLE
1002
{
1070
    40
1040
1.5
1070
   174
1070
     1
1002
}
  0
DIMENSION
  5
E45
102
{ACAD_XDICTIONARY
360
E50
102
}
102
{ACAD_REACTORS
330
E51
102
}
330
1F
100
AcDbEntity
  8
AM_5
100
AcDbDimension
  2
*D9
 10
458.1873599411657
 20
94.32889354175257
 30
0.0
 11
440.6873599411658
 21
99.20389354175258
 31
0.0
 70
    32
 71
     5
 42
35.0
  3
AM_ISO$0
100
AcDbAlignedDimension
 13
423.1873599411658
 23
111.0788945517525
 33
0.0
 14
458.1873599411657
 24
111.0788945517525
 34
0.0
100
AcDbRotatedDimension
1001
ACAD
1000
DSTYLE
1002
{
1070
   174
1070
     1
1070
    40
1040
1.5
1002
}
  0
DIMENSION
  5
E61
102
{ACAD_XDICTIONARY
360
E6C
102
}
102
{ACAD_REACTORS
330
E6D
102
}
330
1F
100
AcDbEntity
  8
AM_5
100
AcDbDimension
  2
*D10
 10
528.1873599411658
 20
94.32889354175271
 30
0.0
 11
493.1873599411658
 21
99.2038935417527
 31
0.0
 70
    32
 71
     5
 42
70.0
  3
AM_ISO$0
100
AcDbAlignedDimension
 13
458.1873599411657
 23
111.0788945517525
 33
0.0
 14
528.1873599411658
 24
111.0788945517526
 34
0.0
100
AcDbRotatedDimension
1001
ACAD
1000
DSTYLE
1002
{
1070
   174
1070
     1
1070
    40
1040
1.5
1002
}
  0
DIMENSION
  5
E8F
102
{ACAD_XDICTIONARY
360
E9A
102
}
102
{ACAD_REACTORS
330
E9B
102
}
330
1F
100
AcDbEntity
  8
AM_5
100
AcDbDimension
  2
*D11
 10
553.1873609511658
 20
114.0788945517525
 30
0.0
 11
548.3123609511658
 21
147.5788945517526
 31
0.0
 70
    32
 71
     5
 42
66.99999999999992
  3
AM_ISO$0
100
AcDbAlignedDimension
 13
531.1873599411658
 23
181.0788945517525
 33
0.0
 14
531.1873599411658
 24
114.0788945517525
 34
0.0
 50
90.00000000000003
100
AcDbRotatedDimension
1001
ACAD
1000
DSTYLE
1002
{
1070
    40
1040
1.5
1002
}
  0
DIMENSION
  5
EB9
102
{ACAD_XDICTIONARY
360
EC4
102
}
102
{ACAD_REACTORS
330
EC5
102
}
330
1F
100
AcDbEntity
  8
AM_5
100
AcDbDimension
  2
*D12
 10
535.1873599411658
 20
189.5788945517525
 30
0.0
 11
440.6873599411658
 21
194.4538945517525
 31
0.0
 70
    32
 71
     5
 42
189.0
  3
AM_ISO$0
100
AcDbAlignedDimension
 13
346.1873599411658
 23
171.5788945517525
 33
0.0
 14
535.1873599411658
 24
171.5788945517525
 34
0.0
100
AcDbRotatedDimension
1001
ACAD
1000
DSTYLE
1002
{
1070
    40
1040
1.5
1002
}
  0
DIMENSION
  5
EDD
102
{ACAD_XDICTIONARY
360
EE8
102
}
102
{ACAD_REACTORS
330
EE9
102
}
330
1F
100
AcDbEntity
  8
AM_5
100
AcDbDimension
  2
*D13
 10
331.1873599411658
 20
120.5788945517525
 30
0.0
 11
326.3123599411658
 21
147.5788945517525
 31
0.0
 70
    32
 71
     5
 42
53.99999999999998
  3
AM_ISO$0
100
AcDbAlignedDimension
 13
349.1873599411658
 23
174.5788945517525
 33
0.0
 14
349.1873599411658
 24
120.5788945517525
 34
0.0
 50
90.00000000000003
100
AcDbRotatedDimension
1001
ACAD
1000
DSTYLE
1002
{
1070
    40
1040
1.5
1002
}
  0
DIMENSION
  5
EFE
102
{ACAD_XDICTIONARY
360
F05
102
}
102
{ACAD_REACTORS
330
F06
102
}
330
1F
100
AcDbEntity
  8
AM_5
100
AcDbDimension
  2
*D14
 10
527.3051125764334
 20
115.5902315715542
 30
0.0
 11
551.9250284087887
 21
94.09366201041803
 31
0.0
 70
   163
  1
8-<>
 71
     5
 42
3.500000000000028
  3
AM_ISO$3
100
AcDbDiametricDimension
 15
529.0696073058979
 25
112.5675575319509
 35
0.0
 40
0.0
1001
ACAD
1000
DSTYLE
1002
{
1070
    40
1040
1.5
1002
}
  0
DIMENSION
  5
F38
330
1F
100
AcDbEntity
  8
AM_5
100
AcDbDimension
  2
*D15
 10
349.1873599411658
 20
123.5788945517524
 30
0.0
 11
327.5499541259768
 21
97.89479265707257
 31
0.0
 70
   164
 71
     5
 42
2.999999999999886
  3
AM_ISO$4
100
AcDbRadialDimension
 15
347.2544986339654
 25
121.2845434088087
 35
0.0
 40
0.0
1001
ACAD
1000
DSTYLE
1002
{
1070
    40
1040
1.5
1070
    74
1070
     0
1070
   279
1070
     1
1070
   281
1070
     1
1002
}
  0
LWPOLYLINE
  5
1045
330
1F
100
AcDbEntity
  8
TK3
100
AcDbPolyline
 90
        8
 70
     1
 43
0.0
 10
150.7125650723644
 20
206.0044482618677
 10
148.1125650723644
 20
206.0044482618677
 42
-0.4142135623730951
 10
147.1125650723644
 20
207.0044482618677
 10
147.1125650723644
 20
208.2044482618677
 42
-0.4142135623730951
 10
148.1125650723644
 20
209.2044482618677
 10
150.7125650723643
 20
209.2044482618677
 42
-0.4142135623730951
 10
151.7125650723643
 20
208.2044482618677
 10
151.7125650723644
 20
207.0044482618677
 42
-0.4142135623730989
1001
GENIUS_GENREC_14
1002
{
1000
PYDIR
1011
151.7125650723643
1021
209.2044482618677
1031
0.0
1002
}
1002
{
1000
PXDIR
1011
147.1125650723644
1021
206.0044482618677
1031
0.0
1002
}
1002
{
1000
PORI
1011
151.7125650723644
1021
206.0044482618677
1031
0.0
1002
}
1002
{
1000
PINS
1011
149.4125650723644
1021
207.6044482618677
1031
0.0
1002
}
1002
{
1000
HVAL
1000
3.2
1002
}
1002
{
1000
H
1070
     2
1002
}
1002
{
1000
WVAL
1000
4.6
1002
}
1002
{
1000
W
1070
     2
1002
}
1002
{
1000
C
1070
     4
1002
}
1001
GENIUS_GENODEF_13
1002
{
1000
HIER
1070
     0
1002
}
1002
{
1000
MANEDIT
1070
     0
1002
}
1002
{
1000
NOSEL
1070
     0
1002
}
1002
{
1000
BEHIND
1070
     0
1002
}
1002
{
1000
OTHER
1070
     0
1002
}
1002
{
1000
REACTOR
1002
}
1001
GENIUS_GENOBJ-N-REC_13
1002
{
1000
OWNER
1000
GEN
1002
}
  0
LINE
  5
10B9
330
1F
100
AcDbEntity
  8
TK3
100
AcDbLine
 10
166.9125650723642
 20
213.1044482618691
 30
0.0
 11
263.4125650723643
 21
213.104448261871
 31
0.0
  0
LINE
  5
10BA
330
1F
100
AcDbEntity
  8
TK3
100
AcDbLine
 10
166.9125650723646
 20
202.1044482618691
 30
0.0
 11
263.4125650723645
 21
202.104448261871
 31
0.0
  0
LINE
  5
10BB
330
1F
100
AcDbEntity
  8
TK3
100
AcDbLine
 10
266.4125650723644
 20
205.104448261871
 30
0.0
 11
266.4125650723643
 21
210.1044482618712
 31
0.0
  0
ARC
  5
10BC
330
1F
100
AcDbEntity
  8
TK3
100
AcDbCircle
 10
263.4125650723644
 20
205.104448261871
 30
0.0
 40
3.0
100
AcDbArc
 50
270.0000000000013
 51
0.0000000000012908
1001
GENIUS_GENOBJ-N-FIL_13
1002
{
1000
OWNER
1000
GEN
1002
}
1001
GENIUS_GENODEF_13
1002
{
1000
HIER
1070
     0
1002
}
1002
{
1000
MANEDIT
1070
     0
1002
}
1002
{
1000
NOSEL
1070
     0
1002
}
1002
{
1000
BEHIND
1070
     0
1002
}
1002
{
1000
OTHER
1070
     0
1002
}
1002
{
1000
REACTOR
1002
}
  0
ARC
  5
10BD
102
{ACAD_REACTORS
330
2C74
102
}
330
1F
100
AcDbEntity
  8
TK3
100
AcDbCircle
 10
263.4125650723643
 20
210.1044482618711
 30
0.0
 40
3.0
100
AcDbArc
 50
0.0000000000012908
 51
90.00000000000126
1001
GENIUS_GENOBJ-N-FIL_13
1002
{
1000
OWNER
1000
GEN
1002
}
1001
GENIUS_GENODEF_13
1002
{
1000
HIER
1070
     0
1002
}
1002
{
1000
MANEDIT
1070
     0
1002
}
1002
{
1000
NOSEL
1070
     0
1002
}
1002
{
1000
BEHIND
1070
     0
1002
}
1002
{
1000
OTHER
1070
     0
1002
}
1002
{
1000
REACTOR
1002
}
  0
LWPOLYLINE
  5
10BE
330
1F
100
AcDbEntity
  8
TK3
100
AcDbPolyline
 90
        8
 70
     1
 43
0.0
 10
253.1125650723645
 20
206.0044482618708
 10
255.7125650723646
 20
206.0044482618709
 42
0.4142135623730951
 10
256.7125650723645
 20
207.0044482618709
 10
256.7125650723645
 20
208.2044482618709
 42
0.4142135623730951
 10
255.7125650723645
 20
209.2044482618709
 10
253.1125650723645
 20
209.2044482618708
 42
0.4142135623730951
 10
252.1125650723645
 20
208.2044482618708
 10
252.1125650723645
 20
207.0044482618708
 42
0.4142135623730989
1001
GENIUS_GENREC_14
1002
{
1000
PYDIR
1011
252.1125650723645
1021
209.2044482618708
1031
0.0
1002
}
1002
{
1000
PXDIR
1011
256.7125650723645
1021
206.0044482618709
1031
0.0
1002
}
1002
{
1000
PORI
1011
252.1125650723646
1021
206.0044482618708
1031
0.0
1002
}
1002
{
1000
PINS
1011
254.4125650723645
1021
207.6044482618708
1031
0.0
1002
}
1002
{
1000
HVAL
1000
3.2
1002
}
1002
{
1000
H
1070
     2
1002
}
1002
{
1000
WVAL
1000
4.6
1002
}
1002
{
1000
W
1070
     2
1002
}
1002
{
1000
C
1070
     4
1002
}
1001
GENIUS_GENODEF_13
1002
{
1000
HIER
1070
     0
1002
}
1002
{
1000
MANEDIT
1070
     0
1002
}
1002
{
1000
NOSEL
1070
     0
1002
}
1002
{
1000
BEHIND
1070
     0
1002
}
1002
{
1000
OTHER
1070
     0
1002
}
1002
{
1000
REACTOR
1002
}
1001
GENIUS_GENOBJ-N-REC_13
1002
{
1000
OWNER
1000
GEN
1002
}
  0
LWPOLYLINE
  5
10BF
330
1F
100
AcDbEntity
  8
TK3
100
AcDbPolyline
 90
        8
 70
     1
 43
0.0
 10
183.1125650723643
 20
206.0044482618683
 10
185.7125650723643
 20
206.0044482618683
 42
0.4142135623730951
 10
186.7125650723643
 20
207.0044482618684
 10
186.7125650723643
 20
208.2044482618684
 42
0.4142135623730951
 10
185.7125650723642
 20
209.2044482618683
 10
183.1125650723643
 20
209.2044482618683
 42
0.4142135623730951
 10
182.1125650723644
 20
208.2044482618683
 10
182.1125650723643
 20
207.0044482618683
 42
0.4142135623730989
1001
GENIUS_GENREC_14
1002
{
1000
PYDIR
1011
182.1125650723643
1021
209.2044482618683
1031
0.0
1002
}
1002
{
1000
PXDIR
1011
186.7125650723643
1021
206.0044482618684
1031
0.0
1002
}
1002
{
1000
PORI
1011
182.1125650723644
1021
206.0044482618683
1031
0.0
1002
}
1002
{
1000
PINS
1011
184.4125650723643
1021
207.6044482618683
1031
0.0
1002
}
1002
{
1000
HVAL
1000
3.2
1002
}
1002
{
1000
H
1070
     2
1002
}
1002
{
1000
WVAL
1000
4.6
1002
}
1002
{
1000
W
1070
     2
1002
}
1002
{
1000
C
1070
     4
1002
}
1001
GENIUS_GENODEF_13
1002
{
1000
HIER
1070
     0
1002
}
1002
{
1000
MANEDIT
1070
     0
1002
}
1002
{
1000
NOSEL
1070
     0
1002
}
1002
{
1000
BEHIND
1070
     0
1002
}
1002
{
1000
OTHER
1070
     0
1002
}
1002
{
1000
REACTOR
1002
}
1001
GENIUS_GENOBJ-N-REC_13
1002
{
1000
OWNER
1000
GEN
1002
}
  0
LINE
  5
1165
330
1F
100
AcDbEntity
  8
TK2
100
AcDbLine
 10
67.91256507236434
 20
357.1516508325954
 30
0.0
 11
166.9125650723643
 21
357.1516508325954
 31
0.0
  0
LINE
  5
116E
330
1F
100
AcDbEntity
  8
TK2
100
AcDbLine
 10
76.91256507236435
 20
280.8516508325954
 30
0.0
 11
166.9125650723643
 21
280.8516508325954
 31
0.0
  0
LINE
  5
1178
330
1F
100
AcDbEntity
  8
TK2
100
AcDbLine
 10
66.91256507236435
 20
290.8516508325954
 30
0.0
 11
66.91256507236435
 21
356.1516508325953
 31
0.0
  0
LINE
  5
1192
330
1F
100
AcDbEntity
  8
AM_7
100
AcDbLine
 10
166.9125650723643
 20
361.6516508325954
 30
0.0
 11
166.9125650723643
 21
276.3516508325954
 31
0.0
1001
GENIUS_GENOBJ-N-CEN_13
1002
{
1000
OWNER
1000
GEN
1002
}
1001
GENIUS_GENODEF_13
1002
{
1000
HIER
1070
     0
1002
}
1002
{
1000
MANEDIT
1070
     0
1002
}
1002
{
1000
NOSEL
1070
     0
1002
}
1002
{
1000
BEHIND
1070
     0
1002
}
1002
{
1000
OTHER
1070
     0
1002
}
1002
{
1000
REACTOR
1002
}
1001
GENIUS_GENCEN_19
1002
{
1040
4.5
1002
}
  0
LINE
  5
11DF
330
1F
100
AcDbEntity
  8
TK2
100
AcDbLine
 10
166.9125650723643
 20
344.6516508325954
 30
0.0
 11
76.81256507236435
 21
344.6516508325954
 31
0.0
  0
LINE
  5
11E0
102
{ACAD_REACTORS
330
2A0D
102
}
330
1F
100
AcDbEntity
  8
TK2
100
AcDbLine
 10
166.9125650723643
 20
294.8516508325954
 30
0.0
 11
76.81256507236432
 21
294.8516508325953
 31
0.0
  0
LINE
  5
11E1
330
1F
100
AcDbEntity
  8
TK2
100
AcDbLine
 10
74.51256507236433
 20
297.1516508325954
 30
0.0
 11
74.51256507236435
 21
342.3516508325953
 31
0.0
  0
ARC
  5
11F0
330
1F
100
AcDbEntity
  8
TK2
100
AcDbCircle
 10
67.91256507236434
 20
356.1516508325953
 30
0.0
 40
1.0
100
AcDbArc
 50
90.0
 51
180.0
1001
GENIUS_GENOBJ-N-FIL_13
1002
{
1000
OWNER
1000
GEN
1002
}
1001
GENIUS_GENODEF_13
1002
{
1000
HIER
1070
     0
1002
}
1002
{
1000
MANEDIT
1070
     0
1002
}
1002
{
1000
NOSEL
1070
     0
1002
}
1002
{
1000
BEHIND
1070
     0
1002
}
1002
{
1000
OTHER
1070
     0
1002
}
1002
{
1000
REACTOR
1002
}
  0
ARC
  5
11F3
102
{ACAD_REACTORS
330
29B2
102
}
330
1F
100
AcDbEntity
  8
TK2
100
AcDbCircle
 10
76.91256507236435
 20
290.8516508325954
 30
0.0
 40
10.0
100
AcDbArc
 50
180.0
 51
270.0
1001
GENIUS_GENOBJ-N-FIL_13
1002
{
1000
OWNER
1000
GEN
1002
}
1001
GENIUS_GENODEF_13
1002
{
1000
HIER
1070
     0
1002
}
1002
{
1000
MANEDIT
1070
     0
1002
}
1002
{
1000
NOSEL
1070
     0
1002
}
1002
{
1000
BEHIND
1070
     0
1002
}
1002
{
1000
OTHER
1070
     0
1002
}
1002
{
1000
REACTOR
1002
}
  0
LINE
  5
12D2
330
1F
100
AcDbEntity
  8
TK2
100
AcDbLine
 10
69.21256507236434
 20
297.1516508325954
 30
0.0
 11
69.21256507236432
 21
342.3516508325953
 31
0.0
  0
LINE
  5
1312
330
1F
100
AcDbEntity
  8
TK2
100
AcDbLine
 10
166.9125650723643
 20
346.3516508325954
 30
0.0
 11
76.81256507236433
 21
346.3516508325954
 31
0.0
  0
LINE
  5
131C
330
1F
100
AcDbEntity
  8
TK2
100
AcDbLine
 10
166.9125650723643
 20
293.1516508325954
 30
0.0
 11
76.81256507236435
 21
293.1516508325954
 31
0.0
  0
LINE
  5
1388
330
1F
100
AcDbEntity
  8
TK2
100
AcDbLine
 10
166.9125650723643
 20
350.3516508325954
 30
0.0
 11
77.21256507236432
 21
350.3516508325953
 31
0.0
  0
LINE
  5
1389
330
1F
100
AcDbEntity
  8
TK2
100
AcDbLine
 10
166.9125650723643
 20
289.1516508325954
 30
0.0
 11
77.21256507236434
 21
289.1516508325954
 31
0.0
  0
LINE
  5
138B
330
1F
100
AcDbEntity
  8
TK2
100
AcDbLine
 10
72.81256507236435
 20
297.1516508325954
 30
0.0
 11
72.81256507236434
 21
342.3516508325953
 31
0.0
  0
ARC
  5
139D
330
1F
100
AcDbEntity
  8
TK2
100
AcDbCircle
 10
77.21256507236432
 20
342.3516508325953
 30
0.0
 40
8.0
100
AcDbArc
 50
90.0
 51
180.0
1001
GENIUS_GENODEF_13
1002
{
1000
HIER
1070
     0
1002
}
1002
{
1000
MANEDIT
1070
     0
1002
}
1002
{
1000
NOSEL
1070
     0
1002
}
1002
{
1000
BEHIND
1070
     0
1002
}
1002
{
1000
OTHER
1070
     0
1002
}
1002
{
1000
REACTOR
1002
}
1001
GENIUS_GENOBJ-N-FIL_13
1002
{
1000
OWNER
1000
GEN
1002
}
  0
ARC
  5
139F
330
1F
100
AcDbEntity
  8
TK2
100
AcDbCircle
 10
77.21256507236434
 20
297.1516508325954
 30
0.0
 40
8.0
100
AcDbArc
 50
180.0
 51
270.0
1001
GENIUS_GENOBJ-N-FIL_13
1002
{
1000
OWNER
1000
GEN
1002
}
1001
GENIUS_GENODEF_13
1002
{
1000
HIER
1070
     0
1002
}
1002
{
1000
MANEDIT
1070
     0
1002
}
1002
{
1000
NOSEL
1070
     0
1002
}
1002
{
1000
BEHIND
1070
     0
1002
}
1002
{
1000
OTHER
1070
     0
1002
}
1002
{
1000
REACTOR
1002
}
  0
ARC
  5
13A1
330
1F
100
AcDbEntity
  8
TK2
100
AcDbCircle
 10
76.81256507236433
 20
342.3516508325953
 30
0.0
 40
4.0
100
AcDbArc
 50
90.0
 51
180.0
1001
GENIUS_GENODEF_13
1002
{
1000
HIER
1070
     0
1002
}
1002
{
1000
MANEDIT
1070
     0
1002
}
1002
{
1000
NOSEL
1070
     0
1002
}
1002
{
1000
BEHIND
1070
     0
1002
}
1002
{
1000
OTHER
1070
     0
1002
}
1002
{
1000
REACTOR
1002
}
1001
GENIUS_GENOBJ-N-FIL_13
1002
{
1000
OWNER
1000
GEN
1002
}
  0
ARC
  5
13A3
330
1F
100
AcDbEntity
  8
TK2
100
AcDbCircle
 10
76.81256507236435
 20
297.1516508325954
 30
0.0
 40
4.0
100
AcDbArc
 50
180.0
 51
270.0
1001
GENIUS_GENOBJ-N-FIL_13
1002
{
1000
OWNER
1000
GEN
1002
}
1001
GENIUS_GENODEF_13
1002
{
1000
HIER
1070
     0
1002
}
1002
{
1000
MANEDIT
1070
     0
1002
}
1002
{
1000
NOSEL
1070
     0
1002
}
1002
{
1000
BEHIND
1070
     0
1002
}
1002
{
1000
OTHER
1070
     0
1002
}
1002
{
1000
REACTOR
1002
}
  0
ARC
  5
13D1
102
{ACAD_REACTORS
330
2A0D
102
}
330
1F
100
AcDbEntity
  8
TK2
100
AcDbCircle
 10
76.81256507236435
 20
342.3516508325953
 30
0.0
 40
2.299999999999999
100
AcDbArc
 50
90.0
 51
180.0
1001
GENIUS_GENOBJ-N-FIL_13
1002
{
1000
OWNER
1000
GEN
1002
}
1001
GENIUS_GENODEF_13
1002
{
1000
HIER
1070
     0
1002
}
1002
{
1000
MANEDIT
1070
     0
1002
}
1002
{
1000
NOSEL
1070
     0
1002
}
1002
{
1000
BEHIND
1070
     0
1002
}
1002
{
1000
OTHER
1070
     0
1002
}
1002
{
1000
REACTOR
1002
}
  0
ARC
  5
13D3
330
1F
100
AcDbEntity
  8
TK2
100
AcDbCircle
 10
76.81256507236432
 20
297.1516508325954
 30
0.0
 40
2.299999999999999
100
AcDbArc
 50
180.0
 51
270.0
1001
GENIUS_GENOBJ-N-FIL_13
1002
{
1000
OWNER
1000
GEN
1002
}
1001
GENIUS_GENODEF_13
1002
{
1000
HIER
1070
     0
1002
}
1002
{
1000
MANEDIT
1070
     0
1002
}
1002
{
1000
NOSEL
1070
     0
1002
}
1002
{
1000
BEHIND
1070
     0
1002
}
1002
{
1000
OTHER
1070
     0
1002
}
1002
{
1000
REACTOR
1002
}
  0
LINE
  5
1575
330
1F
100
AcDbEntity
  8
TK2
100
AcDbLine
 10
90.51256507236445
 20
343.2516508325954
 30
0.0
 11
91.01256507236456
 21
343.2516508325954
 31
0.0
  0
ARC
  5
1576
330
1F
100
AcDbEntity
  8
TK2
100
AcDbCircle
 10
91.01256507236456
 20
341.7516508325954
 30
0.0
 40
1.5
100
AcDbArc
 50
0.0
 51
90.0
1001
GENIUS_GENODEF_13
1002
{
1000
HIER
1070
     0
1002
}
1002
{
1000
MANEDIT
1070
     0
1002
}
1002
{
1000
NOSEL
1070
     0
1002
}
1002
{
1000
BEHIND
1070
     0
1002
}
1002
{
1000
OTHER
1070
     0
1002
}
1002
{
1000
REACTOR
1002
}
1001
GENIUS_GENOBJ-N-FIL_13
1002
{
1000
OWNER
1000
GEN
1002
}
  0
ARC
  5
1577
330
1F
100
AcDbEntity
  8
TK2
100
AcDbCircle
 10
86.01256507236445
 20
341.7516508325954
 30
0.0
 40
1.5
100
AcDbArc
 50
90.0
 51
180.0
1001
GENIUS_GENODEF_13
1002
{
1000
HIER
1070
     0
1002
}
1002
{
1000
MANEDIT
1070
     0
1002
}
1002
{
1000
NOSEL
1070
     0
1002
}
1002
{
1000
BEHIND
1070
     0
1002
}
1002
{
1000
OTHER
1070
     0
1002
}
1002
{
1000
REACTOR
1002
}
1001
GENIUS_GENOBJ-N-FIL_13
1002
{
1000
OWNER
1000
GEN
1002
}
  0
LINE
  5
1578
330
1F
100
AcDbEntity
  8
TK2
100
AcDbLine
 10
86.51256507236444
 20
344.6516508325954
 30
0.0
 11
86.51256507236444
 21
343.2516508325954
 31
0.0
  0
LINE
  5
1579
330
1F
100
AcDbEntity
  8
TK2
100
AcDbLine
 10
90.51256507236445
 20
343.2516508325954
 30
0.0
 11
90.51256507236445
 21
344.6516508325954
 31
0.0
  0
LINE
  5
157A
330
1F
100
AcDbEntity
  8
TK2
100
AcDbLine
 10
86.01256507236445
 20
343.2516508325954
 30
0.0
 11
86.51256507236434
 21
343.2516508325954
 31
0.0
  0
LINE
  5
157B
330
1F
100
AcDbEntity
  8
TK2
100
AcDbLine
 10
92.51256507236456
 20
341.7516508325954
 30
0.0
 11
92.51256507236456
 21
297.7516508325954
 31
0.0
  0
LINE
  5
157C
330
1F
100
AcDbEntity
  8
TK2
100
AcDbLine
 10
84.51256507236445
 20
341.7516508325954
 30
0.0
 11
84.51256507236445
 21
297.7516508325954
 31
0.0
  0
LINE
  5
157D
330
1F
100
AcDbEntity
  8
TK2
100
AcDbLine
 10
75.51256507236434
 20
341.7516508325954
 30
0.0
 11
75.51256507236434
 21
297.7516508325954
 31
0.0
  0
LINE
  5
157E
330
1F
100
AcDbEntity
  8
TK2
100
AcDbLine
 10
83.51256507236445
 20
341.7516508325954
 30
0.0
 11
83.51256507236445
 21
297.7516508325954
 31
0.0
  0
LINE
  5
157F
330
1F
100
AcDbEntity
  8
TK2
100
AcDbLine
 10
77.01256507236434
 20
343.2516508325954
 30
0.0
 11
77.51256507236423
 21
343.2516508325954
 31
0.0
  0
LINE
  5
1580
330
1F
100
AcDbEntity
  8
TK2
100
AcDbLine
 10
81.51256507236434
 20
343.2516508325954
 30
0.0
 11
81.51256507236434
 21
344.6516508325954
 31
0.0
  0
LINE
  5
1581
330
1F
100
AcDbEntity
  8
TK2
100
AcDbLine
 10
77.51256507236433
 20
344.6516508325954
 30
0.0
 11
77.51256507236433
 21
343.2516508325954
 31
0.0
  0
ARC
  5
1582
330
1F
100
AcDbEntity
  8
TK2
100
AcDbCircle
 10
77.01256507236434
 20
341.7516508325954
 30
0.0
 40
1.5
100
AcDbArc
 50
90.0
 51
180.0
1001
GENIUS_GENODEF_13
1002
{
1000
HIER
1070
     0
1002
}
1002
{
1000
MANEDIT
1070
     0
1002
}
1002
{
1000
NOSEL
1070
     0
1002
}
1002
{
1000
BEHIND
1070
     0
1002
}
1002
{
1000
OTHER
1070
     0
1002
}
1002
{
1000
REACTOR
1002
}
1001
GENIUS_GENOBJ-N-FIL_13
1002
{
1000
OWNER
1000
GEN
1002
}
  0
ARC
  5
1583
330
1F
100
AcDbEntity
  8
TK2
100
AcDbCircle
 10
82.01256507236445
 20
341.7516508325954
 30
0.0
 40
1.5
100
AcDbArc
 50
0.0
 51
90.0
1001
GENIUS_GENODEF_13
1002
{
1000
HIER
1070
     0
1002
}
1002
{
1000
MANEDIT
1070
     0
1002
}
1002
{
1000
NOSEL
1070
     0
1002
}
1002
{
1000
BEHIND
1070
     0
1002
}
1002
{
1000
OTHER
1070
     0
1002
}
1002
{
1000
REACTOR
1002
}
1001
GENIUS_GENOBJ-N-FIL_13
1002
{
1000
OWNER
1000
GEN
1002
}
  0
LINE
  5
1584
330
1F
100
AcDbEntity
  8
TK2
100
AcDbLine
 10
81.51256507236434
 20
343.2516508325954
 30
0.0
 11
82.01256507236445
 21
343.2516508325954
 31
0.0
  0
LINE
  5
1585
330
1F
100
AcDbEntity
  8
TK2
100
AcDbLine
 10
90.51256507236445
 20
296.2516508325954
 30
0.0
 11
91.01256507236456
 21
296.2516508325954
 31
0.0
  0
ARC
  5
1586
330
1F
100
AcDbEntity
  8
TK2
100
AcDbCircle
 10
91.01256507236456
 20
297.7516508325954
 30
0.0
 40
1.5
100
AcDbArc
 50
270.0
 51
0.0
1001
GENIUS_GENODEF_13
1002
{
1000
HIER
1070
     0
1002
}
1002
{
1000
MANEDIT
1070
     0
1002
}
1002
{
1000
NOSEL
1070
     0
1002
}
1002
{
1000
BEHIND
1070
     0
1002
}
1002
{
1000
OTHER
1070
     0
1002
}
1002
{
1000
REACTOR
1002
}
1001
GENIUS_GENOBJ-N-FIL_13
1002
{
1000
OWNER
1000
GEN
1002
}
  0
ARC
  5
1587
330
1F
100
AcDbEntity
  8
TK2
100
AcDbCircle
 10
86.01256507236445
 20
297.7516508325954
 30
0.0
 40
1.5
100
AcDbArc
 50
180.0
 51
270.0
1001
GENIUS_GENODEF_13
1002
{
1000
HIER
1070
     0
1002
}
1002
{
1000
MANEDIT
1070
     0
1002
}
1002
{
1000
NOSEL
1070
     0
1002
}
1002
{
1000
BEHIND
1070
     0
1002
}
1002
{
1000
OTHER
1070
     0
1002
}
1002
{
1000
REACTOR
1002
}
1001
GENIUS_GENOBJ-N-FIL_13
1002
{
1000
OWNER
1000
GEN
1002
}
  0
LINE
  5
1588
330
1F
100
AcDbEntity
  8
TK2
100
AcDbLine
 10
86.51256507236444
 20
294.8516508325954
 30
0.0
 11
86.51256507236444
 21
296.2516508325954
 31
0.0
  0
LINE
  5
1589
330
1F
100
AcDbEntity
  8
TK2
100
AcDbLine
 10
90.51256507236445
 20
296.2516508325954
 30
0.0
 11
90.51256507236445
 21
294.8516508325954
 31
0.0
  0
LINE
  5
158A
330
1F
100
AcDbEntity
  8
TK2
100
AcDbLine
 10
86.01256507236445
 20
296.2516508325954
 30
0.0
 11
86.51256507236434
 21
296.2516508325954
 31
0.0
  0
LINE
  5
158F
330
1F
100
AcDbEntity
  8
TK2
100
AcDbLine
 10
77.01256507236434
 20
296.2516508325954
 30
0.0
 11
77.51256507236423
 21
296.2516508325954
 31
0.0
  0
LINE
  5
1590
330
1F
100
AcDbEntity
  8
TK2
100
AcDbLine
 10
81.51256507236434
 20
296.2516508325954
 30
0.0
 11
81.51256507236434
 21
294.8516508325954
 31
0.0
  0
LINE
  5
1591
330
1F
100
AcDbEntity
  8
TK2
100
AcDbLine
 10
77.51256507236433
 20
294.8516508325954
 30
0.0
 11
77.51256507236433
 21
296.2516508325954
 31
0.0
  0
ARC
  5
1592
330
1F
100
AcDbEntity
  8
TK2
100
AcDbCircle
 10
77.01256507236434
 20
297.7516508325954
 30
0.0
 40
1.5
100
AcDbArc
 50
180.0
 51
270.0
1001
GENIUS_GENODEF_13
1002
{
1000
HIER
1070
     0
1002
}
1002
{
1000
MANEDIT
1070
     0
1002
}
1002
{
1000
NOSEL
1070
     0
1002
}
1002
{
1000
BEHIND
1070
     0
1002
}
1002
{
1000
OTHER
1070
     0
1002
}
1002
{
1000
REACTOR
1002
}
1001
GENIUS_GENOBJ-N-FIL_13
1002
{
1000
OWNER
1000
GEN
1002
}
  0
ARC
  5
1593
330
1F
100
AcDbEntity
  8
TK2
100
AcDbCircle
 10
82.01256507236445
 20
297.7516508325954
 30
0.0
 40
1.5
100
AcDbArc
 50
270.0
 51
0.0
1001
GENIUS_GENODEF_13
1002
{
1000
HIER
1070
     0
1002
}
1002
{
1000
MANEDIT
1070
     0
1002
}
1002
{
1000
NOSEL
1070
     0
1002
}
1002
{
1000
BEHIND
1070
     0
1002
}
1002
{
1000
OTHER
1070
     0
1002
}
1002
{
1000
REACTOR
1002
}
1001
GENIUS_GENOBJ-N-FIL_13
1002
{
1000
OWNER
1000
GEN
1002
}
  0
LINE
  5
1594
330
1F
100
AcDbEntity
  8
TK2
100
AcDbLine
 10
81.51256507236434
 20
296.2516508325954
 30
0.0
 11
82.01256507236445
 21
296.2516508325954
 31
0.0
  0
LINE
  5
17AB
330
1F
100
AcDbEntity
  8
AM_7
  6
AM_ISO08W050x2
100
AcDbLine
 10
79.41256507236431
 20
353.2516508325954
 30
0.0
 11
82.41256507236432
 21
353.2516508325954
 31
0.0
1001
GENIUS_GENOREF_13
1005
17BB
  0
LINE
  5
17AC
330
1F
100
AcDbEntity
  8
AM_7
  6
AM_ISO08W050x2
100
AcDbLine
 10
79.41256507236431
 20
353.2516508325954
 30
0.0
 11
79.41256507236431
 21
356.2516508325954
 31
0.0
1001
GENIUS_GENOREF_13
1005
17BB
  0
LINE
  5
17AD
330
1F
100
AcDbEntity
  8
AM_7
  6
AM_ISO08W050x2
100
AcDbLine
 10
79.41256507236431
 20
353.2516508325954
 30
0.0
 11
76.41256507236431
 21
353.2516508325954
 31
0.0
1001
GENIUS_GENOREF_13
1005
17BB
  0
LINE
  5
17AE
330
1F
100
AcDbEntity
  8
AM_7
  6
AM_ISO08W050x2
100
AcDbLine
 10
79.41256507236431
 20
353.2516508325954
 30
0.0
 11
79.41256507236431
 21
350.2516508325954
 31
0.0
1001
GENIUS_GENOREF_13
1005
17BB
  0
LINE
  5
17AF
330
1F
100
AcDbEntity
  8
AM_7
  6
AM_ISO08W050x2
100
AcDbLine
 10
149.4125650723643
 20
353.2516508325954
 30
0.0
 11
152.4125650723643
 21
353.2516508325954
 31
0.0
1001
GENIUS_GENOREF_13
1005
17BE
  0
LINE
  5
17B0
330
1F
100
AcDbEntity
  8
AM_7
  6
AM_ISO08W050x2
100
AcDbLine
 10
149.4125650723643
 20
353.2516508325954
 30
0.0
 11
149.4125650723643
 21
356.2516508325954
 31
0.0
1001
GENIUS_GENOREF_13
1005
17BE
  0
LINE
  5
17B1
330
1F
100
AcDbEntity
  8
AM_7
  6
AM_ISO08W050x2
100
AcDbLine
 10
149.4125650723643
 20
353.2516508325954
 30
0.0
 11
146.4125650723643
 21
353.2516508325954
 31
0.0
1001
GENIUS_GENOREF_13
1005
17BE
  0
LINE
  5
17B2
330
1F
100
AcDbEntity
  8
AM_7
  6
AM_ISO08W050x2
100
AcDbLine
 10
149.4125650723643
 20
353.2516508325954
 30
0.0
 11
149.4125650723643
 21
350.2516508325954
 31
0.0
1001
GENIUS_GENOREF_13
1005
17BE
  0
LINE
  5
17B3
330
1F
100
AcDbEntity
  8
AM_7
  6
AM_ISO08W050x2
100
AcDbLine
 10
79.41256507236431
 20
286.2516508325955
 30
0.0
 11
82.41256507236432
 21
286.2516508325955
 31
0.0
1001
GENIUS_GENOREF_13
1005
17BD
  0
LINE
  5
17B4
330
1F
100
AcDbEntity
  8
AM_7
  6
AM_ISO08W050x2
100
AcDbLine
 10
79.41256507236431
 20
286.2516508325955
 30
0.0
 11
79.41256507236431
 21
283.2516508325955
 31
0.0
1001
GENIUS_GENOREF_13
1005
17BD
  0
LINE
  5
17B5
330
1F
100
AcDbEntity
  8
AM_7
  6
AM_ISO08W050x2
100
AcDbLine
 10
79.41256507236431
 20
286.2516508325955
 30
0.0
 11
76.41256507236431
 21
286.2516508325955
 31
0.0
1001
GENIUS_GENOREF_13
1005
17BD
  0
LINE
  5
17B6
330
1F
100
AcDbEntity
  8
AM_7
  6
AM_ISO08W050x2
100
AcDbLine
 10
79.41256507236431
 20
286.2516508325955
 30
0.0
 11
79.41256507236431
 21
289.2516508325955
 31
0.0
1001
GENIUS_GENOREF_13
1005
17BD
  0
LINE
  5
17B7
330
1F
100
AcDbEntity
  8
AM_7
  6
AM_ISO08W050x2
100
AcDbLine
 10
149.4125650723643
 20
286.2516508325955
 30
0.0
 11
152.4125650723643
 21
286.2516508325955
 31
0.0
1001
GENIUS_GENOREF_13
1005
17BC
  0
LINE
  5
17B8
330
1F
100
AcDbEntity
  8
AM_7
  6
AM_ISO08W050x2
100
AcDbLine
 10
149.4125650723643
 20
286.2516508325955
 30
0.0
 11
149.4125650723643
 21
283.2516508325955
 31
0.0
1001
GENIUS_GENOREF_13
1005
17BC
  0
LINE
  5
17B9
330
1F
100
AcDbEntity
  8
AM_7
  6
AM_ISO08W050x2
100
AcDbLine
 10
149.4125650723643
 20
286.2516508325955
 30
0.0
 11
146.4125650723643
 21
286.2516508325955
 31
0.0
1001
GENIUS_GENOREF_13
1005
17BC
  0
LINE
  5
17BA
330
1F
100
AcDbEntity
  8
AM_7
  6
AM_ISO08W050x2
100
AcDbLine
 10
149.4125650723643
 20
286.2516508325955
 30
0.0
 11
149.4125650723643
 21
289.2516508325955
 31
0.0
1001
GENIUS_GENOREF_13
1005
17BC
  0
POINT
  5
17BB
330
1F
100
AcDbEntity
  8
0
 60
     1
100
AcDbPoint
 10
-227.3149988561256
 20
229.1085012345389
 30
0.0
1001
GENIUS_GENOLIS_13
1002
{
1000
ENT
1005
17AE
1005
17AD
1005
17AC
1005
17AB
1002
}
1001
GENIUS_GENODEF_13
1002
{
1000
HIER
1070
    10
1002
}
1002
{
1000
MANEDIT
1070
     0
1002
}
1002
{
1000
NOSEL
1070
     0
1002
}
1002
{
1000
BEHIND
1070
     0
1002
}
1002
{
1000
OTHER
1070
     0
1002
}
1002
{
1000
REACTOR
1002
}
1001
GENIUS_GENOENT_13
1002
{
1000
MYREF
1005
17BB
1002
}
1002
{
1000
GRP
1005
0
1002
}
1001
GENIUS_GENOBJ-N-CRS_13
1002
{
1000
OWNER
1000
GEN
1002
}
  0
POINT
  5
17BC
330
1F
100
AcDbEntity
  8
0
 60
     1
100
AcDbPoint
 10
-157.3149988561256
 20
410.3948004306518
 30
0.0
1001
GENIUS_GENOLIS_13
1002
{
1000
ENT
1005
17BA
1005
17B9
1005
17B8
1005
17B7
1002
}
1001
GENIUS_GENODEF_13
1002
{
1000
HIER
1070
    10
1002
}
1002
{
1000
MANEDIT
1070
     0
1002
}
1002
{
1000
NOSEL
1070
     0
1002
}
1002
{
1000
BEHIND
1070
     0
1002
}
1002
{
1000
OTHER
1070
     0
1002
}
1002
{
1000
REACTOR
1002
}
1001
GENIUS_GENOENT_13
1002
{
1000
MYREF
1005
17BC
1002
}
1002
{
1000
GRP
1005
0
1002
}
1001
GENIUS_GENOBJ-N-CRS_13
1002
{
1000
OWNER
1000
GEN
1002
}
  0
POINT
  5
17BD
330
1F
100
AcDbEntity
  8
0
 60
     1
100
AcDbPoint
 10
-227.3149988561256
 20
410.3948004306518
 30
0.0
1001
GENIUS_GENOLIS_13
1002
{
1000
ENT
1005
17B6
1005
17B5
1005
17B4
1005
17B3
1002
}
1001
GENIUS_GENODEF_13
1002
{
1000
HIER
1070
    10
1002
}
1002
{
1000
MANEDIT
1070
     0
1002
}
1002
{
1000
NOSEL
1070
     0
1002
}
1002
{
1000
BEHIND
1070
     0
1002
}
1002
{
1000
OTHER
1070
     0
1002
}
1002
{
1000
REACTOR
1002
}
1001
GENIUS_GENOENT_13
1002
{
1000
MYREF
1005
17BD
1002
}
1002
{
1000
GRP
1005
0
1002
}
1001
GENIUS_GENOBJ-N-CRS_13
1002
{
1000
OWNER
1000
GEN
1002
}
  0
POINT
  5
17BE
330
1F
100
AcDbEntity
  8
0
 60
     1
100
AcDbPoint
 10
-157.3149988561256
 20
229.1085012345389
 30
0.0
1001
GENIUS_GENOLIS_13
1002
{
1000
ENT
1005
17B2
1005
17B1
1005
17B0
1005
17AF
1002
}
1001
GENIUS_GENODEF_13
1002
{
1000
HIER
1070
    10
1002
}
1002
{
1000
MANEDIT
1070
     0
1002
}
1002
{
1000
NOSEL
1070
     0
1002
}
1002
{
1000
BEHIND
1070
     0
1002
}
1002
{
1000
OTHER
1070
     0
1002
}
1002
{
1000
REACTOR
1002
}
1001
GENIUS_GENOENT_13
1002
{
1000
MYREF
1005
17BE
1002
}
1002
{
1000
GRP
1005
0
1002
}
1001
GENIUS_GENOBJ-N-CRS_13
1002
{
1000
OWNER
1000
GEN
1002
}
  0
CIRCLE
  5
17BF
330
1F
100
AcDbEntity
  8
TK20
100
AcDbCircle
 10
79.41256507236431
 20
353.2516508325954
 30
0.0
 40
1.199999999999999
  0
CIRCLE
  5
17C0
330
1F
100
AcDbEntity
  8
TK20
100
AcDbCircle
 10
149.4125650723643
 20
353.2516508325953
 30
0.0
 40
1.199999999999999
  0
CIRCLE
  5
17C1
330
1F
100
AcDbEntity
  8
TK20
100
AcDbCircle
 10
149.4125650723643
 20
286.2516508325955
 30
0.0
 40
1.199999999999999
  0
CIRCLE
  5
17C2
330
1F
100
AcDbEntity
  8
TK20
100
AcDbCircle
 10
79.4125650723643
 20
286.2516508325954
 30
0.0
 40
1.199999999999999
  0
LINE
  5
17C4
330
1F
100
AcDbEntity
  8
TK2
100
AcDbLine
 10
161.6625650723643
 20
357.1516508325954
 30
0.0
 11
161.6625650723643
 21
351.1516508325954
 31
0.0
  0
LINE
  5
17C5
330
1F
100
AcDbEntity
  8
TK2
100
AcDbLine
 10
161.6625650723643
 20
351.1516508325954
 30
0.0
 11
166.9125650723643
 21
351.1516508325954
 31
0.0
  0
LWPOLYLINE
  5
1851
102
{ACAD_REACTORS
330
298E
330
29B2
102
}
330
1F
100
AcDbEntity
  8
TK2
100
AcDbPolyline
 90
        8
 70
     1
 43
0.0
 10
67.91256507236436
 20
350.1516508325953
 10
70.91256507236436
 20
350.1516508325953
 42
0.4142135623730951
 10
71.91256507236436
 20
351.1516508325953
 10
71.91256507236436
 20
356.1516508325953
 42
0.4142135623730951
 10
70.91256507236436
 20
357.1516508325953
 10
67.91256507236436
 20
357.1516508325954
 42
0.4142135623730951
 10
66.91256507236436
 20
356.1516508325953
 10
66.91256507236436
 20
351.1516508325954
 42
0.4142135623730951
1001
GENIUS_GENREC_14
1002
{
1000
PYDIR
1011
66.91256507236436
1021
357.1516508325954
1031
0.0
1002
}
1002
{
1000
PXDIR
1011
71.91256507236436
1021
350.1516508325953
1031
0.0
1002
}
1002
{
1000
PORI
1011
66.91256507236436
1021
350.1516508325953
1031
0.0
1002
}
1002
{
1000
PINS
1011
66.91256507236436
1021
350.1516508325953
1031
0.0
1002
}
1002
{
1000
HVAL
1000
7
1002
}
1002
{
1000
H
1070
     2
1002
}
1002
{
1000
WVAL
1000
5
1002
}
1002
{
1000
W
1070
     2
1002
}
1002
{
1000
C
1070
     1
1002
}
1001
GENIUS_GENODEF_13
1002
{
1000
HIER
1070
     0
1002
}
1002
{
1000
MANEDIT
1070
     0
1002
}
1002
{
1000
NOSEL
1070
     0
1002
}
1002
{
1000
BEHIND
1070
     0
1002
}
1002
{
1000
OTHER
1070
     0
1002
}
1002
{
1000
REACTOR
1002
}
1001
GENIUS_GENOBJ-N-REC_13
1002
{
1000
OWNER
1000
GEN
1002
}
  0
LWPOLYLINE
  5
18E2
330
1F
100
AcDbEntity
  8
TK2
100
AcDbPolyline
 90
        4
 70
     1
 43
0.0
 10
126.2125650723643
 20
282.3516508325954
 10
136.9125650723643
 20
282.3516508325954
 10
136.9125650723643
 20
287.8516508325954
 10
126.2125650723643
 20
287.8516508325954
1001
GENIUS_GENREC_14
1002
{
1000
PYDIR
1011
126.2125650723643
1021
287.8516508325954
1031
0.0
1002
}
1002
{
1000
PXDIR
1011
136.9125650723643
1021
282.3516508325954
1031
0.0
1002
}
1002
{
1000
PORI
1011
126.2125650723643
1021
282.3516508325954
1031
0.0
1002
}
1002
{
1000
PINS
1011
126.2125650723643
1021
282.3516508325954
1031
0.0
1002
}
1002
{
1000
PINS2
1011
136.9125650723643
1021
287.8516508325954
1031
0.0
1002
}
1002
{
1000
C
1070
     1
1002
}
1001
GENIUS_GENOBJ-N-REC_13
1002
{
1000
OWNER
1000
GEN
1002
}
1001
GENIUS_GENODEF_13
1002
{
1000
HIER
1070
     0
1002
}
1002
{
1000
MANEDIT
1070
     0
1002
}
1002
{
1000
NOSEL
1070
     0
1002
}
1002
{
1000
BEHIND
1070
     0
1002
}
1002
{
1000
OTHER
1070
     0
1002
}
1002
{
1000
REACTOR
1002
}
  0
CIRCLE
  5
1925
330
1F
100
AcDbEntity
  8
TK2
100
AcDbCircle
 10
158.9125650723643
 20
285.0501796834296
 30
0.0
 40
2.5
  0
LWPOLYLINE
  5
1955
330
1F
100
AcDbEntity
  8
TK1
100
AcDbPolyline
 90
        4
 70
     1
 43
0.0
 10
171.6625650723643
 20
282.4501796834296
 10
178.1625650723643
 20
282.4501796834296
 10
178.1625650723643
 20
287.6501796834296
 10
171.6625650723643
 20
287.6501796834296
1001
GENIUS_GENREC_14
1002
{
1000
PYDIR
1011
171.6625650723643
1021
287.6501796834296
1031
0.0
1002
}
1002
{
1000
PXDIR
1011
178.1625650723643
1021
282.4501796834296
1031
0.0
1002
}
1002
{
1000
PORI
1011
171.6625650723643
1021
282.4501796834296
1031
0.0
1002
}
1002
{
1000
PINS
1011
174.9125650723643
1021
285.0501796834296
1031
0.0
1002
}
1002
{
1000
HVAL
1000
5.2
1002
}
1002
{
1000
H
1070
     2
1002
}
1002
{
1000
WVAL
1000
6.5
1002
}
1002
{
1000
W
1070
     2
1002
}
1002
{
1000
C
1070
     4
1002
}
1001
GENIUS_GENODEF_13
1002
{
1000
HIER
1070
     0
1002
}
1002
{
1000
MANEDIT
1070
     0
1002
}
1002
{
1000
NOSEL
1070
     0
1002
}
1002
{
1000
BEHIND
1070
     0
1002
}
1002
{
1000
OTHER
1070
     0
1002
}
1002
{
1000
REACTOR
1002
}
1001
GENIUS_GENOBJ-N-REC_13
1002
{
1000
OWNER
1000
GEN
1002
}
  0
LINE
  5
195C
330
1F
100
AcDbEntity
  8
TK1
100
AcDbLine
 10
256.9125650723644
 20
280.8516508325954
 30
0.0
 11
219.1625650723642
 21
280.8516508325954
 31
0.0
  0
ARC
  5
195D
330
1F
100
AcDbEntity
  8
TK1
100
AcDbCircle
 10
256.9125650723644
 20
290.8516508325954
 30
0.0
 40
10.0
100
AcDbArc
 50
270.0
 51
0.000000000000007
1001
GENIUS_GENOBJ-N-FIL_13
1002
{
1000
OWNER
1000
GEN
1002
}
1001
GENIUS_GENODEF_13
1002
{
1000
HIER
1070
     0
1002
}
1002
{
1000
MANEDIT
1070
     0
1002
}
1002
{
1000
NOSEL
1070
     0
1002
}
1002
{
1000
BEHIND
1070
     0
1002
}
1002
{
1000
OTHER
1070
     0
1002
}
1002
{
1000
REACTOR
1002
}
  0
LINE
  5
195E
330
1F
100
AcDbEntity
  8
TK1
100
AcDbLine
 10
266.9125650723644
 20
290.8516508325954
 30
0.0
 11
266.9125650723644
 21
349.6516508325954
 31
0.0
  0
LINE
  5
19E9
330
1F
100
AcDbEntity
  8
TK1
100
AcDbLine
 10
166.9125650723643
 20
344.0016508325954
 30
0.0
 11
251.6625650723644
 21
344.0016508325953
 31
0.0
  0
LINE
  5
19F2
330
1F
100
AcDbEntity
  8
TK1
100
AcDbLine
 10
166.9125650723643
 20
295.5016508325954
 30
0.0
 11
251.6625650723644
 21
295.5016508325954
 31
0.0
  0
LINE
  5
1AEF
330
1F
100
AcDbEntity
  8
TK1
100
AcDbLine
 10
258.6625650723644
 20
337.0016508325953
 30
0.0
 11
258.6625650723644
 21
302.5016508325954
 31
0.0
  0
ARC
  5
1B82
330
1F
100
AcDbEntity
  8
TK1
100
AcDbCircle
 10
251.6625650723644
 20
302.5016508325954
 30
0.0
 40
7.0
100
AcDbArc
 50
270.0
 51
0.0
1001
GENIUS_GENOBJ-N-FIL_13
1002
{
1000
OWNER
1000
GEN
1002
}
1001
GENIUS_GENODEF_13
1002
{
1000
HIER
1070
     0
1002
}
1002
{
1000
MANEDIT
1070
     0
1002
}
1002
{
1000
NOSEL
1070
     0
1002
}
1002
{
1000
BEHIND
1070
     0
1002
}
1002
{
1000
OTHER
1070
     0
1002
}
1002
{
1000
REACTOR
1002
}
  0
ARC
  5
1B84
330
1F
100
AcDbEntity
  8
TK1
100
AcDbCircle
 10
251.6625650723644
 20
337.0016508325953
 30
0.0
 40
7.0
100
AcDbArc
 50
0.0
 51
90.0
1001
GENIUS_GENODEF_13
1002
{
1000
HIER
1070
     0
1002
}
1002
{
1000
MANEDIT
1070
     0
1002
}
1002
{
1000
NOSEL
1070
     0
1002
}
1002
{
1000
BEHIND
1070
     0
1002
}
1002
{
1000
OTHER
1070
     0
1002
}
1002
{
1000
REACTOR
1002
}
1001
GENIUS_GENOBJ-N-FIL_13
1002
{
1000
OWNER
1000
GEN
1002
}
  0
LINE
  5
1B85
330
1F
100
AcDbEntity
  8
TK2
100
AcDbLine
 10
265.9125650723644
 20
357.1516508325955
 30
0.0
 11
166.9125650723644
 21
357.1516508325954
 31
0.0
  0
LINE
  5
1B86
330
1F
100
AcDbEntity
  8
AM_7
  6
AM_ISO08W050x2
100
AcDbLine
 10
254.4125650723644
 20
353.2516508325955
 30
0.0
 11
251.4125650723644
 21
353.2516508325955
 31
0.0
1001
GENIUS_GENOREF_13
1005
1B93
  0
LINE
  5
1B87
330
1F
100
AcDbEntity
  8
AM_7
  6
AM_ISO08W050x2
100
AcDbLine
 10
254.4125650723644
 20
353.2516508325955
 30
0.0
 11
254.4125650723644
 21
356.2516508325956
 31
0.0
1001
GENIUS_GENOREF_13
1005
1B93
  0
LINE
  5
1B88
330
1F
100
AcDbEntity
  8
AM_7
  6
AM_ISO08W050x2
100
AcDbLine
 10
254.4125650723644
 20
353.2516508325955
 30
0.0
 11
257.4125650723644
 21
353.2516508325955
 31
0.0
1001
GENIUS_GENOREF_13
1005
1B93
  0
LINE
  5
1B89
330
1F
100
AcDbEntity
  8
AM_7
  6
AM_ISO08W050x2
100
AcDbLine
 10
254.4125650723644
 20
353.2516508325955
 30
0.0
 11
254.4125650723644
 21
350.2516508325955
 31
0.0
1001
GENIUS_GENOREF_13
1005
1B93
  0
LINE
  5
1B8A
330
1F
100
AcDbEntity
  8
AM_7
  6
AM_ISO08W050x2
100
AcDbLine
 10
184.4125650723644
 20
353.2516508325954
 30
0.0
 11
181.4125650723644
 21
353.2516508325954
 31
0.0
1001
GENIUS_GENOREF_13
1005
1B92
  0
LINE
  5
1B8B
330
1F
100
AcDbEntity
  8
AM_7
  6
AM_ISO08W050x2
100
AcDbLine
 10
184.4125650723644
 20
353.2516508325954
 30
0.0
 11
184.4125650723644
 21
356.2516508325954
 31
0.0
1001
GENIUS_GENOREF_13
1005
1B92
  0
LINE
  5
1B8C
330
1F
100
AcDbEntity
  8
AM_7
  6
AM_ISO08W050x2
100
AcDbLine
 10
184.4125650723644
 20
353.2516508325954
 30
0.0
 11
187.4125650723644
 21
353.2516508325954
 31
0.0
1001
GENIUS_GENOREF_13
1005
1B92
  0
LINE
  5
1B8D
330
1F
100
AcDbEntity
  8
AM_7
  6
AM_ISO08W050x2
100
AcDbLine
 10
184.4125650723644
 20
353.2516508325954
 30
0.0
 11
184.4125650723644
 21
350.2516508325954
 31
0.0
1001
GENIUS_GENOREF_13
1005
1B92
  0
CIRCLE
  5
1B8E
330
1F
100
AcDbEntity
  8
TK20
100
AcDbCircle
 10
254.4125650723644
 20
353.2516508325955
 30
0.0
 40
1.199999999999999
  0
CIRCLE
  5
1B8F
330
1F
100
AcDbEntity
  8
TK20
100
AcDbCircle
 10
184.4125650723644
 20
353.2516508325954
 30
0.0
 40
1.199999999999999
  0
LINE
  5
1B90
330
1F
100
AcDbEntity
  8
TK2
100
AcDbLine
 10
172.1625650723644
 20
357.1516508325954
 30
0.0
 11
172.1625650723644
 21
351.1516508325954
 31
0.0
  0
LWPOLYLINE
  5
1B91
102
{ACAD_REACTORS
330
298E
102
}
330
1F
100
AcDbEntity
  8
TK2
100
AcDbPolyline
 90
        8
 70
     1
 43
0.0
 10
265.9125650723644
 20
350.1516508325955
 10
262.9125650723644
 20
350.1516508325955
 42
-0.4142135623730951
 10
261.9125650723644
 20
351.1516508325954
 10
261.9125650723644
 20
356.1516508325955
 42
-0.4142135623730951
 10
262.9125650723644
 20
357.1516508325955
 10
265.9125650723644
 20
357.1516508325955
 42
-0.4142135623730951
 10
266.9125650723644
 20
356.1516508325955
 10
266.9125650723644
 20
351.1516508325955
 42
-0.4142135623730951
1001
GENIUS_GENREC_14
1002
{
1000
PYDIR
1011
266.9125650723644
1021
357.1516508325955
1031
0.0
1002
}
1002
{
1000
PXDIR
1011
261.9125650723644
1021
350.1516508325955
1031
0.0
1002
}
1002
{
1000
PORI
1011
266.9125650723644
1021
350.1516508325955
1031
0.0
1002
}
1002
{
1000
PINS
1011
266.9125650723644
1021
350.1516508325955
1031
0.0
1002
}
1002
{
1000
HVAL
1000
7
1002
}
1002
{
1000
H
1070
     2
1002
}
1002
{
1000
WVAL
1000
5
1002
}
1002
{
1000
W
1070
     2
1002
}
1002
{
1000
C
1070
     1
1002
}
1001
GENIUS_GENODEF_13
1002
{
1000
HIER
1070
     0
1002
}
1002
{
1000
MANEDIT
1070
     0
1002
}
1002
{
1000
NOSEL
1070
     0
1002
}
1002
{
1000
BEHIND
1070
     0
1002
}
1002
{
1000
OTHER
1070
     0
1002
}
1002
{
1000
REACTOR
1002
}
1001
GENIUS_GENOBJ-N-REC_13
1002
{
1000
OWNER
1000
GEN
1002
}
  0
POINT
  5
1B92
330
1F
100
AcDbEntity
  8
0
 60
     1
100
AcDbPoint
 10
491.1401290008545
 20
229.1085012345395
 30
0.0
1001
GENIUS_GENOLIS_13
1002
{
1000
ENT
1005
1B8D
1005
1B8C
1005
1B8B
1005
1B8A
1002
}
1001
GENIUS_GENODEF_13
1002
{
1000
HIER
1070
    10
1002
}
1002
{
1000
MANEDIT
1070
     0
1002
}
1002
{
1000
NOSEL
1070
     0
1002
}
1002
{
1000
BEHIND
1070
     0
1002
}
1002
{
1000
OTHER
1070
     0
1002
}
1002
{
1000
REACTOR
1002
}
1001
GENIUS_GENOENT_13
1002
{
1000
MYREF
1005
1B92
1002
}
1002
{
1000
GRP
1005
0
1002
}
1001
GENIUS_GENOBJ-N-CRS_13
1002
{
1000
OWNER
1000
GEN
1002
}
  0
POINT
  5
1B93
330
1F
100
AcDbEntity
  8
0
 60
     1
100
AcDbPoint
 10
561.1401290008545
 20
229.1085012345396
 30
0.0
1001
GENIUS_GENOLIS_13
1002
{
1000
ENT
1005
1B89
1005
1B88
1005
1B87
1005
1B86
1002
}
1001
GENIUS_GENODEF_13
1002
{
1000
HIER
1070
    10
1002
}
1002
{
1000
MANEDIT
1070
     0
1002
}
1002
{
1000
NOSEL
1070
     0
1002
}
1002
{
1000
BEHIND
1070
     0
1002
}
1002
{
1000
OTHER
1070
     0
1002
}
1002
{
1000
REACTOR
1002
}
1001
GENIUS_GENOENT_13
1002
{
1000
MYREF
1005
1B93
1002
}
1002
{
1000
GRP
1005
0
1002
}
1001
GENIUS_GENOBJ-N-CRS_13
1002
{
1000
OWNER
1000
GEN
1002
}
  0
LINE
  5
1BE1
330
1F
100
AcDbEntity
  8
TK1
100
AcDbLine
 10
166.9125650723643
 20
349.6516508325954
 30
0.0
 11
173.3125650723643
 21
349.6516508325954
 31
0.0
  0
LINE
  5
1BE2
330
1F
100
AcDbEntity
  8
TK1
100
AcDbLine
 10
173.3125650723643
 20
349.6516508325954
 30
0.0
 11
173.3125650723643
 21
355.6516508325954
 31
0.0
  0
LINE
  5
1C00
330
1F
100
AcDbEntity
  8
TK10
100
AcDbLine
 10
172.1625650723644
 20
352.1516508325954
 30
0.0
 11
166.9125650723643
 21
352.1516508325954
 31
0.0
  0
LINE
  5
1C02
330
1F
100
AcDbEntity
  8
TK10
100
AcDbLine
 10
172.1625650723644
 20
355.1516508325954
 30
0.0
 11
166.9125650723643
 21
355.1516508325954
 31
0.0
  0
LINE
  5
1C0C
330
1F
100
AcDbEntity
  8
TK1
100
AcDbLine
 10
173.3125650723643
 20
355.6516508325954
 30
0.0
 11
261.2125650723643
 21
355.6516508325955
 31
0.0
  0
LINE
  5
1C2A
330
1F
100
AcDbEntity
  8
TK2
100
AcDbLine
 10
166.9125650723643
 20
351.1516508325954
 30
0.0
 11
172.1625650723644
 21
351.1516508325954
 31
0.0
  0
LINE
  5
1C43
330
1F
100
AcDbEntity
  8
TK1
100
AcDbLine
 10
172.1625650723644
 20
355.1516508325955
 30
0.0
 11
173.3125650723643
 21
355.1516508325955
 31
0.0
  0
LINE
  5
1C45
330
1F
100
AcDbEntity
  8
TK1
100
AcDbLine
 10
172.1625650723644
 20
352.1516508325953
 30
0.0
 11
173.3125650723643
 21
352.1516508325953
 31
0.0
  0
LINE
  5
1C8E
330
1F
100
AcDbEntity
  8
TK1
100
AcDbLine
 10
261.2125650723644
 20
349.6516508325954
 30
0.0
 11
266.9125650723644
 21
349.6516508325954
 31
0.0
  0
LINE
  5
1C8F
330
1F
100
AcDbEntity
  8
TK1
100
AcDbLine
 10
261.2125650723644
 20
355.6516508325954
 30
0.0
 11
261.2125650723644
 21
349.6516508325954
 31
0.0
  0
LINE
  5
1C91
330
1F
100
AcDbEntity
  8
TK1
100
AcDbLine
 10
266.9125650723644
 20
351.1516508325955
 30
0.0
 11
266.9125650723644
 21
355.6516508325954
 31
0.0
  0
LINE
  5
1CA1
330
1F
100
AcDbEntity
  8
TK2
100
AcDbLine
 10
266.9125650723644
 20
351.1516508325955
 30
0.0
 11
266.9125650723644
 21
349.6516508325954
 31
0.0
  0
LINE
  5
1CB4
330
1F
100
AcDbEntity
  8
TK1
100
AcDbLine
 10
261.2125650723644
 20
355.1516508325954
 30
0.0
 11
261.9125650723644
 21
355.1516508325954
 31
0.0
  0
LINE
  5
1CBA
330
1F
100
AcDbEntity
  8
TK1
100
AcDbLine
 10
261.2125650723644
 20
352.1516508325953
 30
0.0
 11
261.9125650723644
 21
352.1516508325953
 31
0.0
  0
LINE
  5
1E06
330
1F
100
AcDbEntity
  8
TK1
100
AcDbLine
 10
217.6625650723643
 20
279.3516508325954
 30
0.0
 11
219.1625650723642
 21
280.8516508325954
 31
0.0
  0
LINE
  5
1E07
330
1F
100
AcDbEntity
  8
TK1
100
AcDbLine
 10
197.6625650723643
 20
279.3516508325954
 30
0.0
 11
217.6625650723643
 21
279.3516508325955
 31
0.0
  0
LINE
  5
1E08
330
1F
100
AcDbEntity
  8
TK1
100
AcDbLine
 10
196.1625650723643
 20
280.8516508325954
 30
0.0
 11
197.6625650723643
 21
279.3516508325954
 31
0.0
  0
LINE
  5
1E09
330
1F
100
AcDbEntity
  8
TK1
100
AcDbLine
 10
196.1625650723643
 20
280.8516508325954
 30
0.0
 11
166.9125650723643
 21
280.8516508325954
 31
0.0
  0
LINE
  5
1E15
330
1F
100
AcDbEntity
  8
TK1
100
AcDbLine
 10
212.6625650723642
 20
282.6016508325954
 30
0.0
 11
212.6625650723642
 21
287.6016508325954
 31
0.0
  0
LINE
  5
1E16
330
1F
100
AcDbEntity
  8
TK1
100
AcDbLine
 10
207.3475650723642
 20
282.6016508325954
 30
0.0
 11
212.6625650723642
 21
282.6016508325954
 31
0.0
  0
LINE
  5
1E17
330
1F
100
AcDbEntity
  8
TK1
100
AcDbLine
 10
207.3475650723644
 20
287.6016508325954
 30
0.0
 11
212.6625650723642
 21
287.6016508325954
 31
0.0
  0
ARC
  5
1E18
330
1F
100
AcDbEntity
  8
TK1
100
AcDbCircle
 10
200.4125650723644
 20
285.1016508325954
 30
0.0
 40
3.5
100
AcDbArc
 50
89.99999999999674
 51
179.9999999999984
1001
GENIUS_GENOBJ-N-FIL_13
1002
{
1000
OWNER
1000
GEN
1002
}
1001
GENIUS_GENODEF_13
1002
{
1000
HIER
1070
     0
1002
}
1002
{
1000
MANEDIT
1070
     0
1002
}
1002
{
1000
NOSEL
1070
     0
1002
}
1002
{
1000
BEHIND
1070
     0
1002
}
1002
{
1000
OTHER
1070
     0
1002
}
1002
{
1000
REACTOR
1002
}
  0
ARC
  5
1E19
330
1F
100
AcDbEntity
  8
TK1
100
AcDbCircle
 10
200.4125650723644
 20
285.1016508325954
 30
0.0
 40
3.5
100
AcDbArc
 50
179.9999999999984
 51
269.9999999999968
1001
GENIUS_GENOBJ-N-FIL_13
1002
{
1000
OWNER
1000
GEN
1002
}
1001
GENIUS_GENODEF_13
1002
{
1000
HIER
1070
     0
1002
}
1002
{
1000
MANEDIT
1070
     0
1002
}
1002
{
1000
NOSEL
1070
     0
1002
}
1002
{
1000
BEHIND
1070
     0
1002
}
1002
{
1000
OTHER
1070
     0
1002
}
1002
{
1000
REACTOR
1002
}
  0
LINE
  5
1E1A
330
1F
100
AcDbEntity
  8
TK1
100
AcDbLine
 10
207.3475650723641
 20
281.6016508325952
 30
0.0
 11
200.4125650723642
 21
281.6016508325954
 31
0.0
  0
LINE
  5
1E1B
330
1F
100
AcDbEntity
  8
TK1
100
AcDbLine
 10
207.3475650723644
 20
288.6016508325952
 30
0.0
 11
207.3475650723641
 21
281.6016508325952
 31
0.0
  0
LINE
  5
1E1C
330
1F
100
AcDbEntity
  8
TK1
100
AcDbLine
 10
207.3475650723644
 20
288.6016508325952
 30
0.0
 11
200.4125650723644
 21
288.6016508325954
 31
0.0
  0
LINE
  5
1EB5
330
1F
100
AcDbEntity
  8
AM_7
  6
AM_ISO08W050x2
100
AcDbLine
 10
254.4125650723643
 20
286.2516508325953
 30
0.0
 11
251.4125650723643
 21
286.2516508325953
 31
0.0
1001
GENIUS_GENOREF_13
1005
1EC0
  0
LINE
  5
1EB6
330
1F
100
AcDbEntity
  8
AM_7
  6
AM_ISO08W050x2
100
AcDbLine
 10
254.4125650723643
 20
286.2516508325953
 30
0.0
 11
254.4125650723643
 21
283.2516508325953
 31
0.0
1001
GENIUS_GENOREF_13
1005
1EC0
  0
LINE
  5
1EB7
330
1F
100
AcDbEntity
  8
AM_7
  6
AM_ISO08W050x2
100
AcDbLine
 10
254.4125650723643
 20
286.2516508325953
 30
0.0
 11
257.4125650723643
 21
286.2516508325953
 31
0.0
1001
GENIUS_GENOREF_13
1005
1EC0
  0
LINE
  5
1EB8
330
1F
100
AcDbEntity
  8
AM_7
  6
AM_ISO08W050x2
100
AcDbLine
 10
254.4125650723643
 20
286.2516508325953
 30
0.0
 11
254.4125650723643
 21
289.2516508325953
 31
0.0
1001
GENIUS_GENOREF_13
1005
1EC0
  0
LINE
  5
1EB9
330
1F
100
AcDbEntity
  8
AM_7
  6
AM_ISO08W050x2
100
AcDbLine
 10
184.4125650723643
 20
286.2516508325955
 30
0.0
 11
181.4125650723643
 21
286.2516508325955
 31
0.0
1001
GENIUS_GENOREF_13
1005
1EBF
  0
LINE
  5
1EBA
330
1F
100
AcDbEntity
  8
AM_7
  6
AM_ISO08W050x2
100
AcDbLine
 10
184.4125650723643
 20
286.2516508325955
 30
0.0
 11
184.4125650723643
 21
283.2516508325955
 31
0.0
1001
GENIUS_GENOREF_13
1005
1EBF
  0
LINE
  5
1EBB
330
1F
100
AcDbEntity
  8
AM_7
  6
AM_ISO08W050x2
100
AcDbLine
 10
184.4125650723643
 20
286.2516508325955
 30
0.0
 11
187.4125650723643
 21
286.2516508325955
 31
0.0
1001
GENIUS_GENOREF_13
1005
1EBF
  0
LINE
  5
1EBC
330
1F
100
AcDbEntity
  8
AM_7
  6
AM_ISO08W050x2
100
AcDbLine
 10
184.4125650723643
 20
286.2516508325955
 30
0.0
 11
184.4125650723643
 21
289.2516508325955
 31
0.0
1001
GENIUS_GENOREF_13
1005
1EBF
  0
CIRCLE
  5
1EBD
330
1F
100
AcDbEntity
  8
TK20
100
AcDbCircle
 10
184.4125650723643
 20
286.2516508325955
 30
0.0
 40
1.199999999999999
  0
CIRCLE
  5
1EBE
330
1F
100
AcDbEntity
  8
TK20
100
AcDbCircle
 10
254.4125650723644
 20
286.2516508325953
 30
0.0
 40
1.199999999999999
  0
POINT
  5
1EBF
330
1F
100
AcDbEntity
  8
0
 60
     1
100
AcDbPoint
 10
491.1401290008544
 20
410.3948004306511
 30
0.0
1001
GENIUS_GENOLIS_13
1002
{
1000
ENT
1005
1EBC
1005
1EBB
1005
1EBA
1005
1EB9
1002
}
1001
GENIUS_GENODEF_13
1002
{
1000
HIER
1070
    10
1002
}
1002
{
1000
MANEDIT
1070
     0
1002
}
1002
{
1000
NOSEL
1070
     0
1002
}
1002
{
1000
BEHIND
1070
     0
1002
}
1002
{
1000
OTHER
1070
     0
1002
}
1002
{
1000
REACTOR
1002
}
1001
GENIUS_GENOENT_13
1002
{
1000
MYREF
1005
1EBF
1002
}
1002
{
1000
GRP
1005
0
1002
}
1001
GENIUS_GENOBJ-N-CRS_13
1002
{
1000
OWNER
1000
GEN
1002
}
  0
POINT
  5
1EC0
330
1F
100
AcDbEntity
  8
0
 60
     1
100
AcDbPoint
 10
561.1401290008545
 20
410.3948004306509
 30
0.0
1001
GENIUS_GENOLIS_13
1002
{
1000
ENT
1005
1EB8
1005
1EB7
1005
1EB6
1005
1EB5
1002
}
1001
GENIUS_GENODEF_13
1002
{
1000
HIER
1070
    10
1002
}
1002
{
1000
MANEDIT
1070
     0
1002
}
1002
{
1000
NOSEL
1070
     0
1002
}
1002
{
1000
BEHIND
1070
     0
1002
}
1002
{
1000
OTHER
1070
     0
1002
}
1002
{
1000
REACTOR
1002
}
1001
GENIUS_GENOENT_13
1002
{
1000
MYREF
1005
1EC0
1002
}
1002
{
1000
GRP
1005
0
1002
}
1001
GENIUS_GENOBJ-N-CRS_13
1002
{
1000
OWNER
1000
GEN
1002
}
  0
LINE
  5
1EC7
330
1F
100
AcDbEntity
  8
TK2
100
AcDbLine
 10
344.6585882880586
 20
357.1516508325955
 30
0.0
 11
332.0585882880585
 21
357.1516508325955
 31
0.0
  0
LINE
  5
1EE5
102
{ACAD_REACTORS
330
29D6
102
}
330
1F
100
AcDbEntity
  8
TK2
100
AcDbLine
 10
344.6585882880586
 20
280.8516508325954
 30
0.0
 11
344.6585882880586
 21
357.1516508325955
 31
0.0
  0
LINE
  5
1EE6
330
1F
100
AcDbEntity
  8
TK2
100
AcDbLine
 10
334.6585882880586
 20
280.8516508325954
 30
0.0
 11
344.6585882880586
 21
280.8516508325954
 31
0.0
  0
LINE
  5
1EE7
330
1F
100
AcDbEntity
  8
TK2
100
AcDbLine
 10
334.6585882880586
 20
280.8516508325954
 30
0.0
 11
334.6585882880586
 21
350.3516508325954
 31
0.0
  0
LINE
  5
1F23
330
1F
100
AcDbEntity
  8
TK2
100
AcDbLine
 10
350.6585882880586
 20
346.2516508325954
 30
0.0
 11
350.6585882880586
 21
293.2516508325954
 31
0.0
  0
LINE
  5
1F24
330
1F
100
AcDbEntity
  8
TK2
100
AcDbLine
 10
344.6585882880586
 20
346.2516508325954
 30
0.0
 11
350.6585882880586
 21
346.2516508325954
 31
0.0
  0
LINE
  5
1F25
330
1F
100
AcDbEntity
  8
TK2
100
AcDbLine
 10
344.6585882880586
 20
293.2516508325954
 30
0.0
 11
350.6585882880586
 21
293.2516508325954
 31
0.0
  0
LINE
  5
1F97
330
1F
100
AcDbEntity
  8
TK20
100
AcDbLine
 10
334.6585882880586
 20
344.6516508325954
 30
0.0
 11
350.6585882880586
 21
344.7516508325954
 31
0.0
  0
LINE
  5
1F98
330
1F
100
AcDbEntity
  8
TK20
100
AcDbLine
 10
334.6585882880586
 20
294.8516508325954
 30
0.0
 11
350.6585882880586
 21
294.7516508325954
 31
0.0
  0
LINE
  5
1FD5
330
1F
100
AcDbEntity
  8
TK2
100
AcDbLine
 10
328.6585882880585
 20
353.7516508325954
 30
0.0
 11
328.6585882880585
 21
353.7516508325956
 31
0.0
  0
LINE
  5
200D
330
1F
100
AcDbEntity
  8
TK2
100
AcDbLine
 10
332.0585882880585
 20
350.3516508325954
 30
0.0
 11
334.6585882880586
 21
350.3516508325954
 31
0.0
  0
ARC
  5
2018
330
1F
100
AcDbEntity
  8
TK2
100
AcDbCircle
 10
332.0585882880585
 20
353.7516508325954
 30
0.0
 40
3.399999999999999
100
AcDbArc
 50
180.0
 51
270.0
1001
GENIUS_GENODEF_13
1002
{
1000
HIER
1070
     0
1002
}
1002
{
1000
MANEDIT
1070
     0
1002
}
1002
{
1000
NOSEL
1070
     0
1002
}
1002
{
1000
BEHIND
1070
     0
1002
}
1002
{
1000
OTHER
1070
     0
1002
}
1002
{
1000
REACTOR
1002
}
1001
GENIUS_GENOBJ-N-FIL_13
1002
{
1000
OWNER
1000
GEN
1002
}
  0
ARC
  5
201A
330
1F
100
AcDbEntity
  8
TK2
100
AcDbCircle
 10
332.0585882880585
 20
353.7516508325955
 30
0.0
 40
3.399999999999999
100
AcDbArc
 50
90.0
 51
179.999999999999
1001
GENIUS_GENOBJ-N-FIL_13
1002
{
1000
OWNER
1000
GEN
1002
}
1001
GENIUS_GENODEF_13
1002
{
1000
HIER
1070
     0
1002
}
1002
{
1000
MANEDIT
1070
     0
1002
}
1002
{
1000
NOSEL
1070
     0
1002
}
1002
{
1000
BEHIND
1070
     0
1002
}
1002
{
1000
OTHER
1070
     0
1002
}
1002
{
1000
REACTOR
1002
}
  0
LINE
  5
2078
330
1F
100
AcDbEntity
  8
TK1
100
AcDbLine
 10
329.6585882880586
 20
279.3516508325955
 30
0.0
 11
329.6585882880586
 21
351.3433319168369
 31
0.0
  0
LINE
  5
208E
330
1F
100
AcDbEntity
  8
TK1
100
AcDbLine
 10
333.1585882880586
 20
279.3516508325955
 30
0.0
 11
333.1585882880586
 21
350.3516508325954
 31
0.0
  0
LINE
  5
20E8
330
1F
100
AcDbEntity
  8
TK1
100
AcDbLine
 10
333.1585882880586
 20
349.6516508325954
 30
0.0
 11
329.6585882880586
 21
349.6516508325954
 31
0.0
  0
LINE
  5
20EE
330
1F
100
AcDbEntity
  8
TK1
100
AcDbLine
 10
329.6585882880586
 20
280.8516508325955
 30
0.0
 11
333.1585882880586
 21
280.8516508325955
 31
0.0
  0
LINE
  5
20F4
330
1F
100
AcDbEntity
  8
TK1
100
AcDbLine
 10
329.6585882880586
 20
279.3516508325955
 30
0.0
 11
333.1585882880586
 21
279.3516508325955
 31
0.0
  0
LINE
  5
21E5
330
1F
100
AcDbEntity
  8
TK1
100
AcDbLine
 10
329.6585882880586
 20
295.5016508325954
 30
0.0
 11
320.6970758145208
 21
298.4888216571081
 31
0.0
  0
LINE
  5
21E6
102
{ACAD_REACTORS
330
29D6
102
}
330
1F
100
AcDbEntity
  8
TK1
100
AcDbLine
 10
319.1585882880586
 20
300.6233590777217
 30
0.0
 11
319.1585882880585
 21
338.879942587469
 31
0.0
  0
LINE
  5
21E7
330
1F
100
AcDbEntity
  8
TK1
100
AcDbLine
 10
320.6970758145207
 20
341.0144800080826
 30
0.0
 11
329.6585882880586
 21
344.0016508325954
 31
0.0
  0
LINE
  5
2234
330
1F
100
AcDbEntity
  8
TK1
100
AcDbLine
 10
166.9125650723643
 20
299.0016508325954
 30
0.0
 11
251.6625650723644
 21
299.0016508325954
 31
0.0
  0
ARC
  5
223A
330
1F
100
AcDbEntity
  8
TK1
100
AcDbCircle
 10
251.6625650723644
 20
302.5016508325954
 30
0.0
 40
3.5
100
AcDbArc
 50
270.0
 51
0.0
1001
GENIUS_GENOBJ-N-FIL_13
1002
{
1000
OWNER
1000
GEN
1002
}
1001
GENIUS_GENODEF_13
1002
{
1000
HIER
1070
     0
1002
}
1002
{
1000
MANEDIT
1070
     0
1002
}
1002
{
1000
NOSEL
1070
     0
1002
}
1002
{
1000
BEHIND
1070
     0
1002
}
1002
{
1000
OTHER
1070
     0
1002
}
1002
{
1000
REACTOR
1002
}
  0
LINE
  5
2240
330
1F
100
AcDbEntity
  8
TK1
100
AcDbLine
 10
255.1625650723644
 20
337.0016508325953
 30
0.0
 11
255.1625650723644
 21
302.5016508325954
 31
0.0
  0
ARC
  5
2246
330
1F
100
AcDbEntity
  8
TK1
100
AcDbCircle
 10
251.6625650723644
 20
337.0016508325953
 30
0.0
 40
3.5
100
AcDbArc
 50
0.0
 51
90.0
1001
GENIUS_GENODEF_13
1002
{
1000
HIER
1070
     0
1002
}
1002
{
1000
MANEDIT
1070
     0
1002
}
1002
{
1000
NOSEL
1070
     0
1002
}
1002
{
1000
BEHIND
1070
     0
1002
}
1002
{
1000
OTHER
1070
     0
1002
}
1002
{
1000
REACTOR
1002
}
1001
GENIUS_GENOBJ-N-FIL_13
1002
{
1000
OWNER
1000
GEN
1002
}
  0
LINE
  5
224C
330
1F
100
AcDbEntity
  8
TK1
100
AcDbLine
 10
166.9125650723643
 20
340.5016508325954
 30
0.0
 11
251.6625650723644
 21
340.5016508325953
 31
0.0
  0
ARC
  5
2281
330
1F
100
AcDbEntity
  8
TK1
100
AcDbCircle
 10
321.4085882880585
 20
338.879942587469
 30
0.0
 40
2.25
100
AcDbArc
 50
108.434948822922
 51
180.0
1001
GENIUS_GENOBJ-N-FIL_13
1002
{
1000
OWNER
1000
GEN
1002
}
1001
GENIUS_GENODEF_13
1002
{
1000
HIER
1070
     0
1002
}
1002
{
1000
MANEDIT
1070
     0
1002
}
1002
{
1000
NOSEL
1070
     0
1002
}
1002
{
1000
BEHIND
1070
     0
1002
}
1002
{
1000
OTHER
1070
     0
1002
}
1002
{
1000
REACTOR
1002
}
  0
ARC
  5
2283
330
1F
100
AcDbEntity
  8
TK1
100
AcDbCircle
 10
321.4085882880586
 20
300.6233590777217
 30
0.0
 40
2.25
100
AcDbArc
 50
180.0000000000001
 51
251.565051177078
1001
GENIUS_GENOBJ-N-FIL_13
1002
{
1000
OWNER
1000
GEN
1002
}
1001
GENIUS_GENODEF_13
1002
{
1000
HIER
1070
     0
1002
}
1002
{
1000
MANEDIT
1070
     0
1002
}
1002
{
1000
NOSEL
1070
     0
1002
}
1002
{
1000
BEHIND
1070
     0
1002
}
1002
{
1000
OTHER
1070
     0
1002
}
1002
{
1000
REACTOR
1002
}
  0
LINE
  5
22BF
330
1F
100
AcDbEntity
  8
TK10
100
AcDbLine
 10
321.5585882880586
 20
299.5719711520018
 30
0.0
 11
321.5585882880585
 21
339.9313305131891
 31
0.0
  0
LINE
  5
22CF
330
1F
100
AcDbEntity
  8
TK10
100
AcDbLine
 10
321.5585882880585
 20
339.9313305131889
 30
0.0
 11
333.1585882880585
 21
343.7979971798558
 31
0.0
  0
LINE
  5
22D5
330
1F
100
AcDbEntity
  8
TK10
100
AcDbLine
 10
333.1585882880585
 20
295.7053044853347
 30
0.0
 11
321.5585882880586
 21
299.5719711520018
 31
0.0
  0
LINE
  5
23AA
330
1F
100
AcDbEntity
  8
TK2
100
AcDbLine
 10
66.91256507236433
 20
110.0936878533155
 30
0.0
 11
266.9125650723644
 21
110.0936878533155
 31
0.0
  0
LINE
  5
23AB
330
1F
100
AcDbEntity
  8
TK2
100
AcDbLine
 10
66.91256507236435
 20
110.0936878533155
 30
0.0
 11
66.91256507236435
 21
120.0936878533155
 31
0.0
  0
LINE
  5
23AD
330
1F
100
AcDbEntity
  8
TK2
100
AcDbLine
 10
66.91256507236435
 20
120.0936878533155
 30
0.0
 11
266.9125650723644
 21
120.0936878533155
 31
0.0
  0
LINE
  5
23AF
330
1F
100
AcDbEntity
  8
TK2
100
AcDbLine
 10
266.9125650723644
 20
110.0936878533155
 30
0.0
 11
266.9125650723644
 21
120.0936878533155
 31
0.0
  0
LINE
  5
23D6
330
1F
100
AcDbEntity
  8
TK2
100
AcDbLine
 10
260.9125650723644
 20
104.0936878533155
 30
0.0
 11
260.9125650723644
 21
110.0936878533155
 31
0.0
  0
LINE
  5
240C
330
1F
100
AcDbEntity
  8
TK2
100
AcDbLine
 10
72.91256507236437
 20
104.0936878533155
 30
0.0
 11
260.9125650723644
 21
104.0936878533155
 31
0.0
  0
LINE
  5
240D
330
1F
100
AcDbEntity
  8
TK2
100
AcDbLine
 10
72.91256507236437
 20
110.0936878533155
 30
0.0
 11
72.91256507236437
 21
104.0936878533155
 31
0.0
  0
LINE
  5
2490
330
1F
100
AcDbEntity
  8
TK20
100
AcDbLine
 10
259.4125650723644
 20
104.0936878533155
 30
0.0
 11
259.3125650723643
 21
120.0936878533155
 31
0.0
  0
LINE
  5
2492
330
1F
100
AcDbEntity
  8
TK20
100
AcDbLine
 10
74.41256507236437
 20
104.0936878533155
 30
0.0
 11
74.5125650723644
 21
120.0936878533155
 31
0.0
  0
LINE
  5
24FC
330
1F
100
AcDbEntity
  8
TK2
100
AcDbLine
 10
262.9125650723644
 20
126.0936878533154
 30
0.0
 11
265.9125650723644
 21
126.0936878533155
 31
0.0
  0
LINE
  5
2534
330
1F
100
AcDbEntity
  8
TK2
100
AcDbLine
 10
261.9125650723644
 20
120.0936878533155
 30
0.0
 11
261.9125650723644
 21
121.5936878533155
 31
0.0
  0
LINE
  5
2535
330
1F
100
AcDbEntity
  8
TK2
100
AcDbLine
 10
266.9125650723644
 20
120.0936878533155
 30
0.0
 11
266.9125650723644
 21
121.5936878533155
 31
0.0
  0
ARC
  5
2559
330
1F
100
AcDbEntity
  8
TK2
100
AcDbCircle
 10
262.9125650723644
 20
125.0936878533154
 30
0.0
 40
1.0
100
AcDbArc
 50
90.0
 51
180.0
1001
GENIUS_GENODEF_13
1002
{
1000
HIER
1070
     0
1002
}
1002
{
1000
MANEDIT
1070
     0
1002
}
1002
{
1000
NOSEL
1070
     0
1002
}
1002
{
1000
BEHIND
1070
     0
1002
}
1002
{
1000
OTHER
1070
     0
1002
}
1002
{
1000
REACTOR
1002
}
1001
GENIUS_GENOBJ-N-FIL_13
1002
{
1000
OWNER
1000
GEN
1002
}
  0
ARC
  5
255B
330
1F
100
AcDbEntity
  8
TK2
100
AcDbCircle
 10
265.9125650723644
 20
125.0936878533155
 30
0.0
 40
1.0
100
AcDbArc
 50
0.0
 51
90.0000000000004
1001
GENIUS_GENOBJ-N-FIL_13
1002
{
1000
OWNER
1000
GEN
1002
}
1001
GENIUS_GENODEF_13
1002
{
1000
HIER
1070
     0
1002
}
1002
{
1000
MANEDIT
1070
     0
1002
}
1002
{
1000
NOSEL
1070
     0
1002
}
1002
{
1000
BEHIND
1070
     0
1002
}
1002
{
1000
OTHER
1070
     0
1002
}
1002
{
1000
REACTOR
1002
}
  0
LINE
  5
2617
330
1F
100
AcDbEntity
  8
TK1
100
AcDbLine
 10
266.9125650723644
 20
121.5936878533155
 30
0.0
 11
166.9125650723644
 21
121.5936878533155
 31
0.0
  0
LINE
  5
2621
330
1F
100
AcDbEntity
  8
TK1
100
AcDbLine
 10
266.9125650723644
 20
125.0936878533155
 30
0.0
 11
166.9125650723644
 21
125.0936878533155
 31
0.0
  0
LINE
  5
2628
330
1F
100
AcDbEntity
  8
TK1
100
AcDbLine
 10
266.9125650723644
 20
125.0936878533155
 30
0.0
 11
266.9125650723644
 21
121.5936878533155
 31
0.0
  0
LINE
  5
2693
330
1F
100
AcDbEntity
  8
AM_7
100
AcDbLine
 10
166.9125650723644
 20
99.59368785331548
 30
0.0
 11
166.9125650723644
 21
140.0936878533155
 31
0.0
1001
GENIUS_GENODEF_13
1002
{
1000
HIER
1070
     0
1002
}
1002
{
1000
MANEDIT
1070
     0
1002
}
1002
{
1000
NOSEL
1070
     0
1002
}
1002
{
1000
BEHIND
1070
     0
1002
}
1002
{
1000
OTHER
1070
     0
1002
}
1002
{
1000
REACTOR
1002
}
1001
GENIUS_GENOBJ-N-CEN_13
1002
{
1000
OWNER
1000
GEN
1002
}
1001
GENIUS_GENCEN_19
1002
{
1040
4.5
1002
}
  0
LINE
  5
2696
330
1F
100
AcDbEntity
  8
TK1
100
AcDbLine
 10
166.9125650723644
 20
135.5936878533155
 30
0.0
 11
253.5408568272381
 21
135.5936878533155
 31
0.0
  0
LINE
  5
2697
330
1F
100
AcDbEntity
  8
TK1
100
AcDbLine
 10
255.6753942478517
 20
134.0552003268534
 30
0.0
 11
258.6625650723644
 21
125.0936878533155
 31
0.0
  0
ARC
  5
26C5
330
1F
100
AcDbEntity
  8
TK1
100
AcDbCircle
 10
253.5408568272381
 20
133.3436878533155
 30
0.0
 40
2.25
100
AcDbArc
 50
18.434948822922
 51
90.0
1001
GENIUS_GENOBJ-N-FIL_13
1002
{
1000
OWNER
1000
GEN
1002
}
1001
GENIUS_GENODEF_13
1002
{
1000
HIER
1070
     0
1002
}
1002
{
1000
MANEDIT
1070
     0
1002
}
1002
{
1000
NOSEL
1070
     0
1002
}
1002
{
1000
BEHIND
1070
     0
1002
}
1002
{
1000
OTHER
1070
     0
1002
}
1002
{
1000
REACTOR
1002
}
  0
LINE
  5
26FB
330
1F
100
AcDbEntity
  8
TK10
100
AcDbLine
 10
166.9125650723644
 20
133.1936878533155
 30
0.0
 11
196.9125650723644
 21
133.1936878533155
 31
0.0
  0
LINE
  5
2731
330
1F
100
AcDbEntity
  8
TK10
100
AcDbLine
 10
254.592244752958
 20
133.1936878533155
 30
0.0
 11
258.4589114196248
 21
121.5936878533155
 31
0.0
  0
LINE
  5
273C
330
1F
100
AcDbEntity
  8
TK2
100
AcDbLine
 10
70.91256507236437
 20
126.0936878533154
 30
0.0
 11
67.91256507236437
 21
126.0936878533155
 31
0.0
  0
ARC
  5
273D
330
1F
100
AcDbEntity
  8
TK2
100
AcDbCircle
 10
70.91256507236437
 20
125.0936878533154
 30
0.0
 40
1.0
100
AcDbArc
 50
0.000000000000007
 51
90.0
1001
GENIUS_GENODEF_13
1002
{
1000
HIER
1070
     0
1002
}
1002
{
1000
MANEDIT
1070
     0
1002
}
1002
{
1000
NOSEL
1070
     0
1002
}
1002
{
1000
BEHIND
1070
     0
1002
}
1002
{
1000
OTHER
1070
     0
1002
}
1002
{
1000
REACTOR
1002
}
1001
GENIUS_GENOBJ-N-FIL_13
1002
{
1000
OWNER
1000
GEN
1002
}
  0
LINE
  5
273E
330
1F
100
AcDbEntity
  8
TK2
100
AcDbLine
 10
71.91256507236437
 20
120.0936878533155
 30
0.0
 11
71.91256507236437
 21
121.5936878533155
 31
0.0
  0
LINE
  5
273F
330
1F
100
AcDbEntity
  8
TK2
100
AcDbLine
 10
66.91256507236437
 20
120.0936878533155
 30
0.0
 11
66.91256507236437
 21
121.5936878533155
 31
0.0
  0
ARC
  5
2740
330
1F
100
AcDbEntity
  8
TK2
100
AcDbCircle
 10
67.91256507236437
 20
125.0936878533155
 30
0.0
 40
1.0
100
AcDbArc
 50
89.99999999999962
 51
180.0
1001
GENIUS_GENOBJ-N-FIL_13
1002
{
1000
OWNER
1000
GEN
1002
}
1001
GENIUS_GENODEF_13
1002
{
1000
HIER
1070
     0
1002
}
1002
{
1000
MANEDIT
1070
     0
1002
}
1002
{
1000
NOSEL
1070
     0
1002
}
1002
{
1000
BEHIND
1070
     0
1002
}
1002
{
1000
OTHER
1070
     0
1002
}
1002
{
1000
REACTOR
1002
}
  0
LINE
  5
2741
330
1F
100
AcDbEntity
  8
TK1
100
AcDbLine
 10
66.91256507236437
 20
121.5936878533155
 30
0.0
 11
166.9125650723644
 21
121.5936878533155
 31
0.0
  0
LINE
  5
2742
330
1F
100
AcDbEntity
  8
TK1
100
AcDbLine
 10
66.91256507236437
 20
125.0936878533155
 30
0.0
 11
166.9125650723644
 21
125.0936878533155
 31
0.0
  0
LINE
  5
2743
330
1F
100
AcDbEntity
  8
TK1
100
AcDbLine
 10
66.91256507236437
 20
125.0936878533155
 30
0.0
 11
66.91256507236437
 21
121.5936878533155
 31
0.0
  0
LINE
  5
2744
330
1F
100
AcDbEntity
  8
TK1
100
AcDbLine
 10
166.9125650723644
 20
135.5936878533155
 30
0.0
 11
80.28427331749069
 21
135.5936878533155
 31
0.0
  0
LINE
  5
2745
330
1F
100
AcDbEntity
  8
TK1
100
AcDbLine
 10
78.14973589687702
 20
134.0552003268534
 30
0.0
 11
75.16256507236438
 21
125.0936878533155
 31
0.0
  0
ARC
  5
2746
330
1F
100
AcDbEntity
  8
TK1
100
AcDbCircle
 10
80.28427331749069
 20
133.3436878533155
 30
0.0
 40
2.25
100
AcDbArc
 50
90.0
 51
161.565051177078
1001
GENIUS_GENOBJ-N-FIL_13
1002
{
1000
OWNER
1000
GEN
1002
}
1001
GENIUS_GENODEF_13
1002
{
1000
HIER
1070
     0
1002
}
1002
{
1000
MANEDIT
1070
     0
1002
}
1002
{
1000
NOSEL
1070
     0
1002
}
1002
{
1000
BEHIND
1070
     0
1002
}
1002
{
1000
OTHER
1070
     0
1002
}
1002
{
1000
REACTOR
1002
}
  0
LINE
  5
2747
330
1F
100
AcDbEntity
  8
TK10
100
AcDbLine
 10
166.9125650723644
 20
133.1936878533155
 30
0.0
 11
136.9125650723643
 21
133.1936878533155
 31
0.0
  0
LINE
  5
2748
330
1F
100
AcDbEntity
  8
TK10
100
AcDbLine
 10
79.23288539177073
 20
133.1936878533155
 30
0.0
 11
75.36621872510392
 21
121.5936878533155
 31
0.0
  0
LINE
  5
27DC
330
1F
100
AcDbEntity
  8
TK2
100
AcDbLine
 10
173.1162982606539
 20
120.0936878533155
 30
0.0
 11
173.2259136452692
 21
121.5936878533155
 31
0.0
  0
LINE
  5
27DD
330
1F
100
AcDbEntity
  8
TK2
100
AcDbLine
 10
174.7541417623351
 20
131.6936878533154
 30
0.0
 11
175.0709883823935
 21
131.6936878533154
 31
0.0
  0
ARC
  5
27DE
330
1F
100
AcDbEntity
  8
TK2
100
AcDbCircle
 10
174.7541417623351
 20
130.8436878533153
 30
0.0
 40
0.85
100
AcDbArc
 50
90.0
 51
175.8204301265706
1001
GENIUS_GENOBJ-N-FIL_13
1002
{
1000
OWNER
1000
GEN
1002
}
1001
GENIUS_GENODEF_13
1002
{
1000
HIER
1070
     0
1002
}
1002
{
1000
MANEDIT
1070
     0
1002
}
1002
{
1000
NOSEL
1070
     0
1002
}
1002
{
1000
BEHIND
1070
     0
1002
}
1002
{
1000
OTHER
1070
     0
1002
}
1002
{
1000
REACTOR
1002
}
  0
ARC
  5
27DF
330
1F
100
AcDbEntity
  8
TK2
100
AcDbCircle
 10
175.0709883823935
 20
130.8436878533153
 30
0.0
 40
0.85
100
AcDbArc
 50
4.179569873429364
 51
90.0
1001
GENIUS_GENOBJ-N-FIL_13
1002
{
1000
OWNER
1000
GEN
1002
}
1001
GENIUS_GENODEF_13
1002
{
1000
HIER
1070
     0
1002
}
1002
{
1000
MANEDIT
1070
     0
1002
}
1002
{
1000
NOSEL
1070
     0
1002
}
1002
{
1000
BEHIND
1070
     0
1002
}
1002
{
1000
OTHER
1070
     0
1002
}
1002
{
1000
REACTOR
1002
}
  0
LINE
  5
27E0
330
1F
100
AcDbEntity
  8
TK2
100
AcDbLine
 10
175.9187278316903
 20
130.9056380438409
 30
0.0
 11
176.3434472686904
 21
125.0936878533155
 31
0.0
  0
ARC
  5
27E1
330
1F
100
AcDbEntity
  8
TK2
100
AcDbCircle
 10
175.0709883823935
 20
130.8436878533153
 30
0.0
 40
2.25
100
AcDbArc
 50
4.179569873429364
 51
90.0
1001
GENIUS_GENOBJ-N-FIL_13
1002
{
1000
OWNER
1000
GEN
1002
}
1001
GENIUS_GENODEF_13
1002
{
1000
HIER
1070
     0
1002
}
1002
{
1000
MANEDIT
1070
     0
1002
}
1002
{
1000
NOSEL
1070
     0
1002
}
1002
{
1000
BEHIND
1070
     0
1002
}
1002
{
1000
OTHER
1070
     0
1002
}
1002
{
1000
REACTOR
1002
}
  0
ARC
  5
27E2
330
1F
100
AcDbEntity
  8
TK2
100
AcDbCircle
 10
174.7541417623351
 20
130.8436878533153
 30
0.0
 40
2.25
100
AcDbArc
 50
90.0
 51
175.8204301265706
1001
GENIUS_GENOBJ-N-FIL_13
1002
{
1000
OWNER
1000
GEN
1002
}
1001
GENIUS_GENODEF_13
1002
{
1000
HIER
1070
     0
1002
}
1002
{
1000
MANEDIT
1070
     0
1002
}
1002
{
1000
NOSEL
1070
     0
1002
}
1002
{
1000
BEHIND
1070
     0
1002
}
1002
{
1000
OTHER
1070
     0
1002
}
1002
{
1000
REACTOR
1002
}
  0
LINE
  5
27E3
330
1F
100
AcDbEntity
  8
TK2
100
AcDbLine
 10
177.3150045717084
 20
131.0076736517653
 30
0.0
 11
177.7471804569796
 21
125.0936878533155
 31
0.0
  0
LINE
  5
27E4
330
1F
100
AcDbEntity
  8
TK2
100
AcDbLine
 10
174.7541417623351
 20
133.0936878533153
 30
0.0
 11
175.0709883823935
 21
133.0936878533153
 31
0.0
  0
LINE
  5
27E5
330
1F
100
AcDbEntity
  8
TK2
100
AcDbLine
 10
171.7125650723644
 20
120.0936878533155
 30
0.0
 11
171.8221804569799
 21
121.5936878533155
 31
0.0
  0
LINE
  5
27E6
330
1F
100
AcDbEntity
  8
TK2
100
AcDbLine
 10
172.077949687749
 20
125.0936878533155
 30
0.0
 11
172.5101255730203
 21
131.0076736517653
 31
0.0
  0
LINE
  5
27E7
330
1F
100
AcDbEntity
  8
TK2
100
AcDbLine
 10
173.4816828760385
 20
125.0936878533155
 30
0.0
 11
173.9064023130383
 21
130.9056380438409
 31
0.0
  0
LINE
  5
27E8
330
1F
100
AcDbEntity
  8
TK2
100
AcDbLine
 10
176.5992164994597
 20
121.5936878533155
 30
0.0
 11
176.7088318840749
 21
120.0936878533155
 31
0.0
  0
LINE
  5
27E9
330
1F
100
AcDbEntity
  8
TK2
100
AcDbLine
 10
178.0029496877489
 20
121.5936878533155
 30
0.0
 11
178.1125650723643
 21
120.0936878533155
 31
0.0
  0
LINE
  5
2820
330
1F
100
AcDbEntity
  8
TK1
100
AcDbLine
 10
202.7364494889186
 20
135.0936878533155
 30
0.0
 11
197.9125650723644
 21
135.0936878533155
 31
0.0
  0
ARC
  5
2821
330
1F
100
AcDbEntity
  8
TK1
100
AcDbCircle
 10
197.9125650723644
 20
134.0936878533155
 30
0.0
 40
1.0
100
AcDbArc
 50
90.0
 51
180.0
1001
GENIUS_GENODEF_13
1002
{
1000
HIER
1070
     0
1002
}
1002
{
1000
MANEDIT
1070
     0
1002
}
1002
{
1000
NOSEL
1070
     0
1002
}
1002
{
1000
BEHIND
1070
     0
1002
}
1002
{
1000
OTHER
1070
     0
1002
}
1002
{
1000
REACTOR
1002
}
1001
GENIUS_GENOBJ-N-FIL_13
1002
{
1000
OWNER
1000
GEN
1002
}
  0
LINE
  5
2822
330
1F
100
AcDbEntity
  8
TK1
100
AcDbLine
 10
203.2326827379371
 20
133.0936878533155
 30
0.0
 11
203.1125650723642
 21
133.0936878533155
 31
0.0
  0
LINE
  5
2823
330
1F
100
AcDbEntity
  8
TK1
100
AcDbLine
 10
196.9125650723644
 20
134.0936878533155
 30
0.0
 11
196.9125650723644
 21
125.0936878533155
 31
0.0
  0
LINE
  5
2824
330
1F
100
AcDbEntity
  8
TK1
100
AcDbLine
 10
207.3475650723644
 20
125.0936878533155
 30
0.0
 11
205.0984561125555
 21
134.3302749572534
 31
0.0
  0
ARC
  5
2825
330
1F
100
AcDbEntity
  8
TK1
100
AcDbCircle
 10
204.1268458294429
 20
134.0936878533155
 30
0.0
 40
1.0
100
AcDbArc
 50
13.68519560022345
 51
90.0
1001
GENIUS_GENODEF_13
1002
{
1000
HIER
1070
     0
1002
}
1002
{
1000
MANEDIT
1070
     0
1002
}
1002
{
1000
NOSEL
1070
     0
1002
}
1002
{
1000
BEHIND
1070
     0
1002
}
1002
{
1000
OTHER
1070
     0
1002
}
1002
{
1000
REACTOR
1002
}
1001
GENIUS_GENOBJ-N-FIL_13
1002
{
1000
OWNER
1000
GEN
1002
}
  0
LINE
  5
2826
330
1F
100
AcDbEntity
  8
TK1
100
AcDbLine
 10
203.1125650723642
 20
133.0936878533155
 30
0.0
 11
203.1125650723642
 21
125.0936878533155
 31
0.0
  0
LINE
  5
2827
330
1F
100
AcDbEntity
  8
TK1
100
AcDbLine
 10
204.1268458294429
 20
135.0936878533155
 30
0.0
 11
197.9125650723644
 21
135.0936878533155
 31
0.0
  0
LINE
  5
2828
330
1F
100
AcDbEntity
  8
TK1
100
AcDbLine
 10
203.6213268511821
 20
132.7883226948906
 30
0.0
 11
205.4949704351055
 21
125.0936878533155
 31
0.0
  0
ARC
  5
2829
330
1F
100
AcDbEntity
  8
TK1
100
AcDbCircle
 10
203.2326827379371
 20
132.6936878533155
 30
0.0
 40
0.4
100
AcDbArc
 50
13.68519560022305
 51
90.0
1001
GENIUS_GENODEF_13
1002
{
1000
HIER
1070
     0
1002
}
1002
{
1000
MANEDIT
1070
     0
1002
}
1002
{
1000
NOSEL
1070
     0
1002
}
1002
{
1000
BEHIND
1070
     0
1002
}
1002
{
1000
OTHER
1070
     0
1002
}
1002
{
1000
REACTOR
1002
}
1001
GENIUS_GENOBJ-N-FIL_13
1002
{
1000
OWNER
1000
GEN
1002
}
  0
LINE
  5
282B
330
1F
100
AcDbEntity
  8
TK10
100
AcDbLine
 10
205.3752150723644
 20
133.1936878533155
 30
0.0
 11
254.592244752958
 21
133.1936878533155
 31
0.0
  0
LINE
  5
282C
330
1F
100
AcDbEntity
  8
TK1
100
AcDbLine
 10
131.0886806558102
 20
135.0936878533155
 30
0.0
 11
135.9125650723643
 21
135.0936878533155
 31
0.0
  0
ARC
  5
282D
330
1F
100
AcDbEntity
  8
TK1
100
AcDbCircle
 10
135.9125650723643
 20
134.0936878533155
 30
0.0
 40
1.0
100
AcDbArc
 50
0.000000000000007
 51
90.0
1001
GENIUS_GENODEF_13
1002
{
1000
HIER
1070
     0
1002
}
1002
{
1000
MANEDIT
1070
     0
1002
}
1002
{
1000
NOSEL
1070
     0
1002
}
1002
{
1000
BEHIND
1070
     0
1002
}
1002
{
1000
OTHER
1070
     0
1002
}
1002
{
1000
REACTOR
1002
}
1001
GENIUS_GENOBJ-N-FIL_13
1002
{
1000
OWNER
1000
GEN
1002
}
  0
LINE
  5
282E
330
1F
100
AcDbEntity
  8
TK1
100
AcDbLine
 10
130.5924474067917
 20
133.0936878533155
 30
0.0
 11
130.7125650723645
 21
133.0936878533155
 31
0.0
  0
LINE
  5
282F
330
1F
100
AcDbEntity
  8
TK1
100
AcDbLine
 10
136.9125650723643
 20
134.0936878533155
 30
0.0
 11
136.9125650723643
 21
125.0936878533155
 31
0.0
  0
LINE
  5
2830
330
1F
100
AcDbEntity
  8
TK1
100
AcDbLine
 10
126.4775650723644
 20
125.0936878533155
 30
0.0
 11
128.7266740321732
 21
134.3302749572534
 31
0.0
  0
ARC
  5
2831
330
1F
100
AcDbEntity
  8
TK1
100
AcDbCircle
 10
129.6982843152858
 20
134.0936878533155
 30
0.0
 40
1.0
100
AcDbArc
 50
90.0
 51
166.3148043997765
1001
GENIUS_GENODEF_13
1002
{
1000
HIER
1070
     0
1002
}
1002
{
1000
MANEDIT
1070
     0
1002
}
1002
{
1000
NOSEL
1070
     0
1002
}
1002
{
1000
BEHIND
1070
     0
1002
}
1002
{
1000
OTHER
1070
     0
1002
}
1002
{
1000
REACTOR
1002
}
1001
GENIUS_GENOBJ-N-FIL_13
1002
{
1000
OWNER
1000
GEN
1002
}
  0
LINE
  5
2832
330
1F
100
AcDbEntity
  8
TK1
100
AcDbLine
 10
130.7125650723645
 20
133.0936878533155
 30
0.0
 11
130.7125650723645
 21
125.0936878533155
 31
0.0
  0
LINE
  5
2833
330
1F
100
AcDbEntity
  8
TK1
100
AcDbLine
 10
129.6982843152858
 20
135.0936878533155
 30
0.0
 11
135.9125650723643
 21
135.0936878533155
 31
0.0
  0
LINE
  5
2834
330
1F
100
AcDbEntity
  8
TK1
100
AcDbLine
 10
130.2038032935466
 20
132.7883226948906
 30
0.0
 11
128.3301597096232
 21
125.0936878533155
 31
0.0
  0
ARC
  5
2835
330
1F
100
AcDbEntity
  8
TK1
100
AcDbCircle
 10
130.5924474067917
 20
132.6936878533155
 30
0.0
 40
0.4
100
AcDbArc
 50
90.0
 51
166.3148043997769
1001
GENIUS_GENODEF_13
1002
{
1000
HIER
1070
     0
1002
}
1002
{
1000
MANEDIT
1070
     0
1002
}
1002
{
1000
NOSEL
1070
     0
1002
}
1002
{
1000
BEHIND
1070
     0
1002
}
1002
{
1000
OTHER
1070
     0
1002
}
1002
{
1000
REACTOR
1002
}
1001
GENIUS_GENOBJ-N-FIL_13
1002
{
1000
OWNER
1000
GEN
1002
}
  0
LINE
  5
2836
330
1F
100
AcDbEntity
  8
TK10
100
AcDbLine
 10
128.4499150723644
 20
133.1936878533155
 30
0.0
 11
79.23288539177073
 21
133.1936878533155
 31
0.0
  0
LINE
  5
283D
330
1F
100
AcDbEntity
  8
TK1
100
AcDbLine
 10
196.1625650723643
 20
125.0936878533155
 30
0.0
 11
196.1625650723643
 21
121.5936878533155
 31
0.0
  0
LINE
  5
2843
330
1F
100
AcDbEntity
  8
TK1
100
AcDbLine
 10
197.6625650723643
 20
125.0936878533155
 30
0.0
 11
197.6625650723643
 21
121.5936878533155
 31
0.0
  0
LINE
  5
2857
330
1F
100
AcDbEntity
  8
TK1
100
AcDbLine
 10
217.6625650723643
 20
121.5936878533155
 30
0.0
 11
217.6625650723643
 21
125.0936878533155
 31
0.0
  0
LINE
  5
2858
330
1F
100
AcDbEntity
  8
TK1
100
AcDbLine
 10
219.1625650723642
 20
121.5936878533155
 30
0.0
 11
219.1625650723642
 21
125.0936878533155
 31
0.0
  0
LINE
  5
2863
330
1F
100
AcDbEntity
  8
TK1
100
AcDbLine
 10
137.6625650723644
 20
125.0936878533155
 30
0.0
 11
137.6625650723644
 21
121.5936878533155
 31
0.0
  0
LINE
  5
2864
330
1F
100
AcDbEntity
  8
TK1
100
AcDbLine
 10
136.1625650723644
 20
125.0936878533155
 30
0.0
 11
136.1625650723644
 21
121.5936878533155
 31
0.0
  0
LINE
  5
2865
330
1F
100
AcDbEntity
  8
TK1
100
AcDbLine
 10
116.1625650723645
 20
121.5936878533155
 30
0.0
 11
116.1625650723645
 21
125.0936878533155
 31
0.0
  0
LINE
  5
2866
330
1F
100
AcDbEntity
  8
TK1
100
AcDbLine
 10
114.6625650723645
 20
121.5936878533155
 30
0.0
 11
114.6625650723645
 21
125.0936878533155
 31
0.0
  0
ARC
  5
28A8
330
1F
100
AcDbEntity
  8
TK4
100
AcDbCircle
 10
344.6585882880586
 20
291.2516508325954
 30
0.0
 40
2.0
100
AcDbArc
 50
270.0
 51
90.0
  0
CIRCLE
  5
28A9
330
1F
100
AcDbEntity
  8
TK40
100
AcDbCircle
 10
336.6585882880585
 20
291.0516508325953
 30
0.0
 40
2.0
  0
ARC
  5
28B5
330
1F
100
AcDbEntity
  8
TK4
100
AcDbCircle
 10
344.6585882880586
 20
348.2516508325954
 30
0.0
 40
2.0
100
AcDbArc
 50
270.0
 51
90.0
  0
CIRCLE
  5
28B6
330
1F
100
AcDbEntity
  8
TK40
100
AcDbCircle
 10
336.6585882880585
 20
348.0516508325953
 30
0.0
 40
2.0
  0
ARC
  5
28CC
330
1F
100
AcDbEntity
  8
TK4
100
AcDbCircle
 10
262.9125650723644
 20
110.0936878533155
 30
0.0
 40
2.0
100
AcDbArc
 50
180.0000000000004
 51
359.9999999999996
  0
CIRCLE
  5
28CD
330
1F
100
AcDbEntity
  8
TK40
100
AcDbCircle
 10
263.1125650723643
 20
118.0936878533156
 30
0.0
 40
2.0
  0
ARC
  5
28CE
330
1F
100
AcDbEntity
  8
TK4
100
AcDbCircle
 10
70.91256507236437
 20
110.0936878533155
 30
0.0
 40
2.0
100
AcDbArc
 50
180.0000000000004
 51
359.9999999999996
  0
CIRCLE
  5
28CF
330
1F
100
AcDbEntity
  8
TK40
100
AcDbCircle
 10
71.1125650723643
 20
118.0936878533156
 30
0.0
 40
2.0
  0
LINE
  5
28E1
330
1F
100
AcDbEntity
  8
TK3
100
AcDbLine
 10
375.5491226013973
 20
357.7516508325957
 30
0.0
 11
375.5491226013973
 21
348.7516508325955
 31
0.0
  0
LINE
  5
28E2
330
1F
100
AcDbEntity
  8
TK3
100
AcDbLine
 10
376.5491226013974
 20
358.7516508325957
 30
0.0
 11
379.5491226013973
 21
358.7516508325955
 31
0.0
  0
LINE
  5
28E3
330
1F
100
AcDbEntity
  8
TK3
100
AcDbLine
 10
376.5491226013974
 20
347.7516508325956
 30
0.0
 11
379.5491226013973
 21
347.7516508325956
 31
0.0
  0
LINE
  5
28E4
330
1F
100
AcDbEntity
  8
TK3
100
AcDbLine
 10
379.5491226013973
 20
358.7516508325955
 30
0.0
 11
379.5491226013973
 21
347.7516508325956
 31
0.0
  0
ARC
  5
28E5
330
1F
100
AcDbEntity
  8
TK3
100
AcDbCircle
 10
376.5491226013974
 20
357.7516508325957
 30
0.0
 40
1.0
100
AcDbArc
 50
90.0
 51
180.0
1001
GENIUS_GENODEF_13
1002
{
1000
HIER
1070
     0
1002
}
1002
{
1000
MANEDIT
1070
     0
1002
}
1002
{
1000
NOSEL
1070
     0
1002
}
1002
{
1000
BEHIND
1070
     0
1002
}
1002
{
1000
OTHER
1070
     0
1002
}
1002
{
1000
REACTOR
1002
}
1001
GENIUS_GENOBJ-N-FIL_13
1002
{
1000
OWNER
1000
GEN
1002
}
  0
ARC
  5
28E6
330
1F
100
AcDbEntity
  8
TK3
100
AcDbCircle
 10
376.5491226013974
 20
348.7516508325955
 30
0.0
 40
1.0
100
AcDbArc
 50
180.0
 51
270.0
1001
GENIUS_GENOBJ-N-FIL_13
1002
{
1000
OWNER
1000
GEN
1002
}
1001
GENIUS_GENODEF_13
1002
{
1000
HIER
1070
     0
1002
}
1002
{
1000
MANEDIT
1070
     0
1002
}
1002
{
1000
NOSEL
1070
     0
1002
}
1002
{
1000
BEHIND
1070
     0
1002
}
1002
{
1000
OTHER
1070
     0
1002
}
1002
{
1000
REACTOR
1002
}
  0
LINE
  5
28E7
330
1F
100
AcDbEntity
  8
AM_7
  6
AM_ISO08W050x2
100
AcDbLine
 10
372.5491226013974
 20
353.2516508325955
 30
0.0
 11
382.5491226013974
 21
353.2516508325955
 31
0.0
1001
GENIUS_GENOBJ-N-CEN_13
1002
{
1000
OWNER
1000
GEN
1002
}
1001
GENIUS_GENODEF_13
1002
{
1000
HIER
1070
     0
1002
}
1002
{
1000
MANEDIT
1070
     0
1002
}
1002
{
1000
NOSEL
1070
     0
1002
}
1002
{
1000
BEHIND
1070
     0
1002
}
1002
{
1000
OTHER
1070
     0
1002
}
1002
{
1000
REACTOR
1002
}
  0
LINE
  5
28E9
330
1F
100
AcDbEntity
  8
TK6
100
AcDbLine
 10
393.5513721370783
 20
354.7516508325955
 30
0.0
 11
404.5513721370783
 21
354.7516508325955
 31
0.0
  0
LINE
  5
28EA
330
1F
100
AcDbEntity
  8
TK6
100
AcDbLine
 10
393.5513721370783
 20
351.7516508325956
 30
0.0
 11
404.5513721370783
 21
351.7516508325956
 31
0.0
  0
LINE
  5
28EB
330
1F
100
AcDbEntity
  8
TK60
100
AcDbLine
 10
393.5513721370783
 20
354.5016508325955
 30
0.0
 11
404.5513721370783
 21
354.5016508325955
 31
0.0
  0
LINE
  5
28EC
330
1F
100
AcDbEntity
  8
TK60
100
AcDbLine
 10
393.5513721370783
 20
352.0016508325956
 30
0.0
 11
404.5513721370783
 21
352.0016508325956
 31
0.0
  0
LINE
  5
28ED
330
1F
100
AcDbEntity
  8
TK6
100
AcDbLine
 10
404.5513721370783
 20
356.5016508325955
 30
0.0
 11
405.3513721370783
 21
356.5016508325955
 31
0.0
  0
LINE
  5
28EE
330
1F
100
AcDbEntity
  8
TK6
100
AcDbLine
 10
405.3513721370783
 20
355.7516508325956
 30
0.0
 11
407.0513721370783
 21
355.7516508325956
 31
0.0
  0
LINE
  5
28EF
330
1F
100
AcDbEntity
  8
TK6
100
AcDbLine
 10
405.3513721370783
 20
356.5016508325955
 30
0.0
 11
405.3513721370783
 21
353.2516508325955
 31
0.0
  0
LINE
  5
28F0
330
1F
100
AcDbEntity
  8
TK6
100
AcDbLine
 10
404.5513721370783
 20
356.5016508325955
 30
0.0
 11
404.5513721370783
 21
353.2516508325955
 31
0.0
  0
LINE
  5
28F1
330
1F
100
AcDbEntity
  8
TK6
100
AcDbLine
 10
407.0513721370783
 20
355.7516508325956
 30
0.0
 11
407.0513721370783
 21
353.2516508325955
 31
0.0
  0
LINE
  5
28F2
330
1F
100
AcDbEntity
  8
TK6
100
AcDbLine
 10
404.5513721370783
 20
350.0016508325956
 30
0.0
 11
405.3513721370783
 21
350.0016508325956
 31
0.0
  0
LINE
  5
28F3
330
1F
100
AcDbEntity
  8
TK6
100
AcDbLine
 10
405.3513721370783
 20
350.7516508325955
 30
0.0
 11
407.0513721370783
 21
350.7516508325955
 31
0.0
  0
LINE
  5
28F4
330
1F
100
AcDbEntity
  8
TK6
100
AcDbLine
 10
405.3513721370783
 20
350.0016508325956
 30
0.0
 11
405.3513721370783
 21
353.2516508325955
 31
0.0
  0
LINE
  5
28F5
330
1F
100
AcDbEntity
  8
TK6
100
AcDbLine
 10
404.5513721370783
 20
350.0016508325956
 30
0.0
 11
404.5513721370783
 21
353.2516508325955
 31
0.0
  0
LINE
  5
28F6
330
1F
100
AcDbEntity
  8
TK6
100
AcDbLine
 10
407.0513721370783
 20
350.7516508325955
 30
0.0
 11
407.0513721370783
 21
353.2516508325955
 31
0.0
  0
CIRCLE
  5
28F7
330
1F
100
AcDbEntity
  8
TK6
100
AcDbCircle
 10
417.4748197828142
 20
353.2516508325955
 30
0.0
 40
3.25
  0
LWPOLYLINE
  5
28F8
330
1F
100
AcDbEntity
  8
TK6
100
AcDbPolyline
 90
        6
 70
     1
 43
0.0
 10
416.2248197828142
 20
355.4167143420567
 10
414.9748197828142
 20
353.2516508325955
 10
416.2248197828142
 20
351.0865873231344
 10
418.7248197828142
 20
351.0865873231344
 10
419.9748197828141
 20
353.2516508325955
 10
418.7248197828142
 20
355.4167143420567
  0
LINE
  5
28F9
330
1F
100
AcDbEntity
  8
TK6
100
AcDbLine
 10
415.2346274039495
 20
353.7016508325956
 30
0.0
 11
419.7150121616789
 21
353.7016508325956
 31
0.0
  0
LINE
  5
28FA
330
1F
100
AcDbEntity
  8
TK6
100
AcDbLine
 10
415.2346274039495
 20
352.8016508325956
 30
0.0
 11
419.7150121616789
 21
352.8016508325956
 31
0.0
  0
LINE
  5
28FB
330
1F
100
AcDbEntity
  8
TK6
100
AcDbLine
 10
407.0513721370783
 20
353.7016508325956
 30
0.0
 11
405.6513721370783
 21
353.7016508325956
 31
0.0
  0
LINE
  5
28FC
330
1F
100
AcDbEntity
  8
TK6
100
AcDbLine
 10
407.0513721370783
 20
352.8016508325956
 30
0.0
 11
405.6513721370783
 21
352.8016508325956
 31
0.0
  0
LINE
  5
28FD
330
1F
100
AcDbEntity
  8
TK6
100
AcDbLine
 10
405.6513721370783
 20
353.7016508325956
 30
0.0
 11
405.6513721370783
 21
352.8016508325956
 31
0.0
  0
LINE
  5
2905
330
1F
100
AcDbEntity
  8
TK3
100
AcDbLine
 10
375.5491226013973
 20
281.7516508325951
 30
0.0
 11
375.5491226013973
 21
290.7516508325952
 31
0.0
  0
LINE
  5
2906
330
1F
100
AcDbEntity
  8
TK3
100
AcDbLine
 10
376.5491226013974
 20
280.7516508325951
 30
0.0
 11
379.5491226013973
 21
280.7516508325952
 31
0.0
  0
LINE
  5
2907
330
1F
100
AcDbEntity
  8
TK3
100
AcDbLine
 10
376.5491226013974
 20
291.7516508325952
 30
0.0
 11
379.5491226013973
 21
291.7516508325952
 31
0.0
  0
LINE
  5
2908
330
1F
100
AcDbEntity
  8
TK3
100
AcDbLine
 10
379.5491226013973
 20
280.7516508325952
 30
0.0
 11
379.5491226013973
 21
291.7516508325952
 31
0.0
  0
ARC
  5
2909
330
1F
100
AcDbEntity
  8
TK3
100
AcDbCircle
 10
376.5491226013974
 20
281.7516508325951
 30
0.0
 40
1.0
100
AcDbArc
 50
180.0
 51
270.0
1001
GENIUS_GENODEF_13
1002
{
1000
HIER
1070
     0
1002
}
1002
{
1000
MANEDIT
1070
     0
1002
}
1002
{
1000
NOSEL
1070
     0
1002
}
1002
{
1000
BEHIND
1070
     0
1002
}
1002
{
1000
OTHER
1070
     0
1002
}
1002
{
1000
REACTOR
1002
}
1001
GENIUS_GENOBJ-N-FIL_13
1002
{
1000
OWNER
1000
GEN
1002
}
  0
ARC
  5
290A
330
1F
100
AcDbEntity
  8
TK3
100
AcDbCircle
 10
376.5491226013974
 20
290.7516508325952
 30
0.0
 40
1.0
100
AcDbArc
 50
90.00000000000003
 51
180.0
1001
GENIUS_GENOBJ-N-FIL_13
1002
{
1000
OWNER
1000
GEN
1002
}
1001
GENIUS_GENODEF_13
1002
{
1000
HIER
1070
     0
1002
}
1002
{
1000
MANEDIT
1070
     0
1002
}
1002
{
1000
NOSEL
1070
     0
1002
}
1002
{
1000
BEHIND
1070
     0
1002
}
1002
{
1000
OTHER
1070
     0
1002
}
1002
{
1000
REACTOR
1002
}
  0
LINE
  5
290B
330
1F
100
AcDbEntity
  8
AM_7
  6
AM_ISO08W050x2
100
AcDbLine
 10
372.5491226013974
 20
286.2516508325952
 30
0.0
 11
382.5491226013974
 21
286.2516508325952
 31
0.0
1001
GENIUS_GENOBJ-N-CEN_13
1002
{
1000
OWNER
1000
GEN
1002
}
1001
GENIUS_GENODEF_13
1002
{
1000
HIER
1070
     0
1002
}
1002
{
1000
MANEDIT
1070
     0
1002
}
1002
{
1000
NOSEL
1070
     0
1002
}
1002
{
1000
BEHIND
1070
     0
1002
}
1002
{
1000
OTHER
1070
     0
1002
}
1002
{
1000
REACTOR
1002
}
  0
LINE
  5
290D
330
1F
100
AcDbEntity
  8
TK6
100
AcDbLine
 10
393.5513721370783
 20
284.7516508325952
 30
0.0
 11
404.5513721370783
 21
284.7516508325952
 31
0.0
  0
LINE
  5
290E
330
1F
100
AcDbEntity
  8
TK6
100
AcDbLine
 10
393.5513721370783
 20
287.7516508325952
 30
0.0
 11
404.5513721370783
 21
287.7516508325952
 31
0.0
  0
LINE
  5
290F
330
1F
100
AcDbEntity
  8
TK60
100
AcDbLine
 10
393.5513721370783
 20
285.0016508325952
 30
0.0
 11
404.5513721370783
 21
285.0016508325952
 31
0.0
  0
LINE
  5
2910
330
1F
100
AcDbEntity
  8
TK60
100
AcDbLine
 10
393.5513721370783
 20
287.5016508325952
 30
0.0
 11
404.5513721370783
 21
287.5016508325952
 31
0.0
  0
LINE
  5
2911
330
1F
100
AcDbEntity
  8
TK6
100
AcDbLine
 10
404.5513721370783
 20
283.0016508325952
 30
0.0
 11
405.3513721370783
 21
283.0016508325952
 31
0.0
  0
LINE
  5
2912
330
1F
100
AcDbEntity
  8
TK6
100
AcDbLine
 10
405.3513721370783
 20
283.7516508325952
 30
0.0
 11
407.0513721370783
 21
283.7516508325952
 31
0.0
  0
LINE
  5
2913
330
1F
100
AcDbEntity
  8
TK6
100
AcDbLine
 10
405.3513721370783
 20
283.0016508325952
 30
0.0
 11
405.3513721370783
 21
286.2516508325952
 31
0.0
  0
LINE
  5
2914
330
1F
100
AcDbEntity
  8
TK6
100
AcDbLine
 10
404.5513721370783
 20
283.0016508325952
 30
0.0
 11
404.5513721370783
 21
286.2516508325952
 31
0.0
  0
LINE
  5
2915
330
1F
100
AcDbEntity
  8
TK6
100
AcDbLine
 10
407.0513721370783
 20
283.7516508325952
 30
0.0
 11
407.0513721370783
 21
286.2516508325952
 31
0.0
  0
LINE
  5
2916
330
1F
100
AcDbEntity
  8
TK6
100
AcDbLine
 10
404.5513721370783
 20
289.5016508325952
 30
0.0
 11
405.3513721370783
 21
289.5016508325952
 31
0.0
  0
LINE
  5
2917
330
1F
100
AcDbEntity
  8
TK6
100
AcDbLine
 10
405.3513721370783
 20
288.7516508325952
 30
0.0
 11
407.0513721370783
 21
288.7516508325952
 31
0.0
  0
LINE
  5
2918
330
1F
100
AcDbEntity
  8
TK6
100
AcDbLine
 10
405.3513721370783
 20
289.5016508325952
 30
0.0
 11
405.3513721370783
 21
286.2516508325952
 31
0.0
  0
LINE
  5
2919
330
1F
100
AcDbEntity
  8
TK6
100
AcDbLine
 10
404.5513721370783
 20
289.5016508325952
 30
0.0
 11
404.5513721370783
 21
286.2516508325952
 31
0.0
  0
LINE
  5
291A
330
1F
100
AcDbEntity
  8
TK6
100
AcDbLine
 10
407.0513721370783
 20
288.7516508325952
 30
0.0
 11
407.0513721370783
 21
286.2516508325952
 31
0.0
  0
CIRCLE
  5
291B
330
1F
100
AcDbEntity
  8
TK6
100
AcDbCircle
 10
417.4748197828142
 20
286.2516508325952
 30
0.0
 40
3.25
  0
LWPOLYLINE
  5
291C
330
1F
100
AcDbEntity
  8
TK6
100
AcDbPolyline
 90
        6
 70
     1
 43
0.0
 10
416.2248197828142
 20
284.0865873231341
 10
414.9748197828142
 20
286.2516508325952
 10
416.2248197828142
 20
288.4167143420563
 10
418.7248197828142
 20
288.4167143420563
 10
419.9748197828141
 20
286.2516508325952
 10
418.7248197828142
 20
284.0865873231341
  0
LINE
  5
291D
330
1F
100
AcDbEntity
  8
TK6
100
AcDbLine
 10
415.2346274039495
 20
285.8016508325952
 30
0.0
 11
419.7150121616789
 21
285.8016508325952
 31
0.0
  0
LINE
  5
291E
330
1F
100
AcDbEntity
  8
TK6
100
AcDbLine
 10
415.2346274039495
 20
286.7016508325951
 30
0.0
 11
419.7150121616789
 21
286.7016508325951
 31
0.0
  0
LINE
  5
291F
330
1F
100
AcDbEntity
  8
TK6
100
AcDbLine
 10
407.0513721370783
 20
285.8016508325952
 30
0.0
 11
405.6513721370783
 21
285.8016508325952
 31
0.0
  0
LINE
  5
2920
330
1F
100
AcDbEntity
  8
TK6
100
AcDbLine
 10
407.0513721370783
 20
286.7016508325951
 30
0.0
 11
405.6513721370783
 21
286.7016508325951
 31
0.0
  0
LINE
  5
2921
330
1F
100
AcDbEntity
  8
TK6
100
AcDbLine
 10
405.6513721370783
 20
285.8016508325952
 30
0.0
 11
405.6513721370783
 21
286.7016508325951
 31
0.0
  0
DIMENSION
  5
2982
102
{ACAD_XDICTIONARY
360
298D
102
}
102
{ACAD_REACTORS
330
298E
102
}
330
1F
100
AcDbEntity
  8
AM_5
100
AcDbDimension
  2
*D16
 10
266.9125650723644
 20
386.7142887225254
 30
0.0
 11
166.9125650723644
 21
391.5898054548089
 31
0.0
 70
    32
 71
     5
 42
200.0
  3
AM_ISO$0
100
AcDbAlignedDimension
 13
66.91256507236436
 23
356.1516508325953
 33
0.0
 14
266.9125650723644
 24
356.1516508325953
 34
0.0
100
AcDbRotatedDimension
1001
ACAD
1000
DSTYLE
1002
{
1070
    40
1040
1.5
1002
}
  0
DIMENSION
  5
29A6
102
{ACAD_XDICTIONARY
360
29B1
102
}
102
{ACAD_REACTORS
330
29B2
102
}
330
1F
100
AcDbEntity
  8
AM_5
100
AcDbDimension
  2
*D17
 10
36.093768272582
 20
280.8516508325954
 30
0.0
 11
31.21876827258195
 21
319.0016508325954
 31
0.0
 70
    32
 71
     5
 42
76.29999999999995
  3
AM_ISO$0
100
AcDbAlignedDimension
 13
67.91256507236436
 23
357.1516508325954
 33
0.0
 14
76.91256507236435
 24
280.8516508325954
 34
0.0
 50
89.99999999999889
100
AcDbRotatedDimension
1001
ACAD
1000
DSTYLE
1002
{
1070
    40
1040
1.5
1002
}
  0
DIMENSION
  5
29CA
102
{ACAD_XDICTIONARY
360
29D5
102
}
102
{ACAD_REACTORS
330
29D6
102
}
330
1F
100
AcDbEntity
  8
AM_5
100
AcDbDimension
  2
*D18
 10
344.6585882880586
 20
375.1516518425955
 30
0.0
 11
331.9085882880586
 21
380.027168574879
 31
0.0
 70
    32
 71
     5
 42
25.50000000000006
  3
AM_ISO$0
100
AcDbAlignedDimension
 13
319.1585882880585
 23
338.5810203312697
 33
0.0
 14
344.6585882880586
 24
357.1516508325955
 34
0.0
100
AcDbRotatedDimension
1001
ACAD
1000
DSTYLE
1002
{
1070
    40
1040
1.5
1002
}
  0
DIMENSION
  5
2A01
102
{ACAD_XDICTIONARY
360
2A0C
102
}
102
{ACAD_REACTORS
330
2A0D
102
}
330
1F
100
AcDbEntity
  8
AM_5
100
AcDbDimension
  2
*D19
 10
54.81256406236433
 20
294.8516508325953
 30
0.0
 11
49.93756406236428
 21
319.7516508325954
 31
0.0
 70
    32
 71
     5
 42
49.80000000000001
  3
AM_ISO$0
100
AcDbAlignedDimension
 13
76.81256507236435
 23
344.6516508325954
 33
0.0
 14
76.81256507236439
 24
294.8516508325953
 34
0.0
 50
90.00000000000003
100
AcDbRotatedDimension
1001
ACAD
1000
DSTYLE
1002
{
1070
    40
1040
1.5
1002
}
  0
LINE
  5
2A5F
330
1F
100
AcDbEntity
  8
AM_5
100
AcDbLine
 10
74.51256507236435
 20
343.8516508325954
 30
0.0
 11
74.51256507236435
 21
373.1544821293794
 31
0.0
  0
LINE
  5
2A61
330
1F
100
AcDbEntity
  8
AM_5
100
AcDbLine
 10
78.26256507236435
 20
371.6544821293794
 30
0.0
 11
166.9125650723643
 21
371.6544821293794
 31
0.0
  0
INSERT
  5
2A62
330
1F
100
AcDbEntity
  8
AM_5
100
AcDbBlockReference
  2
_Open30
 10
74.51256507236435
 20
371.6544821293794
 30
0.0
 41
3.75
 42
3.75
 43
3.75
 50
180.0
  0
MTEXT
  5
2A64
330
1F
100
AcDbEntity
  8
AM_5
 62
     2
100
AcDbMText
 10
166.9125650723643
 20
376.5294821293794
 30
0.0
 40
5.25
 41
0.0
 71
     5
 72
     1
  1
184.8
 73
     1
 44
1.0
1001
ACAD
1000
MTEXTBEGIN
1070
    73
1070
     1
1070
    44
1040
1.0
1070
    74
1070
     0
1000
MTEXTEND
  0
LINE
  5
2A96
330
1F
100
AcDbEntity
  8
TK20
100
AcDbLine
 10
243.3125650723643
 20
343.2516508325955
 30
0.0
 11
242.8125650723642
 21
343.2516508325955
 31
0.0
  0
ARC
  5
2A97
330
1F
100
AcDbEntity
  8
TK20
100
AcDbCircle
 10
242.8125650723642
 20
341.7516508325955
 30
0.0
 40
1.5
100
AcDbArc
 50
90.0000000000001
 51
180.0000000000001
1001
GENIUS_GENODEF_13
1002
{
1000
HIER
1070
     0
1002
}
1002
{
1000
MANEDIT
1070
     0
1002
}
1002
{
1000
NOSEL
1070
     0
1002
}
1002
{
1000
BEHIND
1070
     0
1002
}
1002
{
1000
OTHER
1070
     0
1002
}
1002
{
1000
REACTOR
1002
}
1001
GENIUS_GENOBJ-N-FIL_13
1002
{
1000
OWNER
1000
GEN
1002
}
  0
ARC
  5
2A98
330
1F
100
AcDbEntity
  8
TK20
100
AcDbCircle
 10
247.8125650723643
 20
341.7516508325955
 30
0.0
 40
1.5
100
AcDbArc
 50
0.0000000000001141
 51
90.0000000000001
1001
GENIUS_GENODEF_13
1002
{
1000
HIER
1070
     0
1002
}
1002
{
1000
MANEDIT
1070
     0
1002
}
1002
{
1000
NOSEL
1070
     0
1002
}
1002
{
1000
BEHIND
1070
     0
1002
}
1002
{
1000
OTHER
1070
     0
1002
}
1002
{
1000
REACTOR
1002
}
1001
GENIUS_GENOBJ-N-FIL_13
1002
{
1000
OWNER
1000
GEN
1002
}
  0
LINE
  5
2A99
330
1F
100
AcDbEntity
  8
TK20
100
AcDbLine
 10
247.3125650723643
 20
344.6516508325955
 30
0.0
 11
247.3125650723643
 21
343.2516508325955
 31
0.0
  0
LINE
  5
2A9A
330
1F
100
AcDbEntity
  8
TK20
100
AcDbLine
 10
243.3125650723643
 20
343.2516508325955
 30
0.0
 11
243.3125650723643
 21
344.6516508325955
 31
0.0
  0
LINE
  5
2A9B
330
1F
100
AcDbEntity
  8
TK20
100
AcDbLine
 10
247.8125650723643
 20
343.2516508325955
 30
0.0
 11
247.3125650723644
 21
343.2516508325955
 31
0.0
  0
LINE
  5
2A9C
330
1F
100
AcDbEntity
  8
TK20
100
AcDbLine
 10
241.3125650723642
 20
341.7516508325955
 30
0.0
 11
241.3125650723642
 21
297.7516508325955
 31
0.0
  0
LINE
  5
2A9D
330
1F
100
AcDbEntity
  8
TK20
100
AcDbLine
 10
249.3125650723643
 20
341.7516508325955
 30
0.0
 11
249.3125650723644
 21
297.7516508325955
 31
0.0
  0
LINE
  5
2A9E
330
1F
100
AcDbEntity
  8
TK20
100
AcDbLine
 10
258.3125650723644
 20
341.7516508325955
 30
0.0
 11
258.3125650723645
 21
297.7516508325956
 31
0.0
  0
LINE
  5
2A9F
330
1F
100
AcDbEntity
  8
TK20
100
AcDbLine
 10
250.3125650723643
 20
341.7516508325955
 30
0.0
 11
250.3125650723644
 21
297.7516508325955
 31
0.0
  0
LINE
  5
2AA0
330
1F
100
AcDbEntity
  8
TK20
100
AcDbLine
 10
256.8125650723644
 20
343.2516508325955
 30
0.0
 11
256.3125650723645
 21
343.2516508325955
 31
0.0
  0
LINE
  5
2AA1
330
1F
100
AcDbEntity
  8
TK20
100
AcDbLine
 10
252.3125650723644
 20
343.2516508325955
 30
0.0
 11
252.3125650723644
 21
344.6516508325955
 31
0.0
  0
LINE
  5
2AA2
330
1F
100
AcDbEntity
  8
TK20
100
AcDbLine
 10
256.3125650723644
 20
344.6516508325955
 30
0.0
 11
256.3125650723644
 21
343.2516508325955
 31
0.0
  0
ARC
  5
2AA3
330
1F
100
AcDbEntity
  8
TK20
100
AcDbCircle
 10
256.8125650723644
 20
341.7516508325955
 30
0.0
 40
1.5
100
AcDbArc
 50
0.0000000000001141
 51
90.0000000000001
1001
GENIUS_GENODEF_13
1002
{
1000
HIER
1070
     0
1002
}
1002
{
1000
MANEDIT
1070
     0
1002
}
1002
{
1000
NOSEL
1070
     0
1002
}
1002
{
1000
BEHIND
1070
     0
1002
}
1002
{
1000
OTHER
1070
     0
1002
}
1002
{
1000
REACTOR
1002
}
1001
GENIUS_GENOBJ-N-FIL_13
1002
{
1000
OWNER
1000
GEN
1002
}
  0
ARC
  5
2AA4
330
1F
100
AcDbEntity
  8
TK20
100
AcDbCircle
 10
251.8125650723643
 20
341.7516508325955
 30
0.0
 40
1.5
100
AcDbArc
 50
90.0000000000001
 51
180.0000000000001
1001
GENIUS_GENODEF_13
1002
{
1000
HIER
1070
     0
1002
}
1002
{
1000
MANEDIT
1070
     0
1002
}
1002
{
1000
NOSEL
1070
     0
1002
}
1002
{
1000
BEHIND
1070
     0
1002
}
1002
{
1000
OTHER
1070
     0
1002
}
1002
{
1000
REACTOR
1002
}
1001
GENIUS_GENOBJ-N-FIL_13
1002
{
1000
OWNER
1000
GEN
1002
}
  0
LINE
  5
2AA5
330
1F
100
AcDbEntity
  8
TK20
100
AcDbLine
 10
252.3125650723644
 20
343.2516508325955
 30
0.0
 11
251.8125650723643
 21
343.2516508325955
 31
0.0
  0
LINE
  5
2AA6
330
1F
100
AcDbEntity
  8
TK20
100
AcDbLine
 10
243.3125650723644
 20
296.2516508325955
 30
0.0
 11
242.8125650723643
 21
296.2516508325955
 31
0.0
  0
ARC
  5
2AA7
330
1F
100
AcDbEntity
  8
TK20
100
AcDbCircle
 10
242.8125650723643
 20
297.7516508325955
 30
0.0
 40
1.5
100
AcDbArc
 50
180.0000000000001
 51
270.0000000000001
1001
GENIUS_GENODEF_13
1002
{
1000
HIER
1070
     0
1002
}
1002
{
1000
MANEDIT
1070
     0
1002
}
1002
{
1000
NOSEL
1070
     0
1002
}
1002
{
1000
BEHIND
1070
     0
1002
}
1002
{
1000
OTHER
1070
     0
1002
}
1002
{
1000
REACTOR
1002
}
1001
GENIUS_GENOBJ-N-FIL_13
1002
{
1000
OWNER
1000
GEN
1002
}
  0
ARC
  5
2AA8
330
1F
100
AcDbEntity
  8
TK20
100
AcDbCircle
 10
247.8125650723644
 20
297.7516508325955
 30
0.0
 40
1.5
100
AcDbArc
 50
270.0000000000001
 51
0.0000000000001141
1001
GENIUS_GENODEF_13
1002
{
1000
HIER
1070
     0
1002
}
1002
{
1000
MANEDIT
1070
     0
1002
}
1002
{
1000
NOSEL
1070
     0
1002
}
1002
{
1000
BEHIND
1070
     0
1002
}
1002
{
1000
OTHER
1070
     0
1002
}
1002
{
1000
REACTOR
1002
}
1001
GENIUS_GENOBJ-N-FIL_13
1002
{
1000
OWNER
1000
GEN
1002
}
  0
LINE
  5
2AA9
330
1F
100
AcDbEntity
  8
TK20
100
AcDbLine
 10
247.3125650723644
 20
294.8516508325955
 30
0.0
 11
247.3125650723644
 21
296.2516508325955
 31
0.0
  0
LINE
  5
2AAA
330
1F
100
AcDbEntity
  8
TK20
100
AcDbLine
 10
243.3125650723644
 20
296.2516508325955
 30
0.0
 11
243.3125650723644
 21
294.8516508325955
 31
0.0
  0
LINE
  5
2AAB
330
1F
100
AcDbEntity
  8
TK20
100
AcDbLine
 10
247.8125650723644
 20
296.2516508325955
 30
0.0
 11
247.3125650723645
 21
296.2516508325955
 31
0.0
  0
LINE
  5
2AAC
330
1F
100
AcDbEntity
  8
TK20
100
AcDbLine
 10
256.8125650723645
 20
296.2516508325955
 30
0.0
 11
256.3125650723646
 21
296.2516508325955
 31
0.0
  0
LINE
  5
2AAD
330
1F
100
AcDbEntity
  8
TK20
100
AcDbLine
 10
252.3125650723645
 20
296.2516508325955
 30
0.0
 11
252.3125650723645
 21
294.8516508325955
 31
0.0
  0
LINE
  5
2AAE
330
1F
100
AcDbEntity
  8
TK20
100
AcDbLine
 10
256.3125650723645
 20
294.8516508325955
 30
0.0
 11
256.3125650723645
 21
296.2516508325955
 31
0.0
  0
ARC
  5
2AAF
330
1F
100
AcDbEntity
  8
TK20
100
AcDbCircle
 10
256.8125650723645
 20
297.7516508325955
 30
0.0
 40
1.5
100
AcDbArc
 50
270.0000000000001
 51
0.0000000000001141
1001
GENIUS_GENODEF_13
1002
{
1000
HIER
1070
     0
1002
}
1002
{
1000
MANEDIT
1070
     0
1002
}
1002
{
1000
NOSEL
1070
     0
1002
}
1002
{
1000
BEHIND
1070
     0
1002
}
1002
{
1000
OTHER
1070
     0
1002
}
1002
{
1000
REACTOR
1002
}
1001
GENIUS_GENOBJ-N-FIL_13
1002
{
1000
OWNER
1000
GEN
1002
}
  0
ARC
  5
2AB0
330
1F
100
AcDbEntity
  8
TK20
100
AcDbCircle
 10
251.8125650723644
 20
297.7516508325955
 30
0.0
 40
1.5
100
AcDbArc
 50
180.0000000000001
 51
270.0000000000001
1001
GENIUS_GENODEF_13
1002
{
1000
HIER
1070
     0
1002
}
1002
{
1000
MANEDIT
1070
     0
1002
}
1002
{
1000
NOSEL
1070
     0
1002
}
1002
{
1000
BEHIND
1070
     0
1002
}
1002
{
1000
OTHER
1070
     0
1002
}
1002
{
1000
REACTOR
1002
}
1001
GENIUS_GENOBJ-N-FIL_13
1002
{
1000
OWNER
1000
GEN
1002
}
  0
LINE
  5
2AB1
330
1F
100
AcDbEntity
  8
TK20
100
AcDbLine
 10
252.3125650723645
 20
296.2516508325955
 30
0.0
 11
251.8125650723644
 21
296.2516508325955
 31
0.0
  0
LINE
  5
2B2B
330
1F
100
AcDbEntity
  8
TK6
100
AcDbLine
 10
393.5513721370783
 20
351.7516508325956
 30
0.0
 11
393.5513721370783
 21
354.7516508325955
 31
0.0
  0
LINE
  5
2B3E
330
1F
100
AcDbEntity
  8
TK6
100
AcDbLine
 10
393.5513721370783
 20
287.7516508325952
 30
0.0
 11
393.5513721370783
 21
284.7516508325952
 31
0.0
  0
DIMENSION
  5
2BB1
330
1F
100
AcDbEntity
  8
AM_5
100
AcDbDimension
  2
*D20
 10
54.81256406236433
 20
209.2044482618677
 30
0.0
 11
49.93704733008082
 21
222.7871032815528
 31
0.0
 70
    32
 71
     5
 42
3.199999999999988
  3
AM_ISO$0
100
AcDbAlignedDimension
 13
78.11256507236428
 23
206.0044482618677
 33
0.0
 14
78.11256507236421
 24
209.2044482618677
 34
0.0
 50
90.00000000000127
100
AcDbRotatedDimension
1001
ACAD
1000
DSTYLE
1002
{
1070
    40
1040
1.5
1002
}
  0
DIMENSION
  5
2BF5
102
{ACAD_XDICTIONARY
360
2C02
102
}
102
{ACAD_REACTORS
330
2C03
102
}
330
1F
100
AcDbEntity
  8
AM_5
100
AcDbDimension
  2
*D21
 10
36.093768272582
 20
213.1044482618676
 30
0.0
 11
31.21876827258196
 21
207.6044482618676
 31
0.0
 70
    32
 71
     5
 42
11.00000000000005
  3
AM_ISO$0
100
AcDbAlignedDimension
 13
70.41256507236443
 23
202.1044482618675
 33
0.0
 14
70.41256507236433
 24
213.1044482618676
 34
0.0
 50
90.00000000000094
100
AcDbRotatedDimension
1001
ACAD
1000
DSTYLE
1002
{
1070
    40
1040
1.5
1002
}
  0
DIMENSION
  5
2C2F
102
{ACAD_XDICTIONARY
360
2C3C
102
}
102
{ACAD_REACTORS
330
2C3D
102
}
330
1F
100
AcDbEntity
  8
AM_5
100
AcDbDimension
  2
*D22
 10
77.1125650723642
 20
233.0754513049313
 30
0.0
 11
79.41256507236419
 21
233.0754513049313
 31
0.0
 70
   160
 71
     5
 42
4.599999999999965
  3
AM_ISO$0
100
AcDbAlignedDimension
 13
81.71256507236417
 23
208.2044482618677
 33
0.0
 14
77.1125650723642
 24
208.2044482618676
 34
0.0
100
AcDbRotatedDimension
1001
ACAD
1000
DSTYLE
1002
{
1070
    40
1040
1.5
1002
}
  0
DIMENSION
  5
2C68
102
{ACAD_XDICTIONARY
360
2C73
102
}
102
{ACAD_REACTORS
330
2C74
102
}
330
1F
100
AcDbEntity
  8
AM_5
100
AcDbDimension
  2
*D23
 10
266.4125650723643
 20
246.2255036592045
 30
0.0
 11
166.9125650723643
 21
251.1005036592045
 31
0.0
 70
    32
 71
     5
 42
199.0
  3
AM_ISO$0
100
AcDbAlignedDimension
 13
67.41256507236433
 23
210.1044482618676
 33
0.0
 14
266.4125650723643
 24
210.1044482618711
 34
0.0
100
AcDbRotatedDimension
1001
ACAD
1000
DSTYLE
1002
{
1070
    40
1040
1.5
1002
}
  0
DIMENSION
  5
2CAB
102
{ACAD_XDICTIONARY
360
2CB8
102
}
102
{ACAD_REACTORS
330
2CB9
102
}
330
1F
100
AcDbEntity
  8
AM_5
100
AcDbDimension
  2
*D24
 10
284.1096321967174
 20
246.2255036592045
 30
0.0
 11
295.1721321967174
 21
251.1005036592045
 31
0.0
 70
    32
 71
     5
 42
4.0
  3
AM_ISO$0
100
AcDbAlignedDimension
 13
280.1096321967174
 23
212.1044482618691
 33
0.0
 14
284.1096321967174
 24
213.1044482618691
 34
0.0
100
AcDbRotatedDimension
1001
ACAD
1000
DSTYLE
1002
{
1070
    40
1040
1.5
1002
}
  0
DIMENSION
  5
2CE5
330
1F
100
AcDbEntity
  8
AM_5
100
AcDbDimension
  2
*D25
 10
149.4125650723644
 20
175.4979661734238
 30
0.0
 11
114.4125650723643
 21
180.3729661734238
 31
0.0
 70
    32
 71
     5
 42
70.0000000000002
  3
AM_ISO$0
100
AcDbAlignedDimension
 13
79.41256507236423
 23
206.0044482618677
 33
0.0
 14
149.4125650723644
 24
206.0044482618677
 34
0.0
 50
0.0000000000001132
100
AcDbRotatedDimension
1001
ACAD
1000
DSTYLE
1002
{
1070
    40
1040
1.5
1070
   174
1070
     1
1002
}
  0
DIMENSION
  5
2D0B
330
1F
100
AcDbEntity
  8
AM_5
100
AcDbDimension
  2
*D26
 10
184.4125650723643
 20
175.4979661734238
 30
0.0
 11
166.9125650723644
 21
180.3729661734238
 31
0.0
 70
    32
 71
     5
 42
34.99999999999992
  3
AM_ISO$0
100
AcDbAlignedDimension
 13
149.4125650723644
 23
206.0044482618677
 33
0.0
 14
184.4125650723643
 24
206.0044482618683
 34
0.0
100
AcDbRotatedDimension
1001
ACAD
1000
DSTYLE
1002
{
1070
   174
1070
     1
1070
    40
1040
1.5
1002
}
  0
DIMENSION
  5
2D25
330
1F
100
AcDbEntity
  8
AM_5
100
AcDbDimension
  2
*D27
 10
254.4125650723645
 20
175.4979661734239
 30
0.0
 11
219.4125650723644
 21
180.3729661734239
 31
0.0
 70
    32
 71
     5
 42
70.0000000000002
  3
AM_ISO$0
100
AcDbAlignedDimension
 13
184.4125650723643
 23
206.0044482618683
 33
0.0
 14
254.4125650723645
 24
206.0044482618708
 34
0.0
100
AcDbRotatedDimension
1001
ACAD
1000
DSTYLE
1002
{
1070
   174
1070
     1
1070
    40
1040
1.5
1002
}
  0
VIEWPORT
  5
17C
102
{ACAD_XDICTIONARY
360
2E27
102
}
330
23
100
AcDbEntity
 67
     1
  8
0
100
AcDbViewport
 10
133.3499908447265
 20
101.5999970436096
 30
0.0
 40
370.2266912936524
 41
228.4221935424805
 68
     1
 69
     1
 12
133.3499908447265
 22
101.5999970436096
 13
0.0
 23
0.0
 14
10.0
 24
10.0
 15
10.0
 25
10.0
 16
0.0
 26
0.0
 36
1.0
 17
0.0
 27
0.0
 37
0.0
 42
50.0
 43
0.0
 44
0.0
 45
228.4221935424805
 50
0.0
 51
0.0
 72
   100
 90
    32800
  1

281
     0
 71
     1
 74
     0
110
0.0
120
0.0
130
0.0
111
1.0
121
0.0
131
0.0
112
0.0
122
1.0
132
0.0
 79
     0
146
0.0
  0
ENDSEC
  0
SECTION
  2
OBJECTS
  0
DICTIONARY
  5
C
330
0
100
AcDbDictionary
281
     1
  3
ACAD_COLOR
350
BE
  3
ACAD_GROUP
350
D
  3
ACAD_LAYOUT
350
1A
  3
ACAD_MATERIAL
350
BD
  3
ACAD_MLEADERSTYLE
350
2D9A
  3
ACAD_MLINESTYLE
350
17
  3
ACAD_PLOTSETTINGS
350
19
  3
ACAD_PLOTSTYLENAME
350
E
  3
ACAD_SCALELIST
350
2D88
  3
ACAD_TABLESTYLE
350
69E
  3
ACAD_VISUALSTYLE
350
2D77
  3
ACDB_RECOMPOSE_DATA
350
2E1D
  3
AcDbVariableDictionary
350
94
  3
AcmDictionary
350
5B
  3
AMG
350
41
  3
AMGSNAPSETTINGS
350
220
  3
DWGPROPS
350
2E1E
  0
DICTIONARY
  5
35D
330
2
100
AcDbDictionary
280
     1
281
     1
  3
ACAD_LAYERFILTERS
360
451
  3
ACAD_LAYERSTATES
360
35E
  3
AMLAYER_GROUPCOLORS
360
4A4
  0
DICTIONARY
  5
2DC5
330
10
100
AcDbDictionary
280
     1
281
     1
  3
ADSK_XREC_LAYER_RECONCILED
360
2DC6
  0
DICTIONARY
  5
2DC7
330
518
100
AcDbDictionary
280
     1
281
     1
  3
ADSK_XREC_LAYER_RECONCILED
360
2DC8
  0
DICTIONARY
  5
2DC9
330
519
100
AcDbDictionary
280
     1
281
     1
  3
ADSK_XREC_LAYER_RECONCILED
360
2DCA
  0
DICTIONARY
  5
2DCB
330
51A
100
AcDbDictionary
280
     1
281
     1
  3
ADSK_XREC_LAYER_RECONCILED
360
2DCC
  0
DICTIONARY
  5
2DCD
330
51B
100
AcDbDictionary
280
     1
281
     1
  3
ADSK_XREC_LAYER_RECONCILED
360
2DCE
  0
DICTIONARY
  5
2DCF
330
51C
100
AcDbDictionary
280
     1
281
     1
  3
ADSK_XREC_LAYER_RECONCILED
360
2DD0
  0
DICTIONARY
  5
2DD1
330
51D
100
AcDbDictionary
280
     1
281
     1
  3
ADSK_XREC_LAYER_RECONCILED
360
2DD2
  0
DICTIONARY
  5
2DD3
330
5AE
100
AcDbDictionary
280
     1
281
     1
  3
ADSK_XREC_LAYER_RECONCILED
360
2DD4
  0
DICTIONARY
  5
2DD5
330
5AF
100
AcDbDictionary
280
     1
281
     1
  3
ADSK_XREC_LAYER_RECONCILED
360
2DD6
  0
DICTIONARY
  5
2DD7
330
5B0
100
AcDbDictionary
280
     1
281
     1
  3
ADSK_XREC_LAYER_RECONCILED
360
2DD8
  0
DICTIONARY
  5
2DD9
330
5B1
100
AcDbDictionary
280
     1
281
     1
  3
ADSK_XREC_LAYER_RECONCILED
360
2DDA
  0
DICTIONARY
  5
2DDB
330
5B2
100
AcDbDictionary
280
     1
281
     1
  3
ADSK_XREC_LAYER_RECONCILED
360
2DDC
  0
DICTIONARY
  5
2DDD
330
5B4
100
AcDbDictionary
280
     1
281
     1
  3
ADSK_XREC_LAYER_RECONCILED
360
2DDE
  0
DICTIONARY
  5
2DDF
330
5B5
100
AcDbDictionary
280
     1
281
     1
  3
ADSK_XREC_LAYER_RECONCILED
360
2DE0
  0
DICTIONARY
  5
2DE1
330
5B6
100
AcDbDictionary
280
     1
281
     1
  3
ADSK_XREC_LAYER_RECONCILED
360
2DE2
  0
DICTIONARY
  5
2DE3
330
5B7
100
AcDbDictionary
280
     1
281
     1
  3
ADSK_XREC_LAYER_RECONCILED
360
2DE4
  0
DICTIONARY
  5
2DE5
330
5B8
100
AcDbDictionary
280
     1
281
     1
  3
ADSK_XREC_LAYER_RECONCILED
360
2DE6
  0
DICTIONARY
  5
2DE7
330
5E3
100
AcDbDictionary
280
     1
281
     1
  3
ADSK_XREC_LAYER_RECONCILED
360
2DE8
  0
DICTIONARY
  5
2DE9
330
5E4
100
AcDbDictionary
280
     1
281
     1
  3
ADSK_XREC_LAYER_RECONCILED
360
2DEA
  0
DICTIONARY
  5
2DEB
330
60F
100
AcDbDictionary
280
     1
281
     1
  3
ADSK_XREC_LAYER_RECONCILED
360
2DEC
  0
DICTIONARY
  5
2DED
330
610
100
AcDbDictionary
280
     1
281
     1
  3
ADSK_XREC_LAYER_RECONCILED
360
2DEE
  0
DICTIONARY
  5
2DEF
330
C6F
100
AcDbDictionary
280
     1
281
     1
  3
ADSK_XREC_LAYER_RECONCILED
360
2DF0
  0
DICTIONARY
  5
2DF1
330
F37
100
AcDbDictionary
280
     1
281
     1
  3
ADSK_XREC_LAYER_RECONCILED
360
2DF2
  0
DICTIONARY
  5
8F
330
1F
100
AcDbDictionary
280
     1
281
     1
  3
ACAD_SORTENTS
360
C8C
  0
DICTIONARY
  5
603
330
5FA
100
AcDbDictionary
280
     1
281
     1
  0
DICTIONARY
  5
668
330
613
100
AcDbDictionary
280
     1
281
     1
  0
DICTIONARY
  5
6CE
330
6C6
100
AcDbDictionary
280
     1
281
     1
  0
DICTIONARY
  5
732
330
6D9
100
AcDbDictionary
280
     1
281
     1
  0
DICTIONARY
  5
2E25
330
178
100
AcDbDictionary
280
     1
281
     1
  3
ACAD_XREC_ROUNDTRIP
360
2E26
  0
DICTIONARY
  5
2E2A
330
296C
100
AcDbDictionary
280
     1
281
     1
  3
ACAD_MTEXT_RT
360
2E2B
  0
DICTIONARY
  5
E28
330
E1D
100
AcDbDictionary
280
     1
281
     1
  3
ACAD_DIMASSOC
360
E29
  0
DICTIONARY
  5
E50
330
E45
100
AcDbDictionary
280
     1
281
     1
  3
ACAD_DIMASSOC
360
E51
  0
DICTIONARY
  5
E6C
330
E61
100
AcDbDictionary
280
     1
281
     1
  3
ACAD_DIMASSOC
360
E6D
  0
DICTIONARY
  5
E9A
330
E8F
100
AcDbDictionary
280
     1
281
     1
  3
ACAD_DIMASSOC
360
E9B
  0
DICTIONARY
  5
EC4
330
EB9
100
AcDbDictionary
280
     1
281
     1
  3
ACAD_DIMASSOC
360
EC5
  0
DICTIONARY
  5
EE8
330
EDD
100
AcDbDictionary
280
     1
281
     1
  3
ACAD_DIMASSOC
360
EE9
  0
DICTIONARY
  5
F05
330
EFE
100
AcDbDictionary
280
     1
281
     1
  3
ACAD_DIMASSOC
360
F06
  0
DICTIONARY
  5
298D
330
2982
100
AcDbDictionary
280
     1
281
     1
  3
ACAD_DIMASSOC
360
298E
  0
DICTIONARY
  5
29B1
330
29A6
100
AcDbDictionary
280
     1
281
     1
  3
ACAD_DIMASSOC
360
29B2
  0
DICTIONARY
  5
29D5
330
29CA
100
AcDbDictionary
280
     1
281
     1
  3
ACAD_DIMASSOC
360
29D6
  0
DICTIONARY
  5
2A0C
330
2A01
100
AcDbDictionary
280
     1
281
     1
  3
ACAD_DIMASSOC
360
2A0D
  0
DICTIONARY
  5
2C02
330
2BF5
100
AcDbDictionary
280
     1
281
     1
  3
ACAD_DIMASSOC
360
2C03
  0
DICTIONARY
  5
2C3C
330
2C2F
100
AcDbDictionary
280
     1
281
     1
  3
ACAD_DIMASSOC
360
2C3D
  0
DICTIONARY
  5
2C73
330
2C68
100
AcDbDictionary
280
     1
281
     1
  3
ACAD_DIMASSOC
360
2C74
  0
DICTIONARY
  5
2CB8
330
2CAB
100
AcDbDictionary
280
     1
281
     1
  3
ACAD_DIMASSOC
360
2CB9
  0
DICTIONARY
  5
2E27
330
17C
100
AcDbDictionary
280
     1
281
     1
  3
ACAD_XREC_ROUNDTRIP
360
2E28
  0
DICTIONARY
  5
BE
102
{ACAD_REACTORS
330
C
102
}
330
C
100
AcDbDictionary
281
     1
  0
DICTIONARY
  5
D
102
{ACAD_REACTORS
330
C
102
}
330
C
100
AcDbDictionary
281
     1
  0
DICTIONARY
  5
1A
102
{ACAD_REACTORS
330
C
102
}
330
C
100
AcDbDictionary
281
     1
  3
Model
350
22
  3
レイアウト1
350
1E
  3
レイアウト2
350
26
  0
DICTIONARY
  5
BD
102
{ACAD_REACTORS
330
C
102
}
330
C
100
AcDbDictionary
281
     1
  3
ByBlock
350
2D67
  3
ByLayer
350
2D5F
  3
Global
350
2D6F
  0
DICTIONARY
  5
2D9A
102
{ACAD_REACTORS
330
C
102
}
330
C
100
AcDbDictionary
281
     1
  3
Standard
350
2D9B
  0
DICTIONARY
  5
17
102
{ACAD_REACTORS
330
C
102
}
330
C
100
AcDbDictionary
281
     1
  3
Standard
350
18
  0
DICTIONARY
  5
19
102
{ACAD_REACTORS
330
C
102
}
330
C
100
AcDbDictionary
281
     1
  0
ACDBDICTIONARYWDFLT
  5
E
102
{ACAD_REACTORS
330
C
102
}
330
C
100
AcDbDictionary
281
     1
  3
Normal
350
F
100
AcDbDictionaryWithDefault
340
F
  0
DICTIONARY
  5
2D88
102
{ACAD_REACTORS
330
C
102
}
330
C
100
AcDbDictionary
281
     1
  3
A0
350
2D89
  3
A1
350
2D8A
  3
A2
350
2D8B
  3
A3
350
2D8C
  3
A4
350
2D8D
  3
A5
350
2D8E
  3
A6
350
2D8F
  3
A7
350
2D90
  3
A8
350
2D91
  3
A9
350
2D92
  3
B0
350
2D93
  3
B1
350
2D94
  3
B2
350
2D95
  3
B3
350
2D96
  3
B4
350
2D97
  3
B5
350
2D98
  3
B6
350
2D99
  0
DICTIONARY
  5
69E
102
{ACAD_REACTORS
330
C
102
}
330
C
100
AcDbDictionary
281
     1
  3
Standard
350
69F
  0
DICTIONARY
  5
2D77
102
{ACAD_REACTORS
330
C
102
}
330
C
100
AcDbDictionary
281
     1
  3
2dWireframe
350
2D7D
  3
3D Hidden
350
2D7F
  3
3dWireframe
350
2D7E
  3
Basic
350
2D7C
  3
Brighten
350
2D83
  3
ColorChange
350
2D87
  3
Conceptual
350
2D80
  3
Dim
350
2D82
  3
Facepattern
350
2D86
  3
Flat
350
2D78
  3
FlatWithEdges
350
2D79
  3
Gouraud
350
2D7A
  3
GouraudWithEdges
350
2D7B
  3
Linepattern
350
2D85
  3
Realistic
350
2D81
  3
Thicken
350
2D84
  0
XRECORD
  5
2E1D
102
{ACAD_REACTORS
330
C
102
}
330
C
100
AcDbXrecord
280
     1
 90
        1
330
69F
  0
DICTIONARY
  5
94
102
{ACAD_REACTORS
330
C
102
}
330
C
100
AcDbDictionary
281
     1
  3
CANNOSCALE
350
2E19
  3
CMLEADERSTYLE
350
2E18
  3
CTABLESTYLE
350
754
  3
DIMASSOC
350
96
  3
INDEXCTL
350
95
  3
SORTENTS
350
2E1A
  0
DICTIONARY
  5
5B
102
{ACAD_REACTORS
330
C
102
}
330
C
100
AcDbDictionary
281
     1
  3
AcmStdDictionary
350
61
  3
AMDTSECTSYM_ARROWCOLOR
350
6AB
  0
DICTIONARY
  5
41
102
{ACAD_REACTORS
330
C
102
}
330
C
100
AcDbDictionary
281
     1
  0
DICTIONARY
  5
220
102
{ACAD_REACTORS
330
C
102
}
330
C
100
AcDbDictionary
281
     1
  0
XRECORD
  5
2E1E
102
{ACAD_REACTORS
330
C
102
}
330
C
100
AcDbXrecord
280
     1
  1
DWGPROPS COOKIE
  2

  3

  4

  6

  7

  8
Administrator
  9

300
AmdtFileType=84
301
=
302
=
303
=
304
=
305
=
306
=
307
=
308
=
309
=
 40
0.2095345023148148
 41
2455329.706164098
 42
2455988.620858102
  1

 90
        1
  0
DICTIONARY
  5
451
102
{ACAD_REACTORS
330
35D
102
}
330
35D
100
AcDbDictionary
281
     1
  0
DICTIONARY
  5
35E
102
{ACAD_REACTORS
330
35D
102
}
330
35D
100
AcDbDictionary
281
     1
  3
takachi1
350
35F
  0
DICTIONARY
  5
4A4
102
{ACAD_REACTORS
330
35D
102
}
330
35D
100
AcDbDictionary
280
     1
281
     1
  0
XRECORD
  5
2DC6
102
{ACAD_REACTORS
330
2DC5
102
}
330
2DC5
100
AcDbXrecord
280
     1
290
     1
  0
XRECORD
  5
2DC8
102
{ACAD_REACTORS
330
2DC7
102
}
330
2DC7
100
AcDbXrecord
280
     1
290
     1
  0
XRECORD
  5
2DCA
102
{ACAD_REACTORS
330
2DC9
102
}
330
2DC9
100
AcDbXrecord
280
     1
290
     1
  0
XRECORD
  5
2DCC
102
{ACAD_REACTORS
330
2DCB
102
}
330
2DCB
100
AcDbXrecord
280
     1
290
     1
  0
XRECORD
  5
2DCE
102
{ACAD_REACTORS
330
2DCD
102
}
330
2DCD
100
AcDbXrecord
280
     1
290
     1
  0
XRECORD
  5
2DD0
102
{ACAD_REACTORS
330
2DCF
102
}
330
2DCF
100
AcDbXrecord
280
     1
290
     1
  0
XRECORD
  5
2DD2
102
{ACAD_REACTORS
330
2DD1
102
}
330
2DD1
100
AcDbXrecord
280
     1
290
     1
  0
XRECORD
  5
2DD4
102
{ACAD_REACTORS
330
2DD3
102
}
330
2DD3
100
AcDbXrecord
280
     1
290
     1
  0
XRECORD
  5
2DD6
102
{ACAD_REACTORS
330
2DD5
102
}
330
2DD5
100
AcDbXrecord
280
     1
290
     1
  0
XRECORD
  5
2DD8
102
{ACAD_REACTORS
330
2DD7
102
}
330
2DD7
100
AcDbXrecord
280
     1
290
     1
  0
XRECORD
  5
2DDA
102
{ACAD_REACTORS
330
2DD9
102
}
330
2DD9
100
AcDbXrecord
280
     1
290
     1
  0
XRECORD
  5
2DDC
102
{ACAD_REACTORS
330
2DDB
102
}
330
2DDB
100
AcDbXrecord
280
     1
290
     1
  0
XRECORD
  5
2DDE
102
{ACAD_REACTORS
330
2DDD
102
}
330
2DDD
100
AcDbXrecord
280
     1
290
     1
  0
XRECORD
  5
2DE0
102
{ACAD_REACTORS
330
2DDF
102
}
330
2DDF
100
AcDbXrecord
280
     1
290
     1
  0
XRECORD
  5
2DE2
102
{ACAD_REACTORS
330
2DE1
102
}
330
2DE1
100
AcDbXrecord
280
     1
290
     1
  0
XRECORD
  5
2DE4
102
{ACAD_REACTORS
330
2DE3
102
}
330
2DE3
100
AcDbXrecord
280
     1
290
     1
  0
XRECORD
  5
2DE6
102
{ACAD_REACTORS
330
2DE5
102
}
330
2DE5
100
AcDbXrecord
280
     1
290
     1
  0
XRECORD
  5
2DE8
102
{ACAD_REACTORS
330
2DE7
102
}
330
2DE7
100
AcDbXrecord
280
     1
290
     1
  0
XRECORD
  5
2DEA
102
{ACAD_REACTORS
330
2DE9
102
}
330
2DE9
100
AcDbXrecord
280
     1
290
     1
  0
XRECORD
  5
2DEC
102
{ACAD_REACTORS
330
2DEB
102
}
330
2DEB
100
AcDbXrecord
280
     1
290
     1
  0
XRECORD
  5
2DEE
102
{ACAD_REACTORS
330
2DED
102
}
330
2DED
100
AcDbXrecord
280
     1
290
     1
  0
XRECORD
  5
2DF0
102
{ACAD_REACTORS
330
2DEF
102
}
330
2DEF
100
AcDbXrecord
280
     1
290
     1
  0
XRECORD
  5
2DF2
102
{ACAD_REACTORS
330
2DF1
102
}
330
2DF1
100
AcDbXrecord
280
     1
290
     1
  0
SORTENTSTABLE
  5
C8C
102
{ACAD_REACTORS
330
8F
102
}
330
8F
100
AcDbSortentsTable
330
1F
331
28CE
  5
28CE
331
B89
  5
B8B
331
A9A
  5
A9A
331
D10
  5
D10
331
17B1
  5
17B1
331
1EBD
  5
1EEB
331
2621
  5
2621
331
2748
  5
27DD
331
17B9
  5
17B9
331
B22
  5
B22
331
D18
  5
D18
331
10BC
  5
10BC
331
11F3
  5
1192
331
291D
  5
291D
331
28E6
  5
28E6
331
1EE5
  5
1FD5
331
157A
  5
157A
331
17C1
  5
17C1
331
1E06
  5
1E17
331
2492
  5
2492
331
27E0
  5
27E2
331
28EE
  5
28EE
331
1F25
  5
200C
331
2283
  5
224C
331
27E8
  5
2820
331
2857
  5
2856
331
28F6
  5
28F6
331
B32
  5
B32
331
D28
  5
D28
331
1582
  5
1582
331
1851
  5
1851
331
D30
  5
D30
331
158A
  5
158A
331
1B88
  5
1B91
331
1E16
  5
1E1B
331
20F4
  5
2234
331
2820
  5
2822
331
1592
  5
1592
331
138B
  5
138A
331
1B90
  5
1C3F
331
1C8F
  5
1E07
331
2731
  5
273C
331
2828
  5
282B
331
2906
  5
2906
331
2234
  5
1B87
331
1EB6
  5
1EBB
331
1FD5
  5
20EE
331
2A62
  5
2A62
331
2830
  5
2831
331
290E
  5
290E
331
200D
  5
20FA
331
2916
  5
2916
331
2741
  5
2742
331
23AB
  5
2367
331
28CF
  5
28CF
331
B8A
  5
B8C
331
E8F
  5
E8F
331
13A3
  5
139F
331
19E9
  5
1B84
331
1045
  5
1045
331
A9B
  5
A9B
331
D11
  5
D11
331
13D3
  5
12D2
331
17B2
  5
17B2
331
1C00
  5
1CA1
331
1EBE
  5
1F05
331
10BD
  5
10BD
331
B23
  5
B23
331
D19
  5
D19
331
EFE
  5
EFE
331
17BA
  5
17BA
331
291E
  5
291E
331
28E7
  5
28E7
331
1EE6
  5
1F26
331
1E07
  5
1E18
331
1165
  5
1165
331
157B
  5
157B
331
17C2
  5
17C2
331
224C
  5
1B85
331
27E1
  5
27E3
331
28EF
  5
28EF
331
28F7
  5
28F7
331
27E9
  5
2821
331
2858
  5
2859
331
1583
  5
1583
331
B33
  5
B33
331
D29
  5
D29
331
1E17
  5
1E1C
331
131C
  5
139D
331
18E2
  5
18E2
331
1B89
  5
1B94
331
D31
  5
D31
331
2821
  5
2823
331
1593
  5
1593
331
1B91
  5
1C45
331
21E5
  5
2240
331
2907
  5
2907
331
255B
  5
255B
331
2829
  5
282C
331
28A8
  5
28A8
331
1EB7
  5
1EBC
331
2831
  5
2832
331
290F
  5
290F
331
2917
  5
2917
331
2742
  5
2743
331
1BE1
  5
1C90
331
17AB
  5
17AB
331
17B3
  5
17B3
331
D12
  5
D12
331
19F2
  5
1B86
331
1EC7
  5
1F24
331
B24
  5
B24
331
D1A
  5
D1A
331
10BE
  5
10BE
331
291F
  5
291F
331
240C
  5
240E
331
157C
  5
157C
331
1E08
  5
1E19
331
1EE7
  5
1F98
331
208E
  5
21E5
331
28F0
  5
28F0
331
2693
  5
2695
331
27E2
  5
27E4
331
20EE
  5
21E7
331
28F8
  5
28F8
331
24FC
  5
24FC
331
D22
  5
D22
331
1584
  5
1584
331
1B82
  5
1B8C
331
116E
  5
117C
331
E61
  5
E61
331
D2A
  5
D2A
331
1F97
  5
2078
331
1B8A
  5
1B9F
331
1E18
  5
1EB5
331
B84
  5
B84
331
D32
  5
D32
331
26FB
  5
26FB
331
2534
  5
2535
331
2822
  5
2824
331
1C91
  5
19E9
331
1594
  5
1594
331
21E6
  5
2281
331
2908
  5
2908
331
28A9
  5
28A9
331
139D
  5
13A3
331
1CA1
  5
1E09
331
2910
  5
2910
331
2832
  5
2833
331
22D5
  5
2246
331
29A6
  5
29A6
331
2A64
  5
2A64
331
2743
  5
2744
331
23AD
  5
23AE
331
1BE2
  5
1C8E
331
17AC
  5
17AC
331
1EB8
  5
1EBD
331
17B4
  5
17B4
331
1C02
  5
1C91
331
D13
  5
D13
331
2918
  5
2918
331
28E1
  5
28E1
331
1575
  5
1575
331
B25
  5
B25
331
D1B
  5
D1B
331
10BF
  5
10BF
331
2920
  5
2920
331
28E9
  5
28E9
331
2246
  5
1B8B
331
240D
  5
23D6
331
1C2A
  5
1CB4
331
157D
  5
157D
331
17C4
  5
17C4
331
1E09
  5
195D
331
28F1
  5
28F1
331
27E3
  5
27E5
331
28F9
  5
28F9
331
EB9
  5
EB9
331
B2D
  5
B2D
331
D23
  5
D23
331
1585
  5
1585
331
D2B
  5
D2B
331
1F98
  5
20E8
331
1E19
  5
1EB6
331
1B8B
  5
1BE2
331
D33
  5
D33
331
2535
  5
2559
331
2823
  5
2825
331
21E7
  5
22BF
331
F38
  5
F38
331
C9C
  5
C9C
331
2909
  5
2909
331
282B
  5
2732
331
2911
  5
2911
331
2833
  5
2834
331
273C
  5
273D
331
2744
  5
2745
331
2018
  5
20F8
331
195C
  5
195C
331
11DF
  5
11E3
331
17AD
  5
17AD
331
1EB9
  5
1EBE
331
BA5
  5
BAA
331
1CBA
  5
1E16
331
17B5
  5
17B5
331
2078
  5
21D1
331
BAD
  5
C8B
331
2919
  5
2919
331
28E2
  5
28E2
331
23D6
  5
240C
331
1576
  5
1576
331
D1C
  5
D1C
331
B26
  5
B26
331
2843
  5
284F
331
27DC
  5
27DE
331
28EA
  5
28EA
331
2921
  5
2921
331
157E
  5
157E
331
17C5
  5
17C5
331
20E8
  5
21E6
331
27E4
  5
27E6
331
28F2
  5
28F2
331
28FA
  5
28FA
331
26C5
  5
26C5
331
D24
  5
D24
331
B2E
  5
B2E
331
1C43
  5
1CBE
331
1586
  5
1586
331
1B84
  5
1B8A
331
D2C
  5
D2C
331
1178
  5
11A9
331
1E1A
  5
1EB7
331
1B8C
  5
1BE4
331
D34
  5
D34
331
B86
  5
B88
331
2824
  5
2826
331
22BF
  5
2283
331
2863
  5
2863
331
1925
  5
1925
331
C9D
  5
C9D
331
282C
  5
282D
331
22CF
  5
22CF
331
290A
  5
290A
331
139F
  5
13D3
331
1955
  5
1955
331
2834
  5
2835
331
273D
  5
273E
331
2912
  5
2912
331
2745
  5
2746
331
23AF
  5
23AB
331
1EBA
  5
1EC7
331
195D
  5
195E
331
11E0
  5
11F3
331
17AE
  5
17AE
331
11F0
  5
1179
331
17B6
  5
17B6
331
10B9
  5
10B9
331
291A
  5
291A
331
2240
  5
1B89
331
28E3
  5
28E3
331
1577
  5
1577
331
1C0C
  5
1B82
331
D1D
  5
D1D
331
27DD
  5
27DF
331
28EB
  5
28EB
331
157F
  5
157F
331
2696
  5
2696
331
27E5
  5
27E7
331
28F3
  5
28F3
331
28FB
  5
28FB
331
B2F
  5
B2F
331
D25
  5
D25
331
1587
  5
1587
331
1B85
  5
1B8E
331
D2D
  5
D2D
331
1E1B
  5
1EB8
331
1388
  5
13A1
331
158F
  5
158F
331
1B8D
  5
1C01
331
B87
  5
B89
331
D35
  5
D35
331
C9E
  5
C9E
331
2825
  5
2827
331
2864
  5
2864
331
2A5F
  5
2A5F
331
282D
  5
282E
331
290B
  5
290B
331
2835
  5
2836
331
2617
  5
2617
331
273E
  5
273F
331
2913
  5
2913
331
2746
  5
2747
331
28CC
  5
28CC
331
CB6
  5
CB6
331
201A
  5
1F25
331
1EBB
  5
1EE6
331
195E
  5
1966
331
11E1
  5
1326
331
17AF
  5
17AF
331
1CB4
  5
1E15
331
E1D
  5
E1D
331
17B7
  5
17B7
331
B20
  5
B20
331
D16
  5
D16
331
10BA
  5
10BA
331
291B
  5
291B
331
1578
  5
1578
331
17BF
  5
17BF
331
E45
  5
E45
331
D1E
  5
D1E
331
283D
  5
283D
331
28E4
  5
28E4
331
1F23
  5
2018
331
2490
  5
2490
331
27DE
  5
27E0
331
28EC
  5
28EC
331
2281
  5
22D5
331
2697
  5
2697
331
27E6
  5
27E8
331
28F4
  5
28F4
331
2982
  5
2982
331
28FC
  5
28FC
331
1580
  5
1580
331
B30
  5
B30
331
D26
  5
D26
331
1C45
  5
1DB3
331
1588
  5
1588
331
1B86
  5
1B8F
331
D2E
  5
D2E
331
1E1C
  5
1EB9
331
1590
  5
1590
331
1389
  5
13D1
331
1B8E
  5
1C03
331
1192
  5
11E0
331
2826
  5
2828
331
2865
  5
2865
331
282E
  5
282F
331
2A01
  5
2A01
331
2914
  5
2914
331
2836
  5
27DC
331
273F
  5
2740
331
28B5
  5
28B5
331
2747
  5
2748
331
28CD
  5
28CD
331
B88
  5
B8A
331
13A1
  5
1391
331
17B0
  5
17B0
331
13D1
  5
11F0
331
1EBC
  5
1EE9
331
D0F
  5
D0F
331
17B8
  5
17B8
331
B21
  5
B21
331
D17
  5
D17
331
10BB
  5
10BB
331
223A
  5
1B8D
331
29CA
  5
29CA
331
291C
  5
291C
331
1579
  5
1579
331
12D2
  5
1387
331
17C0
  5
17C0
331
D1F
  5
D1F
331
2628
  5
2628
331
28E5
  5
28E5
331
1AEF
  5
1B88
331
1F24
  5
200B
331
27DF
  5
27E1
331
28ED
  5
28ED
331
27E7
  5
27E9
331
28F5
  5
28F5
331
28FD
  5
28FD
331
1581
  5
1581
331
B31
  5
B31
331
D27
  5
D27
331
1312
  5
138E
331
D2F
  5
D2F
331
1589
  5
1589
331
1B87
  5
1B90
331
1E15
  5
1E1A
331
1C8E
  5
1E08
331
EDD
  5
EDD
331
1591
  5
1591
331
1B8F
  5
1C2A
331
2905
  5
2905
331
2559
  5
2530
331
2827
  5
2829
331
2866
  5
2866
331
1EB5
  5
1EBA
331
2A61
  5
2A61
331
282F
  5
2830
331
290D
  5
290D
331
2915
  5
2915
331
2740
  5
2741
331
23AA
  5
23B0
331
28B6
  5
28B6
  0
XRECORD
  5
2E26
102
{ACAD_REACTORS
330
2E25
102
}
330
2E25
100
AcDbXrecord
280
     1
102
SHADEPLOT
 70
     0
  0
XRECORD
  5
2E2B
102
{ACAD_REACTORS
330
2E2A
102
}
330
2E2A
100
AcDbXrecord
280
     1
 40
4140.0
  1
8-\U+22053.5
  0
DIMASSOC
  5
E29
102
{ACAD_REACTORS
330
E28
102
}
330
E28
100
AcDbDimAssoc
330
E1D
 90
        3
 70
     0
 71
     0
  1
AcDbOsnapPointRef
 72
     1
331
D17
 73
     0
 91
        0
 40
0.0
 10
0.0
 20
0.0
 30
2.000000000000000E+50
 75
     0
  1
AcDbOsnapPointRef
 72
     1
331
D1C
 73
     0
 91
        0
 40
0.0
 10
0.0
 20
0.0
 30
2.000000000000000E+50
 75
     0
  0
DIMASSOC
  5
E51
102
{ACAD_REACTORS
330
E50
102
}
330
E50
100
AcDbDimAssoc
330
E45
 90
        3
 70
     0
 71
     0
  1
AcDbOsnapPointRef
 72
     1
331
D1C
 73
     0
 91
        0
 40
0.0
 10
0.0
 20
0.0
 30
2.000000000000000E+50
 75
     0
  1
AcDbOsnapPointRef
 72
    10
331
D32
 73
     0
 91
        0
 40
1.0
 10
0.0
 20
0.0
 30
0.0
 75
     0
  0
DIMASSOC
  5
E6D
102
{ACAD_REACTORS
330
E6C
102
}
330
E6C
100
AcDbDimAssoc
330
E61
 90
        3
 70
     0
 71
     0
  1
AcDbOsnapPointRef
 72
    10
331
D32
 73
     0
 91
        0
 40
1.0
 10
0.0
 20
0.0
 30
0.0
 75
     0
  1
AcDbOsnapPointRef
 72
     1
331
D2D
 73
     0
 91
        0
 40
0.0
 10
0.0
 20
0.0
 30
2.000000000000000E+50
 75
     0
  0
DIMASSOC
  5
E9B
102
{ACAD_REACTORS
330
E9A
102
}
330
E9A
100
AcDbDimAssoc
330
E8F
 90
        3
 70
     0
 71
     0
  1
AcDbOsnapPointRef
 72
     1
331
D24
 73
     0
 91
        0
 40
0.0
 10
0.0
 20
0.0
 30
2.000000000000000E+50
 75
     0
  1
AcDbOsnapPointRef
 72
     1
331
D2E
 73
     0
 91
        0
 40
0.0
 10
0.0
 20
0.0
 30
2.000000000000000E+50
 75
     0
  0
DIMASSOC
  5
EC5
102
{ACAD_REACTORS
330
EC4
102
}
330
EC4
100
AcDbDimAssoc
330
EB9
 90
        3
 70
     0
 71
     0
  1
AcDbOsnapPointRef
 72
     1
331
B84
 73
     2
 91
        2
 40
0.0
 10
0.0
 20
0.0
 30
2.000000000000000E+50
 75
     0
  1
AcDbOsnapPointRef
 72
     1
331
C9D
 73
     2
 91
        2
 40
0.0
 10
0.0
 20
0.0
 30
2.000000000000000E+50
 75
     0
  0
DIMASSOC
  5
EE9
102
{ACAD_REACTORS
330
EE8
102
}
330
EE8
100
AcDbDimAssoc
330
EDD
 90
        3
 70
     0
 71
     0
  1
AcDbOsnapPointRef
 72
     1
331
B84
 73
     2
 91
        1
 40
0.0
 10
0.0
 20
0.0
 30
2.000000000000000E+50
 75
     0
  1
AcDbOsnapPointRef
 72
     1
331
C9C
 73
     2
 91
        1
 40
0.0
 10
0.0
 20
0.0
 30
2.000000000000000E+50
 75
     0
  0
DIMASSOC
  5
F06
102
{ACAD_REACTORS
330
F05
102
}
330
F05
100
AcDbDimAssoc
330
EFE
 90
        2
 70
     0
 71
     0
  1
AcDbOsnapPointRef
 72
     3
331
D30
 73
     2
 91
        0
 40
0.0
 10
0.0
 20
0.0
 30
0.0
 75
     0
  0
DIMASSOC
  5
298E
102
{ACAD_REACTORS
330
298D
102
}
330
298D
100
AcDbDimAssoc
330
2982
 90
        3
 70
     0
 71
     0
  1
AcDbOsnapPointRef
 72
     1
331
1851
 73
     2
 91
        6
 40
0.0
 10
0.0
 20
0.0
 30
2.000000000000000E+50
 75
     0
  1
AcDbOsnapPointRef
 72
     8
331
1B91
 73
     2
 91
        7
 40
0.0000000000000341
 10
0.0
 20
0.0
 30
0.0
 75
     1
  1
AcDbOsnapPointRef
 72
     1
331
1851
 73
     2
 91
        6
 40
0.0
 10
0.0
 20
0.0
 30
2.000000000000000E+50
 75
     0
  0
DIMASSOC
  5
29B2
102
{ACAD_REACTORS
330
29B1
102
}
330
29B1
100
AcDbDimAssoc
330
29A6
 90
        3
 70
     0
 71
     0
  1
AcDbOsnapPointRef
 72
     1
331
1851
 73
     2
 91
        5
 40
0.0
 10
0.0
 20
0.0
 30
2.000000000000000E+50
 75
     0
  1
AcDbOsnapPointRef
 72
     1
331
11F3
 73
     0
 91
        0
 40
0.0
 10
0.0
 20
0.0
 30
2.000000000000000E+50
 75
     0
  0
DIMASSOC
  5
29D6
102
{ACAD_REACTORS
330
29D5
102
}
330
29D5
100
AcDbDimAssoc
330
29CA
 90
        3
 70
     0
 71
     0
  1
AcDbOsnapPointRef
 72
    10
331
21E6
 73
     0
 91
        0
 40
0.9921863839168189
 10
0.0
 20
0.0
 30
0.0
 75
     0
  1
AcDbOsnapPointRef
 72
     1
331
1EE5
 73
     0
 91
        0
 40
0.0
 10
0.0
 20
0.0
 30
2.000000000000000E+50
 75
     0
  0
DIMASSOC
  5
2A0D
102
{ACAD_REACTORS
330
2A0C
102
}
330
2A0C
100
AcDbDimAssoc
330
2A01
 90
        3
 70
     0
 71
     0
  1
AcDbOsnapPointRef
 72
    13
331
13D1
 73
     0
 91
        0
 40
0.0
 10
0.0
 20
0.0
 30
2.000000000000000E+50
 75
     0
  1
AcDbOsnapPointRef
 72
     8
331
11E0
 73
     0
 91
        0
 40
0.9999999999999992
 10
0.0
 20
0.0
 30
0.0
 75
     1
  1
AcDbOsnapPointRef
 72
    13
331
13D1
 73
     0
 91
        0
 40
0.0
 10
0.0
 20
0.0
 30
2.000000000000000E+50
 75
     0
  0
DIMASSOC
  5
2C03
102
{ACAD_REACTORS
330
2C02
102
}
330
2C02
100
AcDbDimAssoc
330
2BF5
 90
        3
 70
     0
 71
     0
  1
AcDbOsnapPointRef
 72
     1
331
B31
 73
     0
 91
        0
 40
0.0
 10
0.0
 20
0.0
 30
2.000000000000000E+50
 75
     0
  1
AcDbOsnapPointRef
 72
     5
331
B32
 73
     0
 91
        0
 40
1.570796326794896
 10
0.0
 20
0.0
 30
0.0
 75
     0
  0
DIMASSOC
  5
2C3D
102
{ACAD_REACTORS
330
2C3C
102
}
330
2C3C
100
AcDbDimAssoc
330
2C2F
 90
        3
 70
     0
 71
     0
  1
AcDbOsnapPointRef
 72
     1
331
B33
 73
     2
 91
        6
 40
0.0
 10
0.0
 20
0.0
 30
2.000000000000000E+50
 75
     0
  1
AcDbOsnapPointRef
 72
     8
331
B33
 73
     2
 91
        3
 40
0.9999999999999525
 10
0.0
 20
0.0
 30
0.0
 75
     1
  1
AcDbOsnapPointRef
 72
     1
331
B33
 73
     2
 91
        6
 40
0.0
 10
0.0
 20
0.0
 30
2.000000000000000E+50
 75
     0
  0
DIMASSOC
  5
2C74
102
{ACAD_REACTORS
330
2C73
102
}
330
2C73
100
AcDbDimAssoc
330
2C68
 90
        3
 70
     0
 71
     0
  1
AcDbOsnapPointRef
 72
     1
331
B32
 73
     0
 91
        0
 40
0.0
 10
0.0
 20
0.0
 30
2.000000000000000E+50
 75
     0
  1
AcDbOsnapPointRef
 72
     5
331
10BD
 73
     0
 91
        0
 40
0.0
 10
0.0
 20
0.0
 30
0.0
 75
     0
  0
DIMASSOC
  5
2CB9
102
{ACAD_REACTORS
330
2CB8
102
}
330
2CB8
100
AcDbDimAssoc
330
2CAB
 90
        3
 70
     0
 71
     0
  1
AcDbOsnapPointRef
 72
     1
331
B25
 73
     0
 91
        0
 40
0.0
 10
0.0
 20
0.0
 30
2.000000000000000E+50
 75
     0
  1
AcDbOsnapPointRef
 72
     1
331
B23
 73
     0
 91
        0
 40
0.0
 10
0.0
 20
0.0
 30
2.000000000000000E+50
 75
     0
  0
XRECORD
  5
2E28
102
{ACAD_REACTORS
330
2E27
102
}
330
2E27
100
AcDbXrecord
280
     1
102
SHADEPLOT
 70
     0
  0
LAYOUT
  5
22
102
{ACAD_XDICTIONARY
360
2E21
102
}
102
{ACAD_REACTORS
330
1A
102
}
330
1A
100
AcDbPlotSettings
  1

  2
RICOH IPSiO CX7200 RPCS
  4
A3
  6
AM_VIEW1
 40
5.873749732971191
 41
5.873747825622558
 42
5.873748779296875
 43
5.873748779296875
 44
296.9259948730469
 45
419.9466552734374
 46
2.589999999999999
 47
4.099999999999999
 48
10.0
 49
0.0
140
410.0
141
280.0
142
1.0
143
1.0
 70
 11956
 72
     1
 73
     1
 74
     4
  7
takachi-2.ctb
 75
    16
147
1.0
148
-10.0
149
0.0
100
AcDbLayout
  1
Model
 70
     1
 71
     0
 10
0.0
 20
0.0
 11
12.0
 21
9.0
 12
0.0
 22
0.0
 32
0.0
 14
0.0
 24
0.0
 34
0.0
 15
0.0
 25
0.0
 35
0.0
146
0.0
 13
0.0
 23
0.0
 33
0.0
 16
1.0
 26
0.0
 36
0.0
 17
0.0
 27
1.0
 37
0.0
 76
     0
330
1F
331
2D5D
  0
LAYOUT
  5
1E
102
{ACAD_XDICTIONARY
360
2E1F
102
}
102
{ACAD_REACTORS
330
1A
102
}
330
1A
100
AcDbPlotSettings
  1

  2
none_device
  4
Letter_(8.50_x_11.00_Inches)
  6

 40
6.349999904632568
 41
6.349999904632568
 42
6.350006103515625
 43
6.350006103515625
 44
215.8999938964844
 45
279.3999938964844
 46
0.0
 47
0.0
 48
0.0
 49
0.0
140
0.0
141
0.0
142
1.0
143
1.0
 70
   688
 72
     1
 73
     1
 74
     5
  7
takachi-2.ctb
 75
    16
147
1.0
148
0.0
149
0.0
100
AcDbLayout
  1
レイアウト1
 70
     1
 71
     1
 10
-6.350006103515625
 20
-6.349999904632568
 11
273.0499877929688
 21
209.5499939918518
 12
0.0
 22
0.0
 32
0.0
 14
1.000000000000000E+20
 24
1.000000000000000E+20
 34
1.000000000000000E+20
 15
-1.000000000000000E+20
 25
-1.000000000000000E+20
 35
-1.000000000000000E+20
146
0.0
 13
0.0
 23
0.0
 33
0.0
 16
1.0
 26
0.0
 36
0.0
 17
0.0
 27
1.0
 37
0.0
 76
     0
330
1B
331
178
  0
LAYOUT
  5
26
102
{ACAD_XDICTIONARY
360
2E23
102
}
102
{ACAD_REACTORS
330
1A
102
}
330
1A
100
AcDbPlotSettings
  1

  2
none_device
  4
Letter_(8.50_x_11.00_Inches)
  6

 40
6.349999904632568
 41
6.349999904632568
 42
6.350006103515625
 43
6.350006103515625
 44
215.8999938964844
 45
279.3999938964844
 46
0.0
 47
0.0
 48
0.0
 49
0.0
140
0.0
141
0.0
142
1.0
143
1.0
 70
   688
 72
     1
 73
     1
 74
     5
  7
takachi-2.ctb
 75
    16
147
1.0
148
0.0
149
0.0
100
AcDbLayout
  1
レイアウト2
 70
     1
 71
     2
 10
-6.350006103515625
 20
-6.349999904632568
 11
273.0499877929688
 21
209.5499939918518
 12
0.0
 22
0.0
 32
0.0
 14
1.000000000000000E+20
 24
1.000000000000000E+20
 34
1.000000000000000E+20
 15
-1.000000000000000E+20
 25
-1.000000000000000E+20
 35
-1.000000000000000E+20
146
0.0
 13
0.0
 23
0.0
 33
0.0
 16
1.0
 26
0.0
 36
0.0
 17
0.0
 27
1.0
 37
0.0
 76
     0
330
23
331
17C
  0
MATERIAL
  5
2D67
102
{ACAD_XDICTIONARY
360
2D68
102
}
102
{ACAD_REACTORS
330
BD
102
}
330
BD
100
AcDbMaterial
  1
ByBlock
 72
     0
 43
0.0008202099737533
 43
0.0
 43
0.0
 43
0.0
 43
0.0
 43
0.0008202099737533
 43
0.0
 43
0.0
 43
0.0
 43
0.0
 43
1.0
 43
0.0
 43
0.0
 43
0.0
 43
0.0
 43
1.0
 77
     0
 47
0.0008202099737533
 47
0.0
 47
0.0
 47
0.0
 47
0.0
 47
0.0008202099737533
 47
0.0
 47
0.0
 47
0.0
 47
0.0
 47
1.0
 47
0.0
 47
0.0
 47
0.0
 47
0.0
 47
1.0
171
     0
 49
0.0008202099737533
 49
0.0
 49
0.0
 49
0.0
 49
0.0
 49
0.0008202099737533
 49
0.0
 49
0.0
 49
0.0
 49
0.0
 49
1.0
 49
0.0
 49
0.0
 49
0.0
 49
0.0
 49
1.0
175
     0
142
0.0008202099737533
142
0.0
142
0.0
142
0.0
142
0.0
142
0.0008202099737533
142
0.0
142
0.0
142
0.0
142
0.0
142
1.0
142
0.0
142
0.0
142
0.0
142
0.0
142
1.0
179
     0
144
0.0008202099737533
144
0.0
144
0.0
144
0.0
144
0.0
144
0.0008202099737533
144
0.0
144
0.0
144
0.0
144
0.0
144
1.0
144
0.0
144
0.0
144
0.0
144
0.0
144
1.0
147
0.0008202099737533
147
0.0
147
0.0
147
0.0
147
0.0
147
0.0008202099737533
147
0.0
147
0.0
147
0.0
147
0.0
147
1.0
147
0.0
147
0.0
147
0.0
147
0.0
147
1.0
  0
MATERIAL
  5
2D5F
102
{ACAD_XDICTIONARY
360
2D60
102
}
102
{ACAD_REACTORS
330
BD
102
}
330
BD
100
AcDbMaterial
  1
ByLayer
 72
     0
 43
0.0008202099737533
 43
0.0
 43
0.0
 43
0.0
 43
0.0
 43
0.0008202099737533
 43
0.0
 43
0.0
 43
0.0
 43
0.0
 43
1.0
 43
0.0
 43
0.0
 43
0.0
 43
0.0
 43
1.0
 77
     0
 47
0.0008202099737533
 47
0.0
 47
0.0
 47
0.0
 47
0.0
 47
0.0008202099737533
 47
0.0
 47
0.0
 47
0.0
 47
0.0
 47
1.0
 47
0.0
 47
0.0
 47
0.0
 47
0.0
 47
1.0
171
     0
 49
0.0008202099737533
 49
0.0
 49
0.0
 49
0.0
 49
0.0
 49
0.0008202099737533
 49
0.0
 49
0.0
 49
0.0
 49
0.0
 49
1.0
 49
0.0
 49
0.0
 49
0.0
 49
0.0
 49
1.0
175
     0
142
0.0008202099737533
142
0.0
142
0.0
142
0.0
142
0.0
142
0.0008202099737533
142
0.0
142
0.0
142
0.0
142
0.0
142
1.0
142
0.0
142
0.0
142
0.0
142
0.0
142
1.0
179
     0
144
0.0008202099737533
144
0.0
144
0.0
144
0.0
144
0.0
144
0.0008202099737533
144
0.0
144
0.0
144
0.0
144
0.0
144
1.0
144
0.0
144
0.0
144
0.0
144
0.0
144
1.0
147
0.0008202099737533
147
0.0
147
0.0
147
0.0
147
0.0
147
0.0008202099737533
147
0.0
147
0.0
147
0.0
147
0.0
147
1.0
147
0.0
147
0.0
147
0.0
147
0.0
147
1.0
  0
MATERIAL
  5
2D6F
102
{ACAD_XDICTIONARY
360
2D70
102
}
102
{ACAD_REACTORS
330
BD
102
}
330
BD
100
AcDbMaterial
  1
Global
 72
     0
 43
0.0008202099737533
 43
0.0
 43
0.0
 43
0.0
 43
0.0
 43
0.0008202099737533
 43
0.0
 43
0.0
 43
0.0
 43
0.0
 43
1.0
 43
0.0
 43
0.0
 43
0.0
 43
0.0
 43
1.0
 77
     0
 47
0.0008202099737533
 47
0.0
 47
0.0
 47
0.0
 47
0.0
 47
0.0008202099737533
 47
0.0
 47
0.0
 47
0.0
 47
0.0
 47
1.0
 47
0.0
 47
0.0
 47
0.0
 47
0.0
 47
1.0
171
     0
 49
0.0008202099737533
 49
0.0
 49
0.0
 49
0.0
 49
0.0
 49
0.0008202099737533
 49
0.0
 49
0.0
 49
0.0
 49
0.0
 49
1.0
 49
0.0
 49
0.0
 49
0.0
 49
0.0
 49
1.0
175
     0
142
0.0008202099737533
142
0.0
142
0.0
142
0.0
142
0.0
142
0.0008202099737533
142
0.0
142
0.0
142
0.0
142
0.0
142
1.0
142
0.0
142
0.0
142
0.0
142
0.0
142
1.0
179
     0
144
0.0008202099737533
144
0.0
144
0.0
144
0.0
144
0.0
144
0.0008202099737533
144
0.0
144
0.0
144
0.0
144
0.0
144
1.0
144
0.0
144
0.0
144
0.0
144
0.0
144
1.0
147
0.0008202099737533
147
0.0
147
0.0
147
0.0
147
0.0
147
0.0008202099737533
147
0.0
147
0.0
147
0.0
147
0.0
147
1.0
147
0.0
147
0.0
147
0.0
147
0.0
147
1.0
  0
MLEADERSTYLE
  5
2D9B
102
{ACAD_REACTORS
330
2D9A
102
}
330
2D9A
100
AcDbMLeaderStyle
170
     2
171
     1
172
     0
 90
        2
 40
0.0
 41
0.0
173
     1
 91
-1056964608
340
14
 92
       -2
290
     1
 42
2.0
291
     1
 43
0.36
  3
Standard
 44
4.0
300

342
11
174
     1
178
     6
175
     1
176
     0
 93
-1056964608
 45
4.0
292
     0
297
     0
 46
4.0
 94
-1056964608
 47
1.0
 49
1.0
140
1.0
293
     1
141
0.0
294
     1
177
     0
142
1.0
295
     0
296
     0
143
0.125
1001
ACAD_MLEADERVER
1070
     2
  0
MLINESTYLE
  5
18
102
{ACAD_REACTORS
330
17
102
}
330
17
100
AcDbMlineStyle
  2
STANDARD
 70
     0
  3

 62
   256
 51
90.0
 52
90.0
 71
     2
 49
0.5
 62
   256
  6
BYLAYER
 49
-0.5
 62
   256
  6
BYLAYER
  0
ACDBPLACEHOLDER
  5
F
102
{ACAD_REACTORS
330
E
102
}
330
E
  0
SCALE
  5
2D89
102
{ACAD_REACTORS
330
2D88
102
}
330
2D88
100
AcDbScale
 70
     0
300
1:1
140
1.0
141
1.0
290
     1
  0
SCALE
  5
2D8A
102
{ACAD_REACTORS
330
2D88
102
}
330
2D88
100
AcDbScale
 70
     0
300
1:2
140
1.0
141
2.0
290
     0
  0
SCALE
  5
2D8B
102
{ACAD_REACTORS
330
2D88
102
}
330
2D88
100
AcDbScale
 70
     0
300
1:4
140
1.0
141
4.0
290
     0
  0
SCALE
  5
2D8C
102
{ACAD_REACTORS
330
2D88
102
}
330
2D88
100
AcDbScale
 70
     0
300
1:5
140
1.0
141
5.0
290
     0
  0
SCALE
  5
2D8D
102
{ACAD_REACTORS
330
2D88
102
}
330
2D88
100
AcDbScale
 70
     0
300
1:8
140
1.0
141
8.0
290
     0
  0
SCALE
  5
2D8E
102
{ACAD_REACTORS
330
2D88
102
}
330
2D88
100
AcDbScale
 70
     0
300
1:10
140
1.0
141
10.0
290
     0
  0
SCALE
  5
2D8F
102
{ACAD_REACTORS
330
2D88
102
}
330
2D88
100
AcDbScale
 70
     0
300
1:16
140
1.0
141
16.0
290
     0
  0
SCALE
  5
2D90
102
{ACAD_REACTORS
330
2D88
102
}
330
2D88
100
AcDbScale
 70
     0
300
1:20
140
1.0
141
20.0
290
     0
  0
SCALE
  5
2D91
102
{ACAD_REACTORS
330
2D88
102
}
330
2D88
100
AcDbScale
 70
     0
300
1:30
140
1.0
141
30.0
290
     0
  0
SCALE
  5
2D92
102
{ACAD_REACTORS
330
2D88
102
}
330
2D88
100
AcDbScale
 70
     0
300
1:40
140
1.0
141
40.0
290
     0
  0
SCALE
  5
2D93
102
{ACAD_REACTORS
330
2D88
102
}
330
2D88
100
AcDbScale
 70
     0
300
1:50
140
1.0
141
50.0
290
     0
  0
SCALE
  5
2D94
102
{ACAD_REACTORS
330
2D88
102
}
330
2D88
100
AcDbScale
 70
     0
300
1:100
140
1.0
141
100.0
290
     0
  0
SCALE
  5
2D95
102
{ACAD_REACTORS
330
2D88
102
}
330
2D88
100
AcDbScale
 70
     0
300
2:1
140
2.0
141
1.0
290
     0
  0
SCALE
  5
2D96
102
{ACAD_REACTORS
330
2D88
102
}
330
2D88
100
AcDbScale
 70
     0
300
4:1
140
4.0
141
1.0
290
     0
  0
SCALE
  5
2D97
102
{ACAD_REACTORS
330
2D88
102
}
330
2D88
100
AcDbScale
 70
     0
300
8:1
140
8.0
141
1.0
290
     0
  0
SCALE
  5
2D98
102
{ACAD_REACTORS
330
2D88
102
}
330
2D88
100
AcDbScale
 70
     0
300
10:1
140
10.0
141
1.0
290
     0
  0
SCALE
  5
2D99
102
{ACAD_REACTORS
330
2D88
102
}
330
2D88
100
AcDbScale
 70
     0
300
100:1
140
100.0
141
1.0
290
     0
  0
TABLESTYLE
  5
69F
102
{ACAD_XDICTIONARY
360
2E1B
102
}
102
{ACAD_REACTORS
330
69E
102
}
330
69E
100
AcDbTableStyle
  3
Standard
 70
     0
 71
     0
 40
1.5
 41
1.5
280
     0
281
     0
  7
STANDARD
140
4.5
170
     2
 62
     0
 63
     7
283
     0
274
    -2
284
     1
 64
     0
275
    -2
285
     1
 65
     0
276
    -2
286
     1
 66
     0
277
    -2
287
     1
 67
     0
278
    -2
288
     1
 68
     0
279
    -2
289
     1
 69
     0
  7
STANDARD
140
6.0
170
     5
 62
     0
 63
     7
283
     0
274
    -2
284
     1
 64
     0
275
    -2
285
     1
 65
     0
276
    -2
286
     1
 66
     0
277
    -2
287
     1
 67
     0
278
    -2
288
     1
 68
     0
279
    -2
289
     1
 69
     0
  7
STANDARD
140
4.5
170
     5
 62
     0
 63
     7
283
     0
274
    -2
284
     1
 64
     0
275
    -2
285
     1
 65
     0
276
    -2
286
     1
 66
     0
277
    -2
287
     1
 67
     0
278
    -2
288
     1
 68
     0
279
    -2
289
     1
 69
     0
  0
VISUALSTYLE
  5
2D7D
102
{ACAD_REACTORS
330
2D77
102
}
330
2D77
100
AcDbVisualStyle
  2
2dWireframe
 70
     4
 71
     0
 72
     2
 73
     0
 90
        0
 40
-0.6
 41
-30.0
 62
     5
 63
     7
 74
     1
 91
        4
 64
     7
 65
   257
 75
     1
175
     1
 42
1.0
 92
        0
 66
   257
 43
1.0
 76
     1
 77
     6
 78
     2
 67
     7
 79
     5
170
     0
171
     0
290
     0
174
     0
 93
        1
 44
0.0
173
     0
291
     0
 45
0.0
1001
ACAD
1000
AcDbSavedByObjectVersion
1070
     0
  0
VISUALSTYLE
  5
2D7F
102
{ACAD_REACTORS
330
2D77
102
}
330
2D77
100
AcDbVisualStyle
  2
3D Hidden
 70
     6
 71
     1
 72
     2
 73
     2
 90
        0
 40
-0.6
 41
-30.0
 62
     5
 63
     7
 74
     2
 91
        2
 64
     7
 65
   257
 75
     2
175
     1
 42
40.0
 92
        0
 66
   257
 43
1.0
 76
     1
 77
     6
 78
     2
 67
     7
 79
     3
170
     0
171
     0
290
     0
174
     0
 93
        1
 44
0.0
173
     0
291
     0
 45
0.0
1001
ACAD
1000
AcDbSavedByObjectVersion
1070
     0
  0
VISUALSTYLE
  5
2D7E
102
{ACAD_REACTORS
330
2D77
102
}
330
2D77
100
AcDbVisualStyle
  2
3dWireframe
 70
     5
 71
     0
 72
     2
 73
     0
 90
        0
 40
-0.6
 41
-30.0
 62
     5
 63
     7
 74
     1
 91
        4
 64
     7
 65
   257
 75
     1
175
     1
 42
1.0
 92
        0
 66
   257
 43
1.0
 76
     1
 77
     6
 78
     2
 67
     7
 79
     5
170
     0
171
     0
290
     0
174
     0
 93
        1
 44
0.0
173
     0
291
     0
 45
0.0
1001
ACAD
1000
AcDbSavedByObjectVersion
1070
     0
  0
VISUALSTYLE
  5
2D7C
102
{ACAD_REACTORS
330
2D77
102
}
330
2D77
100
AcDbVisualStyle
  2
Basic
 70
     7
 71
     1
 72
     0
 73
     1
 90
        0
 40
-0.6
 41
-30.0
 62
     5
 63
     7
 74
     0
 91
        4
 64
     7
 65
   257
 75
     1
175
     1
 42
1.0
 92
        8
 66
     7
 43
1.0
 76
     1
 77
     6
 78
     2
 67
     7
 79
     5
170
     0
171
     0
290
     0
174
     0
 93
        1
 44
0.0
173
     0
291
     1
 45
0.0
1001
ACAD
1000
AcDbSavedByObjectVersion
1070
     0
  0
VISUALSTYLE
  5
2D83
102
{ACAD_REACTORS
330
2D77
102
}
330
2D77
100
AcDbVisualStyle
  2
Brighten
 70
    12
 71
     2
 72
     2
 73
     0
 90
        0
 40
-0.6
 41
-30.0
 62
     5
 63
     7
 74
     1
 91
        4
 64
     7
 65
   257
 75
     1
175
     1
 42
1.0
 92
        8
 66
     7
 43
1.0
 76
     1
 77
     6
 78
     2
 67
     7
 79
     5
170
     0
171
     0
290
     0
174
     0
 93
        1
 44
50.0
173
     0
291
     1
 45
0.0
1001
ACAD
1000
AcDbSavedByObjectVersion
1070
     0
  0
VISUALSTYLE
  5
2D87
102
{ACAD_REACTORS
330
2D77
102
}
330
2D77
100
AcDbVisualStyle
  2
ColorChange
 70
    16
 71
     2
 72
     2
 73
     3
 90
        0
 40
-0.6
 41
-30.0
 62
     5
 63
     8
 74
     1
 91
        4
 64
     7
 65
   257
 75
     1
175
     1
 42
1.0
 92
        8
 66
     8
 43
1.0
 76
     1
 77
     6
 78
     2
 67
     7
 79
     5
170
     0
171
     0
290
     0
174
     0
 93
        1
 44
0.0
173
     0
291
     1
 45
0.0
1001
ACAD
1000
AcDbSavedByObjectVersion
1070
     0
  0
VISUALSTYLE
  5
2D80
102
{ACAD_REACTORS
330
2D77
102
}
330
2D77
100
AcDbVisualStyle
  2
Conceptual
 70
     9
 71
     3
 72
     2
 73
     0
 90
        0
 40
-0.6
 41
-30.0
 62
     5
 63
     7
 74
     2
 91
        2
 64
     7
 65
   257
 75
     1
175
     1
 42
40.0
 92
        8
 66
     7
 43
1.0
 76
     1
 77
     6
 78
     2
 67
     7
 79
     3
170
     0
171
     0
290
     0
174
     0
 93
        1
 44
0.0
173
     0
291
     0
 45
0.0
1001
ACAD
1000
AcDbSavedByObjectVersion
1070
     0
  0
VISUALSTYLE
  5
2D82
102
{ACAD_REACTORS
330
2D77
102
}
330
2D77
100
AcDbVisualStyle
  2
Dim
 70
    11
 71
     2
 72
     2
 73
     0
 90
        0
 40
-0.6
 41
-30.0
 62
     5
 63
     7
 74
     1
 91
        4
 64
     7
 65
   257
 75
     1
175
     1
 42
1.0
 92
        8
 66
     7
 43
1.0
 76
     1
 77
     6
 78
     2
 67
     7
 79
     5
170
     0
171
     0
290
     0
174
     0
 93
        1
 44
-50.0
173
     0
291
     1
 45
0.0
1001
ACAD
1000
AcDbSavedByObjectVersion
1070
     0
  0
VISUALSTYLE
  5
2D86
102
{ACAD_REACTORS
330
2D77
102
}
330
2D77
100
AcDbVisualStyle
  2
Facepattern
 70
    15
 71
     2
 72
     2
 73
     0
 90
        0
 40
-0.6
 41
-30.0
 62
     5
 63
     7
 74
     1
 91
        4
 64
     7
 65
   257
 75
     1
175
     1
 42
1.0
 92
        8
 66
     7
 43
1.0
 76
     1
 77
     6
 78
     2
 67
     7
 79
     5
170
     0
171
     0
290
     0
174
     0
 93
        1
 44
0.0
173
     0
291
     1
 45
0.0
1001
ACAD
1000
AcDbSavedByObjectVersion
1070
     0
  0
VISUALSTYLE
  5
2D78
102
{ACAD_REACTORS
330
2D77
102
}
330
2D77
100
AcDbVisualStyle
  2
Flat
 70
     0
 71
     2
 72
     1
 73
     1
 90
        2
 40
-0.6
 41
30.0
 62
     5
 63
     7
 74
     0
 91
        4
 64
     7
 65
   257
 75
     1
175
     1
 42
1.0
 92
        8
 66
     7
 43
1.0
 76
     1
 77
     6
 78
     2
 67
     7
 79
     5
170
     0
171
     0
290
     0
174
     0
 93
       13
 44
0.0
173
     0
291
     1
 45
0.0
1001
ACAD
1000
AcDbSavedByObjectVersion
1070
     0
  0
VISUALSTYLE
  5
2D79
102
{ACAD_REACTORS
330
2D77
102
}
330
2D77
100
AcDbVisualStyle
  2
FlatWithEdges
 70
     1
 71
     2
 72
     1
 73
     1
 90
        2
 40
-0.6
 41
30.0
 62
     5
 63
     7
 74
     1
 91
        4
 64
     7
 65
   257
 75
     1
175
     1
 42
1.0
 92
        0
 66
   257
 43
1.0
 76
     1
 77
     6
 78
     2
 67
     7
 79
     5
170
     0
171
     0
290
     0
174
     0
 93
       13
 44
0.0
173
     0
291
     1
 45
0.0
1001
ACAD
1000
AcDbSavedByObjectVersion
1070
     0
  0
VISUALSTYLE
  5
2D7A
102
{ACAD_REACTORS
330
2D77
102
}
330
2D77
100
AcDbVisualStyle
  2
Gouraud
 70
     2
 71
     2
 72
     2
 73
     1
 90
        2
 40
-0.6
 41
30.0
 62
     5
 63
     7
 74
     0
 91
        4
 64
     7
 65
   257
 75
     1
175
     1
 42
1.0
 92
        0
 66
     7
 43
1.0
 76
     1
 77
     6
 78
     2
 67
     7
 79
     5
170
     0
171
     0
290
     0
174
     0
 93
       13
 44
0.0
173
     0
291
     1
 45
0.0
1001
ACAD
1000
AcDbSavedByObjectVersion
1070
     0
  0
VISUALSTYLE
  5
2D7B
102
{ACAD_REACTORS
330
2D77
102
}
330
2D77
100
AcDbVisualStyle
  2
GouraudWithEdges
 70
     3
 71
     2
 72
     2
 73
     1
 90
        2
 40
-0.6
 41
30.0
 62
     5
 63
     7
 74
     1
 91
        4
 64
     7
 65
   257
 75
     1
175
     1
 42
1.0
 92
        0
 66
   257
 43
1.0
 76
     1
 77
     6
 78
     2
 67
     7
 79
     5
170
     0
171
     0
290
     0
174
     0
 93
       13
 44
0.0
173
     0
291
     1
 45
0.0
1001
ACAD
1000
AcDbSavedByObjectVersion
1070
     0
  0
VISUALSTYLE
  5
2D85
102
{ACAD_REACTORS
330
2D77
102
}
330
2D77
100
AcDbVisualStyle
  2
Linepattern
 70
    14
 71
     2
 72
     2
 73
     0
 90
        0
 40
-0.6
 41
-30.0
 62
     5
 63
     7
 74
     1
 91
        4
 64
     7
 65
   257
 75
     7
175
     7
 42
1.0
 92
        8
 66
     7
 43
1.0
 76
     1
 77
     6
 78
     2
 67
     7
 79
     5
170
     0
171
     0
290
     0
174
     0
 93
        1
 44
0.0
173
     0
291
     1
 45
0.0
1001
ACAD
1000
AcDbSavedByObjectVersion
1070
     0
  0
VISUALSTYLE
  5
2D81
102
{ACAD_REACTORS
330
2D77
102
}
330
2D77
100
AcDbVisualStyle
  2
Realistic
 70
     8
 71
     2
 72
     2
 73
     0
 90
        0
 40
-0.6
 41
-30.0
 62
     5
 63
     7
 74
     1
 91
        0
 64
     7
 65
   257
 75
     1
175
     1
 42
1.0
 92
        8
 66
     8
 43
1.0
 76
     1
 77
     6
 78
     2
 67
     7
 79
     5
170
     0
171
     0
290
     0
174
     0
 93
       13
 44
0.0
173
     0
291
     0
 45
0.0
1001
ACAD
1000
AcDbSavedByObjectVersion
1070
     0
  0
VISUALSTYLE
  5
2D84
102
{ACAD_REACTORS
330
2D77
102
}
330
2D77
100
AcDbVisualStyle
  2
Thicken
 70
    13
 71
     2
 72
     2
 73
     0
 90
        0
 40
-0.6
 41
-30.0
 62
     5
 63
     7
 74
     1
 91
        4
 64
     7
 65
   257
 75
     1
175
     1
 42
1.0
 92
       12
 66
     7
 43
1.0
 76
     1
 77
     6
 78
     2
 67
     7
 79
     5
170
     0
171
     0
290
     0
174
     0
 93
        1
 44
0.0
173
     0
291
     1
 45
0.0
1001
ACAD
1000
AcDbSavedByObjectVersion
1070
     0
  0
DICTIONARYVAR
  5
2E19
102
{ACAD_REACTORS
330
94
102
}
330
94
100
DictionaryVariables
280
     0
  1
1:1
  0
DICTIONARYVAR
  5
2E18
102
{ACAD_REACTORS
330
94
102
}
330
94
100
DictionaryVariables
280
     0
  1
STANDARD
  0
DICTIONARYVAR
  5
754
102
{ACAD_REACTORS
330
94
102
}
330
94
100
DictionaryVariables
280
     0
  1
STANDARD
  0
DICTIONARYVAR
  5
96
102
{ACAD_REACTORS
330
94
102
}
330
94
100
DictionaryVariables
280
     0
  1
2
  0
DICTIONARYVAR
  5
95
102
{ACAD_REACTORS
330
94
102
}
330
94
100
DictionaryVariables
280
     0
  1
0
  0
DICTIONARYVAR
  5
2E1A
102
{ACAD_REACTORS
330
94
102
}
330
94
100
DictionaryVariables
280
     0
  1
127
  0
DICTIONARY
  5
61
102
{ACAD_REACTORS
330
5B
102
}
330
5B
100
AcDbDictionary
281
     1
  0
XRECORD
  5
6AB
102
{ACAD_REACTORS
330
5B
102
}
330
5B
100
AcDbXrecord
280
     1
 90
-1023410169
  0
XRECORD
  5
35F
102
{ACAD_REACTORS
330
35E
102
}
330
35E
100
AcDbXrecord
280
     1
 91
       16
330
1E1
 90
        0
 62
     7
370
    -3
331
16
  1
色_7
330
10
 90
        8
 62
     7
370
    -3
331
16
  1
色_7
  0
DICTIONARY
  5
2E21
330
22
100
AcDbDictionary
280
     1
281
     1
  3
ACAD_XREC_ROUNDTRIP
360
2E22
  0
DICTIONARY
  5
2E1F
330
1E
100
AcDbDictionary
280
     1
281
     1
  3
ACAD_XREC_ROUNDTRIP
360
2E20
  0
DICTIONARY
  5
2E23
330
26
100
AcDbDictionary
280
     1
281
     1
  3
ACAD_XREC_ROUNDTRIP
360
2E24
  0
DICTIONARY
  5
2D68
330
2D67
100
AcDbDictionary
280
     1
281
     1
  3
ACAD_XREC_ROUNDTRIP
360
2E2D
  3
BUMPTILE
360
2D6A
  3
DIFFUSETILE
360
2D69
  3
OPACITYTILE
360
2D6D
  3
REFLECTIONTILE
360
2D6C
  3
REFRACTIONTILE
360
2D6E
  3
SPECULARTILE
360
2D6B
  0
DICTIONARY
  5
2D60
330
2D5F
100
AcDbDictionary
280
     1
281
     1
  3
ACAD_XREC_ROUNDTRIP
360
2E2C
  3
BUMPTILE
360
2D62
  3
DIFFUSETILE
360
2D61
  3
OPACITYTILE
360
2D65
  3
REFLECTIONTILE
360
2D64
  3
REFRACTIONTILE
360
2D66
  3
SPECULARTILE
360
2D63
  0
DICTIONARY
  5
2D70
330
2D6F
100
AcDbDictionary
280
     1
281
     1
  3
ACAD_XREC_ROUNDTRIP
360
2E2E
  3
BUMPTILE
360
2D72
  3
DIFFUSETILE
360
2D71
  3
OPACITYTILE
360
2D75
  3
REFLECTIONTILE
360
2D74
  3
REFRACTIONTILE
360
2D76
  3
SPECULARTILE
360
2D73
  0
DICTIONARY
  5
2E1B
330
69F
100
AcDbDictionary
280
     1
281
     1
  3
ACAD_ROUNDTRIP_2008_TABLESTYLE_CELLSTYLEMAP
360
2E1C
  3
ACAD_XREC_ROUNDTRIP
360
2E29
  0
XRECORD
  5
2E22
102
{ACAD_REACTORS
330
2E21
102
}
330
2E21
100
AcDbXrecord
280
     1
102
SHADEPLOT
 70
     0
102
SHADEPLOTRESLEVEL
 70
     2
102
SHADEPLOTCUSTOMDPI
 70
   300
  0
XRECORD
  5
2E20
102
{ACAD_REACTORS
330
2E1F
102
}
330
2E1F
100
AcDbXrecord
280
     1
102
SHADEPLOT
 70
     1
102
SHADEPLOTRESLEVEL
 70
     2
102
SHADEPLOTCUSTOMDPI
 70
   300
  0
XRECORD
  5
2E24
102
{ACAD_REACTORS
330
2E23
102
}
330
2E23
100
AcDbXrecord
280
     1
102
SHADEPLOT
 70
     1
102
SHADEPLOTRESLEVEL
 70
     2
102
SHADEPLOTCUSTOMDPI
 70
   300
  0
XRECORD
  5
2E2D
102
{ACAD_REACTORS
330
2D68
102
}
330
2D68
100
AcDbXrecord
280
     1
102
MATERIAL
148
0.0
149
0.0
149
0.0
 93
        0
 94
      127
282
     0
 72
     0
 77
     0
171
     0
175
     0
179
     0
273
     0
  0
XRECORD
  5
2D6A
102
{ACAD_REACTORS
330
2D68
102
}
330
2D68
100
AcDbXrecord
280
     1
270
     1
271
     1
  0
XRECORD
  5
2D69
102
{ACAD_REACTORS
330
2D68
102
}
330
2D68
100
AcDbXrecord
280
     1
270
     1
271
     1
  0
XRECORD
  5
2D6D
102
{ACAD_REACTORS
330
2D68
102
}
330
2D68
100
AcDbXrecord
280
     1
270
     1
271
     1
  0
XRECORD
  5
2D6C
102
{ACAD_REACTORS
330
2D68
102
}
330
2D68
100
AcDbXrecord
280
     1
270
     1
271
     1
  0
XRECORD
  5
2D6E
102
{ACAD_REACTORS
330
2D68
102
}
330
2D68
100
AcDbXrecord
280
     1
270
     1
271
     1
  0
XRECORD
  5
2D6B
102
{ACAD_REACTORS
330
2D68
102
}
330
2D68
100
AcDbXrecord
280
     1
270
     1
271
     1
  0
XRECORD
  5
2E2C
102
{ACAD_REACTORS
330
2D60
102
}
330
2D60
100
AcDbXrecord
280
     1
102
MATERIAL
148
0.0
149
0.0
149
0.0
 93
        0
 94
      127
282
     0
 72
     0
 77
     0
171
     0
175
     0
179
     0
273
     0
  0
XRECORD
  5
2D62
102
{ACAD_REACTORS
330
2D60
102
}
330
2D60
100
AcDbXrecord
280
     1
270
     1
271
     1
  0
XRECORD
  5
2D61
102
{ACAD_REACTORS
330
2D60
102
}
330
2D60
100
AcDbXrecord
280
     1
270
     1
271
     1
  0
XRECORD
  5
2D65
102
{ACAD_REACTORS
330
2D60
102
}
330
2D60
100
AcDbXrecord
280
     1
270
     1
271
     1
  0
XRECORD
  5
2D64
102
{ACAD_REACTORS
330
2D60
102
}
330
2D60
100
AcDbXrecord
280
     1
270
     1
271
     1
  0
XRECORD
  5
2D66
102
{ACAD_REACTORS
330
2D60
102
}
330
2D60
100
AcDbXrecord
280
     1
270
     1
271
     1
  0
XRECORD
  5
2D63
102
{ACAD_REACTORS
330
2D60
102
}
330
2D60
100
AcDbXrecord
280
     1
270
     1
271
     1
  0
XRECORD
  5
2E2E
102
{ACAD_REACTORS
330
2D70
102
}
330
2D70
100
AcDbXrecord
280
     1
102
MATERIAL
148
0.0
149
0.0
149
0.0
 93
        0
 94
      127
282
     0
 72
     0
 77
     0
171
     0
175
     0
179
     0
273
     0
  0
XRECORD
  5
2D72
102
{ACAD_REACTORS
330
2D70
102
}
330
2D70
100
AcDbXrecord
280
     1
270
     1
271
     1
  0
XRECORD
  5
2D71
102
{ACAD_REACTORS
330
2D70
102
}
330
2D70
100
AcDbXrecord
280
     1
270
     1
271
     1
  0
XRECORD
  5
2D75
102
{ACAD_REACTORS
330
2D70
102
}
330
2D70
100
AcDbXrecord
280
     1
270
     1
271
     1
  0
XRECORD
  5
2D74
102
{ACAD_REACTORS
330
2D70
102
}
330
2D70
100
AcDbXrecord
280
     1
270
     1
271
     1
  0
XRECORD
  5
2D76
102
{ACAD_REACTORS
330
2D70
102
}
330
2D70
100
AcDbXrecord
280
     1
270
     1
271
     1
  0
XRECORD
  5
2D73
102
{ACAD_REACTORS
330
2D70
102
}
330
2D70
100
AcDbXrecord
280
     1
270
     1
271
     1
  0
CELLSTYLEMAP
  5
2E1C
102
{ACAD_REACTORS
330
2E1B
102
}
330
2E1B
100
AcDbCellStyleMap
 90
        3
300
CELLSTYLE
  1
TABLEFORMAT_BEGIN
 90
        5
170
     1
 91
        0
 92
    32768
 62
   257
 93
        1
300
CONTENTFORMAT
  1
CONTENTFORMAT_BEGIN
 90
        0
 91
        0
 92
        4
 93
        0
300

 40
0.0
140
1.0
 94
        5
 62
     0
340
11
144
6.0
309
CONTENTFORMAT_END
171
     1
301
MARGIN
  1
CELLMARGIN_BEGIN
 40
1.5
 40
1.5
 40
1.5
 40
1.5
 40
0.18
 40
0.18
309
CELLMARGIN_END
 94
        6
 95
        1
302
GRIDFORMAT
  1
GRIDFORMAT_BEGIN
 90
        0
 91
        1
 62
     0
 92
       -2
340
0
 93
        0
 40
0.045
309
GRIDFORMAT_END
 95
        2
302
GRIDFORMAT
  1
GRIDFORMAT_BEGIN
 90
        0
 91
        1
 62
     0
 92
       -2
340
0
 93
        0
 40
0.045
309
GRIDFORMAT_END
 95
        4
302
GRIDFORMAT
  1
GRIDFORMAT_BEGIN
 90
        0
 91
        1
 62
     0
 92
       -2
340
0
 93
        0
 40
0.045
309
GRIDFORMAT_END
 95
        8
302
GRIDFORMAT
  1
GRIDFORMAT_BEGIN
 90
        0
 91
        1
 62
     0
 92
       -2
340
0
 93
        0
 40
0.045
309
GRIDFORMAT_END
 95
       16
302
GRIDFORMAT
  1
GRIDFORMAT_BEGIN
 90
        0
 91
        1
 62
     0
 92
       -2
340
0
 93
        0
 40
0.045
309
GRIDFORMAT_END
 95
       32
302
GRIDFORMAT
  1
GRIDFORMAT_BEGIN
 90
        0
 91
        1
 62
     0
 92
       -2
340
0
 93
        0
 40
0.045
309
GRIDFORMAT_END
309
TABLEFORMAT_END
  1
CELLSTYLE_BEGIN
 90
        1
 91
        1
300
_TITLE
309
CELLSTYLE_END
300
CELLSTYLE
  1
TABLEFORMAT_BEGIN
 90
        5
170
     1
 91
        0
 92
        0
 62
   257
 93
        1
300
CONTENTFORMAT
  1
CONTENTFORMAT_BEGIN
 90
        0
 91
        0
 92
        4
 93
        0
300

 40
0.0
140
1.0
 94
        5
 62
     0
340
11
144
4.5
309
CONTENTFORMAT_END
171
     1
301
MARGIN
  1
CELLMARGIN_BEGIN
 40
1.5
 40
1.5
 40
1.5
 40
1.5
 40
0.18
 40
0.18
309
CELLMARGIN_END
 94
        6
 95
        1
302
GRIDFORMAT
  1
GRIDFORMAT_BEGIN
 90
        0
 91
        1
 62
     0
 92
       -2
340
0
 93
        0
 40
0.045
309
GRIDFORMAT_END
 95
        2
302
GRIDFORMAT
  1
GRIDFORMAT_BEGIN
 90
        0
 91
        1
 62
     0
 92
       -2
340
0
 93
        0
 40
0.045
309
GRIDFORMAT_END
 95
        4
302
GRIDFORMAT
  1
GRIDFORMAT_BEGIN
 90
        0
 91
        1
 62
     0
 92
       -2
340
0
 93
        0
 40
0.045
309
GRIDFORMAT_END
 95
        8
302
GRIDFORMAT
  1
GRIDFORMAT_BEGIN
 90
        0
 91
        1
 62
     0
 92
       -2
340
0
 93
        0
 40
0.045
309
GRIDFORMAT_END
 95
       16
302
GRIDFORMAT
  1
GRIDFORMAT_BEGIN
 90
        0
 91
        1
 62
     0
 92
       -2
340
0
 93
        0
 40
0.045
309
GRIDFORMAT_END
 95
       32
302
GRIDFORMAT
  1
GRIDFORMAT_BEGIN
 90
        0
 91
        1
 62
     0
 92
       -2
340
0
 93
        0
 40
0.045
309
GRIDFORMAT_END
309
TABLEFORMAT_END
  1
CELLSTYLE_BEGIN
 90
        2
 91
        1
300
_HEADER
309
CELLSTYLE_END
300
CELLSTYLE
  1
TABLEFORMAT_BEGIN
 90
        5
170
     1
 91
        0
 92
        0
 62
   257
 93
        1
300
CONTENTFORMAT
  1
CONTENTFORMAT_BEGIN
 90
        0
 91
        0
 92
        4
 93
        0
300

 40
0.0
140
1.0
 94
        2
 62
     0
340
11
144
4.5
309
CONTENTFORMAT_END
171
     1
301
MARGIN
  1
CELLMARGIN_BEGIN
 40
1.5
 40
1.5
 40
1.5
 40
1.5
 40
0.18
 40
0.18
309
CELLMARGIN_END
 94
        6
 95
        1
302
GRIDFORMAT
  1
GRIDFORMAT_BEGIN
 90
        0
 91
        1
 62
     0
 92
       -2
340
0
 93
        0
 40
0.045
309
GRIDFORMAT_END
 95
        2
302
GRIDFORMAT
  1
GRIDFORMAT_BEGIN
 90
        0
 91
        1
 62
     0
 92
       -2
340
0
 93
        0
 40
0.045
309
GRIDFORMAT_END
 95
        4
302
GRIDFORMAT
  1
GRIDFORMAT_BEGIN
 90
        0
 91
        1
 62
     0
 92
       -2
340
0
 93
        0
 40
0.045
309
GRIDFORMAT_END
 95
        8
302
GRIDFORMAT
  1
GRIDFORMAT_BEGIN
 90
        0
 91
        1
 62
     0
 92
       -2
340
0
 93
        0
 40
0.045
309
GRIDFORMAT_END
 95
       16
302
GRIDFORMAT
  1
GRIDFORMAT_BEGIN
 90
        0
 91
        1
 62
     0
 92
       -2
340
0
 93
        0
 40
0.045
309
GRIDFORMAT_END
 95
       32
302
GRIDFORMAT
  1
GRIDFORMAT_BEGIN
 90
        0
 91
        1
 62
     0
 92
       -2
340
0
 93
        0
 40
0.045
309
GRIDFORMAT_END
309
TABLEFORMAT_END
  1
CELLSTYLE_BEGIN
 90
        3
 91
        2
300
_DATA
309
CELLSTYLE_END
  0
XRECORD
  5
2E29
102
{ACAD_REACTORS
330
2E1B
102
}
330
2E1B
100
AcDbXrecord
280
     1
102
ACAD_ROUNDTRIP_PRE2007_TABLESTYLE
 90
        4
 91
        0
  1

 92
        4
 93
        0
  2

 94
        4
 95
        0
  3

  0
ENDSEC
  0
EOF
