  0
SECTION
  2
HEADER
  9
$ACADVER
  1
AC1015
  9
$ACADMAINTVER
 70
    20
  9
$DWGCODEPAGE
  3
ANSI_932
  9
$INSBASE
 10
0.0
 20
0.0
 30
0.0
  9
$EXTMIN
 10
-0.0122899510886327
 20
-0.008538923833612
 30
-0.0000000000112498
  9
$EXTMAX
 10
806.0123012114663
 20
560.0085467474205
 30
0.0000000000002956
  9
$LIMMIN
 10
0.0
 20
0.0
  9
$LIMMAX
 10
806.0
 20
560.0000000000001
  9
$ORTHOMODE
 70
     0
  9
$REGENMODE
 70
     1
  9
$FILLMODE
 70
     1
  9
$QTEXTMODE
 70
     0
  9
$MIRRTEXT
 70
     1
  9
$LTSCALE
 40
2.0
  9
$ATTMODE
 70
     1
  9
$TEXTSIZE
 40
73.98571745357912
  9
$TRACEWID
 40
1.0
  9
$TEXTSTYLE
  7
STANDARD
  9
$CLAYER
  8
0
  9
$CELTYPE
  6
ByLayer
  9
$CECOLOR
 62
   256
  9
$CELTSCALE
 40
1.0
  9
$DISPSILH
 70
     0
  9
$DIMSCALE
 40
2.0
  9
$DIMASZ
 40
2.5
  9
$DIMEXO
 40
1.0
  9
$DIMDLI
 40
10.0
  9
$DIMRND
 40
0.0
  9
$DIMDLE
 40
0.0
  9
$DIMEXE
 40
1.0
  9
$DIMTP
 40
0.1
  9
$DIMTM
 40
0.1
  9
$DIMTXT
 40
3.5
  9
$DIMCEN
 40
0.0
  9
$DIMTSZ
 40
0.0
  9
$DIMTOL
 70
     0
  9
$DIMLIM
 70
     0
  9
$DIMTIH
 70
     0
  9
$DIMTOH
 70
     0
  9
$DIMSE1
 70
     0
  9
$DIMSE2
 70
     0
  9
$DIMTAD
 70
     1
  9
$DIMZIN
 70
     8
  9
$DIMBLK
  1
Open30
  9
$DIMASO
 70
     1
  9
$DIMSHO
 70
     1
  9
$DIMPOST
  1

  9
$DIMAPOST
  1
"
  9
$DIMALT
 70
     0
  9
$DIMALTD
 70
     2
  9
$DIMALTF
 40
0.0393701
  9
$DIMLFAC
 40
1.0
  9
$DIMTOFL
 70
     1
  9
$DIMTVP
 40
0.0
  9
$DIMTIX
 70
     0
  9
$DIMSOXD
 70
     0
  9
$DIMSAH
 70
     0
  9
$DIMBLK1
  1

  9
$DIMBLK2
  1

  9
$DIMSTYLE
  2
AM_ISO
  9
$DIMCLRD
 70
   256
  9
$DIMCLRE
 70
   256
  9
$DIMCLRT
 70
     2
  9
$DIMTFAC
 40
0.71
  9
$DIMGAP
 40
1.5
  9
$DIMJUST
 70
     0
  9
$DIMSD1
 70
     0
  9
$DIMSD2
 70
     0
  9
$DIMTOLJ
 70
     0
  9
$DIMTZIN
 70
     8
  9
$DIMALTZ
 70
     0
  9
$DIMALTTZ
 70
     0
  9
$DIMUPT
 70
     0
  9
$DIMDEC
 70
     2
  9
$DIMTDEC
 70
     2
  9
$DIMALTU
 70
     2
  9
$DIMALTTD
 70
     2
  9
$DIMTXSTY
  7
STANDARD
  9
$DIMAUNIT
 70
     0
  9
$DIMADEC
 70
     0
  9
$DIMALTRND
 40
0.0
  9
$DIMAZIN
 70
     2
  9
$DIMDSEP
 70
    46
  9
$DIMATFIT
 70
     3
  9
$DIMFRAC
 70
     0
  9
$DIMLDRBLK
  1
Open30
  9
$DIMLUNIT
 70
     2
  9
$DIMLWD
 70
    -1
  9
$DIMLWE
 70
    -1
  9
$DIMTMOVE
 70
     0
  9
$LUNITS
 70
     2
  9
$LUPREC
 70
     2
  9
$SKETCHINC
 40
1.0
  9
$FILLETRAD
 40
1.0
  9
$AUNITS
 70
     0
  9
$AUPREC
 70
     0
  9
$MENU
  1
.
  9
$ELEVATION
 40
0.0
  9
$PELEVATION
 40
0.0
  9
$THICKNESS
 40
0.0
  9
$LIMCHECK
 70
     0
  9
$CHAMFERA
 40
5.0
  9
$CHAMFERB
 40
5.0
  9
$CHAMFERC
 40
20.0
  9
$CHAMFERD
 40
0.0
  9
$SKPOLY
 70
     0
  9
$TDCREATE
 40
2455329.706164098
  9
$TDUCREATE
 40
2455329.331164098
  9
$TDUPDATE
 40
2456049.610065104
  9
$TDUUPDATE
 40
2456049.235065104
  9
$TDINDWG
 40
0.5390326389
  9
$TDUSRTIMER
 40
0.5390326389
  9
$USRTIMER
 70
     1
  9
$ANGBASE
 50
0.0
  9
$ANGDIR
 70
     0
  9
$PDMODE
 70
     0
  9
$PDSIZE
 40
0.0
  9
$PLINEWID
 40
0.0
  9
$SPLFRAME
 70
     0
  9
$SPLINETYPE
 70
     6
  9
$SPLINESEGS
 70
     8
  9
$HANDSEED
  5
4AD1
  9
$SURFTAB1
 70
     6
  9
$SURFTAB2
 70
     6
  9
$SURFTYPE
 70
     6
  9
$SURFU
 70
     6
  9
$SURFV
 70
     6
  9
$UCSBASE
  2

  9
$UCSNAME
  2

  9
$UCSORG
 10
0.0
 20
0.0
 30
0.0
  9
$UCSXDIR
 10
1.0
 20
0.0
 30
0.0
  9
$UCSYDIR
 10
0.0
 20
1.0
 30
0.0
  9
$UCSORTHOREF
  2

  9
$UCSORTHOVIEW
 70
     0
  9
$UCSORGTOP
 10
0.0
 20
0.0
 30
0.0
  9
$UCSORGBOTTOM
 10
0.0
 20
0.0
 30
0.0
  9
$UCSORGLEFT
 10
0.0
 20
0.0
 30
0.0
  9
$UCSORGRIGHT
 10
0.0
 20
0.0
 30
0.0
  9
$UCSORGFRONT
 10
0.0
 20
0.0
 30
0.0
  9
$UCSORGBACK
 10
0.0
 20
0.0
 30
0.0
  9
$PUCSBASE
  2

  9
$PUCSNAME
  2

  9
$PUCSORG
 10
0.0
 20
0.0
 30
0.0
  9
$PUCSXDIR
 10
1.0
 20
0.0
 30
0.0
  9
$PUCSYDIR
 10
0.0
 20
1.0
 30
0.0
  9
$PUCSORTHOREF
  2

  9
$PUCSORTHOVIEW
 70
     0
  9
$PUCSORGTOP
 10
0.0
 20
0.0
 30
0.0
  9
$PUCSORGBOTTOM
 10
0.0
 20
0.0
 30
0.0
  9
$PUCSORGLEFT
 10
0.0
 20
0.0
 30
0.0
  9
$PUCSORGRIGHT
 10
0.0
 20
0.0
 30
0.0
  9
$PUCSORGFRONT
 10
0.0
 20
0.0
 30
0.0
  9
$PUCSORGBACK
 10
0.0
 20
0.0
 30
0.0
  9
$USERI1
 70
     0
  9
$USERI2
 70
     0
  9
$USERI3
 70
     0
  9
$USERI4
 70
     0
  9
$USERI5
 70
     0
  9
$USERR1
 40
0.0
  9
$USERR2
 40
0.0
  9
$USERR3
 40
0.0
  9
$USERR4
 40
0.0
  9
$USERR5
 40
0.0
  9
$WORLDVIEW
 70
     1
  9
$SHADEDGE
 70
     3
  9
$SHADEDIF
 70
    70
  9
$TILEMODE
 70
     1
  9
$MAXACTVP
 70
    64
  9
$PINSBASE
 10
0.0
 20
0.0
 30
0.0
  9
$PLIMCHECK
 70
     0
  9
$PEXTMIN
 10
1.000000000000000E+20
 20
1.000000000000000E+20
 30
1.000000000000000E+20
  9
$PEXTMAX
 10
-1.000000000000000E+20
 20
-1.000000000000000E+20
 30
-1.000000000000000E+20
  9
$PLIMMIN
 10
-6.350006103515625
 20
-6.349999904632568
  9
$PLIMMAX
 10
273.0499877929688
 20
209.5499939918518
  9
$UNITMODE
 70
     0
  9
$VISRETAIN
 70
     1
  9
$PLINEGEN
 70
     0
  9
$PSLTSCALE
 70
     1
  9
$TREEDEPTH
 70
  3020
  9
$CMLSTYLE
  2
Standard
  9
$CMLJUST
 70
     0
  9
$CMLSCALE
 40
20.0
  9
$PROXYGRAPHICS
 70
     1
  9
$MEASUREMENT
 70
     1
  9
$CELWEIGHT
370
    -1
  9
$ENDCAPS
280
     0
  9
$JOINSTYLE
280
     0
  9
$LWDISPLAY
290
     0
  9
$INSUNITS
 70
     4
  9
$HYPERLINKBASE
  1

  9
$STYLESHEET
  1
takachi-2.ctb
  9
$XEDIT
290
     1
  9
$CEPSNTYPE
380
     0
  9
$PSTYLEMODE
290
     1
  9
$FINGERPRINTGUID
  2
{0B73D592-C53E-4F41-8098-6688BAA96583}
  9
$VERSIONGUID
  2
{CF84AF7E-8549-4C01-B3FC-B6C125982A3B}
  9
$EXTNAMES
290
     1
  9
$PSVPSCALE
 40
0.0
  9
$OLESTARTUP
290
     0
  0
ENDSEC
  0
SECTION
  2
CLASSES
  0
CLASS
  1
ACDBDICTIONARYWDFLT
  2
AcDbDictionaryWithDefault
  3
ObjectDBX Classes
 90
        0
280
     0
281
     0
  0
CLASS
  1
ACDBPLACEHOLDER
  2
AcDbPlaceHolder
  3
ObjectDBX Classes
 90
        0
280
     0
281
     0
  0
CLASS
  1
LAYOUT
  2
AcDbLayout
  3
ObjectDBX Classes
 90
        0
280
     0
281
     0
  0
CLASS
  1
ACME_DOCUMENT
  2
AcMeDbDoc
  3
AcMeServices
 90
        0
280
     0
281
     0
  0
CLASS
  1
AMGSETTINGSOBJ
  2
AmgSettingsObj
  3
"AcadM|Product Description: AutoCAD Mechanical 2000|Company: Autodesk"
 90
        0
280
     0
281
     0
  0
CLASS
  1
ACMESCOPE
  2
AcMeScope
  3
AcMeServices
 90
        0
280
     0
281
     0
  0
CLASS
  1
ACMECOMMANDHISTORY
  2
AcMeCommandHistory
  3
AcMeServices
 90
        0
280
     0
281
     0
  0
CLASS
  1
ACIMSYSVARMAN
  2
AcImSysVarManager
  3
AcMeServices
 90
        0
280
     0
281
     0
  0
CLASS
  1
ACIMREALSYSVAR
  2
AcImRealSysVar
  3
AcMeServices
 90
        0
280
     0
281
     0
  0
CLASS
  1
ACIMINTSYSVAR
  2
AcImIntSysVar
  3
AcMeServices
 90
        0
280
     0
281
     0
  0
CLASS
  1
ACMEDRAWINGMAN
  2
AcMeDrawingMan
  3
AcMeServices
 90
        0
280
     0
281
     0
  0
CLASS
  1
ACMEVIEW
  2
AcMeView
  3
AcMeServices
 90
        0
280
     0
281
     0
  0
CLASS
  1
ACDBENTITYCACHE
  2
AcMeEntityCache
  3
AcMeServices
 90
        0
280
     0
281
     0
  0
CLASS
  1
GSMANAGER
  2
AcMeGSManager
  3
AcMeServices
 90
        0
280
     0
281
     0
  0
CLASS
  1
AMDTINTERNALREACTOR
  2
AmdtInternalReactor
  3
AcMeServices
 90
        0
280
     0
281
     0
  0
CLASS
  1
ACMESTATEMGR
  2
AcMeStateMgr
  3
AcMeServices
 90
        0
280
     0
281
     0
  0
CLASS
  1
ACGREFMASTER
  2
AcGrefMaster
  3
AcAttribServices
 90
        0
280
     0
281
     0
  0
CLASS
  1
ACME_DATABASE
  2
AcMeDbDatabase
  3
AcMeServices
 90
        0
280
     0
281
     0
  0
CLASS
  1
ACRFINSADJUSTERMGR
  2
AcRfInsAdjusterMgr
  3
AcMeServices
 90
        0
280
     0
281
     0
  0
CLASS
  1
ACGREFACADMASTER
  2
AcGrefacadMaster
  3
AcGrefServices
 90
        0
280
     0
281
     0
  0
CLASS
  1
AMIMASTER
  2
AmiMaster
  3
AmiServices
 90
        0
280
     0
281
     0
  0
CLASS
  1
ACMDATADICTIONARY
  2
AcmDataDictionary
  3
"AcmSymBB|Product Description: AutoCAD Mechanical 2004 DX|Company: Autodesk"
 90
        0
280
     0
281
     0
  0
CLASS
  1
ACMDATAENTRYBLOCK
  2
AcmDataEntryBlock
  3
"AcmSymBB|Product Description: AutoCAD Mechanical 2004 DX|Company: Autodesk"
 90
        0
280
     0
281
     0
  0
CLASS
  1
ACIMSTRSYSVAR
  2
AcImStrSysVar
  3
AcMeServices
 90
        0
280
     0
281
     0
  0
CLASS
  1
ACMSTANDARDISO
  2
AcmStandardISO
  3
"Amdt_StdImp|Product Description: AutoCAD Mechanical 2004 DX|Company: Autodesk"
 90
        0
280
     0
281
     0
  0
CLASS
  1
AMGOBJPROPCFG
  2
AmgObjPropCfg
  3
"AmgLay|Product Description: AutoCAD Mechanical 2000|Company: Autodesk"
 90
        1
280
     0
281
     0
  0
CLASS
  1
AMDTEDGESTANDARDISO
  2
AmdtEdgeStdISO
  3
"Amdt_StdImp|Product Description: AutoCAD Mechanical 2004 DX|Company: Autodesk"
 90
        0
280
     0
281
     0
  0
CLASS
  1
ACMSURFSTANDARDISO
  2
AcmSurfTextStdISO
  3
"Amdt_StdImp|Product Description: AutoCAD Mechanical 2004 DX|Company: Autodesk"
 90
        0
280
     0
281
     0
  0
CLASS
  1
ACMFCFSTANDARDISO
  2
AcmFCFStdISO
  3
"Amdt_StdImp|Product Description: AutoCAD Mechanical 2004 DX|Company: Autodesk"
 90
        0
280
     0
281
     0
  0
CLASS
  1
ACMWELDSTANDARDISO
  2
AcmWeldingStdISO
  3
"Amdt_StdImp|Product Description: AutoCAD Mechanical 2004 DX|Company: Autodesk"
 90
        0
280
     0
281
     0
  0
CLASS
  1
ACMIDSTANDARDISO
  2
AcmIdStdISO
  3
"Amdt_StdImp|Product Description: AutoCAD Mechanical 2004 DX|Company: Autodesk"
 90
        0
280
     0
281
     0
  0
CLASS
  1
ACMDATUMSTANDARDISO
  2
AcmDatumStdISO
  3
"Amdt_StdImp|Product Description: AutoCAD Mechanical 2004 DX|Company: Autodesk"
 90
        0
280
     0
281
     0
  0
CLASS
  1
ACMBOMSTANDARDISO
  2
AcmBOMStdISO
  3
"Amdt_StdImp|Product Description: AutoCAD Mechanical 2004 DX|Company: Autodesk"
 90
        0
280
     0
281
     0
  0
CLASS
  1
ACMDETAILSTANDARDISO
  2
AmdtDetailSymStdISO
  3
"Amdt_StdImp|Product Description: AutoCAD Mechanical 2004 DX|Company: Autodesk"
 90
        0
280
     0
281
     0
  0
CLASS
  1
ACMSECTIONSTANDARDISO
  2
AmdtSectionSymStdISO
  3
"Amdt_StdImp|Product Description: AutoCAD Mechanical 2004 DX|Company: Autodesk"
 90
        0
280
     0
281
     0
  0
CLASS
  1
ACMCENTERLINESTANDARDISO
  2
AmdtCenterLineStdISO
  3
"Amdt_StdImp|Product Description: AutoCAD Mechanical 2004 DX|Company: Autodesk"
 90
        0
280
     0
281
     0
  0
CLASS
  1
ACMNOTESTANDARDISO
  2
AmdtNoteStdISO
  3
"Amdt_StdImp|Product Description: AutoCAD Mechanical 2004 DX|Company: Autodesk"
 90
        0
280
     0
281
     0
  0
CLASS
  1
ACAMGLAYSTD
  2
AcAmgLayStd
  3
"AcAmgLayStd|Product Description: AutoCAD Mechanical 2000|Company: Autodesk"
 90
        0
280
     0
281
     0
  0
CLASS
  1
ACAMGDIMSTD
  2
AcAmgDimStd
  3
"AcAmgDimStd|Product Description: AutoCAD Mechanical 2000|Company: Autodesk"
 90
        0
280
     0
281
     0
  0
CLASS
  1
ACAMGHOLECHARTSTDISO
  2
AcAmgHoleChartStdISO
  3
ACMSYMBB_MODULE_NAME
 90
        0
280
     0
281
     0
  0
CLASS
  1
ACAMGTITLESTD
  2
AcAmgTitleStd
  3
"TITLEAPP"
 90
        0
280
     0
281
     0
  0
CLASS
  1
LAYER_INDEX
  2
AcDbLayerIndex
  3
ObjectDBX Classes
 90
    32768
280
     0
281
     0
  0
CLASS
  1
IDBUFFER
  2
AcDbIdBuffer
  3
ObjectDBX Classes
 90
    32768
280
     0
281
     0
  0
CLASS
  1
DICTIONARYVAR
  2
AcDbDictionaryVar
  3
ObjectDBX Classes
 90
        0
280
     0
281
     0
  0
CLASS
  1
AM_DRAWING_MGR
  2
AcDmDwgMgr
  3
AcMechDwgViewMgmt
 90
        0
280
     0
281
     0
  0
CLASS
  1
AM_DWG_DOCUMENT
  2
AcDmDwgDocument
  3
AcMechDwgViewMgmt
 90
        0
280
     0
281
     0
  0
CLASS
  1
AM_DWG_SHEET
  2
AcDmSheet
  3
AcMechDwgViewMgmt
 90
        0
280
     0
281
     0
  0
CLASS
  1
AM_VIEWDIMPARMAP
  2
AcDmViewDimParMap
  3
AcMechDwgViewMgmt
 90
        0
280
     0
281
     0
  0
CLASS
  1
AM_DWGMGR_NAME
  2
AcDmDwgMgrName
  3
AcMechDwgViewMgmt
 90
        0
280
     0
281
     0
  0
CLASS
  1
AMDTMENUSTATEMGR
  2
AmdtMenuStateMgr
  3
McadcomServices
 90
        0
280
     0
281
     0
  0
CLASS
  1
AMDTMCOMMENUSTATE
  2
AmdtMcomMenuState
  3
McadcomServices
 90
        0
280
     0
281
     0
  0
CLASS
  1
MAPIAMMOUDLE
  2
MApiAmModule
  3
MApiAmServices
 90
        0
280
     0
281
     0
  0
CLASS
  1
AMDTADMENUSTATE
  2
AmdtAdMenuState
  3
DesignerServices
 90
        0
280
     0
281
     0
  0
CLASS
  1
ADAPPL
  2
AcAdAppl
  3
DesignerServices
 90
        0
280
     0
281
     0
  0
CLASS
  1
DEPMGR
  2
AcAdDepMgr
  3
DesignerServices
 90
        0
280
     0
281
     0
  0
CLASS
  1
PARAMMGR
  2
AcAdParamMgr
  3
DesignerServices
 90
        0
280
     0
281
     0
  0
CLASS
  1
PARAMSCOPE
  2
AcAdParamScope
  3
DesignerServices
 90
        0
280
     0
281
     0
  0
CLASS
  1
NAMEDAPPL
  2
AcAdNamedAppl
  3
DesignerServices
 90
        0
280
     0
281
     0
  0
CLASS
  1
AMDTDMMENUSTATE
  2
AmdtDmMenuState
  3
AcMechDwgViewMgmt
 90
        0
280
     0
281
     0
  0
CLASS
  1
AMDTAMMENUSTATE
  2
AmdtAmMenuState
  3
DesignerAssemblies
 90
        0
280
     0
281
     0
  0
CLASS
  1
ACAMPROJECT
  2
AcAmProject
  3
DesignerAssemblies
 90
        0
280
     0
281
     0
  0
CLASS
  1
ACAMGRCOMPDEF
  2
AcAmGrCompDef
  3
DesignerAssemblies
 90
        0
280
     0
281
     0
  0
CLASS
  1
ACCMCONTEXT
  2
AcCmContext
  3
DesignerAssemblies
 90
        0
280
     0
281
     0
  0
CLASS
  1
ACAMCOMPDEF
  2
AcAmCompDef
  3
DesignerAssemblies
 90
        0
280
     0
281
     0
  0
CLASS
  1
ACAMCOMPDEFMGR
  2
AcAmCompDefMgr
  3
DesignerAssemblies
 90
        0
280
     0
281
     0
  0
CLASS
  1
AMCONTEXTMGR
  2
AcAmContextMgr
  3
DesignerAssemblies
 90
        0
280
     0
281
     0
  0
CLASS
  1
ACAMCONTEXTMODELER
  2
AcAmContextModeler
  3
DesignerAssemblies
 90
        0
280
     0
281
     0
  0
CLASS
  1
ACMTHREADLINESTANDARDISO
  2
AmdtThreadLineStdISO
  3
"Amdt_StdImp|Product Description: AutoCAD Mechanical 2004 DX|Company: Autodesk"
 90
        0
280
     0
281
     0
  0
CLASS
  1
CATALOGSTATE
  2
AcAmCatalogState
  3
DesignerAssemblies
 90
        0
280
     0
281
     0
  0
CLASS
  1
ACAMGRCOMPDEFSET
  2
AcAmGrCompDefSet
  3
DesignerAssemblies
 90
        0
280
     0
281
     0
  0
CLASS
  1
AMDTBROWSERDBTAB
  2
AmdtBrowserDbTab
  3
McadcomServices
 90
        0
280
     0
281
     0
  0
CLASS
  1
CBROWSERAPPOBJECT
  2
CBrowserAppObject
  3
McadcomServices
 90
        0
280
     0
281
     0
  0
CLASS
  1
DM_PLACEHOLDER
  2
AcDmSelsetPlaceholder
  3
AcMechDwgViewMgmt
 90
        0
280
     0
281
     0
  0
CLASS
  1
AMDTNOTETEMPLATEDB
  2
AmdtNoteTemplateDB
  3
AMDT_STDIMP_MODULE_NAME
 90
        0
280
     0
281
     0
  0
CLASS
  1
ACAMGFILTERDAT
  2
AcAmgFilterDat
  3
"AcadM|Product Description: AutoCAD Mechanical 2000|Company: Autodesk"
 90
        0
280
     0
281
     0
  0
CLASS
  1
AMDTNOTE
  2
AmdtNote
  3
"AcmSymBB|Product Description: AutoCAD Mechanical 2004 DX|Company: Autodesk"
 90
    33791
280
     0
281
     1
  0
CLASS
  1
AMDTFORMULAUPDATEDISPATCHER
  2
AmdtFormulaUpdateDispatcher
  3
AcMeServices
 90
        0
280
     0
281
     0
  0
CLASS
  1
AMDTSECTIONSYM
  2
AmdtSectionSym
  3
"AcmSymBB|Product Description: AutoCAD Mechanical 2004 DX|Company: Autodesk"
 90
    33791
280
     0
281
     1
  0
CLASS
  1
AMDTSECTIONSYMLABEL
  2
AmdtSectionSymLabel
  3
"AcmSymBB|Product Description: AutoCAD Mechanical 2004 DX|Company: Autodesk"
 90
    33791
280
     0
281
     1
  0
CLASS
  1
AMDTDETAILSYM
  2
AmdtDetailSym
  3
"AcmSymBB|Product Description: AutoCAD Mechanical 2004 DX|Company: Autodesk"
 90
    33791
280
     0
281
     1
  0
CLASS
  1
AMDTDETAILSYMLABEL
  2
AmdtDetailSymLabel
  3
"AcmSymBB|Product Description: AutoCAD Mechanical 2004 DX|Company: Autodesk"
 90
    33791
280
     0
281
     1
  0
CLASS
  1
TABLESTYLE
  2
AcDbTableStyle
  3
ObjectDBX Classes
 90
     2047
280
     0
281
     0
  0
CLASS
  1
VAACXREFPANELOBJECT
  2
VaAcXREFPanelObject
  3
VAAC_ADDIN
 90
    32768
280
     0
281
     0
  0
CLASS
  1
VAACIMAGEINVENTORY
  2
VaAcImageInventory
  3
VAAC_ADDIN
 90
    32768
280
     0
281
     0
  0
CLASS
  1
DIMASSOC
  2
AcDbDimAssoc
  3
"AcDbDimAssoc|Product Desc:     AcDim ARX App For Dimension|Company:          Autodesk, Inc.|WEB Address:      www.autodesk.com"
 90
        0
280
     0
281
     0
  0
CLASS
  1
SORTENTSTABLE
  2
AcDbSortentsTable
  3
ObjectDBX Classes
 90
        0
280
     0
281
     0
  0
ENDSEC
  0
SECTION
  2
TABLES
  0
TABLE
  2
VPORT
  5
8
330
0
100
AcDbSymbolTable
 70
     3
  0
VPORT
  5
4AC4
330
8
100
AcDbSymbolTableRecord
100
AcDbViewportTableRecord
  2
*Active
 70
     0
 10
0.0
 20
0.0
 11
1.0
 21
1.0
 12
403.0000056301888
 22
280.0000039117934
 13
0.0
 23
0.0
 14
5.0
 24
5.0
 15
20.0
 25
20.0
 16
0.0
 26
0.0
 36
1.0
 17
0.0
 27
0.0
 37
0.0
 40
717.1462114052615
 41
1.131612903225806
 42
50.0
 43
0.0
 44
0.0
 50
0.0
 51
0.0
 71
    16
 72
   100
 73
     1
 74
     3
 75
     0
 76
     0
 77
     0
 78
     0
281
     0
 65
     1
110
0.0
120
0.0
130
0.0
111
1.0
121
0.0
131
0.0
112
0.0
122
1.0
132
0.0
 79
     0
146
0.0
  0
ENDTAB
  0
TABLE
  2
LTYPE
  5
5
330
0
100
AcDbSymbolTable
 70
    20
  0
LTYPE
  5
14
330
5
100
AcDbSymbolTableRecord
100
AcDbLinetypeTableRecord
  2
ByBlock
 70
     0
  3

 72
    65
 73
     0
 40
0.0
  0
LTYPE
  5
15
330
5
100
AcDbSymbolTableRecord
100
AcDbLinetypeTableRecord
  2
ByLayer
 70
     0
  3

 72
    65
 73
     0
 40
0.0
  0
LTYPE
  5
16
330
5
100
AcDbSymbolTableRecord
100
AcDbLinetypeTableRecord
  2
Continuous
 70
     0
  3
Solid line
 72
    65
 73
     0
 40
0.0
  0
LTYPE
  5
64
330
5
100
AcDbSymbolTableRecord
100
AcDbLinetypeTableRecord
  2
AM_ISO02W050
 70
     0
  3
__ __ __ __ __ __ __ __ __ __ __ __ __ __ __
 72
    65
 73
     2
 40
7.5
 49
6.0
 74
     0
 49
-1.5
 74
     0
  0
LTYPE
  5
65
330
5
100
AcDbSymbolTableRecord
100
AcDbLinetypeTableRecord
  2
AM_ISO08W050
 70
     0
  3
____ . ____ . ____ . ____ . ____ . ____ . ____
 72
    65
 73
     4
 40
18.0
 49
12.0
 74
     0
 49
-1.5
 74
     0
 49
3.0
 74
     0
 49
-1.5
 74
     0
  0
LTYPE
  5
66
330
5
100
AcDbSymbolTableRecord
100
AcDbLinetypeTableRecord
  2
AM_ISO09W050
 70
     0
  3
_____ . . _____ . . _____ . . ____ .. ____
 72
    65
 73
     6
 40
22.5
 49
12.0
 74
     0
 49
-1.5
 74
     0
 49
3.0
 74
     0
 49
-1.5
 74
     0
 49
3.0
 74
     0
 49
-1.5
 74
     0
  0
LTYPE
  5
67
330
5
100
AcDbSymbolTableRecord
100
AcDbLinetypeTableRecord
  2
Amconstr
 70
     0
  3
_______________________
 72
    65
 73
     2
 40
9999.0
 49
9999.0
 74
     0
 49
0.0
 74
     0
  0
LTYPE
  5
68
330
5
100
AcDbSymbolTableRecord
100
AcDbLinetypeTableRecord
  2
AM_ISO08W050x2
 70
     0
  3
__ . __ . __ . __ . __ . __
 72
    65
 73
     4
 40
9.0
 49
6.0
 74
     0
 49
-0.75
 74
     0
 49
1.5
 74
     0
 49
-0.75
 74
     0
  0
LTYPE
  5
69
330
5
100
AcDbSymbolTableRecord
100
AcDbLinetypeTableRecord
  2
AM_ISO02W050x2
 70
     0
  3
 _ _ _ _ _ _ _ _ _ _ _ _
 72
    65
 73
     2
 40
3.75
 49
3.0
 74
     0
 49
-0.75
 74
     0
  0
LTYPE
  5
6C
330
5
100
AcDbSymbolTableRecord
100
AcDbLinetypeTableRecord
  2
Amzigzag
 70
     0
  3
/\/-/\/-/\/-/\/-/\/-/\/
 72
    65
 73
     2
 40
11.0001
 49
0.0001
 74
     4
 75
   135
340
6B
 46
0.04
 50
0.0
 44
0.0
 45
0.0
 49
-11.0
 74
     0
  0
LTYPE
  5
7A
330
5
100
AcDbSymbolTableRecord
100
AcDbLinetypeTableRecord
  2
ACISOWELD
 70
     0
  3
_ _ _ _ _
 72
    65
 73
     2
 40
2.0
 49
2.0
 74
     0
 49
-1.0
 74
     0
  0
LTYPE
  5
7B
330
5
100
AcDbSymbolTableRecord
100
AcDbLinetypeTableRecord
  2
ACISOTGB
 70
     0
  3
__ . . __ . .
 72
    65
 73
     6
 40
9.0
 49
4.0
 74
     0
 49
-1.0
 74
     0
 49
1.0
 74
     0
 49
-1.0
 74
     0
 49
1.0
 74
     0
 49
-1.0
 74
     0
  0
LTYPE
  5
7C
330
5
100
AcDbSymbolTableRecord
100
AcDbLinetypeTableRecord
  2
ACISOTGL
 70
     0
  3
_ _ _ _ _
 72
    65
 73
     2
 40
3.0
 49
2.0
 74
     0
 49
-1.0
 74
     0
  0
LTYPE
  5
7E
330
5
100
AcDbSymbolTableRecord
100
AcDbLinetypeTableRecord
  2
CENTER
 70
     0
  3
__ . __
 72
    65
 73
     4
 40
7.0
 49
4.0
 74
     0
 49
-1.0
 74
     0
 49
1.0
 74
     0
 49
-1.0
 74
     0
  0
LTYPE
  5
D8
330
5
100
AcDbSymbolTableRecord
100
AcDbLinetypeTableRecord
  2
HIDDEN
 70
     0
  3
Hidden __ __ __ __ __ __ __ __ __ __ __ __ __ _
 72
    65
 73
     2
 40
9.524999999999998
 49
6.349999999999999
 74
     0
 49
-3.174999999999999
 74
     0
  0
LTYPE
  5
D9
330
5
100
AcDbSymbolTableRecord
100
AcDbLinetypeTableRecord
  2
PHANTOM2
 70
     0
  3
Phantom (.5x) ___ _ _ ___ _ _ ___ _ _ ___ _ _
 72
    65
 73
     6
 40
31.75
 49
15.875
 74
     0
 49
-3.174999999999999
 74
     0
 49
3.174999999999999
 74
     0
 49
-3.174999999999999
 74
     0
 49
3.174999999999999
 74
     0
 49
-3.174999999999999
 74
     0
  0
LTYPE
  5
5ED
330
5
100
AcDbSymbolTableRecord
100
AcDbLinetypeTableRecord
  2
gen3
 70
     0
  3
-- -- -- -- -- -- -- -- -- -- -- -- -- -- --
 72
    65
 73
     2
 40
6.25
 49
4.75
 74
     0
 49
-1.5
 74
     0
  0
LTYPE
  5
5EE
330
5
100
AcDbSymbolTableRecord
100
AcDbLinetypeTableRecord
  2
gen7
 70
     0
  3
____ . ____ . ____ . ____ . ____ . ____ . ____
 72
    65
 73
     4
 40
13.75
 49
9.75
 74
     0
 49
-1.5
 74
     0
 49
1.0
 74
     0
 49
-1.5
 74
     0
  0
LTYPE
  5
5EF
330
5
100
AcDbSymbolTableRecord
100
AcDbLinetypeTableRecord
  2
gen3a
 70
     0
  3
 - - - - -
 72
    65
 73
     2
 40
3.125
 49
2.25
 74
     0
 49
-0.875
 74
     0
  0
LTYPE
  5
5F0
330
5
100
AcDbSymbolTableRecord
100
AcDbLinetypeTableRecord
  2
gen7a
 70
     0
  3
__ . __ . __
 72
    65
 73
     4
 40
6.875
 49
4.75
 74
     0
 49
-0.875
 74
     0
 49
0.375
 74
     0
 49
-0.875
 74
     0
  0
LTYPE
  5
5F1
330
5
100
AcDbSymbolTableRecord
100
AcDbLinetypeTableRecord
  2
gen4a
 70
     0
  3
_____ . . _____ . . _____ . . ____ .. ____
 72
    65
 73
     6
 40
16.25
 49
9.75
 74
     0
 49
-1.5
 74
     0
 49
1.0
 74
     0
 49
-1.5
 74
     0
 49
1.0
 74
     0
 49
-1.5
 74
     0
  0
LTYPE
  5
5F2
330
5
100
AcDbSymbolTableRecord
100
AcDbLinetypeTableRecord
  2
genzigzag
 70
     0
  3
/\/-/\/-/\/-/\/-/\/-/\/
 72
    65
 73
     2
 40
12.0001
 49
0.0001
 74
     4
 75
   135
340
6B
 46
2.0
 50
0.0
 44
0.0
 45
0.0
 49
-12.0
 74
     0
  0
ENDTAB
  0
TABLE
  2
LAYER
  5
2
102
{ACAD_XDICTIONARY
360
35D
102
}
330
0
100
AcDbSymbolTable
 70
    24
  0
LAYER
  5
10
330
2
100
AcDbSymbolTableRecord
100
AcDbLayerTableRecord
  2
0
 70
     0
 62
     7
  6
Continuous
370
    -3
390
F
  0
LAYER
  5
1E1
330
2
100
AcDbSymbolTableRecord
100
AcDbLayerTableRecord
  2
Defpoints
 70
     0
 62
     7
  6
Continuous
290
     0
370
    -3
390
F
  0
LAYER
  5
518
330
2
100
AcDbSymbolTableRecord
100
AcDbLayerTableRecord
  2
TK1
 70
     0
 62
     7
  6
Continuous
370
    25
390
F
  0
LAYER
  5
519
330
2
100
AcDbSymbolTableRecord
100
AcDbLayerTableRecord
  2
TK10
 70
     0
 62
     7
  6
AM_ISO02W050x2
370
    13
390
F
  0
LAYER
  5
51A
330
2
100
AcDbSymbolTableRecord
100
AcDbLayerTableRecord
  2
TK2
 70
     0
 62
     2
  6
Continuous
370
    25
390
F
  0
LAYER
  5
51B
330
2
100
AcDbSymbolTableRecord
100
AcDbLayerTableRecord
  2
TK3
 70
     0
 62
     5
  6
Continuous
370
    25
390
F
  0
LAYER
  5
51C
330
2
100
AcDbSymbolTableRecord
100
AcDbLayerTableRecord
  2
TK20
 70
     0
 62
     2
  6
AM_ISO02W050x2
370
    13
390
F
  0
LAYER
  5
51D
330
2
100
AcDbSymbolTableRecord
100
AcDbLayerTableRecord
  2
TK30
 70
     0
 62
     5
  6
AM_ISO02W050x2
370
    13
390
F
  0
LAYER
  5
5AE
330
2
100
AcDbSymbolTableRecord
100
AcDbLayerTableRecord
  2
TK4
 70
     0
 62
     3
  6
Continuous
370
    25
390
F
  0
LAYER
  5
5AF
330
2
100
AcDbSymbolTableRecord
100
AcDbLayerTableRecord
  2
TK5
 70
     0
 62
     4
  6
Continuous
370
    25
390
F
  0
LAYER
  5
5B0
330
2
100
AcDbSymbolTableRecord
100
AcDbLayerTableRecord
  2
TK6
 70
     0
 62
     6
  6
Continuous
370
    25
390
F
  0
LAYER
  5
5B1
330
2
100
AcDbSymbolTableRecord
100
AcDbLayerTableRecord
  2
TK7
 70
     0
 62
     1
  6
Continuous
370
    25
390
F
  0
LAYER
  5
5B2
330
2
100
AcDbSymbolTableRecord
100
AcDbLayerTableRecord
  2
TK8
 70
     0
 62
     8
  6
Continuous
370
    25
390
F
  0
LAYER
  5
5B4
330
2
100
AcDbSymbolTableRecord
100
AcDbLayerTableRecord
  2
TK40
 70
     0
 62
     3
  6
AM_ISO02W050x2
370
    13
390
F
  0
LAYER
  5
5B5
330
2
100
AcDbSymbolTableRecord
100
AcDbLayerTableRecord
  2
TK50
 70
     0
 62
     4
  6
AM_ISO02W050x2
370
    13
390
F
  0
LAYER
  5
5B6
330
2
100
AcDbSymbolTableRecord
100
AcDbLayerTableRecord
  2
TK60
 70
     0
 62
     6
  6
AM_ISO02W050x2
370
    13
390
F
  0
LAYER
  5
5B7
330
2
100
AcDbSymbolTableRecord
100
AcDbLayerTableRecord
  2
TK70
 70
     0
 62
     1
  6
AM_ISO02W050x2
370
    13
390
F
  0
LAYER
  5
5B8
330
2
100
AcDbSymbolTableRecord
100
AcDbLayerTableRecord
  2
TK80
 70
     0
 62
     8
  6
AM_ISO02W050x2
370
    13
390
F
  0
LAYER
  5
5E3
330
2
100
AcDbSymbolTableRecord
100
AcDbLayerTableRecord
  2
AM_7
 70
     0
 62
     4
  6
AM_ISO08W050
370
    25
390
F
  0
LAYER
  5
5E4
330
2
100
AcDbSymbolTableRecord
100
AcDbLayerTableRecord
  2
AM_5
 70
     0
 62
     3
  6
Continuous
370
    25
390
F
  0
LAYER
  5
60F
330
2
100
AcDbSymbolTableRecord
100
AcDbLayerTableRecord
  2
7A
 70
     0
 62
     4
  6
gen7a
370
    -3
390
F
  0
LAYER
  5
610
330
2
100
AcDbSymbolTableRecord
100
AcDbLayerTableRecord
  2
RAHM2
 70
     0
 62
     1
  6
Continuous
370
    -3
390
F
  0
LAYER
  5
C6F
330
2
100
AcDbSymbolTableRecord
100
AcDbLayerTableRecord
  2
AM_CL
 70
     0
 62
     1
  6
Amconstr
370
    25
390
F
  0
LAYER
  5
F37
330
2
100
AcDbSymbolTableRecord
100
AcDbLayerTableRecord
  2
AM_0
 70
     0
 62
     7
  6
Continuous
370
    50
390
F
  0
ENDTAB
  0
TABLE
  2
STYLE
  5
3
330
0
100
AcDbSymbolTable
 70
     5
  0
STYLE
  5
11
330
3
100
AcDbSymbolTableRecord
100
AcDbTextStyleTableRecord
  2
STANDARD
 70
     0
 40
0.0
 41
1.0
 50
0.0
 71
     0
 42
73.98571745357912
  3
ISOCP.SHX
  4
bigfont.shx
  0
STYLE
  5
6B
330
3
100
AcDbSymbolTableRecord
100
AcDbTextStyleTableRecord
  2

 70
     1
 40
0.0
 41
1.0
 50
0.0
 71
     0
 42
2.5
  3
ltypeshp.shx
  4

  0
STYLE
  5
6D
330
3
100
AcDbSymbolTableRecord
100
AcDbTextStyleTableRecord
  2
ACISOTS
 70
     0
 40
1.0
 41
1.0
 50
0.0
 71
     0
 42
2.5
  3
isocp.shx
  4
extfont.shx
  0
STYLE
  5
79
330
3
100
AcDbSymbolTableRecord
100
AcDbTextStyleTableRecord
  2
ACISOGDT
 70
     0
 40
0.0
 41
1.0
 50
0.0
 71
     0
 42
2.5
  3
amgdt.shx
  4

  0
STYLE
  5
612
330
3
100
AcDbSymbolTableRecord
100
AcDbTextStyleTableRecord
  2

 70
     1
 40
0.0
 41
1.0
 50
0.0
 71
     0
 42
3.0
  3
genltshp.shx
  4

  0
ENDTAB
  0
TABLE
  2
VIEW
  5
6
330
0
100
AcDbSymbolTable
 70
     6
  0
VIEW
  5
291
330
6
100
AcDbSymbolTableRecord
100
AcDbViewTableRecord
  2
AM_VIEW1
 70
     0
 40
280.0000000000001
 10
204.4981862152358
 20
420.0000000000001
 41
408.9963724304716
 11
0.0
 21
0.0
 31
1.0
 12
0.0
 22
0.0
 32
0.0
 42
50.0
 43
0.0
 44
0.0
 50
0.0
 71
    16
281
     0
 72
     0
  0
VIEW
  5
292
330
6
100
AcDbSymbolTableRecord
100
AcDbViewTableRecord
  2
AM_VIEW2
 70
     0
 40
280.0000000000001
 10
601.5018137847642
 20
420.0000000000001
 41
408.9963724304716
 11
0.0
 21
0.0
 31
1.0
 12
0.0
 22
0.0
 32
0.0
 42
50.0
 43
0.0
 44
0.0
 50
0.0
 71
    16
281
     0
 72
     0
  0
VIEW
  5
293
330
6
100
AcDbSymbolTableRecord
100
AcDbViewTableRecord
  2
AM_VIEW3
 70
     0
 40
280.0000000000001
 10
204.4981862152358
 20
140.0
 41
408.9963724304716
 11
0.0
 21
0.0
 31
1.0
 12
0.0
 22
0.0
 32
0.0
 42
50.0
 43
0.0
 44
0.0
 50
0.0
 71
    16
281
     0
 72
     0
  0
VIEW
  5
294
330
6
100
AcDbSymbolTableRecord
100
AcDbViewTableRecord
  2
AM_VIEW4
 70
     0
 40
280.0000000000001
 10
601.5018137847642
 20
140.0
 41
408.9963724304716
 11
0.0
 21
0.0
 31
1.0
 12
0.0
 22
0.0
 32
0.0
 42
50.0
 43
0.0
 44
0.0
 50
0.0
 71
    16
281
     0
 72
     0
  0
VIEW
  5
295
330
6
100
AcDbSymbolTableRecord
100
AcDbViewTableRecord
  2
AM_VIEW5
 70
     0
 40
280.0000000000001
 10
403.0
 20
280.0000000000001
 41
408.9963724304716
 11
0.0
 21
0.0
 31
1.0
 12
0.0
 22
0.0
 32
0.0
 42
50.0
 43
0.0
 44
0.0
 50
0.0
 71
    16
281
     0
 72
     0
  0
VIEW
  5
296
330
6
100
AcDbSymbolTableRecord
100
AcDbViewTableRecord
  2
AM_VIEW6
 70
     0
 40
559.9944000000001
 10
403.0
 20
280.0000000000001
 41
817.9845649334946
 11
0.0
 21
0.0
 31
1.0
 12
0.0
 22
0.0
 32
0.0
 42
50.0
 43
0.0
 44
0.0
 50
0.0
 71
    16
281
     0
 72
     0
  0
ENDTAB
  0
TABLE
  2
UCS
  5
7
330
0
100
AcDbSymbolTable
 70
     0
  0
ENDTAB
  0
TABLE
  2
APPID
  5
9
330
0
100
AcDbSymbolTable
 70
    34
  0
APPID
  5
12
330
9
100
AcDbSymbolTableRecord
100
AcDbRegAppTableRecord
  2
ACAD
 70
     0
  0
APPID
  5
46
330
9
100
AcDbSymbolTableRecord
100
AcDbRegAppTableRecord
  2
MCAD_NO_VIS
 70
     0
  0
APPID
  5
47
330
9
100
AcDbSymbolTableRecord
100
AcDbRegAppTableRecord
  2
ACAD_TEMP_GRAPHIC
 70
     0
  0
APPID
  5
58
330
9
100
AcDbSymbolTableRecord
100
AcDbRegAppTableRecord
  2
ACATTRIBSERVICES
 70
     0
  0
APPID
  5
EE
330
9
100
AcDbSymbolTableRecord
100
AcDbRegAppTableRecord
  2
AD_DRAW
 70
     0
  0
APPID
  5
10C
330
9
100
AcDbSymbolTableRecord
100
AcDbRegAppTableRecord
  2
DESIGNERASSEMBLIES
 70
     0
  0
APPID
  5
111
330
9
100
AcDbSymbolTableRecord
100
AcDbRegAppTableRecord
  2
ACADM_DIM_EDIT
 70
     0
  0
APPID
  5
112
330
9
100
AcDbSymbolTableRecord
100
AcDbRegAppTableRecord
  2
AMDT_DM_ADJ
 70
     0
  0
APPID
  5
1E2
330
9
100
AcDbSymbolTableRecord
100
AcDbRegAppTableRecord
  2
GENIUS_GENREC_14
 70
     0
  0
APPID
  5
1E3
330
9
100
AcDbSymbolTableRecord
100
AcDbRegAppTableRecord
  2
GENIUS_GENODEF_13
 70
     0
  0
APPID
  5
1E4
330
9
100
AcDbSymbolTableRecord
100
AcDbRegAppTableRecord
  2
GENIUS_GENOBJ-N-REC_13
 70
     0
  0
APPID
  5
1E5
330
9
100
AcDbSymbolTableRecord
100
AcDbRegAppTableRecord
  2
GENIUS_GENDIMSH_14
 70
     0
  0
APPID
  5
1E6
330
9
100
AcDbSymbolTableRecord
100
AcDbRegAppTableRecord
  2
GENIUS_GENCFG_13
 70
     0
  0
APPID
  5
1E7
330
9
100
AcDbSymbolTableRecord
100
AcDbRegAppTableRecord
  2
GENIUS_GENCFG0_13
 70
     0
  0
APPID
  5
1E8
330
9
100
AcDbSymbolTableRecord
100
AcDbRegAppTableRecord
  2
GENIUS_GENCFG1_13
 70
     0
  0
APPID
  5
1E9
330
9
100
AcDbSymbolTableRecord
100
AcDbRegAppTableRecord
  2
GENIUS_GENCFG2_13
 70
     0
  0
APPID
  5
1EA
330
9
100
AcDbSymbolTableRecord
100
AcDbRegAppTableRecord
  2
GENIUS_GENCFG3_13
 70
     0
  0
APPID
  5
1EB
330
9
100
AcDbSymbolTableRecord
100
AcDbRegAppTableRecord
  2
GENIUS_GENCFG4_13
 70
     0
  0
APPID
  5
1EC
330
9
100
AcDbSymbolTableRecord
100
AcDbRegAppTableRecord
  2
GENIUS_GEVCFG0_13
 70
     0
  0
APPID
  5
1ED
330
9
100
AcDbSymbolTableRecord
100
AcDbRegAppTableRecord
  2
GENIUS_GENOENT_13
 70
     0
  0
APPID
  5
1EE
330
9
100
AcDbSymbolTableRecord
100
AcDbRegAppTableRecord
  2
GENIUS_GENOBJ-N-CRS_13
 70
     0
  0
APPID
  5
1EF
330
9
100
AcDbSymbolTableRecord
100
AcDbRegAppTableRecord
  2
GENIUS_GENOREF_13
 70
     0
  0
APPID
  5
1F0
330
9
100
AcDbSymbolTableRecord
100
AcDbRegAppTableRecord
  2
GENIUS_GENOLIS_13
 70
     0
  0
APPID
  5
1F1
330
9
100
AcDbSymbolTableRecord
100
AcDbRegAppTableRecord
  2
GENIUS_GENOBJ-N-TIT_13
 70
     0
  0
APPID
  5
1F2
330
9
100
AcDbSymbolTableRecord
100
AcDbRegAppTableRecord
  2
GENIUS_GENTITLE_13
 70
     0
  0
APPID
  5
1F3
330
9
100
AcDbSymbolTableRecord
100
AcDbRegAppTableRecord
  2
GENIUS_GENSCREG_15
 70
     0
  0
APPID
  5
1F4
330
9
100
AcDbSymbolTableRecord
100
AcDbRegAppTableRecord
  2
GENIUS_GENOBJ-N-SDF_13
 70
     0
  0
APPID
  5
1F5
330
9
100
AcDbSymbolTableRecord
100
AcDbRegAppTableRecord
  2
GENIUS_GENOBJ-N-CEN_13
 70
     0
  0
APPID
  5
1F6
330
9
100
AcDbSymbolTableRecord
100
AcDbRegAppTableRecord
  2
GENIUS_GENOBJ-N-HTC_13
 70
     0
  0
APPID
  5
1F7
330
9
100
AcDbSymbolTableRecord
100
AcDbRegAppTableRecord
  2
GENIUS_GENHATCH_13
 70
     0
  0
APPID
  5
484
330
9
100
AcDbSymbolTableRecord
100
AcDbRegAppTableRecord
  2
GENIUS_GENOBJ-N-ZOO_13
 70
     0
  0
APPID
  5
485
330
9
100
AcDbSymbolTableRecord
100
AcDbRegAppTableRecord
  2
GENIUS_GENZOO_17
 70
     0
  0
APPID
  5
85F
330
9
100
AcDbSymbolTableRecord
100
AcDbRegAppTableRecord
  2
GENIUS_GENOBJ-N-FIL_13
 70
     0
  0
APPID
  5
860
330
9
100
AcDbSymbolTableRecord
100
AcDbRegAppTableRecord
  2
GENIUS_GENCEN_19
 70
     0
  0
ENDTAB
  0
TABLE
  2
DIMSTYLE
  5
A
330
0
100
AcDbSymbolTable
 70
    16
100
AcDbDimStyleTable
 71
     1
340
81
  0
DIMSTYLE
105
81
330
A
100
AcDbSymbolTableRecord
100
AcDbDimStyleTableRecord
  2
AM_ISO
 70
     0
  4
"
 41
2.5
 42
1.0
 43
10.0
 44
1.0
 47
0.1
 48
0.1
 73
     0
 74
     0
 77
     1
 78
     8
 79
     2
140
3.5
141
0.0
143
0.0393701
146
0.71
147
1.5
172
     1
176
   256
177
   256
178
     2
271
     2
272
     2
283
     0
284
     8
340
11
341
407
342
407
371
    -1
372
    -1
  0
DIMSTYLE
105
82
102
{ACAD_REACTORS
330
EFE
102
}
330
A
100
AcDbSymbolTableRecord
100
AcDbDimStyleTableRecord
  2
AM_ISO$3
 70
     0
  4
"
 41
2.5
 42
1.0
 43
10.0
 44
1.0
 47
0.1
 48
0.1
 73
     0
 77
     1
 78
     8
 79
     2
140
3.5
141
0.0
143
0.0393701
146
0.71
147
1.5
176
   256
177
   256
178
     2
271
     2
272
     2
283
     0
284
     8
288
     1
289
     0
340
11
341
407
342
407
371
    -1
372
    -1
  0
DIMSTYLE
105
83
102
{ACAD_REACTORS
330
F38
102
}
330
A
100
AcDbSymbolTableRecord
100
AcDbDimStyleTableRecord
  2
AM_ISO$4
 70
     0
  4
"
 41
2.5
 42
1.0
 43
10.0
 44
1.0
 47
0.1
 48
0.1
 73
     0
 77
     1
 78
     8
 79
     2
140
3.5
141
0.0
143
0.0393701
146
0.71
147
1.5
176
   256
177
   256
178
     2
271
     2
272
     2
283
     0
284
     8
288
     1
289
     0
340
11
341
407
342
407
371
    -1
372
    -1
  0
DIMSTYLE
105
84
330
A
100
AcDbSymbolTableRecord
100
AcDbDimStyleTableRecord
  2
AM_ISO$6
 70
     0
  4
"
 41
2.5
 42
1.0
 43
10.0
 44
1.0
 47
0.1
 48
0.1
 73
     0
 74
     0
 78
     8
 79
     2
140
3.5
141
0.0
143
0.0393701
146
0.71
147
1.5
172
     1
176
   256
177
   256
178
     2
271
     2
272
     2
283
     0
284
     8
340
11
341
407
342
407
371
    -1
372
    -1
  0
DIMSTYLE
105
85
330
A
100
AcDbSymbolTableRecord
100
AcDbDimStyleTableRecord
  2
AM_ISO$7
 70
     0
  4
"
 41
2.5
 42
1.0
 43
10.0
 44
1.0
 47
0.1
 48
0.1
 73
     0
 74
     0
 77
     1
 78
     8
 79
     2
140
5.0
141
0.0
143
0.0393701
146
0.71
147
1.5
172
     1
176
   256
177
   256
178
     2
271
     2
272
     2
283
     0
284
     8
340
11
341
407
342
407
371
    -1
372
    -1
  0
DIMSTYLE
105
86
330
A
100
AcDbSymbolTableRecord
100
AcDbDimStyleTableRecord
  2
AM_ISO$SF
 70
     0
  4
"
 41
2.5
 42
1.0
 43
10.0
 44
1.0
 47
0.1
 48
0.1
 73
     0
 74
     0
 75
     1
 76
     1
 77
     1
 78
     8
 79
     2
140
3.5
141
0.0
143
0.0393701
146
0.71
147
1.5
172
     1
176
   256
177
   256
178
     2
271
     2
272
     2
283
     0
284
     8
340
11
341
407
342
407
371
    -1
372
    -1
  0
DIMSTYLE
105
8B
330
A
100
AcDbSymbolTableRecord
100
AcDbDimStyleTableRecord
  2
AM_ISO$SH
 70
     0
  4
"
 41
2.5
 42
1.0
 43
10.0
 44
1.0
 47
0.1
 48
0.1
 73
     0
 74
     0
 75
     1
 76
     1
 77
     1
 78
     8
 79
     2
140
3.5
141
0.0
143
0.0393701
144
2.0
146
0.71
147
1.5
172
     1
173
     1
176
   256
177
   256
178
     2
271
     2
272
     2
283
     0
284
     8
340
11
341
407
343
87
344
407
371
    -1
372
    -1
  0
DIMSTYLE
105
5F3
330
A
100
AcDbSymbolTableRecord
100
AcDbDimStyleTableRecord
  2
GEN-ISO
 70
     0
  4
"
 41
2.5
 42
1.0
 43
10.0
 44
1.0
 47
0.1
 48
0.1
 73
     0
 74
     0
 77
     1
 78
     8
140
3.5
141
0.0
143
0.0393701
146
0.71
147
1.5
172
     1
176
   256
177
   256
178
     2
271
     2
272
     3
274
     4
283
     0
340
11
  0
DIMSTYLE
105
5F4
330
A
100
AcDbSymbolTableRecord
100
AcDbDimStyleTableRecord
  2
GEN-ISO$3
 70
     0
  4
"
 41
2.5
 42
1.0
 43
10.0
 44
1.0
 47
0.1
 48
0.1
 73
     0
 77
     1
 78
     8
140
3.5
141
0.0
143
0.0393701
146
0.71
147
1.5
176
   256
177
   256
178
     2
271
     2
272
     3
274
     4
283
     0
288
     1
289
     0
340
11
  0
DIMSTYLE
105
5F5
330
A
100
AcDbSymbolTableRecord
100
AcDbDimStyleTableRecord
  2
GEN-ISO$4
 70
     0
  4
"
 41
2.5
 42
1.0
 43
10.0
 44
1.0
 47
0.1
 48
0.1
 73
     0
 77
     1
 78
     8
140
3.5
141
0.0
143
0.0393701
146
0.71
147
1.5
176
   256
177
   256
178
     2
271
     2
272
     3
274
     4
283
     0
288
     1
289
     0
340
11
  0
DIMSTYLE
105
5F6
330
A
100
AcDbSymbolTableRecord
100
AcDbDimStyleTableRecord
  2
GEN-ISO$6
 70
     0
  4
"
 41
2.5
 42
1.0
 43
10.0
 44
1.0
 47
0.1
 48
0.1
 73
     0
 74
     0
 78
     8
140
3.5
141
0.0
143
0.0393701
146
0.71
147
1.5
176
   256
177
   256
178
     2
271
     2
272
     3
274
     4
283
     0
340
11
  0
DIMSTYLE
105
5F7
330
A
100
AcDbSymbolTableRecord
100
AcDbDimStyleTableRecord
  2
GEN-ISO-POS
 70
     0
  4
"
 41
2.5
 42
1.0
 43
10.0
 44
1.0
 47
0.1
 48
0.1
 73
     0
 74
     0
 78
     8
140
5.0
141
0.0
143
0.0393701
146
0.71
147
1.5
176
   256
177
   256
178
     2
271
     2
272
     3
274
     4
283
     0
340
11
  0
DIMSTYLE
105
5F8
330
A
100
AcDbSymbolTableRecord
100
AcDbDimStyleTableRecord
  2
GEN-ISO-AXE-F
 70
     0
  4
"
 41
2.5
 42
1.0
 43
10.0
 44
1.0
 47
0.1
 48
0.1
 73
     0
 74
     0
 75
     1
 76
     1
 77
     1
 78
     8
140
3.5
141
0.0
143
0.0393701
146
0.71
147
1.5
172
     1
176
   256
177
   256
178
     2
271
     2
272
     3
274
     4
283
     0
340
11
  0
DIMSTYLE
105
5F9
330
A
100
AcDbSymbolTableRecord
100
AcDbDimStyleTableRecord
  2
GEN-ISO-AXE-H
 70
     0
  4
"
 41
2.5
 42
1.0
 43
10.0
 44
1.0
 47
0.1
 48
0.1
 73
     0
 74
     0
 75
     1
 76
     1
 77
     1
 78
     8
140
3.5
141
0.0
143
0.0393701
144
2.0
146
0.71
147
1.5
172
     1
173
     1
176
   256
177
   256
178
     2
271
     2
272
     3
274
     4
283
     0
340
11
  0
DIMSTYLE
105
6C5
330
A
100
AcDbSymbolTableRecord
100
AcDbDimStyleTableRecord
  2
AM_ANSI
 70
     0
  4
mm
 41
0.1
 42
0.05
 43
0.5
 44
0.1
 47
0.1
 48
0.1
 78
     7
 79
     2
140
0.12
141
0.0
146
0.71
147
0.06
176
   256
177
   256
178
     2
274
     4
284
     7
340
11
371
    -1
372
    -1
  0
DIMSTYLE
105
85E
102
{ACAD_REACTORS
330
E8F
330
EB9
330
EDD
330
2C32
330
2C5A
330
2C76
330
46E8
330
470C
330
4768
330
4792
330
48ED
330
4926
330
495F
330
4998
330
49E0
330
4A1A
330
4A40
330
4A5A
102
}
330
A
100
AcDbSymbolTableRecord
100
AcDbDimStyleTableRecord
  2
AM_ISO$0
 70
     0
  4
"
 41
2.5
 42
1.0
 43
10.0
 44
1.0
 47
0.1
 48
0.1
 73
     0
 74
     0
 77
     1
 78
     8
 79
     2
140
3.5
141
0.0
143
0.0393701
146
0.71
147
1.5
172
     1
176
   256
177
   256
178
     2
271
     2
272
     2
283
     0
284
     8
340
11
341
407
342
407
371
    -1
372
    -1
  0
ENDTAB
  0
TABLE
  2
BLOCK_RECORD
  5
1
330
0
100
AcDbSymbolTable
 70
    28
  0
BLOCK_RECORD
  5
1F
102
{ACAD_XDICTIONARY
360
8F
102
}
330
1
100
AcDbSymbolTableRecord
100
AcDbBlockTableRecord
  2
*Model_Space
340
22
  0
BLOCK_RECORD
  5
23
330
1
100
AcDbSymbolTableRecord
100
AcDbBlockTableRecord
  2
*Paper_Space
340
26
  0
BLOCK_RECORD
  5
1B
330
1
100
AcDbSymbolTableRecord
100
AcDbBlockTableRecord
  2
*Paper_Space0
340
1E
  0
BLOCK_RECORD
  5
87
330
1
100
AcDbSymbolTableRecord
100
AcDbBlockTableRecord
  2
GENAXEH
340
0
  0
BLOCK_RECORD
  5
407
330
1
100
AcDbSymbolTableRecord
100
AcDbBlockTableRecord
  2
_Open30
340
0
102
{BLKREFS
331
2E2A
331
2E2B
331
2E33
331
2E34
331
2E3C
331
2E3D
331
2E44
331
2E4A
331
2E50
331
2E51
331
2E59
331
2E5A
331
2E62
331
2E63
331
46F8
331
46F9
331
471C
331
471D
331
4778
331
4779
331
47A2
331
47A3
331
47B0
331
4911
331
4912
331
494A
331
494B
331
49B8
331
49B9
331
49C1
331
49C2
331
4A04
331
4A05
331
4A3A
331
4A3B
331
4A4E
331
4A4F
331
4A68
331
4A69
102
}
  0
BLOCK_RECORD
  5
5FA
102
{ACAD_XDICTIONARY
360
603
102
}
330
1
100
AcDbSymbolTableRecord
100
AcDbBlockTableRecord
  2
TAKACHI-A3
340
0
  0
BLOCK_RECORD
  5
613
102
{ACAD_XDICTIONARY
360
668
102
}
330
1
100
AcDbSymbolTableRecord
100
AcDbBlockTableRecord
  2
TAKACHI-TITLE
340
0
  0
BLOCK_RECORD
  5
6C6
102
{ACAD_XDICTIONARY
360
6CE
102
}
330
1
100
AcDbSymbolTableRecord
100
AcDbBlockTableRecord
  2
TK-A3
340
0
102
{BLKREFS
331
A9A
102
}
  0
BLOCK_RECORD
  5
6D9
102
{ACAD_XDICTIONARY
360
732
102
}
330
1
100
AcDbSymbolTableRecord
100
AcDbBlockTableRecord
  2
TK-TITLE
340
0
102
{BLKREFS
331
A9B
102
}
  0
BLOCK_RECORD
  5
E90
330
1
100
AcDbSymbolTableRecord
100
AcDbBlockTableRecord
  2
*D8
340
0
  0
BLOCK_RECORD
  5
EBA
330
1
100
AcDbSymbolTableRecord
100
AcDbBlockTableRecord
  2
*D9
340
0
  0
BLOCK_RECORD
  5
EDE
330
1
100
AcDbSymbolTableRecord
100
AcDbBlockTableRecord
  2
*D10
340
0
  0
BLOCK_RECORD
  5
EFF
330
1
100
AcDbSymbolTableRecord
100
AcDbBlockTableRecord
  2
*D11
340
0
  0
BLOCK_RECORD
  5
F39
330
1
100
AcDbSymbolTableRecord
100
AcDbBlockTableRecord
  2
*D12
340
0
  0
BLOCK_RECORD
  5
2C33
330
1
100
AcDbSymbolTableRecord
100
AcDbBlockTableRecord
  2
*D13
340
0
  0
BLOCK_RECORD
  5
2C5B
330
1
100
AcDbSymbolTableRecord
100
AcDbBlockTableRecord
  2
*D14
340
0
  0
BLOCK_RECORD
  5
2C77
330
1
100
AcDbSymbolTableRecord
100
AcDbBlockTableRecord
  2
*D15
340
0
  0
BLOCK_RECORD
  5
46E9
330
1
100
AcDbSymbolTableRecord
100
AcDbBlockTableRecord
  2
*D16
340
0
  0
BLOCK_RECORD
  5
470D
330
1
100
AcDbSymbolTableRecord
100
AcDbBlockTableRecord
  2
*D17
340
0
  0
BLOCK_RECORD
  5
4769
330
1
100
AcDbSymbolTableRecord
100
AcDbBlockTableRecord
  2
*D18
340
0
  0
BLOCK_RECORD
  5
4793
330
1
100
AcDbSymbolTableRecord
100
AcDbBlockTableRecord
  2
*D19
340
0
  0
BLOCK_RECORD
  5
48EE
330
1
100
AcDbSymbolTableRecord
100
AcDbBlockTableRecord
  2
*D20
340
0
  0
BLOCK_RECORD
  5
4927
330
1
100
AcDbSymbolTableRecord
100
AcDbBlockTableRecord
  2
*D21
340
0
  0
BLOCK_RECORD
  5
4960
330
1
100
AcDbSymbolTableRecord
100
AcDbBlockTableRecord
  2
*D22
340
0
  0
BLOCK_RECORD
  5
4999
330
1
100
AcDbSymbolTableRecord
100
AcDbBlockTableRecord
  2
*D23
340
0
  0
BLOCK_RECORD
  5
49E1
330
1
100
AcDbSymbolTableRecord
100
AcDbBlockTableRecord
  2
*D24
340
0
  0
BLOCK_RECORD
  5
4A1B
330
1
100
AcDbSymbolTableRecord
100
AcDbBlockTableRecord
  2
*D25
340
0
  0
BLOCK_RECORD
  5
4A41
330
1
100
AcDbSymbolTableRecord
100
AcDbBlockTableRecord
  2
*D26
340
0
  0
BLOCK_RECORD
  5
4A5B
330
1
100
AcDbSymbolTableRecord
100
AcDbBlockTableRecord
  2
*D27
340
0
  0
ENDTAB
  0
ENDSEC
  0
SECTION
  2
BLOCKS
  0
BLOCK
  5
20
330
1F
100
AcDbEntity
  8
0
100
AcDbBlockBegin
  2
*Model_Space
 70
     0
 10
0.0
 20
0.0
 30
0.0
  3
*Model_Space
  1

  0
ENDBLK
  5
21
330
1F
100
AcDbEntity
  8
0
100
AcDbBlockEnd
  0
BLOCK
  5
24
330
23
100
AcDbEntity
 67
     1
  8
0
100
AcDbBlockBegin
  2
*Paper_Space
 70
     0
 10
0.0
 20
0.0
 30
0.0
  3
*Paper_Space
  1

  0
ENDBLK
  5
25
330
23
100
AcDbEntity
 67
     1
  8
0
100
AcDbBlockEnd
  0
BLOCK
  5
1C
330
1B
100
AcDbEntity
  8
0
100
AcDbBlockBegin
  2
*Paper_Space0
 70
     0
 10
0.0
 20
0.0
 30
0.0
  3
*Paper_Space0
  1

  0
VIEWPORT
  5
178
102
{ACAD_XDICTIONARY
360
4ACD
102
}
330
1B
100
AcDbEntity
  8
0
100
AcDbViewport
 10
133.3499908447265
 20
101.5999970436096
 30
0.0
 40
370.2266912936524
 41
228.4221935424805
 69
     0
 12
133.3499908447265
 22
101.5999970436096
 13
0.0
 23
0.0
 14
10.0
 24
10.0
 15
10.0
 25
10.0
 16
0.0
 26
0.0
 36
1.0
 17
0.0
 27
0.0
 37
0.0
 42
50.0
 43
0.0
 44
0.0
 45
228.4221935424805
 50
0.0
 51
0.0
 72
   100
 90
    32800
  1

281
     0
 71
     1
 74
     0
110
0.0
120
0.0
130
0.0
111
1.0
121
0.0
131
0.0
112
0.0
122
1.0
132
0.0
 79
     0
146
0.0
  0
ENDBLK
  5
1D
330
1B
100
AcDbEntity
  8
0
100
AcDbBlockEnd
  0
BLOCK
  5
89
330
87
100
AcDbEntity
  8
0
100
AcDbBlockBegin
  2
GENAXEH
 70
     0
 10
0.0
 20
0.0
 30
0.0
  3
GENAXEH
  1

  0
LINE
  5
88
330
87
100
AcDbEntity
  8
0
100
AcDbLine
 10
-1.0
 20
0.0
 30
0.0
 11
1.0
 21
0.0
 31
0.0
  0
ENDBLK
  5
8A
330
87
100
AcDbEntity
  8
0
100
AcDbBlockEnd
  0
BLOCK
  5
40B
330
407
100
AcDbEntity
  8
0
100
AcDbBlockBegin
  2
_Open30
 70
     0
 10
0.0
 20
0.0
 30
0.0
  3
_Open30
  1

  0
LINE
  5
408
330
407
100
AcDbEntity
  8
0
  6
ByBlock
 62
     0
370
    -2
100
AcDbLine
 10
-1.0
 20
0.26794919
 30
0.0
 11
0.0
 21
0.0
 31
0.0
  0
LINE
  5
409
330
407
100
AcDbEntity
  8
0
  6
ByBlock
 62
     0
370
    -2
100
AcDbLine
 10
0.0
 20
0.0
 30
0.0
 11
-1.0
 21
-0.26794919
 31
0.0
  0
LINE
  5
40A
330
407
100
AcDbEntity
  8
0
  6
ByBlock
 62
     0
370
    -2
100
AcDbLine
 10
0.0
 20
0.0
 30
0.0
 11
-1.0
 21
0.0
 31
0.0
  0
ENDBLK
  5
40C
330
407
100
AcDbEntity
  8
0
100
AcDbBlockEnd
  0
BLOCK
  5
604
330
5FA
100
AcDbEntity
  8
0
100
AcDbBlockBegin
  2
TAKACHI-A3
 70
     0
 10
0.0
 20
0.0
 30
0.0
  3
TAKACHI-A3
  1

  0
LWPOLYLINE
  5
5FB
330
5FA
100
AcDbEntity
  8
0
100
AcDbPolyline
 90
        4
 70
     1
 43
0.0
 10
10.0
 20
0.0
 10
410.0
 20
0.0
 10
410.0
 20
280.0
 10
10.00000000000003
 20
280.0
1001
GENIUS_GENREC_14
1002
{
1000
PYDIR
1011
10.00000000000001
1021
280.0
1031
0.0
1002
}
1002
{
1000
PXDIR
1011
410.0
1021
0.0
1031
0.0
1002
}
1002
{
1000
PORI
1011
10.0
1021
0.0
1031
0.0
1002
}
1002
{
1000
PINS
1011
210.0
1021
139.9999999999999
1031
0.0
1002
}
1002
{
1000
HVAL
1000
280
1002
}
1002
{
1000
H
1070
     2
1002
}
1002
{
1000
WVAL
1000
400
1002
}
1002
{
1000
W
1070
     2
1002
}
1002
{
1000
C
1070
     4
1002
}
1001
GENIUS_GENODEF_13
1002
{
1000
HIER
1070
     0
1002
}
1002
{
1000
MANEDIT
1070
     0
1002
}
1002
{
1000
NOSEL
1070
     0
1002
}
1002
{
1000
BEHIND
1070
     0
1002
}
1002
{
1000
REACTOR
1002
}
1001
GENIUS_GENOBJ-N-REC_13
1002
{
1000
OWNER
1000
GEN
1002
}
  0
TEXT
  5
5FC
330
5FA
100
AcDbEntity
  8
0
 60
     1
100
AcDbText
 10
15.00000000000003
 20
50.0
 30
0.0
 40
2.5
  1
!GENTITLE-LL
100
AcDbText
  0
TEXT
  5
5FD
330
5FA
100
AcDbEntity
  8
0
 60
     1
100
AcDbText
 10
410.0
 20
0.0
 30
0.0
 40
2.5
  1
!GENTITLE-INSERT
100
AcDbText
  0
TEXT
  5
5FE
330
5FA
100
AcDbEntity
  8
0
 60
     1
100
AcDbText
 10
405.0
 20
275.0
 30
0.0
 40
2.5
  1
!GENTITLE-RU
100
AcDbText
  0
TEXT
  5
5FF
330
5FA
100
AcDbEntity
  8
0
 60
     1
100
AcDbText
 10
410.0
 20
280.0
 30
0.0
 40
2.5
  1
!GENTITLE-MAX
100
AcDbText
  0
LINE
  5
600
330
5FA
100
AcDbEntity
  8
0
100
AcDbLine
 10
366.0
 20
275.0
 30
0.0
 11
410.0
 21
275.0
 31
0.0
  0
MTEXT
  5
601
330
5FA
100
AcDbEntity
  8
0
100
AcDbMText
 10
409.3592953827348
 20
276.108542987227
 30
0.0
 40
2.5
 41
43.07840397728298
 71
     9
 72
     5
  1
(文書番号：TY-34)2004.10.29
 73
     1
 44
1.0
1001
ACAD
1000
MTEXTBEGIN
1070
    73
1070
     1
1070
    44
1040
1.0
1070
    74
1070
     0
1000
MTEXTEND
  0
LINE
  5
602
330
5FA
100
AcDbEntity
  8
0
100
AcDbLine
 10
366.0
 20
280.0
 30
0.0
 11
366.0
 21
275.0
 31
0.0
  0
ENDBLK
  5
605
330
5FA
100
AcDbEntity
  8
0
100
AcDbBlockEnd
  0
BLOCK
  5
669
330
613
100
AcDbEntity
  8
0
100
AcDbBlockBegin
  2
TAKACHI-TITLE
 70
     2
 10
0.0
 20
0.0
 30
0.0
  3
TAKACHI-TITLE
  1

  0
LINE
  5
614
330
613
100
AcDbEntity
  8
RAHM2
100
AcDbLine
 10
-195.0
 20
30.00000000000003
 30
0.0
 11
-94.0
 21
30.00000000000003
 31
0.0
  0
LINE
  5
615
330
613
100
AcDbEntity
  8
RAHM2
100
AcDbLine
 10
-195.0
 20
35.00000000000003
 30
0.0
 11
-94.0
 21
35.00000000000003
 31
0.0
  0
LINE
  5
616
330
613
100
AcDbEntity
  8
RAHM2
100
AcDbLine
 10
-195.0
 20
40.00000000000002
 30
0.0
 11
-94.0
 21
40.00000000000002
 31
0.0
  0
LINE
  5
617
330
613
100
AcDbEntity
  8
RAHM2
100
AcDbLine
 10
-195.0
 20
45.00000000000002
 30
0.0
 11
-94.0
 21
45.00000000000002
 31
0.0
  0
LINE
  5
618
330
613
100
AcDbEntity
  8
0
100
AcDbLine
 10
-195.0
 20
7.0
 30
0.0
 11
-94.0
 21
7.0
 31
0.0
  0
LINE
  5
619
330
613
100
AcDbEntity
  8
0
100
AcDbLine
 10
-195.0
 20
19.99999999999997
 30
0.0
 11
-94.0
 21
19.99999999999997
 31
0.0
  0
ATTDEF
  5
61A
330
613
100
AcDbEntity
  8
0
100
AcDbText
 10
-183.2438527145607
 20
8.950850524428082
 30
0.0
 40
2.5
  1

 11
-183.2438527145607
 21
8.617517191094748
 31
0.0
100
AcDbAttributeDefinition
  3
サブタイトル
  2
GEN-TITLE-DES2
 70
     0
 74
     1
  0
ATTDEF
  5
61B
330
613
100
AcDbEntity
  8
0
100
AcDbText
 10
-183.2438527145607
 20
2.017517191094748
 30
0.0
 40
3.0
  1

 11
-183.2438527145607
 21
1.617517191094748
 31
0.0
100
AcDbAttributeDefinition
  3
図番
  2
GEN-TITLE-NR
 70
     0
 74
     1
  0
MTEXT
  5
61C
330
613
100
AcDbEntity
  8
RAHM2
100
AcDbMText
 10
-193.8002551371314
 20
5.801035407279641
 30
0.0
 40
2.5
 41
90.0
 71
     1
 72
     5
  1
図番
 73
     1
 44
1.0
1001
ACAD
1000
MTEXTBEGIN
1070
    73
1070
     1
1070
    44
1040
1.0
1070
    74
1070
     0
1000
MTEXTEND
  0
ATTDEF
  5
61D
330
613
100
AcDbEntity
  8
0
100
AcDbText
 10
-183.2438527145607
 20
14.40728619501834
 30
0.0
 40
4.0
  1

 11
-183.2438527145607
 21
13.87395286168501
 31
0.0
100
AcDbAttributeDefinition
  3
品名
  2
GEN-TITLE-DES1
 70
     0
 74
     1
  0
LINE
  5
61E
330
613
100
AcDbEntity
  8
RAHM2
100
AcDbLine
 10
-187.5751288694036
 20
30.40000000000004
 30
0.0
 11
-190.0
 21
34.60000000000003
 31
0.0
  0
LINE
  5
61F
330
613
100
AcDbEntity
  8
RAHM2
100
AcDbLine
 10
-190.0
 20
34.60000000000003
 30
0.0
 11
-192.4248711305964
 21
30.40000000000004
 31
0.0
  0
LINE
  5
620
330
613
100
AcDbEntity
  8
RAHM2
100
AcDbLine
 10
-185.0
 20
50.00000000000003
 30
0.0
 11
-185.0
 21
19.99999999999994
 31
0.0
  0
LINE
  5
621
330
613
100
AcDbEntity
  8
RAHM2
100
AcDbLine
 10
-192.4248711305964
 20
30.40000000000004
 30
0.0
 11
-187.5751288694036
 21
30.40000000000004
 31
0.0
  0
MTEXT
  5
622
330
613
100
AcDbEntity
  8
RAHM2
100
AcDbMText
 10
-190.0
 20
22.49999999999997
 30
0.0
 40
2.5
 41
10.0
 71
     5
 72
     5
  1
符号
 73
     1
 44
1.0
1001
ACAD
1000
MTEXTBEGIN
1070
    73
1070
     1
1070
    44
1040
1.0
1070
    74
1070
     0
1000
MTEXTEND
  0
MTEXT
  5
623
330
613
100
AcDbEntity
  8
RAHM2
100
AcDbMText
 10
-193.8002551371314
 20
18.80103540727961
 30
0.0
 40
2.5
 41
90.0
 71
     1
 72
     5
  1
品名
 73
     1
 44
1.0
1001
ACAD
1000
MTEXTBEGIN
1070
    73
1070
     1
1070
    44
1040
1.0
1070
    74
1070
     0
1000
MTEXTEND
  0
LINE
  5
624
330
613
100
AcDbEntity
  8
RAHM2
100
AcDbLine
 10
-192.4248711305964
 20
45.40000000000003
 30
0.0
 11
-187.5751288694036
 21
45.40000000000003
 31
0.0
  0
LINE
  5
625
330
613
100
AcDbEntity
  8
RAHM2
100
AcDbLine
 10
-187.5751288694036
 20
45.40000000000003
 30
0.0
 11
-190.0
 21
49.60000000000002
 31
0.0
  0
LINE
  5
626
330
613
100
AcDbEntity
  8
RAHM2
100
AcDbLine
 10
-192.4248711305964
 20
40.40000000000003
 30
0.0
 11
-187.5751288694036
 21
40.40000000000003
 31
0.0
  0
LINE
  5
627
330
613
100
AcDbEntity
  8
RAHM2
100
AcDbLine
 10
-187.5751288694036
 20
40.40000000000003
 30
0.0
 11
-190.0
 21
44.60000000000002
 31
0.0
  0
LINE
  5
628
330
613
100
AcDbEntity
  8
RAHM2
100
AcDbLine
 10
-192.4248711305964
 20
35.40000000000004
 30
0.0
 11
-187.5751288694036
 21
35.40000000000004
 31
0.0
  0
LINE
  5
629
330
613
100
AcDbEntity
  8
RAHM2
100
AcDbLine
 10
-187.5751288694036
 20
35.40000000000004
 30
0.0
 11
-190.0
 21
39.60000000000002
 31
0.0
  0
LINE
  5
62A
330
613
100
AcDbEntity
  8
RAHM2
100
AcDbLine
 10
-190.0
 20
39.60000000000002
 30
0.0
 11
-192.4248711305964
 21
35.40000000000004
 31
0.0
  0
LINE
  5
62B
330
613
100
AcDbEntity
  8
RAHM2
100
AcDbLine
 10
-190.0
 20
44.60000000000002
 30
0.0
 11
-192.4248711305964
 21
40.40000000000003
 31
0.0
  0
LINE
  5
62C
330
613
100
AcDbEntity
  8
RAHM2
100
AcDbLine
 10
-190.0
 20
49.60000000000002
 30
0.0
 11
-192.4248711305964
 21
45.40000000000003
 31
0.0
  0
LINE
  5
62D
330
613
100
AcDbEntity
  8
RAHM2
100
AcDbLine
 10
-129.0
 20
50.00000000000003
 30
0.0
 11
-129.0
 21
19.99999999999994
 31
0.0
  0
MTEXT
  5
62E
330
613
100
AcDbEntity
  8
RAHM2
100
AcDbMText
 10
-157.1448171868856
 20
22.49999999999997
 30
0.0
 40
2.5
 41
45.0
 71
     5
 72
     5
  1
変更記事
 73
     1
 44
1.0
1001
ACAD
1000
MTEXTBEGIN
1070
    73
1070
     1
1070
    44
1040
1.0
1070
    74
1070
     0
1000
MTEXTEND
  0
LINE
  5
62F
330
613
100
AcDbEntity
  8
0
100
AcDbLine
 10
-34.0
 20
50.0
 30
0.0
 11
-34.0
 21
0.0
 31
0.0
  0
LINE
  5
630
330
613
100
AcDbEntity
  8
0
100
AcDbLine
 10
-94.0
 20
50.0
 30
0.0
 11
-94.0
 21
0.0
 31
0.0
  0
MTEXT
  5
631
330
613
100
AcDbEntity
  8
0
100
AcDbMText
 10
-64.0
 20
5.0
 30
0.0
 40
3.5
 41
60.0
 71
     5
 72
     5
  1
\fＭＳ ゴシック|b0|i0|c128|p49;株式会社タカチ電機工業
 73
     1
 44
1.0
1001
ACAD
1000
MTEXTBEGIN
1070
    73
1070
     1
1070
    44
1040
1.0
1070
    74
1070
     0
1000
MTEXTEND
  0
LINE
  5
632
330
613
100
AcDbEntity
  8
0
100
AcDbLine
 10
-94.0
 20
10.0
 30
0.0
 11
-34.0
 21
10.0
 31
0.0
  0
ATTDEF
  5
633
330
613
100
AcDbEntity
  8
0
100
AcDbText
 10
-58.01405119799745
 20
39.25500556178349
 30
0.0
 40
3.0
  1

 72
     2
 11
-58.01405119799745
 21
39.25500556178349
 31
0.0
100
AcDbAttributeDefinition
  3
尺度
  2
GEN-TITLE-SCA
 70
     0
  0
ATTDEF
  5
634
330
613
100
AcDbEntity
  8
0
100
AcDbText
 10
-77.00284966649007
 20
31.02180787943475
 30
0.0
 40
3.0
  1

 11
-77.00284966649007
 21
30.62180787943475
 31
0.0
100
AcDbAttributeDefinition
  3
材質
  2
GEN-TITLE-MAT1
 70
     0
 74
     1
  0
ATTDEF
  5
635
330
613
100
AcDbEntity
  8
0
100
AcDbText
 10
-77.00284966649007
 20
21.02180787943475
 30
0.0
 40
3.0
  1

 11
-77.00284966649007
 21
20.62180787943475
 31
0.0
100
AcDbAttributeDefinition
  3
表面処理
  2
GEN-TITLE-MAT2
 70
     0
 74
     1
  0
ATTDEF
  5
636
330
613
100
AcDbEntity
  8
0
100
AcDbText
 10
-77.00284966649007
 20
12.01751719109475
 30
0.0
 40
3.0
  1

 11
-77.00284966649007
 21
11.61751719109475
 31
0.0
100
AcDbAttributeDefinition
  3
日付
  2
GEN-TITLE-DAT
 70
     0
 74
     1
  0
LINE
  5
637
330
613
100
AcDbEntity
  8
0
100
AcDbLine
 10
-94.0
 20
37.5
 30
0.0
 11
-34.0
 21
37.5
 31
0.0
  0
LINE
  5
638
330
613
100
AcDbEntity
  8
0
100
AcDbLine
 10
-94.0
 20
27.5
 30
0.0
 11
-34.0
 21
27.5
 31
0.0
  0
LINE
  5
639
330
613
100
AcDbEntity
  8
0
100
AcDbLine
 10
-94.0
 20
17.5
 30
0.0
 11
-34.0
 21
17.5
 31
0.0
  0
LINE
  5
63A
330
613
100
AcDbEntity
  8
RAHM2
100
AcDbLine
 10
-109.0
 20
50.00000000000003
 30
0.0
 11
-109.0
 21
19.99999999999994
 31
0.0
  0
MTEXT
  5
63B
330
613
100
AcDbEntity
  8
RAHM2
100
AcDbMText
 10
-119.4582894723942
 20
32.50000000000003
 30
0.0
 40
2.5
 41
20.0
 71
     5
 72
     5
  1
・  ・   
 73
     1
 44
1.0
1001
ACAD
1000
MTEXTBEGIN
1070
    73
1070
     1
1070
    44
1040
1.0
1070
    74
1070
     0
1000
MTEXTEND
  0
MTEXT
  5
63C
330
613
100
AcDbEntity
  8
RAHM2
100
AcDbMText
 10
-118.738119805002
 20
22.49999999999997
 30
0.0
 40
2.5
 41
20.0
 71
     5
 72
     5
  1
年・月・日
 73
     1
 44
1.0
1001
ACAD
1000
MTEXTBEGIN
1070
    73
1070
     1
1070
    44
1040
1.0
1070
    74
1070
     0
1000
MTEXTEND
  0
MTEXT
  5
63D
330
613
100
AcDbEntity
  8
RAHM2
100
AcDbMText
 10
-101.5
 20
22.49999999999997
 30
0.0
 40
2.5
 41
15.0
 71
     5
 72
     5
  1
担当
 73
     1
 44
1.0
1001
ACAD
1000
MTEXTBEGIN
1070
    73
1070
     1
1070
    44
1040
1.0
1070
    74
1070
     0
1000
MTEXTEND
  0
MTEXT
  5
63E
330
613
100
AcDbEntity
  8
RAHM2
100
AcDbMText
 10
-119.4582894723942
 20
42.50000000000002
 30
0.0
 40
2.5
 41
20.0
 71
     5
 72
     5
  1
・  ・   
 73
     1
 44
1.0
1001
ACAD
1000
MTEXTBEGIN
1070
    73
1070
     1
1070
    44
1040
1.0
1070
    74
1070
     0
1000
MTEXTEND
  0
MTEXT
  5
63F
330
613
100
AcDbEntity
  8
RAHM2
100
AcDbMText
 10
-119.4582894723942
 20
37.50000000000003
 30
0.0
 40
2.5
 41
20.0
 71
     5
 72
     5
  1
・  ・   
 73
     1
 44
1.0
1001
ACAD
1000
MTEXTBEGIN
1070
    73
1070
     1
1070
    44
1040
1.0
1070
    74
1070
     0
1000
MTEXTEND
  0
MTEXT
  5
640
330
613
100
AcDbEntity
  8
RAHM2
100
AcDbMText
 10
-119.4582894723942
 20
47.50000000000002
 30
0.0
 40
2.5
 41
20.0
 71
     5
 72
     5
  1
・  ・   
 73
     1
 44
1.0
1001
ACAD
1000
MTEXTBEGIN
1070
    73
1070
     1
1070
    44
1040
1.0
1070
    74
1070
     0
1000
MTEXTEND
  0
MTEXT
  5
641
330
613
100
AcDbEntity
  8
RAHM2
100
AcDbMText
 10
-92.80025513713145
 20
16.30103540727964
 30
0.0
 40
2.5
 41
60.0
 71
     1
 72
     5
  1
日付
 73
     1
 44
1.0
1001
ACAD
1000
MTEXTBEGIN
1070
    73
1070
     1
1070
    44
1040
1.0
1070
    74
1070
     0
1000
MTEXTEND
  0
MTEXT
  5
642
330
613
100
AcDbEntity
  8
RAHM2
100
AcDbMText
 10
-92.80025513713145
 20
26.30103540727964
 30
0.0
 40
2.5
 41
60.0
 71
     1
 72
     5
  1
表面処理
 73
     1
 44
1.0
1001
ACAD
1000
MTEXTBEGIN
1070
    73
1070
     1
1070
    44
1040
1.0
1070
    74
1070
     0
1000
MTEXTEND
  0
LINE
  5
643
330
613
100
AcDbEntity
  8
7A
100
AcDbLine
 10
-89.0
 20
43.75
 30
0.0
 11
-75.2186915997147
 21
43.75
 31
0.0
1001
GENIUS_GENOREF_13
1005
656
  0
LINE
  5
644
330
613
100
AcDbEntity
  8
0
100
AcDbLine
 10
-84.0
 20
45.75
 30
0.0
 11
-76.0
 21
46.74999999999999
 31
0.0
  0
LINE
  5
645
330
613
100
AcDbEntity
  8
0
100
AcDbLine
 10
-76.0
 20
40.75
 30
0.0
 11
-84.0
 21
41.74999999999999
 31
0.0
  0
LINE
  5
646
330
613
100
AcDbEntity
  8
7A
100
AcDbLine
 10
-89.0
 20
43.75
 30
0.0
 11
-89.0
 21
47.32478664473148
 31
0.0
1001
GENIUS_GENOREF_13
1005
656
  0
CIRCLE
  5
647
330
613
100
AcDbEntity
  8
0
100
AcDbCircle
 10
-89.0
 20
43.75
 30
0.0
 40
2.0
  0
CIRCLE
  5
648
330
613
100
AcDbEntity
  8
0
100
AcDbCircle
 10
-89.0
 20
43.75
 30
0.0
 40
3.0
  0
LINE
  5
649
330
613
100
AcDbEntity
  8
0
100
AcDbLine
 10
-84.0
 20
41.74999999999999
 30
0.0
 11
-84.0
 21
45.75
 31
0.0
  0
MTEXT
  5
64A
330
613
100
AcDbEntity
  8
RAHM2
100
AcDbMText
 10
-92.80025513713145
 20
36.30103540727964
 30
0.0
 40
2.5
 41
60.0
 71
     1
 72
     5
  1
材質
 73
     1
 44
1.0
1001
ACAD
1000
MTEXTBEGIN
1070
    73
1070
     1
1070
    44
1040
1.0
1070
    74
1070
     0
1000
MTEXTEND
  0
LINE
  5
64B
330
613
100
AcDbEntity
  8
7A
100
AcDbLine
 10
-89.0
 20
43.75
 30
0.0
 11
-92.72303737125117
 21
43.75
 31
0.0
1001
GENIUS_GENOREF_13
1005
656
  0
LINE
  5
64C
330
613
100
AcDbEntity
  8
7A
100
AcDbLine
 10
-89.0
 20
43.75
 30
0.0
 11
-89.0
 21
40.03991724228479
 31
0.0
1001
GENIUS_GENOREF_13
1005
656
  0
LINE
  5
64D
330
613
100
AcDbEntity
  8
0
100
AcDbLine
 10
-76.0
 20
46.74999999999999
 30
0.0
 11
-76.0
 21
40.75
 31
0.0
  0
LINE
  5
64E
330
613
100
AcDbEntity
  8
0
100
AcDbLine
 10
-74.0
 20
50.0
 30
0.0
 11
-74.0
 21
37.5
 31
0.0
  0
MTEXT
  5
64F
330
613
100
AcDbEntity
  8
RAHM2
100
AcDbMText
 10
-72.80025513713145
 20
48.80103540727964
 30
0.0
 40
2.5
 41
20.0
 71
     1
 72
     5
  1
尺度
 73
     1
 44
1.0
1001
ACAD
1000
MTEXTBEGIN
1070
    73
1070
     1
1070
    44
1040
1.0
1070
    74
1070
     0
1000
MTEXTEND
  0
ATTDEF
  5
650
330
613
100
AcDbEntity
  8
0
100
AcDbText
 10
-37.76317379391503
 20
39.25500556178349
 30
0.0
 40
3.0
  1

 72
     2
 11
-37.76317379391503
 21
39.25500556178349
 31
0.0
100
AcDbAttributeDefinition
  3
数量
  2
GEN-TITLE-QTY
 70
     0
  0
LINE
  5
651
330
613
100
AcDbEntity
  8
0
100
AcDbLine
 10
-34.0
 20
25.0
 30
0.0
 11
0.0
 21
25.0
 31
0.0
  0
LINE
  5
652
330
613
100
AcDbEntity
  8
0
100
AcDbLine
 10
-54.0
 20
50.0
 30
0.0
 11
-54.0
 21
37.5
 31
0.0
  0
MTEXT
  5
653
330
613
100
AcDbEntity
  8
RAHM2
100
AcDbMText
 10
-52.80025513713145
 20
48.80103540727964
 30
0.0
 40
2.5
 41
20.0
 71
     1
 72
     5
  1
数量
 73
     1
 44
1.0
1001
ACAD
1000
MTEXTBEGIN
1070
    73
1070
     1
1070
    44
1040
1.0
1070
    74
1070
     0
1000
MTEXTEND
  0
MTEXT
  5
654
330
613
100
AcDbEntity
  8
RAHM2
100
AcDbMText
 10
-25.5
 20
23.80103540727964
 30
0.0
 40
2.5
 41
17.0
 71
     2
 72
     5
  1
承認
 73
     1
 44
1.0
1001
ACAD
1000
MTEXTBEGIN
1070
    73
1070
     1
1070
    44
1040
1.0
1070
    74
1070
     0
1000
MTEXTEND
  0
MTEXT
  5
655
330
613
100
AcDbEntity
  8
RAHM2
100
AcDbMText
 10
-25.5
 20
48.80103540727964
 30
0.0
 40
2.5
 41
17.0
 71
     2
 72
     5
  1
承認
 73
     1
 44
1.0
1001
ACAD
1000
MTEXTBEGIN
1070
    73
1070
     1
1070
    44
1040
1.0
1070
    74
1070
     0
1000
MTEXTEND
  0
POINT
  5
656
330
613
100
AcDbEntity
  8
0
 60
     1
100
AcDbPoint
 10
-320.5355579819676
 20
-138.1104841268254
 30
0.0
1001
GENIUS_GENODEF_13
1002
{
1000
HIER
1070
    10
1002
}
1002
{
1000
MANEDIT
1070
     0
1002
}
1002
{
1000
NOSEL
1070
     0
1002
}
1002
{
1000
BEHIND
1070
     0
1002
}
1002
{
1000
REACTOR
1002
}
1001
GENIUS_GENOBJ-N-CRS_13
1002
{
1000
OWNER
1000
GEN
1002
}
1001
GENIUS_GENOENT_13
1002
{
1000
MYREF
1005
656
1002
}
1002
{
1000
GRP
1005
0
1002
}
1001
GENIUS_GENOLIS_13
1002
{
1000
ENT
1005
64C
1005
64B
1005
646
1005
643
1002
}
  0
LINE
  5
657
330
613
100
AcDbEntity
  8
RAHM2
100
AcDbLine
 10
-190.0
 20
29.60000000000002
 30
0.0
 11
-192.4248711305964
 21
25.40000000000004
 31
0.0
  0
LINE
  5
658
330
613
100
AcDbEntity
  8
RAHM2
100
AcDbLine
 10
-187.5751288694036
 20
25.40000000000004
 30
0.0
 11
-190.0
 21
29.60000000000002
 31
0.0
  0
LINE
  5
659
330
613
100
AcDbEntity
  8
RAHM2
100
AcDbLine
 10
-192.4248711305964
 20
25.40000000000004
 30
0.0
 11
-187.5751288694036
 21
25.40000000000004
 31
0.0
  0
LINE
  5
65A
330
613
100
AcDbEntity
  8
RAHM2
100
AcDbLine
 10
-195.0
 20
25.00000000000003
 30
0.0
 11
-94.0
 21
25.00000000000003
 31
0.0
  0
MTEXT
  5
65B
330
613
100
AcDbEntity
  8
RAHM2
100
AcDbMText
 10
-119.4582894723942
 20
27.50000000000003
 30
0.0
 40
2.5
 41
20.0
 71
     5
 72
     5
  1
・  ・   
 73
     1
 44
1.0
1001
ACAD
1000
MTEXTBEGIN
1070
    73
1070
     1
1070
    44
1040
1.0
1070
    74
1070
     0
1000
MTEXTEND
  0
TEXT
  5
65C
330
613
100
AcDbEntity
  8
RAHM2
100
AcDbText
 10
-190.8155863565801
 20
25.98333333333337
 30
0.0
 40
2.5
  1
1
 72
     1
 11
-190.1905863565802
 21
25.65000000000003
 31
0.0
100
AcDbText
 73
     1
  0
TEXT
  5
65D
330
613
100
AcDbEntity
  8
RAHM2
100
AcDbText
 10
-190.9183316929134
 20
30.98333333333337
 30
0.0
 40
2.5
  1
2
 72
     1
 11
-190.0
 21
30.65000000000003
 31
0.0
100
AcDbText
 73
     1
  0
TEXT
  5
65E
330
613
100
AcDbEntity
  8
RAHM2
100
AcDbText
 10
-190.9267766952966
 20
35.98333333333334
 30
0.0
 40
2.5
  1
3
 72
     1
 11
-190.0
 21
35.65000000000001
 31
0.0
100
AcDbText
 73
     1
  0
TEXT
  5
65F
330
613
100
AcDbEntity
  8
RAHM2
100
AcDbText
 10
-191.0
 20
40.98333333333337
 30
0.0
 40
2.5
  1
4
 72
     1
 11
-190.0
 21
40.65000000000003
 31
0.0
100
AcDbText
 73
     1
  0
TEXT
  5
660
330
613
100
AcDbEntity
  8
RAHM2
100
AcDbText
 10
-190.9267766952966
 20
45.98333333333337
 30
0.0
 40
2.5
  1
5
 72
     1
 11
-190.0
 21
45.65000000000003
 31
0.0
100
AcDbText
 73
     1
  0
LINE
  5
661
330
613
100
AcDbEntity
  8
0
100
AcDbLine
 10
-17.0
 20
50.0
 30
0.0
 11
-17.0
 21
0.0
 31
0.0
  0
LINE
  5
662
330
613
100
AcDbEntity
  8
0
100
AcDbLine
 10
-195.0
 20
0.0
 30
0.0
 11
0.0
 21
0.0
 31
0.0
1001
GENIUS_GENREC_14
1002
{
1000
PYDIR
1011
-184.0
1021
50.0
1031
0.0
1002
}
1002
{
1000
PXDIR
1011
0.0
1021
0.0
1031
0.0
1002
}
1002
{
1000
PORI
1011
-184.0
1021
0.0
1031
0.0
1002
}
1002
{
1000
PINS
1011
-100.5
1021
25.0
1031
0.0
1002
}
1002
{
1000
HVAL
1000
50
1002
}
1002
{
1000
H
1070
     2
1002
}
1002
{
1000
WVAL
1000
167
1002
}
1002
{
1000
W
1070
     2
1002
}
1002
{
1000
C
1070
     4
1002
}
1001
GENIUS_GENODEF_13
1002
{
1000
HIER
1070
     0
1002
}
1002
{
1000
MANEDIT
1070
     0
1002
}
1002
{
1000
NOSEL
1070
     0
1002
}
1002
{
1000
BEHIND
1070
     0
1002
}
1002
{
1000
REACTOR
1002
}
1001
GENIUS_GENOBJ-N-REC_13
1002
{
1000
OWNER
1000
GEN
1002
}
  0
LINE
  5
663
330
613
100
AcDbEntity
  8
0
100
AcDbLine
 10
0.0
 20
0.0
 30
0.0
 11
0.0
 21
50.0
 31
0.0
1001
GENIUS_GENREC_14
1002
{
1000
PYDIR
1011
-184.0
1021
50.0
1031
0.0
1002
}
1002
{
1000
PXDIR
1011
0.0
1021
0.0
1031
0.0
1002
}
1002
{
1000
PORI
1011
-184.0
1021
0.0
1031
0.0
1002
}
1002
{
1000
PINS
1011
-100.5
1021
25.0
1031
0.0
1002
}
1002
{
1000
HVAL
1000
50
1002
}
1002
{
1000
H
1070
     2
1002
}
1002
{
1000
WVAL
1000
167
1002
}
1002
{
1000
W
1070
     2
1002
}
1002
{
1000
C
1070
     4
1002
}
1001
GENIUS_GENODEF_13
1002
{
1000
HIER
1070
     0
1002
}
1002
{
1000
MANEDIT
1070
     0
1002
}
1002
{
1000
NOSEL
1070
     0
1002
}
1002
{
1000
BEHIND
1070
     0
1002
}
1002
{
1000
REACTOR
1002
}
1001
GENIUS_GENOBJ-N-REC_13
1002
{
1000
OWNER
1000
GEN
1002
}
  0
LINE
  5
664
330
613
100
AcDbEntity
  8
0
100
AcDbLine
 10
0.0
 20
50.0
 30
0.0
 11
-195.0
 21
50.00000000000003
 31
0.0
1001
GENIUS_GENREC_14
1002
{
1000
PYDIR
1011
-184.0
1021
50.0
1031
0.0
1002
}
1002
{
1000
PXDIR
1011
0.0
1021
0.0
1031
0.0
1002
}
1002
{
1000
PORI
1011
-184.0
1021
0.0
1031
0.0
1002
}
1002
{
1000
PINS
1011
-100.5
1021
25.0
1031
0.0
1002
}
1002
{
1000
HVAL
1000
50
1002
}
1002
{
1000
H
1070
     2
1002
}
1002
{
1000
WVAL
1000
167
1002
}
1002
{
1000
W
1070
     2
1002
}
1002
{
1000
C
1070
     4
1002
}
1001
GENIUS_GENODEF_13
1002
{
1000
HIER
1070
     0
1002
}
1002
{
1000
MANEDIT
1070
     0
1002
}
1002
{
1000
NOSEL
1070
     0
1002
}
1002
{
1000
BEHIND
1070
     0
1002
}
1002
{
1000
REACTOR
1002
}
1001
GENIUS_GENOBJ-N-REC_13
1002
{
1000
OWNER
1000
GEN
1002
}
  0
LINE
  5
665
330
613
100
AcDbEntity
  8
0
100
AcDbLine
 10
-195.0
 20
50.00000000000003
 30
0.0
 11
-195.0
 21
0.0
 31
0.0
1001
GENIUS_GENREC_14
1002
{
1000
PYDIR
1011
-195.0
1021
50.0
1031
0.0
1002
}
1002
{
1000
PXDIR
1011
-11.0
1021
0.0
1031
0.0
1002
}
1002
{
1000
PORI
1011
-195.0
1021
0.0
1031
0.0
1002
}
1002
{
1000
PINS
1011
-111.5
1021
25.0
1031
0.0
1002
}
1002
{
1000
HVAL
1000
50
1002
}
1002
{
1000
H
1070
     2
1002
}
1002
{
1000
WVAL
1000
167
1002
}
1002
{
1000
W
1070
     2
1002
}
1002
{
1000
C
1070
     4
1002
}
1001
GENIUS_GENODEF_13
1002
{
1000
HIER
1070
     0
1002
}
1002
{
1000
MANEDIT
1070
     0
1002
}
1002
{
1000
NOSEL
1070
     0
1002
}
1002
{
1000
BEHIND
1070
     0
1002
}
1002
{
1000
REACTOR
1002
}
1001
GENIUS_GENOBJ-N-REC_13
1002
{
1000
OWNER
1000
GEN
1002
}
  0
MTEXT
  5
666
330
613
100
AcDbEntity
  8
RAHM2
100
AcDbMText
 10
-8.5
 20
48.80103540727964
 30
0.0
 40
2.5
 41
17.0
 71
     2
 72
     5
  1
検図
 73
     1
 44
1.0
1001
ACAD
1000
MTEXTBEGIN
1070
    73
1070
     1
1070
    44
1040
1.0
1070
    74
1070
     0
1000
MTEXTEND
  0
MTEXT
  5
667
330
613
100
AcDbEntity
  8
RAHM2
100
AcDbMText
 10
-8.5
 20
23.80103540727964
 30
0.0
 40
2.5
 41
17.0
 71
     2
 72
     5
  1
製図
 73
     1
 44
1.0
1001
ACAD
1000
MTEXTBEGIN
1070
    73
1070
     1
1070
    44
1040
1.0
1070
    74
1070
     0
1000
MTEXTEND
  0
ENDBLK
  5
66A
330
613
100
AcDbEntity
  8
0
100
AcDbBlockEnd
  0
BLOCK
  5
6CF
330
6C6
100
AcDbEntity
  8
0
100
AcDbBlockBegin
  2
TK-A3
 70
     0
 10
0.0
 20
0.0
 30
0.0
  3
TK-A3
  1

  0
LWPOLYLINE
  5
6C7
330
6C6
100
AcDbEntity
  8
0
100
AcDbPolyline
 90
        4
 70
     1
 43
0.0
 10
0.0
 20
0.0
 10
403.0
 20
0.0
 10
403.0
 20
280.0
 10
0.0
 20
280.0000000000001
1001
GENIUS_GENREC_14
1002
{
1000
PYDIR
1011
0.0000000000000178
1021
280.0
1031
0.0
1002
}
1002
{
1000
PXDIR
1011
403.0
1021
0.0
1031
0.0
1002
}
1002
{
1000
PORI
1011
0.0
1021
0.0
1031
0.0
1002
}
1002
{
1000
PINS
1011
0.0
1021
0.0
1031
0.0
1002
}
1002
{
1000
PINS2
1011
403.0
1021
280.0
1031
0.0
1002
}
1002
{
1000
C
1070
     1
1002
}
1001
GENIUS_GENODEF_13
1002
{
1000
HIER
1070
     0
1002
}
1002
{
1000
MANEDIT
1070
     0
1002
}
1002
{
1000
NOSEL
1070
     0
1002
}
1002
{
1000
BEHIND
1070
     0
1002
}
1002
{
1000
OTHER
1070
     0
1002
}
1002
{
1000
REACTOR
1002
}
1001
GENIUS_GENOBJ-N-REC_13
1002
{
1000
OWNER
1000
GEN
1002
}
  0
TEXT
  5
6C8
330
6C6
100
AcDbEntity
  8
0
 60
     1
100
AcDbText
 10
403.0
 20
280.0
 30
0.0
 40
2.5
  1
!GENTITLE-MAX
100
AcDbText
  0
TEXT
  5
6C9
330
6C6
100
AcDbEntity
  8
0
 60
     1
100
AcDbText
 10
0.0
 20
0.0
 30
0.0
 40
2.5
  1
!GENTITLE-LL
100
AcDbText
  0
TEXT
  5
6CA
330
6C6
100
AcDbEntity
  8
0
 60
     1
100
AcDbText
 10
403.0
 20
0.0
 30
0.0
 40
2.5
  1
!GENTITLE-INSERT
100
AcDbText
  0
LINE
  5
6CB
330
6C6
100
AcDbEntity
  8
0
100
AcDbLine
 10
359.0
 20
275.0
 30
0.0
 11
403.0
 21
275.0
 31
0.0
  0
MTEXT
  5
6CC
330
6C6
100
AcDbEntity
  8
0
100
AcDbMText
 10
402.3592953827349
 20
276.108542987227
 30
0.0
 40
2.5
 41
43.07840397728298
 71
     9
 72
     5
  1
(文書番号：TY-34)2008.02.08
 73
     1
 44
1.0
1001
ACAD
1000
MTEXTBEGIN
1070
    73
1070
     1
1070
    44
1040
1.0
1070
    74
1070
     0
1000
MTEXTEND
  0
LINE
  5
6CD
330
6C6
100
AcDbEntity
  8
0
100
AcDbLine
 10
359.0
 20
280.0
 30
0.0
 11
359.0
 21
275.0
 31
0.0
  0
ENDBLK
  5
6D0
330
6C6
100
AcDbEntity
  8
0
100
AcDbBlockEnd
  0
BLOCK
  5
733
330
6D9
100
AcDbEntity
  8
0
100
AcDbBlockBegin
  2
TK-TITLE
 70
     2
 10
0.0
 20
0.0
 30
0.0
  3
TK-TITLE
  1

  0
ATTDEF
  5
6DA
330
6D9
100
AcDbEntity
  8
0
100
AcDbText
 10
-8.002309189545826
 20
1.705189434395036
 30
0.0
 40
2.5
  1

100
AcDbAttributeDefinition
  3
Rev.
  2
GEN-TITLE-NR2
 70
     0
  0
ATTDEF
  5
6DB
330
6D9
100
AcDbEntity
  8
0
100
AcDbText
 10
-84.14251901585329
 20
12.82790432564377
 30
0.0
 40
3.5
  1

100
AcDbAttributeDefinition
  3
品名
  2
GEN-TITLE-DES1
 70
     0
  0
LINE
  5
6DC
330
6D9
100
AcDbEntity
  8
0
100
AcDbLine
 10
0.0
 20
0.0
 30
0.0
 11
0.0
 21
50.0
 31
0.0
1001
GENIUS_GENREC_14
1002
{
1000
PYDIR
1011
-414.0
1021
291.0
1031
0.0
1002
}
1002
{
1000
PXDIR
1011
6.0
1021
-6.0
1031
0.0
1002
}
1002
{
1000
PORI
1011
-414.0
1021
-6.0
1031
0.0
1002
}
1002
{
1000
PINS
1011
-414.0
1021
-6.0
1031
0.0
1002
}
1002
{
1000
HVAL
1000
297
1002
}
1002
{
1000
H
1070
     2
1002
}
1002
{
1000
WVAL
1000
420
1002
}
1002
{
1000
W
1070
     2
1002
}
1002
{
1000
C
1070
     1
1002
}
1001
GENIUS_GENODEF_13
1002
{
1000
HIER
1070
     0
1002
}
1002
{
1000
MANEDIT
1070
     0
1002
}
1002
{
1000
NOSEL
1070
     0
1002
}
1002
{
1000
BEHIND
1070
     0
1002
}
1002
{
1000
OTHER
1070
     0
1002
}
1002
{
1000
REACTOR
1002
}
1001
GENIUS_GENOBJ-N-REC_13
1002
{
1000
OWNER
1000
GEN
1002
}
  0
ATTDEF
  5
6DD
330
6D9
100
AcDbEntity
  8
0
100
AcDbText
 10
-84.0
 20
9.149999999999948
 30
0.0
 40
2.5
  1

100
AcDbAttributeDefinition
  3
サブタイトル
  2
GEN-TITLE-DES2
 70
     0
  0
ATTDEF
  5
6DE
330
6D9
100
AcDbEntity
  8
0
100
AcDbText
 10
-84.0
 20
1.999999999999957
 30
0.0
 40
3.0
  1

100
AcDbAttributeDefinition
  3
図番
  2
GEN-TITLE-NR1
 70
     0
  0
LINE
  5
6DF
330
6D9
100
AcDbEntity
  8
0
100
AcDbLine
 10
-96.0
 20
50.00000000000001
 30
0.0
 11
-96.0
 21
-0.0000000000000142
 31
0.0
1001
GENIUS_GENREC_14
1002
{
1000
PYDIR
1011
-96.0
1021
49.99999999999999
1031
0.0
1002
}
1002
{
1000
PXDIR
1011
88.0
1021
-0.0000000000000142
1031
0.0
1002
}
1002
{
1000
PORI
1011
-96.0
1021
-0.0000000000000142
1031
0.0
1002
}
1002
{
1000
PINS
1011
-12.5
1021
24.99999999999999
1031
0.0
1002
}
1002
{
1000
HVAL
1000
50
1002
}
1002
{
1000
H
1070
     2
1002
}
1002
{
1000
WVAL
1000
167
1002
}
1002
{
1000
W
1070
     2
1002
}
1002
{
1000
C
1070
     4
1002
}
1001
GENIUS_GENODEF_13
1002
{
1000
HIER
1070
     0
1002
}
1002
{
1000
MANEDIT
1070
     0
1002
}
1002
{
1000
NOSEL
1070
     0
1002
}
1002
{
1000
BEHIND
1070
     0
1002
}
1002
{
1000
REACTOR
1002
}
1001
GENIUS_GENOBJ-N-REC_13
1002
{
1000
OWNER
1000
GEN
1002
}
  0
LINE
  5
6E0
330
6D9
100
AcDbEntity
  8
0
100
AcDbLine
 10
0.0
 20
50.0
 30
0.0
 11
-193.0000000000001
 21
50.00000000000002
 31
0.0
1001
GENIUS_GENREC_14
1002
{
1000
PYDIR
1011
-184.0
1021
50.0
1031
0.0
1002
}
1002
{
1000
PXDIR
1011
0.0
1021
0.0
1031
0.0
1002
}
1002
{
1000
PORI
1011
-184.0
1021
0.0
1031
0.0
1002
}
1002
{
1000
PINS
1011
-100.5
1021
25.0
1031
0.0
1002
}
1002
{
1000
HVAL
1000
50
1002
}
1002
{
1000
H
1070
     2
1002
}
1002
{
1000
WVAL
1000
167
1002
}
1002
{
1000
W
1070
     2
1002
}
1002
{
1000
C
1070
     4
1002
}
1001
GENIUS_GENODEF_13
1002
{
1000
HIER
1070
     0
1002
}
1002
{
1000
MANEDIT
1070
     0
1002
}
1002
{
1000
NOSEL
1070
     0
1002
}
1002
{
1000
BEHIND
1070
     0
1002
}
1002
{
1000
REACTOR
1002
}
1001
GENIUS_GENOBJ-N-REC_13
1002
{
1000
OWNER
1000
GEN
1002
}
  0
LINE
  5
6E1
330
6D9
100
AcDbEntity
  8
0
100
AcDbLine
 10
-193.0000000000001
 20
0.0
 30
0.0
 11
0.0
 21
0.0
 31
0.0
1001
GENIUS_GENREC_14
1002
{
1000
PYDIR
1011
-184.0
1021
50.0
1031
0.0
1002
}
1002
{
1000
PXDIR
1011
0.0
1021
0.0
1031
0.0
1002
}
1002
{
1000
PORI
1011
-184.0
1021
0.0
1031
0.0
1002
}
1002
{
1000
PINS
1011
-100.5
1021
25.0
1031
0.0
1002
}
1002
{
1000
HVAL
1000
50
1002
}
1002
{
1000
H
1070
     2
1002
}
1002
{
1000
WVAL
1000
167
1002
}
1002
{
1000
W
1070
     2
1002
}
1002
{
1000
C
1070
     4
1002
}
1001
GENIUS_GENODEF_13
1002
{
1000
HIER
1070
     0
1002
}
1002
{
1000
MANEDIT
1070
     0
1002
}
1002
{
1000
NOSEL
1070
     0
1002
}
1002
{
1000
BEHIND
1070
     0
1002
}
1002
{
1000
REACTOR
1002
}
1001
GENIUS_GENOBJ-N-REC_13
1002
{
1000
OWNER
1000
GEN
1002
}
  0
TEXT
  5
6E2
330
6D9
100
AcDbEntity
  8
RAHM2
100
AcDbText
 10
-91.92677669529663
 20
45.98333333333335
 30
0.0
 40
2.5
  1
5
 72
     1
 11
-91.0
 21
45.65000000000002
 31
0.0
100
AcDbText
 73
     1
  0
TEXT
  5
6E3
330
6D9
100
AcDbEntity
  8
RAHM2
100
AcDbText
 10
-92.0
 20
40.98333333333335
 30
0.0
 40
2.5
  1
4
 72
     1
 11
-91.0
 21
40.65000000000002
 31
0.0
100
AcDbText
 73
     1
  0
TEXT
  5
6E4
330
6D9
100
AcDbEntity
  8
RAHM2
100
AcDbText
 10
-91.92677669529663
 20
35.98333333333333
 30
0.0
 40
2.5
  1
3
 72
     1
 11
-91.0
 21
35.64999999999999
 31
0.0
100
AcDbText
 73
     1
  0
TEXT
  5
6E5
330
6D9
100
AcDbEntity
  8
RAHM2
100
AcDbText
 10
-91.91833169291339
 20
30.98333333333335
 30
0.0
 40
2.5
  1
2
 72
     1
 11
-91.0
 21
30.65000000000002
 31
0.0
100
AcDbText
 73
     1
  0
TEXT
  5
6E6
330
6D9
100
AcDbEntity
  8
RAHM2
100
AcDbText
 10
-91.81558635658019
 20
25.98333333333335
 30
0.0
 40
2.5
  1
1
 72
     1
 11
-91.19058635658019
 21
25.65000000000002
 31
0.0
100
AcDbText
 73
     1
  0
MTEXT
  5
6E7
330
6D9
100
AcDbEntity
  8
RAHM2
100
AcDbMText
 10
-22.27910888308327
 20
27.50000000000003
 30
0.0
 40
2.5
 41
20.0
 71
     5
 72
     5
  1
・  ・   
 73
     1
 44
1.0
1001
ACAD
1000
MTEXTBEGIN
1070
    73
1070
     1
1070
    44
1040
1.0
1070
    74
1070
     0
1000
MTEXTEND
  0
LINE
  5
6E8
330
6D9
100
AcDbEntity
  8
RAHM2
100
AcDbLine
 10
-96.0
 20
25.0
 30
0.0
 11
0.0000000000001137
 21
25.00000000000003
 31
0.0
  0
LINE
  5
6E9
330
6D9
100
AcDbEntity
  8
RAHM2
100
AcDbLine
 10
-93.42487113059645
 20
25.40000000000002
 30
0.0
 11
-88.57512886940355
 21
25.40000000000002
 31
0.0
  0
LINE
  5
6EA
330
6D9
100
AcDbEntity
  8
RAHM2
100
AcDbLine
 10
-88.57512886940355
 20
25.40000000000002
 30
0.0
 11
-91.0
 21
29.60000000000001
 31
0.0
  0
LINE
  5
6EB
330
6D9
100
AcDbEntity
  8
RAHM2
100
AcDbLine
 10
-91.0
 20
29.60000000000001
 30
0.0
 11
-93.42487113059645
 21
25.40000000000002
 31
0.0
  0
MTEXT
  5
6EC
330
6D9
100
AcDbEntity
  8
RAHM2
100
AcDbMText
 10
-22.27910888308327
 20
47.50000000000002
 30
0.0
 40
2.5
 41
20.0
 71
     5
 72
     5
  1
・  ・   
 73
     1
 44
1.0
1001
ACAD
1000
MTEXTBEGIN
1070
    73
1070
     1
1070
    44
1040
1.0
1070
    74
1070
     0
1000
MTEXTEND
  0
MTEXT
  5
6ED
330
6D9
100
AcDbEntity
  8
RAHM2
100
AcDbMText
 10
-22.27910888308327
 20
37.50000000000003
 30
0.0
 40
2.5
 41
20.0
 71
     5
 72
     5
  1
・  ・   
 73
     1
 44
1.0
1001
ACAD
1000
MTEXTBEGIN
1070
    73
1070
     1
1070
    44
1040
1.0
1070
    74
1070
     0
1000
MTEXTEND
  0
MTEXT
  5
6EE
330
6D9
100
AcDbEntity
  8
RAHM2
100
AcDbMText
 10
-22.27910888308327
 20
42.50000000000002
 30
0.0
 40
2.5
 41
20.0
 71
     5
 72
     5
  1
・  ・   
 73
     1
 44
1.0
1001
ACAD
1000
MTEXTBEGIN
1070
    73
1070
     1
1070
    44
1040
1.0
1070
    74
1070
     0
1000
MTEXTEND
  0
MTEXT
  5
6EF
330
6D9
100
AcDbEntity
  8
RAHM2
100
AcDbMText
 10
-5.910409705344477
 20
22.49999999999997
 30
0.0
 40
2.5
 41
15.0
 71
     5
 72
     5
  1
担当
 73
     1
 44
1.0
1001
ACAD
1000
MTEXTBEGIN
1070
    73
1070
     1
1070
    44
1040
1.0
1070
    74
1070
     0
1000
MTEXTEND
  0
MTEXT
  5
6F0
330
6D9
100
AcDbEntity
  8
RAHM2
100
AcDbMText
 10
-21.55893921569111
 20
22.49999999999997
 30
0.0
 40
2.5
 41
20.0
 71
     5
 72
     5
  1
年・月・日
 73
     1
 44
1.0
1001
ACAD
1000
MTEXTBEGIN
1070
    73
1070
     1
1070
    44
1040
1.0
1070
    74
1070
     0
1000
MTEXTEND
  0
MTEXT
  5
6F1
330
6D9
100
AcDbEntity
  8
RAHM2
100
AcDbMText
 10
-22.27910888308327
 20
32.50000000000003
 30
0.0
 40
2.5
 41
20.0
 71
     5
 72
     5
  1
・  ・   
 73
     1
 44
1.0
1001
ACAD
1000
MTEXTBEGIN
1070
    73
1070
     1
1070
    44
1040
1.0
1070
    74
1070
     0
1000
MTEXTEND
  0
LINE
  5
6F2
330
6D9
100
AcDbEntity
  8
RAHM2
100
AcDbLine
 10
-11.82081941068907
 20
50.00000000000003
 30
0.0
 11
-11.82081941068907
 21
19.99999999999994
 31
0.0
  0
MTEXT
  5
6F3
330
6D9
100
AcDbEntity
  8
RAHM2
100
AcDbMText
 10
-59.0
 20
22.49999999999996
 30
0.0
 40
2.5
 41
45.0
 71
     5
 72
     5
  1
変更記事
 73
     1
 44
1.0
1001
ACAD
1000
MTEXTBEGIN
1070
    73
1070
     1
1070
    44
1040
1.0
1070
    74
1070
     0
1000
MTEXTEND
  0
LINE
  5
6F4
330
6D9
100
AcDbEntity
  8
RAHM2
100
AcDbLine
 10
-31.82081941068907
 20
50.00000000000003
 30
0.0
 11
-31.82081941068918
 21
19.99999999999994
 31
0.0
  0
LINE
  5
6F5
330
6D9
100
AcDbEntity
  8
RAHM2
100
AcDbLine
 10
-91.0
 20
49.6
 30
0.0
 11
-93.42487113059645
 21
45.40000000000001
 31
0.0
  0
LINE
  5
6F6
330
6D9
100
AcDbEntity
  8
RAHM2
100
AcDbLine
 10
-91.0
 20
44.6
 30
0.0
 11
-93.42487113059645
 21
40.40000000000001
 31
0.0
  0
LINE
  5
6F7
330
6D9
100
AcDbEntity
  8
RAHM2
100
AcDbLine
 10
-91.0
 20
39.60000000000001
 30
0.0
 11
-93.42487113059645
 21
35.40000000000002
 31
0.0
  0
LINE
  5
6F8
330
6D9
100
AcDbEntity
  8
RAHM2
100
AcDbLine
 10
-88.57512886940355
 20
35.40000000000002
 30
0.0
 11
-91.0
 21
39.60000000000001
 31
0.0
  0
LINE
  5
6F9
330
6D9
100
AcDbEntity
  8
RAHM2
100
AcDbLine
 10
-93.42487113059645
 20
35.40000000000002
 30
0.0
 11
-88.57512886940355
 21
35.40000000000002
 31
0.0
  0
LINE
  5
6FA
330
6D9
100
AcDbEntity
  8
RAHM2
100
AcDbLine
 10
-88.57512886940355
 20
40.40000000000001
 30
0.0
 11
-91.0
 21
44.6
 31
0.0
  0
LINE
  5
6FB
330
6D9
100
AcDbEntity
  8
RAHM2
100
AcDbLine
 10
-93.42487113059645
 20
40.40000000000001
 30
0.0
 11
-88.57512886940355
 21
40.40000000000001
 31
0.0
  0
LINE
  5
6FC
330
6D9
100
AcDbEntity
  8
RAHM2
100
AcDbLine
 10
-88.57512886940355
 20
45.40000000000001
 30
0.0
 11
-91.0
 21
49.6
 31
0.0
  0
LINE
  5
6FD
330
6D9
100
AcDbEntity
  8
RAHM2
100
AcDbLine
 10
-93.42487113059645
 20
45.40000000000001
 30
0.0
 11
-88.57512886940355
 21
45.40000000000001
 31
0.0
  0
MTEXT
  5
6FE
330
6D9
100
AcDbEntity
  8
RAHM2
100
AcDbMText
 10
-94.80025513713144
 20
18.8010354072796
 30
0.0
 40
2.5
 41
90.0
 71
     1
 72
     5
  1
品名
 73
     1
 44
1.0
1001
ACAD
1000
MTEXTBEGIN
1070
    73
1070
     1
1070
    44
1040
1.0
1070
    74
1070
     0
1000
MTEXTEND
  0
MTEXT
  5
6FF
330
6D9
100
AcDbEntity
  8
RAHM2
100
AcDbMText
 10
-91.0
 20
22.49999999999996
 30
0.0
 40
2.5
 41
10.0
 71
     5
 72
     5
  1
符号
 73
     1
 44
1.0
1001
ACAD
1000
MTEXTBEGIN
1070
    73
1070
     1
1070
    44
1040
1.0
1070
    74
1070
     0
1000
MTEXTEND
  0
LINE
  5
700
330
6D9
100
AcDbEntity
  8
RAHM2
100
AcDbLine
 10
-93.42487113059645
 20
30.40000000000002
 30
0.0
 11
-88.57512886940355
 21
30.40000000000002
 31
0.0
  0
LINE
  5
701
330
6D9
100
AcDbEntity
  8
RAHM2
100
AcDbLine
 10
-86.0
 20
50.00000000000001
 30
0.0
 11
-86.0
 21
19.99999999999993
 31
0.0
  0
LINE
  5
702
330
6D9
100
AcDbEntity
  8
RAHM2
100
AcDbLine
 10
-91.0
 20
34.60000000000001
 30
0.0
 11
-93.42487113059645
 21
30.40000000000002
 31
0.0
  0
LINE
  5
703
330
6D9
100
AcDbEntity
  8
RAHM2
100
AcDbLine
 10
-88.57512886940355
 20
30.40000000000002
 30
0.0
 11
-91.0
 21
34.60000000000001
 31
0.0
  0
MTEXT
  5
704
330
6D9
100
AcDbEntity
  8
RAHM2
100
AcDbMText
 10
-94.80025513713144
 20
5.801035407279627
 30
0.0
 40
2.5
 41
90.0
 71
     1
 72
     5
  1
図番
 73
     1
 44
1.0
1001
ACAD
1000
MTEXTBEGIN
1070
    73
1070
     1
1070
    44
1040
1.0
1070
    74
1070
     0
1000
MTEXTEND
  0
LINE
  5
705
330
6D9
100
AcDbEntity
  8
0
100
AcDbLine
 10
-96.0
 20
19.99999999999997
 30
0.0
 11
0.0000000000001137
 21
19.99999999999997
 31
0.0
  0
LINE
  5
706
330
6D9
100
AcDbEntity
  8
0
100
AcDbLine
 10
-96.0
 20
7.0
 30
0.0
 11
0.0000000000001137
 21
7.0
 31
0.0
  0
LINE
  5
707
330
6D9
100
AcDbEntity
  8
RAHM2
100
AcDbLine
 10
-96.0
 20
45.00000000000002
 30
0.0
 11
0.0000000000001137
 21
45.00000000000002
 31
0.0
  0
LINE
  5
708
330
6D9
100
AcDbEntity
  8
RAHM2
100
AcDbLine
 10
-96.0
 20
39.99999999999993
 30
0.0
 11
0.0000000000001137
 21
40.00000000000002
 31
0.0
  0
LINE
  5
709
330
6D9
100
AcDbEntity
  8
RAHM2
100
AcDbLine
 10
-96.0
 20
35.00000000000003
 30
0.0
 11
0.0000000000001137
 21
35.00000000000003
 31
0.0
  0
LINE
  5
70A
330
6D9
100
AcDbEntity
  8
RAHM2
100
AcDbLine
 10
-96.0
 20
29.99999999999992
 30
0.0
 11
0.0000000000001137
 21
30.00000000000003
 31
0.0
  0
LINE
  5
70B
330
6D9
100
AcDbEntity
  8
0
100
AcDbLine
 10
-21.17541926625711
 20
0.0
 30
0.0
 11
-21.17541926625734
 21
7.0
 31
0.0
  0
MTEXT
  5
70C
330
6D9
100
AcDbEntity
  8
RAHM2
100
AcDbMText
 10
-16.85742592933491
 20
3.434762466565985
 30
0.0
 40
2.5
 41
7.936478436748416
 71
     5
 72
     5
  1
Rev.
 73
     1
 44
1.0
1001
ACAD
1000
MTEXTBEGIN
1070
    73
1070
     1
1070
    44
1040
1.0
1070
    74
1070
     0
1000
MTEXTEND
  0
MTEXT
  5
70D
330
6D9
100
AcDbEntity
  8
RAHM2
100
AcDbMText
 10
-104.875
 20
18.80103540727957
 30
0.0
 40
2.5
 41
17.0
 71
     2
 72
     5
  1
製図
 73
     1
 44
1.0
1001
ACAD
1000
MTEXTBEGIN
1070
    73
1070
     1
1070
    44
1040
1.0
1070
    74
1070
     0
1000
MTEXTEND
  0
LINE
  5
70E
330
6D9
100
AcDbEntity
  8
0
100
AcDbLine
 10
-167.0
 20
19.99999999999993
 30
0.0
 11
-96.0
 21
19.99999999999993
 31
0.0
  0
LINE
  5
70F
330
6D9
100
AcDbEntity
  8
0
100
AcDbLine
 10
-113.75
 20
19.99999999999993
 30
0.0
 11
-113.75
 21
-0.0000000000000533
 31
0.0
  0
LINE
  5
710
330
6D9
100
AcDbEntity
  8
0
100
AcDbLine
 10
-131.5000000000001
 20
19.99999999999993
 30
0.0
 11
-131.5000000000001
 21
-0.0000000000000533
 31
0.0
  0
MTEXT
  5
711
330
6D9
100
AcDbEntity
  8
RAHM2
100
AcDbMText
 10
-122.6250000000001
 20
18.80103540727958
 30
0.0
 40
2.5
 41
17.0
 71
     2
 72
     5
  1
検図
 73
     1
 44
1.0
1001
ACAD
1000
MTEXTBEGIN
1070
    73
1070
     1
1070
    44
1040
1.0
1070
    74
1070
     0
1000
MTEXTEND
  0
LINE
  5
712
330
6D9
100
AcDbEntity
  8
0
100
AcDbLine
 10
-167.0
 20
49.99999999999995
 30
0.0
 11
-167.0
 21
-0.0000000000000497
 31
0.0
  0
LINE
  5
713
330
6D9
100
AcDbEntity
  8
0
100
AcDbLine
 10
-149.2500000000001
 20
19.99999999999993
 30
0.0
 11
-149.2500000000001
 21
-0.0000000000000462
 31
0.0
  0
MTEXT
  5
714
330
6D9
100
AcDbEntity
  8
RAHM2
100
AcDbMText
 10
-140.3750000000001
 20
18.80103540727958
 30
0.0
 40
2.5
 41
17.0
 71
     2
 72
     5
  1
承認
 73
     1
 44
1.0
1001
ACAD
1000
MTEXTBEGIN
1070
    73
1070
     1
1070
    44
1040
1.0
1070
    74
1070
     0
1000
MTEXTEND
  0
MTEXT
  5
715
330
6D9
100
AcDbEntity
  8
RAHM2
100
AcDbMText
 10
-158.1250000000001
 20
18.80103540727956
 30
0.0
 40
2.5
 41
17.0
 71
     2
 72
     5
  1
承認
 73
     1
 44
1.0
1001
ACAD
1000
MTEXTBEGIN
1070
    73
1070
     1
1070
    44
1040
1.0
1070
    74
1070
     0
1000
MTEXTEND
  0
LINE
  5
716
330
6D9
100
AcDbEntity
  8
0
100
AcDbLine
 10
-167.0
 20
29.99999999999992
 30
0.0
 11
-96.0
 21
29.99999999999992
 31
0.0
  0
MTEXT
  5
717
330
6D9
100
AcDbEntity
  8
0
100
AcDbMText
 10
-131.5000000000001
 20
24.99999999999992
 30
0.0
 40
3.5
 41
60.0
 71
     5
 72
     5
  1
\fＭＳ ゴシック|b0|i0|c128|p49;株式会社タカチ電機工業
 73
     1
 44
1.0
1001
ACAD
1000
MTEXTBEGIN
1070
    73
1070
     1
1070
    44
1040
1.0
1070
    74
1070
     0
1000
MTEXTEND
  0
ATTDEF
  5
718
330
6D9
100
AcDbEntity
  8
0
100
AcDbText
 10
-148.9618675835291
 20
43.29999999999991
 30
0.0
 40
3.0
  1

100
AcDbAttributeDefinition
  3
材質
  2
GEN-TITLE-MAT1
 70
     0
  0
ATTDEF
  5
719
330
6D9
100
AcDbEntity
  8
0
100
AcDbText
 10
-148.9618675835291
 20
33.29999999999991
 30
0.0
 40
3.0
  1

100
AcDbAttributeDefinition
  3
表面処理
  2
GEN-TITLE-MAT2
 70
     0
  0
MTEXT
  5
71A
330
6D9
100
AcDbEntity
  8
RAHM2
100
AcDbMText
 10
-165.8002551371314
 20
48.80103540727955
 30
0.0
 40
2.5
 41
60.0
 71
     1
 72
     5
  1
材質
 73
     1
 44
1.0
1001
ACAD
1000
MTEXTBEGIN
1070
    73
1070
     1
1070
    44
1040
1.0
1070
    74
1070
     0
1000
MTEXTEND
  0
MTEXT
  5
71B
330
6D9
100
AcDbEntity
  8
RAHM2
100
AcDbMText
 10
-165.8002551371314
 20
38.80103540727956
 30
0.0
 40
2.5
 41
60.0
 71
     1
 72
     5
  1
表面処理
 73
     1
 44
1.0
1001
ACAD
1000
MTEXTBEGIN
1070
    73
1070
     1
1070
    44
1040
1.0
1070
    74
1070
     0
1000
MTEXTEND
  0
LINE
  5
71C
330
6D9
100
AcDbEntity
  8
0
100
AcDbLine
 10
-167.0
 20
39.99999999999991
 30
0.0
 11
-96.0
 21
39.99999999999992
 31
0.0
  0
LINE
  5
71D
330
6D9
100
AcDbEntity
  8
0
100
AcDbLine
 10
-167.0
 20
24.99999999999997
 30
0.0
 11
-193.0000000000001
 21
24.99999999999997
 31
0.0
  0
LINE
  5
71E
330
6D9
100
AcDbEntity
  8
0
100
AcDbLine
 10
-171.7167418745796
 20
46.74999999999995
 30
0.0
 11
-171.7167418745796
 21
40.74999999999994
 31
0.0
  0
LINE
  5
71F
330
6D9
100
AcDbEntity
  8
7A
100
AcDbLine
 10
-184.7167418745796
 20
43.74999999999995
 30
0.0
 11
-184.7167418745796
 21
40.03991724228473
 31
0.0
1001
GENIUS_GENOREF_13
1005
731
  0
LINE
  5
720
330
6D9
100
AcDbEntity
  8
7A
100
AcDbLine
 10
-184.7167418745796
 20
43.74999999999995
 30
0.0
 11
-188.4397792458307
 21
43.74999999999995
 31
0.0
1001
GENIUS_GENOREF_13
1005
731
  0
LINE
  5
721
330
6D9
100
AcDbEntity
  8
0
100
AcDbLine
 10
-179.7167418745796
 20
41.74999999999995
 30
0.0
 11
-179.7167418745796
 21
45.74999999999994
 31
0.0
  0
CIRCLE
  5
722
330
6D9
100
AcDbEntity
  8
0
100
AcDbCircle
 10
-184.7167418745796
 20
43.74999999999995
 30
0.0
 40
3.0
  0
CIRCLE
  5
723
330
6D9
100
AcDbEntity
  8
0
100
AcDbCircle
 10
-184.7167418745796
 20
43.74999999999995
 30
0.0
 40
2.0
  0
LINE
  5
724
330
6D9
100
AcDbEntity
  8
7A
100
AcDbLine
 10
-184.7167418745796
 20
43.74999999999995
 30
0.0
 11
-184.7167418745796
 21
47.32478664473144
 31
0.0
1001
GENIUS_GENOREF_13
1005
731
  0
LINE
  5
725
330
6D9
100
AcDbEntity
  8
0
100
AcDbLine
 10
-171.7167418745796
 20
40.74999999999994
 30
0.0
 11
-179.7167418745796
 21
41.74999999999995
 31
0.0
  0
LINE
  5
726
330
6D9
100
AcDbEntity
  8
0
100
AcDbLine
 10
-179.7167418745796
 20
45.74999999999994
 30
0.0
 11
-171.7167418745796
 21
46.74999999999995
 31
0.0
  0
LINE
  5
727
330
6D9
100
AcDbEntity
  8
7A
100
AcDbLine
 10
-184.7167418745796
 20
43.74999999999995
 30
0.0
 11
-170.9354334742943
 21
43.74999999999995
 31
0.0
1001
GENIUS_GENOREF_13
1005
731
  0
LINE
  5
728
330
6D9
100
AcDbEntity
  8
0
100
AcDbLine
 10
-193.0000000000001
 20
49.99999999999999
 30
0.0
 11
-193.0000000000001
 21
-0.0000000000000142
 31
0.0
  0
ATTDEF
  5
729
330
6D9
100
AcDbEntity
  8
0
100
AcDbText
 10
-175.6127409126095
 20
16.19999999999994
 30
0.0
 40
3.0
  1

 72
     2
 11
-175.6127409126095
 21
15.79999999999994
 31
0.0
100
AcDbAttributeDefinition
  3
数量
  2
GEN-TITLE-QTY
 70
     0
 74
     1
  0
MTEXT
  5
72A
330
6D9
100
AcDbEntity
  8
RAHM2
100
AcDbMText
 10
-191.8002551371315
 20
23.80103540727963
 30
0.0
 40
2.5
 41
20.0
 71
     1
 72
     5
  1
数量
 73
     1
 44
1.0
1001
ACAD
1000
MTEXTBEGIN
1070
    73
1070
     1
1070
    44
1040
1.0
1070
    74
1070
     0
1000
MTEXTEND
  0
MTEXT
  5
72B
330
6D9
100
AcDbEntity
  8
RAHM2
100
AcDbMText
 10
-191.8002551371315
 20
36.30103540727966
 30
0.0
 40
2.5
 41
20.0
 71
     1
 72
     5
  1
尺度
 73
     1
 44
1.0
1001
ACAD
1000
MTEXTBEGIN
1070
    73
1070
     1
1070
    44
1040
1.0
1070
    74
1070
     0
1000
MTEXTEND
  0
ATTDEF
  5
72C
330
6D9
100
AcDbEntity
  8
0
100
AcDbText
 10
-177.824739614424
 20
28.69999999999997
 30
0.0
 40
3.0
  1

 72
     2
 11
-177.824739614424
 21
28.29999999999998
 31
0.0
100
AcDbAttributeDefinition
  3
尺度
  2
GEN-TITLE-SCA
 70
     0
 74
     1
  0
MTEXT
  5
72D
330
6D9
100
AcDbEntity
  8
RAHM2
100
AcDbMText
 10
-191.8002551371315
 20
11.3010354072796
 30
0.0
 40
2.5
 41
60.0
 71
     1
 72
     5
  1
日付
 73
     1
 44
1.0
1001
ACAD
1000
MTEXTBEGIN
1070
    73
1070
     1
1070
    44
1040
1.0
1070
    74
1070
     0
1000
MTEXTEND
  0
ATTDEF
  5
72E
330
6D9
100
AcDbEntity
  8
0
100
AcDbText
 10
-180.2171951662138
 20
3.988342537610664
 30
0.0
 40
3.0
  1

 72
     1
 11
-180.2171951662138
 21
3.588342537610664
 31
0.0
100
AcDbAttributeDefinition
  3
日付
  2
GEN-TITLE-DAT
 70
     0
 74
     1
  0
LINE
  5
72F
330
6D9
100
AcDbEntity
  8
0
100
AcDbLine
 10
-167.0
 20
37.49999999999998
 30
0.0
 11
-193.0000000000001
 21
37.49999999999998
 31
0.0
  0
LINE
  5
730
330
6D9
100
AcDbEntity
  8
0
100
AcDbLine
 10
-167.0
 20
12.49999999999996
 30
0.0
 11
-193.0000000000001
 21
12.49999999999996
 31
0.0
  0
POINT
  5
731
330
6D9
100
AcDbEntity
  8
0
 60
     1
100
AcDbPoint
 10
-418.5355579819675
 20
-138.1104841268254
 30
0.0
1001
GENIUS_GENODEF_13
1002
{
1000
HIER
1070
    10
1002
}
1002
{
1000
MANEDIT
1070
     0
1002
}
1002
{
1000
NOSEL
1070
     0
1002
}
1002
{
1000
BEHIND
1070
     0
1002
}
1002
{
1000
REACTOR
1002
}
1001
GENIUS_GENOBJ-N-CRS_13
1002
{
1000
OWNER
1000
GEN
1002
}
1001
GENIUS_GENOENT_13
1002
{
1000
MYREF
1005
731
1002
}
1002
{
1000
GRP
1005
0
1002
}
1001
GENIUS_GENOLIS_13
1002
{
1000
ENT
1005
71F
1005
720
1005
724
1005
727
1002
}
  0
ENDBLK
  5
734
330
6D9
100
AcDbEntity
  8
0
100
AcDbBlockEnd
  0
BLOCK
  5
EA8
330
E90
100
AcDbEntity
  8
0
100
AcDbBlockBegin
  2
*D8
 70
     1
 10
0.0
 20
0.0
 30
0.0
  3
*D8
  1

  0
LINE
  5
2E27
330
E90
100
AcDbEntity
  8
AM_5
100
AcDbLine
 10
715.2891311654496
 20
240.0049123863682
 30
0.0
 11
734.2891321754495
 21
240.0049123863682
 31
0.0
  0
LINE
  5
2E28
330
E90
100
AcDbEntity
  8
AM_5
100
AcDbLine
 10
715.2891311654496
 20
173.0049123863684
 30
0.0
 11
734.2891321754495
 21
173.0049123863684
 31
0.0
  0
LINE
  5
2E29
330
E90
100
AcDbEntity
  8
AM_5
100
AcDbLine
 10
732.7891321754496
 20
236.2549123863683
 30
0.0
 11
732.7891321754496
 21
176.7549123863684
 31
0.0
  0
INSERT
  5
2E2A
330
E90
100
AcDbEntity
  8
AM_5
100
AcDbBlockReference
  2
_Open30
 10
732.7891321754496
 20
240.0049123863682
 30
0.0
 41
3.75
 42
3.75
 43
3.75
 50
90.0
  0
INSERT
  5
2E2B
330
E90
100
AcDbEntity
  8
AM_5
100
AcDbBlockReference
  2
_Open30
 10
732.7891321754496
 20
173.0049123863684
 30
0.0
 41
3.75
 42
3.75
 43
3.75
 50
270.0
  0
MTEXT
  5
2E2C
330
E90
100
AcDbEntity
  8
AM_5
 62
     2
100
AcDbMText
 10
727.9141321754496
 20
206.5049123863685
 30
0.0
 40
5.25
 41
0.0
 71
     5
 72
     1
  1
67
 11
0.0000000000000001
 21
1.0
 31
0.0
 73
     1
 44
1.0
1001
ACAD
1000
MTEXTBEGIN
1070
    73
1070
     1
1070
    44
1040
1.0
1070
    74
1070
     0
1000
MTEXTEND
  0
POINT
  5
2E2D
330
E90
100
AcDbEntity
  8
Defpoints
 62
     0
100
AcDbPoint
 10
713.7891311654495
 20
240.0049123863682
 30
0.0
  0
POINT
  5
2E2E
330
E90
100
AcDbEntity
  8
Defpoints
 62
     0
100
AcDbPoint
 10
713.7891311654495
 20
173.0049123863684
 30
0.0
  0
POINT
  5
2E2F
330
E90
100
AcDbEntity
  8
Defpoints
 62
     0
100
AcDbPoint
 10
732.7891321754496
 20
173.0049123863684
 30
0.0
  0
ENDBLK
  5
EA9
330
E90
100
AcDbEntity
  8
0
100
AcDbBlockEnd
  0
BLOCK
  5
EF6
330
EBA
100
AcDbEntity
  8
0
100
AcDbBlockBegin
  2
*D9
 70
     1
 10
0.0
 20
0.0
 30
0.0
  3
*D9
  1

  0
LINE
  5
2E30
330
EBA
100
AcDbEntity
  8
AM_5
100
AcDbLine
 10
492.7891311654495
 20
232.0049123863682
 30
0.0
 11
492.7891311654495
 21
250.0049123863683
 31
0.0
  0
LINE
  5
2E31
330
EBA
100
AcDbEntity
  8
AM_5
100
AcDbLine
 10
714.7891311654496
 20
232.0049123863682
 30
0.0
 11
714.7891311654496
 21
250.0049123863683
 31
0.0
  0
LINE
  5
2E32
330
EBA
100
AcDbEntity
  8
AM_5
100
AcDbLine
 10
496.5391311654496
 20
248.5049123863682
 30
0.0
 11
711.0391311654495
 21
248.5049123863682
 31
0.0
  0
INSERT
  5
2E33
330
EBA
100
AcDbEntity
  8
AM_5
100
AcDbBlockReference
  2
_Open30
 10
492.7891311654495
 20
248.5049123863682
 30
0.0
 41
3.75
 42
3.75
 43
3.75
 50
180.0
  0
INSERT
  5
2E34
330
EBA
100
AcDbEntity
  8
AM_5
100
AcDbBlockReference
  2
_Open30
 10
714.7891311654496
 20
248.5049123863682
 30
0.0
 41
3.75
 42
3.75
 43
3.75
  0
MTEXT
  5
2E35
330
EBA
100
AcDbEntity
  8
AM_5
 62
     2
100
AcDbMText
 10
603.7891311654496
 20
253.3804291186517
 30
0.0
 40
5.25
 41
0.0
 71
     5
 72
     1
  1
222
 73
     1
 44
1.0
1001
ACAD
1000
MTEXTBEGIN
1070
    73
1070
     1
1070
    44
1040
1.0
1070
    74
1070
     0
1000
MTEXTEND
  0
POINT
  5
2E36
330
EBA
100
AcDbEntity
  8
Defpoints
 62
     0
100
AcDbPoint
 10
492.7891311654495
 20
230.5049123863683
 30
0.0
  0
POINT
  5
2E37
330
EBA
100
AcDbEntity
  8
Defpoints
 62
     0
100
AcDbPoint
 10
714.7891311654496
 20
230.5049123863683
 30
0.0
  0
POINT
  5
2E38
330
EBA
100
AcDbEntity
  8
Defpoints
 62
     0
100
AcDbPoint
 10
714.7891311654496
 20
248.5049123863682
 30
0.0
  0
ENDBLK
  5
EF7
330
EBA
100
AcDbEntity
  8
0
100
AcDbBlockEnd
  0
BLOCK
  5
EF8
330
EDE
100
AcDbEntity
  8
0
100
AcDbBlockBegin
  2
*D10
 70
     1
 10
0.0
 20
0.0
 30
0.0
  3
*D10
  1

  0
LINE
  5
2E39
330
EDE
100
AcDbEntity
  8
AM_5
100
AcDbLine
 10
494.2891311654496
 20
233.5049123863683
 30
0.0
 11
476.2891311654495
 21
233.5049123863683
 31
0.0
  0
LINE
  5
2E3A
330
EDE
100
AcDbEntity
  8
AM_5
100
AcDbLine
 10
494.2891311654496
 20
179.5049123863683
 30
0.0
 11
476.2891311654495
 21
179.5049123863683
 31
0.0
  0
LINE
  5
2E3B
330
EDE
100
AcDbEntity
  8
AM_5
100
AcDbLine
 10
477.7891311654496
 20
229.7549123863682
 30
0.0
 11
477.7891311654496
 21
183.2549123863683
 31
0.0
  0
INSERT
  5
2E3C
330
EDE
100
AcDbEntity
  8
AM_5
100
AcDbBlockReference
  2
_Open30
 10
477.7891311654496
 20
233.5049123863683
 30
0.0
 41
3.75
 42
3.75
 43
3.75
 50
90.0
  0
INSERT
  5
2E3D
330
EDE
100
AcDbEntity
  8
AM_5
100
AcDbBlockReference
  2
_Open30
 10
477.7891311654496
 20
179.5049123863683
 30
0.0
 41
3.75
 42
3.75
 43
3.75
 50
270.0
  0
MTEXT
  5
2E3E
330
EDE
100
AcDbEntity
  8
AM_5
 62
     2
100
AcDbMText
 10
472.9141311654495
 20
206.5049123863684
 30
0.0
 40
5.25
 41
0.0
 71
     5
 72
     1
  1
54
 11
0.0000000000000001
 21
1.0
 31
0.0
 73
     1
 44
1.0
1001
ACAD
1000
MTEXTBEGIN
1070
    73
1070
     1
1070
    44
1040
1.0
1070
    74
1070
     0
1000
MTEXTEND
  0
POINT
  5
2E3F
330
EDE
100
AcDbEntity
  8
Defpoints
 62
     0
100
AcDbPoint
 10
495.7891311654496
 20
233.5049123863683
 30
0.0
  0
POINT
  5
2E40
330
EDE
100
AcDbEntity
  8
Defpoints
 62
     0
100
AcDbPoint
 10
495.7891311654496
 20
179.5049123863683
 30
0.0
  0
POINT
  5
2E41
330
EDE
100
AcDbEntity
  8
Defpoints
 62
     0
100
AcDbPoint
 10
477.7891311654496
 20
179.5049123863683
 30
0.0
  0
ENDBLK
  5
EF9
330
EDE
100
AcDbEntity
  8
0
100
AcDbBlockEnd
  0
BLOCK
  5
F1F
330
EFF
100
AcDbEntity
  8
0
100
AcDbBlockBegin
  2
*D11
 70
     1
 10
0.0
 20
0.0
 30
0.0
  3
*D11
  1

  0
LINE
  5
2E42
330
EFF
100
AcDbEntity
  8
AM_5
100
AcDbLine
 10
713.7899273125031
 20
168.4011212036023
 30
0.0
 11
722.816398260346
 21
153.7087822025216
 31
0.0
  0
LINE
  5
2E43
330
EFF
100
AcDbEntity
  8
AM_5
100
AcDbLine
 10
722.816398260346
 20
153.7087822025216
 30
0.0
 11
744.7088603805918
 21
153.7087822025216
 31
0.0
  0
INSERT
  5
2E44
330
EFF
100
AcDbEntity
  8
AM_5
100
AcDbBlockReference
  2
_Open30
 10
711.8269235816263
 20
171.5962919897362
 30
0.0
 41
3.75
 42
3.75
 43
3.75
 50
121.5651441533148
  0
MTEXT
  5
2E45
330
EFF
100
AcDbEntity
  8
AM_5
 62
     2
100
AcDbMText
 10
734.8876293204686
 20
158.5837822025214
 30
0.0
 40
5.25
 41
0.0
 71
     5
 72
     1
  1
8-\U+22053.5
 73
     1
 44
1.0
1001
ACAD
1000
MTEXTBEGIN
1070
    73
1070
     1
1070
    44
1040
1.0
1070
    74
1070
     0
1000
MTEXTEND
  0
POINT
  5
2E46
330
EFF
100
AcDbEntity
  8
Defpoints
 62
     0
100
AcDbPoint
 10
711.8269235816263
 20
171.5962919897362
 30
0.0
  0
POINT
  5
2E47
330
EFF
100
AcDbEntity
  8
Defpoints
 62
     0
100
AcDbPoint
 10
709.9947867661406
 20
174.5784513901279
 30
0.0
  0
ENDBLK
  5
F20
330
EFF
100
AcDbEntity
  8
0
100
AcDbBlockEnd
  0
BLOCK
  5
F59
330
F39
100
AcDbEntity
  8
0
100
AcDbBlockBegin
  2
*D12
 70
     1
 10
0.0
 20
0.0
 30
0.0
  3
*D12
  1

  0
LINE
  5
2E48
330
F39
100
AcDbEntity
  8
AM_5
100
AcDbLine
 10
470.6025209776329
 20
152.6078226903666
 30
0.0
 11
491.4401932242488
 21
177.3426223147446
 31
0.0
  0
MTEXT
  5
2E49
330
F39
100
AcDbEntity
  8
AM_5
 62
     2
100
AcDbMText
 10
470.4234047429773
 20
159.9617101158883
 30
0.0
 40
5.25
 41
0.0
 71
     5
 72
     1
  1
R3
 11
0.6442871024001035
 21
0.7647837143146282
 31
0.0
 73
     1
 44
1.0
1001
ACAD
1000
MTEXTBEGIN
1070
    73
1070
     1
1070
    44
1040
1.0
1070
    74
1070
     0
1000
MTEXTEND
  0
INSERT
  5
2E4A
330
F39
100
AcDbEntity
  8
AM_5
100
AcDbBlockReference
  2
_Open30
 10
493.8562698582491
 20
180.2105612434245
 30
0.0
 41
3.75
 42
3.75
 43
3.75
 50
49.88775412053549
  0
POINT
  5
2E4B
330
F39
100
AcDbEntity
  8
Defpoints
 62
     0
100
AcDbPoint
 10
493.8562698582491
 20
180.2105612434245
 30
0.0
  0
POINT
  5
2E4C
330
F39
100
AcDbEntity
  8
Defpoints
 62
     0
100
AcDbPoint
 10
495.7891311654493
 20
182.5049123863682
 30
0.0
  0
ENDBLK
  5
F5A
330
F39
100
AcDbEntity
  8
0
100
AcDbBlockEnd
  0
BLOCK
  5
2C8F
330
2C33
100
AcDbEntity
  8
0
100
AcDbBlockBegin
  2
*D13
 70
     1
 10
0.0
 20
0.0
 30
0.0
  3
*D13
  1

  0
LINE
  5
2E4D
330
2C33
100
AcDbEntity
  8
AM_5
100
AcDbLine
 10
496.7891311654496
 20
168.5049123863682
 30
0.0
 11
496.7891311654496
 21
151.7549113763682
 31
0.0
  0
LINE
  5
2E4E
330
2C33
100
AcDbEntity
  8
AM_5
100
AcDbLine
 10
578.7891311654496
 20
168.5049123863683
 30
0.0
 11
578.7891311654496
 21
151.7549113763682
 31
0.0
  0
LINE
  5
2E4F
330
2C33
100
AcDbEntity
  8
AM_5
100
AcDbLine
 10
500.5391311654496
 20
153.2549113763682
 30
0.0
 11
575.0391311654495
 21
153.2549113763682
 31
0.0
  0
INSERT
  5
2E50
330
2C33
100
AcDbEntity
  8
AM_5
100
AcDbBlockReference
  2
_Open30
 10
496.7891311654496
 20
153.2549113763682
 30
0.0
 41
3.75
 42
3.75
 43
3.75
 50
180.0
  0
INSERT
  5
2E51
330
2C33
100
AcDbEntity
  8
AM_5
100
AcDbBlockReference
  2
_Open30
 10
578.7891311654496
 20
153.2549113763682
 30
0.0
 41
3.75
 42
3.75
 43
3.75
  0
MTEXT
  5
2E52
330
2C33
100
AcDbEntity
  8
AM_5
 62
     2
100
AcDbMText
 10
537.7891311654495
 20
158.1304281086517
 30
0.0
 40
5.25
 41
0.0
 71
     5
 72
     1
  1
82
 73
     1
 44
1.0
1001
ACAD
1000
MTEXTBEGIN
1070
    73
1070
     1
1070
    44
1040
1.0
1070
    74
1070
     0
1000
MTEXTEND
  0
POINT
  5
2E53
330
2C33
100
AcDbEntity
  8
Defpoints
 62
     0
100
AcDbPoint
 10
496.7891311654496
 20
170.0049123863682
 30
0.0
  0
POINT
  5
2E54
330
2C33
100
AcDbEntity
  8
Defpoints
 62
     0
100
AcDbPoint
 10
578.7891311654496
 20
170.0049123863683
 30
0.0
  0
POINT
  5
2E55
330
2C33
100
AcDbEntity
  8
Defpoints
 62
     0
100
AcDbPoint
 10
578.7891311654496
 20
153.2549113763682
 30
0.0
  0
ENDBLK
  5
2C90
330
2C33
100
AcDbEntity
  8
0
100
AcDbBlockEnd
  0
BLOCK
  5
2C91
330
2C5B
100
AcDbEntity
  8
0
100
AcDbBlockBegin
  2
*D14
 70
     1
 10
0.0
 20
0.0
 30
0.0
  3
*D14
  1

  0
LINE
  5
2E56
330
2C5B
100
AcDbEntity
  8
AM_5
100
AcDbLine
 10
578.7891311654496
 20
168.5049123863683
 30
0.0
 11
578.7891311654496
 21
151.7549113763683
 31
0.0
  0
LINE
  5
2E57
330
2C5B
100
AcDbEntity
  8
AM_5
100
AcDbLine
 10
628.7891311654496
 20
168.5049123863683
 30
0.0
 11
628.7891311654496
 21
151.7549113763683
 31
0.0
  0
LINE
  5
2E58
330
2C5B
100
AcDbEntity
  8
AM_5
100
AcDbLine
 10
582.5391311654495
 20
153.2549113763683
 30
0.0
 11
625.0391311654496
 21
153.2549113763683
 31
0.0
  0
INSERT
  5
2E59
330
2C5B
100
AcDbEntity
  8
AM_5
100
AcDbBlockReference
  2
_Open30
 10
578.7891311654496
 20
153.2549113763683
 30
0.0
 41
3.75
 42
3.75
 43
3.75
 50
180.0
  0
INSERT
  5
2E5A
330
2C5B
100
AcDbEntity
  8
AM_5
100
AcDbBlockReference
  2
_Open30
 10
628.7891311654496
 20
153.2549113763683
 30
0.0
 41
3.75
 42
3.75
 43
3.75
  0
MTEXT
  5
2E5B
330
2C5B
100
AcDbEntity
  8
AM_5
 62
     2
100
AcDbMText
 10
603.7891311654496
 20
158.1299113763683
 30
0.0
 40
5.25
 41
0.0
 71
     5
 72
     1
  1
50
 73
     1
 44
1.0
1001
ACAD
1000
MTEXTBEGIN
1070
    73
1070
     1
1070
    44
1040
1.0
1070
    74
1070
     0
1000
MTEXTEND
  0
POINT
  5
2E5C
330
2C5B
100
AcDbEntity
  8
Defpoints
 62
     0
100
AcDbPoint
 10
578.7891311654496
 20
170.0049123863683
 30
0.0
  0
POINT
  5
2E5D
330
2C5B
100
AcDbEntity
  8
Defpoints
 62
     0
100
AcDbPoint
 10
628.7891311654496
 20
170.0049123863683
 30
0.0
  0
POINT
  5
2E5E
330
2C5B
100
AcDbEntity
  8
Defpoints
 62
     0
100
AcDbPoint
 10
628.7891311654496
 20
153.2549113763683
 30
0.0
  0
ENDBLK
  5
2C92
330
2C5B
100
AcDbEntity
  8
0
100
AcDbBlockEnd
  0
BLOCK
  5
2C93
330
2C77
100
AcDbEntity
  8
0
100
AcDbBlockBegin
  2
*D15
 70
     1
 10
0.0
 20
0.0
 30
0.0
  3
*D15
  1

  0
LINE
  5
2E5F
330
2C77
100
AcDbEntity
  8
AM_5
100
AcDbLine
 10
628.7891311654496
 20
168.5049123863683
 30
0.0
 11
628.7891311654496
 21
151.7549113763684
 31
0.0
  0
LINE
  5
2E60
330
2C77
100
AcDbEntity
  8
AM_5
100
AcDbLine
 10
710.7891311654496
 20
168.5049123863683
 30
0.0
 11
710.7891311654496
 21
151.7549113763684
 31
0.0
  0
LINE
  5
2E61
330
2C77
100
AcDbEntity
  8
AM_5
100
AcDbLine
 10
632.5391311654495
 20
153.2549113763684
 30
0.0
 11
707.0391311654495
 21
153.2549113763684
 31
0.0
  0
INSERT
  5
2E62
330
2C77
100
AcDbEntity
  8
AM_5
100
AcDbBlockReference
  2
_Open30
 10
628.7891311654496
 20
153.2549113763684
 30
0.0
 41
3.75
 42
3.75
 43
3.75
 50
180.0
  0
INSERT
  5
2E63
330
2C77
100
AcDbEntity
  8
AM_5
100
AcDbBlockReference
  2
_Open30
 10
710.7891311654496
 20
153.2549113763684
 30
0.0
 41
3.75
 42
3.75
 43
3.75
  0
MTEXT
  5
2E64
330
2C77
100
AcDbEntity
  8
AM_5
 62
     2
100
AcDbMText
 10
669.7891311654496
 20
158.1304281086519
 30
0.0
 40
5.25
 41
0.0
 71
     5
 72
     1
  1
82
 73
     1
 44
1.0
1001
ACAD
1000
MTEXTBEGIN
1070
    73
1070
     1
1070
    44
1040
1.0
1070
    74
1070
     0
1000
MTEXTEND
  0
POINT
  5
2E65
330
2C77
100
AcDbEntity
  8
Defpoints
 62
     0
100
AcDbPoint
 10
628.7891311654496
 20
170.0049123863683
 30
0.0
  0
POINT
  5
2E66
330
2C77
100
AcDbEntity
  8
Defpoints
 62
     0
100
AcDbPoint
 10
710.7891311654496
 20
170.0049123863683
 30
0.0
  0
POINT
  5
2E67
330
2C77
100
AcDbEntity
  8
Defpoints
 62
     0
100
AcDbPoint
 10
710.7891311654496
 20
153.2549113763684
 30
0.0
  0
ENDBLK
  5
2C94
330
2C77
100
AcDbEntity
  8
0
100
AcDbBlockEnd
  0
BLOCK
  5
4725
330
46E9
100
AcDbEntity
  8
0
100
AcDbBlockBegin
  2
*D16
 70
     1
 10
0.0
 20
0.0
 30
0.0
  3
*D16
  1

  0
LINE
  5
46F5
330
46E9
100
AcDbEntity
  8
AM_5
100
AcDbLine
 10
127.6637661179099
 20
437.1327999913591
 30
0.0
 11
103.6637661179099
 21
437.1327999913591
 31
0.0
  0
LINE
  5
46F6
330
46E9
100
AcDbEntity
  8
AM_5
100
AcDbLine
 10
127.6637661179099
 20
387.3327999913592
 30
0.0
 11
103.6637661179099
 21
387.3327999913592
 31
0.0
  0
LINE
  5
46F7
330
46E9
100
AcDbEntity
  8
AM_5
100
AcDbLine
 10
105.6637661179099
 20
432.1327999913591
 30
0.0
 11
105.6637661179099
 21
392.3327999913592
 31
0.0
  0
INSERT
  5
46F8
330
46E9
100
AcDbEntity
  8
AM_5
100
AcDbBlockReference
  2
_Open30
 10
105.6637661179099
 20
437.1327999913591
 30
0.0
 41
5.0
 42
5.0
 43
5.0
 50
90.0
  0
INSERT
  5
46F9
330
46E9
100
AcDbEntity
  8
AM_5
100
AcDbBlockReference
  2
_Open30
 10
105.6637661179099
 20
387.3327999913592
 30
0.0
 41
5.0
 42
5.0
 43
5.0
 50
270.0
  0
MTEXT
  5
46FA
330
46E9
100
AcDbEntity
  8
AM_5
 62
     2
100
AcDbMText
 10
99.16376611790987
 20
412.2327999913592
 30
0.0
 40
7.0
 41
0.0
 71
     5
 72
     1
  1
49.8
 11
0.0000000000000001
 21
1.0
 31
0.0
 73
     1
 44
1.0
1001
ACAD
1000
MTEXTBEGIN
1070
    73
1070
     1
1070
    44
1040
1.0
1070
    74
1070
     0
1000
MTEXTEND
  0
POINT
  5
46FB
330
46E9
100
AcDbEntity
  8
Defpoints
 62
     0
100
AcDbPoint
 10
129.6637661179099
 20
437.1327999913591
 30
0.0
  0
POINT
  5
46FC
330
46E9
100
AcDbEntity
  8
Defpoints
 62
     0
100
AcDbPoint
 10
129.6637661179099
 20
387.3327999913592
 30
0.0
  0
POINT
  5
46FD
330
46E9
100
AcDbEntity
  8
Defpoints
 62
     0
100
AcDbPoint
 10
105.6637661179099
 20
387.3327999913592
 30
0.0
  0
ENDBLK
  5
4726
330
46E9
100
AcDbEntity
  8
0
100
AcDbBlockEnd
  0
BLOCK
  5
4727
330
470D
100
AcDbEntity
  8
0
100
AcDbBlockBegin
  2
*D17
 70
     1
 10
0.0
 20
0.0
 30
0.0
  3
*D17
  1

  0
LINE
  5
4719
330
470D
100
AcDbEntity
  8
AM_5
100
AcDbLine
 10
118.7637661179099
 20
449.4327999913591
 30
0.0
 11
83.66376611790991
 21
449.4327999913591
 31
0.0
  0
LINE
  5
471A
330
470D
100
AcDbEntity
  8
AM_5
100
AcDbLine
 10
127.7637661179099
 20
373.1327999913592
 30
0.0
 11
83.6637661179099
 21
373.1327999913592
 31
0.0
  0
LINE
  5
471B
330
470D
100
AcDbEntity
  8
AM_5
100
AcDbLine
 10
85.66376611790991
 20
444.4327999913591
 30
0.0
 11
85.66376611790991
 21
378.1327999913592
 31
0.0
  0
INSERT
  5
471C
330
470D
100
AcDbEntity
  8
AM_5
100
AcDbBlockReference
  2
_Open30
 10
85.66376611790991
 20
449.4327999913591
 30
0.0
 41
5.0
 42
5.0
 43
5.0
 50
90.0
  0
INSERT
  5
471D
330
470D
100
AcDbEntity
  8
AM_5
100
AcDbBlockReference
  2
_Open30
 10
85.66376611790991
 20
373.1327999913592
 30
0.0
 41
5.0
 42
5.0
 43
5.0
 50
270.0
  0
MTEXT
  5
471E
330
470D
100
AcDbEntity
  8
AM_5
 62
     2
100
AcDbMText
 10
79.16376611790984
 20
411.2827999913591
 30
0.0
 40
7.0
 41
0.0
 71
     5
 72
     1
  1
76.3
 11
0.0000000000000001
 21
1.0
 31
0.0
 73
     1
 44
1.0
1001
ACAD
1000
MTEXTBEGIN
1070
    73
1070
     1
1070
    44
1040
1.0
1070
    74
1070
     0
1000
MTEXTEND
  0
POINT
  5
471F
330
470D
100
AcDbEntity
  8
Defpoints
 62
     0
100
AcDbPoint
 10
120.7637661179099
 20
449.4327999913591
 30
0.0
  0
POINT
  5
4720
330
470D
100
AcDbEntity
  8
Defpoints
 62
     0
100
AcDbPoint
 10
129.7637661179099
 20
373.1327999913591
 30
0.0
  0
POINT
  5
4721
330
470D
100
AcDbEntity
  8
Defpoints
 62
     0
100
AcDbPoint
 10
85.66376611790991
 20
373.1327999913592
 30
0.0
  0
ENDBLK
  5
4728
330
470D
100
AcDbEntity
  8
0
100
AcDbBlockEnd
  0
BLOCK
  5
4781
330
4769
100
AcDbEntity
  8
0
100
AcDbBlockBegin
  2
*D18
 70
     1
 10
0.0
 20
0.0
 30
0.0
  3
*D18
  1

  0
LINE
  5
4775
330
4769
100
AcDbEntity
  8
AM_5
100
AcDbLine
 10
119.7637661179099
 20
450.4327999913591
 30
0.0
 11
119.7637661179099
 21
495.432800991359
 31
0.0
  0
LINE
  5
4776
330
4769
100
AcDbEntity
  8
AM_5
100
AcDbLine
 10
352.7637661179099
 20
450.4327999913591
 30
0.0
 11
352.7637661179099
 21
495.432800991359
 31
0.0
  0
LINE
  5
4777
330
4769
100
AcDbEntity
  8
AM_5
100
AcDbLine
 10
124.7637661179099
 20
493.4328009913589
 30
0.0
 11
347.76376611791
 21
493.4328009913589
 31
0.0
  0
INSERT
  5
4778
330
4769
100
AcDbEntity
  8
AM_5
100
AcDbBlockReference
  2
_Open30
 10
119.7637661179099
 20
493.4328009913589
 30
0.0
 41
5.0
 42
5.0
 43
5.0
 50
180.0
  0
INSERT
  5
4779
330
4769
100
AcDbEntity
  8
AM_5
100
AcDbBlockReference
  2
_Open30
 10
352.7637661179099
 20
493.4328009913589
 30
0.0
 41
5.0
 42
5.0
 43
5.0
  0
MTEXT
  5
477A
330
4769
100
AcDbEntity
  8
AM_5
 62
     2
100
AcDbMText
 10
236.2637661179099
 20
499.9334899677369
 30
0.0
 40
7.0
 41
0.0
 71
     5
 72
     1
  1
233
 73
     1
 44
1.0
1001
ACAD
1000
MTEXTBEGIN
1070
    73
1070
     1
1070
    44
1040
1.0
1070
    74
1070
     0
1000
MTEXTEND
  0
POINT
  5
477B
330
4769
100
AcDbEntity
  8
Defpoints
 62
     0
100
AcDbPoint
 10
119.7637661179099
 20
448.4327999913591
 30
0.0
  0
POINT
  5
477C
330
4769
100
AcDbEntity
  8
Defpoints
 62
     0
100
AcDbPoint
 10
352.7637661179099
 20
448.4327999913591
 30
0.0
  0
POINT
  5
477D
330
4769
100
AcDbEntity
  8
Defpoints
 62
     0
100
AcDbPoint
 10
352.7637661179099
 20
493.4328009913589
 30
0.0
  0
ENDBLK
  5
4782
330
4769
100
AcDbEntity
  8
0
100
AcDbBlockEnd
  0
BLOCK
  5
47AB
330
4793
100
AcDbEntity
  8
0
100
AcDbBlockBegin
  2
*D19
 70
     1
 10
0.0
 20
0.0
 30
0.0
  3
*D19
  1

  0
LINE
  5
479F
330
4793
100
AcDbEntity
  8
AM_5
100
AcDbLine
 10
440.7090111467645
 20
433.346763912429
 30
0.0
 11
440.7090111467645
 21
475.432801001359
 31
0.0
  0
LINE
  5
47A0
330
4793
100
AcDbEntity
  8
AM_5
100
AcDbLine
 10
466.2090111467646
 20
451.432799991359
 30
0.0
 11
466.2090111467646
 21
475.432801001359
 31
0.0
  0
LINE
  5
47A1
330
4793
100
AcDbEntity
  8
AM_5
100
AcDbLine
 10
445.7090111467644
 20
473.4328010013591
 30
0.0
 11
461.2090111467646
 21
473.4328010013591
 31
0.0
  0
INSERT
  5
47A2
330
4793
100
AcDbEntity
  8
AM_5
100
AcDbBlockReference
  2
_Open30
 10
440.7090111467645
 20
473.4328010013591
 30
0.0
 41
5.0
 42
5.0
 43
5.0
 50
180.0
  0
INSERT
  5
47A3
330
4793
100
AcDbEntity
  8
AM_5
100
AcDbBlockReference
  2
_Open30
 10
466.2090111467646
 20
473.4328010013591
 30
0.0
 41
5.0
 42
5.0
 43
5.0
  0
MTEXT
  5
47A4
330
4793
100
AcDbEntity
  8
AM_5
 62
     2
100
AcDbMText
 10
453.4590111467645
 20
479.933489977737
 30
0.0
 40
7.0
 41
0.0
 71
     5
 72
     1
  1
25.5
 73
     1
 44
1.0
1001
ACAD
1000
MTEXTBEGIN
1070
    73
1070
     1
1070
    44
1040
1.0
1070
    74
1070
     0
1000
MTEXTEND
  0
POINT
  5
47A5
330
4793
100
AcDbEntity
  8
Defpoints
 62
     0
100
AcDbPoint
 10
440.7090111467645
 20
431.346763912429
 30
0.0
  0
POINT
  5
47A6
330
4793
100
AcDbEntity
  8
Defpoints
 62
     0
100
AcDbPoint
 10
466.2090111467646
 20
449.4327999913591
 30
0.0
  0
POINT
  5
47A7
330
4793
100
AcDbEntity
  8
Defpoints
 62
     0
100
AcDbPoint
 10
466.2090111467646
 20
473.4328010013591
 30
0.0
  0
ENDBLK
  5
47AC
330
4793
100
AcDbEntity
  8
0
100
AcDbBlockEnd
  0
BLOCK
  5
490A
330
48EE
100
AcDbEntity
  8
0
100
AcDbBlockBegin
  2
*D20
 70
     1
 10
0.0
 20
0.0
 30
0.0
  3
*D20
  1

  0
LINE
  5
490C
330
48EE
100
AcDbEntity
  8
AM_5
100
AcDbLine
 10
125.9637661179101
 20
290.4304660964848
 30
0.0
 11
103.6637661179099
 21
290.4304660964848
 31
0.0
  0
LINE
  5
490D
330
48EE
100
AcDbEntity
  8
AM_5
100
AcDbLine
 10
125.9637661179101
 20
293.6304660964848
 30
0.0
 11
103.6637661179099
 21
293.6304660964848
 31
0.0
  0
LINE
  5
490E
330
48EE
100
AcDbEntity
  8
AM_5
100
AcDbLine
 10
105.6637661179099
 20
285.4304660964849
 30
0.0
 11
105.6637661179099
 21
280.4304660964849
 31
0.0
  0
LINE
  5
490F
330
48EE
100
AcDbEntity
  8
AM_5
100
AcDbLine
 10
105.6637661179099
 20
298.6304660964848
 30
0.0
 11
105.6637661179099
 21
319.8508794823116
 31
0.0
  0
LINE
  5
4910
330
48EE
100
AcDbEntity
  8
AM_5
100
AcDbLine
 10
105.6637661179099
 20
290.4304660964848
 30
0.0
 11
105.6637661179099
 21
293.6304660964848
 31
0.0
  0
INSERT
  5
4911
330
48EE
100
AcDbEntity
  8
AM_5
100
AcDbBlockReference
  2
_Open30
 10
105.6637661179099
 20
290.4304660964848
 30
0.0
 41
5.0
 42
5.0
 43
5.0
 50
90.0
  0
INSERT
  5
4912
330
48EE
100
AcDbEntity
  8
AM_5
100
AcDbBlockReference
  2
_Open30
 10
105.6637661179099
 20
293.6304660964848
 30
0.0
 41
5.0
 42
5.0
 43
5.0
 50
270.0
  0
MTEXT
  5
4913
330
48EE
100
AcDbEntity
  8
AM_5
 62
     2
100
AcDbMText
 10
99.16307714153191
 20
311.7406727893982
 30
0.0
 40
7.0
 41
0.0
 71
     5
 72
     1
  1
3.2
 11
0.0000000000000001
 21
1.0
 31
0.0
 73
     1
 44
1.0
1001
ACAD
1000
MTEXTBEGIN
1070
    73
1070
     1
1070
    44
1040
1.0
1070
    74
1070
     0
1000
MTEXTEND
  0
POINT
  5
4914
330
48EE
100
AcDbEntity
  8
Defpoints
 62
     0
100
AcDbPoint
 10
127.9637661179101
 20
290.4304660964848
 30
0.0
  0
POINT
  5
4915
330
48EE
100
AcDbEntity
  8
Defpoints
 62
     0
100
AcDbPoint
 10
127.9637661179101
 20
293.6304660964848
 30
0.0
  0
POINT
  5
4916
330
48EE
100
AcDbEntity
  8
Defpoints
 62
     0
100
AcDbPoint
 10
105.6637661179099
 20
293.6304660964848
 30
0.0
  0
ENDBLK
  5
490B
330
48EE
100
AcDbEntity
  8
0
100
AcDbBlockEnd
  0
BLOCK
  5
4943
330
4927
100
AcDbEntity
  8
0
100
AcDbBlockBegin
  2
*D21
 70
     1
 10
0.0
 20
0.0
 30
0.0
  3
*D21
  1

  0
LINE
  5
4945
330
4927
100
AcDbEntity
  8
AM_5
100
AcDbLine
 10
120.76376611791
 20
286.5304660964834
 30
0.0
 11
83.66376611790988
 21
286.5304660964834
 31
0.0
  0
LINE
  5
4946
330
4927
100
AcDbEntity
  8
AM_5
100
AcDbLine
 10
120.7637661179099
 20
297.5304660964834
 30
0.0
 11
83.6637661179099
 21
297.5304660964834
 31
0.0
  0
LINE
  5
4947
330
4927
100
AcDbEntity
  8
AM_5
100
AcDbLine
 10
85.66376611790989
 20
281.5304660964833
 30
0.0
 11
85.66376611790989
 21
276.5304660964833
 31
0.0
  0
LINE
  5
4948
330
4927
100
AcDbEntity
  8
AM_5
100
AcDbLine
 10
85.66376611790991
 20
302.5304660964834
 30
0.0
 11
85.66376611790991
 21
307.5304660964834
 31
0.0
  0
LINE
  5
4949
330
4927
100
AcDbEntity
  8
AM_5
100
AcDbLine
 10
85.66376611790989
 20
286.5304660964834
 30
0.0
 11
85.66376611790991
 21
297.5304660964834
 31
0.0
  0
INSERT
  5
494A
330
4927
100
AcDbEntity
  8
AM_5
100
AcDbBlockReference
  2
_Open30
 10
85.66376611790989
 20
286.5304660964834
 30
0.0
 41
5.0
 42
5.0
 43
5.0
 50
90.0
  0
INSERT
  5
494B
330
4927
100
AcDbEntity
  8
AM_5
100
AcDbBlockReference
  2
_Open30
 10
85.66376611790991
 20
297.5304660964834
 30
0.0
 41
5.0
 42
5.0
 43
5.0
 50
270.0
  0
MTEXT
  5
494C
330
4927
100
AcDbEntity
  8
AM_5
 62
     2
100
AcDbMText
 10
79.16376611790984
 20
292.0304660964833
 30
0.0
 40
7.0
 41
0.0
 71
     5
 72
     1
  1
11
 11
0.0000000000000001
 21
1.0
 31
0.0
 73
     1
 44
1.0
1001
ACAD
1000
MTEXTBEGIN
1070
    73
1070
     1
1070
    44
1040
1.0
1070
    74
1070
     0
1000
MTEXTEND
  0
POINT
  5
494D
330
4927
100
AcDbEntity
  8
Defpoints
 62
     0
100
AcDbPoint
 10
122.76376611791
 20
286.5304660964834
 30
0.0
  0
POINT
  5
494E
330
4927
100
AcDbEntity
  8
Defpoints
 62
     0
100
AcDbPoint
 10
122.7637661179099
 20
297.5304660964834
 30
0.0
  0
POINT
  5
494F
330
4927
100
AcDbEntity
  8
Defpoints
 62
     0
100
AcDbPoint
 10
85.66376611790991
 20
297.5304660964834
 30
0.0
  0
ENDBLK
  5
4944
330
4927
100
AcDbEntity
  8
0
100
AcDbBlockEnd
  0
BLOCK
  5
497C
330
4960
100
AcDbEntity
  8
0
100
AcDbBlockBegin
  2
*D22
 70
     1
 10
0.0
 20
0.0
 30
0.0
  3
*D22
  1

  0
LINE
  5
49B3
330
4960
100
AcDbEntity
  8
AM_5
100
AcDbLine
 10
131.56376611791
 20
294.6304660964848
 30
0.0
 11
131.56376611791
 21
322.3280901472699
 31
0.0
  0
LINE
  5
49B4
330
4960
100
AcDbEntity
  8
AM_5
100
AcDbLine
 10
126.96376611791
 20
294.6304660964846
 30
0.0
 11
126.96376611791
 21
322.3280901472699
 31
0.0
  0
LINE
  5
49B5
330
4960
100
AcDbEntity
  8
AM_5
100
AcDbLine
 10
121.96376611791
 20
320.3280901472699
 30
0.0
 11
116.96376611791
 21
320.3280901472699
 31
0.0
  0
LINE
  5
49B6
330
4960
100
AcDbEntity
  8
AM_5
100
AcDbLine
 10
136.56376611791
 20
320.3280901472699
 30
0.0
 11
158.4110102123982
 21
320.3280901472699
 31
0.0
  0
LINE
  5
49B7
330
4960
100
AcDbEntity
  8
AM_5
100
AcDbLine
 10
126.96376611791
 20
320.3280901472699
 30
0.0
 11
131.56376611791
 21
320.3280901472699
 31
0.0
  0
INSERT
  5
49B8
330
4960
100
AcDbEntity
  8
AM_5
100
AcDbBlockReference
  2
_Open30
 10
126.96376611791
 20
320.3280901472699
 30
0.0
 41
5.0
 42
5.0
 43
5.0
  0
INSERT
  5
49B9
330
4960
100
AcDbEntity
  8
AM_5
100
AcDbBlockReference
  2
_Open30
 10
131.56376611791
 20
320.3280901472699
 30
0.0
 41
5.0
 42
5.0
 43
5.0
 50
180.0
  0
MTEXT
  5
49BA
330
4960
100
AcDbEntity
  8
AM_5
 62
     2
100
AcDbMText
 10
149.9873881651541
 20
326.8280901472699
 30
0.0
 40
7.0
 41
0.0
 71
     5
 72
     1
  1
4.6
 73
     1
 44
1.0
1001
ACAD
1000
MTEXTBEGIN
1070
    73
1070
     1
1070
    44
1040
1.0
1070
    74
1070
     0
1000
MTEXTEND
  0
POINT
  5
49BB
330
4960
100
AcDbEntity
  8
Defpoints
 62
     0
100
AcDbPoint
 10
131.56376611791
 20
292.6304660964849
 30
0.0
  0
POINT
  5
49BC
330
4960
100
AcDbEntity
  8
Defpoints
 62
     0
100
AcDbPoint
 10
126.96376611791
 20
292.6304660964846
 30
0.0
  0
POINT
  5
49BD
330
4960
100
AcDbEntity
  8
Defpoints
 62
     0
100
AcDbPoint
 10
126.96376611791
 20
320.3280901472699
 30
0.0
  0
ENDBLK
  5
497D
330
4960
100
AcDbEntity
  8
0
100
AcDbBlockEnd
  0
BLOCK
  5
49B1
330
4999
100
AcDbEntity
  8
0
100
AcDbBlockBegin
  2
*D23
 70
     1
 10
0.0
 20
0.0
 30
0.0
  3
*D23
  1

  0
LINE
  5
49BE
330
4999
100
AcDbEntity
  8
AM_5
100
AcDbLine
 10
119.7637661179099
 20
296.5304660964833
 30
0.0
 11
119.7637661179099
 21
337.8069552678546
 31
0.0
  0
LINE
  5
49BF
330
4999
100
AcDbEntity
  8
AM_5
100
AcDbLine
 10
352.7637661179099
 20
296.5304660964869
 30
0.0
 11
352.7637661179099
 21
337.8069552678546
 31
0.0
  0
LINE
  5
49C0
330
4999
100
AcDbEntity
  8
AM_5
100
AcDbLine
 10
124.7637661179099
 20
335.8069552678546
 30
0.0
 11
347.76376611791
 21
335.8069552678546
 31
0.0
  0
INSERT
  5
49C1
330
4999
100
AcDbEntity
  8
AM_5
100
AcDbBlockReference
  2
_Open30
 10
119.7637661179099
 20
335.8069552678546
 30
0.0
 41
5.0
 42
5.0
 43
5.0
 50
180.0
  0
INSERT
  5
49C2
330
4999
100
AcDbEntity
  8
AM_5
100
AcDbBlockReference
  2
_Open30
 10
352.7637661179099
 20
335.8069552678546
 30
0.0
 41
5.0
 42
5.0
 43
5.0
  0
MTEXT
  5
49C3
330
4999
100
AcDbEntity
  8
AM_5
 62
     2
100
AcDbMText
 10
236.2637661179099
 20
342.3076442442326
 30
0.0
 40
7.0
 41
0.0
 71
     5
 72
     1
  1
233
 73
     1
 44
1.0
1001
ACAD
1000
MTEXTBEGIN
1070
    73
1070
     1
1070
    44
1040
1.0
1070
    74
1070
     0
1000
MTEXTEND
  0
POINT
  5
49C4
330
4999
100
AcDbEntity
  8
Defpoints
 62
     0
100
AcDbPoint
 10
119.7637661179099
 20
294.5304660964833
 30
0.0
  0
POINT
  5
49C5
330
4999
100
AcDbEntity
  8
Defpoints
 62
     0
100
AcDbPoint
 10
352.7637661179099
 20
294.5304660964869
 30
0.0
  0
POINT
  5
49C6
330
4999
100
AcDbEntity
  8
Defpoints
 62
     0
100
AcDbPoint
 10
352.7637661179099
 20
335.8069552678546
 30
0.0
  0
ENDBLK
  5
49B2
330
4999
100
AcDbEntity
  8
0
100
AcDbBlockEnd
  0
BLOCK
  5
49FD
330
49E1
100
AcDbEntity
  8
0
100
AcDbBlockBegin
  2
*D24
 70
     1
 10
0.0
 20
0.0
 30
0.0
  3
*D24
  1

  0
LINE
  5
49FF
330
49E1
100
AcDbEntity
  8
AM_5
100
AcDbLine
 10
374.1821752143501
 20
298.5304660964848
 30
0.0
 11
374.1821752143501
 21
337.8069552678546
 31
0.0
  0
LINE
  5
4A00
330
49E1
100
AcDbEntity
  8
AM_5
100
AcDbLine
 10
378.1821752143502
 20
299.5304660964848
 30
0.0
 11
378.1821752143502
 21
337.8069552678546
 31
0.0
  0
LINE
  5
4A01
330
49E1
100
AcDbEntity
  8
AM_5
100
AcDbLine
 10
369.1821752143501
 20
335.8069552678546
 30
0.0
 11
364.1821752143501
 21
335.8069552678546
 31
0.0
  0
LINE
  5
4A02
330
49E1
100
AcDbEntity
  8
AM_5
100
AcDbLine
 10
383.1821752143501
 20
335.8069552678546
 30
0.0
 11
397.6821752143501
 21
335.8069552678546
 31
0.0
  0
LINE
  5
4A03
330
49E1
100
AcDbEntity
  8
AM_5
100
AcDbLine
 10
374.1821752143501
 20
335.8069552678546
 30
0.0
 11
378.1821752143502
 21
335.8069552678546
 31
0.0
  0
INSERT
  5
4A04
330
49E1
100
AcDbEntity
  8
AM_5
100
AcDbBlockReference
  2
_Open30
 10
374.1821752143501
 20
335.8069552678546
 30
0.0
 41
5.0
 42
5.0
 43
5.0
  0
INSERT
  5
4A05
330
49E1
100
AcDbEntity
  8
AM_5
100
AcDbBlockReference
  2
_Open30
 10
378.1821752143502
 20
335.8069552678546
 30
0.0
 41
5.0
 42
5.0
 43
5.0
 50
180.0
  0
MTEXT
  5
4A06
330
49E1
100
AcDbEntity
  8
AM_5
 62
     2
100
AcDbMText
 10
392.9321752143501
 20
342.3069552678546
 30
0.0
 40
7.0
 41
0.0
 71
     5
 72
     1
  1
4
 73
     1
 44
1.0
1001
ACAD
1000
MTEXTBEGIN
1070
    73
1070
     1
1070
    44
1040
1.0
1070
    74
1070
     0
1000
MTEXTEND
  0
POINT
  5
4A07
330
49E1
100
AcDbEntity
  8
Defpoints
 62
     0
100
AcDbPoint
 10
374.1821752143501
 20
296.5304660964848
 30
0.0
  0
POINT
  5
4A08
330
49E1
100
AcDbEntity
  8
Defpoints
 62
     0
100
AcDbPoint
 10
378.1821752143502
 20
297.5304660964848
 30
0.0
  0
POINT
  5
4A09
330
49E1
100
AcDbEntity
  8
Defpoints
 62
     0
100
AcDbPoint
 10
378.1821752143502
 20
335.8069552678546
 30
0.0
  0
ENDBLK
  5
49FE
330
49E1
100
AcDbEntity
  8
0
100
AcDbBlockEnd
  0
BLOCK
  5
4A71
330
4A1B
100
AcDbEntity
  8
0
100
AcDbBlockBegin
  2
*D25
 70
     1
 10
0.0
 20
0.0
 30
0.0
  3
*D25
  1

  0
LINE
  5
4A37
330
4A1B
100
AcDbEntity
  8
AM_5
100
AcDbLine
 10
129.26376611791
 20
288.4304660964848
 30
0.0
 11
129.26376611791
 21
264.4304660964836
 31
0.0
  0
LINE
  5
4A38
330
4A1B
100
AcDbEntity
  8
AM_5
100
AcDbLine
 10
211.26376611791
 20
288.4304660964836
 30
0.0
 11
211.26376611791
 21
264.4304660964836
 31
0.0
  0
LINE
  5
4A39
330
4A1B
100
AcDbEntity
  8
AM_5
100
AcDbLine
 10
134.26376611791
 20
266.4304660964836
 30
0.0
 11
206.26376611791
 21
266.4304660964836
 31
0.0
  0
INSERT
  5
4A3A
330
4A1B
100
AcDbEntity
  8
AM_5
100
AcDbBlockReference
  2
_Open30
 10
129.26376611791
 20
266.4304660964836
 30
0.0
 41
5.0
 42
5.0
 43
5.0
 50
180.0
  0
INSERT
  5
4A3B
330
4A1B
100
AcDbEntity
  8
AM_5
100
AcDbBlockReference
  2
_Open30
 10
211.26376611791
 20
266.4304660964836
 30
0.0
 41
5.0
 42
5.0
 43
5.0
  0
MTEXT
  5
4A3C
330
4A1B
100
AcDbEntity
  8
AM_5
 62
     2
100
AcDbMText
 10
170.26376611791
 20
272.9311550728616
 30
0.0
 40
7.0
 41
0.0
 71
     5
 72
     1
  1
82
 73
     1
 44
1.0
1001
ACAD
1000
MTEXTBEGIN
1070
    73
1070
     1
1070
    44
1040
1.0
1070
    74
1070
     0
1000
MTEXTEND
  0
POINT
  5
4A3D
330
4A1B
100
AcDbEntity
  8
Defpoints
 62
     0
100
AcDbPoint
 10
129.26376611791
 20
290.4304660964848
 30
0.0
  0
POINT
  5
4A3E
330
4A1B
100
AcDbEntity
  8
Defpoints
 62
     0
100
AcDbPoint
 10
211.26376611791
 20
290.4304660964836
 30
0.0
  0
POINT
  5
4A3F
330
4A1B
100
AcDbEntity
  8
Defpoints
 62
     0
100
AcDbPoint
 10
211.26376611791
 20
266.4304660964836
 30
0.0
  0
ENDBLK
  5
4A72
330
4A1B
100
AcDbEntity
  8
0
100
AcDbBlockEnd
  0
BLOCK
  5
4A73
330
4A41
100
AcDbEntity
  8
0
100
AcDbBlockBegin
  2
*D26
 70
     1
 10
0.0
 20
0.0
 30
0.0
  3
*D26
  1

  0
LINE
  5
4A4B
330
4A41
100
AcDbEntity
  8
AM_5
100
AcDbLine
 10
211.26376611791
 20
288.4304660964836
 30
0.0
 11
211.26376611791
 21
264.4304660964835
 31
0.0
  0
LINE
  5
4A4C
330
4A41
100
AcDbEntity
  8
AM_5
100
AcDbLine
 10
261.2637661179099
 20
288.430466096484
 30
0.0
 11
261.2637661179099
 21
264.4304660964835
 31
0.0
  0
LINE
  5
4A4D
330
4A41
100
AcDbEntity
  8
AM_5
100
AcDbLine
 10
216.26376611791
 20
266.4304660964835
 30
0.0
 11
256.2637661179099
 21
266.4304660964835
 31
0.0
  0
INSERT
  5
4A4E
330
4A41
100
AcDbEntity
  8
AM_5
100
AcDbBlockReference
  2
_Open30
 10
211.26376611791
 20
266.4304660964835
 30
0.0
 41
5.0
 42
5.0
 43
5.0
 50
180.0
  0
INSERT
  5
4A4F
330
4A41
100
AcDbEntity
  8
AM_5
100
AcDbBlockReference
  2
_Open30
 10
261.2637661179099
 20
266.4304660964835
 30
0.0
 41
5.0
 42
5.0
 43
5.0
  0
MTEXT
  5
4A50
330
4A41
100
AcDbEntity
  8
AM_5
 62
     2
100
AcDbMText
 10
236.2637661179099
 20
272.9304660964835
 30
0.0
 40
7.0
 41
0.0
 71
     5
 72
     1
  1
50
 73
     1
 44
1.0
1001
ACAD
1000
MTEXTBEGIN
1070
    73
1070
     1
1070
    44
1040
1.0
1070
    74
1070
     0
1000
MTEXTEND
  0
POINT
  5
4A51
330
4A41
100
AcDbEntity
  8
Defpoints
 62
     0
100
AcDbPoint
 10
211.26376611791
 20
290.4304660964836
 30
0.0
  0
POINT
  5
4A52
330
4A41
100
AcDbEntity
  8
Defpoints
 62
     0
100
AcDbPoint
 10
261.2637661179099
 20
290.430466096484
 30
0.0
  0
POINT
  5
4A53
330
4A41
100
AcDbEntity
  8
Defpoints
 62
     0
100
AcDbPoint
 10
261.2637661179099
 20
266.4304660964835
 30
0.0
  0
ENDBLK
  5
4A74
330
4A41
100
AcDbEntity
  8
0
100
AcDbBlockEnd
  0
BLOCK
  5
4A75
330
4A5B
100
AcDbEntity
  8
0
100
AcDbBlockBegin
  2
*D27
 70
     1
 10
0.0
 20
0.0
 30
0.0
  3
*D27
  1

  0
LINE
  5
4A65
330
4A5B
100
AcDbEntity
  8
AM_5
100
AcDbLine
 10
261.2637661179099
 20
288.430466096484
 30
0.0
 11
261.2637661179099
 21
264.4304660964838
 31
0.0
  0
LINE
  5
4A66
330
4A5B
100
AcDbEntity
  8
AM_5
100
AcDbLine
 10
343.2637661179099
 20
288.4304660964866
 30
0.0
 11
343.2637661179099
 21
264.4304660964838
 31
0.0
  0
LINE
  5
4A67
330
4A5B
100
AcDbEntity
  8
AM_5
100
AcDbLine
 10
266.2637661179099
 20
266.4304660964837
 30
0.0
 11
338.2637661179099
 21
266.4304660964837
 31
0.0
  0
INSERT
  5
4A68
330
4A5B
100
AcDbEntity
  8
AM_5
100
AcDbBlockReference
  2
_Open30
 10
261.2637661179099
 20
266.4304660964837
 30
0.0
 41
5.0
 42
5.0
 43
5.0
 50
180.0
  0
INSERT
  5
4A69
330
4A5B
100
AcDbEntity
  8
AM_5
100
AcDbBlockReference
  2
_Open30
 10
343.2637661179099
 20
266.4304660964837
 30
0.0
 41
5.0
 42
5.0
 43
5.0
  0
MTEXT
  5
4A6A
330
4A5B
100
AcDbEntity
  8
AM_5
 62
     2
100
AcDbMText
 10
302.2637661179099
 20
272.9311550728617
 30
0.0
 40
7.0
 41
0.0
 71
     5
 72
     1
  1
82
 73
     1
 44
1.0
1001
ACAD
1000
MTEXTBEGIN
1070
    73
1070
     1
1070
    44
1040
1.0
1070
    74
1070
     0
1000
MTEXTEND
  0
POINT
  5
4A6B
330
4A5B
100
AcDbEntity
  8
Defpoints
 62
     0
100
AcDbPoint
 10
261.2637661179099
 20
290.430466096484
 30
0.0
  0
POINT
  5
4A6C
330
4A5B
100
AcDbEntity
  8
Defpoints
 62
     0
100
AcDbPoint
 10
343.2637661179099
 20
290.4304660964866
 30
0.0
  0
POINT
  5
4A6D
330
4A5B
100
AcDbEntity
  8
Defpoints
 62
     0
100
AcDbPoint
 10
343.2637661179099
 20
266.4304660964837
 30
0.0
  0
ENDBLK
  5
4A76
330
4A5B
100
AcDbEntity
  8
0
100
AcDbBlockEnd
  0
ENDSEC
  0
SECTION
  2
ENTITIES
  0
INSERT
  5
A9A
330
1F
100
AcDbEntity
  8
0
370
     0
100
AcDbBlockReference
  2
TK-A3
 10
0.0
 20
0.0
 30
0.0
 41
2.0
 42
2.0
 43
2.0
1001
GENIUS_GENOREF_13
1005
BB6
1001
GENIUS_GENODEF_13
1002
{
1000
HIER
1070
     0
1002
}
1002
{
1000
MANEDIT
1070
     0
1002
}
1002
{
1000
NOSEL
1070
     0
1002
}
1002
{
1000
BEHIND
1070
     0
1002
}
1002
{
1000
OTHER
1070
     0
1002
}
1002
{
1000
REACTOR
1002
}
1001
GENIUS_GENOBJ-N-SDF_13
1002
{
1000
OWNER
1000
GEN
1002
}
1001
GENIUS_GENSCREG_15
1040
2.0
1040
1.0
1011
0.0
1021
0.0
1031
0.0
1011
806.0
1021
560.0000000000001
1031
0.0
1070
     3
  0
INSERT
  5
A9B
330
1F
100
AcDbEntity
  8
0
370
     0
100
AcDbBlockReference
 66
     1
  2
TK-TITLE
 10
806.0
 20
0.0
 30
0.0
 41
2.0
 42
2.0
 43
2.0
1001
GENIUS_GENOREF_13
1005
BB6
  0
ATTRIB
  5
2DA7
330
A9B
100
AcDbEntity
  8
0
100
AcDbText
 10
789.9953816209083
 20
3.410378868790072
 30
0.0
 40
5.0
  1

100
AcDbAttribute
  2
GEN-TITLE-NR2
 70
     0
  0
ATTRIB
  5
2DA8
330
A9B
100
AcDbEntity
  8
0
100
AcDbText
 10
637.7149619682934
 20
25.65580865128755
 30
0.0
 40
7.0
  1
VMA-12
100
AcDbAttribute
  2
GEN-TITLE-DES1
 70
     0
  0
ATTRIB
  5
2DA9
330
A9B
100
AcDbEntity
  8
0
100
AcDbText
 10
638.0
 20
18.2999999999999
 30
0.0
 40
5.0
  1

100
AcDbAttribute
  2
GEN-TITLE-DES2
 70
     0
  0
ATTRIB
  5
2DAA
330
A9B
100
AcDbEntity
  8
0
100
AcDbText
 10
638.0
 20
3.999999999999914
 30
0.0
 40
6.0
  1

100
AcDbAttribute
  2
GEN-TITLE-NR1
 70
     0
  0
ATTRIB
  5
2DAB
330
A9B
100
AcDbEntity
  8
0
100
AcDbText
 10
508.0762648329416
 20
86.59999999999982
 30
0.0
 40
6.0
  1
ポリカーボネート
100
AcDbAttribute
  2
GEN-TITLE-MAT1
 70
     0
  0
ATTRIB
  5
2DAC
330
A9B
100
AcDbEntity
  8
0
100
AcDbText
 10
508.0762648329416
 20
66.59999999999982
 30
0.0
 40
6.0
  1
透明
100
AcDbAttribute
  2
GEN-TITLE-MAT2
 70
     0
  0
ATTRIB
  5
2DAD
330
A9B
100
AcDbEntity
  8
0
100
AcDbText
 10
452.6745181747809
 20
32.39999999999988
 30
0.0
 40
6.0
  1
1
 72
     2
 11
454.7745181747809
 21
31.59999999999988
 31
0.0
100
AcDbAttribute
  2
GEN-TITLE-QTY
 70
     0
 74
     1
  0
ATTRIB
  5
2DAE
330
A9B
100
AcDbEntity
  8
0
100
AcDbText
 10
441.8901664404432
 20
57.39999999999994
 30
0.0
 40
6.0
  1
1:2
 72
     2
 11
450.3505207711518
 21
56.59999999999995
 31
0.0
100
AcDbAttribute
  2
GEN-TITLE-SCA
 70
     0
 74
     1
  0
ATTRIB
  5
2DAF
330
A9B
100
AcDbEntity
  8
0
100
AcDbText
 10
425.6616136045801
 20
7.976685075221328
 30
0.0
 40
6.0
  1
2010/05/12
 72
     1
 11
445.5656096675722
 21
7.176685075221328
 31
0.0
100
AcDbAttribute
  2
GEN-TITLE-DAT
 70
     0
 74
     1
  0
SEQEND
  5
2DA6
330
A9B
100
AcDbEntity
  8
0
370
     0
  0
ARC
  5
B20
330
1F
100
AcDbEntity
  8
TK3
100
AcDbCircle
 10
375.1821752143501
 20
296.5304660964848
 30
0.0
 40
1.0
100
AcDbArc
 50
90.0
 51
180.0
1001
GENIUS_GENOBJ-N-FIL_13
1002
{
1000
OWNER
1000
GEN
1002
}
1001
GENIUS_GENODEF_13
1002
{
1000
HIER
1070
     0
1002
}
1002
{
1000
MANEDIT
1070
     0
1002
}
1002
{
1000
NOSEL
1070
     0
1002
}
1002
{
1000
BEHIND
1070
     0
1002
}
1002
{
1000
OTHER
1070
     0
1002
}
1002
{
1000
REACTOR
1002
}
  0
ARC
  5
B21
330
1F
100
AcDbEntity
  8
TK3
100
AcDbCircle
 10
375.1821752143501
 20
287.5304660964848
 30
0.0
 40
1.0
100
AcDbArc
 50
180.0
 51
270.0
1001
GENIUS_GENODEF_13
1002
{
1000
HIER
1070
     0
1002
}
1002
{
1000
MANEDIT
1070
     0
1002
}
1002
{
1000
NOSEL
1070
     0
1002
}
1002
{
1000
BEHIND
1070
     0
1002
}
1002
{
1000
OTHER
1070
     0
1002
}
1002
{
1000
REACTOR
1002
}
1001
GENIUS_GENOBJ-N-FIL_13
1002
{
1000
OWNER
1000
GEN
1002
}
  0
LINE
  5
B22
330
1F
100
AcDbEntity
  8
TK3
100
AcDbLine
 10
378.1821752143502
 20
286.5304660964848
 30
0.0
 11
378.1821752143502
 21
297.5304660964848
 31
0.0
  0
LINE
  5
B23
102
{ACAD_REACTORS
330
49EE
102
}
330
1F
100
AcDbEntity
  8
TK3
100
AcDbLine
 10
375.1821752143501
 20
297.5304660964848
 30
0.0
 11
378.1821752143502
 21
297.5304660964848
 31
0.0
  0
LINE
  5
B24
330
1F
100
AcDbEntity
  8
TK3
100
AcDbLine
 10
375.1821752143501
 20
286.5304660964848
 30
0.0
 11
378.1821752143502
 21
286.5304660964848
 31
0.0
  0
LINE
  5
B25
102
{ACAD_REACTORS
330
49EE
102
}
330
1F
100
AcDbEntity
  8
TK3
100
AcDbLine
 10
374.1821752143501
 20
287.5304660964848
 30
0.0
 11
374.1821752143501
 21
296.5304660964848
 31
0.0
  0
LINE
  5
B2D
330
1F
100
AcDbEntity
  8
AM_7
  6
AM_ISO08W050x2
100
AcDbLine
 10
236.2637661179098
 20
300.5304660964849
 30
0.0
 11
236.26376611791
 21
283.5304660964848
 31
0.0
1001
GENIUS_GENODEF_13
1002
{
1000
HIER
1070
     0
1002
}
1002
{
1000
MANEDIT
1070
     0
1002
}
1002
{
1000
NOSEL
1070
     0
1002
}
1002
{
1000
BEHIND
1070
     0
1002
}
1002
{
1000
OTHER
1070
     0
1002
}
1002
{
1000
REACTOR
1002
}
1001
GENIUS_GENOBJ-N-CEN_13
1002
{
1000
OWNER
1000
GEN
1002
}
1001
GENIUS_GENCEN_19
1002
{
1040
3.0
1002
}
  0
LINE
  5
B2E
330
1F
100
AcDbEntity
  8
TK3
100
AcDbLine
 10
236.2637661179099
 20
297.530466096485
 30
0.0
 11
122.7637661179098
 21
297.5304660964834
 31
0.0
  0
LINE
  5
B2F
102
{ACAD_REACTORS
330
4934
102
}
330
1F
100
AcDbEntity
  8
TK3
100
AcDbLine
 10
236.26376611791
 20
286.5304660964849
 30
0.0
 11
122.76376611791
 21
286.5304660964834
 31
0.0
  0
LINE
  5
B30
330
1F
100
AcDbEntity
  8
TK3
100
AcDbLine
 10
119.76376611791
 20
289.5304660964833
 30
0.0
 11
119.7637661179099
 21
294.5304660964834
 31
0.0
  0
ARC
  5
B31
330
1F
100
AcDbEntity
  8
TK3
100
AcDbCircle
 10
122.76376611791
 20
289.5304660964833
 30
0.0
 40
3.0
100
AcDbArc
 50
180.0000000000008
 51
270.0000000000008
1001
GENIUS_GENOBJ-N-FIL_13
1002
{
1000
OWNER
1000
GEN
1002
}
1001
GENIUS_GENODEF_13
1002
{
1000
HIER
1070
     0
1002
}
1002
{
1000
MANEDIT
1070
     0
1002
}
1002
{
1000
NOSEL
1070
     0
1002
}
1002
{
1000
BEHIND
1070
     0
1002
}
1002
{
1000
OTHER
1070
     0
1002
}
1002
{
1000
REACTOR
1002
}
  0
ARC
  5
B32
102
{ACAD_REACTORS
330
4934
330
49A4
102
}
330
1F
100
AcDbEntity
  8
TK3
100
AcDbCircle
 10
122.7637661179099
 20
294.5304660964834
 30
0.0
 40
3.0
100
AcDbArc
 50
90.00000000000081
 51
180.0000000000008
1001
GENIUS_GENOBJ-N-FIL_13
1002
{
1000
OWNER
1000
GEN
1002
}
1001
GENIUS_GENODEF_13
1002
{
1000
HIER
1070
     0
1002
}
1002
{
1000
MANEDIT
1070
     0
1002
}
1002
{
1000
NOSEL
1070
     0
1002
}
1002
{
1000
BEHIND
1070
     0
1002
}
1002
{
1000
OTHER
1070
     0
1002
}
1002
{
1000
REACTOR
1002
}
  0
LWPOLYLINE
  5
B84
102
{ACAD_REACTORS
330
EC5
330
EE9
102
}
330
1F
100
AcDbEntity
  8
TK1
100
AcDbPolyline
 90
        4
 70
     0
 43
0.0
 10
603.7891311654496
 20
233.5049123863683
 10
495.7891311654496
 20
233.5049123863683
 42
0.4142135623730951
 10
492.7891311654495
 20
230.5049123863683
 10
492.7891311654495
 20
206.5049123863683
1001
GENIUS_GENREC_14
1002
{
1000
PYDIR
1011
492.7891311654495
1021
233.5049123863683
1031
0.0
1002
}
1002
{
1000
PXDIR
1011
660.2891311654495
1021
179.5049123863682
1031
0.0
1002
}
1002
{
1000
PORI
1011
492.7891311654495
1021
179.5049123863682
1031
0.0
1002
}
1002
{
1000
PINS
1011
492.7891311654495
1021
179.5049123863682
1031
0.0
1002
}
1002
{
1000
HVAL
1000
54
1002
}
1002
{
1000
H
1070
     2
1002
}
1002
{
1000
WVAL
1000
151
1002
}
1002
{
1000
W
1070
     2
1002
}
1002
{
1000
C
1070
     1
1002
}
1001
GENIUS_GENOBJ-N-REC_13
1002
{
1000
OWNER
1000
GEN
1002
}
1001
GENIUS_GENODEF_13
1002
{
1000
HIER
1070
     0
1002
}
1002
{
1000
MANEDIT
1070
     0
1002
}
1002
{
1000
NOSEL
1070
     0
1002
}
1002
{
1000
BEHIND
1070
     0
1002
}
1002
{
1000
OTHER
1070
     0
1002
}
1002
{
1000
REACTOR
1002
}
  0
LINE
  5
B86
330
1F
100
AcDbEntity
  8
AM_7
100
AcDbLine
 10
603.7891311654496
 20
236.5049123863683
 30
0.0
 11
603.7891311654496
 21
176.5049123863683
 31
0.0
1001
GENIUS_GENODEF_13
1002
{
1000
HIER
1070
     0
1002
}
1002
{
1000
MANEDIT
1070
     0
1002
}
1002
{
1000
NOSEL
1070
     0
1002
}
1002
{
1000
BEHIND
1070
     0
1002
}
1002
{
1000
OTHER
1070
     0
1002
}
1002
{
1000
REACTOR
1002
}
1001
GENIUS_GENOBJ-N-CEN_13
1002
{
1000
OWNER
1000
GEN
1002
}
1001
GENIUS_GENCEN_19
1002
{
1040
3.0
1002
}
  0
LINE
  5
B87
330
1F
100
AcDbEntity
  8
AM_7
  6
AM_ISO08W050x2
100
AcDbLine
 10
496.7891311654495
 20
240.0049123863682
 30
0.0
 11
499.7891311654496
 21
240.0049123863682
 31
0.0
1001
GENIUS_GENOREF_13
1005
BB1
  0
LINE
  5
B88
330
1F
100
AcDbEntity
  8
AM_7
  6
AM_ISO08W050x2
100
AcDbLine
 10
496.7891311654495
 20
240.0049123863682
 30
0.0
 11
496.7891311654495
 21
243.0049123863683
 31
0.0
1001
GENIUS_GENOREF_13
1005
BB1
  0
LINE
  5
B89
330
1F
100
AcDbEntity
  8
AM_7
  6
AM_ISO08W050x2
100
AcDbLine
 10
496.7891311654495
 20
240.0049123863682
 30
0.0
 11
493.7891311654495
 21
240.0049123863682
 31
0.0
1001
GENIUS_GENOREF_13
1005
BB1
  0
LINE
  5
B8A
330
1F
100
AcDbEntity
  8
AM_7
  6
AM_ISO08W050x2
100
AcDbLine
 10
496.7891311654495
 20
240.0049123863682
 30
0.0
 11
496.7891311654495
 21
237.0049123863683
 31
0.0
1001
GENIUS_GENOREF_13
1005
BB1
  0
CIRCLE
  5
BA5
330
1F
100
AcDbEntity
  8
TK1
100
AcDbCircle
 10
496.7891311654495
 20
240.0049123863682
 30
0.0
 40
1.75
  0
MTEXT
  5
BAD
330
1F
100
AcDbEntity
  8
0
100
AcDbMText
 10
496.4696787067632
 20
268.7512230887412
 30
0.0
 40
5.0
 41
41.42854838884113
 71
     1
 72
     5
  1
取付穴加工図
 73
     1
 44
1.0
1001
ACAD
1000
MTEXTBEGIN
1070
    73
1070
     1
1070
    44
1040
1.0
1070
    74
1070
     0
1000
MTEXTEND
  0
POINT
  5
BB1
330
1F
100
AcDbEntity
  8
0
 60
     1
100
AcDbPoint
 10
46.45979601267595
 20
49.04046403679285
 30
0.0
1001
GENIUS_GENOLIS_13
1002
{
1000
ENT
1005
B8A
1005
B89
1005
B88
1005
B87
1002
}
1001
GENIUS_GENODEF_13
1002
{
1000
HIER
1070
    10
1002
}
1002
{
1000
MANEDIT
1070
     0
1002
}
1002
{
1000
NOSEL
1070
     0
1002
}
1002
{
1000
BEHIND
1070
     0
1002
}
1002
{
1000
OTHER
1070
     0
1002
}
1002
{
1000
REACTOR
1002
}
1001
GENIUS_GENOENT_13
1002
{
1000
MYREF
1005
BB1
1002
}
1002
{
1000
GRP
1005
0
1002
}
1001
GENIUS_GENOBJ-N-CRS_13
1002
{
1000
OWNER
1000
GEN
1002
}
  0
POINT
  5
BB6
330
1F
100
AcDbEntity
  8
0
 60
     1
100
AcDbPoint
 10
46.45979601267595
 20
49.04046403679285
 30
0.0
1001
GENIUS_GENOENT_13
1002
{
1000
MYREF
1005
BB6
1002
}
1002
{
1000
GRP
1005
0
1002
}
1001
GENIUS_GENOBJ-N-TIT_13
1002
{
1000
OWNER
1000
GEN
1002
}
1001
GENIUS_GENODEF_13
1002
{
1000
HIER
1070
     1
1002
}
1002
{
1000
MANEDIT
1070
     0
1002
}
1002
{
1000
NOSEL
1070
     0
1002
}
1002
{
1000
BEHIND
1070
     0
1002
}
1002
{
1000
OTHER
1070
     0
1002
}
1002
{
1000
REACTOR
1002
}
1001
GENIUS_GENOLIS_13
1002
{
1000
ENT
1005
A9B
1005
A9A
1005
2DA5
1002
}
1001
GENIUS_GENTITLE_13
1002
{
1000
BORDER
1000
TK-A3
1002
}
1002
{
1000
TITLE
1000
TK-TITLE
1002
}
1002
{
1000
SCALE
1000
1:2
1002
}
1002
{
1000
TITLESTD
1000
ISO
1002
}
1002
{
1000
HRA
1005
A9A
1002
}
1002
{
1000
HTIT
1005
A9B
1002
}
1002
{
1000
GENIUSID
1005
BB6
1002
}
1002
{
1000
INVTXTID
1005
0
1002
}
1002
{
1000
UNCHG
1002
{
1000
GEN-TITLE-SIZ
1000
GEN-TITLE-SCA
1002
}
1002
}
  0
LWPOLYLINE
  5
C9C
102
{ACAD_REACTORS
330
EE9
102
}
330
1F
100
AcDbEntity
  8
TK1
100
AcDbPolyline
 90
        4
 70
     0
 43
0.0
 10
603.7891311654496
 20
179.5049123863683
 10
495.7891311654496
 20
179.5049123863683
 42
-0.4142135623730951
 10
492.7891311654495
 20
182.5049123863683
 10
492.7891311654495
 20
206.5049123863683
1001
GENIUS_GENREC_14
1002
{
1000
PYDIR
1011
492.7891311654495
1021
179.5049123863683
1031
0.0
1002
}
1002
{
1000
PXDIR
1011
660.2891311654495
1021
233.5049123863683
1031
0.0
1002
}
1002
{
1000
PORI
1011
492.7891311654495
1021
233.5049123863683
1031
0.0
1002
}
1002
{
1000
PINS
1011
492.7891311654495
1021
233.5049123863683
1031
0.0
1002
}
1002
{
1000
HVAL
1000
54
1002
}
1002
{
1000
H
1070
     2
1002
}
1002
{
1000
WVAL
1000
151
1002
}
1002
{
1000
W
1070
     2
1002
}
1002
{
1000
C
1070
     1
1002
}
1001
GENIUS_GENOBJ-N-REC_13
1002
{
1000
OWNER
1000
GEN
1002
}
1001
GENIUS_GENODEF_13
1002
{
1000
HIER
1070
     0
1002
}
1002
{
1000
MANEDIT
1070
     0
1002
}
1002
{
1000
NOSEL
1070
     0
1002
}
1002
{
1000
BEHIND
1070
     0
1002
}
1002
{
1000
OTHER
1070
     0
1002
}
1002
{
1000
REACTOR
1002
}
  0
LWPOLYLINE
  5
C9D
102
{ACAD_REACTORS
330
EC5
102
}
330
1F
100
AcDbEntity
  8
TK1
100
AcDbPolyline
 90
        4
 70
     0
 43
0.0
 10
603.7891311654496
 20
233.5049123863683
 10
711.7891311654496
 20
233.5049123863683
 42
-0.4142135623730951
 10
714.7891311654496
 20
230.5049123863683
 10
714.7891311654496
 20
206.5049123863683
1001
GENIUS_GENREC_14
1002
{
1000
PYDIR
1011
714.7891311654496
1021
233.5049123863683
1031
0.0
1002
}
1002
{
1000
PXDIR
1011
547.2891311654495
1021
179.5049123863682
1031
0.0
1002
}
1002
{
1000
PORI
1011
714.7891311654496
1021
179.5049123863682
1031
0.0
1002
}
1002
{
1000
PINS
1011
714.7891311654496
1021
179.5049123863682
1031
0.0
1002
}
1002
{
1000
HVAL
1000
54
1002
}
1002
{
1000
H
1070
     2
1002
}
1002
{
1000
WVAL
1000
151
1002
}
1002
{
1000
W
1070
     2
1002
}
1002
{
1000
C
1070
     1
1002
}
1001
GENIUS_GENOBJ-N-REC_13
1002
{
1000
OWNER
1000
GEN
1002
}
1001
GENIUS_GENODEF_13
1002
{
1000
HIER
1070
     0
1002
}
1002
{
1000
MANEDIT
1070
     0
1002
}
1002
{
1000
NOSEL
1070
     0
1002
}
1002
{
1000
BEHIND
1070
     0
1002
}
1002
{
1000
OTHER
1070
     0
1002
}
1002
{
1000
REACTOR
1002
}
  0
LWPOLYLINE
  5
C9E
330
1F
100
AcDbEntity
  8
TK1
100
AcDbPolyline
 90
        4
 70
     0
 43
0.0
 10
603.7891311654496
 20
179.5049123863683
 10
711.7891311654496
 20
179.5049123863683
 42
0.4142135623730951
 10
714.7891311654496
 20
182.5049123863683
 10
714.7891311654496
 20
206.5049123863683
1001
GENIUS_GENREC_14
1002
{
1000
PYDIR
1011
714.7891311654496
1021
179.5049123863683
1031
0.0
1002
}
1002
{
1000
PXDIR
1011
547.2891311654495
1021
233.5049123863683
1031
0.0
1002
}
1002
{
1000
PORI
1011
714.7891311654496
1021
233.5049123863683
1031
0.0
1002
}
1002
{
1000
PINS
1011
714.7891311654496
1021
233.5049123863683
1031
0.0
1002
}
1002
{
1000
HVAL
1000
54
1002
}
1002
{
1000
H
1070
     2
1002
}
1002
{
1000
WVAL
1000
151
1002
}
1002
{
1000
W
1070
     2
1002
}
1002
{
1000
C
1070
     1
1002
}
1001
GENIUS_GENOBJ-N-REC_13
1002
{
1000
OWNER
1000
GEN
1002
}
1001
GENIUS_GENODEF_13
1002
{
1000
HIER
1070
     0
1002
}
1002
{
1000
MANEDIT
1070
     0
1002
}
1002
{
1000
NOSEL
1070
     0
1002
}
1002
{
1000
BEHIND
1070
     0
1002
}
1002
{
1000
OTHER
1070
     0
1002
}
1002
{
1000
REACTOR
1002
}
  0
LINE
  5
CB6
330
1F
100
AcDbEntity
  8
AM_7
100
AcDbLine
 10
488.2891311654495
 20
206.5049123863683
 30
0.0
 11
719.2891311654496
 21
206.5049123863683
 31
0.0
1001
GENIUS_GENOBJ-N-CEN_13
1002
{
1000
OWNER
1000
GEN
1002
}
1001
GENIUS_GENODEF_13
1002
{
1000
HIER
1070
     0
1002
}
1002
{
1000
MANEDIT
1070
     0
1002
}
1002
{
1000
NOSEL
1070
     0
1002
}
1002
{
1000
BEHIND
1070
     0
1002
}
1002
{
1000
OTHER
1070
     0
1002
}
1002
{
1000
REACTOR
1002
}
1001
GENIUS_GENCEN_19
1002
{
1040
4.5
1002
}
  0
LINE
  5
D0F
330
1F
100
AcDbEntity
  8
AM_7
  6
AM_ISO08W050x2
100
AcDbLine
 10
578.7891311654496
 20
240.0049123863682
 30
0.0
 11
581.7891311654496
 21
240.0049123863682
 31
0.0
1001
GENIUS_GENOREF_13
1005
D14
  0
LINE
  5
D10
330
1F
100
AcDbEntity
  8
AM_7
  6
AM_ISO08W050x2
100
AcDbLine
 10
578.7891311654496
 20
240.0049123863682
 30
0.0
 11
578.7891311654496
 21
243.0049123863683
 31
0.0
1001
GENIUS_GENOREF_13
1005
D14
  0
LINE
  5
D11
330
1F
100
AcDbEntity
  8
AM_7
  6
AM_ISO08W050x2
100
AcDbLine
 10
578.7891311654496
 20
240.0049123863682
 30
0.0
 11
575.7891311654495
 21
240.0049123863682
 31
0.0
1001
GENIUS_GENOREF_13
1005
D14
  0
LINE
  5
D12
330
1F
100
AcDbEntity
  8
AM_7
  6
AM_ISO08W050x2
100
AcDbLine
 10
578.7891311654496
 20
240.0049123863682
 30
0.0
 11
578.7891311654496
 21
237.0049123863683
 31
0.0
1001
GENIUS_GENOREF_13
1005
D14
  0
CIRCLE
  5
D13
330
1F
100
AcDbEntity
  8
TK1
100
AcDbCircle
 10
578.7891311654496
 20
240.0049123863682
 30
0.0
 40
1.75
  0
POINT
  5
D14
330
1F
100
AcDbEntity
  8
0
 60
     1
100
AcDbPoint
 10
116.4597960126759
 20
49.04046403679285
 30
0.0
1001
GENIUS_GENOLIS_13
1002
{
1000
ENT
1005
D12
1005
D11
1005
D10
1005
D0F
1002
}
1001
GENIUS_GENODEF_13
1002
{
1000
HIER
1070
    10
1002
}
1002
{
1000
MANEDIT
1070
     0
1002
}
1002
{
1000
NOSEL
1070
     0
1002
}
1002
{
1000
BEHIND
1070
     0
1002
}
1002
{
1000
OTHER
1070
     0
1002
}
1002
{
1000
REACTOR
1002
}
1001
GENIUS_GENOENT_13
1002
{
1000
MYREF
1005
D14
1002
}
1002
{
1000
GRP
1005
0
1002
}
1001
GENIUS_GENOBJ-N-CRS_13
1002
{
1000
OWNER
1000
GEN
1002
}
  0
DIMENSION
  5
E8F
330
1F
100
AcDbEntity
  8
AM_5
100
AcDbDimension
  2
*D8
 10
732.7891321754496
 20
173.0049123863684
 30
0.0
 11
727.9141321754496
 21
206.5049123863685
 31
0.0
 70
    32
 71
     5
 42
66.99999999999985
  3
AM_ISO$0
100
AcDbAlignedDimension
 13
713.7891311654495
 23
240.0049123863682
 33
0.0
 14
713.7891311654495
 24
173.0049123863684
 34
0.0
 50
90.0
100
AcDbRotatedDimension
1001
ACAD
1000
DSTYLE
1002
{
1070
    40
1040
1.5
1002
}
  0
DIMENSION
  5
EB9
102
{ACAD_XDICTIONARY
360
EC4
102
}
102
{ACAD_REACTORS
330
EC5
102
}
330
1F
100
AcDbEntity
  8
AM_5
100
AcDbDimension
  2
*D9
 10
714.7891311654496
 20
248.5049123863682
 30
0.0
 11
603.7891311654496
 21
253.3804291186517
 31
0.0
 70
    32
 71
     5
 42
222.0
  3
AM_ISO$0
100
AcDbAlignedDimension
 13
492.7891311654495
 23
230.5049123863683
 33
0.0
 14
714.7891311654496
 24
230.5049123863683
 34
0.0
100
AcDbRotatedDimension
1001
ACAD
1000
DSTYLE
1002
{
1070
    40
1040
1.5
1002
}
  0
DIMENSION
  5
EDD
102
{ACAD_XDICTIONARY
360
EE8
102
}
102
{ACAD_REACTORS
330
EE9
102
}
330
1F
100
AcDbEntity
  8
AM_5
100
AcDbDimension
  2
*D10
 10
477.7891311654496
 20
179.5049123863683
 30
0.0
 11
472.9141311654495
 21
206.5049123863684
 31
0.0
 70
    32
 71
     5
 42
53.99999999999997
  3
AM_ISO$0
100
AcDbAlignedDimension
 13
495.7891311654496
 23
233.5049123863683
 33
0.0
 14
495.7891311654496
 24
179.5049123863683
 34
0.0
 50
90.0
100
AcDbRotatedDimension
1001
ACAD
1000
DSTYLE
1002
{
1070
    40
1040
1.5
1002
}
  0
DIMENSION
  5
EFE
330
1F
100
AcDbEntity
  8
AM_5
100
AcDbDimension
  2
*D11
 10
709.9947867661406
 20
174.5784513901279
 30
0.0
 11
734.8876293204686
 21
153.7087822025213
 31
0.0
 70
   163
  1
8-<>
 71
     5
 42
3.500000000000312
  3
AM_ISO$3
100
AcDbDiametricDimension
 15
711.8269235816263
 25
171.5962919897362
 35
0.0
 40
0.0
1001
ACAD
1000
DSTYLE
1002
{
1070
    40
1040
1.5
1002
}
  0
DIMENSION
  5
F38
330
1F
100
AcDbEntity
  8
AM_5
100
AcDbDimension
  2
*D12
 10
495.7891311654493
 20
182.5049123863682
 30
0.0
 11
474.1517253502611
 21
156.8208104916878
 31
0.0
 70
   164
 71
     5
 42
2.999999999999829
  3
AM_ISO$4
100
AcDbRadialDimension
 15
493.8562698582491
 25
180.2105612434245
 35
0.0
 40
0.0
1001
ACAD
1000
DSTYLE
1002
{
1070
    40
1040
1.5
1070
    74
1070
     0
1070
   279
1070
     1
1070
   281
1070
     1
1002
}
  0
LINE
  5
10B9
330
1F
100
AcDbEntity
  8
TK3
100
AcDbLine
 10
236.2637661179099
 20
297.530466096485
 30
0.0
 11
349.76376611791
 21
297.5304660964869
 31
0.0
  0
LINE
  5
10BA
330
1F
100
AcDbEntity
  8
TK3
100
AcDbLine
 10
236.2637661179102
 20
286.5304660964849
 30
0.0
 11
349.7637661179101
 21
286.5304660964867
 31
0.0
  0
LINE
  5
10BB
330
1F
100
AcDbEntity
  8
TK3
100
AcDbLine
 10
352.7637661179101
 20
289.5304660964868
 30
0.0
 11
352.7637661179099
 21
294.530466096487
 31
0.0
  0
ARC
  5
10BC
330
1F
100
AcDbEntity
  8
TK3
100
AcDbCircle
 10
349.76376611791
 20
289.5304660964868
 30
0.0
 40
3.0
100
AcDbArc
 50
270.0000000000013
 51
0.0000000000012908
1001
GENIUS_GENOBJ-N-FIL_13
1002
{
1000
OWNER
1000
GEN
1002
}
1001
GENIUS_GENODEF_13
1002
{
1000
HIER
1070
     0
1002
}
1002
{
1000
MANEDIT
1070
     0
1002
}
1002
{
1000
NOSEL
1070
     0
1002
}
1002
{
1000
BEHIND
1070
     0
1002
}
1002
{
1000
OTHER
1070
     0
1002
}
1002
{
1000
REACTOR
1002
}
  0
ARC
  5
10BD
102
{ACAD_REACTORS
330
49A4
102
}
330
1F
100
AcDbEntity
  8
TK3
100
AcDbCircle
 10
349.76376611791
 20
294.5304660964869
 30
0.0
 40
3.0
100
AcDbArc
 50
0.0000000000012908
 51
90.00000000000126
1001
GENIUS_GENOBJ-N-FIL_13
1002
{
1000
OWNER
1000
GEN
1002
}
1001
GENIUS_GENODEF_13
1002
{
1000
HIER
1070
     0
1002
}
1002
{
1000
MANEDIT
1070
     0
1002
}
1002
{
1000
NOSEL
1070
     0
1002
}
1002
{
1000
BEHIND
1070
     0
1002
}
1002
{
1000
OTHER
1070
     0
1002
}
1002
{
1000
REACTOR
1002
}
  0
LWPOLYLINE
  5
10BE
330
1F
100
AcDbEntity
  8
TK3
100
AcDbPolyline
 90
        8
 70
     1
 43
0.0
 10
341.9637661179099
 20
290.4304660964866
 10
344.5637661179099
 20
290.4304660964866
 42
0.4142135623730951
 10
345.5637661179098
 20
291.4304660964867
 10
345.5637661179098
 20
292.6304660964866
 42
0.4142135623730951
 10
344.5637661179099
 20
293.6304660964866
 10
341.9637661179099
 20
293.6304660964866
 42
0.4142135623730951
 10
340.9637661179099
 20
292.6304660964865
 10
340.9637661179099
 20
291.4304660964866
 42
0.4142135623730989
1001
GENIUS_GENREC_14
1002
{
1000
PYDIR
1011
340.9637661179099
1021
293.6304660964865
1031
0.0
1002
}
1002
{
1000
PXDIR
1011
345.5637661179099
1021
290.4304660964868
1031
0.0
1002
}
1002
{
1000
PORI
1011
340.9637661179099
1021
290.4304660964866
1031
0.0
1002
}
1002
{
1000
PINS
1011
343.2637661179099
1021
292.0304660964866
1031
0.0
1002
}
1002
{
1000
HVAL
1000
3.2
1002
}
1002
{
1000
H
1070
     2
1002
}
1002
{
1000
WVAL
1000
4.6
1002
}
1002
{
1000
W
1070
     2
1002
}
1002
{
1000
C
1070
     4
1002
}
1001
GENIUS_GENODEF_13
1002
{
1000
HIER
1070
     0
1002
}
1002
{
1000
MANEDIT
1070
     0
1002
}
1002
{
1000
NOSEL
1070
     0
1002
}
1002
{
1000
BEHIND
1070
     0
1002
}
1002
{
1000
OTHER
1070
     0
1002
}
1002
{
1000
REACTOR
1002
}
1001
GENIUS_GENOBJ-N-REC_13
1002
{
1000
OWNER
1000
GEN
1002
}
  0
LWPOLYLINE
  5
10BF
330
1F
100
AcDbEntity
  8
TK3
100
AcDbPolyline
 90
        8
 70
     1
 43
0.0
 10
259.9637661179099
 20
290.4304660964841
 10
262.5637661179099
 20
290.4304660964841
 42
0.4142135623730951
 10
263.5637661179099
 20
291.4304660964841
 10
263.5637661179099
 20
292.6304660964841
 42
0.4142135623730951
 10
262.5637661179098
 20
293.6304660964841
 10
259.9637661179099
 20
293.630466096484
 42
0.4142135623730951
 10
258.9637661179099
 20
292.6304660964841
 10
258.9637661179099
 20
291.4304660964841
 42
0.4142135623730989
1001
GENIUS_GENREC_14
1002
{
1000
PYDIR
1011
258.9637661179099
1021
293.630466096484
1031
0.0
1002
}
1002
{
1000
PXDIR
1011
263.5637661179099
1021
290.4304660964842
1031
0.0
1002
}
1002
{
1000
PORI
1011
258.9637661179099
1021
290.430466096484
1031
0.0
1002
}
1002
{
1000
PINS
1011
261.2637661179099
1021
292.0304660964841
1031
0.0
1002
}
1002
{
1000
HVAL
1000
3.2
1002
}
1002
{
1000
H
1070
     2
1002
}
1002
{
1000
WVAL
1000
4.6
1002
}
1002
{
1000
W
1070
     2
1002
}
1002
{
1000
C
1070
     4
1002
}
1001
GENIUS_GENODEF_13
1002
{
1000
HIER
1070
     0
1002
}
1002
{
1000
MANEDIT
1070
     0
1002
}
1002
{
1000
NOSEL
1070
     0
1002
}
1002
{
1000
BEHIND
1070
     0
1002
}
1002
{
1000
OTHER
1070
     0
1002
}
1002
{
1000
REACTOR
1002
}
1001
GENIUS_GENOBJ-N-REC_13
1002
{
1000
OWNER
1000
GEN
1002
}
  0
LINE
  5
2B8D
330
1F
100
AcDbEntity
  8
AM_7
  6
AM_ISO08W050x2
100
AcDbLine
 10
710.7891311654496
 20
240.0049123863682
 30
0.0
 11
707.7891311654496
 21
240.0049123863682
 31
0.0
1001
GENIUS_GENOREF_13
1005
2B97
  0
LINE
  5
2B8E
330
1F
100
AcDbEntity
  8
AM_7
  6
AM_ISO08W050x2
100
AcDbLine
 10
710.7891311654496
 20
240.0049123863682
 30
0.0
 11
710.7891311654496
 21
243.0049123863683
 31
0.0
1001
GENIUS_GENOREF_13
1005
2B97
  0
LINE
  5
2B8F
330
1F
100
AcDbEntity
  8
AM_7
  6
AM_ISO08W050x2
100
AcDbLine
 10
710.7891311654496
 20
240.0049123863682
 30
0.0
 11
713.7891311654495
 21
240.0049123863682
 31
0.0
1001
GENIUS_GENOREF_13
1005
2B97
  0
LINE
  5
2B90
330
1F
100
AcDbEntity
  8
AM_7
  6
AM_ISO08W050x2
100
AcDbLine
 10
710.7891311654496
 20
240.0049123863682
 30
0.0
 11
710.7891311654496
 21
237.0049123863683
 31
0.0
1001
GENIUS_GENOREF_13
1005
2B97
  0
CIRCLE
  5
2B91
330
1F
100
AcDbEntity
  8
TK1
100
AcDbCircle
 10
710.7891311654496
 20
240.0049123863682
 30
0.0
 40
1.75
  0
LINE
  5
2B92
330
1F
100
AcDbEntity
  8
AM_7
  6
AM_ISO08W050x2
100
AcDbLine
 10
628.7891311654496
 20
240.0049123863682
 30
0.0
 11
625.7891311654495
 21
240.0049123863682
 31
0.0
1001
GENIUS_GENOREF_13
1005
2B98
  0
LINE
  5
2B93
330
1F
100
AcDbEntity
  8
AM_7
  6
AM_ISO08W050x2
100
AcDbLine
 10
628.7891311654496
 20
240.0049123863682
 30
0.0
 11
628.7891311654496
 21
243.0049123863683
 31
0.0
1001
GENIUS_GENOREF_13
1005
2B98
  0
LINE
  5
2B94
330
1F
100
AcDbEntity
  8
AM_7
  6
AM_ISO08W050x2
100
AcDbLine
 10
628.7891311654496
 20
240.0049123863682
 30
0.0
 11
631.7891311654496
 21
240.0049123863682
 31
0.0
1001
GENIUS_GENOREF_13
1005
2B98
  0
LINE
  5
2B95
330
1F
100
AcDbEntity
  8
AM_7
  6
AM_ISO08W050x2
100
AcDbLine
 10
628.7891311654496
 20
240.0049123863682
 30
0.0
 11
628.7891311654496
 21
237.0049123863683
 31
0.0
1001
GENIUS_GENOREF_13
1005
2B98
  0
CIRCLE
  5
2B96
330
1F
100
AcDbEntity
  8
TK1
100
AcDbCircle
 10
628.7891311654496
 20
240.0049123863682
 30
0.0
 40
1.75
  0
POINT
  5
2B97
330
1F
100
AcDbEntity
  8
0
 60
     1
100
AcDbPoint
 10
834.9149238696554
 20
49.04046403679285
 30
0.0
1001
GENIUS_GENOLIS_13
1002
{
1000
ENT
1005
2B90
1005
2B8F
1005
2B8E
1005
2B8D
1002
}
1001
GENIUS_GENODEF_13
1002
{
1000
HIER
1070
    10
1002
}
1002
{
1000
MANEDIT
1070
     0
1002
}
1002
{
1000
NOSEL
1070
     0
1002
}
1002
{
1000
BEHIND
1070
     0
1002
}
1002
{
1000
OTHER
1070
     0
1002
}
1002
{
1000
REACTOR
1002
}
1001
GENIUS_GENOENT_13
1002
{
1000
MYREF
1005
2B97
1002
}
1002
{
1000
GRP
1005
0
1002
}
1001
GENIUS_GENOBJ-N-CRS_13
1002
{
1000
OWNER
1000
GEN
1002
}
  0
POINT
  5
2B98
330
1F
100
AcDbEntity
  8
0
 60
     1
100
AcDbPoint
 10
764.9149238696554
 20
49.04046403679285
 30
0.0
1001
GENIUS_GENOLIS_13
1002
{
1000
ENT
1005
2B95
1005
2B94
1005
2B93
1005
2B92
1002
}
1001
GENIUS_GENODEF_13
1002
{
1000
HIER
1070
    10
1002
}
1002
{
1000
MANEDIT
1070
     0
1002
}
1002
{
1000
NOSEL
1070
     0
1002
}
1002
{
1000
BEHIND
1070
     0
1002
}
1002
{
1000
OTHER
1070
     0
1002
}
1002
{
1000
REACTOR
1002
}
1001
GENIUS_GENOENT_13
1002
{
1000
MYREF
1005
2B98
1002
}
1002
{
1000
GRP
1005
0
1002
}
1001
GENIUS_GENOBJ-N-CRS_13
1002
{
1000
OWNER
1000
GEN
1002
}
  0
LINE
  5
2BDE
330
1F
100
AcDbEntity
  8
AM_7
  6
AM_ISO08W050x2
100
AcDbLine
 10
496.7891311654495
 20
173.0049123863682
 30
0.0
 11
499.7891311654496
 21
173.0049123863682
 31
0.0
1001
GENIUS_GENOREF_13
1005
2BF2
  0
LINE
  5
2BDF
102
{ACAD_REACTORS
330
2C3E
102
}
330
1F
100
AcDbEntity
  8
AM_7
  6
AM_ISO08W050x2
100
AcDbLine
 10
496.7891311654495
 20
173.0049123863682
 30
0.0
 11
496.7891311654496
 21
170.0049123863682
 31
0.0
1001
GENIUS_GENOREF_13
1005
2BF2
  0
LINE
  5
2BE0
330
1F
100
AcDbEntity
  8
AM_7
  6
AM_ISO08W050x2
100
AcDbLine
 10
496.7891311654495
 20
173.0049123863682
 30
0.0
 11
493.7891311654495
 21
173.0049123863682
 31
0.0
1001
GENIUS_GENOREF_13
1005
2BF2
  0
LINE
  5
2BE1
330
1F
100
AcDbEntity
  8
AM_7
  6
AM_ISO08W050x2
100
AcDbLine
 10
496.7891311654495
 20
173.0049123863682
 30
0.0
 11
496.7891311654495
 21
176.0049123863682
 31
0.0
1001
GENIUS_GENOREF_13
1005
2BF2
  0
CIRCLE
  5
2BE2
330
1F
100
AcDbEntity
  8
TK1
100
AcDbCircle
 10
496.7891311654495
 20
173.0049123863682
 30
0.0
 40
1.75
  0
LINE
  5
2BE3
330
1F
100
AcDbEntity
  8
AM_7
  6
AM_ISO08W050x2
100
AcDbLine
 10
578.7891311654496
 20
173.0049123863683
 30
0.0
 11
581.7891311654496
 21
173.0049123863683
 31
0.0
1001
GENIUS_GENOREF_13
1005
2BF3
  0
LINE
  5
2BE4
102
{ACAD_REACTORS
330
2C3E
330
2C66
102
}
330
1F
100
AcDbEntity
  8
AM_7
  6
AM_ISO08W050x2
100
AcDbLine
 10
578.7891311654496
 20
173.0049123863683
 30
0.0
 11
578.7891311654496
 21
170.0049123863683
 31
0.0
1001
GENIUS_GENOREF_13
1005
2BF3
  0
LINE
  5
2BE5
330
1F
100
AcDbEntity
  8
AM_7
  6
AM_ISO08W050x2
100
AcDbLine
 10
578.7891311654496
 20
173.0049123863683
 30
0.0
 11
575.7891311654495
 21
173.0049123863683
 31
0.0
1001
GENIUS_GENOREF_13
1005
2BF3
  0
LINE
  5
2BE6
330
1F
100
AcDbEntity
  8
AM_7
  6
AM_ISO08W050x2
100
AcDbLine
 10
578.7891311654496
 20
173.0049123863683
 30
0.0
 11
578.7891311654496
 21
176.0049123863683
 31
0.0
1001
GENIUS_GENOREF_13
1005
2BF3
  0
CIRCLE
  5
2BE7
330
1F
100
AcDbEntity
  8
TK1
100
AcDbCircle
 10
578.7891311654496
 20
173.0049123863683
 30
0.0
 40
1.75
  0
LINE
  5
2BE8
330
1F
100
AcDbEntity
  8
AM_7
  6
AM_ISO08W050x2
100
AcDbLine
 10
710.7891311654496
 20
173.0049123863684
 30
0.0
 11
707.7891311654496
 21
173.0049123863684
 31
0.0
1001
GENIUS_GENOREF_13
1005
2BF5
  0
LINE
  5
2BE9
102
{ACAD_REACTORS
330
2C82
102
}
330
1F
100
AcDbEntity
  8
AM_7
  6
AM_ISO08W050x2
100
AcDbLine
 10
710.7891311654496
 20
173.0049123863684
 30
0.0
 11
710.7891311654496
 21
170.0049123863684
 31
0.0
1001
GENIUS_GENOREF_13
1005
2BF5
  0
LINE
  5
2BEA
330
1F
100
AcDbEntity
  8
AM_7
  6
AM_ISO08W050x2
100
AcDbLine
 10
710.7891311654496
 20
173.0049123863684
 30
0.0
 11
713.7891311654495
 21
173.0049123863684
 31
0.0
1001
GENIUS_GENOREF_13
1005
2BF5
  0
LINE
  5
2BEB
330
1F
100
AcDbEntity
  8
AM_7
  6
AM_ISO08W050x2
100
AcDbLine
 10
710.7891311654496
 20
173.0049123863684
 30
0.0
 11
710.7891311654496
 21
176.0049123863684
 31
0.0
1001
GENIUS_GENOREF_13
1005
2BF5
  0
CIRCLE
  5
2BEC
330
1F
100
AcDbEntity
  8
TK1
100
AcDbCircle
 10
710.7891311654496
 20
173.0049123863684
 30
0.0
 40
1.75
  0
LINE
  5
2BED
330
1F
100
AcDbEntity
  8
AM_7
  6
AM_ISO08W050x2
100
AcDbLine
 10
628.7891311654496
 20
173.0049123863683
 30
0.0
 11
625.7891311654495
 21
173.0049123863683
 31
0.0
1001
GENIUS_GENOREF_13
1005
2BF4
  0
LINE
  5
2BEE
102
{ACAD_REACTORS
330
2C66
330
2C82
102
}
330
1F
100
AcDbEntity
  8
AM_7
  6
AM_ISO08W050x2
100
AcDbLine
 10
628.7891311654496
 20
173.0049123863683
 30
0.0
 11
628.7891311654496
 21
170.0049123863683
 31
0.0
1001
GENIUS_GENOREF_13
1005
2BF4
  0
LINE
  5
2BEF
330
1F
100
AcDbEntity
  8
AM_7
  6
AM_ISO08W050x2
100
AcDbLine
 10
628.7891311654496
 20
173.0049123863683
 30
0.0
 11
631.7891311654496
 21
173.0049123863683
 31
0.0
1001
GENIUS_GENOREF_13
1005
2BF4
  0
LINE
  5
2BF0
330
1F
100
AcDbEntity
  8
AM_7
  6
AM_ISO08W050x2
100
AcDbLine
 10
628.7891311654496
 20
173.0049123863683
 30
0.0
 11
628.7891311654496
 21
176.0049123863683
 31
0.0
1001
GENIUS_GENOREF_13
1005
2BF4
  0
CIRCLE
  5
2BF1
330
1F
100
AcDbEntity
  8
TK1
100
AcDbCircle
 10
628.7891311654496
 20
173.0049123863683
 30
0.0
 40
1.75
  0
POINT
  5
2BF2
330
1F
100
AcDbEntity
  8
0
 60
     1
100
AcDbPoint
 10
46.45979601267587
 20
246.1173250667119
 30
0.0
1001
GENIUS_GENOLIS_13
1002
{
1000
ENT
1005
2BE1
1005
2BE0
1005
2BDF
1005
2BDE
1002
}
1001
GENIUS_GENODEF_13
1002
{
1000
HIER
1070
    10
1002
}
1002
{
1000
MANEDIT
1070
     0
1002
}
1002
{
1000
NOSEL
1070
     0
1002
}
1002
{
1000
BEHIND
1070
     0
1002
}
1002
{
1000
OTHER
1070
     0
1002
}
1002
{
1000
REACTOR
1002
}
1001
GENIUS_GENOENT_13
1002
{
1000
MYREF
1005
2BF2
1002
}
1002
{
1000
GRP
1005
0
1002
}
1001
GENIUS_GENOBJ-N-CRS_13
1002
{
1000
OWNER
1000
GEN
1002
}
  0
POINT
  5
2BF3
330
1F
100
AcDbEntity
  8
0
 60
     1
100
AcDbPoint
 10
116.4597960126759
 20
246.1173250667119
 30
0.0
1001
GENIUS_GENOLIS_13
1002
{
1000
ENT
1005
2BE6
1005
2BE5
1005
2BE4
1005
2BE3
1002
}
1001
GENIUS_GENODEF_13
1002
{
1000
HIER
1070
    10
1002
}
1002
{
1000
MANEDIT
1070
     0
1002
}
1002
{
1000
NOSEL
1070
     0
1002
}
1002
{
1000
BEHIND
1070
     0
1002
}
1002
{
1000
OTHER
1070
     0
1002
}
1002
{
1000
REACTOR
1002
}
1001
GENIUS_GENOENT_13
1002
{
1000
MYREF
1005
2BF3
1002
}
1002
{
1000
GRP
1005
0
1002
}
1001
GENIUS_GENOBJ-N-CRS_13
1002
{
1000
OWNER
1000
GEN
1002
}
  0
POINT
  5
2BF4
330
1F
100
AcDbEntity
  8
0
 60
     1
100
AcDbPoint
 10
764.9149238696553
 20
246.1173250667124
 30
0.0
1001
GENIUS_GENOLIS_13
1002
{
1000
ENT
1005
2BF0
1005
2BEF
1005
2BEE
1005
2BED
1002
}
1001
GENIUS_GENODEF_13
1002
{
1000
HIER
1070
    10
1002
}
1002
{
1000
MANEDIT
1070
     0
1002
}
1002
{
1000
NOSEL
1070
     0
1002
}
1002
{
1000
BEHIND
1070
     0
1002
}
1002
{
1000
OTHER
1070
     0
1002
}
1002
{
1000
REACTOR
1002
}
1001
GENIUS_GENOENT_13
1002
{
1000
MYREF
1005
2BF4
1002
}
1002
{
1000
GRP
1005
0
1002
}
1001
GENIUS_GENOBJ-N-CRS_13
1002
{
1000
OWNER
1000
GEN
1002
}
  0
POINT
  5
2BF5
330
1F
100
AcDbEntity
  8
0
 60
     1
100
AcDbPoint
 10
834.9149238696552
 20
246.1173250667125
 30
0.0
1001
GENIUS_GENOLIS_13
1002
{
1000
ENT
1005
2BEB
1005
2BEA
1005
2BE9
1005
2BE8
1002
}
1001
GENIUS_GENODEF_13
1002
{
1000
HIER
1070
    10
1002
}
1002
{
1000
MANEDIT
1070
     0
1002
}
1002
{
1000
NOSEL
1070
     0
1002
}
1002
{
1000
BEHIND
1070
     0
1002
}
1002
{
1000
OTHER
1070
     0
1002
}
1002
{
1000
REACTOR
1002
}
1001
GENIUS_GENOENT_13
1002
{
1000
MYREF
1005
2BF5
1002
}
1002
{
1000
GRP
1005
0
1002
}
1001
GENIUS_GENOBJ-N-CRS_13
1002
{
1000
OWNER
1000
GEN
1002
}
  0
DIMENSION
  5
2C32
102
{ACAD_XDICTIONARY
360
2C3D
102
}
102
{ACAD_REACTORS
330
2C3E
102
}
330
1F
100
AcDbEntity
  8
AM_5
100
AcDbDimension
  2
*D13
 10
578.7891311654496
 20
153.2549113763682
 30
0.0
 11
537.7891311654495
 21
158.1304281086517
 31
0.0
 70
    32
 71
     5
 42
81.99999999999993
  3
AM_ISO$0
100
AcDbAlignedDimension
 13
496.7891311654496
 23
170.0049123863682
 33
0.0
 14
578.7891311654496
 24
170.0049123863683
 34
0.0
100
AcDbRotatedDimension
1001
ACAD
1000
DSTYLE
1002
{
1070
    40
1040
1.5
1070
   174
1070
     1
1002
}
  0
DIMENSION
  5
2C5A
102
{ACAD_XDICTIONARY
360
2C65
102
}
102
{ACAD_REACTORS
330
2C66
102
}
330
1F
100
AcDbEntity
  8
AM_5
100
AcDbDimension
  2
*D14
 10
628.7891311654496
 20
153.2549113763683
 30
0.0
 11
603.7891311654496
 21
158.1299113763683
 31
0.0
 70
    32
 71
     5
 42
50.0
  3
AM_ISO$0
100
AcDbAlignedDimension
 13
578.7891311654496
 23
170.0049123863683
 33
0.0
 14
628.7891311654496
 24
170.0049123863683
 34
0.0
100
AcDbRotatedDimension
1001
ACAD
1000
DSTYLE
1002
{
1070
   174
1070
     1
1070
    40
1040
1.5
1002
}
  0
DIMENSION
  5
2C76
102
{ACAD_XDICTIONARY
360
2C81
102
}
102
{ACAD_REACTORS
330
2C82
102
}
330
1F
100
AcDbEntity
  8
AM_5
100
AcDbDimension
  2
*D15
 10
710.7891311654496
 20
153.2549113763684
 30
0.0
 11
669.7891311654496
 21
158.1304281086519
 31
0.0
 70
    32
 71
     5
 42
82.0
  3
AM_ISO$0
100
AcDbAlignedDimension
 13
628.7891311654496
 23
170.0049123863683
 33
0.0
 14
710.7891311654496
 24
170.0049123863683
 34
0.0
100
AcDbRotatedDimension
1001
ACAD
1000
DSTYLE
1002
{
1070
   174
1070
     1
1070
    40
1040
1.5
1002
}
  0
LINE
  5
2D22
330
1F
100
AcDbEntity
  8
AM_7
  6
AM_ISO08W050x2
100
AcDbLine
 10
369.6821752143502
 20
292.0304660964848
 30
0.0
 11
382.6821752143501
 21
292.0304660964848
 31
0.0
1001
GENIUS_GENOBJ-N-CEN_13
1002
{
1000
OWNER
1000
GEN
1002
}
1001
GENIUS_GENODEF_13
1002
{
1000
HIER
1070
     0
1002
}
1002
{
1000
MANEDIT
1070
     0
1002
}
1002
{
1000
NOSEL
1070
     0
1002
}
1002
{
1000
BEHIND
1070
     0
1002
}
1002
{
1000
OTHER
1070
     0
1002
}
1002
{
1000
REACTOR
1002
}
1001
GENIUS_GENCEN_19
1002
{
1040
4.5
1002
}
  0
LWPOLYLINE
  5
2D91
102
{ACAD_REACTORS
330
48FB
330
496D
102
}
330
1F
100
AcDbEntity
  8
TK3
100
AcDbPolyline
 90
        8
 70
     1
 43
0.0
 10
130.56376611791
 20
290.4304660964848
 10
127.96376611791
 20
290.4304660964848
 42
-0.4142135623730951
 10
126.9637661179101
 20
291.4304660964849
 10
126.96376611791
 20
292.6304660964849
 42
-0.4142135623730951
 10
127.96376611791
 20
293.6304660964848
 10
130.56376611791
 20
293.6304660964848
 42
-0.4142135623730951
 10
131.56376611791
 20
292.6304660964849
 10
131.56376611791
 20
291.4304660964848
 42
-0.4142135623730989
1001
GENIUS_GENREC_14
1002
{
1000
PYDIR
1011
131.56376611791
1021
293.6304660964848
1031
0.0
1002
}
1002
{
1000
PXDIR
1011
126.96376611791
1021
290.4304660964849
1031
0.0
1002
}
1002
{
1000
PORI
1011
131.56376611791
1021
290.4304660964848
1031
0.0
1002
}
1002
{
1000
PINS
1011
129.26376611791
1021
292.0304660964848
1031
0.0
1002
}
1002
{
1000
HVAL
1000
3.2
1002
}
1002
{
1000
H
1070
     2
1002
}
1002
{
1000
WVAL
1000
4.6
1002
}
1002
{
1000
W
1070
     2
1002
}
1002
{
1000
C
1070
     4
1002
}
1001
GENIUS_GENODEF_13
1002
{
1000
HIER
1070
     0
1002
}
1002
{
1000
MANEDIT
1070
     0
1002
}
1002
{
1000
NOSEL
1070
     0
1002
}
1002
{
1000
BEHIND
1070
     0
1002
}
1002
{
1000
OTHER
1070
     0
1002
}
1002
{
1000
REACTOR
1002
}
1001
GENIUS_GENOBJ-N-REC_13
1002
{
1000
OWNER
1000
GEN
1002
}
  0
LWPOLYLINE
  5
2D92
330
1F
100
AcDbEntity
  8
TK3
100
AcDbPolyline
 90
        8
 70
     1
 43
0.0
 10
212.56376611791
 20
290.4304660964836
 10
209.96376611791
 20
290.4304660964836
 42
-0.4142135623730951
 10
208.96376611791
 20
291.4304660964837
 10
208.96376611791
 20
292.6304660964837
 42
-0.4142135623730951
 10
209.96376611791
 20
293.6304660964836
 10
212.56376611791
 20
293.6304660964837
 42
-0.4142135623730951
 10
213.5637661179099
 20
292.6304660964837
 10
213.56376611791
 20
291.4304660964837
 42
-0.4142135623730989
1001
GENIUS_GENREC_14
1002
{
1000
PYDIR
1011
213.56376611791
1021
293.6304660964836
1031
0.0
1002
}
1002
{
1000
PXDIR
1011
208.96376611791
1021
290.4304660964837
1031
0.0
1002
}
1002
{
1000
PORI
1011
213.56376611791
1021
290.4304660964836
1031
0.0
1002
}
1002
{
1000
PINS
1011
211.26376611791
1021
292.0304660964837
1031
0.0
1002
}
1002
{
1000
HVAL
1000
3.2
1002
}
1002
{
1000
H
1070
     2
1002
}
1002
{
1000
WVAL
1000
4.6
1002
}
1002
{
1000
W
1070
     2
1002
}
1002
{
1000
C
1070
     4
1002
}
1001
GENIUS_GENODEF_13
1002
{
1000
HIER
1070
     0
1002
}
1002
{
1000
MANEDIT
1070
     0
1002
}
1002
{
1000
NOSEL
1070
     0
1002
}
1002
{
1000
BEHIND
1070
     0
1002
}
1002
{
1000
OTHER
1070
     0
1002
}
1002
{
1000
REACTOR
1002
}
1001
GENIUS_GENOBJ-N-REC_13
1002
{
1000
OWNER
1000
GEN
1002
}
  0
LINE
  5
2EB7
330
1F
100
AcDbEntity
  8
TK2
100
AcDbLine
 10
236.2637661179099
 20
449.4327999913592
 30
0.0
 11
120.7637661179099
 21
449.4327999913591
 31
0.0
  0
LINE
  5
2EB8
330
1F
100
AcDbEntity
  8
TK2
100
AcDbLine
 10
119.7637661179099
 20
448.4327999913591
 30
0.0
 11
119.7637661179099
 21
383.1327999913591
 31
0.0
  0
LINE
  5
2ECF
330
1F
100
AcDbEntity
  8
AM_7
100
AcDbLine
 10
236.2637661179099
 20
455.4327999913591
 30
0.0
 11
236.2637661179099
 21
366.9327999913591
 31
0.0
1001
GENIUS_GENOBJ-N-CEN_13
1002
{
1000
OWNER
1000
GEN
1002
}
1001
GENIUS_GENODEF_13
1002
{
1000
HIER
1070
     0
1002
}
1002
{
1000
MANEDIT
1070
     0
1002
}
1002
{
1000
NOSEL
1070
     0
1002
}
1002
{
1000
BEHIND
1070
     0
1002
}
1002
{
1000
OTHER
1070
     0
1002
}
1002
{
1000
REACTOR
1002
}
1001
GENIUS_GENCEN_19
1002
{
1040
6.0
1002
}
  0
ARC
  5
2F03
102
{ACAD_REACTORS
330
4774
102
}
330
1F
100
AcDbEntity
  8
TK2
100
AcDbCircle
 10
120.7637661179099
 20
448.4327999913591
 30
0.0
 40
1.0
100
AcDbArc
 50
90.0
 51
180.0
1001
GENIUS_GENOBJ-N-FIL_13
1002
{
1000
OWNER
1000
GEN
1002
}
1001
GENIUS_GENODEF_13
1002
{
1000
HIER
1070
     0
1002
}
1002
{
1000
MANEDIT
1070
     0
1002
}
1002
{
1000
NOSEL
1070
     0
1002
}
1002
{
1000
BEHIND
1070
     0
1002
}
1002
{
1000
OTHER
1070
     0
1002
}
1002
{
1000
REACTOR
1002
}
  0
LINE
  5
2F79
330
1F
100
AcDbEntity
  8
TK2
100
AcDbLine
 10
127.3637661179099
 20
434.8327999913591
 30
0.0
 11
127.3637661179099
 21
412.2327999913591
 31
0.0
  0
LINE
  5
2FD5
330
1F
100
AcDbEntity
  8
TK2
100
AcDbLine
 10
129.6637661179099
 20
437.1327999913591
 30
0.0
 11
236.2637661179099
 21
437.1327999913591
 31
0.0
  0
LINE
  5
2FFF
330
1F
100
AcDbEntity
  8
TK2
100
AcDbLine
 10
236.2637661179099
 20
442.4327999913591
 30
0.0
 11
130.0637661179099
 21
442.4327999913592
 31
0.0
  0
LINE
  5
3344
330
1F
100
AcDbEntity
  8
TK2
100
AcDbLine
 10
122.06376611791
 20
434.4327999913592
 30
0.0
 11
122.0637661179099
 21
412.2327999913591
 31
0.0
  0
ARC
  5
334E
330
1F
100
AcDbEntity
  8
TK2
100
AcDbCircle
 10
130.0637661179099
 20
434.4327999913592
 30
0.0
 40
8.0
100
AcDbArc
 50
90.0
 51
180.0
1001
GENIUS_GENODEF_13
1002
{
1000
HIER
1070
     0
1002
}
1002
{
1000
MANEDIT
1070
     0
1002
}
1002
{
1000
NOSEL
1070
     0
1002
}
1002
{
1000
BEHIND
1070
     0
1002
}
1002
{
1000
OTHER
1070
     0
1002
}
1002
{
1000
REACTOR
1002
}
1001
GENIUS_GENOBJ-N-FIL_13
1002
{
1000
OWNER
1000
GEN
1002
}
  0
LINE
  5
335F
330
1F
100
AcDbEntity
  8
TK2
100
AcDbLine
 10
236.2637661179099
 20
438.9327999913591
 30
0.0
 11
130.0637661179099
 21
438.9327999913592
 31
0.0
  0
ARC
  5
3365
330
1F
100
AcDbEntity
  8
TK2
100
AcDbCircle
 10
130.0637661179099
 20
434.4327999913592
 30
0.0
 40
4.5
100
AcDbArc
 50
90.0
 51
180.0
1001
GENIUS_GENODEF_13
1002
{
1000
HIER
1070
     0
1002
}
1002
{
1000
MANEDIT
1070
     0
1002
}
1002
{
1000
NOSEL
1070
     0
1002
}
1002
{
1000
BEHIND
1070
     0
1002
}
1002
{
1000
OTHER
1070
     0
1002
}
1002
{
1000
REACTOR
1002
}
1001
GENIUS_GENOBJ-N-FIL_13
1002
{
1000
OWNER
1000
GEN
1002
}
  0
LINE
  5
336B
330
1F
100
AcDbEntity
  8
TK2
100
AcDbLine
 10
125.56376611791
 20
434.4327999913592
 30
0.0
 11
125.5637661179099
 21
412.2327999913591
 31
0.0
  0
ARC
  5
346D
102
{ACAD_REACTORS
330
46F4
102
}
330
1F
100
AcDbEntity
  8
TK2
100
AcDbCircle
 10
129.6637661179099
 20
434.8327999913591
 30
0.0
 40
2.299999999999999
100
AcDbArc
 50
90.0
 51
180.0
1001
GENIUS_GENODEF_13
1002
{
1000
HIER
1070
     0
1002
}
1002
{
1000
MANEDIT
1070
     0
1002
}
1002
{
1000
NOSEL
1070
     0
1002
}
1002
{
1000
BEHIND
1070
     0
1002
}
1002
{
1000
OTHER
1070
     0
1002
}
1002
{
1000
REACTOR
1002
}
1001
GENIUS_GENOBJ-N-FIL_13
1002
{
1000
OWNER
1000
GEN
1002
}
  0
LINE
  5
346E
330
1F
100
AcDbEntity
  8
TK2
100
AcDbLine
 10
129.6637661179099
 20
387.3327999913592
 30
0.0
 11
236.2637661179099
 21
387.3327999913592
 31
0.0
  0
ARC
  5
346F
102
{ACAD_REACTORS
330
46F4
102
}
330
1F
100
AcDbEntity
  8
TK2
100
AcDbCircle
 10
129.6637661179099
 20
389.6327999913592
 30
0.0
 40
2.299999999999999
100
AcDbArc
 50
180.0
 51
270.0
1001
GENIUS_GENODEF_13
1002
{
1000
HIER
1070
     0
1002
}
1002
{
1000
MANEDIT
1070
     0
1002
}
1002
{
1000
NOSEL
1070
     0
1002
}
1002
{
1000
BEHIND
1070
     0
1002
}
1002
{
1000
OTHER
1070
     0
1002
}
1002
{
1000
REACTOR
1002
}
1001
GENIUS_GENOBJ-N-FIL_13
1002
{
1000
OWNER
1000
GEN
1002
}
  0
LINE
  5
3470
330
1F
100
AcDbEntity
  8
TK2
100
AcDbLine
 10
127.3637661179099
 20
389.6327999913592
 30
0.0
 11
127.3637661179099
 21
412.2327999913591
 31
0.0
  0
LINE
  5
3471
330
1F
100
AcDbEntity
  8
TK2
100
AcDbLine
 10
236.2637661179099
 20
382.0327999913591
 30
0.0
 11
130.0637661179099
 21
382.032799991359
 31
0.0
  0
LINE
  5
3472
330
1F
100
AcDbEntity
  8
TK2
100
AcDbLine
 10
236.2637661179099
 20
385.5327999913591
 30
0.0
 11
130.0637661179099
 21
385.532799991359
 31
0.0
  0
ARC
  5
3473
330
1F
100
AcDbEntity
  8
TK2
100
AcDbCircle
 10
130.0637661179099
 20
390.032799991359
 30
0.0
 40
8.0
100
AcDbArc
 50
180.0
 51
270.0
1001
GENIUS_GENODEF_13
1002
{
1000
HIER
1070
     0
1002
}
1002
{
1000
MANEDIT
1070
     0
1002
}
1002
{
1000
NOSEL
1070
     0
1002
}
1002
{
1000
BEHIND
1070
     0
1002
}
1002
{
1000
OTHER
1070
     0
1002
}
1002
{
1000
REACTOR
1002
}
1001
GENIUS_GENOBJ-N-FIL_13
1002
{
1000
OWNER
1000
GEN
1002
}
  0
ARC
  5
3474
330
1F
100
AcDbEntity
  8
TK2
100
AcDbCircle
 10
130.0637661179099
 20
390.032799991359
 30
0.0
 40
4.5
100
AcDbArc
 50
180.0
 51
270.0
1001
GENIUS_GENODEF_13
1002
{
1000
HIER
1070
     0
1002
}
1002
{
1000
MANEDIT
1070
     0
1002
}
1002
{
1000
NOSEL
1070
     0
1002
}
1002
{
1000
BEHIND
1070
     0
1002
}
1002
{
1000
OTHER
1070
     0
1002
}
1002
{
1000
REACTOR
1002
}
1001
GENIUS_GENOBJ-N-FIL_13
1002
{
1000
OWNER
1000
GEN
1002
}
  0
LINE
  5
3475
330
1F
100
AcDbEntity
  8
TK2
100
AcDbLine
 10
122.06376611791
 20
390.032799991359
 30
0.0
 11
122.0637661179099
 21
412.2327999913591
 31
0.0
  0
LINE
  5
3476
330
1F
100
AcDbEntity
  8
TK2
100
AcDbLine
 10
125.56376611791
 20
390.032799991359
 30
0.0
 11
125.5637661179099
 21
412.2327999913591
 31
0.0
  0
LINE
  5
352B
330
1F
100
AcDbEntity
  8
TK2
100
AcDbLine
 10
129.7637661179099
 20
373.1327999913591
 30
0.0
 11
236.2637661179099
 21
373.1327999913591
 31
0.0
  0
ARC
  5
3571
102
{ACAD_REACTORS
330
4718
102
}
330
1F
100
AcDbEntity
  8
TK2
100
AcDbCircle
 10
129.7637661179099
 20
383.1327999913591
 30
0.0
 40
10.0
100
AcDbArc
 50
180.0
 51
270.0
1001
GENIUS_GENODEF_13
1002
{
1000
HIER
1070
     0
1002
}
1002
{
1000
MANEDIT
1070
     0
1002
}
1002
{
1000
NOSEL
1070
     0
1002
}
1002
{
1000
BEHIND
1070
     0
1002
}
1002
{
1000
OTHER
1070
     0
1002
}
1002
{
1000
REACTOR
1002
}
1001
GENIUS_GENOBJ-N-FIL_13
1002
{
1000
OWNER
1000
GEN
1002
}
  0
LINE
  5
35C4
330
1F
100
AcDbEntity
  8
AM_7
  6
AM_ISO08W050x2
100
AcDbLine
 10
129.2637661179099
 20
445.7327999913591
 30
0.0
 11
132.2637661179099
 21
445.7327999913591
 31
0.0
1001
GENIUS_GENOREF_13
1005
35D4
  0
LINE
  5
35C5
330
1F
100
AcDbEntity
  8
AM_7
  6
AM_ISO08W050x2
100
AcDbLine
 10
129.2637661179099
 20
445.7327999913591
 30
0.0
 11
129.2637661179099
 21
448.7327999913591
 31
0.0
1001
GENIUS_GENOREF_13
1005
35D4
  0
LINE
  5
35C6
330
1F
100
AcDbEntity
  8
AM_7
  6
AM_ISO08W050x2
100
AcDbLine
 10
129.2637661179099
 20
445.7327999913591
 30
0.0
 11
126.2637661179099
 21
445.7327999913591
 31
0.0
1001
GENIUS_GENOREF_13
1005
35D4
  0
LINE
  5
35C7
330
1F
100
AcDbEntity
  8
AM_7
  6
AM_ISO08W050x2
100
AcDbLine
 10
129.2637661179099
 20
445.7327999913591
 30
0.0
 11
129.2637661179099
 21
442.7327999913591
 31
0.0
1001
GENIUS_GENOREF_13
1005
35D4
  0
LINE
  5
35C8
330
1F
100
AcDbEntity
  8
AM_7
  6
AM_ISO08W050x2
100
AcDbLine
 10
211.2637661179099
 20
445.7327999913591
 30
0.0
 11
214.26376611791
 21
445.7327999913591
 31
0.0
1001
GENIUS_GENOREF_13
1005
35D5
  0
LINE
  5
35C9
330
1F
100
AcDbEntity
  8
AM_7
  6
AM_ISO08W050x2
100
AcDbLine
 10
211.2637661179099
 20
445.7327999913591
 30
0.0
 11
211.2637661179099
 21
448.7327999913591
 31
0.0
1001
GENIUS_GENOREF_13
1005
35D5
  0
LINE
  5
35CA
330
1F
100
AcDbEntity
  8
AM_7
  6
AM_ISO08W050x2
100
AcDbLine
 10
211.2637661179099
 20
445.7327999913591
 30
0.0
 11
208.2637661179099
 21
445.7327999913591
 31
0.0
1001
GENIUS_GENOREF_13
1005
35D5
  0
LINE
  5
35CB
330
1F
100
AcDbEntity
  8
AM_7
  6
AM_ISO08W050x2
100
AcDbLine
 10
211.2637661179099
 20
445.7327999913591
 30
0.0
 11
211.2637661179099
 21
442.7327999913591
 31
0.0
1001
GENIUS_GENOREF_13
1005
35D5
  0
LINE
  5
35CC
330
1F
100
AcDbEntity
  8
AM_7
  6
AM_ISO08W050x2
100
AcDbLine
 10
129.2637661179099
 20
378.732799991359
 30
0.0
 11
132.2637661179099
 21
378.732799991359
 31
0.0
1001
GENIUS_GENOREF_13
1005
35D7
  0
LINE
  5
35CD
330
1F
100
AcDbEntity
  8
AM_7
  6
AM_ISO08W050x2
100
AcDbLine
 10
129.2637661179099
 20
378.732799991359
 30
0.0
 11
129.26376611791
 21
375.7327999913591
 31
0.0
1001
GENIUS_GENOREF_13
1005
35D7
  0
LINE
  5
35CE
330
1F
100
AcDbEntity
  8
AM_7
  6
AM_ISO08W050x2
100
AcDbLine
 10
129.2637661179099
 20
378.732799991359
 30
0.0
 11
126.2637661179099
 21
378.732799991359
 31
0.0
1001
GENIUS_GENOREF_13
1005
35D7
  0
LINE
  5
35CF
330
1F
100
AcDbEntity
  8
AM_7
  6
AM_ISO08W050x2
100
AcDbLine
 10
129.2637661179099
 20
378.732799991359
 30
0.0
 11
129.2637661179099
 21
381.7327999913591
 31
0.0
1001
GENIUS_GENOREF_13
1005
35D7
  0
LINE
  5
35D0
330
1F
100
AcDbEntity
  8
AM_7
  6
AM_ISO08W050x2
100
AcDbLine
 10
211.2637661179099
 20
378.7327999913591
 30
0.0
 11
214.26376611791
 21
378.7327999913591
 31
0.0
1001
GENIUS_GENOREF_13
1005
35D6
  0
LINE
  5
35D1
330
1F
100
AcDbEntity
  8
AM_7
  6
AM_ISO08W050x2
100
AcDbLine
 10
211.2637661179099
 20
378.7327999913591
 30
0.0
 11
211.2637661179099
 21
375.7327999913591
 31
0.0
1001
GENIUS_GENOREF_13
1005
35D6
  0
LINE
  5
35D2
330
1F
100
AcDbEntity
  8
AM_7
  6
AM_ISO08W050x2
100
AcDbLine
 10
211.2637661179099
 20
378.7327999913591
 30
0.0
 11
208.2637661179099
 21
378.7327999913591
 31
0.0
1001
GENIUS_GENOREF_13
1005
35D6
  0
LINE
  5
35D3
330
1F
100
AcDbEntity
  8
AM_7
  6
AM_ISO08W050x2
100
AcDbLine
 10
211.2637661179099
 20
378.7327999913591
 30
0.0
 11
211.2637661179099
 21
381.7327999913591
 31
0.0
1001
GENIUS_GENOREF_13
1005
35D6
  0
POINT
  5
35D4
330
1F
100
AcDbEntity
  8
0
 60
     1
100
AcDbPoint
 10
-321.0655690348637
 20
254.7683516417837
 30
0.0
1001
GENIUS_GENOLIS_13
1002
{
1000
ENT
1005
35C7
1005
35C6
1005
35C5
1005
35C4
1002
}
1001
GENIUS_GENODEF_13
1002
{
1000
HIER
1070
    10
1002
}
1002
{
1000
MANEDIT
1070
     0
1002
}
1002
{
1000
NOSEL
1070
     0
1002
}
1002
{
1000
BEHIND
1070
     0
1002
}
1002
{
1000
OTHER
1070
     0
1002
}
1002
{
1000
REACTOR
1002
}
1001
GENIUS_GENOENT_13
1002
{
1000
MYREF
1005
35D4
1002
}
1002
{
1000
GRP
1005
0
1002
}
1001
GENIUS_GENOBJ-N-CRS_13
1002
{
1000
OWNER
1000
GEN
1002
}
  0
POINT
  5
35D5
330
1F
100
AcDbEntity
  8
0
 60
     1
100
AcDbPoint
 10
-251.0655690348637
 20
254.7683516417837
 30
0.0
1001
GENIUS_GENOLIS_13
1002
{
1000
ENT
1005
35CB
1005
35CA
1005
35C9
1005
35C8
1002
}
1001
GENIUS_GENODEF_13
1002
{
1000
HIER
1070
    10
1002
}
1002
{
1000
MANEDIT
1070
     0
1002
}
1002
{
1000
NOSEL
1070
     0
1002
}
1002
{
1000
BEHIND
1070
     0
1002
}
1002
{
1000
OTHER
1070
     0
1002
}
1002
{
1000
REACTOR
1002
}
1001
GENIUS_GENOENT_13
1002
{
1000
MYREF
1005
35D5
1002
}
1002
{
1000
GRP
1005
0
1002
}
1001
GENIUS_GENOBJ-N-CRS_13
1002
{
1000
OWNER
1000
GEN
1002
}
  0
POINT
  5
35D6
330
1F
100
AcDbEntity
  8
0
 60
     1
100
AcDbPoint
 10
-251.0655690348638
 20
451.8452126717027
 30
0.0
1001
GENIUS_GENOLIS_13
1002
{
1000
ENT
1005
35D3
1005
35D2
1005
35D1
1005
35D0
1002
}
1001
GENIUS_GENODEF_13
1002
{
1000
HIER
1070
    10
1002
}
1002
{
1000
MANEDIT
1070
     0
1002
}
1002
{
1000
NOSEL
1070
     0
1002
}
1002
{
1000
BEHIND
1070
     0
1002
}
1002
{
1000
OTHER
1070
     0
1002
}
1002
{
1000
REACTOR
1002
}
1001
GENIUS_GENOENT_13
1002
{
1000
MYREF
1005
35D6
1002
}
1002
{
1000
GRP
1005
0
1002
}
1001
GENIUS_GENOBJ-N-CRS_13
1002
{
1000
OWNER
1000
GEN
1002
}
  0
POINT
  5
35D7
330
1F
100
AcDbEntity
  8
0
 60
     1
100
AcDbPoint
 10
-321.0655690348637
 20
451.8452126717027
 30
0.0
1001
GENIUS_GENOLIS_13
1002
{
1000
ENT
1005
35CF
1005
35CE
1005
35CD
1005
35CC
1002
}
1001
GENIUS_GENODEF_13
1002
{
1000
HIER
1070
    10
1002
}
1002
{
1000
MANEDIT
1070
     0
1002
}
1002
{
1000
NOSEL
1070
     0
1002
}
1002
{
1000
BEHIND
1070
     0
1002
}
1002
{
1000
OTHER
1070
     0
1002
}
1002
{
1000
REACTOR
1002
}
1001
GENIUS_GENOENT_13
1002
{
1000
MYREF
1005
35D7
1002
}
1002
{
1000
GRP
1005
0
1002
}
1001
GENIUS_GENOBJ-N-CRS_13
1002
{
1000
OWNER
1000
GEN
1002
}
  0
CIRCLE
  5
35D8
330
1F
100
AcDbEntity
  8
TK20
100
AcDbCircle
 10
129.2637661179099
 20
445.7327999913591
 30
0.0
 40
1.199999999999999
  0
CIRCLE
  5
35D9
330
1F
100
AcDbEntity
  8
TK20
100
AcDbCircle
 10
211.2637661179099
 20
445.7327999913591
 30
0.0
 40
1.199999999999999
  0
CIRCLE
  5
35DA
330
1F
100
AcDbEntity
  8
TK20
100
AcDbCircle
 10
129.2637661179099
 20
378.732799991359
 30
0.0
 40
1.199999999999999
  0
CIRCLE
  5
35DB
330
1F
100
AcDbEntity
  8
TK20
100
AcDbCircle
 10
211.2637661179099
 20
378.7327999913591
 30
0.0
 40
1.199999999999999
  0
LINE
  5
3703
330
1F
100
AcDbEntity
  8
TK2
100
AcDbLine
 10
143.1637661179098
 20
435.7327999913591
 30
0.0
 11
143.6637661179099
 21
435.7327999913591
 31
0.0
  0
ARC
  5
3704
330
1F
100
AcDbEntity
  8
TK2
100
AcDbCircle
 10
143.6637661179099
 20
434.2327999913591
 30
0.0
 40
1.5
100
AcDbArc
 50
0.0
 51
90.0
1001
GENIUS_GENODEF_13
1002
{
1000
HIER
1070
     0
1002
}
1002
{
1000
MANEDIT
1070
     0
1002
}
1002
{
1000
NOSEL
1070
     0
1002
}
1002
{
1000
BEHIND
1070
     0
1002
}
1002
{
1000
OTHER
1070
     0
1002
}
1002
{
1000
REACTOR
1002
}
1001
GENIUS_GENOBJ-N-FIL_13
1002
{
1000
OWNER
1000
GEN
1002
}
  0
ARC
  5
3705
330
1F
100
AcDbEntity
  8
TK2
100
AcDbCircle
 10
138.6637661179098
 20
434.2327999913591
 30
0.0
 40
1.5
100
AcDbArc
 50
90.0
 51
180.0
1001
GENIUS_GENODEF_13
1002
{
1000
HIER
1070
     0
1002
}
1002
{
1000
MANEDIT
1070
     0
1002
}
1002
{
1000
NOSEL
1070
     0
1002
}
1002
{
1000
BEHIND
1070
     0
1002
}
1002
{
1000
OTHER
1070
     0
1002
}
1002
{
1000
REACTOR
1002
}
1001
GENIUS_GENOBJ-N-FIL_13
1002
{
1000
OWNER
1000
GEN
1002
}
  0
LINE
  5
3706
330
1F
100
AcDbEntity
  8
TK2
100
AcDbLine
 10
139.1637661179098
 20
437.1327999913591
 30
0.0
 11
139.1637661179098
 21
435.7327999913591
 31
0.0
  0
LINE
  5
3707
330
1F
100
AcDbEntity
  8
TK2
100
AcDbLine
 10
143.1637661179098
 20
435.7327999913591
 30
0.0
 11
143.1637661179098
 21
437.1327999913591
 31
0.0
  0
LINE
  5
3708
330
1F
100
AcDbEntity
  8
TK2
100
AcDbLine
 10
138.6637661179098
 20
435.7327999913591
 30
0.0
 11
139.1637661179097
 21
435.7327999913591
 31
0.0
  0
LINE
  5
3709
330
1F
100
AcDbEntity
  8
TK2
100
AcDbLine
 10
145.1637661179099
 20
434.2327999913591
 30
0.0
 11
145.1637661179099
 21
390.2327999913591
 31
0.0
  0
LINE
  5
370A
330
1F
100
AcDbEntity
  8
TK2
100
AcDbLine
 10
137.1637661179098
 20
434.2327999913591
 30
0.0
 11
137.1637661179098
 21
390.2327999913591
 31
0.0
  0
LINE
  5
370B
330
1F
100
AcDbEntity
  8
TK2
100
AcDbLine
 10
128.1637661179097
 20
434.2327999913591
 30
0.0
 11
128.1637661179097
 21
390.2327999913591
 31
0.0
  0
LINE
  5
370C
330
1F
100
AcDbEntity
  8
TK2
100
AcDbLine
 10
136.1637661179098
 20
434.2327999913591
 30
0.0
 11
136.1637661179098
 21
390.2327999913591
 31
0.0
  0
LINE
  5
370D
330
1F
100
AcDbEntity
  8
TK2
100
AcDbLine
 10
129.6637661179097
 20
435.7327999913591
 30
0.0
 11
130.1637661179096
 21
435.7327999913591
 31
0.0
  0
LINE
  5
370E
330
1F
100
AcDbEntity
  8
TK2
100
AcDbLine
 10
134.1637661179097
 20
435.7327999913591
 30
0.0
 11
134.1637661179097
 21
437.1327999913591
 31
0.0
  0
LINE
  5
370F
330
1F
100
AcDbEntity
  8
TK2
100
AcDbLine
 10
130.1637661179097
 20
437.1327999913591
 30
0.0
 11
130.1637661179097
 21
435.7327999913591
 31
0.0
  0
ARC
  5
3710
330
1F
100
AcDbEntity
  8
TK2
100
AcDbCircle
 10
129.6637661179097
 20
434.2327999913591
 30
0.0
 40
1.5
100
AcDbArc
 50
90.0
 51
180.0
1001
GENIUS_GENODEF_13
1002
{
1000
HIER
1070
     0
1002
}
1002
{
1000
MANEDIT
1070
     0
1002
}
1002
{
1000
NOSEL
1070
     0
1002
}
1002
{
1000
BEHIND
1070
     0
1002
}
1002
{
1000
OTHER
1070
     0
1002
}
1002
{
1000
REACTOR
1002
}
1001
GENIUS_GENOBJ-N-FIL_13
1002
{
1000
OWNER
1000
GEN
1002
}
  0
ARC
  5
3711
330
1F
100
AcDbEntity
  8
TK2
100
AcDbCircle
 10
134.6637661179098
 20
434.2327999913591
 30
0.0
 40
1.5
100
AcDbArc
 50
0.0
 51
90.0
1001
GENIUS_GENODEF_13
1002
{
1000
HIER
1070
     0
1002
}
1002
{
1000
MANEDIT
1070
     0
1002
}
1002
{
1000
NOSEL
1070
     0
1002
}
1002
{
1000
BEHIND
1070
     0
1002
}
1002
{
1000
OTHER
1070
     0
1002
}
1002
{
1000
REACTOR
1002
}
1001
GENIUS_GENOBJ-N-FIL_13
1002
{
1000
OWNER
1000
GEN
1002
}
  0
LINE
  5
3712
330
1F
100
AcDbEntity
  8
TK2
100
AcDbLine
 10
134.1637661179097
 20
435.7327999913591
 30
0.0
 11
134.6637661179098
 21
435.7327999913591
 31
0.0
  0
LINE
  5
3713
330
1F
100
AcDbEntity
  8
TK2
100
AcDbLine
 10
143.1637661179098
 20
388.7327999913591
 30
0.0
 11
143.6637661179099
 21
388.7327999913591
 31
0.0
  0
ARC
  5
3714
330
1F
100
AcDbEntity
  8
TK2
100
AcDbCircle
 10
143.6637661179099
 20
390.2327999913591
 30
0.0
 40
1.5
100
AcDbArc
 50
270.0
 51
0.0
1001
GENIUS_GENODEF_13
1002
{
1000
HIER
1070
     0
1002
}
1002
{
1000
MANEDIT
1070
     0
1002
}
1002
{
1000
NOSEL
1070
     0
1002
}
1002
{
1000
BEHIND
1070
     0
1002
}
1002
{
1000
OTHER
1070
     0
1002
}
1002
{
1000
REACTOR
1002
}
1001
GENIUS_GENOBJ-N-FIL_13
1002
{
1000
OWNER
1000
GEN
1002
}
  0
ARC
  5
3715
330
1F
100
AcDbEntity
  8
TK2
100
AcDbCircle
 10
138.6637661179098
 20
390.2327999913591
 30
0.0
 40
1.5
100
AcDbArc
 50
180.0
 51
270.0
1001
GENIUS_GENODEF_13
1002
{
1000
HIER
1070
     0
1002
}
1002
{
1000
MANEDIT
1070
     0
1002
}
1002
{
1000
NOSEL
1070
     0
1002
}
1002
{
1000
BEHIND
1070
     0
1002
}
1002
{
1000
OTHER
1070
     0
1002
}
1002
{
1000
REACTOR
1002
}
1001
GENIUS_GENOBJ-N-FIL_13
1002
{
1000
OWNER
1000
GEN
1002
}
  0
LINE
  5
3716
330
1F
100
AcDbEntity
  8
TK2
100
AcDbLine
 10
139.1637661179098
 20
387.3327999913592
 30
0.0
 11
139.1637661179098
 21
388.7327999913591
 31
0.0
  0
LINE
  5
3717
330
1F
100
AcDbEntity
  8
TK2
100
AcDbLine
 10
143.1637661179098
 20
388.7327999913591
 30
0.0
 11
143.1637661179098
 21
387.3327999913592
 31
0.0
  0
LINE
  5
3718
330
1F
100
AcDbEntity
  8
TK2
100
AcDbLine
 10
138.6637661179098
 20
388.7327999913591
 30
0.0
 11
139.1637661179097
 21
388.7327999913591
 31
0.0
  0
LINE
  5
371D
330
1F
100
AcDbEntity
  8
TK2
100
AcDbLine
 10
129.6637661179097
 20
388.7327999913591
 30
0.0
 11
130.1637661179096
 21
388.7327999913591
 31
0.0
  0
LINE
  5
371E
330
1F
100
AcDbEntity
  8
TK2
100
AcDbLine
 10
134.1637661179097
 20
388.7327999913591
 30
0.0
 11
134.1637661179097
 21
387.3327999913592
 31
0.0
  0
LINE
  5
371F
330
1F
100
AcDbEntity
  8
TK2
100
AcDbLine
 10
130.1637661179097
 20
387.3327999913592
 30
0.0
 11
130.1637661179097
 21
388.7327999913591
 31
0.0
  0
ARC
  5
3720
330
1F
100
AcDbEntity
  8
TK2
100
AcDbCircle
 10
129.6637661179097
 20
390.2327999913591
 30
0.0
 40
1.5
100
AcDbArc
 50
180.0
 51
270.0
1001
GENIUS_GENODEF_13
1002
{
1000
HIER
1070
     0
1002
}
1002
{
1000
MANEDIT
1070
     0
1002
}
1002
{
1000
NOSEL
1070
     0
1002
}
1002
{
1000
BEHIND
1070
     0
1002
}
1002
{
1000
OTHER
1070
     0
1002
}
1002
{
1000
REACTOR
1002
}
1001
GENIUS_GENOBJ-N-FIL_13
1002
{
1000
OWNER
1000
GEN
1002
}
  0
ARC
  5
3721
330
1F
100
AcDbEntity
  8
TK2
100
AcDbCircle
 10
134.6637661179098
 20
390.2327999913591
 30
0.0
 40
1.5
100
AcDbArc
 50
270.0
 51
0.0
1001
GENIUS_GENODEF_13
1002
{
1000
HIER
1070
     0
1002
}
1002
{
1000
MANEDIT
1070
     0
1002
}
1002
{
1000
NOSEL
1070
     0
1002
}
1002
{
1000
BEHIND
1070
     0
1002
}
1002
{
1000
OTHER
1070
     0
1002
}
1002
{
1000
REACTOR
1002
}
1001
GENIUS_GENOBJ-N-FIL_13
1002
{
1000
OWNER
1000
GEN
1002
}
  0
LINE
  5
3722
330
1F
100
AcDbEntity
  8
TK2
100
AcDbLine
 10
134.1637661179097
 20
388.7327999913591
 30
0.0
 11
134.6637661179098
 21
388.7327999913591
 31
0.0
  0
LWPOLYLINE
  5
3750
102
{ACAD_REACTORS
330
4718
102
}
330
1F
100
AcDbEntity
  8
TK2
100
AcDbPolyline
 90
        8
 70
     1
 43
0.0
 10
120.7637661179099
 20
442.432799991359
 10
123.76376611791
 20
442.432799991359
 42
0.4142135623730951
 10
124.76376611791
 20
443.432799991359
 10
124.76376611791
 20
448.4327999913591
 42
0.4142135623730951
 10
123.76376611791
 20
449.4327999913591
 10
120.7637661179099
 20
449.4327999913591
 42
0.4142135623730951
 10
119.7637661179099
 20
448.4327999913591
 10
119.7637661179099
 20
443.432799991359
 42
0.4142135623730951
1001
GENIUS_GENREC_14
1002
{
1000
PYDIR
1011
119.7637661179099
1021
449.4327999913591
1031
0.0
1002
}
1002
{
1000
PXDIR
1011
124.76376611791
1021
442.432799991359
1031
0.0
1002
}
1002
{
1000
PORI
1011
119.7637661179099
1021
442.432799991359
1031
0.0
1002
}
1002
{
1000
PINS
1011
119.7637661179099
1021
442.432799991359
1031
0.0
1002
}
1002
{
1000
HVAL
1000
7
1002
}
1002
{
1000
H
1070
     2
1002
}
1002
{
1000
WVAL
1000
5
1002
}
1002
{
1000
W
1070
     2
1002
}
1002
{
1000
C
1070
     1
1002
}
1001
GENIUS_GENODEF_13
1002
{
1000
HIER
1070
     0
1002
}
1002
{
1000
MANEDIT
1070
     0
1002
}
1002
{
1000
NOSEL
1070
     0
1002
}
1002
{
1000
BEHIND
1070
     0
1002
}
1002
{
1000
OTHER
1070
     0
1002
}
1002
{
1000
REACTOR
1002
}
1001
GENIUS_GENOBJ-N-REC_13
1002
{
1000
OWNER
1000
GEN
1002
}
  0
LINE
  5
37A7
330
1F
100
AcDbEntity
  8
TK2
100
AcDbLine
 10
231.0137661179101
 20
449.4327999913592
 30
0.0
 11
231.0137661179101
 21
443.4327999913591
 31
0.0
  0
LINE
  5
37A8
330
1F
100
AcDbEntity
  8
TK2
100
AcDbLine
 10
231.0137661179101
 20
443.4327999913591
 30
0.0
 11
236.2637661179101
 21
443.4327999913591
 31
0.0
  0
LINE
  5
3814
330
1F
100
AcDbEntity
  8
TK2
100
AcDbLine
 10
187.2637661179099
 20
380.3327999913591
 30
0.0
 11
187.2637661179099
 21
375.5327999913591
 31
0.0
  0
LINE
  5
382A
330
1F
100
AcDbEntity
  8
TK2
100
AcDbLine
 10
187.2637661179099
 20
380.3327999913591
 30
0.0
 11
197.2637661179099
 21
380.3327999913591
 31
0.0
  0
LINE
  5
3834
330
1F
100
AcDbEntity
  8
TK2
100
AcDbLine
 10
187.2637661179099
 20
375.5327999913591
 30
0.0
 11
197.2637661179099
 21
375.5327999913591
 31
0.0
  0
LINE
  5
3836
330
1F
100
AcDbEntity
  8
TK2
100
AcDbLine
 10
197.2637661179099
 20
380.3327999913591
 30
0.0
 11
197.2637661179099
 21
375.5327999913591
 31
0.0
  0
CIRCLE
  5
3870
330
1F
100
AcDbEntity
  8
TK2
100
AcDbCircle
 10
228.2637661179099
 20
377.5327999913591
 30
0.0
 40
2.5
  0
LINE
  5
389D
330
1F
100
AcDbEntity
  8
TK2
100
AcDbLine
 10
352.7637661179099
 20
448.4327999913591
 30
0.0
 11
352.7637661179099
 21
443.432799991359
 31
0.0
  0
LINE
  5
389E
330
1F
100
AcDbEntity
  8
TK2
100
AcDbLine
 10
236.2637661179099
 20
449.4327999913592
 30
0.0
 11
351.76376611791
 21
449.4327999913591
 31
0.0
  0
ARC
  5
389F
102
{ACAD_REACTORS
330
4774
102
}
330
1F
100
AcDbEntity
  8
TK2
100
AcDbCircle
 10
351.76376611791
 20
448.4327999913591
 30
0.0
 40
1.0
100
AcDbArc
 50
0.000000000000007
 51
90.0
1001
GENIUS_GENOBJ-N-FIL_13
1002
{
1000
OWNER
1000
GEN
1002
}
1001
GENIUS_GENODEF_13
1002
{
1000
HIER
1070
     0
1002
}
1002
{
1000
MANEDIT
1070
     0
1002
}
1002
{
1000
NOSEL
1070
     0
1002
}
1002
{
1000
BEHIND
1070
     0
1002
}
1002
{
1000
OTHER
1070
     0
1002
}
1002
{
1000
REACTOR
1002
}
  0
LWPOLYLINE
  5
38A0
330
1F
100
AcDbEntity
  8
TK2
100
AcDbPolyline
 90
        8
 70
     1
 43
0.0
 10
351.7637661179099
 20
442.432799991359
 10
348.7637661179099
 20
442.432799991359
 42
-0.4142135623730951
 10
347.7637661179099
 20
443.432799991359
 10
347.7637661179099
 20
448.4327999913591
 42
-0.4142135623730951
 10
348.7637661179099
 20
449.4327999913591
 10
351.7637661179099
 20
449.4327999913591
 42
-0.4142135623730951
 10
352.7637661179099
 20
448.4327999913591
 10
352.7637661179099
 20
443.432799991359
 42
-0.4142135623730951
1001
GENIUS_GENREC_14
1002
{
1000
PYDIR
1011
352.7637661179099
1021
449.4327999913591
1031
0.0
1002
}
1002
{
1000
PXDIR
1011
347.7637661179099
1021
442.432799991359
1031
0.0
1002
}
1002
{
1000
PORI
1011
352.7637661179099
1021
442.432799991359
1031
0.0
1002
}
1002
{
1000
PINS
1011
352.7637661179099
1021
442.432799991359
1031
0.0
1002
}
1002
{
1000
HVAL
1000
7
1002
}
1002
{
1000
H
1070
     2
1002
}
1002
{
1000
WVAL
1000
5
1002
}
1002
{
1000
W
1070
     2
1002
}
1002
{
1000
C
1070
     1
1002
}
1001
GENIUS_GENODEF_13
1002
{
1000
HIER
1070
     0
1002
}
1002
{
1000
MANEDIT
1070
     0
1002
}
1002
{
1000
NOSEL
1070
     0
1002
}
1002
{
1000
BEHIND
1070
     0
1002
}
1002
{
1000
OTHER
1070
     0
1002
}
1002
{
1000
REACTOR
1002
}
1001
GENIUS_GENOBJ-N-REC_13
1002
{
1000
OWNER
1000
GEN
1002
}
  0
LINE
  5
38A8
330
1F
100
AcDbEntity
  8
TK1
100
AcDbLine
 10
236.2637661179099
 20
373.1327999913591
 30
0.0
 11
273.7637661179099
 21
373.1327999913591
 31
0.0
  0
LINE
  5
38B7
330
1F
100
AcDbEntity
  8
TK1
100
AcDbLine
 10
242.6137661179099
 20
447.6327999913591
 30
0.0
 11
293.26376611791
 21
447.6327999913589
 31
0.0
  0
LINE
  5
3967
330
1F
100
AcDbEntity
  8
TK1
100
AcDbLine
 10
347.26376611791
 20
441.632799991359
 30
0.0
 11
352.7637661179099
 21
441.632799991359
 31
0.0
  0
LINE
  5
3971
330
1F
100
AcDbEntity
  8
TK1
100
AcDbLine
 10
347.26376611791
 20
447.6327999913591
 30
0.0
 11
347.26376611791
 21
441.632799991359
 31
0.0
  0
LINE
  5
3975
330
1F
100
AcDbEntity
  8
TK1
100
AcDbLine
 10
352.7637661179099
 20
441.6327999913591
 30
0.0
 11
352.76376611791
 21
383.1327999913591
 31
0.0
  0
LINE
  5
3982
330
1F
100
AcDbEntity
  8
TK2
100
AcDbLine
 10
352.7637661179099
 20
443.432799991359
 30
0.0
 11
352.7637661179099
 21
441.632799991359
 31
0.0
  0
ARC
  5
3992
330
1F
100
AcDbEntity
  8
TK1
100
AcDbCircle
 10
342.76376611791
 20
383.1327999913591
 30
0.0
 40
10.0
100
AcDbArc
 50
270.0
 51
0.0000000000000382
1001
GENIUS_GENOBJ-N-FIL_13
1002
{
1000
OWNER
1000
GEN
1002
}
1001
GENIUS_GENODEF_13
1002
{
1000
HIER
1070
     0
1002
}
1002
{
1000
MANEDIT
1070
     0
1002
}
1002
{
1000
NOSEL
1070
     0
1002
}
1002
{
1000
BEHIND
1070
     0
1002
}
1002
{
1000
OTHER
1070
     0
1002
}
1002
{
1000
REACTOR
1002
}
  0
LINE
  5
399C
330
1F
100
AcDbEntity
  8
TK1
100
AcDbLine
 10
236.2637661179099
 20
436.4827999913591
 30
0.0
 11
337.5137661179099
 21
436.4827999913591
 31
0.0
  0
LINE
  5
39A5
330
1F
100
AcDbEntity
  8
TK1
100
AcDbLine
 10
236.2637661179099
 20
387.9827999913591
 30
0.0
 11
337.5137661179099
 21
387.9827999913591
 31
0.0
  0
LINE
  5
39B0
330
1F
100
AcDbEntity
  8
TK1
100
AcDbLine
 10
344.5137661179099
 20
394.9827999913591
 30
0.0
 11
344.5137661179099
 21
429.482799991359
 31
0.0
  0
LINE
  5
3AD2
330
1F
100
AcDbEntity
  8
TK1
100
AcDbLine
 10
236.2637661179099
 20
442.032799991359
 30
0.0
 11
242.6137661179099
 21
442.032799991359
 31
0.0
  0
LINE
  5
3AD3
330
1F
100
AcDbEntity
  8
TK1
100
AcDbLine
 10
242.6137661179099
 20
442.032799991359
 30
0.0
 11
242.6137661179099
 21
447.6327999913591
 31
0.0
  0
LINE
  5
3AE7
330
1F
100
AcDbEntity
  8
TK1
100
AcDbLine
 10
236.2637661179099
 20
447.3327999913591
 30
0.0
 11
242.6137661179099
 21
447.3327999913591
 31
0.0
  0
LINE
  5
3B1F
330
1F
100
AcDbEntity
  8
TK1
100
AcDbLine
 10
236.2637661179099
 20
444.3327999913591
 30
0.0
 11
242.6137661179099
 21
444.3327999913591
 31
0.0
  0
LINE
  5
3B28
330
1F
100
AcDbEntity
  8
TK2
100
AcDbLine
 10
241.5137661179098
 20
449.432799991359
 30
0.0
 11
241.5137661179097
 21
443.432799991359
 31
0.0
  0
LINE
  5
3B29
330
1F
100
AcDbEntity
  8
TK2
100
AcDbLine
 10
241.5137661179097
 20
443.432799991359
 30
0.0
 11
236.2637661179097
 21
443.4327999913591
 31
0.0
  0
LINE
  5
3B30
330
1F
100
AcDbEntity
  8
TK1
100
AcDbLine
 10
347.26376611791
 20
447.332799991359
 30
0.0
 11
347.7637661179099
 21
447.332799991359
 31
0.0
  0
LINE
  5
3B36
330
1F
100
AcDbEntity
  8
TK1
100
AcDbLine
 10
347.26376611791
 20
444.3327999913591
 30
0.0
 11
347.7637661179099
 21
444.3327999913591
 31
0.0
  0
ARC
  5
3B5F
330
1F
100
AcDbEntity
  8
TK1
100
AcDbCircle
 10
337.5137661179099
 20
429.482799991359
 30
0.0
 40
7.0
100
AcDbArc
 50
0.0
 51
90.0
1001
GENIUS_GENODEF_13
1002
{
1000
HIER
1070
     0
1002
}
1002
{
1000
MANEDIT
1070
     0
1002
}
1002
{
1000
NOSEL
1070
     0
1002
}
1002
{
1000
BEHIND
1070
     0
1002
}
1002
{
1000
OTHER
1070
     0
1002
}
1002
{
1000
REACTOR
1002
}
1001
GENIUS_GENOBJ-N-FIL_13
1002
{
1000
OWNER
1000
GEN
1002
}
  0
ARC
  5
3B61
330
1F
100
AcDbEntity
  8
TK1
100
AcDbCircle
 10
337.5137661179099
 20
394.9827999913591
 30
0.0
 40
7.0
100
AcDbArc
 50
270.0
 51
0.0
1001
GENIUS_GENOBJ-N-FIL_13
1002
{
1000
OWNER
1000
GEN
1002
}
1001
GENIUS_GENODEF_13
1002
{
1000
HIER
1070
     0
1002
}
1002
{
1000
MANEDIT
1070
     0
1002
}
1002
{
1000
NOSEL
1070
     0
1002
}
1002
{
1000
BEHIND
1070
     0
1002
}
1002
{
1000
OTHER
1070
     0
1002
}
1002
{
1000
REACTOR
1002
}
  0
LINE
  5
3B6C
330
1F
100
AcDbEntity
  8
TK1
100
AcDbLine
 10
303.2637661179099
 20
447.6327999913591
 30
0.0
 11
303.2637661179099
 21
441.632799991359
 31
0.0
  0
LINE
  5
3B7D
330
1F
100
AcDbEntity
  8
TK1
100
AcDbLine
 10
303.2637661179099
 20
441.632799991359
 30
0.0
 11
293.26376611791
 21
441.632799991359
 31
0.0
  0
LINE
  5
3B81
330
1F
100
AcDbEntity
  8
TK1
100
AcDbLine
 10
293.26376611791
 20
447.6327999913591
 30
0.0
 11
293.26376611791
 21
441.632799991359
 31
0.0
  0
LINE
  5
3B86
330
1F
100
AcDbEntity
  8
TK1
100
AcDbLine
 10
303.2637661179099
 20
447.6327999913589
 30
0.0
 11
347.26376611791
 21
447.6327999913591
 31
0.0
  0
LINE
  5
3B95
330
1F
100
AcDbEntity
  8
TK1
100
AcDbLine
 10
296.7637661179099
 20
444.3327999913591
 30
0.0
 11
293.26376611791
 21
444.3327999913591
 31
0.0
  0
LINE
  5
3B9B
330
1F
100
AcDbEntity
  8
TK1
100
AcDbLine
 10
296.7637661179099
 20
447.3327999913589
 30
0.0
 11
293.26376611791
 21
447.332799991359
 31
0.0
  0
LINE
  5
3BA9
330
1F
100
AcDbEntity
  8
TK1
100
AcDbLine
 10
298.2637661179099
 20
445.8327999913589
 30
0.0
 11
298.2637661179099
 21
445.832799991359
 31
0.0
  0
ARC
  5
3BB1
330
1F
100
AcDbEntity
  8
TK1
100
AcDbCircle
 10
296.7637661179099
 20
445.8327999913589
 30
0.0
 40
1.5
100
AcDbArc
 50
0.0
 51
90.0
1001
GENIUS_GENODEF_13
1002
{
1000
HIER
1070
     0
1002
}
1002
{
1000
MANEDIT
1070
     0
1002
}
1002
{
1000
NOSEL
1070
     0
1002
}
1002
{
1000
BEHIND
1070
     0
1002
}
1002
{
1000
OTHER
1070
     0
1002
}
1002
{
1000
REACTOR
1002
}
1001
GENIUS_GENOBJ-N-FIL_13
1002
{
1000
OWNER
1000
GEN
1002
}
  0
ARC
  5
3BB3
330
1F
100
AcDbEntity
  8
TK1
100
AcDbCircle
 10
296.7637661179099
 20
445.832799991359
 30
0.0
 40
1.5
100
AcDbArc
 50
270.0
 51
0.0
1001
GENIUS_GENODEF_13
1002
{
1000
HIER
1070
     0
1002
}
1002
{
1000
MANEDIT
1070
     0
1002
}
1002
{
1000
NOSEL
1070
     0
1002
}
1002
{
1000
BEHIND
1070
     0
1002
}
1002
{
1000
OTHER
1070
     0
1002
}
1002
{
1000
REACTOR
1002
}
1001
GENIUS_GENOBJ-N-FIL_13
1002
{
1000
OWNER
1000
GEN
1002
}
  0
LINE
  5
3C24
330
1F
100
AcDbEntity
  8
TK1
100
AcDbLine
 10
295.2637661179098
 20
371.6327999913591
 30
0.0
 11
296.7637661179098
 21
373.1327999913591
 31
0.0
  0
LINE
  5
3C25
330
1F
100
AcDbEntity
  8
TK1
100
AcDbLine
 10
275.2637661179099
 20
371.6327999913591
 30
0.0
 11
295.2637661179098
 21
371.6327999913592
 31
0.0
  0
LINE
  5
3C26
330
1F
100
AcDbEntity
  8
TK1
100
AcDbLine
 10
273.7637661179099
 20
373.1327999913591
 30
0.0
 11
275.2637661179099
 21
371.6327999913591
 31
0.0
  0
LINE
  5
3C27
330
1F
100
AcDbEntity
  8
TK1
100
AcDbLine
 10
296.7637661179098
 20
373.1327999913591
 30
0.0
 11
342.76376611791
 21
373.1327999913591
 31
0.0
  0
LINE
  5
3C30
330
1F
100
AcDbEntity
  8
TK2
100
AcDbLine
 10
456.2090111467647
 20
442.632799991359
 30
0.0
 11
456.2090111467646
 21
373.1327999913591
 31
0.0
  0
LINE
  5
3C50
330
1F
100
AcDbEntity
  8
TK2
100
AcDbLine
 10
453.6090111467646
 20
449.4327999913591
 30
0.0
 11
466.2090111467646
 21
449.4327999913591
 31
0.0
  0
LINE
  5
3C52
102
{ACAD_REACTORS
330
479E
102
}
330
1F
100
AcDbEntity
  8
TK2
100
AcDbLine
 10
466.2090111467646
 20
449.4327999913591
 30
0.0
 11
466.2090111467646
 21
373.1327999913591
 31
0.0
  0
LINE
  5
3C54
330
1F
100
AcDbEntity
  8
TK2
100
AcDbLine
 10
456.2090111467646
 20
373.1327999913591
 30
0.0
 11
466.2090111467646
 21
373.1327999913591
 31
0.0
  0
LINE
  5
3C71
330
1F
100
AcDbEntity
  8
TK2
100
AcDbLine
 10
472.2090111467646
 20
385.7327999913591
 30
0.0
 11
472.2090111467646
 21
438.7327999913591
 31
0.0
  0
LINE
  5
3C85
330
1F
100
AcDbEntity
  8
TK2
100
AcDbLine
 10
466.2090111467646
 20
438.7327999913591
 30
0.0
 11
472.2090111467646
 21
438.7327999913591
 31
0.0
  0
LINE
  5
3C86
330
1F
100
AcDbEntity
  8
TK2
100
AcDbLine
 10
466.2090111467646
 20
385.7327999913591
 30
0.0
 11
472.2090111467646
 21
385.7327999913591
 31
0.0
  0
LINE
  5
3CFF
330
1F
100
AcDbEntity
  8
TK2
100
AcDbLine
 10
450.2090111467646
 20
446.032799991359
 30
0.0
 11
450.2090111467646
 21
446.0327999913591
 31
0.0
  0
LINE
  5
3D00
330
1F
100
AcDbEntity
  8
TK2
100
AcDbLine
 10
456.2090111467646
 20
442.632799991359
 30
0.0
 11
453.6090111467646
 21
442.632799991359
 31
0.0
  0
ARC
  5
3D4D
330
1F
100
AcDbEntity
  8
TK2
100
AcDbCircle
 10
453.6090111467646
 20
446.032799991359
 30
0.0
 40
3.399999999999999
100
AcDbArc
 50
180.0
 51
270.0
1001
GENIUS_GENOBJ-N-FIL_13
1002
{
1000
OWNER
1000
GEN
1002
}
1001
GENIUS_GENODEF_13
1002
{
1000
HIER
1070
     0
1002
}
1002
{
1000
MANEDIT
1070
     0
1002
}
1002
{
1000
NOSEL
1070
     0
1002
}
1002
{
1000
BEHIND
1070
     0
1002
}
1002
{
1000
OTHER
1070
     0
1002
}
1002
{
1000
REACTOR
1002
}
  0
ARC
  5
3D4F
330
1F
100
AcDbEntity
  8
TK2
100
AcDbCircle
 10
453.6090111467646
 20
446.0327999913591
 30
0.0
 40
3.399999999999999
100
AcDbArc
 50
90.0
 51
180.0
1001
GENIUS_GENOBJ-N-FIL_13
1002
{
1000
OWNER
1000
GEN
1002
}
1001
GENIUS_GENODEF_13
1002
{
1000
HIER
1070
     0
1002
}
1002
{
1000
MANEDIT
1070
     0
1002
}
1002
{
1000
NOSEL
1070
     0
1002
}
1002
{
1000
BEHIND
1070
     0
1002
}
1002
{
1000
OTHER
1070
     0
1002
}
1002
{
1000
REACTOR
1002
}
  0
LINE
  5
3DB6
330
1F
100
AcDbEntity
  8
TK20
100
AcDbLine
 10
472.2090111467646
 20
387.2327999913591
 30
0.0
 11
456.2090111467646
 21
387.3327999913592
 31
0.0
  0
LINE
  5
3DB7
330
1F
100
AcDbEntity
  8
TK20
100
AcDbLine
 10
472.2090111467646
 20
437.2327999913591
 30
0.0
 11
456.2090111467647
 21
437.1327999913591
 31
0.0
  0
LINE
  5
3DF0
330
1F
100
AcDbEntity
  8
TK1
100
AcDbLine
 10
440.7090111467645
 20
431.346763912429
 30
0.0
 11
440.7090111467645
 21
393.118836070289
 31
0.0
  0
LINE
  5
3DFB
330
1F
100
AcDbEntity
  8
TK1
100
AcDbLine
 10
455.0090111467646
 20
371.6327999913592
 30
0.0
 11
455.0090111467646
 21
442.632799991359
 31
0.0
  0
LINE
  5
3E2D
330
1F
100
AcDbEntity
  8
TK1
100
AcDbLine
 10
455.0090111467646
 20
373.1327999913591
 30
0.0
 11
451.5090111467646
 21
373.1327999913591
 31
0.0
  0
LINE
  5
3E3B
330
1F
100
AcDbEntity
  8
TK1
100
AcDbLine
 10
451.5090111467646
 20
371.6327999913592
 30
0.0
 11
451.5090111467646
 21
443.3588515999347
 31
0.0
  0
LINE
  5
3EDA
330
1F
100
AcDbEntity
  8
TK1
100
AcDbLine
 10
236.2637661179099
 20
432.982799991359
 30
0.0
 11
337.5137661179099
 21
432.982799991359
 31
0.0
  0
ARC
  5
3EE0
330
1F
100
AcDbEntity
  8
TK1
100
AcDbCircle
 10
337.5137661179099
 20
429.482799991359
 30
0.0
 40
3.5
100
AcDbArc
 50
0.0
 51
90.0
1001
GENIUS_GENODEF_13
1002
{
1000
HIER
1070
     0
1002
}
1002
{
1000
MANEDIT
1070
     0
1002
}
1002
{
1000
NOSEL
1070
     0
1002
}
1002
{
1000
BEHIND
1070
     0
1002
}
1002
{
1000
OTHER
1070
     0
1002
}
1002
{
1000
REACTOR
1002
}
1001
GENIUS_GENOBJ-N-FIL_13
1002
{
1000
OWNER
1000
GEN
1002
}
  0
LINE
  5
3EE6
330
1F
100
AcDbEntity
  8
TK1
100
AcDbLine
 10
341.01376611791
 20
394.9827999913591
 30
0.0
 11
341.01376611791
 21
429.482799991359
 31
0.0
  0
ARC
  5
3EEC
330
1F
100
AcDbEntity
  8
TK1
100
AcDbCircle
 10
337.5137661179099
 20
394.9827999913591
 30
0.0
 40
3.5
100
AcDbArc
 50
270.0
 51
0.0
1001
GENIUS_GENOBJ-N-FIL_13
1002
{
1000
OWNER
1000
GEN
1002
}
1001
GENIUS_GENODEF_13
1002
{
1000
HIER
1070
     0
1002
}
1002
{
1000
MANEDIT
1070
     0
1002
}
1002
{
1000
NOSEL
1070
     0
1002
}
1002
{
1000
BEHIND
1070
     0
1002
}
1002
{
1000
OTHER
1070
     0
1002
}
1002
{
1000
REACTOR
1002
}
  0
LINE
  5
3EF2
330
1F
100
AcDbEntity
  8
TK1
100
AcDbLine
 10
236.2637661179099
 20
391.4827999913591
 30
0.0
 11
337.5137661179099
 21
391.4827999913591
 31
0.0
  0
LINE
  5
3F5F
330
1F
100
AcDbEntity
  8
TK1
100
AcDbLine
 10
442.2653602523308
 20
433.4871723866814
 30
0.0
 11
451.5090111467646
 21
436.4827999913591
 31
0.0
  0
LINE
  5
3F60
330
1F
100
AcDbEntity
  8
TK1
100
AcDbLine
 10
442.2653602523309
 20
390.9784275960367
 30
0.0
 11
451.5090111467646
 21
387.9827999913591
 31
0.0
  0
LINE
  5
3F9A
330
1F
100
AcDbEntity
  8
TK10
100
AcDbLine
 10
443.1090111467645
 20
432.3940161827921
 30
0.0
 11
443.1090111467645
 21
392.0715837999261
 31
0.0
  0
LINE
  5
3FA4
330
1F
100
AcDbEntity
  8
TK10
100
AcDbLine
 10
443.1090111467645
 20
432.3940161827921
 30
0.0
 11
455.0090111467646
 21
436.2504976642735
 31
0.0
  0
LINE
  5
3FAE
330
1F
100
AcDbEntity
  8
TK10
100
AcDbLine
 10
443.1090111467645
 20
392.0715837999261
 30
0.0
 11
455.0090111467646
 21
388.2151023184446
 31
0.0
  0
LINE
  5
3FE9
330
1F
100
AcDbEntity
  8
TK1
100
AcDbLine
 10
451.5090111467646
 20
371.6327999913592
 30
0.0
 11
455.0090111467646
 21
371.6327999913592
 31
0.0
  0
LINE
  5
3FFA
330
1F
100
AcDbEntity
  8
TK1
100
AcDbLine
 10
451.5090111467646
 20
441.6327999913591
 30
0.0
 11
455.0090111467646
 21
441.6327999913591
 31
0.0
  0
LINE
  5
4296
330
1F
100
AcDbEntity
  8
TK2
100
AcDbLine
 10
352.7637661179101
 20
194.678778959809
 30
0.0
 11
352.7637661179101
 21
204.6787789598091
 31
0.0
  0
LINE
  5
4297
330
1F
100
AcDbEntity
  8
TK2
100
AcDbLine
 10
352.7637661179101
 20
204.6787789598091
 30
0.0
 11
236.2637661179101
 21
204.6787789598091
 31
0.0
  0
LINE
  5
4298
330
1F
100
AcDbEntity
  8
TK2
100
AcDbLine
 10
352.7637661179101
 20
194.678778959809
 30
0.0
 11
236.2637661179101
 21
194.678778959809
 31
0.0
  0
LINE
  5
4299
330
1F
100
AcDbEntity
  8
TK2
100
AcDbLine
 10
346.76376611791
 20
188.6787789598091
 30
0.0
 11
236.2637661179101
 21
188.6787789598091
 31
0.0
  0
LINE
  5
429A
330
1F
100
AcDbEntity
  8
TK2
100
AcDbLine
 10
346.76376611791
 20
194.678778959809
 30
0.0
 11
346.76376611791
 21
188.6787789598091
 31
0.0
  0
LINE
  5
429B
330
1F
100
AcDbEntity
  8
TK1
100
AcDbLine
 10
352.7637661179101
 20
205.8787789598091
 30
0.0
 11
236.26376611791
 21
205.8787789598091
 31
0.0
  0
LINE
  5
429C
330
1F
100
AcDbEntity
  8
TK1
100
AcDbLine
 10
352.7637661179101
 20
209.3787789598091
 30
0.0
 11
236.26376611791
 21
209.3787789598091
 31
0.0
  0
LINE
  5
429D
330
1F
100
AcDbEntity
  8
TK1
100
AcDbLine
 10
352.7637661179101
 20
205.8787789598091
 30
0.0
 11
352.7637661179101
 21
209.3787789598091
 31
0.0
  0
LINE
  5
429E
330
1F
100
AcDbEntity
  8
TK2
100
AcDbLine
 10
352.7637661179101
 20
204.6787789598091
 30
0.0
 11
352.7637661179101
 21
205.8787789598091
 31
0.0
  0
LINE
  5
429F
330
1F
100
AcDbEntity
  8
TK2
100
AcDbLine
 10
352.7637661179101
 20
209.378778959809
 30
0.0
 11
352.7637661179101
 21
209.6787789598091
 31
0.0
  0
LINE
  5
42A0
330
1F
100
AcDbEntity
  8
TK2
100
AcDbLine
 10
347.7637661179101
 20
209.678778959809
 30
0.0
 11
347.7637661179101
 21
209.3787789598091
 31
0.0
  0
LINE
  5
42A1
330
1F
100
AcDbEntity
  8
TK2
100
AcDbLine
 10
347.76376611791
 20
205.8787789598091
 30
0.0
 11
347.76376611791
 21
204.6787789598091
 31
0.0
  0
ARC
  5
42A2
330
1F
100
AcDbEntity
  8
TK2
100
AcDbCircle
 10
348.7637661179101
 20
209.678778959809
 30
0.0
 40
1.0
100
AcDbArc
 50
90.0
 51
180.0
1001
GENIUS_GENODEF_13
1002
{
1000
HIER
1070
     0
1002
}
1002
{
1000
MANEDIT
1070
     0
1002
}
1002
{
1000
NOSEL
1070
     0
1002
}
1002
{
1000
BEHIND
1070
     0
1002
}
1002
{
1000
OTHER
1070
     0
1002
}
1002
{
1000
REACTOR
1002
}
1001
GENIUS_GENOBJ-N-FIL_13
1002
{
1000
OWNER
1000
GEN
1002
}
  0
LINE
  5
42A3
330
1F
100
AcDbEntity
  8
TK2
100
AcDbLine
 10
351.7637661179101
 20
210.6787789598091
 30
0.0
 11
348.7637661179101
 21
210.6787789598091
 31
0.0
  0
ARC
  5
42A4
330
1F
100
AcDbEntity
  8
TK2
100
AcDbCircle
 10
351.7637661179101
 20
209.6787789598091
 30
0.0
 40
1.0
100
AcDbArc
 50
0.000000000000007
 51
90.0
1001
GENIUS_GENOBJ-N-FIL_13
1002
{
1000
OWNER
1000
GEN
1002
}
1001
GENIUS_GENODEF_13
1002
{
1000
HIER
1070
     0
1002
}
1002
{
1000
MANEDIT
1070
     0
1002
}
1002
{
1000
NOSEL
1070
     0
1002
}
1002
{
1000
BEHIND
1070
     0
1002
}
1002
{
1000
OTHER
1070
     0
1002
}
1002
{
1000
REACTOR
1002
}
  0
LINE
  5
42FE
330
1F
100
AcDbEntity
  8
AM_7
  6
AM_ISO08W050x2
100
AcDbLine
 10
236.2637661179099
 20
226.1787789598091
 30
0.0
 11
236.2637661179102
 21
182.6787789598091
 31
0.0
1001
GENIUS_GENOBJ-N-CEN_13
1002
{
1000
OWNER
1000
GEN
1002
}
1001
GENIUS_GENODEF_13
1002
{
1000
HIER
1070
     0
1002
}
1002
{
1000
MANEDIT
1070
     0
1002
}
1002
{
1000
NOSEL
1070
     0
1002
}
1002
{
1000
BEHIND
1070
     0
1002
}
1002
{
1000
OTHER
1070
     0
1002
}
1002
{
1000
REACTOR
1002
}
1001
GENIUS_GENCEN_19
1002
{
1040
6.0
1002
}
  0
LINE
  5
4300
330
1F
100
AcDbEntity
  8
TK1
100
AcDbLine
 10
236.2637661179099
 20
220.1787789598091
 30
0.0
 11
339.3777300389799
 21
220.1787789598091
 31
0.0
  0
LINE
  5
4301
330
1F
100
AcDbEntity
  8
TK1
100
AcDbLine
 10
341.5181385132323
 20
218.6224298542427
 30
0.0
 11
344.5137661179099
 21
209.3787789598091
 31
0.0
  0
ARC
  5
4387
330
1F
100
AcDbEntity
  8
TK1
100
AcDbCircle
 10
339.3777300389799
 20
217.9287789598091
 30
0.0
 40
2.25
100
AcDbArc
 50
17.9561651526267
 51
90.0
1001
GENIUS_GENODEF_13
1002
{
1000
HIER
1070
     0
1002
}
1002
{
1000
MANEDIT
1070
     0
1002
}
1002
{
1000
NOSEL
1070
     0
1002
}
1002
{
1000
BEHIND
1070
     0
1002
}
1002
{
1000
OTHER
1070
     0
1002
}
1002
{
1000
REACTOR
1002
}
1001
GENIUS_GENOBJ-N-FIL_13
1002
{
1000
OWNER
1000
GEN
1002
}
  0
ARC
  5
4389
330
1F
100
AcDbEntity
  8
TK1
100
AcDbCircle
 10
442.9590111467645
 20
393.118836070289
 30
0.0
 40
2.25
100
AcDbArc
 50
180.0
 51
252.0438348473733
1001
GENIUS_GENODEF_13
1002
{
1000
HIER
1070
     0
1002
}
1002
{
1000
MANEDIT
1070
     0
1002
}
1002
{
1000
NOSEL
1070
     0
1002
}
1002
{
1000
BEHIND
1070
     0
1002
}
1002
{
1000
OTHER
1070
     0
1002
}
1002
{
1000
REACTOR
1002
}
1001
GENIUS_GENOBJ-N-FIL_13
1002
{
1000
OWNER
1000
GEN
1002
}
  0
ARC
  5
4394
102
{ACAD_REACTORS
330
479E
102
}
330
1F
100
AcDbEntity
  8
TK1
100
AcDbCircle
 10
442.9590111467645
 20
431.346763912429
 30
0.0
 40
2.25
100
AcDbArc
 50
107.9561651526267
 51
179.9999999999999
1001
GENIUS_GENODEF_13
1002
{
1000
HIER
1070
     0
1002
}
1002
{
1000
MANEDIT
1070
     0
1002
}
1002
{
1000
NOSEL
1070
     0
1002
}
1002
{
1000
BEHIND
1070
     0
1002
}
1002
{
1000
OTHER
1070
     0
1002
}
1002
{
1000
REACTOR
1002
}
1001
GENIUS_GENOBJ-N-FIL_13
1002
{
1000
OWNER
1000
GEN
1002
}
  0
LINE
  5
43D1
330
1F
100
AcDbEntity
  8
TK10
100
AcDbLine
 10
236.2637661179099
 20
217.7787789598091
 30
0.0
 11
274.26376611791
 21
217.778778959809
 31
0.0
  0
LINE
  5
43DB
330
1F
100
AcDbEntity
  8
TK10
100
AcDbLine
 10
340.424982309343
 20
217.7787789598091
 30
0.0
 11
344.2814637908244
 21
205.8787789598091
 31
0.0
  0
LINE
  5
43EB
330
1F
100
AcDbEntity
  8
TK1
100
AcDbLine
 10
273.7637661179099
 20
209.378778959809
 30
0.0
 11
273.7637661179099
 21
205.8787789598091
 31
0.0
  0
LINE
  5
43F1
330
1F
100
AcDbEntity
  8
TK1
100
AcDbLine
 10
275.2637661179099
 20
209.3787789598091
 30
0.0
 11
275.2637661179099
 21
205.8787789598091
 31
0.0
  0
LINE
  5
43F7
330
1F
100
AcDbEntity
  8
TK1
100
AcDbLine
 10
295.2637661179098
 20
209.3787789598091
 30
0.0
 11
295.2637661179098
 21
205.8787789598091
 31
0.0
  0
LINE
  5
43FD
330
1F
100
AcDbEntity
  8
TK1
100
AcDbLine
 10
296.7637661179098
 20
209.3787789598091
 30
0.0
 11
296.7637661179098
 21
205.8787789598091
 31
0.0
  0
LINE
  5
4451
330
1F
100
AcDbEntity
  8
TK20
100
AcDbLine
 10
345.16376611791
 20
204.6787789598091
 30
0.0
 11
345.26376611791
 21
188.6787789598091
 31
0.0
  0
LINE
  5
4453
330
1F
100
AcDbEntity
  8
TK2
100
AcDbLine
 10
119.7637661179097
 20
194.6787789598092
 30
0.0
 11
119.7637661179097
 21
204.6787789598093
 31
0.0
  0
LINE
  5
4454
330
1F
100
AcDbEntity
  8
TK2
100
AcDbLine
 10
119.7637661179097
 20
204.6787789598093
 30
0.0
 11
236.2637661179098
 21
204.6787789598091
 31
0.0
  0
LINE
  5
4455
330
1F
100
AcDbEntity
  8
TK2
100
AcDbLine
 10
119.7637661179097
 20
194.6787789598092
 30
0.0
 11
236.2637661179098
 21
194.678778959809
 31
0.0
  0
LINE
  5
4456
330
1F
100
AcDbEntity
  8
TK2
100
AcDbLine
 10
125.7637661179098
 20
188.6787789598093
 30
0.0
 11
236.2637661179097
 21
188.6787789598091
 31
0.0
  0
LINE
  5
4457
330
1F
100
AcDbEntity
  8
TK2
100
AcDbLine
 10
125.7637661179098
 20
194.6787789598092
 30
0.0
 11
125.7637661179098
 21
188.6787789598093
 31
0.0
  0
LINE
  5
4458
330
1F
100
AcDbEntity
  8
TK1
100
AcDbLine
 10
119.7637661179098
 20
205.8787789598093
 30
0.0
 11
236.2637661179098
 21
205.8787789598091
 31
0.0
  0
LINE
  5
4459
330
1F
100
AcDbEntity
  8
TK1
100
AcDbLine
 10
119.7637661179098
 20
209.3787789598092
 30
0.0
 11
236.2637661179098
 21
209.3787789598091
 31
0.0
  0
LINE
  5
445A
330
1F
100
AcDbEntity
  8
TK1
100
AcDbLine
 10
119.7637661179098
 20
205.8787789598093
 30
0.0
 11
119.7637661179098
 21
209.3787789598092
 31
0.0
  0
LINE
  5
445B
330
1F
100
AcDbEntity
  8
TK2
100
AcDbLine
 10
119.7637661179097
 20
204.6787789598093
 30
0.0
 11
119.7637661179098
 21
205.8787789598092
 31
0.0
  0
LINE
  5
445C
330
1F
100
AcDbEntity
  8
TK2
100
AcDbLine
 10
119.7637661179097
 20
209.3787789598092
 30
0.0
 11
119.7637661179097
 21
209.6787789598093
 31
0.0
  0
LINE
  5
445D
330
1F
100
AcDbEntity
  8
TK2
100
AcDbLine
 10
124.7637661179098
 20
209.6787789598093
 30
0.0
 11
124.7637661179098
 21
209.3787789598092
 31
0.0
  0
LINE
  5
445E
330
1F
100
AcDbEntity
  8
TK2
100
AcDbLine
 10
124.7637661179098
 20
205.8787789598093
 30
0.0
 11
124.7637661179098
 21
204.6787789598093
 31
0.0
  0
ARC
  5
445F
330
1F
100
AcDbEntity
  8
TK2
100
AcDbCircle
 10
123.7637661179098
 20
209.6787789598093
 30
0.0
 40
1.0
100
AcDbArc
 50
359.9999999999999
 51
89.99999999999991
1001
GENIUS_GENODEF_13
1002
{
1000
HIER
1070
     0
1002
}
1002
{
1000
MANEDIT
1070
     0
1002
}
1002
{
1000
NOSEL
1070
     0
1002
}
1002
{
1000
BEHIND
1070
     0
1002
}
1002
{
1000
OTHER
1070
     0
1002
}
1002
{
1000
REACTOR
1002
}
1001
GENIUS_GENOBJ-N-FIL_13
1002
{
1000
OWNER
1000
GEN
1002
}
  0
LINE
  5
4460
330
1F
100
AcDbEntity
  8
TK2
100
AcDbLine
 10
120.7637661179097
 20
210.6787789598093
 30
0.0
 11
123.7637661179098
 21
210.6787789598092
 31
0.0
  0
ARC
  5
4461
330
1F
100
AcDbEntity
  8
TK2
100
AcDbCircle
 10
120.7637661179097
 20
209.6787789598093
 30
0.0
 40
1.0
100
AcDbArc
 50
89.99999999999991
 51
179.9999999999999
1001
GENIUS_GENOBJ-N-FIL_13
1002
{
1000
OWNER
1000
GEN
1002
}
1001
GENIUS_GENODEF_13
1002
{
1000
HIER
1070
     0
1002
}
1002
{
1000
MANEDIT
1070
     0
1002
}
1002
{
1000
NOSEL
1070
     0
1002
}
1002
{
1000
BEHIND
1070
     0
1002
}
1002
{
1000
OTHER
1070
     0
1002
}
1002
{
1000
REACTOR
1002
}
  0
LINE
  5
4462
330
1F
100
AcDbEntity
  8
TK1
100
AcDbLine
 10
236.2637661179099
 20
220.1787789598091
 30
0.0
 11
133.14980219684
 21
220.1787789598093
 31
0.0
  0
LINE
  5
4463
330
1F
100
AcDbEntity
  8
TK1
100
AcDbLine
 10
131.0093937225875
 20
218.622429854243
 30
0.0
 11
128.0137661179099
 21
209.3787789598092
 31
0.0
  0
ARC
  5
4464
330
1F
100
AcDbEntity
  8
TK1
100
AcDbCircle
 10
133.14980219684
 20
217.9287789598093
 30
0.0
 40
2.25
100
AcDbArc
 50
89.99999999999991
 51
162.0438348473732
1001
GENIUS_GENODEF_13
1002
{
1000
HIER
1070
     0
1002
}
1002
{
1000
MANEDIT
1070
     0
1002
}
1002
{
1000
NOSEL
1070
     0
1002
}
1002
{
1000
BEHIND
1070
     0
1002
}
1002
{
1000
OTHER
1070
     0
1002
}
1002
{
1000
REACTOR
1002
}
1001
GENIUS_GENOBJ-N-FIL_13
1002
{
1000
OWNER
1000
GEN
1002
}
  0
LINE
  5
4465
330
1F
100
AcDbEntity
  8
TK10
100
AcDbLine
 10
236.2637661179099
 20
217.7787789598091
 30
0.0
 11
198.2637661179099
 21
217.7787789598091
 31
0.0
  0
LINE
  5
4466
330
1F
100
AcDbEntity
  8
TK10
100
AcDbLine
 10
132.1025499264768
 20
217.7787789598093
 30
0.0
 11
128.2460684449954
 21
205.8787789598093
 31
0.0
  0
LINE
  5
4467
330
1F
100
AcDbEntity
  8
TK1
100
AcDbLine
 10
198.7637661179099
 20
209.3787789598091
 30
0.0
 11
198.7637661179099
 21
205.8787789598091
 31
0.0
  0
LINE
  5
4468
330
1F
100
AcDbEntity
  8
TK1
100
AcDbLine
 10
197.2637661179099
 20
209.3787789598091
 30
0.0
 11
197.2637661179099
 21
205.8787789598091
 31
0.0
  0
LINE
  5
4469
330
1F
100
AcDbEntity
  8
TK1
100
AcDbLine
 10
177.26376611791
 20
209.3787789598092
 30
0.0
 11
177.26376611791
 21
205.8787789598092
 31
0.0
  0
LINE
  5
446A
330
1F
100
AcDbEntity
  8
TK1
100
AcDbLine
 10
175.76376611791
 20
209.3787789598092
 30
0.0
 11
175.76376611791
 21
205.8787789598092
 31
0.0
  0
LINE
  5
446B
330
1F
100
AcDbEntity
  8
TK20
100
AcDbLine
 10
127.3637661179098
 20
204.6787789598093
 30
0.0
 11
127.2637661179098
 21
188.6787789598093
 31
0.0
  0
LINE
  5
44A7
330
1F
100
AcDbEntity
  8
TK1
100
AcDbLine
 10
241.0637661179099
 20
375.1327999913591
 30
0.0
 11
241.0637661179099
 21
380.8327999913591
 31
0.0
  0
LINE
  5
44B2
330
1F
100
AcDbEntity
  8
TK1
100
AcDbLine
 10
241.0637661179099
 20
375.1327999913591
 30
0.0
 11
247.5637661179099
 21
375.1327999913591
 31
0.0
  0
LINE
  5
44C7
330
1F
100
AcDbEntity
  8
TK1
100
AcDbLine
 10
247.5637661179099
 20
380.8327999913591
 30
0.0
 11
247.5637661179099
 21
375.1327999913591
 31
0.0
  0
LINE
  5
44CA
330
1F
100
AcDbEntity
  8
TK1
100
AcDbLine
 10
241.0637661179099
 20
380.8327999913591
 30
0.0
 11
247.5637661179099
 21
380.8327999913591
 31
0.0
  0
LINE
  5
44E0
330
1F
100
AcDbEntity
  8
TK2
100
AcDbLine
 10
242.5174993061995
 20
204.6787789598091
 30
0.0
 11
242.6051916138918
 21
205.8787789598091
 31
0.0
  0
LINE
  5
44E1
330
1F
100
AcDbEntity
  8
TK2
100
AcDbLine
 10
244.1553428078807
 20
216.278778959809
 30
0.0
 11
244.4721894279392
 21
216.278778959809
 31
0.0
  0
ARC
  5
44E2
330
1F
100
AcDbEntity
  8
TK2
100
AcDbCircle
 10
244.1553428078807
 20
215.428778959809
 30
0.0
 40
0.85
100
AcDbArc
 50
90.0
 51
175.8204301265706
1001
GENIUS_GENOBJ-N-FIL_13
1002
{
1000
OWNER
1000
GEN
1002
}
1001
GENIUS_GENODEF_13
1002
{
1000
HIER
1070
     0
1002
}
1002
{
1000
MANEDIT
1070
     0
1002
}
1002
{
1000
NOSEL
1070
     0
1002
}
1002
{
1000
BEHIND
1070
     0
1002
}
1002
{
1000
OTHER
1070
     0
1002
}
1002
{
1000
REACTOR
1002
}
  0
ARC
  5
44E3
330
1F
100
AcDbEntity
  8
TK2
100
AcDbCircle
 10
244.4721894279392
 20
215.428778959809
 30
0.0
 40
0.85
100
AcDbArc
 50
4.179569873429364
 51
90.0
1001
GENIUS_GENOBJ-N-FIL_13
1002
{
1000
OWNER
1000
GEN
1002
}
1001
GENIUS_GENODEF_13
1002
{
1000
HIER
1070
     0
1002
}
1002
{
1000
MANEDIT
1070
     0
1002
}
1002
{
1000
NOSEL
1070
     0
1002
}
1002
{
1000
BEHIND
1070
     0
1002
}
1002
{
1000
OTHER
1070
     0
1002
}
1002
{
1000
REACTOR
1002
}
  0
LINE
  5
44E4
330
1F
100
AcDbEntity
  8
TK2
100
AcDbLine
 10
245.3199288772359
 20
215.4907291503345
 30
0.0
 11
245.7665713911591
 21
209.378778959809
 31
0.0
  0
ARC
  5
44E5
330
1F
100
AcDbEntity
  8
TK2
100
AcDbCircle
 10
244.4721894279392
 20
215.428778959809
 30
0.0
 40
2.25
100
AcDbArc
 50
4.179569873429364
 51
90.0
1001
GENIUS_GENOBJ-N-FIL_13
1002
{
1000
OWNER
1000
GEN
1002
}
1001
GENIUS_GENODEF_13
1002
{
1000
HIER
1070
     0
1002
}
1002
{
1000
MANEDIT
1070
     0
1002
}
1002
{
1000
NOSEL
1070
     0
1002
}
1002
{
1000
BEHIND
1070
     0
1002
}
1002
{
1000
OTHER
1070
     0
1002
}
1002
{
1000
REACTOR
1002
}
  0
ARC
  5
44E6
330
1F
100
AcDbEntity
  8
TK2
100
AcDbCircle
 10
244.1553428078807
 20
215.428778959809
 30
0.0
 40
2.25
100
AcDbArc
 50
90.0
 51
175.8204301265706
1001
GENIUS_GENOBJ-N-FIL_13
1002
{
1000
OWNER
1000
GEN
1002
}
1001
GENIUS_GENODEF_13
1002
{
1000
HIER
1070
     0
1002
}
1002
{
1000
MANEDIT
1070
     0
1002
}
1002
{
1000
NOSEL
1070
     0
1002
}
1002
{
1000
BEHIND
1070
     0
1002
}
1002
{
1000
OTHER
1070
     0
1002
}
1002
{
1000
REACTOR
1002
}
  0
LINE
  5
44E7
330
1F
100
AcDbEntity
  8
TK2
100
AcDbLine
 10
246.716205617254
 20
215.5927647582589
 30
0.0
 11
247.1703045794484
 21
209.3787789598091
 31
0.0
  0
LINE
  5
44E8
330
1F
100
AcDbEntity
  8
TK2
100
AcDbLine
 10
244.1553428078807
 20
217.678778959809
 30
0.0
 11
244.4721894279392
 21
217.678778959809
 31
0.0
  0
LINE
  5
44E9
330
1F
100
AcDbEntity
  8
TK2
100
AcDbLine
 10
241.11376611791
 20
204.6787789598091
 30
0.0
 11
241.2014584256024
 21
205.8787789598091
 31
0.0
  0
LINE
  5
44EA
330
1F
100
AcDbEntity
  8
TK2
100
AcDbLine
 10
241.4572276563716
 20
209.3787789598091
 30
0.0
 11
241.9113266185659
 21
215.5927647582589
 31
0.0
  0
LINE
  5
44EB
330
1F
100
AcDbEntity
  8
TK2
100
AcDbLine
 10
242.8609608446611
 20
209.378778959809
 30
0.0
 11
243.307603358584
 21
215.4907291503345
 31
0.0
  0
LINE
  5
44EC
330
1F
100
AcDbEntity
  8
TK2
100
AcDbLine
 10
246.0223406219283
 20
205.8787789598091
 30
0.0
 11
246.1100329296205
 21
204.6787789598091
 31
0.0
  0
LINE
  5
44ED
330
1F
100
AcDbEntity
  8
TK2
100
AcDbLine
 10
247.4260738102175
 20
205.8787789598091
 30
0.0
 11
247.51376611791
 21
204.6787789598091
 31
0.0
  0
LINE
  5
4571
330
1F
100
AcDbEntity
  8
TK1
100
AcDbLine
 10
192.4398817013558
 20
219.3787789598091
 30
0.0
 11
197.2637661179099
 21
219.3787789598091
 31
0.0
  0
ARC
  5
4572
330
1F
100
AcDbEntity
  8
TK1
100
AcDbCircle
 10
197.2637661179099
 20
218.3787789598091
 30
0.0
 40
1.0
100
AcDbArc
 50
0.000000000000007
 51
90.0
1001
GENIUS_GENODEF_13
1002
{
1000
HIER
1070
     0
1002
}
1002
{
1000
MANEDIT
1070
     0
1002
}
1002
{
1000
NOSEL
1070
     0
1002
}
1002
{
1000
BEHIND
1070
     0
1002
}
1002
{
1000
OTHER
1070
     0
1002
}
1002
{
1000
REACTOR
1002
}
1001
GENIUS_GENOBJ-N-FIL_13
1002
{
1000
OWNER
1000
GEN
1002
}
  0
LINE
  5
4573
330
1F
100
AcDbEntity
  8
TK1
100
AcDbLine
 10
191.9436484523373
 20
217.3787789598091
 30
0.0
 11
192.0637661179101
 21
217.3787789598091
 31
0.0
  0
LINE
  5
4574
330
1F
100
AcDbEntity
  8
TK1
100
AcDbLine
 10
198.2637661179099
 20
218.3787789598091
 30
0.0
 11
198.2637661179099
 21
209.3787789598091
 31
0.0
  0
LINE
  5
4575
330
1F
100
AcDbEntity
  8
TK1
100
AcDbLine
 10
187.82876611791
 20
209.3787789598091
 30
0.0
 11
190.0778750777188
 21
218.6153660637469
 31
0.0
  0
ARC
  5
4576
330
1F
100
AcDbEntity
  8
TK1
100
AcDbCircle
 10
191.0494853608314
 20
218.3787789598091
 30
0.0
 40
1.0
100
AcDbArc
 50
90.0
 51
166.3148043997765
1001
GENIUS_GENODEF_13
1002
{
1000
HIER
1070
     0
1002
}
1002
{
1000
MANEDIT
1070
     0
1002
}
1002
{
1000
NOSEL
1070
     0
1002
}
1002
{
1000
BEHIND
1070
     0
1002
}
1002
{
1000
OTHER
1070
     0
1002
}
1002
{
1000
REACTOR
1002
}
1001
GENIUS_GENOBJ-N-FIL_13
1002
{
1000
OWNER
1000
GEN
1002
}
  0
LINE
  5
4577
330
1F
100
AcDbEntity
  8
TK1
100
AcDbLine
 10
192.0637661179101
 20
217.3787789598091
 30
0.0
 11
192.0637661179101
 21
209.3787789598091
 31
0.0
  0
LINE
  5
4578
330
1F
100
AcDbEntity
  8
TK1
100
AcDbLine
 10
191.0494853608314
 20
219.3787789598091
 30
0.0
 11
197.2637661179099
 21
219.3787789598091
 31
0.0
  0
LINE
  5
4579
330
1F
100
AcDbEntity
  8
TK1
100
AcDbLine
 10
191.5550043390922
 20
217.0734138013843
 30
0.0
 11
189.6813607551688
 21
209.3787789598091
 31
0.0
  0
ARC
  5
457A
330
1F
100
AcDbEntity
  8
TK1
100
AcDbCircle
 10
191.9436484523373
 20
216.9787789598091
 30
0.0
 40
0.4
100
AcDbArc
 50
90.0
 51
166.3148043997769
1001
GENIUS_GENODEF_13
1002
{
1000
HIER
1070
     0
1002
}
1002
{
1000
MANEDIT
1070
     0
1002
}
1002
{
1000
NOSEL
1070
     0
1002
}
1002
{
1000
BEHIND
1070
     0
1002
}
1002
{
1000
OTHER
1070
     0
1002
}
1002
{
1000
REACTOR
1002
}
1001
GENIUS_GENOBJ-N-FIL_13
1002
{
1000
OWNER
1000
GEN
1002
}
  0
LINE
  5
457B
330
1F
100
AcDbEntity
  8
TK1
100
AcDbLine
 10
280.0876505344642
 20
219.3787789598091
 30
0.0
 11
275.26376611791
 21
219.3787789598091
 31
0.0
  0
ARC
  5
457C
330
1F
100
AcDbEntity
  8
TK1
100
AcDbCircle
 10
275.26376611791
 20
218.3787789598091
 30
0.0
 40
1.0
100
AcDbArc
 50
90.0
 51
180.0
1001
GENIUS_GENODEF_13
1002
{
1000
HIER
1070
     0
1002
}
1002
{
1000
MANEDIT
1070
     0
1002
}
1002
{
1000
NOSEL
1070
     0
1002
}
1002
{
1000
BEHIND
1070
     0
1002
}
1002
{
1000
OTHER
1070
     0
1002
}
1002
{
1000
REACTOR
1002
}
1001
GENIUS_GENOBJ-N-FIL_13
1002
{
1000
OWNER
1000
GEN
1002
}
  0
LINE
  5
457D
330
1F
100
AcDbEntity
  8
TK1
100
AcDbLine
 10
280.5838837834826
 20
217.3787789598091
 30
0.0
 11
280.4637661179098
 21
217.3787789598091
 31
0.0
  0
LINE
  5
457E
330
1F
100
AcDbEntity
  8
TK1
100
AcDbLine
 10
274.26376611791
 20
218.3787789598091
 30
0.0
 11
274.26376611791
 21
209.3787789598091
 31
0.0
  0
LINE
  5
457F
330
1F
100
AcDbEntity
  8
TK1
100
AcDbLine
 10
284.6987661179099
 20
209.3787789598091
 30
0.0
 11
282.4496571581011
 21
218.6153660637469
 31
0.0
  0
ARC
  5
4580
330
1F
100
AcDbEntity
  8
TK1
100
AcDbCircle
 10
281.4780468749884
 20
218.3787789598091
 30
0.0
 40
1.0
100
AcDbArc
 50
13.68519560022345
 51
90.0
1001
GENIUS_GENODEF_13
1002
{
1000
HIER
1070
     0
1002
}
1002
{
1000
MANEDIT
1070
     0
1002
}
1002
{
1000
NOSEL
1070
     0
1002
}
1002
{
1000
BEHIND
1070
     0
1002
}
1002
{
1000
OTHER
1070
     0
1002
}
1002
{
1000
REACTOR
1002
}
1001
GENIUS_GENOBJ-N-FIL_13
1002
{
1000
OWNER
1000
GEN
1002
}
  0
LINE
  5
4581
330
1F
100
AcDbEntity
  8
TK1
100
AcDbLine
 10
280.4637661179098
 20
217.3787789598091
 30
0.0
 11
280.4637661179098
 21
209.3787789598091
 31
0.0
  0
LINE
  5
4582
330
1F
100
AcDbEntity
  8
TK1
100
AcDbLine
 10
281.4780468749884
 20
219.3787789598091
 30
0.0
 11
275.26376611791
 21
219.3787789598091
 31
0.0
  0
LINE
  5
4583
330
1F
100
AcDbEntity
  8
TK1
100
AcDbLine
 10
280.9725278967277
 20
217.0734138013843
 30
0.0
 11
282.8461714806512
 21
209.3787789598091
 31
0.0
  0
ARC
  5
4584
330
1F
100
AcDbEntity
  8
TK1
100
AcDbCircle
 10
280.5838837834826
 20
216.9787789598091
 30
0.0
 40
0.4
100
AcDbArc
 50
13.68519560022305
 51
90.0
1001
GENIUS_GENODEF_13
1002
{
1000
HIER
1070
     0
1002
}
1002
{
1000
MANEDIT
1070
     0
1002
}
1002
{
1000
NOSEL
1070
     0
1002
}
1002
{
1000
BEHIND
1070
     0
1002
}
1002
{
1000
OTHER
1070
     0
1002
}
1002
{
1000
REACTOR
1002
}
1001
GENIUS_GENOBJ-N-FIL_13
1002
{
1000
OWNER
1000
GEN
1002
}
  0
LINE
  5
4586
330
1F
100
AcDbEntity
  8
TK10
100
AcDbLine
 10
189.87416611791
 20
217.7787789598092
 30
0.0
 11
132.1025499264768
 21
217.7787789598093
 31
0.0
  0
LINE
  5
4587
330
1F
100
AcDbEntity
  8
TK10
100
AcDbLine
 10
282.6533661179099
 20
217.7787789598091
 30
0.0
 11
340.424982309343
 21
217.7787789598091
 31
0.0
  0
LINE
  5
4588
330
1F
100
AcDbEntity
  8
TK1
100
AcDbLine
 10
290.0137661179098
 20
375.4327999913592
 30
0.0
 11
290.0137661179098
 21
380.4327999913592
 31
0.0
  0
LINE
  5
4589
330
1F
100
AcDbEntity
  8
TK1
100
AcDbLine
 10
284.6987661179099
 20
375.4327999913592
 30
0.0
 11
290.0137661179098
 21
375.4327999913592
 31
0.0
  0
LINE
  5
458A
330
1F
100
AcDbEntity
  8
TK1
100
AcDbLine
 10
284.6987661179099
 20
380.4327999913592
 30
0.0
 11
290.0137661179098
 21
380.4327999913592
 31
0.0
  0
ARC
  5
458B
330
1F
100
AcDbEntity
  8
TK1
100
AcDbCircle
 10
277.76376611791
 20
377.9327999913592
 30
0.0
 40
3.5
100
AcDbArc
 50
89.99999999999674
 51
179.9999999999984
1001
GENIUS_GENOBJ-N-FIL_13
1002
{
1000
OWNER
1000
GEN
1002
}
1001
GENIUS_GENODEF_13
1002
{
1000
HIER
1070
     0
1002
}
1002
{
1000
MANEDIT
1070
     0
1002
}
1002
{
1000
NOSEL
1070
     0
1002
}
1002
{
1000
BEHIND
1070
     0
1002
}
1002
{
1000
OTHER
1070
     0
1002
}
1002
{
1000
REACTOR
1002
}
  0
ARC
  5
458C
330
1F
100
AcDbEntity
  8
TK1
100
AcDbCircle
 10
277.76376611791
 20
377.9327999913592
 30
0.0
 40
3.5
100
AcDbArc
 50
179.9999999999984
 51
269.9999999999968
1001
GENIUS_GENOBJ-N-FIL_13
1002
{
1000
OWNER
1000
GEN
1002
}
1001
GENIUS_GENODEF_13
1002
{
1000
HIER
1070
     0
1002
}
1002
{
1000
MANEDIT
1070
     0
1002
}
1002
{
1000
NOSEL
1070
     0
1002
}
1002
{
1000
BEHIND
1070
     0
1002
}
1002
{
1000
OTHER
1070
     0
1002
}
1002
{
1000
REACTOR
1002
}
  0
LINE
  5
458D
330
1F
100
AcDbEntity
  8
TK1
100
AcDbLine
 10
284.6987661179097
 20
374.4327999913589
 30
0.0
 11
277.7637661179098
 21
374.4327999913592
 31
0.0
  0
LINE
  5
458E
330
1F
100
AcDbEntity
  8
TK1
100
AcDbLine
 10
284.6987661179099
 20
381.4327999913589
 30
0.0
 11
284.6987661179097
 21
374.4327999913589
 31
0.0
  0
LINE
  5
458F
330
1F
100
AcDbEntity
  8
TK1
100
AcDbLine
 10
284.6987661179099
 20
381.4327999913589
 30
0.0
 11
277.76376611791
 21
381.4327999913592
 31
0.0
  0
LINE
  5
45EC
330
1F
100
AcDbEntity
  8
TK1
100
AcDbLine
 10
451.5090111467646
 20
381.432799991359
 30
0.0
 11
442.5090111467646
 21
381.432799991359
 31
0.0
  0
LINE
  5
45F2
330
1F
100
AcDbEntity
  8
TK1
100
AcDbLine
 10
451.5090111467647
 20
374.432799991359
 30
0.0
 11
442.5090111467645
 21
374.432799991359
 31
0.0
  0
LINE
  5
45F8
330
1F
100
AcDbEntity
  8
TK1
100
AcDbLine
 10
441.5090111467646
 20
380.432799991359
 30
0.0
 11
441.5090111467645
 21
375.4327999913591
 31
0.0
  0
ARC
  5
461C
330
1F
100
AcDbEntity
  8
TK1
100
AcDbCircle
 10
442.5090111467645
 20
375.4327999913591
 30
0.0
 40
1.0
100
AcDbArc
 50
180.0
 51
270.0
1001
GENIUS_GENOBJ-N-FIL_13
1002
{
1000
OWNER
1000
GEN
1002
}
1001
GENIUS_GENODEF_13
1002
{
1000
HIER
1070
     0
1002
}
1002
{
1000
MANEDIT
1070
     0
1002
}
1002
{
1000
NOSEL
1070
     0
1002
}
1002
{
1000
BEHIND
1070
     0
1002
}
1002
{
1000
OTHER
1070
     0
1002
}
1002
{
1000
REACTOR
1002
}
  0
ARC
  5
461E
330
1F
100
AcDbEntity
  8
TK1
100
AcDbCircle
 10
442.5090111467646
 20
380.432799991359
 30
0.0
 40
1.0
100
AcDbArc
 50
90.0
 51
179.9999999999994
1001
GENIUS_GENODEF_13
1002
{
1000
HIER
1070
     0
1002
}
1002
{
1000
MANEDIT
1070
     0
1002
}
1002
{
1000
NOSEL
1070
     0
1002
}
1002
{
1000
BEHIND
1070
     0
1002
}
1002
{
1000
OTHER
1070
     0
1002
}
1002
{
1000
REACTOR
1002
}
1001
GENIUS_GENOBJ-N-FIL_13
1002
{
1000
OWNER
1000
GEN
1002
}
  0
LINE
  5
462F
330
1F
100
AcDbEntity
  8
TK3
100
AcDbLine
 10
514.0613155279789
 20
450.2327999913593
 30
0.0
 11
514.0613155279789
 21
441.232799991359
 31
0.0
  0
LINE
  5
4630
330
1F
100
AcDbEntity
  8
TK3
100
AcDbLine
 10
515.0613155279788
 20
451.2327999913592
 30
0.0
 11
518.0613155279789
 21
451.2327999913591
 31
0.0
  0
LINE
  5
4631
330
1F
100
AcDbEntity
  8
TK3
100
AcDbLine
 10
515.0613155279788
 20
440.232799991359
 30
0.0
 11
518.0613155279789
 21
440.232799991359
 31
0.0
  0
LINE
  5
4632
330
1F
100
AcDbEntity
  8
TK3
100
AcDbLine
 10
518.0613155279789
 20
451.2327999913591
 30
0.0
 11
518.0613155279789
 21
440.232799991359
 31
0.0
  0
ARC
  5
4633
330
1F
100
AcDbEntity
  8
TK3
100
AcDbCircle
 10
515.0613155279788
 20
450.2327999913593
 30
0.0
 40
1.0
100
AcDbArc
 50
90.0
 51
180.0
1001
GENIUS_GENODEF_13
1002
{
1000
HIER
1070
     0
1002
}
1002
{
1000
MANEDIT
1070
     0
1002
}
1002
{
1000
NOSEL
1070
     0
1002
}
1002
{
1000
BEHIND
1070
     0
1002
}
1002
{
1000
OTHER
1070
     0
1002
}
1002
{
1000
REACTOR
1002
}
1001
GENIUS_GENOBJ-N-FIL_13
1002
{
1000
OWNER
1000
GEN
1002
}
  0
ARC
  5
4634
330
1F
100
AcDbEntity
  8
TK3
100
AcDbCircle
 10
515.0613155279788
 20
441.232799991359
 30
0.0
 40
1.0
100
AcDbArc
 50
180.0
 51
270.0
1001
GENIUS_GENOBJ-N-FIL_13
1002
{
1000
OWNER
1000
GEN
1002
}
1001
GENIUS_GENODEF_13
1002
{
1000
HIER
1070
     0
1002
}
1002
{
1000
MANEDIT
1070
     0
1002
}
1002
{
1000
NOSEL
1070
     0
1002
}
1002
{
1000
BEHIND
1070
     0
1002
}
1002
{
1000
OTHER
1070
     0
1002
}
1002
{
1000
REACTOR
1002
}
  0
LINE
  5
4635
330
1F
100
AcDbEntity
  8
AM_7
  6
AM_ISO08W050x2
100
AcDbLine
 10
511.0613155279788
 20
445.732799991359
 30
0.0
 11
521.0613155279788
 21
445.732799991359
 31
0.0
1001
GENIUS_GENOBJ-N-CEN_13
1002
{
1000
OWNER
1000
GEN
1002
}
1001
GENIUS_GENODEF_13
1002
{
1000
HIER
1070
     0
1002
}
1002
{
1000
MANEDIT
1070
     0
1002
}
1002
{
1000
NOSEL
1070
     0
1002
}
1002
{
1000
BEHIND
1070
     0
1002
}
1002
{
1000
OTHER
1070
     0
1002
}
1002
{
1000
REACTOR
1002
}
  0
LINE
  5
4637
330
1F
100
AcDbEntity
  8
TK6
100
AcDbLine
 10
532.0635650636598
 20
447.232799991359
 30
0.0
 11
543.0635650636597
 21
447.232799991359
 31
0.0
  0
LINE
  5
4638
330
1F
100
AcDbEntity
  8
TK6
100
AcDbLine
 10
532.0635650636598
 20
444.232799991359
 30
0.0
 11
543.0635650636597
 21
444.232799991359
 31
0.0
  0
LINE
  5
4639
330
1F
100
AcDbEntity
  8
TK60
100
AcDbLine
 10
532.0635650636598
 20
446.982799991359
 30
0.0
 11
543.0635650636597
 21
446.982799991359
 31
0.0
  0
LINE
  5
463A
330
1F
100
AcDbEntity
  8
TK60
100
AcDbLine
 10
532.0635650636598
 20
444.4827999913591
 30
0.0
 11
543.0635650636597
 21
444.4827999913591
 31
0.0
  0
LINE
  5
463B
330
1F
100
AcDbEntity
  8
TK6
100
AcDbLine
 10
543.0635650636597
 20
448.9827999913591
 30
0.0
 11
543.8635650636598
 21
448.9827999913591
 31
0.0
  0
LINE
  5
463C
330
1F
100
AcDbEntity
  8
TK6
100
AcDbLine
 10
543.8635650636598
 20
448.232799991359
 30
0.0
 11
545.5635650636597
 21
448.232799991359
 31
0.0
  0
LINE
  5
463D
330
1F
100
AcDbEntity
  8
TK6
100
AcDbLine
 10
543.8635650636598
 20
448.9827999913591
 30
0.0
 11
543.8635650636598
 21
445.732799991359
 31
0.0
  0
LINE
  5
463E
330
1F
100
AcDbEntity
  8
TK6
100
AcDbLine
 10
543.0635650636597
 20
448.9827999913591
 30
0.0
 11
543.0635650636597
 21
445.732799991359
 31
0.0
  0
LINE
  5
463F
330
1F
100
AcDbEntity
  8
TK6
100
AcDbLine
 10
545.5635650636597
 20
448.232799991359
 30
0.0
 11
545.5635650636597
 21
445.732799991359
 31
0.0
  0
LINE
  5
4640
330
1F
100
AcDbEntity
  8
TK6
100
AcDbLine
 10
543.0635650636597
 20
442.482799991359
 30
0.0
 11
543.8635650636598
 21
442.482799991359
 31
0.0
  0
LINE
  5
4641
330
1F
100
AcDbEntity
  8
TK6
100
AcDbLine
 10
543.8635650636598
 20
443.232799991359
 30
0.0
 11
545.5635650636597
 21
443.232799991359
 31
0.0
  0
LINE
  5
4642
330
1F
100
AcDbEntity
  8
TK6
100
AcDbLine
 10
543.8635650636598
 20
442.482799991359
 30
0.0
 11
543.8635650636598
 21
445.732799991359
 31
0.0
  0
LINE
  5
4643
330
1F
100
AcDbEntity
  8
TK6
100
AcDbLine
 10
543.0635650636597
 20
442.482799991359
 30
0.0
 11
543.0635650636597
 21
445.732799991359
 31
0.0
  0
LINE
  5
4644
330
1F
100
AcDbEntity
  8
TK6
100
AcDbLine
 10
545.5635650636597
 20
443.232799991359
 30
0.0
 11
545.5635650636597
 21
445.732799991359
 31
0.0
  0
CIRCLE
  5
4645
330
1F
100
AcDbEntity
  8
TK6
100
AcDbCircle
 10
555.9870127093956
 20
445.732799991359
 30
0.0
 40
3.25
  0
LWPOLYLINE
  5
4646
330
1F
100
AcDbEntity
  8
TK6
100
AcDbPolyline
 90
        6
 70
     1
 43
0.0
 10
554.7370127093956
 20
447.8978635008202
 10
553.4870127093957
 20
445.732799991359
 10
554.7370127093956
 20
443.5677364818979
 10
557.2370127093956
 20
443.5677364818979
 10
558.4870127093957
 20
445.732799991359
 10
557.2370127093956
 20
447.8978635008202
  0
LINE
  5
4647
330
1F
100
AcDbEntity
  8
TK6
100
AcDbLine
 10
553.7468203305311
 20
446.1827999913591
 30
0.0
 11
558.2272050882604
 21
446.1827999913591
 31
0.0
  0
LINE
  5
4648
330
1F
100
AcDbEntity
  8
TK6
100
AcDbLine
 10
553.7468203305311
 20
445.2827999913592
 30
0.0
 11
558.2272050882604
 21
445.2827999913592
 31
0.0
  0
LINE
  5
4649
330
1F
100
AcDbEntity
  8
TK6
100
AcDbLine
 10
545.5635650636597
 20
446.1827999913591
 30
0.0
 11
544.1635650636599
 21
446.1827999913591
 31
0.0
  0
LINE
  5
464A
330
1F
100
AcDbEntity
  8
TK6
100
AcDbLine
 10
545.5635650636597
 20
445.2827999913592
 30
0.0
 11
544.1635650636599
 21
445.2827999913592
 31
0.0
  0
LINE
  5
464B
330
1F
100
AcDbEntity
  8
TK6
100
AcDbLine
 10
544.1635650636599
 20
446.1827999913591
 30
0.0
 11
544.1635650636599
 21
445.2827999913592
 31
0.0
  0
LINE
  5
4656
330
1F
100
AcDbEntity
  8
TK3
100
AcDbLine
 10
514.0613155279789
 20
383.2327999913592
 30
0.0
 11
514.0613155279789
 21
374.232799991359
 31
0.0
  0
LINE
  5
4657
330
1F
100
AcDbEntity
  8
TK3
100
AcDbLine
 10
515.0613155279788
 20
384.2327999913592
 30
0.0
 11
518.0613155279789
 21
384.232799991359
 31
0.0
  0
LINE
  5
4658
330
1F
100
AcDbEntity
  8
TK3
100
AcDbLine
 10
515.0613155279788
 20
373.232799991359
 30
0.0
 11
518.0613155279789
 21
373.232799991359
 31
0.0
  0
LINE
  5
4659
330
1F
100
AcDbEntity
  8
TK3
100
AcDbLine
 10
518.0613155279789
 20
384.232799991359
 30
0.0
 11
518.0613155279789
 21
373.232799991359
 31
0.0
  0
ARC
  5
465A
330
1F
100
AcDbEntity
  8
TK3
100
AcDbCircle
 10
515.0613155279788
 20
383.2327999913592
 30
0.0
 40
1.0
100
AcDbArc
 50
90.0
 51
180.0
1001
GENIUS_GENODEF_13
1002
{
1000
HIER
1070
     0
1002
}
1002
{
1000
MANEDIT
1070
     0
1002
}
1002
{
1000
NOSEL
1070
     0
1002
}
1002
{
1000
BEHIND
1070
     0
1002
}
1002
{
1000
OTHER
1070
     0
1002
}
1002
{
1000
REACTOR
1002
}
1001
GENIUS_GENOBJ-N-FIL_13
1002
{
1000
OWNER
1000
GEN
1002
}
  0
ARC
  5
465B
330
1F
100
AcDbEntity
  8
TK3
100
AcDbCircle
 10
515.0613155279788
 20
374.232799991359
 30
0.0
 40
1.0
100
AcDbArc
 50
180.0
 51
270.0
1001
GENIUS_GENOBJ-N-FIL_13
1002
{
1000
OWNER
1000
GEN
1002
}
1001
GENIUS_GENODEF_13
1002
{
1000
HIER
1070
     0
1002
}
1002
{
1000
MANEDIT
1070
     0
1002
}
1002
{
1000
NOSEL
1070
     0
1002
}
1002
{
1000
BEHIND
1070
     0
1002
}
1002
{
1000
OTHER
1070
     0
1002
}
1002
{
1000
REACTOR
1002
}
  0
LINE
  5
465C
330
1F
100
AcDbEntity
  8
AM_7
  6
AM_ISO08W050x2
100
AcDbLine
 10
511.0613155279788
 20
378.732799991359
 30
0.0
 11
521.0613155279788
 21
378.732799991359
 31
0.0
1001
GENIUS_GENOBJ-N-CEN_13
1002
{
1000
OWNER
1000
GEN
1002
}
1001
GENIUS_GENODEF_13
1002
{
1000
HIER
1070
     0
1002
}
1002
{
1000
MANEDIT
1070
     0
1002
}
1002
{
1000
NOSEL
1070
     0
1002
}
1002
{
1000
BEHIND
1070
     0
1002
}
1002
{
1000
OTHER
1070
     0
1002
}
1002
{
1000
REACTOR
1002
}
  0
LINE
  5
465E
330
1F
100
AcDbEntity
  8
TK6
100
AcDbLine
 10
532.0635650636598
 20
380.232799991359
 30
0.0
 11
543.0635650636597
 21
380.232799991359
 31
0.0
  0
LINE
  5
465F
330
1F
100
AcDbEntity
  8
TK6
100
AcDbLine
 10
532.0635650636598
 20
377.2327999913589
 30
0.0
 11
543.0635650636597
 21
377.232799991359
 31
0.0
  0
LINE
  5
4660
330
1F
100
AcDbEntity
  8
TK60
100
AcDbLine
 10
532.0635650636598
 20
379.9827999913589
 30
0.0
 11
543.0635650636597
 21
379.982799991359
 31
0.0
  0
LINE
  5
4661
330
1F
100
AcDbEntity
  8
TK60
100
AcDbLine
 10
532.0635650636598
 20
377.4827999913589
 30
0.0
 11
543.0635650636597
 21
377.482799991359
 31
0.0
  0
LINE
  5
4662
330
1F
100
AcDbEntity
  8
TK6
100
AcDbLine
 10
543.0635650636597
 20
381.982799991359
 30
0.0
 11
543.8635650636598
 21
381.982799991359
 31
0.0
  0
LINE
  5
4663
330
1F
100
AcDbEntity
  8
TK6
100
AcDbLine
 10
543.8635650636598
 20
381.232799991359
 30
0.0
 11
545.5635650636597
 21
381.232799991359
 31
0.0
  0
LINE
  5
4664
330
1F
100
AcDbEntity
  8
TK6
100
AcDbLine
 10
543.8635650636598
 20
381.982799991359
 30
0.0
 11
543.8635650636598
 21
378.732799991359
 31
0.0
  0
LINE
  5
4665
330
1F
100
AcDbEntity
  8
TK6
100
AcDbLine
 10
543.0635650636597
 20
381.982799991359
 30
0.0
 11
543.0635650636597
 21
378.732799991359
 31
0.0
  0
LINE
  5
4666
330
1F
100
AcDbEntity
  8
TK6
100
AcDbLine
 10
545.5635650636597
 20
381.232799991359
 30
0.0
 11
545.5635650636597
 21
378.732799991359
 31
0.0
  0
LINE
  5
4667
330
1F
100
AcDbEntity
  8
TK6
100
AcDbLine
 10
543.0635650636597
 20
375.482799991359
 30
0.0
 11
543.8635650636598
 21
375.482799991359
 31
0.0
  0
LINE
  5
4668
330
1F
100
AcDbEntity
  8
TK6
100
AcDbLine
 10
543.8635650636598
 20
376.232799991359
 30
0.0
 11
545.5635650636597
 21
376.232799991359
 31
0.0
  0
LINE
  5
4669
330
1F
100
AcDbEntity
  8
TK6
100
AcDbLine
 10
543.8635650636598
 20
375.482799991359
 30
0.0
 11
543.8635650636598
 21
378.732799991359
 31
0.0
  0
LINE
  5
466A
330
1F
100
AcDbEntity
  8
TK6
100
AcDbLine
 10
543.0635650636597
 20
375.482799991359
 30
0.0
 11
543.0635650636597
 21
378.732799991359
 31
0.0
  0
LINE
  5
466B
330
1F
100
AcDbEntity
  8
TK6
100
AcDbLine
 10
545.5635650636597
 20
376.232799991359
 30
0.0
 11
545.5635650636597
 21
378.732799991359
 31
0.0
  0
CIRCLE
  5
466C
330
1F
100
AcDbEntity
  8
TK6
100
AcDbCircle
 10
555.9870127093956
 20
378.732799991359
 30
0.0
 40
3.25
  0
LWPOLYLINE
  5
466D
330
1F
100
AcDbEntity
  8
TK6
100
AcDbPolyline
 90
        6
 70
     1
 43
0.0
 10
554.7370127093956
 20
380.8978635008201
 10
553.4870127093957
 20
378.732799991359
 10
554.7370127093956
 20
376.5677364818979
 10
557.2370127093956
 20
376.5677364818979
 10
558.4870127093957
 20
378.732799991359
 10
557.2370127093956
 20
380.8978635008201
  0
LINE
  5
466E
330
1F
100
AcDbEntity
  8
TK6
100
AcDbLine
 10
553.7468203305311
 20
379.1827999913591
 30
0.0
 11
558.2272050882604
 21
379.1827999913591
 31
0.0
  0
LINE
  5
466F
330
1F
100
AcDbEntity
  8
TK6
100
AcDbLine
 10
553.7468203305311
 20
378.2827999913592
 30
0.0
 11
558.2272050882604
 21
378.2827999913592
 31
0.0
  0
LINE
  5
4670
330
1F
100
AcDbEntity
  8
TK6
100
AcDbLine
 10
545.5635650636597
 20
379.1827999913591
 30
0.0
 11
544.1635650636599
 21
379.1827999913591
 31
0.0
  0
LINE
  5
4671
330
1F
100
AcDbEntity
  8
TK6
100
AcDbLine
 10
545.5635650636597
 20
378.2827999913592
 30
0.0
 11
544.1635650636599
 21
378.2827999913592
 31
0.0
  0
LINE
  5
4672
330
1F
100
AcDbEntity
  8
TK6
100
AcDbLine
 10
544.1635650636599
 20
379.1827999913591
 30
0.0
 11
544.1635650636599
 21
378.2827999913592
 31
0.0
  0
ARC
  5
46B4
330
1F
100
AcDbEntity
  8
TK4
100
AcDbCircle
 10
466.2090111467646
 20
440.7327999913591
 30
0.0
 40
2.0
100
AcDbArc
 50
270.0
 51
90.0
  0
CIRCLE
  5
46B5
330
1F
100
AcDbEntity
  8
TK40
100
AcDbCircle
 10
458.2090111467644
 20
440.532799991359
 30
0.0
 40
2.0
  0
ARC
  5
46B6
330
1F
100
AcDbEntity
  8
TK4
100
AcDbCircle
 10
466.2090111467646
 20
383.7327999913591
 30
0.0
 40
2.0
100
AcDbArc
 50
270.0
 51
90.0
  0
CIRCLE
  5
46B7
330
1F
100
AcDbEntity
  8
TK40
100
AcDbCircle
 10
458.2090111467644
 20
383.5327999913591
 30
0.0
 40
2.0
  0
ARC
  5
46CD
330
1F
100
AcDbEntity
  8
TK4
100
AcDbCircle
 10
348.76376611791
 20
194.678778959809
 30
0.0
 40
2.0
100
AcDbArc
 50
180.0000000000004
 51
359.9999999999996
  0
CIRCLE
  5
46CE
330
1F
100
AcDbEntity
  8
TK40
100
AcDbCircle
 10
348.9637661179099
 20
202.6787789598091
 30
0.0
 40
2.0
  0
ARC
  5
46CF
330
1F
100
AcDbEntity
  8
TK4
100
AcDbCircle
 10
123.7637661179098
 20
194.6787789598092
 30
0.0
 40
2.0
100
AcDbArc
 50
180.0000000000004
 51
359.9999999999996
  0
CIRCLE
  5
46D0
330
1F
100
AcDbEntity
  8
TK40
100
AcDbCircle
 10
123.9637661179097
 20
202.6787789598094
 30
0.0
 40
2.0
  0
DIMENSION
  5
46E8
102
{ACAD_XDICTIONARY
360
46F3
102
}
102
{ACAD_REACTORS
330
46F4
102
}
330
1F
100
AcDbEntity
  8
AM_5
100
AcDbDimension
  2
*D16
 10
105.6637661179099
 20
387.3327999913592
 30
0.0
 11
99.16376611790987
 21
412.2327999913592
 31
0.0
 70
    32
 71
     5
 42
49.79999999999995
  3
AM_ISO$0
100
AcDbAlignedDimension
 13
129.6637661179099
 23
437.1327999913591
 33
0.0
 14
129.6637661179099
 24
387.3327999913592
 34
0.0
 50
90.00000000000003
100
AcDbRotatedDimension
1001
ACAD
1000
DSTYLE
1002
{
1070
    40
1040
2.0
1002
}
  0
DIMENSION
  5
470C
102
{ACAD_XDICTIONARY
360
4717
102
}
102
{ACAD_REACTORS
330
4718
102
}
330
1F
100
AcDbEntity
  8
AM_5
100
AcDbDimension
  2
*D17
 10
85.66376611790991
 20
373.1327999913592
 30
0.0
 11
79.16376611790984
 21
411.2827999913591
 31
0.0
 70
    32
 71
     5
 42
76.29999999999995
  3
AM_ISO$0
100
AcDbAlignedDimension
 13
120.7637661179099
 23
449.4327999913591
 33
0.0
 14
129.7637661179099
 24
373.1327999913591
 34
0.0
 50
90.00000000000003
100
AcDbRotatedDimension
1001
ACAD
1000
DSTYLE
1002
{
1070
    40
1040
2.0
1002
}
  0
DIMENSION
  5
4768
102
{ACAD_XDICTIONARY
360
4773
102
}
102
{ACAD_REACTORS
330
4774
102
}
330
1F
100
AcDbEntity
  8
AM_5
100
AcDbDimension
  2
*D18
 10
352.7637661179099
 20
493.4328009913589
 30
0.0
 11
236.2637661179099
 21
499.9334899677369
 31
0.0
 70
    32
 71
     5
 42
233.0
  3
AM_ISO$0
100
AcDbAlignedDimension
 13
119.7637661179099
 23
448.4327999913591
 33
0.0
 14
352.7637661179099
 24
448.4327999913591
 34
0.0
100
AcDbRotatedDimension
1001
ACAD
1000
DSTYLE
1002
{
1070
    40
1040
2.0
1002
}
  0
DIMENSION
  5
4792
102
{ACAD_XDICTIONARY
360
479D
102
}
102
{ACAD_REACTORS
330
479E
102
}
330
1F
100
AcDbEntity
  8
AM_5
100
AcDbDimension
  2
*D19
 10
466.2090111467646
 20
473.4328010013591
 30
0.0
 11
453.4590111467645
 21
479.933489977737
 31
0.0
 70
    32
 71
     5
 42
25.50000000000011
  3
AM_ISO$0
100
AcDbAlignedDimension
 13
440.7090111467645
 23
431.346763912429
 33
0.0
 14
466.2090111467646
 24
449.4327999913591
 34
0.0
100
AcDbRotatedDimension
1001
ACAD
1000
DSTYLE
1002
{
1070
    40
1040
2.0
1002
}
  0
LINE
  5
47AD
330
1F
100
AcDbEntity
  8
AM_5
100
AcDbLine
 10
127.3637661179099
 20
436.832799991359
 30
0.0
 11
127.3637661179099
 21
475.4328009913591
 31
0.0
  0
LINE
  5
47AF
330
1F
100
AcDbEntity
  8
AM_5
100
AcDbLine
 10
132.3637661179099
 20
473.4328009913591
 30
0.0
 11
236.2637661179099
 21
473.4328009913591
 31
0.0
  0
INSERT
  5
47B0
330
1F
100
AcDbEntity
  8
AM_5
100
AcDbBlockReference
  2
_Open30
 10
127.3637661179099
 20
473.4328009913591
 30
0.0
 41
5.0
 42
5.0
 43
5.0
 50
180.0
  0
MTEXT
  5
47B2
330
1F
100
AcDbEntity
  8
AM_5
 62
     2
100
AcDbMText
 10
236.2637661179099
 20
479.933489967737
 30
0.0
 40
7.0
 41
0.0
 71
     5
 72
     1
  1
217.8
 73
     1
 44
1.0
1001
ACAD
1000
MTEXTBEGIN
1070
    73
1070
     1
1070
    44
1040
1.0
1070
    74
1070
     0
1000
MTEXTEND
  0
LINE
  5
47E4
330
1F
100
AcDbEntity
  8
TK20
100
AcDbLine
 10
329.36376611791
 20
435.7327999913591
 30
0.0
 11
328.8637661179099
 21
435.7327999913591
 31
0.0
  0
ARC
  5
47E5
330
1F
100
AcDbEntity
  8
TK20
100
AcDbCircle
 10
328.8637661179099
 20
434.2327999913591
 30
0.0
 40
1.5
100
AcDbArc
 50
90.0
 51
180.0
1001
GENIUS_GENODEF_13
1002
{
1000
HIER
1070
     0
1002
}
1002
{
1000
MANEDIT
1070
     0
1002
}
1002
{
1000
NOSEL
1070
     0
1002
}
1002
{
1000
BEHIND
1070
     0
1002
}
1002
{
1000
OTHER
1070
     0
1002
}
1002
{
1000
REACTOR
1002
}
1001
GENIUS_GENOBJ-N-FIL_13
1002
{
1000
OWNER
1000
GEN
1002
}
  0
ARC
  5
47E6
330
1F
100
AcDbEntity
  8
TK20
100
AcDbCircle
 10
333.86376611791
 20
434.2327999913591
 30
0.0
 40
1.5
100
AcDbArc
 50
0.000000000000007
 51
90.0
1001
GENIUS_GENODEF_13
1002
{
1000
HIER
1070
     0
1002
}
1002
{
1000
MANEDIT
1070
     0
1002
}
1002
{
1000
NOSEL
1070
     0
1002
}
1002
{
1000
BEHIND
1070
     0
1002
}
1002
{
1000
OTHER
1070
     0
1002
}
1002
{
1000
REACTOR
1002
}
1001
GENIUS_GENOBJ-N-FIL_13
1002
{
1000
OWNER
1000
GEN
1002
}
  0
LINE
  5
47E7
330
1F
100
AcDbEntity
  8
TK20
100
AcDbLine
 10
333.36376611791
 20
437.1327999913591
 30
0.0
 11
333.36376611791
 21
435.7327999913591
 31
0.0
  0
LINE
  5
47E8
330
1F
100
AcDbEntity
  8
TK20
100
AcDbLine
 10
329.36376611791
 20
435.7327999913591
 30
0.0
 11
329.36376611791
 21
437.1327999913591
 31
0.0
  0
LINE
  5
47E9
330
1F
100
AcDbEntity
  8
TK20
100
AcDbLine
 10
333.86376611791
 20
435.7327999913591
 30
0.0
 11
333.3637661179101
 21
435.7327999913591
 31
0.0
  0
LINE
  5
47EA
330
1F
100
AcDbEntity
  8
TK20
100
AcDbLine
 10
327.3637661179099
 20
434.2327999913591
 30
0.0
 11
327.3637661179099
 21
390.2327999913591
 31
0.0
  0
LINE
  5
47EB
330
1F
100
AcDbEntity
  8
TK20
100
AcDbLine
 10
335.36376611791
 20
434.2327999913591
 30
0.0
 11
335.36376611791
 21
390.2327999913591
 31
0.0
  0
LINE
  5
47EC
330
1F
100
AcDbEntity
  8
TK20
100
AcDbLine
 10
344.3637661179101
 20
434.2327999913591
 30
0.0
 11
344.3637661179101
 21
390.2327999913591
 31
0.0
  0
LINE
  5
47ED
330
1F
100
AcDbEntity
  8
TK20
100
AcDbLine
 10
336.36376611791
 20
434.2327999913591
 30
0.0
 11
336.36376611791
 21
390.2327999913591
 31
0.0
  0
LINE
  5
47EE
330
1F
100
AcDbEntity
  8
TK20
100
AcDbLine
 10
342.8637661179101
 20
435.7327999913591
 30
0.0
 11
342.3637661179102
 21
435.7327999913591
 31
0.0
  0
LINE
  5
47EF
330
1F
100
AcDbEntity
  8
TK20
100
AcDbLine
 10
338.3637661179101
 20
435.7327999913591
 30
0.0
 11
338.3637661179101
 21
437.1327999913591
 31
0.0
  0
LINE
  5
47F0
330
1F
100
AcDbEntity
  8
TK20
100
AcDbLine
 10
342.3637661179101
 20
437.1327999913591
 30
0.0
 11
342.3637661179101
 21
435.7327999913591
 31
0.0
  0
ARC
  5
47F1
330
1F
100
AcDbEntity
  8
TK20
100
AcDbCircle
 10
342.8637661179101
 20
434.2327999913591
 30
0.0
 40
1.5
100
AcDbArc
 50
0.000000000000007
 51
90.0
1001
GENIUS_GENODEF_13
1002
{
1000
HIER
1070
     0
1002
}
1002
{
1000
MANEDIT
1070
     0
1002
}
1002
{
1000
NOSEL
1070
     0
1002
}
1002
{
1000
BEHIND
1070
     0
1002
}
1002
{
1000
OTHER
1070
     0
1002
}
1002
{
1000
REACTOR
1002
}
1001
GENIUS_GENOBJ-N-FIL_13
1002
{
1000
OWNER
1000
GEN
1002
}
  0
ARC
  5
47F2
330
1F
100
AcDbEntity
  8
TK20
100
AcDbCircle
 10
337.86376611791
 20
434.2327999913591
 30
0.0
 40
1.5
100
AcDbArc
 50
90.0
 51
180.0
1001
GENIUS_GENODEF_13
1002
{
1000
HIER
1070
     0
1002
}
1002
{
1000
MANEDIT
1070
     0
1002
}
1002
{
1000
NOSEL
1070
     0
1002
}
1002
{
1000
BEHIND
1070
     0
1002
}
1002
{
1000
OTHER
1070
     0
1002
}
1002
{
1000
REACTOR
1002
}
1001
GENIUS_GENOBJ-N-FIL_13
1002
{
1000
OWNER
1000
GEN
1002
}
  0
LINE
  5
47F3
330
1F
100
AcDbEntity
  8
TK20
100
AcDbLine
 10
338.3637661179101
 20
435.7327999913591
 30
0.0
 11
337.86376611791
 21
435.7327999913591
 31
0.0
  0
LINE
  5
47F4
330
1F
100
AcDbEntity
  8
TK20
100
AcDbLine
 10
329.36376611791
 20
388.7327999913591
 30
0.0
 11
328.8637661179099
 21
388.7327999913591
 31
0.0
  0
ARC
  5
47F5
330
1F
100
AcDbEntity
  8
TK20
100
AcDbCircle
 10
328.8637661179099
 20
390.2327999913591
 30
0.0
 40
1.5
100
AcDbArc
 50
180.0
 51
270.0
1001
GENIUS_GENODEF_13
1002
{
1000
HIER
1070
     0
1002
}
1002
{
1000
MANEDIT
1070
     0
1002
}
1002
{
1000
NOSEL
1070
     0
1002
}
1002
{
1000
BEHIND
1070
     0
1002
}
1002
{
1000
OTHER
1070
     0
1002
}
1002
{
1000
REACTOR
1002
}
1001
GENIUS_GENOBJ-N-FIL_13
1002
{
1000
OWNER
1000
GEN
1002
}
  0
ARC
  5
47F6
330
1F
100
AcDbEntity
  8
TK20
100
AcDbCircle
 10
333.86376611791
 20
390.2327999913591
 30
0.0
 40
1.5
100
AcDbArc
 50
270.0
 51
0.000000000000007
1001
GENIUS_GENODEF_13
1002
{
1000
HIER
1070
     0
1002
}
1002
{
1000
MANEDIT
1070
     0
1002
}
1002
{
1000
NOSEL
1070
     0
1002
}
1002
{
1000
BEHIND
1070
     0
1002
}
1002
{
1000
OTHER
1070
     0
1002
}
1002
{
1000
REACTOR
1002
}
1001
GENIUS_GENOBJ-N-FIL_13
1002
{
1000
OWNER
1000
GEN
1002
}
  0
LINE
  5
47F7
330
1F
100
AcDbEntity
  8
TK20
100
AcDbLine
 10
333.36376611791
 20
387.3327999913592
 30
0.0
 11
333.36376611791
 21
388.7327999913591
 31
0.0
  0
LINE
  5
47F8
330
1F
100
AcDbEntity
  8
TK20
100
AcDbLine
 10
329.36376611791
 20
388.7327999913591
 30
0.0
 11
329.36376611791
 21
387.3327999913592
 31
0.0
  0
LINE
  5
47F9
330
1F
100
AcDbEntity
  8
TK20
100
AcDbLine
 10
333.86376611791
 20
388.7327999913591
 30
0.0
 11
333.3637661179101
 21
388.7327999913591
 31
0.0
  0
LINE
  5
47FA
330
1F
100
AcDbEntity
  8
TK20
100
AcDbLine
 10
342.8637661179101
 20
388.7327999913591
 30
0.0
 11
342.3637661179102
 21
388.7327999913591
 31
0.0
  0
LINE
  5
47FB
330
1F
100
AcDbEntity
  8
TK20
100
AcDbLine
 10
338.3637661179101
 20
388.7327999913591
 30
0.0
 11
338.3637661179101
 21
387.3327999913592
 31
0.0
  0
LINE
  5
47FC
330
1F
100
AcDbEntity
  8
TK20
100
AcDbLine
 10
342.3637661179101
 20
387.3327999913592
 30
0.0
 11
342.3637661179101
 21
388.7327999913591
 31
0.0
  0
ARC
  5
47FD
330
1F
100
AcDbEntity
  8
TK20
100
AcDbCircle
 10
342.8637661179101
 20
390.2327999913591
 30
0.0
 40
1.5
100
AcDbArc
 50
270.0
 51
0.000000000000007
1001
GENIUS_GENODEF_13
1002
{
1000
HIER
1070
     0
1002
}
1002
{
1000
MANEDIT
1070
     0
1002
}
1002
{
1000
NOSEL
1070
     0
1002
}
1002
{
1000
BEHIND
1070
     0
1002
}
1002
{
1000
OTHER
1070
     0
1002
}
1002
{
1000
REACTOR
1002
}
1001
GENIUS_GENOBJ-N-FIL_13
1002
{
1000
OWNER
1000
GEN
1002
}
  0
ARC
  5
47FE
330
1F
100
AcDbEntity
  8
TK20
100
AcDbCircle
 10
337.86376611791
 20
390.2327999913591
 30
0.0
 40
1.5
100
AcDbArc
 50
180.0
 51
270.0
1001
GENIUS_GENODEF_13
1002
{
1000
HIER
1070
     0
1002
}
1002
{
1000
MANEDIT
1070
     0
1002
}
1002
{
1000
NOSEL
1070
     0
1002
}
1002
{
1000
BEHIND
1070
     0
1002
}
1002
{
1000
OTHER
1070
     0
1002
}
1002
{
1000
REACTOR
1002
}
1001
GENIUS_GENOBJ-N-FIL_13
1002
{
1000
OWNER
1000
GEN
1002
}
  0
LINE
  5
47FF
330
1F
100
AcDbEntity
  8
TK20
100
AcDbLine
 10
338.3637661179101
 20
388.7327999913591
 30
0.0
 11
337.86376611791
 21
388.7327999913591
 31
0.0
  0
LINE
  5
4879
330
1F
100
AcDbEntity
  8
TK6
100
AcDbLine
 10
532.0635650636598
 20
380.232799991359
 30
0.0
 11
532.0635650636598
 21
377.232799991359
 31
0.0
  0
LINE
  5
487A
330
1F
100
AcDbEntity
  8
TK6
100
AcDbLine
 10
532.0635650636598
 20
444.232799991359
 30
0.0
 11
532.0635650636598
 21
447.232799991359
 31
0.0
  0
DIMENSION
  5
48ED
102
{ACAD_XDICTIONARY
360
48FA
102
}
102
{ACAD_REACTORS
330
48FB
102
}
330
1F
100
AcDbEntity
  8
AM_5
100
AcDbDimension
  2
*D20
 10
105.6637661179099
 20
293.6304660964848
 30
0.0
 11
99.16307714153191
 21
311.7406727893982
 31
0.0
 70
    32
 71
     5
 42
3.199999999999988
  3
AM_ISO$0
100
AcDbAlignedDimension
 13
127.9637661179101
 23
290.4304660964848
 33
0.0
 14
127.9637661179101
 24
293.6304660964848
 34
0.0
 50
90.00000000000003
100
AcDbRotatedDimension
1001
ACAD
1000
DSTYLE
1002
{
1070
    40
1040
2.0
1002
}
  0
DIMENSION
  5
4926
102
{ACAD_XDICTIONARY
360
4933
102
}
102
{ACAD_REACTORS
330
4934
102
}
330
1F
100
AcDbEntity
  8
AM_5
100
AcDbDimension
  2
*D21
 10
85.66376611790991
 20
297.5304660964834
 30
0.0
 11
79.16376611790984
 21
292.0304660964833
 31
0.0
 70
    32
 71
     5
 42
11.00000000000005
  3
AM_ISO$0
100
AcDbAlignedDimension
 13
122.76376611791
 23
286.5304660964834
 33
0.0
 14
122.7637661179099
 24
297.5304660964834
 34
0.0
 50
90.00000000000078
100
AcDbRotatedDimension
1001
ACAD
1000
DSTYLE
1002
{
1070
    40
1040
2.0
1002
}
  0
DIMENSION
  5
495F
102
{ACAD_XDICTIONARY
360
496C
102
}
102
{ACAD_REACTORS
330
496D
102
}
330
1F
100
AcDbEntity
  8
AM_5
100
AcDbDimension
  2
*D22
 10
126.96376611791
 20
320.3280901472699
 30
0.0
 11
149.9873881651541
 21
320.3280901472699
 31
0.0
 70
   160
 71
     5
 42
4.599999999999965
  3
AM_ISO$0
100
AcDbAlignedDimension
 13
131.56376611791
 23
292.6304660964849
 33
0.0
 14
126.96376611791
 24
292.6304660964846
 34
0.0
100
AcDbRotatedDimension
1001
ACAD
1000
DSTYLE
1002
{
1070
    40
1040
2.0
1002
}
  0
DIMENSION
  5
4998
102
{ACAD_XDICTIONARY
360
49A3
102
}
102
{ACAD_REACTORS
330
49A4
102
}
330
1F
100
AcDbEntity
  8
AM_5
100
AcDbDimension
  2
*D23
 10
352.7637661179099
 20
335.8069552678546
 30
0.0
 11
236.2637661179099
 21
342.3076442442326
 31
0.0
 70
    32
 71
     5
 42
233.0
  3
AM_ISO$0
100
AcDbAlignedDimension
 13
119.7637661179099
 23
294.5304660964833
 33
0.0
 14
352.7637661179099
 24
294.5304660964869
 34
0.0
100
AcDbRotatedDimension
1001
ACAD
1000
DSTYLE
1002
{
1070
    40
1040
2.0
1002
}
  0
DIMENSION
  5
49E0
102
{ACAD_XDICTIONARY
360
49ED
102
}
102
{ACAD_REACTORS
330
49EE
102
}
330
1F
100
AcDbEntity
  8
AM_5
100
AcDbDimension
  2
*D24
 10
378.1821752143502
 20
335.8069552678546
 30
0.0
 11
392.9321752143501
 21
342.3069552678546
 31
0.0
 70
    32
 71
     5
 42
4.0
  3
AM_ISO$0
100
AcDbAlignedDimension
 13
374.1821752143501
 23
296.5304660964848
 33
0.0
 14
378.1821752143502
 24
297.5304660964848
 34
0.0
100
AcDbRotatedDimension
1001
ACAD
1000
DSTYLE
1002
{
1070
    40
1040
2.0
1002
}
  0
DIMENSION
  5
4A1A
330
1F
100
AcDbEntity
  8
AM_5
100
AcDbDimension
  2
*D25
 10
211.26376611791
 20
266.4304660964836
 30
0.0
 11
170.26376611791
 21
272.9311550728616
 31
0.0
 70
    32
 71
     5
 42
81.99999999999993
  3
AM_ISO$0
100
AcDbAlignedDimension
 13
129.26376611791
 23
290.4304660964848
 33
0.0
 14
211.26376611791
 24
290.4304660964836
 34
0.0
 50
0.0000000000001132
100
AcDbRotatedDimension
1001
ACAD
1000
DSTYLE
1002
{
1070
    40
1040
2.0
1070
   174
1070
     1
1002
}
  0
DIMENSION
  5
4A40
330
1F
100
AcDbEntity
  8
AM_5
100
AcDbDimension
  2
*D26
 10
261.2637661179099
 20
266.4304660964835
 30
0.0
 11
236.2637661179099
 21
272.9304660964835
 31
0.0
 70
    32
 71
     5
 42
49.99999999999989
  3
AM_ISO$0
100
AcDbAlignedDimension
 13
211.26376611791
 23
290.4304660964836
 33
0.0
 14
261.2637661179099
 24
290.430466096484
 34
0.0
100
AcDbRotatedDimension
1001
ACAD
1000
DSTYLE
1002
{
1070
   174
1070
     1
1070
    40
1040
2.0
1002
}
  0
DIMENSION
  5
4A5A
330
1F
100
AcDbEntity
  8
AM_5
100
AcDbDimension
  2
*D27
 10
343.2637661179099
 20
266.4304660964837
 30
0.0
 11
302.2637661179099
 21
272.9311550728617
 31
0.0
 70
    32
 71
     5
 42
82.0
  3
AM_ISO$0
100
AcDbAlignedDimension
 13
261.2637661179099
 23
290.430466096484
 33
0.0
 14
343.2637661179099
 24
290.4304660964866
 34
0.0
100
AcDbRotatedDimension
1001
ACAD
1000
DSTYLE
1002
{
1070
   174
1070
     1
1070
    40
1040
2.0
1002
}
  0
VIEWPORT
  5
17C
102
{ACAD_XDICTIONARY
360
4ACF
102
}
330
23
100
AcDbEntity
 67
     1
  8
0
100
AcDbViewport
 10
133.3499908447265
 20
101.5999970436096
 30
0.0
 40
370.2266912936524
 41
228.4221935424805
 68
     1
 69
     1
 12
133.3499908447265
 22
101.5999970436096
 13
0.0
 23
0.0
 14
10.0
 24
10.0
 15
10.0
 25
10.0
 16
0.0
 26
0.0
 36
1.0
 17
0.0
 27
0.0
 37
0.0
 42
50.0
 43
0.0
 44
0.0
 45
228.4221935424805
 50
0.0
 51
0.0
 72
   100
 90
    32800
  1

281
     0
 71
     1
 74
     0
110
0.0
120
0.0
130
0.0
111
1.0
121
0.0
131
0.0
112
0.0
122
1.0
132
0.0
 79
     0
146
0.0
  0
ENDSEC
  0
SECTION
  2
OBJECTS
  0
DICTIONARY
  5
C
330
0
100
AcDbDictionary
281
     1
  3
ACAD_COLOR
350
BE
  3
ACAD_GROUP
350
D
  3
ACAD_LAYOUT
350
1A
  3
ACAD_MATERIAL
350
BD
  3
ACAD_MLINESTYLE
350
17
  3
ACAD_PLOTSETTINGS
350
19
  3
ACAD_PLOTSTYLENAME
350
E
  3
ACAD_TABLESTYLE
350
69E
  3
ACDBHEADERROUNDTRIPXREC
350
4AC6
  3
AcDbVariableDictionary
350
94
  3
AcmDictionary
350
5B
  3
AMG
350
41
  3
AMGSNAPSETTINGS
350
220
  3
DWGPROPS
350
4AC5
  0
DICTIONARY
  5
35D
330
2
100
AcDbDictionary
280
     1
281
     1
  3
ACAD_LAYERFILTERS
360
451
  3
ACAD_LAYERSTATES
360
35E
  3
AMLAYER_GROUPCOLORS
360
4A4
  0
DICTIONARY
  5
8F
330
1F
100
AcDbDictionary
280
     1
281
     1
  3
ACAD_SORTENTS
360
C8C
  0
DICTIONARY
  5
603
330
5FA
100
AcDbDictionary
280
     1
281
     1
  0
DICTIONARY
  5
668
330
613
100
AcDbDictionary
280
     1
281
     1
  0
DICTIONARY
  5
6CE
330
6C6
100
AcDbDictionary
280
     1
281
     1
  0
DICTIONARY
  5
732
330
6D9
100
AcDbDictionary
280
     1
281
     1
  0
DICTIONARY
  5
4ACD
330
178
100
AcDbDictionary
280
     1
281
     1
  3
ACAD_XREC_ROUNDTRIP
360
4ACE
  0
DICTIONARY
  5
EC4
330
EB9
100
AcDbDictionary
280
     1
281
     1
  3
ACAD_DIMASSOC
360
EC5
  0
DICTIONARY
  5
EE8
330
EDD
100
AcDbDictionary
280
     1
281
     1
  3
ACAD_DIMASSOC
360
EE9
  0
DICTIONARY
  5
2C3D
330
2C32
100
AcDbDictionary
280
     1
281
     1
  3
ACAD_DIMASSOC
360
2C3E
  0
DICTIONARY
  5
2C65
330
2C5A
100
AcDbDictionary
280
     1
281
     1
  3
ACAD_DIMASSOC
360
2C66
  0
DICTIONARY
  5
2C81
330
2C76
100
AcDbDictionary
280
     1
281
     1
  3
ACAD_DIMASSOC
360
2C82
  0
DICTIONARY
  5
46F3
330
46E8
100
AcDbDictionary
280
     1
281
     1
  3
ACAD_DIMASSOC
360
46F4
  0
DICTIONARY
  5
4717
330
470C
100
AcDbDictionary
280
     1
281
     1
  3
ACAD_DIMASSOC
360
4718
  0
DICTIONARY
  5
4773
330
4768
100
AcDbDictionary
280
     1
281
     1
  3
ACAD_DIMASSOC
360
4774
  0
DICTIONARY
  5
479D
330
4792
100
AcDbDictionary
280
     1
281
     1
  3
ACAD_DIMASSOC
360
479E
  0
DICTIONARY
  5
48FA
330
48ED
100
AcDbDictionary
280
     1
281
     1
  3
ACAD_DIMASSOC
360
48FB
  0
DICTIONARY
  5
4933
330
4926
100
AcDbDictionary
280
     1
281
     1
  3
ACAD_DIMASSOC
360
4934
  0
DICTIONARY
  5
496C
330
495F
100
AcDbDictionary
280
     1
281
     1
  3
ACAD_DIMASSOC
360
496D
  0
DICTIONARY
  5
49A3
330
4998
100
AcDbDictionary
280
     1
281
     1
  3
ACAD_DIMASSOC
360
49A4
  0
DICTIONARY
  5
49ED
330
49E0
100
AcDbDictionary
280
     1
281
     1
  3
ACAD_DIMASSOC
360
49EE
  0
DICTIONARY
  5
4ACF
330
17C
100
AcDbDictionary
280
     1
281
     1
  3
ACAD_XREC_ROUNDTRIP
360
4AD0
  0
DICTIONARY
  5
BE
102
{ACAD_REACTORS
330
C
102
}
330
C
100
AcDbDictionary
281
     1
  0
DICTIONARY
  5
D
102
{ACAD_REACTORS
330
C
102
}
330
C
100
AcDbDictionary
281
     1
  0
DICTIONARY
  5
1A
102
{ACAD_REACTORS
330
C
102
}
330
C
100
AcDbDictionary
281
     1
  3
Model
350
22
  3
レイアウト1
350
1E
  3
レイアウト2
350
26
  0
DICTIONARY
  5
BD
102
{ACAD_REACTORS
330
C
102
}
330
C
100
AcDbDictionary
281
     1
  0
DICTIONARY
  5
17
102
{ACAD_REACTORS
330
C
102
}
330
C
100
AcDbDictionary
281
     1
  3
Standard
350
18
  0
DICTIONARY
  5
19
102
{ACAD_REACTORS
330
C
102
}
330
C
100
AcDbDictionary
281
     1
  0
ACDBDICTIONARYWDFLT
  5
E
102
{ACAD_REACTORS
330
C
102
}
330
C
100
AcDbDictionary
281
     1
  3
Normal
350
F
100
AcDbDictionaryWithDefault
340
F
  0
DICTIONARY
  5
69E
102
{ACAD_REACTORS
330
C
102
}
330
C
100
AcDbDictionary
281
     1
  3
Standard
350
69F
  0
DICTIONARY
  5
4AC6
102
{ACAD_REACTORS
330
C
102
}
330
C
100
AcDbDictionary
281
     1
  0
DICTIONARY
  5
94
102
{ACAD_REACTORS
330
C
102
}
330
C
100
AcDbDictionary
281
     1
  3
CTABLESTYLE
350
754
  3
DIMASSOC
350
96
  3
INDEXCTL
350
95
  3
PROJECTNAME
350
4AC3
  0
DICTIONARY
  5
5B
102
{ACAD_REACTORS
330
C
102
}
330
C
100
AcDbDictionary
281
     1
  3
AcmStdDictionary
350
61
  3
AMDTSECTSYM_ARROWCOLOR
350
6AB
  0
DICTIONARY
  5
41
102
{ACAD_REACTORS
330
C
102
}
330
C
100
AcDbDictionary
281
     1
  0
DICTIONARY
  5
220
102
{ACAD_REACTORS
330
C
102
}
330
C
100
AcDbDictionary
281
     1
  0
XRECORD
  5
4AC5
102
{ACAD_REACTORS
330
C
102
}
330
C
100
AcDbXrecord
280
     1
  1
DWGPROPS COOKIE
  2

  3

  4

  6

  7

  8

  9

300
AmdtFileType=84
301
=
302
=
303
=
304
=
305
=
306
=
307
=
308
=
309
=
 40
0.5390320949074075
 41
2455329.706164098
 42
2456049.610065104
  1

 90
        1
  0
DICTIONARY
  5
451
102
{ACAD_REACTORS
330
35D
102
}
330
35D
100
AcDbDictionary
281
     1
  0
DICTIONARY
  5
35E
102
{ACAD_REACTORS
330
35D
102
}
330
35D
100
AcDbDictionary
281
     1
  3
takachi1
350
35F
  0
DICTIONARY
  5
4A4
102
{ACAD_REACTORS
330
35D
102
}
330
35D
100
AcDbDictionary
280
     1
281
     1
  0
SORTENTSTABLE
  5
C8C
102
{ACAD_REACTORS
330
8F
102
}
330
8F
100
AcDbSortentsTable
330
1F
331
4648
  5
4648
331
2BDF
  5
2BDF
331
2BE7
  5
2BE7
331
F38
  5
F38
331
2C76
  5
2C76
331
4658
  5
4658
331
47AD
  5
4768
331
3EE0
  5
3B5F
331
4660
  5
4660
331
4455
  5
4456
331
44E4
  5
44E6
331
445D
  5
445E
331
4297
  5
4299
331
3C52
  5
3D4D
331
4465
  5
4466
331
44EC
  5
4571
331
4574
  5
4576
331
3713
  5
3713
331
3971
  5
399C
331
35C4
  5
35C4
331
3B28
  5
3B85
331
35CC
  5
35CC
331
3B30
  5
3BA9
331
3365
  5
335F
331
2BEF
  5
2BEF
331
D12
  5
D12
331
4668
  5
4668
331
47E5
  5
47E5
331
4631
  5
4631
331
4670
  5
4670
331
2B90
  5
2B90
331
B24
  5
B24
331
47ED
  5
47ED
331
4639
  5
4639
331
3F60
  5
3F9A
331
47F5
  5
47F5
331
4641
  5
4641
331
429F
  5
42A1
331
457C
  5
457E
331
47FD
  5
47FD
331
3B9B
  5
3C26
331
4584
  5
4587
331
458C
  5
458C
331
45EC
  5
45F7
331
3704
  5
3704
331
346D
  5
2FD6
331
370C
  5
370C
331
3475
  5
3475
331
4649
  5
4649
331
46D0
  5
46D0
331
2BE0
  5
2BE0
331
B84
  5
B84
331
46E8
  5
46E8
331
4659
  5
4659
331
3BB3
  5
3C30
331
4661
  5
4661
331
4387
  5
4389
331
4456
  5
4457
331
44E5
  5
44E7
331
445E
  5
445F
331
461C
  5
45F2
331
4466
  5
4468
331
44ED
  5
4572
331
4575
  5
4577
331
2EB7
  5
2ECF
331
3714
  5
3714
331
35C5
  5
35C5
331
334E
  5
334E
331
3982
  5
39AF
331
3B29
  5
3B95
331
2ECF
  5
2F05
331
35CD
  5
35CD
331
3992
  5
389F
331
2BE8
  5
2BE8
331
2BF0
  5
2BF0
331
10B9
  5
10B9
331
D13
  5
D13
331
4669
  5
4669
331
47E6
  5
47E6
331
4632
  5
4632
331
4671
  5
4671
331
2B91
  5
2B91
331
B25
  5
B25
331
47EE
  5
47EE
331
463A
  5
463A
331
4298
  5
429A
331
47F6
  5
47F6
331
4642
  5
4642
331
42A0
  5
42A2
331
457D
  5
457F
331
47FE
  5
47FE
331
3EDA
  5
3AD2
331
4300
  5
4312
331
43F7
  5
4406
331
458D
  5
458D
331
3B61
  5
3B29
331
346E
  5
346E
331
3705
  5
3705
331
370D
  5
370D
331
2FFF
  5
3176
331
3476
  5
3476
331
3814
  5
3814
331
3AD2
  5
3B6C
331
B2D
  5
B2D
331
464A
  5
464A
331
2BE1
  5
2BE1
331
C9C
  5
C9C
331
465A
  5
465A
331
4768
  5
47B1
331
47AF
  5
47AD
331
4662
  5
4662
331
3FE9
  5
4013
331
4457
  5
4458
331
3C24
  5
3C53
331
44E6
  5
44E8
331
3EF2
  5
3AE7
331
445F
  5
4460
331
4467
  5
4469
331
3C54
  5
3D00
331
4576
  5
4578
331
3834
  5
3839
331
3715
  5
3715
331
2EB8
  5
2EBA
331
35C6
  5
35C6
331
371D
  5
371D
331
35CE
  5
35CE
331
335F
  5
333A
331
2BE9
  5
2BE9
331
2BF1
  5
2BF1
331
10BA
  5
10BA
331
BA5
  5
BAA
331
466A
  5
466A
331
BAD
  5
C8B
331
47E7
  5
47E7
331
4633
  5
4633
331
4672
  5
4672
331
2B92
  5
2B92
331
47EF
  5
47EF
331
463B
  5
463B
331
47F7
  5
47F7
331
4643
  5
4643
331
3DFB
  5
3E91
331
4299
  5
429B
331
47FF
  5
47FF
331
3B95
  5
3C25
331
3F9A
  5
3FB2
331
42A1
  5
42A3
331
457E
  5
4580
331
3E3B
  5
3EE0
331
44A7
  5
44CA
331
4586
  5
4467
331
458E
  5
458E
331
4301
  5
4387
331
44C7
  5
44E1
331
346F
  5
346F
331
3706
  5
3706
331
370E
  5
370E
331
3AD3
  5
3B61
331
B2E
  5
B2E
331
464B
  5
464B
331
2BE2
  5
2BE2
331
C9D
  5
C9D
331
B86
  5
B88
331
47B0
  5
47AE
331
465B
  5
465B
331
4663
  5
4663
331
4458
  5
4459
331
3FFA
  5
4059
331
3C25
  5
3C56
331
4389
  5
3FAF
331
4460
  5
4461
331
44E7
  5
44E9
331
461E
  5
461C
331
43D1
  5
43D1
331
4577
  5
4579
331
3716
  5
3716
331
371E
  5
371E
331
35C7
  5
35C7
331
35CF
  5
35CF
331
389D
  5
389D
331
399C
  5
39B2
331
2BEA
  5
2BEA
331
10BB
  5
10BB
331
466B
  5
466B
331
2C32
  5
2C32
331
47E8
  5
47E8
331
4634
  5
4634
331
2B93
  5
2B93
331
2D91
  5
2D91
331
47F0
  5
47F0
331
463C
  5
463C
331
4468
  5
446A
331
429A
  5
429C
331
47F8
  5
47F8
331
4644
  5
4644
331
3B86
  5
3982
331
457F
  5
4581
331
3C85
  5
3DB6
331
42A2
  5
42A4
331
4587
  5
43DC
331
43F1
  5
4403
331
458F
  5
458F
331
2F79
  5
3139
331
3470
  5
3470
331
3707
  5
3707
331
370F
  5
370F
331
2C5A
  5
2C5A
331
B2F
  5
B2F
331
2BE3
  5
2BE3
331
B87
  5
B89
331
C9E
  5
C9E
331
CB6
  5
CB6
331
465C
  5
465C
331
3D4D
  5
3E3B
331
4451
  5
4453
331
4664
  5
4664
331
44E0
  5
44E2
331
4459
  5
445A
331
3EEC
  5
3B30
331
3C26
  5
3C71
331
4461
  5
4462
331
44E8
  5
44EA
331
3975
  5
389E
331
3717
  5
3717
331
3836
  5
3835
331
371F
  5
371F
331
35C8
  5
35C8
331
35D0
  5
35D0
331
389E
  5
38A0
331
2BEB
  5
2BEB
331
EDD
  5
EDD
331
10BC
  5
10BC
331
B20
  5
B20
331
2D22
  5
2D22
331
466C
  5
466C
331
47E9
  5
47E9
331
2B94
  5
2B94
331
2D92
  5
2D92
331
4635
  5
4635
331
47F1
  5
47F1
331
4792
  5
47B2
331
46B4
  5
46B4
331
463D
  5
463D
331
4469
  5
446B
331
429B
  5
429D
331
4578
  5
457A
331
47F9
  5
47F9
331
4645
  5
4645
331
4580
  5
4582
331
42A3
  5
42FE
331
3C86
  5
3DB7
331
3E2D
  5
3EDA
331
4588
  5
4588
331
3FA4
  5
3FE9
331
35D8
  5
35D8
331
39A5
  5
3AD4
331
37A7
  5
37A7
331
3708
  5
3708
331
3471
  5
3471
331
3B6C
  5
3BAC
331
B30
  5
B30
331
2BE4
  5
2BE4
331
47B2
  5
47B0
331
4665
  5
4665
331
45F8
  5
45EC
331
44E1
  5
44E3
331
445A
  5
445B
331
3C27
  5
3972
331
3DB6
  5
3E3E
331
4462
  5
4463
331
44E9
  5
44EB
331
4571
  5
4573
331
3710
  5
3710
331
3571
  5
3536
331
3718
  5
3718
331
3720
  5
3720
331
35C9
  5
35C9
331
389F
  5
38A8
331
3750
  5
3750
331
2F03
  5
2F03
331
35D1
  5
35D1
331
B88
  5
B8A
331
2BEC
  5
2BEC
331
D0F
  5
D0F
331
10BD
  5
10BD
331
2B8D
  5
2B8D
331
B21
  5
B21
331
E8F
  5
E8F
331
466D
  5
466D
331
4879
  5
4879
331
47EA
  5
47EA
331
2B95
  5
2B95
331
EFE
  5
EFE
331
470C
  5
470C
331
47F2
  5
47F2
331
46B5
  5
46B5
331
463E
  5
463E
331
446A
  5
44A7
331
43DB
  5
43EB
331
429C
  5
429E
331
4579
  5
457B
331
47FA
  5
47FA
331
46CD
  5
46CD
331
4646
  5
4646
331
4581
  5
4583
331
43EB
  5
43FD
331
42A4
  5
4300
331
44B2
  5
44CB
331
3CFF
  5
3E2D
331
4589
  5
4589
331
35D9
  5
35D9
331
37A8
  5
37A8
331
3709
  5
3709
331
3472
  5
3472
331
38B7
  5
3973
331
3B7D
  5
3BD1
331
3967
  5
3992
331
B31
  5
B31
331
2BE5
  5
2BE5
331
4656
  5
4656
331
465E
  5
465E
331
44CA
  5
44E0
331
3EE6
  5
3B28
331
3D4F
  5
3CF5
331
4453
  5
4454
331
4666
  5
4666
331
44E2
  5
44E4
331
3C30
  5
3C84
331
3DB7
  5
3E56
331
445B
  5
445C
331
4463
  5
4464
331
3C50
  5
3C86
331
4394
  5
3F60
331
44EA
  5
44EC
331
4572
  5
4574
331
3711
  5
3711
331
3870
  5
3870
331
3721
  5
3721
331
35CA
  5
35CA
331
35D2
  5
35D2
331
38A0
  5
38B7
331
3B36
  5
3BAB
331
B89
  5
B8B
331
2BED
  5
2BED
331
D10
  5
D10
331
10BE
  5
10BE
331
A9A
  5
A9A
331
462F
  5
462F
331
466E
  5
466E
331
487A
  5
487A
331
B22
  5
B22
331
2B8E
  5
2B8E
331
47EB
  5
47EB
331
4637
  5
4637
331
2B96
  5
2B96
331
3B81
  5
3BAD
331
47F3
  5
47F3
331
46B6
  5
46B6
331
463F
  5
463F
331
429D
  5
429F
331
446B
  5
44C7
331
457A
  5
457C
331
47FB
  5
47FB
331
46CE
  5
46CE
331
4647
  5
4647
331
4582
  5
4584
331
3BA9
  5
3C27
331
3D00
  5
3DF0
331
458A
  5
458A
331
3FAE
  5
3FFA
331
35DA
  5
35DA
331
336B
  5
346D
331
38A8
  5
395C
331
370A
  5
370A
331
3473
  5
3473
331
352B
  5
352B
331
3AE7
  5
3B76
331
B32
  5
B32
331
2BDE
  5
2BDE
331
2BE6
  5
2BE6
331
4657
  5
4657
331
3BB1
  5
3C50
331
465F
  5
465F
331
45F2
  5
461E
331
4454
  5
4455
331
4667
  5
4667
331
44E3
  5
44E5
331
3DF0
  5
3E59
331
445C
  5
445D
331
4296
  5
4298
331
4464
  5
4465
331
44EB
  5
44ED
331
3F5F
  5
3F5F
331
4573
  5
4575
331
3712
  5
3712
331
3344
  5
336B
331
3B1F
  5
3B83
331
3722
  5
3722
331
35CB
  5
35CB
331
35D3
  5
35D3
331
3B5F
  5
3B3A
331
B8A
  5
B8C
331
D11
  5
D11
331
2BEE
  5
2BEE
331
10BF
  5
10BF
331
A9B
  5
A9B
331
47E4
  5
47E4
331
4630
  5
4630
331
466F
  5
466F
331
2B8F
  5
2B8F
331
B23
  5
B23
331
47EC
  5
47EC
331
4638
  5
4638
331
3C71
  5
3D4F
331
47F4
  5
47F4
331
46B7
  5
46B7
331
4640
  5
4640
331
429E
  5
42A0
331
457B
  5
457D
331
47FC
  5
47FC
331
46CF
  5
46CF
331
4583
  5
4586
331
42FE
  5
4301
331
458B
  5
458B
331
43FD
  5
4451
331
35DB
  5
35DB
331
2FD5
  5
2F44
331
3703
  5
3703
331
39B0
  5
3B1F
331
370B
  5
370B
331
3474
  5
3474
331
382A
  5
3837
331
EB9
  5
EB9
  0
XRECORD
  5
4ACE
102
{ACAD_REACTORS
330
4ACD
102
}
330
4ACD
100
AcDbXrecord
280
     1
102
SHADEPLOT
 70
     0
  0
DIMASSOC
  5
EC5
102
{ACAD_REACTORS
330
EC4
102
}
330
EC4
100
AcDbDimAssoc
330
EB9
 90
        3
 70
     0
 71
     0
  1
AcDbOsnapPointRef
 72
     1
331
B84
 73
     2
 91
        2
 40
0.0
 10
0.0
 20
0.0
 30
2.000000000000000E+50
 75
     0
  1
AcDbOsnapPointRef
 72
     1
331
C9D
 73
     2
 91
        2
 40
0.0
 10
0.0
 20
0.0
 30
2.000000000000000E+50
 75
     0
  0
DIMASSOC
  5
EE9
102
{ACAD_REACTORS
330
EE8
102
}
330
EE8
100
AcDbDimAssoc
330
EDD
 90
        3
 70
     0
 71
     0
  1
AcDbOsnapPointRef
 72
     1
331
B84
 73
     2
 91
        1
 40
0.0
 10
0.0
 20
0.0
 30
2.000000000000000E+50
 75
     0
  1
AcDbOsnapPointRef
 72
     1
331
C9C
 73
     2
 91
        1
 40
0.0
 10
0.0
 20
0.0
 30
2.000000000000000E+50
 75
     0
  0
DIMASSOC
  5
2C3E
102
{ACAD_REACTORS
330
2C3D
102
}
330
2C3D
100
AcDbDimAssoc
330
2C32
 90
        3
 70
     0
 71
     0
  1
AcDbOsnapPointRef
 72
     1
331
2BDF
 73
     0
 91
        0
 40
0.0
 10
0.0
 20
0.0
 30
2.000000000000000E+50
 75
     0
  1
AcDbOsnapPointRef
 72
     1
331
2BE4
 73
     0
 91
        0
 40
0.0
 10
0.0
 20
0.0
 30
2.000000000000000E+50
 75
     0
  0
DIMASSOC
  5
2C66
102
{ACAD_REACTORS
330
2C65
102
}
330
2C65
100
AcDbDimAssoc
330
2C5A
 90
        3
 70
     0
 71
     0
  1
AcDbOsnapPointRef
 72
     1
331
2BE4
 73
     0
 91
        0
 40
0.0
 10
0.0
 20
0.0
 30
2.000000000000000E+50
 75
     0
  1
AcDbOsnapPointRef
 72
     1
331
2BEE
 73
     0
 91
        0
 40
0.0
 10
0.0
 20
0.0
 30
2.000000000000000E+50
 75
     0
  0
DIMASSOC
  5
2C82
102
{ACAD_REACTORS
330
2C81
102
}
330
2C81
100
AcDbDimAssoc
330
2C76
 90
        3
 70
     0
 71
     0
  1
AcDbOsnapPointRef
 72
     1
331
2BEE
 73
     0
 91
        0
 40
0.0
 10
0.0
 20
0.0
 30
2.000000000000000E+50
 75
     0
  1
AcDbOsnapPointRef
 72
     1
331
2BE9
 73
     0
 91
        0
 40
0.0
 10
0.0
 20
0.0
 30
2.000000000000000E+50
 75
     0
  0
DIMASSOC
  5
46F4
102
{ACAD_REACTORS
330
46F3
102
}
330
46F3
100
AcDbDimAssoc
330
46E8
 90
        3
 70
     0
 71
     0
  1
AcDbOsnapPointRef
 72
    13
331
346D
 73
     0
 91
        0
 40
0.0
 10
0.0
 20
0.0
 30
2.000000000000000E+50
 75
     0
  1
AcDbOsnapPointRef
 72
     1
331
346F
 73
     0
 91
        0
 40
0.0
 10
0.0
 20
0.0
 30
2.000000000000000E+50
 75
     0
  0
DIMASSOC
  5
4718
102
{ACAD_REACTORS
330
4717
102
}
330
4717
100
AcDbDimAssoc
330
470C
 90
        3
 70
     0
 71
     0
  1
AcDbOsnapPointRef
 72
     1
331
3750
 73
     2
 91
        5
 40
0.0
 10
0.0
 20
0.0
 30
2.000000000000000E+50
 75
     0
  1
AcDbOsnapPointRef
 72
     1
331
3571
 73
     0
 91
        0
 40
0.0
 10
0.0
 20
0.0
 30
2.000000000000000E+50
 75
     0
  0
DIMASSOC
  5
4774
102
{ACAD_REACTORS
330
4773
102
}
330
4773
100
AcDbDimAssoc
330
4768
 90
        3
 70
     0
 71
     0
  1
AcDbOsnapPointRef
 72
     1
331
2F03
 73
     0
 91
        0
 40
0.0
 10
0.0
 20
0.0
 30
2.000000000000000E+50
 75
     0
  1
AcDbOsnapPointRef
 72
    13
331
389F
 73
     0
 91
        0
 40
0.0
 10
0.0
 20
0.0
 30
2.000000000000000E+50
 75
     0
  0
DIMASSOC
  5
479E
102
{ACAD_REACTORS
330
479D
102
}
330
479D
100
AcDbDimAssoc
330
4792
 90
        3
 70
     0
 71
     0
  1
AcDbOsnapPointRef
 72
     1
331
4394
 73
     0
 91
        0
 40
0.0
 10
0.0
 20
0.0
 30
2.000000000000000E+50
 75
     0
  1
AcDbOsnapPointRef
 72
    13
331
3C52
 73
     0
 91
        0
 40
0.0
 10
0.0
 20
0.0
 30
2.000000000000000E+50
 75
     0
  0
DIMASSOC
  5
48FB
102
{ACAD_REACTORS
330
48FA
102
}
330
48FA
100
AcDbDimAssoc
330
48ED
 90
        3
 70
     0
 71
     0
  1
AcDbOsnapPointRef
 72
     5
331
2D91
 73
     2
 91
        2
 40
4.712388980384689
 10
0.0
 20
0.0
 30
0.0
 75
     0
  1
AcDbOsnapPointRef
 72
     8
331
2D91
 73
     2
 91
        5
 40
0.0000000000000219
 10
0.0
 20
0.0
 30
0.0
 75
     1
  1
AcDbOsnapPointRef
 72
     5
331
2D91
 73
     2
 91
        2
 40
4.712388980384689
 10
0.0
 20
0.0
 30
0.0
 75
     0
  0
DIMASSOC
  5
4934
102
{ACAD_REACTORS
330
4933
102
}
330
4933
100
AcDbDimAssoc
330
4926
 90
        3
 70
     0
 71
     0
  1
AcDbOsnapPointRef
 72
     1
331
B2F
 73
     0
 91
        0
 40
0.0
 10
0.0
 20
0.0
 30
2.000000000000000E+50
 75
     0
  1
AcDbOsnapPointRef
 72
     5
331
B32
 73
     0
 91
        0
 40
1.570796326794896
 10
0.0
 20
0.0
 30
0.0
 75
     0
  0
DIMASSOC
  5
496D
102
{ACAD_REACTORS
330
496C
102
}
330
496C
100
AcDbDimAssoc
330
495F
 90
        3
 70
     0
 71
     0
  1
AcDbOsnapPointRef
 72
     1
331
2D91
 73
     2
 91
        6
 40
0.0
 10
0.0
 20
0.0
 30
2.000000000000000E+50
 75
     0
  1
AcDbOsnapPointRef
 72
     8
331
2D91
 73
     2
 91
        3
 40
0.9999999999998104
 10
0.0
 20
0.0
 30
0.0
 75
     1
  1
AcDbOsnapPointRef
 72
     1
331
2D91
 73
     2
 91
        6
 40
0.0
 10
0.0
 20
0.0
 30
2.000000000000000E+50
 75
     0
  0
DIMASSOC
  5
49A4
102
{ACAD_REACTORS
330
49A3
102
}
330
49A3
100
AcDbDimAssoc
330
4998
 90
        3
 70
     0
 71
     0
  1
AcDbOsnapPointRef
 72
     1
331
B32
 73
     0
 91
        0
 40
0.0
 10
0.0
 20
0.0
 30
2.000000000000000E+50
 75
     0
  1
AcDbOsnapPointRef
 72
     5
331
10BD
 73
     0
 91
        0
 40
0.0
 10
0.0
 20
0.0
 30
0.0
 75
     0
  0
DIMASSOC
  5
49EE
102
{ACAD_REACTORS
330
49ED
102
}
330
49ED
100
AcDbDimAssoc
330
49E0
 90
        3
 70
     0
 71
     0
  1
AcDbOsnapPointRef
 72
     1
331
B25
 73
     0
 91
        0
 40
0.0
 10
0.0
 20
0.0
 30
2.000000000000000E+50
 75
     0
  1
AcDbOsnapPointRef
 72
     1
331
B23
 73
     0
 91
        0
 40
0.0
 10
0.0
 20
0.0
 30
2.000000000000000E+50
 75
     0
  0
XRECORD
  5
4AD0
102
{ACAD_REACTORS
330
4ACF
102
}
330
4ACF
100
AcDbXrecord
280
     1
102
SHADEPLOT
 70
     0
  0
LAYOUT
  5
22
102
{ACAD_XDICTIONARY
360
4AC9
102
}
102
{ACAD_REACTORS
330
1A
102
}
330
1A
100
AcDbPlotSettings
  1

  2
RICOH IPSiO CX7200 RPCS
  4
A3
  6
AM_VIEW1
 40
5.873749732971191
 41
5.873747825622558
 42
5.873748779296875
 43
5.873748779296875
 44
296.9259948730469
 45
419.9466552734374
 46
2.589999999999999
 47
4.099999999999999
 48
10.0
 49
0.0
140
410.0
141
280.0
142
1.0
143
1.0
 70
 11956
 72
     1
 73
     1
 74
     4
  7
takachi-2.ctb
 75
    16
147
1.0
148
-10.0
149
0.0
100
AcDbLayout
  1
Model
 70
     1
 71
     0
 10
0.0
 20
0.0
 11
12.0
 21
9.0
 12
0.0
 22
0.0
 32
0.0
 14
0.0
 24
0.0
 34
0.0
 15
0.0
 25
0.0
 35
0.0
146
0.0
 13
0.0
 23
0.0
 33
0.0
 16
1.0
 26
0.0
 36
0.0
 17
0.0
 27
1.0
 37
0.0
 76
     0
330
1F
  0
LAYOUT
  5
1E
102
{ACAD_XDICTIONARY
360
4AC7
102
}
102
{ACAD_REACTORS
330
1A
102
}
330
1A
100
AcDbPlotSettings
  1

  2
none_device
  4
Letter_(8.50_x_11.00_Inches)
  6

 40
6.349999904632568
 41
6.349999904632568
 42
6.350006103515625
 43
6.350006103515625
 44
215.8999938964844
 45
279.3999938964844
 46
0.0
 47
0.0
 48
0.0
 49
0.0
140
0.0
141
0.0
142
1.0
143
1.0
 70
   688
 72
     1
 73
     1
 74
     5
  7
takachi-2.ctb
 75
    16
147
1.0
148
0.0
149
0.0
100
AcDbLayout
  1
レイアウト1
 70
     1
 71
     1
 10
-6.350006103515625
 20
-6.349999904632568
 11
273.0499877929688
 21
209.5499939918518
 12
0.0
 22
0.0
 32
0.0
 14
1.000000000000000E+20
 24
1.000000000000000E+20
 34
1.000000000000000E+20
 15
-1.000000000000000E+20
 25
-1.000000000000000E+20
 35
-1.000000000000000E+20
146
0.0
 13
0.0
 23
0.0
 33
0.0
 16
1.0
 26
0.0
 36
0.0
 17
0.0
 27
1.0
 37
0.0
 76
     0
330
1B
331
178
  0
LAYOUT
  5
26
102
{ACAD_XDICTIONARY
360
4ACB
102
}
102
{ACAD_REACTORS
330
1A
102
}
330
1A
100
AcDbPlotSettings
  1

  2
none_device
  4
Letter_(8.50_x_11.00_Inches)
  6

 40
6.349999904632568
 41
6.349999904632568
 42
6.350006103515625
 43
6.350006103515625
 44
215.8999938964844
 45
279.3999938964844
 46
0.0
 47
0.0
 48
0.0
 49
0.0
140
0.0
141
0.0
142
1.0
143
1.0
 70
   688
 72
     1
 73
     1
 74
     5
  7
takachi-2.ctb
 75
    16
147
1.0
148
0.0
149
0.0
100
AcDbLayout
  1
レイアウト2
 70
     1
 71
     2
 10
-6.350006103515625
 20
-6.349999904632568
 11
273.0499877929688
 21
209.5499939918518
 12
0.0
 22
0.0
 32
0.0
 14
1.000000000000000E+20
 24
1.000000000000000E+20
 34
1.000000000000000E+20
 15
-1.000000000000000E+20
 25
-1.000000000000000E+20
 35
-1.000000000000000E+20
146
0.0
 13
0.0
 23
0.0
 33
0.0
 16
1.0
 26
0.0
 36
0.0
 17
0.0
 27
1.0
 37
0.0
 76
     0
330
23
331
17C
  0
MLINESTYLE
  5
18
102
{ACAD_REACTORS
330
17
102
}
330
17
100
AcDbMlineStyle
  2
STANDARD
 70
     0
  3

 62
   256
 51
90.0
 52
90.0
 71
     2
 49
0.5
 62
   256
  6
BYLAYER
 49
-0.5
 62
   256
  6
BYLAYER
  0
ACDBPLACEHOLDER
  5
F
102
{ACAD_REACTORS
330
E
102
}
330
E
  0
TABLESTYLE
  5
69F
102
{ACAD_REACTORS
330
69E
102
}
330
69E
100
AcDbTableStyle
  3
Standard
 70
     0
 71
     0
 40
1.5
 41
1.5
280
     0
281
     0
  7
STANDARD
140
4.5
170
     2
 62
     0
 63
     7
283
     0
274
    -2
284
     1
 64
     0
275
    -2
285
     1
 65
     0
276
    -2
286
     1
 66
     0
277
    -2
287
     1
 67
     0
278
    -2
288
     1
 68
     0
279
    -2
289
     1
 69
     0
  7
STANDARD
140
6.0
170
     5
 62
     0
 63
     7
283
     0
274
    -2
284
     1
 64
     0
275
    -2
285
     1
 65
     0
276
    -2
286
     1
 66
     0
277
    -2
287
     1
 67
     0
278
    -2
288
     1
 68
     0
279
    -2
289
     1
 69
     0
  7
STANDARD
140
4.5
170
     5
 62
     0
 63
     7
283
     0
274
    -2
284
     1
 64
     0
275
    -2
285
     1
 65
     0
276
    -2
286
     1
 66
     0
277
    -2
287
     1
 67
     0
278
    -2
288
     1
 68
     0
279
    -2
289
     1
 69
     0
  0
DICTIONARYVAR
  5
754
102
{ACAD_REACTORS
330
94
102
}
330
94
100
DictionaryVariables
280
     0
  1
STANDARD
  0
DICTIONARYVAR
  5
96
102
{ACAD_REACTORS
330
94
102
}
330
94
100
DictionaryVariables
280
     0
  1
2
  0
DICTIONARYVAR
  5
95
102
{ACAD_REACTORS
330
94
102
}
330
94
100
DictionaryVariables
280
     0
  1
0
  0
DICTIONARYVAR
  5
4AC3
102
{ACAD_REACTORS
330
94
102
}
330
94
100
DictionaryVariables
280
     0
  1

  0
DICTIONARY
  5
61
102
{ACAD_REACTORS
330
5B
102
}
330
5B
100
AcDbDictionary
281
     1
  0
XRECORD
  5
6AB
102
{ACAD_REACTORS
330
5B
102
}
330
5B
100
AcDbXrecord
280
     1
 90
-1023410169
  0
XRECORD
  5
35F
102
{ACAD_REACTORS
330
35E
102
}
330
35E
100
AcDbXrecord
280
     1
 91
       16
330
1E1
 90
        0
 62
     7
370
    -3
331
16
  1
色_7
330
10
 90
        8
 62
     7
370
    -3
331
16
  1
色_7
  0
DICTIONARY
  5
4AC9
330
22
100
AcDbDictionary
280
     1
281
     1
  3
ACAD_XREC_ROUNDTRIP
360
4ACA
  0
DICTIONARY
  5
4AC7
330
1E
100
AcDbDictionary
280
     1
281
     1
  3
ACAD_XREC_ROUNDTRIP
360
4AC8
  0
DICTIONARY
  5
4ACB
330
26
100
AcDbDictionary
280
     1
281
     1
  3
ACAD_XREC_ROUNDTRIP
360
4ACC
  0
XRECORD
  5
4ACA
102
{ACAD_REACTORS
330
4AC9
102
}
330
4AC9
100
AcDbXrecord
280
     1
102
SHADEPLOT
 70
     0
102
SHADEPLOTRESLEVEL
 70
     2
102
SHADEPLOTCUSTOMDPI
 70
   300
  0
XRECORD
  5
4AC8
102
{ACAD_REACTORS
330
4AC7
102
}
330
4AC7
100
AcDbXrecord
280
     1
102
SHADEPLOT
 70
     1
102
SHADEPLOTRESLEVEL
 70
     2
102
SHADEPLOTCUSTOMDPI
 70
   300
  0
XRECORD
  5
4ACC
102
{ACAD_REACTORS
330
4ACB
102
}
330
4ACB
100
AcDbXrecord
280
     1
102
SHADEPLOT
 70
     1
102
SHADEPLOTRESLEVEL
 70
     2
102
SHADEPLOTCUSTOMDPI
 70
   300
  0
ENDSEC
  0
EOF
