  0
SECTION
  2
HEADER
  9
$ACADVER
  1
AC1015
  9
$ACADMAINTVER
 70
    20
  9
$DWGCODEPAGE
  3
ANSI_932
  9
$INSBASE
 10
0.0
 20
0.0
 30
0.0
  9
$EXTMIN
 10
-0.0245960419711082
 20
-0.0170890614192558
 30
-0.0000000349181948
  9
$EXTMAX
 10
403.0245997953159
 20
280.0170916692019
 30
0.0000000814935746
  9
$LIMMIN
 10
0.0
 20
0.0
  9
$LIMMAX
 10
403.0
 20
280.0000000000001
  9
$ORTHOMODE
 70
     0
  9
$REGENMODE
 70
     1
  9
$FILLMODE
 70
     1
  9
$QTEXTMODE
 70
     0
  9
$MIRRTEXT
 70
     1
  9
$LTSCALE
 40
1.0
  9
$ATTMODE
 70
     1
  9
$TEXTSIZE
 40
73.98571745357912
  9
$TRACEWID
 40
1.0
  9
$TEXTSTYLE
  7
STANDARD
  9
$CLAYER
  8
0
  9
$CELTYPE
  6
ByLayer
  9
$CECOLOR
 62
   256
  9
$CELTSCALE
 40
1.0
  9
$DISPSILH
 70
     0
  9
$DIMSCALE
 40
1.0
  9
$DIMASZ
 40
2.5
  9
$DIMEXO
 40
1.0
  9
$DIMDLI
 40
10.0
  9
$DIMRND
 40
0.0
  9
$DIMDLE
 40
0.0
  9
$DIMEXE
 40
1.0
  9
$DIMTP
 40
0.1
  9
$DIMTM
 40
0.1
  9
$DIMTXT
 40
3.5
  9
$DIMCEN
 40
0.0
  9
$DIMTSZ
 40
0.0
  9
$DIMTOL
 70
     0
  9
$DIMLIM
 70
     0
  9
$DIMTIH
 70
     0
  9
$DIMTOH
 70
     0
  9
$DIMSE1
 70
     0
  9
$DIMSE2
 70
     0
  9
$DIMTAD
 70
     1
  9
$DIMZIN
 70
     8
  9
$DIMBLK
  1
Open30
  9
$DIMASO
 70
     1
  9
$DIMSHO
 70
     1
  9
$DIMPOST
  1

  9
$DIMAPOST
  1
"
  9
$DIMALT
 70
     0
  9
$DIMALTD
 70
     2
  9
$DIMALTF
 40
0.0393701
  9
$DIMLFAC
 40
1.0
  9
$DIMTOFL
 70
     1
  9
$DIMTVP
 40
0.0
  9
$DIMTIX
 70
     0
  9
$DIMSOXD
 70
     0
  9
$DIMSAH
 70
     0
  9
$DIMBLK1
  1

  9
$DIMBLK2
  1

  9
$DIMSTYLE
  2
AM_ISO
  9
$DIMCLRD
 70
   256
  9
$DIMCLRE
 70
   256
  9
$DIMCLRT
 70
     2
  9
$DIMTFAC
 40
0.71
  9
$DIMGAP
 40
1.5
  9
$DIMJUST
 70
     0
  9
$DIMSD1
 70
     0
  9
$DIMSD2
 70
     0
  9
$DIMTOLJ
 70
     0
  9
$DIMTZIN
 70
     8
  9
$DIMALTZ
 70
     0
  9
$DIMALTTZ
 70
     0
  9
$DIMUPT
 70
     0
  9
$DIMDEC
 70
     2
  9
$DIMTDEC
 70
     2
  9
$DIMALTU
 70
     2
  9
$DIMALTTD
 70
     2
  9
$DIMTXSTY
  7
STANDARD
  9
$DIMAUNIT
 70
     0
  9
$DIMADEC
 70
     0
  9
$DIMALTRND
 40
0.0
  9
$DIMAZIN
 70
     2
  9
$DIMDSEP
 70
    46
  9
$DIMATFIT
 70
     3
  9
$DIMFRAC
 70
     0
  9
$DIMLDRBLK
  1
Open30
  9
$DIMLUNIT
 70
     2
  9
$DIMLWD
 70
    -1
  9
$DIMLWE
 70
    -1
  9
$DIMTMOVE
 70
     0
  9
$LUNITS
 70
     2
  9
$LUPREC
 70
     2
  9
$SKETCHINC
 40
1.0
  9
$FILLETRAD
 40
2.5
  9
$AUNITS
 70
     0
  9
$AUPREC
 70
     0
  9
$MENU
  1
.
  9
$ELEVATION
 40
0.0
  9
$PELEVATION
 40
0.0
  9
$THICKNESS
 40
0.0
  9
$LIMCHECK
 70
     0
  9
$CHAMFERA
 40
2.5
  9
$CHAMFERB
 40
2.5
  9
$CHAMFERC
 40
20.0
  9
$CHAMFERD
 40
0.0
  9
$SKPOLY
 70
     0
  9
$TDCREATE
 40
2454594.831105637
  9
$TDUCREATE
 40
2454594.456105636
  9
$TDUPDATE
 40
2455933.720406516
  9
$TDUUPDATE
 40
2455933.345406516
  9
$TDINDWG
 40
0.0544450463
  9
$TDUSRTIMER
 40
0.0544448611
  9
$USRTIMER
 70
     1
  9
$ANGBASE
 50
0.0
  9
$ANGDIR
 70
     0
  9
$PDMODE
 70
     0
  9
$PDSIZE
 40
0.0
  9
$PLINEWID
 40
0.0
  9
$SPLFRAME
 70
     0
  9
$SPLINETYPE
 70
     6
  9
$SPLINESEGS
 70
     8
  9
$HANDSEED
  5
18AB
  9
$SURFTAB1
 70
     6
  9
$SURFTAB2
 70
     6
  9
$SURFTYPE
 70
     6
  9
$SURFU
 70
     6
  9
$SURFV
 70
     6
  9
$UCSBASE
  2

  9
$UCSNAME
  2

  9
$UCSORG
 10
0.0
 20
0.0
 30
0.0
  9
$UCSXDIR
 10
1.0
 20
0.0
 30
0.0
  9
$UCSYDIR
 10
0.0
 20
1.0
 30
0.0
  9
$UCSORTHOREF
  2

  9
$UCSORTHOVIEW
 70
     0
  9
$UCSORGTOP
 10
0.0
 20
0.0
 30
0.0
  9
$UCSORGBOTTOM
 10
0.0
 20
0.0
 30
0.0
  9
$UCSORGLEFT
 10
0.0
 20
0.0
 30
0.0
  9
$UCSORGRIGHT
 10
0.0
 20
0.0
 30
0.0
  9
$UCSORGFRONT
 10
0.0
 20
0.0
 30
0.0
  9
$UCSORGBACK
 10
0.0
 20
0.0
 30
0.0
  9
$PUCSBASE
  2

  9
$PUCSNAME
  2

  9
$PUCSORG
 10
0.0
 20
0.0
 30
0.0
  9
$PUCSXDIR
 10
1.0
 20
0.0
 30
0.0
  9
$PUCSYDIR
 10
0.0
 20
1.0
 30
0.0
  9
$PUCSORTHOREF
  2

  9
$PUCSORTHOVIEW
 70
     0
  9
$PUCSORGTOP
 10
0.0
 20
0.0
 30
0.0
  9
$PUCSORGBOTTOM
 10
0.0
 20
0.0
 30
0.0
  9
$PUCSORGLEFT
 10
0.0
 20
0.0
 30
0.0
  9
$PUCSORGRIGHT
 10
0.0
 20
0.0
 30
0.0
  9
$PUCSORGFRONT
 10
0.0
 20
0.0
 30
0.0
  9
$PUCSORGBACK
 10
0.0
 20
0.0
 30
0.0
  9
$USERI1
 70
     0
  9
$USERI2
 70
     0
  9
$USERI3
 70
     0
  9
$USERI4
 70
     0
  9
$USERI5
 70
     0
  9
$USERR1
 40
0.0
  9
$USERR2
 40
0.0
  9
$USERR3
 40
0.0
  9
$USERR4
 40
0.0
  9
$USERR5
 40
0.0
  9
$WORLDVIEW
 70
     1
  9
$SHADEDGE
 70
     3
  9
$SHADEDIF
 70
    70
  9
$TILEMODE
 70
     1
  9
$MAXACTVP
 70
    64
  9
$PINSBASE
 10
0.0
 20
0.0
 30
0.0
  9
$PLIMCHECK
 70
     0
  9
$PEXTMIN
 10
1.000000000000000E+20
 20
1.000000000000000E+20
 30
1.000000000000000E+20
  9
$PEXTMAX
 10
-1.000000000000000E+20
 20
-1.000000000000000E+20
 30
-1.000000000000000E+20
  9
$PLIMMIN
 10
-6.350006103515625
 20
-6.349999904632568
  9
$PLIMMAX
 10
273.0499877929688
 20
209.5499939918518
  9
$UNITMODE
 70
     0
  9
$VISRETAIN
 70
     1
  9
$PLINEGEN
 70
     0
  9
$PSLTSCALE
 70
     1
  9
$TREEDEPTH
 70
  3020
  9
$CMLSTYLE
  2
Standard
  9
$CMLJUST
 70
     0
  9
$CMLSCALE
 40
20.0
  9
$PROXYGRAPHICS
 70
     1
  9
$MEASUREMENT
 70
     1
  9
$CELWEIGHT
370
    -1
  9
$ENDCAPS
280
     0
  9
$JOINSTYLE
280
     0
  9
$LWDISPLAY
290
     0
  9
$INSUNITS
 70
     4
  9
$HYPERLINKBASE
  1

  9
$STYLESHEET
  1
takachi-1.ctb
  9
$XEDIT
290
     1
  9
$CEPSNTYPE
380
     0
  9
$PSTYLEMODE
290
     1
  9
$FINGERPRINTGUID
  2
{FDEAD578-A652-11D2-9A35-0060089B3A3F}
  9
$VERSIONGUID
  2
{B75CB97E-2194-451E-859B-9E8C859D559A}
  9
$EXTNAMES
290
     1
  9
$PSVPSCALE
 40
0.0
  9
$OLESTARTUP
290
     0
  0
ENDSEC
  0
SECTION
  2
CLASSES
  0
CLASS
  1
ACDBDICTIONARYWDFLT
  2
AcDbDictionaryWithDefault
  3
ObjectDBX Classes
 90
        0
280
     0
281
     0
  0
CLASS
  1
ACDBPLACEHOLDER
  2
AcDbPlaceHolder
  3
ObjectDBX Classes
 90
        0
280
     0
281
     0
  0
CLASS
  1
LAYOUT
  2
AcDbLayout
  3
ObjectDBX Classes
 90
        0
280
     0
281
     0
  0
CLASS
  1
ACME_DOCUMENT
  2
AcMeDbDoc
  3
AcMeServices
 90
     1024
280
     0
281
     0
  0
CLASS
  1
AMGSETTINGSOBJ
  2
AmgSettingsObj
  3
"AcadM|Product Description: AutoCAD Mechanical|Company: Autodesk, Inc."
 90
     1024
280
     0
281
     0
  0
CLASS
  1
ACMESCOPE
  2
AcMeScope
  3
AcMeServices
 90
     1024
280
     0
281
     0
  0
CLASS
  1
ACMECOMMANDHISTORY
  2
AcMeCommandHistory
  3
AcMeServices
 90
     1024
280
     0
281
     0
  0
CLASS
  1
ACIMSYSVARMAN
  2
AcImSysVarManager
  3
AcMeServices
 90
     1024
280
     0
281
     0
  0
CLASS
  1
ACIMREALSYSVAR
  2
AcImRealSysVar
  3
AcMeServices
 90
     1024
280
     0
281
     0
  0
CLASS
  1
ACIMINTSYSVAR
  2
AcImIntSysVar
  3
AcMeServices
 90
     1024
280
     0
281
     0
  0
CLASS
  1
ACMEDRAWINGMAN
  2
AcMeDrawingMan
  3
AcMeServices
 90
     1024
280
     0
281
     0
  0
CLASS
  1
ACMEVIEW
  2
AcMeView
  3
AcMeServices
 90
     1024
280
     0
281
     0
  0
CLASS
  1
ACDBENTITYCACHE
  2
AcMeEntityCache
  3
AcMeServices
 90
     1024
280
     0
281
     0
  0
CLASS
  1
GSMANAGER
  2
AcMeGSManager
  3
AcMeServices
 90
    32768
280
     0
281
     0
  0
CLASS
  1
AMDTINTERNALREACTOR
  2
AmdtInternalReactor
  3
AcMeServices
 90
     1024
280
     0
281
     0
  0
CLASS
  1
ACMESTATEMGR
  2
AcMeStateMgr
  3
AcMeServices
 90
     1024
280
     0
281
     0
  0
CLASS
  1
ACGREFMASTER
  2
AcGrefMaster
  3
AcAttribServices
 90
     1024
280
     0
281
     0
  0
CLASS
  1
ACME_DATABASE
  2
AcMeDbDatabase
  3
AcMeServices
 90
     1024
280
     0
281
     0
  0
CLASS
  1
ACRFINSADJUSTERMGR
  2
AcRfInsAdjusterMgr
  3
AcMeServices
 90
     1024
280
     0
281
     0
  0
CLASS
  1
ACGREFACADMASTER
  2
AcGrefacadMaster
  3
AcGrefServices
 90
     1024
280
     0
281
     0
  0
CLASS
  1
AMIMASTER
  2
AmiMaster
  3
AmiServices
 90
     1024
280
     0
281
     0
  0
CLASS
  1
ACMDATADICTIONARY
  2
AcmDataDictionary
  3
"AcmSymBB|Product Description: AutoCAD Mechanical|Company: Autodesk, Inc."
 90
     1024
280
     0
281
     0
  0
CLASS
  1
ACMDATAENTRYBLOCK
  2
AcmDataEntryBlock
  3
AcmSymBB|Product Description: AutoCAD Mechanical|Company: Autodesk, Inc.
 90
     1024
280
     0
281
     0
  0
CLASS
  1
ACIMSTRSYSVAR
  2
AcImStrSysVar
  3
AcMeServices
 90
     1024
280
     0
281
     0
  0
CLASS
  1
ACMSTANDARDISO
  2
AcmStandardISO
  3
"Amdt_StdImp|Product Description: AutoCAD Mechanical|Company: Autodesk, Inc."
 90
     1024
280
     0
281
     0
  0
CLASS
  1
AMGOBJPROPCFG
  2
AmgObjPropCfg
  3
"AmgLay|Product Description: AutoCAD Mechanical|Company: Autodesk, Inc."
 90
     1025
280
     0
281
     0
  0
CLASS
  1
AMDTEDGESTANDARDISO
  2
AmdtEdgeStdISO
  3
"Amdt_StdImp|Product Description: AutoCAD Mechanical|Company: Autodesk, Inc."
 90
     1024
280
     0
281
     0
  0
CLASS
  1
ACMSURFSTANDARDISO
  2
AcmSurfTextStdISO
  3
"Amdt_StdImp|Product Description: AutoCAD Mechanical|Company: Autodesk, Inc."
 90
     1024
280
     0
281
     0
  0
CLASS
  1
ACMFCFSTANDARDISO
  2
AcmFCFStdISO
  3
"Amdt_StdImp|Product Description: AutoCAD Mechanical|Company: Autodesk, Inc."
 90
     1024
280
     0
281
     0
  0
CLASS
  1
ACMWELDSTANDARDISO
  2
AcmWeldingStdISO
  3
"Amdt_StdImp|Product Description: AutoCAD Mechanical|Company: Autodesk, Inc."
 90
     1024
280
     0
281
     0
  0
CLASS
  1
ACMIDSTANDARDISO
  2
AcmIdStdISO
  3
"Amdt_StdImp|Product Description: AutoCAD Mechanical|Company: Autodesk, Inc."
 90
     1024
280
     0
281
     0
  0
CLASS
  1
ACMDATUMSTANDARDISO
  2
AcmDatumStdISO
  3
"Amdt_StdImp|Product Description: AutoCAD Mechanical|Company: Autodesk, Inc."
 90
     1024
280
     0
281
     0
  0
CLASS
  1
ACMBOMSTANDARDISO
  2
AcmBOMStdISO
  3
"Amdt_StdImp|Product Description: AutoCAD Mechanical|Company: Autodesk, Inc."
 90
     1024
280
     0
281
     0
  0
CLASS
  1
ACMDETAILSTANDARDISO
  2
AmdtDetailSymStdISO
  3
"Amdt_StdImp|Product Description: AutoCAD Mechanical|Company: Autodesk, Inc."
 90
     1024
280
     0
281
     0
  0
CLASS
  1
ACMSECTIONSTANDARDISO
  2
AmdtSectionSymStdISO
  3
"Amdt_StdImp|Product Description: AutoCAD Mechanical|Company: Autodesk, Inc."
 90
     1024
280
     0
281
     0
  0
CLASS
  1
ACMCENTERLINESTANDARDISO
  2
AmdtCenterLineStdISO
  3
"Amdt_StdImp|Product Description: AutoCAD Mechanical|Company: Autodesk, Inc."
 90
     1024
280
     0
281
     0
  0
CLASS
  1
ACMNOTESTANDARDISO
  2
AmdtNoteStdISO
  3
"Amdt_StdImp|Product Description: AutoCAD Mechanical|Company: Autodesk, Inc."
 90
     1024
280
     0
281
     0
  0
CLASS
  1
ACAMGLAYSTD
  2
AcAmgLayStd
  3
"AmgLay|Product Description: AutoCAD Mechanical|Company: Autodesk, Inc."
 90
     1024
280
     0
281
     0
  0
CLASS
  1
ACAMGDIMSTD
  2
AcAmgDimStd
  3
"AmgDim|Product Description: AutoCAD Mechanical|Company: Autodesk, Inc."
 90
     1024
280
     0
281
     0
  0
CLASS
  1
ACAMGHOLECHARTSTDISO
  2
AcAmgHoleChartStdISO
  3
AmgDim|Product Description: AutoCAD Mechanical|Company: Autodesk, Inc.
 90
     1024
280
     0
281
     0
  0
CLASS
  1
ACAMGTITLESTD
  2
AcAmgTitleStd
  3
"AmgTitle|Product Description: AutoCAD Mechanical|Company: Autodesk, Inc."
 90
     4095
280
     0
281
     0
  0
CLASS
  1
LAYER_INDEX
  2
AcDbLayerIndex
  3
ObjectDBX Classes
 90
    32768
280
     0
281
     0
  0
CLASS
  1
IDBUFFER
  2
AcDbIdBuffer
  3
ObjectDBX Classes
 90
    32768
280
     0
281
     0
  0
CLASS
  1
DICTIONARYVAR
  2
AcDbDictionaryVar
  3
ObjectDBX Classes
 90
        0
280
     0
281
     0
  0
CLASS
  1
AM_DRAWING_MGR
  2
AcDmDwgMgr
  3
AcMechDwgViewMgmt
 90
     1024
280
     0
281
     0
  0
CLASS
  1
AM_DWG_DOCUMENT
  2
AcDmDwgDocument
  3
AcMechDwgViewMgmt
 90
     1024
280
     0
281
     0
  0
CLASS
  1
AM_DWG_SHEET
  2
AcDmSheet
  3
AcMechDwgViewMgmt
 90
     1024
280
     0
281
     0
  0
CLASS
  1
AM_VIEWDIMPARMAP
  2
AcDmViewDimParMap
  3
AcMechDwgViewMgmt
 90
     1024
280
     0
281
     0
  0
CLASS
  1
AM_DWGMGR_NAME
  2
AcDmDwgMgrName
  3
AcMechDwgViewMgmt
 90
     1024
280
     0
281
     0
  0
CLASS
  1
AMDTMENUSTATEMGR
  2
AmdtMenuStateMgr
  3
McadcomServices
 90
     1024
280
     0
281
     0
  0
CLASS
  1
AMDTMCOMMENUSTATE
  2
AmdtMcomMenuState
  3
McadcomServices
 90
     1024
280
     0
281
     0
  0
CLASS
  1
MAPIAMMOUDLE
  2
MApiAmModule
  3
MApiAmServices
 90
     1024
280
     0
281
     0
  0
CLASS
  1
AMDTADMENUSTATE
  2
AmdtAdMenuState
  3
DesignerServices
 90
    32768
280
     0
281
     0
  0
CLASS
  1
ADAPPL
  2
AcAdAppl
  3
DesignerAssemblies
 90
     1024
280
     0
281
     0
  0
CLASS
  1
DEPMGR
  2
AcAdDepMgr
  3
DesignerAssemblies
 90
     1024
280
     0
281
     0
  0
CLASS
  1
PARAMMGR
  2
AcAdParamMgr
  3
DesignerAssemblies
 90
     1024
280
     0
281
     0
  0
CLASS
  1
PARAMSCOPE
  2
AcAdParamScope
  3
DesignerAssemblies
 90
     1024
280
     0
281
     0
  0
CLASS
  1
NAMEDAPPL
  2
AcAdNamedAppl
  3
DesignerAssemblies
 90
     1024
280
     0
281
     0
  0
CLASS
  1
AMDTDMMENUSTATE
  2
AmdtDmMenuState
  3
AcMechDwgViewMgmt
 90
     1024
280
     0
281
     0
  0
CLASS
  1
AMDTAMMENUSTATE
  2
AmdtAmMenuState
  3
DesignerAssemblies
 90
     1024
280
     0
281
     0
  0
CLASS
  1
ACAMPROJECT
  2
AcAmProject
  3
DesignerAssemblies
 90
     1024
280
     0
281
     0
  0
CLASS
  1
ACAMGRCOMPDEF
  2
AcAmGrCompDef
  3
DesignerAssemblies
 90
     1024
280
     0
281
     0
  0
CLASS
  1
ACCMCONTEXT
  2
AcCmContext
  3
DesignerAssemblies
 90
     1024
280
     0
281
     0
  0
CLASS
  1
ACAMCOMPDEF
  2
AcAmCompDef
  3
DesignerAssemblies
 90
     1024
280
     0
281
     0
  0
CLASS
  1
ACAMCOMPDEFMGR
  2
AcAmCompDefMgr
  3
DesignerAssemblies
 90
     1024
280
     0
281
     0
  0
CLASS
  1
AMCONTEXTMGR
  2
AcAmContextMgr
  3
DesignerAssemblies
 90
     1024
280
     0
281
     0
  0
CLASS
  1
ACAMCONTEXTMODELER
  2
AcAmContextModeler
  3
DesignerAssemblies
 90
     1024
280
     0
281
     0
  0
CLASS
  1
ACMTHREADLINESTANDARDISO
  2
AmdtThreadLineStdISO
  3
"Amdt_StdImp|Product Description: AutoCAD Mechanical|Company: Autodesk, Inc."
 90
     1024
280
     0
281
     0
  0
CLASS
  1
CATALOGSTATE
  2
AcAmCatalogState
  3
DesignerAssemblies
 90
     1024
280
     0
281
     0
  0
CLASS
  1
ACAMGRCOMPDEFSET
  2
AcAmGrCompDefSet
  3
DesignerAssemblies
 90
     1024
280
     0
281
     0
  0
CLASS
  1
AMDTBROWSERDBTAB
  2
AmdtBrowserDbTab
  3
McadcomServices
 90
     1024
280
     0
281
     0
  0
CLASS
  1
CBROWSERAPPOBJECT
  2
CBrowserAppObject
  3
McadcomServices
 90
     1024
280
     0
281
     0
  0
CLASS
  1
DM_PLACEHOLDER
  2
AcDmSelsetPlaceholder
  3
AcMechDwgViewMgmt
 90
     1024
280
     0
281
     0
  0
CLASS
  1
AMDTNOTETEMPLATEDB
  2
AmdtNoteTemplateDB
  3
AcmSymBB|Product Description: AutoCAD Mechanical|Company: Autodesk, Inc.
 90
     1024
280
     0
281
     0
  0
CLASS
  1
ACAMGFILTERDAT
  2
AcAmgFilterDat
  3
"AcadM|Product Description: AutoCAD Mechanical|Company: Autodesk, Inc."
 90
     1024
280
     0
281
     0
  0
CLASS
  1
AMDTNOTE
  2
AmdtNote
  3
"AcmSymBB|Product Description: AutoCAD Mechanical|Company: Autodesk, Inc."
 90
    36863
280
     0
281
     1
  0
CLASS
  1
AMDTFORMULAUPDATEDISPATCHER
  2
AmdtFormulaUpdateDispatcher
  3
AcMeServices
 90
     1024
280
     0
281
     0
  0
CLASS
  1
AMDTSECTIONSYM
  2
AmdtSectionSym
  3
"AcmSymBB|Product Description: AutoCAD Mechanical|Company: Autodesk, Inc."
 90
    36863
280
     0
281
     1
  0
CLASS
  1
AMDTSECTIONSYMLABEL
  2
AmdtSectionSymLabel
  3
"AcmSymBB|Product Description: AutoCAD Mechanical|Company: Autodesk, Inc."
 90
    36863
280
     0
281
     1
  0
CLASS
  1
AMDTDETAILSYM
  2
AmdtDetailSym
  3
"AcmSymBB|Product Description: AutoCAD Mechanical|Company: Autodesk, Inc."
 90
    36863
280
     0
281
     1
  0
CLASS
  1
AMDTDETAILSYMLABEL
  2
AmdtDetailSymLabel
  3
"AcmSymBB|Product Description: AutoCAD Mechanical|Company: Autodesk, Inc."
 90
    36863
280
     0
281
     1
  0
CLASS
  1
DIMASSOC
  2
AcDbDimAssoc
  3
"AcDbDimAssoc|Product Desc:     AcDim ARX App For Dimension|Company:          Autodesk, Inc.|WEB Address:      www.autodesk.com"
 90
        0
280
     0
281
     0
  0
CLASS
  1
MATERIAL
  2
AcDbMaterial
  3
ObjectDBX Classes
 90
     1153
280
     0
281
     0
  0
CLASS
  1
VISUALSTYLE
  2
AcDbVisualStyle
  3
ObjectDBX Classes
 90
     4095
280
     0
281
     0
  0
CLASS
  1
TABLESTYLE
  2
AcDbTableStyle
  3
ObjectDBX Classes
 90
     4095
280
     0
281
     0
  0
CLASS
  1
SCALE
  2
AcDbScale
  3
ObjectDBX Classes
 90
     1153
280
     0
281
     0
  0
CLASS
  1
MLEADERSTYLE
  2
AcDbMLeaderStyle
  3
ACDB_MLEADERSTYLE_CLASS
 90
     4095
280
     0
281
     0
  0
CLASS
  1
ACRFATTGENMGR
  2
AcRfAttGeneralMgr
  3
AcAttribServices
 90
     1024
280
     0
281
     0
  0
CLASS
  1
ACRFOBJATTMGR
  2
AcRfObjAttGroupMgr
  3
AcAttribServices
 90
     1024
280
     0
281
     0
  0
CLASS
  1
ACRFMCADAPIATTHOLDER
  2
AcRfMCADAPIAttHolder
  3
AcAttribServices
 90
     1024
280
     0
281
     0
  0
CLASS
  1
AMDTSYSATTR
  2
AmdtSystemAttribute
  3
AcAttribServices
 90
     1024
280
     0
281
     0
  0
CLASS
  1
ACMTAPERSTANDARDISO
  2
AcmTaperStdISO
  3
"Amdt_StdImp|Product Description: AutoCAD Mechanical|Company: Autodesk, Inc."
 90
     1024
280
     0
281
     0
  0
CLASS
  1
ACMANOOTATIONVIEWSTANDARDISO
  2
AmdtAnViewStdISO
  3
"Amdt_StdImp|Product Description: AutoCAD Mechanical|Company: Autodesk, Inc."
 90
     1024
280
     0
281
     0
  0
CLASS
  1
EXACXREFPANELOBJECT
  2
ExAcXREFPanelObject
  3
EXAC_ESW
 90
    33793
280
     0
281
     0
  0
CLASS
  1
NPOCOLLECTION
  2
AcDbImpNonPersistentObjectsCollection
  3
ObjectDBX Classes
 90
    33921
280
     0
281
     0
  0
CLASS
  1
SORTENTSTABLE
  2
AcDbSortentsTable
  3
ObjectDBX Classes
 90
        0
280
     0
281
     0
  0
CLASS
  1
CELLSTYLEMAP
  2
AcDbCellStyleMap
  3
ObjectDBX Classes
 90
     1152
280
     0
281
     0
  0
CLASS
  1
VAACXREFPANELOBJECT
  2
VaAcXREFPanelObject
  3
VAAC_ADDIN
 90
    32768
280
     0
281
     0
  0
CLASS
  1
VAACIMAGEINVENTORY
  2
VaAcImageInventory
  3
VAAC_ADDIN
 90
    32768
280
     0
281
     0
  0
ENDSEC
  0
SECTION
  2
TABLES
  0
TABLE
  2
VPORT
  5
8
102
{ACAD_XDICTIONARY
360
DF0
102
}
330
0
100
AcDbSymbolTable
 70
     1
  0
VPORT
  5
1839
330
8
100
AcDbSymbolTableRecord
100
AcDbViewportTableRecord
  2
*Active
 70
     0
 10
0.0
 20
0.0
 11
1.0
 21
1.0
 12
201.5000018766724
 22
140.0000013038913
 13
0.0
 23
0.0
 14
2.5
 24
2.5
 15
10.0
 25
10.0
 16
0.0
 26
0.0
 36
1.0
 17
0.0
 27
0.0
 37
0.0
 40
281.8197334239089
 41
1.614893617021276
 42
50.0
 43
0.0
 44
0.0
 50
0.0
 51
0.0
 71
    16
 72
   100
 73
     1
 74
     3
 75
     0
 76
     0
 77
     0
 78
     0
281
     0
 65
     1
110
0.0
120
0.0
130
0.0
111
1.0
121
0.0
131
0.0
112
0.0
122
1.0
132
0.0
 79
     0
146
0.0
  0
ENDTAB
  0
TABLE
  2
LTYPE
  5
5
330
0
100
AcDbSymbolTable
 70
    20
  0
LTYPE
  5
14
330
5
100
AcDbSymbolTableRecord
100
AcDbLinetypeTableRecord
  2
ByBlock
 70
     0
  3

 72
    65
 73
     0
 40
0.0
  0
LTYPE
  5
15
330
5
100
AcDbSymbolTableRecord
100
AcDbLinetypeTableRecord
  2
ByLayer
 70
     0
  3

 72
    65
 73
     0
 40
0.0
  0
LTYPE
  5
16
330
5
100
AcDbSymbolTableRecord
100
AcDbLinetypeTableRecord
  2
Continuous
 70
     0
  3
Solid line
 72
    65
 73
     0
 40
0.0
  0
LTYPE
  5
64
330
5
100
AcDbSymbolTableRecord
100
AcDbLinetypeTableRecord
  2
AM_ISO02W050
 70
     0
  3
__ __ __ __ __ __ __ __ __ __ __ __ __ __ __
 72
    65
 73
     2
 40
7.5
 49
6.0
 74
     0
 49
-1.5
 74
     0
  0
LTYPE
  5
65
330
5
100
AcDbSymbolTableRecord
100
AcDbLinetypeTableRecord
  2
AM_ISO08W050
 70
     0
  3
____ . ____ . ____ . ____ . ____ . ____ . ____
 72
    65
 73
     4
 40
18.0
 49
12.0
 74
     0
 49
-1.5
 74
     0
 49
3.0
 74
     0
 49
-1.5
 74
     0
  0
LTYPE
  5
66
330
5
100
AcDbSymbolTableRecord
100
AcDbLinetypeTableRecord
  2
AM_ISO09W050
 70
     0
  3
_____ . . _____ . . _____ . . ____ .. ____
 72
    65
 73
     6
 40
22.5
 49
12.0
 74
     0
 49
-1.5
 74
     0
 49
3.0
 74
     0
 49
-1.5
 74
     0
 49
3.0
 74
     0
 49
-1.5
 74
     0
  0
LTYPE
  5
67
330
5
100
AcDbSymbolTableRecord
100
AcDbLinetypeTableRecord
  2
Amconstr
 70
     0
  3
_______________________
 72
    65
 73
     2
 40
9999.0
 49
9999.0
 74
     0
 49
0.0
 74
     0
  0
LTYPE
  5
68
330
5
100
AcDbSymbolTableRecord
100
AcDbLinetypeTableRecord
  2
AM_ISO08W050x2
 70
     0
  3
__ . __ . __ . __ . __ . __
 72
    65
 73
     4
 40
9.0
 49
6.0
 74
     0
 49
-0.75
 74
     0
 49
1.5
 74
     0
 49
-0.75
 74
     0
  0
LTYPE
  5
69
330
5
100
AcDbSymbolTableRecord
100
AcDbLinetypeTableRecord
  2
AM_ISO02W050x2
 70
     0
  3
 _ _ _ _ _ _ _ _ _ _ _ _
 72
    65
 73
     2
 40
3.75
 49
3.0
 74
     0
 49
-0.75
 74
     0
  0
LTYPE
  5
6C
330
5
100
AcDbSymbolTableRecord
100
AcDbLinetypeTableRecord
  2
Amzigzag
 70
     0
  3
/\/-/\/-/\/-/\/-/\/-/\/
 72
    65
 73
     2
 40
11.0001
 49
0.0001
 74
     4
 75
   135
340
6B
 46
0.04
 50
0.0
 44
0.0
 45
0.0
 49
-11.0
 74
     0
  0
LTYPE
  5
7A
330
5
100
AcDbSymbolTableRecord
100
AcDbLinetypeTableRecord
  2
ACISOWELD
 70
     0
  3
_ _ _ _ _
 72
    65
 73
     2
 40
2.0
 49
2.0
 74
     0
 49
-1.0
 74
     0
  0
LTYPE
  5
7B
330
5
100
AcDbSymbolTableRecord
100
AcDbLinetypeTableRecord
  2
ACISOTGB
 70
     0
  3
__ . . __ . .
 72
    65
 73
     6
 40
9.0
 49
4.0
 74
     0
 49
-1.0
 74
     0
 49
1.0
 74
     0
 49
-1.0
 74
     0
 49
1.0
 74
     0
 49
-1.0
 74
     0
  0
LTYPE
  5
7C
330
5
100
AcDbSymbolTableRecord
100
AcDbLinetypeTableRecord
  2
ACISOTGL
 70
     0
  3
_ _ _ _ _
 72
    65
 73
     2
 40
3.0
 49
2.0
 74
     0
 49
-1.0
 74
     0
  0
LTYPE
  5
7E
330
5
100
AcDbSymbolTableRecord
100
AcDbLinetypeTableRecord
  2
CENTER
 70
     0
  3
__ . __
 72
    65
 73
     4
 40
7.0
 49
4.0
 74
     0
 49
-1.0
 74
     0
 49
1.0
 74
     0
 49
-1.0
 74
     0
  0
LTYPE
  5
D8
330
5
100
AcDbSymbolTableRecord
100
AcDbLinetypeTableRecord
  2
HIDDEN
 70
     0
  3
Hidden __ __ __ __ __ __ __ __ __ __ __ __ __ _
 72
    65
 73
     2
 40
9.524999999999998
 49
6.349999999999999
 74
     0
 49
-3.174999999999999
 74
     0
  0
LTYPE
  5
D9
330
5
100
AcDbSymbolTableRecord
100
AcDbLinetypeTableRecord
  2
PHANTOM2
 70
     0
  3
Phantom (.5x) ___ _ _ ___ _ _ ___ _ _ ___ _ _
 72
    65
 73
     6
 40
31.75
 49
15.875
 74
     0
 49
-3.174999999999999
 74
     0
 49
3.174999999999999
 74
     0
 49
-3.174999999999999
 74
     0
 49
3.174999999999999
 74
     0
 49
-3.174999999999999
 74
     0
  0
LTYPE
  5
5ED
330
5
100
AcDbSymbolTableRecord
100
AcDbLinetypeTableRecord
  2
gen3
 70
     0
  3
-- -- -- -- -- -- -- -- -- -- -- -- -- -- --
 72
    65
 73
     2
 40
6.25
 49
4.75
 74
     0
 49
-1.5
 74
     0
  0
LTYPE
  5
5EE
330
5
100
AcDbSymbolTableRecord
100
AcDbLinetypeTableRecord
  2
gen7
 70
     0
  3
____ . ____ . ____ . ____ . ____ . ____ . ____
 72
    65
 73
     4
 40
13.75
 49
9.75
 74
     0
 49
-1.5
 74
     0
 49
1.0
 74
     0
 49
-1.5
 74
     0
  0
LTYPE
  5
5EF
330
5
100
AcDbSymbolTableRecord
100
AcDbLinetypeTableRecord
  2
gen3a
 70
     0
  3
 - - - - -
 72
    65
 73
     2
 40
3.125
 49
2.25
 74
     0
 49
-0.875
 74
     0
  0
LTYPE
  5
5F0
330
5
100
AcDbSymbolTableRecord
100
AcDbLinetypeTableRecord
  2
gen7a
 70
     0
  3
__ . __ . __
 72
    65
 73
     4
 40
6.875
 49
4.75
 74
     0
 49
-0.875
 74
     0
 49
0.375
 74
     0
 49
-0.875
 74
     0
  0
LTYPE
  5
5F1
330
5
100
AcDbSymbolTableRecord
100
AcDbLinetypeTableRecord
  2
gen4a
 70
     0
  3
_____ . . _____ . . _____ . . ____ .. ____
 72
    65
 73
     6
 40
16.25
 49
9.75
 74
     0
 49
-1.5
 74
     0
 49
1.0
 74
     0
 49
-1.5
 74
     0
 49
1.0
 74
     0
 49
-1.5
 74
     0
  0
LTYPE
  5
5F2
330
5
100
AcDbSymbolTableRecord
100
AcDbLinetypeTableRecord
  2
genzigzag
 70
     0
  3
/\/-/\/-/\/-/\/-/\/-/\/
 72
    65
 73
     2
 40
12.0001
 49
0.0001
 74
     4
 75
   135
340
6B
 46
2.0
 50
0.0
 44
0.0
 45
0.0
 49
-12.0
 74
     0
  0
ENDTAB
  0
TABLE
  2
LAYER
  5
2
102
{ACAD_XDICTIONARY
360
35D
102
}
330
0
100
AcDbSymbolTable
 70
    25
  0
LAYER
  5
10
102
{ACAD_XDICTIONARY
360
DCF
102
}
330
2
100
AcDbSymbolTableRecord
100
AcDbLayerTableRecord
  2
0
 70
     0
 62
     7
  6
Continuous
370
    -3
390
F
  0
LAYER
  5
1E1
330
2
100
AcDbSymbolTableRecord
100
AcDbLayerTableRecord
  2
Defpoints
 70
     0
 62
     7
  6
Continuous
290
     0
370
    -3
390
F
  0
LAYER
  5
518
102
{ACAD_XDICTIONARY
360
DD1
102
}
330
2
100
AcDbSymbolTableRecord
100
AcDbLayerTableRecord
  2
上側
 70
     0
 62
     7
  6
Continuous
370
    25
390
F
  0
LAYER
  5
519
102
{ACAD_XDICTIONARY
360
DD3
102
}
330
2
100
AcDbSymbolTableRecord
100
AcDbLayerTableRecord
  2
上側0
 70
     0
 62
     7
  6
AM_ISO02W050x2
370
    13
390
F
  0
LAYER
  5
51A
102
{ACAD_XDICTIONARY
360
DD5
102
}
330
2
100
AcDbSymbolTableRecord
100
AcDbLayerTableRecord
  2
下側
 70
     0
 62
     2
  6
Continuous
370
    25
390
F
  0
LAYER
  5
51B
102
{ACAD_XDICTIONARY
360
DD7
102
}
330
2
100
AcDbSymbolTableRecord
100
AcDbLayerTableRecord
  2
ｶﾞｽｹｯﾄ
 70
     0
 62
     5
  6
Continuous
370
    25
390
F
  0
LAYER
  5
51C
102
{ACAD_XDICTIONARY
360
DD9
102
}
330
2
100
AcDbSymbolTableRecord
100
AcDbLayerTableRecord
  2
下側0
 70
     0
 62
     2
  6
AM_ISO02W050x2
370
    13
390
F
  0
LAYER
  5
5E3
102
{ACAD_XDICTIONARY
360
DDB
102
}
330
2
100
AcDbSymbolTableRecord
100
AcDbLayerTableRecord
  2
AM_7
 70
     0
 62
     4
  6
AM_ISO08W050
370
    13
390
F
  0
LAYER
  5
5E4
102
{ACAD_XDICTIONARY
360
DDD
102
}
330
2
100
AcDbSymbolTableRecord
100
AcDbLayerTableRecord
  2
AM_5
 70
     0
 62
     3
  6
Continuous
370
    13
390
F
  0
LAYER
  5
60F
102
{ACAD_XDICTIONARY
360
DDF
102
}
330
2
100
AcDbSymbolTableRecord
100
AcDbLayerTableRecord
  2
7A
 70
     0
 62
     4
  6
gen7a
370
    -3
390
F
  0
LAYER
  5
610
102
{ACAD_XDICTIONARY
360
DE1
102
}
330
2
100
AcDbSymbolTableRecord
100
AcDbLayerTableRecord
  2
RAHM2
 70
     0
 62
     1
  6
Continuous
370
    -3
390
F
  0
LAYER
  5
CA4
102
{ACAD_XDICTIONARY
360
DE3
102
}
330
2
100
AcDbSymbolTableRecord
100
AcDbLayerTableRecord
  2
AM_CL
 70
     0
 62
     1
  6
Amconstr
370
    25
390
F
  0
LAYER
  5
DB4
102
{ACAD_XDICTIONARY
360
DE5
102
}
330
2
100
AcDbSymbolTableRecord
100
AcDbLayerTableRecord
  2
AM_0
 70
     0
 62
     7
  6
Continuous
370
    50
390
F
1001
AcAecLayerStandard
1000

1000

  0
LAYER
  5
DB7
102
{ACAD_XDICTIONARY
360
DE7
102
}
330
2
100
AcDbSymbolTableRecord
100
AcDbLayerTableRecord
  2
AM_4
 70
     0
 62
     3
  6
Continuous
370
    25
390
F
1001
AcAecLayerStandard
1000

1000

  0
LAYER
  5
DBA
102
{ACAD_XDICTIONARY
360
DE9
102
}
330
2
100
AcDbSymbolTableRecord
100
AcDbLayerTableRecord
  2
AM_8
 70
     0
 62
     1
  6
Continuous
370
    25
390
F
1001
AcAecLayerStandard
1000

1000

  0
LAYER
  5
DC9
102
{ACAD_XDICTIONARY
360
DEB
102
}
330
2
100
AcDbSymbolTableRecord
100
AcDbLayerTableRecord
  2
AM_6
 70
     0
 62
     2
  6
Continuous
370
    35
390
F
1001
AcAecLayerStandard
1000

1000

  0
LAYER
  5
FC6
330
2
100
AcDbSymbolTableRecord
100
AcDbLayerTableRecord
  2
TK1
 70
     0
 62
     7
  6
Continuous
370
    25
390
F
  0
LAYER
  5
FC7
330
2
100
AcDbSymbolTableRecord
100
AcDbLayerTableRecord
  2
TK10
 70
     0
 62
     7
  6
AM_ISO02W050x2
370
    13
390
F
  0
LAYER
  5
FC8
330
2
100
AcDbSymbolTableRecord
100
AcDbLayerTableRecord
  2
TK2
 70
     0
 62
     2
  6
Continuous
370
    25
390
F
  0
LAYER
  5
FC9
330
2
100
AcDbSymbolTableRecord
100
AcDbLayerTableRecord
  2
TK3
 70
     0
 62
     5
  6
Continuous
370
    25
390
F
  0
LAYER
  5
FCA
330
2
100
AcDbSymbolTableRecord
100
AcDbLayerTableRecord
  2
TK20
 70
     0
 62
     2
  6
AM_ISO02W050x2
370
    13
390
F
  0
LAYER
  5
FCB
330
2
100
AcDbSymbolTableRecord
100
AcDbLayerTableRecord
  2
TK4
 70
     0
 62
     3
  6
Continuous
370
    25
390
F
  0
LAYER
  5
FCC
330
2
100
AcDbSymbolTableRecord
100
AcDbLayerTableRecord
  2
TK6
 70
     0
 62
     6
  6
Continuous
370
    25
390
F
  0
LAYER
  5
FCD
330
2
100
AcDbSymbolTableRecord
100
AcDbLayerTableRecord
  2
TK40
 70
     0
 62
     3
  6
AM_ISO02W050x2
370
    13
390
F
  0
LAYER
  5
FCE
330
2
100
AcDbSymbolTableRecord
100
AcDbLayerTableRecord
  2
TK60
 70
     0
 62
     6
  6
AM_ISO02W050x2
370
    13
390
F
  0
ENDTAB
  0
TABLE
  2
STYLE
  5
3
330
0
100
AcDbSymbolTable
 70
     5
  0
STYLE
  5
11
330
3
100
AcDbSymbolTableRecord
100
AcDbTextStyleTableRecord
  2
STANDARD
 70
     0
 40
0.0
 41
1.0
 50
0.0
 71
     0
 42
73.98571745357912
  3
ISOCP.SHX
  4
bigfont.shx
  0
STYLE
  5
6B
330
3
100
AcDbSymbolTableRecord
100
AcDbTextStyleTableRecord
  2

 70
     1
 40
0.0
 41
1.0
 50
0.0
 71
     0
 42
2.5
  3
ltypeshp.shx
  4

  0
STYLE
  5
6D
330
3
100
AcDbSymbolTableRecord
100
AcDbTextStyleTableRecord
  2
ACISOTS
 70
     0
 40
1.0
 41
1.0
 50
0.0
 71
     0
 42
2.5
  3
isocp.shx
  4
extfont.shx
  0
STYLE
  5
79
330
3
100
AcDbSymbolTableRecord
100
AcDbTextStyleTableRecord
  2
ACISOGDT
 70
     0
 40
0.0
 41
1.0
 50
0.0
 71
     0
 42
2.5
  3
amgdt.shx
  4

  0
STYLE
  5
612
330
3
100
AcDbSymbolTableRecord
100
AcDbTextStyleTableRecord
  2

 70
     1
 40
0.0
 41
1.0
 50
0.0
 71
     0
 42
3.0
  3
genltshp.shx
  4

  0
ENDTAB
  0
TABLE
  2
VIEW
  5
6
330
0
100
AcDbSymbolTable
 70
     6
  0
VIEW
  5
291
330
6
100
AcDbSymbolTableRecord
100
AcDbViewTableRecord
  2
AM_VIEW1
 70
     0
 40
140.0
 10
103.7546012269939
 20
210.0
 41
207.5092024539878
 11
0.0
 21
0.0
 31
1.0
 12
0.0
 22
0.0
 32
0.0
 42
50.0
 43
0.0
 44
0.0
 50
0.0
 71
    16
281
     0
 72
     0
  0
VIEW
  5
292
330
6
100
AcDbSymbolTableRecord
100
AcDbViewTableRecord
  2
AM_VIEW2
 70
     0
 40
140.0
 10
299.2453987730061
 20
210.0
 41
207.5092024539878
 11
0.0
 21
0.0
 31
1.0
 12
0.0
 22
0.0
 32
0.0
 42
50.0
 43
0.0
 44
0.0
 50
0.0
 71
    16
281
     0
 72
     0
  0
VIEW
  5
293
330
6
100
AcDbSymbolTableRecord
100
AcDbViewTableRecord
  2
AM_VIEW3
 70
     0
 40
140.0
 10
103.7546012269939
 20
70.00000000000001
 41
207.5092024539878
 11
0.0
 21
0.0
 31
1.0
 12
0.0
 22
0.0
 32
0.0
 42
50.0
 43
0.0
 44
0.0
 50
0.0
 71
    16
281
     0
 72
     0
  0
VIEW
  5
294
330
6
100
AcDbSymbolTableRecord
100
AcDbViewTableRecord
  2
AM_VIEW4
 70
     0
 40
140.0
 10
299.2453987730061
 20
70.00000000000001
 41
207.5092024539878
 11
0.0
 21
0.0
 31
1.0
 12
0.0
 22
0.0
 32
0.0
 42
50.0
 43
0.0
 44
0.0
 50
0.0
 71
    16
281
     0
 72
     0
  0
VIEW
  5
295
330
6
100
AcDbSymbolTableRecord
100
AcDbViewTableRecord
  2
AM_VIEW5
 70
     0
 40
140.0
 10
201.5
 20
140.0
 41
207.5092024539878
 11
0.0
 21
0.0
 31
1.0
 12
0.0
 22
0.0
 32
0.0
 42
50.0
 43
0.0
 44
0.0
 50
0.0
 71
    16
281
     0
 72
     0
  0
VIEW
  5
296
330
6
100
AcDbSymbolTableRecord
100
AcDbViewTableRecord
  2
AM_VIEW6
 70
     0
 40
279.9972000000001
 10
201.5
 20
140.0
 41
415.0142547239266
 11
0.0
 21
0.0
 31
1.0
 12
0.0
 22
0.0
 32
0.0
 42
50.0
 43
0.0
 44
0.0
 50
0.0
 71
    16
281
     0
 72
     0
  0
ENDTAB
  0
TABLE
  2
UCS
  5
7
330
0
100
AcDbSymbolTable
 70
     0
  0
ENDTAB
  0
TABLE
  2
APPID
  5
9
330
0
100
AcDbSymbolTable
 70
    39
  0
APPID
  5
12
330
9
100
AcDbSymbolTableRecord
100
AcDbRegAppTableRecord
  2
ACAD
 70
     0
  0
APPID
  5
46
330
9
100
AcDbSymbolTableRecord
100
AcDbRegAppTableRecord
  2
MCAD_NO_VIS
 70
     0
  0
APPID
  5
47
330
9
100
AcDbSymbolTableRecord
100
AcDbRegAppTableRecord
  2
ACAD_TEMP_GRAPHIC
 70
     0
  0
APPID
  5
58
330
9
100
AcDbSymbolTableRecord
100
AcDbRegAppTableRecord
  2
ACATTRIBSERVICES
 70
     0
  0
APPID
  5
EE
330
9
100
AcDbSymbolTableRecord
100
AcDbRegAppTableRecord
  2
AD_DRAW
 70
     0
  0
APPID
  5
10C
330
9
100
AcDbSymbolTableRecord
100
AcDbRegAppTableRecord
  2
DESIGNERASSEMBLIES
 70
     0
  0
APPID
  5
111
330
9
100
AcDbSymbolTableRecord
100
AcDbRegAppTableRecord
  2
ACADM_DIM_EDIT
 70
     0
  0
APPID
  5
112
330
9
100
AcDbSymbolTableRecord
100
AcDbRegAppTableRecord
  2
AMDT_DM_ADJ
 70
     0
  0
APPID
  5
1E2
330
9
100
AcDbSymbolTableRecord
100
AcDbRegAppTableRecord
  2
GENIUS_GENREC_14
 70
     0
  0
APPID
  5
1E3
330
9
100
AcDbSymbolTableRecord
100
AcDbRegAppTableRecord
  2
GENIUS_GENODEF_13
 70
     0
  0
APPID
  5
1E4
330
9
100
AcDbSymbolTableRecord
100
AcDbRegAppTableRecord
  2
GENIUS_GENOBJ-N-REC_13
 70
     0
  0
APPID
  5
1E5
330
9
100
AcDbSymbolTableRecord
100
AcDbRegAppTableRecord
  2
GENIUS_GENDIMSH_14
 70
     0
  0
APPID
  5
1E6
330
9
100
AcDbSymbolTableRecord
100
AcDbRegAppTableRecord
  2
GENIUS_GENCFG_13
 70
     0
  0
APPID
  5
1E7
330
9
100
AcDbSymbolTableRecord
100
AcDbRegAppTableRecord
  2
GENIUS_GENCFG0_13
 70
     0
  0
APPID
  5
1E8
330
9
100
AcDbSymbolTableRecord
100
AcDbRegAppTableRecord
  2
GENIUS_GENCFG1_13
 70
     0
  0
APPID
  5
1E9
330
9
100
AcDbSymbolTableRecord
100
AcDbRegAppTableRecord
  2
GENIUS_GENCFG2_13
 70
     0
  0
APPID
  5
1EA
330
9
100
AcDbSymbolTableRecord
100
AcDbRegAppTableRecord
  2
GENIUS_GENCFG3_13
 70
     0
  0
APPID
  5
1EB
330
9
100
AcDbSymbolTableRecord
100
AcDbRegAppTableRecord
  2
GENIUS_GENCFG4_13
 70
     0
  0
APPID
  5
1EC
330
9
100
AcDbSymbolTableRecord
100
AcDbRegAppTableRecord
  2
GENIUS_GEVCFG0_13
 70
     0
  0
APPID
  5
1ED
330
9
100
AcDbSymbolTableRecord
100
AcDbRegAppTableRecord
  2
GENIUS_GENOENT_13
 70
     0
  0
APPID
  5
1EE
330
9
100
AcDbSymbolTableRecord
100
AcDbRegAppTableRecord
  2
GENIUS_GENOBJ-N-CRS_13
 70
     0
  0
APPID
  5
1EF
330
9
100
AcDbSymbolTableRecord
100
AcDbRegAppTableRecord
  2
GENIUS_GENOREF_13
 70
     0
  0
APPID
  5
1F0
330
9
100
AcDbSymbolTableRecord
100
AcDbRegAppTableRecord
  2
GENIUS_GENOLIS_13
 70
     0
  0
APPID
  5
1F1
330
9
100
AcDbSymbolTableRecord
100
AcDbRegAppTableRecord
  2
GENIUS_GENOBJ-N-TIT_13
 70
     0
  0
APPID
  5
1F2
330
9
100
AcDbSymbolTableRecord
100
AcDbRegAppTableRecord
  2
GENIUS_GENTITLE_13
 70
     0
  0
APPID
  5
1F3
330
9
100
AcDbSymbolTableRecord
100
AcDbRegAppTableRecord
  2
GENIUS_GENSCREG_15
 70
     0
  0
APPID
  5
1F4
330
9
100
AcDbSymbolTableRecord
100
AcDbRegAppTableRecord
  2
GENIUS_GENOBJ-N-SDF_13
 70
     0
  0
APPID
  5
1F5
330
9
100
AcDbSymbolTableRecord
100
AcDbRegAppTableRecord
  2
GENIUS_GENOBJ-N-CEN_13
 70
     0
  0
APPID
  5
1F6
330
9
100
AcDbSymbolTableRecord
100
AcDbRegAppTableRecord
  2
GENIUS_GENOBJ-N-HTC_13
 70
     0
  0
APPID
  5
1F7
330
9
100
AcDbSymbolTableRecord
100
AcDbRegAppTableRecord
  2
GENIUS_GENHATCH_13
 70
     0
  0
APPID
  5
484
330
9
100
AcDbSymbolTableRecord
100
AcDbRegAppTableRecord
  2
GENIUS_GENOBJ-N-ZOO_13
 70
     0
  0
APPID
  5
485
330
9
100
AcDbSymbolTableRecord
100
AcDbRegAppTableRecord
  2
GENIUS_GENZOO_17
 70
     0
  0
APPID
  5
782
330
9
100
AcDbSymbolTableRecord
100
AcDbRegAppTableRecord
  2
GENIUS_GENOBJ-N-FIL_13
 70
     0
  0
APPID
  5
D3C
330
9
100
AcDbSymbolTableRecord
100
AcDbRegAppTableRecord
  2
GENIUS_GENDTOL_13
 70
     0
  0
APPID
  5
D8B
330
9
100
AcDbSymbolTableRecord
100
AcDbRegAppTableRecord
  2
ACAD_MLEADERVER
 70
     0
  0
APPID
  5
DB5
330
9
100
AcDbSymbolTableRecord
100
AcDbRegAppTableRecord
  2
AcAecLayerStandard
 70
     0
  0
APPID
  5
DCA
330
9
100
AcDbSymbolTableRecord
100
AcDbRegAppTableRecord
  2
ACAD_EXEMPT_FROM_CAD_STANDARDS
 70
     0
  0
APPID
  5
DCE
330
9
100
AcDbSymbolTableRecord
100
AcDbRegAppTableRecord
  2
GENIUS_AMGTXT_16
 70
     0
  0
APPID
  5
FCF
330
9
100
AcDbSymbolTableRecord
100
AcDbRegAppTableRecord
  2
GENIUS_GENCEN_19
 70
     0
  0
ENDTAB
  0
TABLE
  2
DIMSTYLE
  5
A
330
0
100
AcDbSymbolTable
 70
    16
100
AcDbDimStyleTable
 71
     1
340
81
  0
DIMSTYLE
105
81
102
{ACAD_REACTORS
330
91F
330
923
330
926
330
93C
330
93F
330
942
330
945
102
}
330
A
100
AcDbSymbolTableRecord
100
AcDbDimStyleTableRecord
  2
AM_ISO
 70
     0
  4
"
 41
2.5
 42
1.0
 43
10.0
 44
1.0
 47
0.1
 48
0.1
 73
     0
 74
     0
 77
     1
 78
     8
 79
     2
140
3.5
141
0.0
143
0.0393701
146
0.71
147
1.5
172
     1
176
   256
177
   256
178
     2
271
     2
272
     2
283
     0
284
     8
340
11
341
407
342
407
371
    -1
372
    -1
  0
DIMSTYLE
105
82
102
{ACAD_REACTORS
330
938
102
}
330
A
100
AcDbSymbolTableRecord
100
AcDbDimStyleTableRecord
  2
AM_ISO$3
 70
     0
  4
"
 41
2.5
 42
1.0
 43
10.0
 44
1.0
 47
0.1
 48
0.1
 73
     0
 77
     1
 78
     8
 79
     2
140
3.5
141
0.0
143
0.0393701
146
0.71
147
1.5
176
   256
177
   256
178
     2
271
     2
272
     2
283
     0
284
     8
288
     1
289
     0
340
11
341
407
342
407
371
    -1
372
    -1
  0
DIMSTYLE
105
83
102
{ACAD_REACTORS
330
93B
102
}
330
A
100
AcDbSymbolTableRecord
100
AcDbDimStyleTableRecord
  2
AM_ISO$4
 70
     0
  4
"
 41
2.5
 42
1.0
 43
10.0
 44
1.0
 47
0.1
 48
0.1
 73
     0
 77
     1
 78
     8
 79
     2
140
3.5
141
0.0
143
0.0393701
146
0.71
147
1.5
176
   256
177
   256
178
     2
271
     2
272
     2
283
     0
284
     8
288
     1
289
     0
340
11
341
407
342
407
371
    -1
372
    -1
  0
DIMSTYLE
105
84
330
A
100
AcDbSymbolTableRecord
100
AcDbDimStyleTableRecord
  2
AM_ISO$6
 70
     0
  4
"
 41
2.5
 42
1.0
 43
10.0
 44
1.0
 47
0.1
 48
0.1
 73
     0
 74
     0
 78
     8
 79
     2
140
3.5
141
0.0
143
0.0393701
146
0.71
147
1.5
172
     1
176
   256
177
   256
178
     2
271
     2
272
     2
283
     0
284
     8
340
11
341
407
342
407
371
    -1
372
    -1
  0
DIMSTYLE
105
85
330
A
100
AcDbSymbolTableRecord
100
AcDbDimStyleTableRecord
  2
AM_ISO$7
 70
     0
  4
"
 41
2.5
 42
1.0
 43
10.0
 44
1.0
 47
0.1
 48
0.1
 73
     0
 74
     0
 77
     1
 78
     8
 79
     2
140
5.0
141
0.0
143
0.0393701
146
0.71
147
1.5
172
     1
176
   256
177
   256
178
     2
271
     2
272
     2
283
     0
284
     8
340
11
341
407
342
407
371
    -1
372
    -1
  0
DIMSTYLE
105
86
330
A
100
AcDbSymbolTableRecord
100
AcDbDimStyleTableRecord
  2
AM_ISO$SF
 70
     0
  4
"
 41
2.5
 42
1.0
 43
10.0
 44
1.0
 47
0.1
 48
0.1
 73
     0
 74
     0
 75
     1
 76
     1
 77
     1
 78
     8
 79
     2
140
3.5
141
0.0
143
0.0393701
146
0.71
147
1.5
172
     1
176
   256
177
   256
178
     2
271
     2
272
     2
283
     0
284
     8
340
11
341
407
342
407
371
    -1
372
    -1
  0
DIMSTYLE
105
8B
330
A
100
AcDbSymbolTableRecord
100
AcDbDimStyleTableRecord
  2
AM_ISO$SH
 70
     0
  4
"
 41
2.5
 42
1.0
 43
10.0
 44
1.0
 47
0.1
 48
0.1
 73
     0
 74
     0
 75
     1
 76
     1
 77
     1
 78
     8
 79
     2
140
3.5
141
0.0
143
0.0393701
144
2.0
146
0.71
147
1.5
172
     1
173
     1
176
   256
177
   256
178
     2
271
     2
272
     2
283
     0
284
     8
340
11
341
407
343
87
344
407
371
    -1
372
    -1
  0
DIMSTYLE
105
5F3
330
A
100
AcDbSymbolTableRecord
100
AcDbDimStyleTableRecord
  2
GEN-ISO
 70
     0
  4
"
 41
2.5
 42
1.0
 43
10.0
 44
1.0
 47
0.1
 48
0.1
 73
     0
 74
     0
 77
     1
 78
     8
140
3.5
141
0.0
143
0.0393701
146
0.71
147
1.5
172
     1
176
   256
177
   256
178
     2
271
     2
272
     3
274
     4
283
     0
340
11
  0
DIMSTYLE
105
5F4
330
A
100
AcDbSymbolTableRecord
100
AcDbDimStyleTableRecord
  2
GEN-ISO$3
 70
     0
  4
"
 41
2.5
 42
1.0
 43
10.0
 44
1.0
 47
0.1
 48
0.1
 73
     0
 77
     1
 78
     8
140
3.5
141
0.0
143
0.0393701
146
0.71
147
1.5
176
   256
177
   256
178
     2
271
     2
272
     3
274
     4
283
     0
288
     1
289
     0
340
11
  0
DIMSTYLE
105
5F5
330
A
100
AcDbSymbolTableRecord
100
AcDbDimStyleTableRecord
  2
GEN-ISO$4
 70
     0
  4
"
 41
2.5
 42
1.0
 43
10.0
 44
1.0
 47
0.1
 48
0.1
 73
     0
 77
     1
 78
     8
140
3.5
141
0.0
143
0.0393701
146
0.71
147
1.5
176
   256
177
   256
178
     2
271
     2
272
     3
274
     4
283
     0
288
     1
289
     0
340
11
  0
DIMSTYLE
105
5F6
330
A
100
AcDbSymbolTableRecord
100
AcDbDimStyleTableRecord
  2
GEN-ISO$6
 70
     0
  4
"
 41
2.5
 42
1.0
 43
10.0
 44
1.0
 47
0.1
 48
0.1
 73
     0
 74
     0
 78
     8
140
3.5
141
0.0
143
0.0393701
146
0.71
147
1.5
176
   256
177
   256
178
     2
271
     2
272
     3
274
     4
283
     0
340
11
  0
DIMSTYLE
105
5F7
330
A
100
AcDbSymbolTableRecord
100
AcDbDimStyleTableRecord
  2
GEN-ISO-POS
 70
     0
  4
"
 41
2.5
 42
1.0
 43
10.0
 44
1.0
 47
0.1
 48
0.1
 73
     0
 74
     0
 78
     8
140
5.0
141
0.0
143
0.0393701
146
0.71
147
1.5
176
   256
177
   256
178
     2
271
     2
272
     3
274
     4
283
     0
340
11
  0
DIMSTYLE
105
5F8
330
A
100
AcDbSymbolTableRecord
100
AcDbDimStyleTableRecord
  2
GEN-ISO-AXE-F
 70
     0
  4
"
 41
2.5
 42
1.0
 43
10.0
 44
1.0
 47
0.1
 48
0.1
 73
     0
 74
     0
 75
     1
 76
     1
 77
     1
 78
     8
140
3.5
141
0.0
143
0.0393701
146
0.71
147
1.5
172
     1
176
   256
177
   256
178
     2
271
     2
272
     3
274
     4
283
     0
340
11
  0
DIMSTYLE
105
5F9
330
A
100
AcDbSymbolTableRecord
100
AcDbDimStyleTableRecord
  2
GEN-ISO-AXE-H
 70
     0
  4
"
 41
2.5
 42
1.0
 43
10.0
 44
1.0
 47
0.1
 48
0.1
 73
     0
 74
     0
 75
     1
 76
     1
 77
     1
 78
     8
140
3.5
141
0.0
143
0.0393701
144
2.0
146
0.71
147
1.5
172
     1
173
     1
176
   256
177
   256
178
     2
271
     2
272
     3
274
     4
283
     0
340
11
  0
DIMSTYLE
105
B87
330
A
100
AcDbSymbolTableRecord
100
AcDbDimStyleTableRecord
  2
AM_ANSI
 70
     0
  4
mm
 41
0.1
 42
0.05
 43
0.5
 44
0.1
 47
0.1
 48
0.1
 78
     7
 79
     2
140
0.12
141
0.0
146
0.71
147
0.06
176
   256
177
   256
178
     2
274
     4
284
     7
340
11
371
    -1
372
    -1
  0
DIMSTYLE
105
E69
102
{ACAD_REACTORS
330
91F
330
923
330
926
330
93C
330
93F
330
942
330
945
330
EA9
330
16EE
330
1736
330
1770
330
17A9
330
17DC
330
1804
102
}
330
A
100
AcDbSymbolTableRecord
100
AcDbDimStyleTableRecord
  2
AM_ISO$0
 70
     0
  4
"
 41
2.5
 42
1.0
 43
10.0
 44
1.0
 47
0.1
 48
0.1
 73
     0
 74
     0
 77
     1
 78
     8
 79
     2
140
3.5
141
0.0
143
0.0393701
146
0.71
147
1.5
172
     1
176
   256
177
   256
178
     2
271
     2
272
     2
283
     0
284
     8
340
11
341
407
342
407
371
    -1
372
    -1
  0
ENDTAB
  0
TABLE
  2
BLOCK_RECORD
  5
1
330
0
100
AcDbSymbolTable
 70
    24
  0
BLOCK_RECORD
  5
1F
102
{ACAD_XDICTIONARY
360
8F
102
}
330
1
100
AcDbSymbolTableRecord
100
AcDbBlockTableRecord
  2
*Model_Space
340
22
  0
BLOCK_RECORD
  5
23
330
1
100
AcDbSymbolTableRecord
100
AcDbBlockTableRecord
  2
*Paper_Space
340
26
  0
BLOCK_RECORD
  5
1B
330
1
100
AcDbSymbolTableRecord
100
AcDbBlockTableRecord
  2
*Paper_Space0
340
1E
  0
BLOCK_RECORD
  5
87
330
1
100
AcDbSymbolTableRecord
100
AcDbBlockTableRecord
  2
GENAXEH
340
0
  0
BLOCK_RECORD
  5
407
330
1
100
AcDbSymbolTableRecord
100
AcDbBlockTableRecord
  2
_Open30
340
0
102
{BLKREFS
331
CA9
331
CAA
331
CB2
331
CB3
331
CBB
331
CBC
331
CC4
331
CC5
331
CCC
331
CD7
331
E95
331
EB9
331
EBA
331
1630
331
1631
331
163A
331
163B
331
1643
331
1644
331
1717
331
1718
331
175A
331
175B
331
1794
331
1795
331
17C7
331
17C8
331
17EA
331
17EB
331
1832
331
1833
102
}
  0
BLOCK_RECORD
  5
5FA
102
{ACAD_XDICTIONARY
360
603
102
}
330
1
100
AcDbSymbolTableRecord
100
AcDbBlockTableRecord
  2
TAKACHI-A3
340
0
  0
BLOCK_RECORD
  5
613
102
{ACAD_XDICTIONARY
360
668
102
}
330
1
100
AcDbSymbolTableRecord
100
AcDbBlockTableRecord
  2
TAKACHI-TITLE
340
0
  0
BLOCK_RECORD
  5
A7E
330
1
100
AcDbSymbolTableRecord
100
AcDbBlockTableRecord
  2
*D6
340
0
  0
BLOCK_RECORD
  5
ADB
330
1
100
AcDbSymbolTableRecord
100
AcDbBlockTableRecord
  2
*D7
340
0
  0
BLOCK_RECORD
  5
AE7
330
1
100
AcDbSymbolTableRecord
100
AcDbBlockTableRecord
  2
*D8
340
0
  0
BLOCK_RECORD
  5
AF3
330
1
100
AcDbSymbolTableRecord
100
AcDbBlockTableRecord
  2
*D9
340
0
  0
BLOCK_RECORD
  5
AFF
330
1
100
AcDbSymbolTableRecord
100
AcDbBlockTableRecord
  2
*D10
340
0
  0
BLOCK_RECORD
  5
B0D
330
1
100
AcDbSymbolTableRecord
100
AcDbBlockTableRecord
  2
*D11
340
0
  0
BLOCK_RECORD
  5
B19
330
1
100
AcDbSymbolTableRecord
100
AcDbBlockTableRecord
  2
*D12
340
0
  0
BLOCK_RECORD
  5
B25
330
1
100
AcDbSymbolTableRecord
100
AcDbBlockTableRecord
  2
*D13
340
0
  0
BLOCK_RECORD
  5
B31
330
1
100
AcDbSymbolTableRecord
100
AcDbBlockTableRecord
  2
*D14
340
0
  0
BLOCK_RECORD
  5
B88
102
{ACAD_XDICTIONARY
360
B90
102
}
330
1
100
AcDbSymbolTableRecord
100
AcDbBlockTableRecord
  2
TK-A3
340
0
102
{BLKREFS
331
B99
102
}
  0
BLOCK_RECORD
  5
B9B
102
{ACAD_XDICTIONARY
360
BF4
102
}
330
1
100
AcDbSymbolTableRecord
100
AcDbBlockTableRecord
  2
TK-TITLE
340
0
102
{BLKREFS
331
BF8
102
}
  0
BLOCK_RECORD
  5
EAA
330
1
100
AcDbSymbolTableRecord
100
AcDbBlockTableRecord
  2
*D17
340
0
  0
BLOCK_RECORD
  5
16EF
330
1
100
AcDbSymbolTableRecord
100
AcDbBlockTableRecord
  2
*D18
340
0
  0
BLOCK_RECORD
  5
1737
330
1
100
AcDbSymbolTableRecord
100
AcDbBlockTableRecord
  2
*D19
340
0
  0
BLOCK_RECORD
  5
1771
330
1
100
AcDbSymbolTableRecord
100
AcDbBlockTableRecord
  2
*D20
340
0
  0
BLOCK_RECORD
  5
17AA
330
1
100
AcDbSymbolTableRecord
100
AcDbBlockTableRecord
  2
*D21
340
0
  0
BLOCK_RECORD
  5
17DD
330
1
100
AcDbSymbolTableRecord
100
AcDbBlockTableRecord
  2
*D22
340
0
  0
BLOCK_RECORD
  5
1805
330
1
100
AcDbSymbolTableRecord
100
AcDbBlockTableRecord
  2
*D23
340
0
  0
ENDTAB
  0
ENDSEC
  0
SECTION
  2
BLOCKS
  0
BLOCK
  5
20
330
1F
100
AcDbEntity
  8
0
100
AcDbBlockBegin
  2
*Model_Space
 70
     0
 10
0.0
 20
0.0
 30
0.0
  3
*Model_Space
  1

  0
ENDBLK
  5
21
330
1F
100
AcDbEntity
  8
0
100
AcDbBlockEnd
  0
BLOCK
  5
24
330
23
100
AcDbEntity
 67
     1
  8
0
100
AcDbBlockBegin
  2
*Paper_Space
 70
     0
 10
0.0
 20
0.0
 30
0.0
  3
*Paper_Space
  1

  0
ENDBLK
  5
25
330
23
100
AcDbEntity
 67
     1
  8
0
100
AcDbBlockEnd
  0
BLOCK
  5
1C
330
1B
100
AcDbEntity
 67
     1
  8
0
100
AcDbBlockBegin
  2
*Paper_Space0
 70
     0
 10
0.0
 20
0.0
 30
0.0
  3
*Paper_Space0
  1

  0
VIEWPORT
  5
178
102
{ACAD_XDICTIONARY
360
186D
102
}
330
1B
100
AcDbEntity
 67
     1
  8
0
100
AcDbViewport
 10
133.3499908447265
 20
101.5999970436096
 30
0.0
 40
370.2266912936524
 41
228.4221935424805
 68
     0
 69
     0
 12
133.3499908447265
 22
101.5999970436096
 13
0.0
 23
0.0
 14
10.0
 24
10.0
 15
10.0
 25
10.0
 16
0.0
 26
0.0
 36
1.0
 17
0.0
 27
0.0
 37
0.0
 42
50.0
 43
0.0
 44
0.0
 45
228.4221935424805
 50
0.0
 51
0.0
 72
   100
 90
    32800
  1

281
     0
 71
     1
 74
     0
110
0.0
120
0.0
130
0.0
111
1.0
121
0.0
131
0.0
112
0.0
122
1.0
132
0.0
 79
     0
146
0.0
  0
ENDBLK
  5
1D
330
1B
100
AcDbEntity
 67
     1
  8
0
100
AcDbBlockEnd
  0
BLOCK
  5
89
330
87
100
AcDbEntity
  8
0
100
AcDbBlockBegin
  2
GENAXEH
 70
     0
 10
0.0
 20
0.0
 30
0.0
  3
GENAXEH
  1

  0
LINE
  5
88
330
87
100
AcDbEntity
  8
0
100
AcDbLine
 10
-1.0
 20
0.0
 30
0.0
 11
1.0
 21
0.0
 31
0.0
  0
ENDBLK
  5
8A
330
87
100
AcDbEntity
  8
0
100
AcDbBlockEnd
  0
BLOCK
  5
40B
330
407
100
AcDbEntity
  8
0
100
AcDbBlockBegin
  2
_Open30
 70
     0
 10
0.0
 20
0.0
 30
0.0
  3
_Open30
  1

  0
LINE
  5
408
330
407
100
AcDbEntity
  8
0
  6
ByBlock
 62
     0
370
    -2
100
AcDbLine
 10
-1.0
 20
0.26794919
 30
0.0
 11
0.0
 21
0.0
 31
0.0
  0
LINE
  5
409
330
407
100
AcDbEntity
  8
0
  6
ByBlock
 62
     0
370
    -2
100
AcDbLine
 10
0.0
 20
0.0
 30
0.0
 11
-1.0
 21
-0.26794919
 31
0.0
  0
LINE
  5
40A
330
407
100
AcDbEntity
  8
0
  6
ByBlock
 62
     0
370
    -2
100
AcDbLine
 10
0.0
 20
0.0
 30
0.0
 11
-1.0
 21
0.0
 31
0.0
  0
ENDBLK
  5
40C
330
407
100
AcDbEntity
  8
0
100
AcDbBlockEnd
  0
BLOCK
  5
604
330
5FA
100
AcDbEntity
  8
0
100
AcDbBlockBegin
  2
TAKACHI-A3
 70
     0
 10
0.0
 20
0.0
 30
0.0
  3
TAKACHI-A3
  1

  0
LWPOLYLINE
  5
5FB
330
5FA
100
AcDbEntity
  8
0
100
AcDbPolyline
 90
        4
 70
     1
 43
0.0
 10
10.0
 20
0.0
 10
410.0
 20
0.0
 10
410.0
 20
280.0
 10
10.00000000000003
 20
280.0
1001
GENIUS_GENREC_14
1002
{
1000
PYDIR
1011
10.00000000000001
1021
280.0
1031
0.0
1002
}
1002
{
1000
PXDIR
1011
410.0
1021
0.0
1031
0.0
1002
}
1002
{
1000
PORI
1011
10.0
1021
0.0
1031
0.0
1002
}
1002
{
1000
PINS
1011
210.0
1021
139.9999999999999
1031
0.0
1002
}
1002
{
1000
HVAL
1000
280
1002
}
1002
{
1000
H
1070
     2
1002
}
1002
{
1000
WVAL
1000
400
1002
}
1002
{
1000
W
1070
     2
1002
}
1002
{
1000
C
1070
     4
1002
}
1001
GENIUS_GENODEF_13
1002
{
1000
HIER
1070
     0
1002
}
1002
{
1000
MANEDIT
1070
     0
1002
}
1002
{
1000
NOSEL
1070
     0
1002
}
1002
{
1000
BEHIND
1070
     0
1002
}
1002
{
1000
REACTOR
1002
}
1001
GENIUS_GENOBJ-N-REC_13
1002
{
1000
OWNER
1000
GEN
1002
}
  0
TEXT
  5
5FC
330
5FA
100
AcDbEntity
  8
0
 60
     1
100
AcDbText
 10
15.00000000000003
 20
50.0
 30
0.0
 40
2.5
  1
!GENTITLE-LL
100
AcDbText
  0
TEXT
  5
5FD
330
5FA
100
AcDbEntity
  8
0
 60
     1
100
AcDbText
 10
410.0
 20
0.0
 30
0.0
 40
2.5
  1
!GENTITLE-INSERT
100
AcDbText
  0
TEXT
  5
5FE
330
5FA
100
AcDbEntity
  8
0
 60
     1
100
AcDbText
 10
405.0
 20
275.0
 30
0.0
 40
2.5
  1
!GENTITLE-RU
100
AcDbText
  0
TEXT
  5
5FF
330
5FA
100
AcDbEntity
  8
0
 60
     1
100
AcDbText
 10
410.0
 20
280.0
 30
0.0
 40
2.5
  1
!GENTITLE-MAX
100
AcDbText
  0
LINE
  5
600
330
5FA
100
AcDbEntity
  8
0
100
AcDbLine
 10
366.0
 20
275.0
 30
0.0
 11
410.0
 21
275.0
 31
0.0
  0
MTEXT
  5
601
330
5FA
100
AcDbEntity
  8
0
100
AcDbMText
 10
409.3592953827348
 20
276.108542987227
 30
0.0
 40
2.5
 41
43.07840397728298
 71
     9
 72
     5
  1
(文書番号：TY-34)2004.10.29
 73
     1
 44
1.0
1001
ACAD
1000
MTEXTBEGIN
1070
    73
1070
     1
1070
    44
1040
1.0
1070
    74
1070
     0
1000
MTEXTEND
  0
LINE
  5
602
330
5FA
100
AcDbEntity
  8
0
100
AcDbLine
 10
366.0
 20
280.0
 30
0.0
 11
366.0
 21
275.0
 31
0.0
  0
ENDBLK
  5
605
330
5FA
100
AcDbEntity
  8
0
100
AcDbBlockEnd
  0
BLOCK
  5
669
330
613
100
AcDbEntity
  8
0
100
AcDbBlockBegin
  2
TAKACHI-TITLE
 70
     2
 10
0.0
 20
0.0
 30
0.0
  3
TAKACHI-TITLE
  1

  0
LINE
  5
614
330
613
100
AcDbEntity
  8
RAHM2
100
AcDbLine
 10
-195.0
 20
30.00000000000003
 30
0.0
 11
-94.0
 21
30.00000000000003
 31
0.0
  0
LINE
  5
615
330
613
100
AcDbEntity
  8
RAHM2
100
AcDbLine
 10
-195.0
 20
35.00000000000003
 30
0.0
 11
-94.0
 21
35.00000000000003
 31
0.0
  0
LINE
  5
616
330
613
100
AcDbEntity
  8
RAHM2
100
AcDbLine
 10
-195.0
 20
40.00000000000002
 30
0.0
 11
-94.0
 21
40.00000000000002
 31
0.0
  0
LINE
  5
617
330
613
100
AcDbEntity
  8
RAHM2
100
AcDbLine
 10
-195.0
 20
45.00000000000002
 30
0.0
 11
-94.0
 21
45.00000000000002
 31
0.0
  0
LINE
  5
618
330
613
100
AcDbEntity
  8
0
100
AcDbLine
 10
-195.0
 20
7.0
 30
0.0
 11
-94.0
 21
7.0
 31
0.0
  0
LINE
  5
619
330
613
100
AcDbEntity
  8
0
100
AcDbLine
 10
-195.0
 20
19.99999999999997
 30
0.0
 11
-94.0
 21
19.99999999999997
 31
0.0
  0
ATTDEF
  5
61A
330
613
100
AcDbEntity
  8
0
100
AcDbText
 10
-183.2438527145607
 20
8.950850524428082
 30
0.0
 40
2.5
  1

 11
-183.2438527145607
 21
8.617517191094748
 31
0.0
100
AcDbAttributeDefinition
  3
サブタイトル
  2
GEN-TITLE-DES2
 70
     0
 74
     1
  0
ATTDEF
  5
61B
330
613
100
AcDbEntity
  8
0
100
AcDbText
 10
-183.2438527145607
 20
2.017517191094748
 30
0.0
 40
3.0
  1

 11
-183.2438527145607
 21
1.617517191094748
 31
0.0
100
AcDbAttributeDefinition
  3
図番
  2
GEN-TITLE-NR
 70
     0
 74
     1
  0
MTEXT
  5
61C
330
613
100
AcDbEntity
  8
RAHM2
100
AcDbMText
 10
-193.8002551371314
 20
5.801035407279641
 30
0.0
 40
2.5
 41
90.0
 71
     1
 72
     5
  1
図番
 73
     1
 44
1.0
1001
ACAD
1000
MTEXTBEGIN
1070
    73
1070
     1
1070
    44
1040
1.0
1070
    74
1070
     0
1000
MTEXTEND
  0
ATTDEF
  5
61D
330
613
100
AcDbEntity
  8
0
100
AcDbText
 10
-183.2438527145607
 20
14.40728619501834
 30
0.0
 40
4.0
  1

 11
-183.2438527145607
 21
13.87395286168501
 31
0.0
100
AcDbAttributeDefinition
  3
品名
  2
GEN-TITLE-DES1
 70
     0
 74
     1
  0
LINE
  5
61E
330
613
100
AcDbEntity
  8
RAHM2
100
AcDbLine
 10
-187.5751288694036
 20
30.40000000000004
 30
0.0
 11
-190.0
 21
34.60000000000003
 31
0.0
  0
LINE
  5
61F
330
613
100
AcDbEntity
  8
RAHM2
100
AcDbLine
 10
-190.0
 20
34.60000000000003
 30
0.0
 11
-192.4248711305964
 21
30.40000000000004
 31
0.0
  0
LINE
  5
620
330
613
100
AcDbEntity
  8
RAHM2
100
AcDbLine
 10
-185.0
 20
50.00000000000003
 30
0.0
 11
-185.0
 21
19.99999999999994
 31
0.0
  0
LINE
  5
621
330
613
100
AcDbEntity
  8
RAHM2
100
AcDbLine
 10
-192.4248711305964
 20
30.40000000000004
 30
0.0
 11
-187.5751288694036
 21
30.40000000000004
 31
0.0
  0
MTEXT
  5
622
330
613
100
AcDbEntity
  8
RAHM2
100
AcDbMText
 10
-190.0
 20
22.49999999999997
 30
0.0
 40
2.5
 41
10.0
 71
     5
 72
     5
  1
符号
 73
     1
 44
1.0
1001
ACAD
1000
MTEXTBEGIN
1070
    73
1070
     1
1070
    44
1040
1.0
1070
    74
1070
     0
1000
MTEXTEND
  0
MTEXT
  5
623
330
613
100
AcDbEntity
  8
RAHM2
100
AcDbMText
 10
-193.8002551371314
 20
18.80103540727961
 30
0.0
 40
2.5
 41
90.0
 71
     1
 72
     5
  1
品名
 73
     1
 44
1.0
1001
ACAD
1000
MTEXTBEGIN
1070
    73
1070
     1
1070
    44
1040
1.0
1070
    74
1070
     0
1000
MTEXTEND
  0
LINE
  5
624
330
613
100
AcDbEntity
  8
RAHM2
100
AcDbLine
 10
-192.4248711305964
 20
45.40000000000003
 30
0.0
 11
-187.5751288694036
 21
45.40000000000003
 31
0.0
  0
LINE
  5
625
330
613
100
AcDbEntity
  8
RAHM2
100
AcDbLine
 10
-187.5751288694036
 20
45.40000000000003
 30
0.0
 11
-190.0
 21
49.60000000000002
 31
0.0
  0
LINE
  5
626
330
613
100
AcDbEntity
  8
RAHM2
100
AcDbLine
 10
-192.4248711305964
 20
40.40000000000003
 30
0.0
 11
-187.5751288694036
 21
40.40000000000003
 31
0.0
  0
LINE
  5
627
330
613
100
AcDbEntity
  8
RAHM2
100
AcDbLine
 10
-187.5751288694036
 20
40.40000000000003
 30
0.0
 11
-190.0
 21
44.60000000000002
 31
0.0
  0
LINE
  5
628
330
613
100
AcDbEntity
  8
RAHM2
100
AcDbLine
 10
-192.4248711305964
 20
35.40000000000004
 30
0.0
 11
-187.5751288694036
 21
35.40000000000004
 31
0.0
  0
LINE
  5
629
330
613
100
AcDbEntity
  8
RAHM2
100
AcDbLine
 10
-187.5751288694036
 20
35.40000000000004
 30
0.0
 11
-190.0
 21
39.60000000000002
 31
0.0
  0
LINE
  5
62A
330
613
100
AcDbEntity
  8
RAHM2
100
AcDbLine
 10
-190.0
 20
39.60000000000002
 30
0.0
 11
-192.4248711305964
 21
35.40000000000004
 31
0.0
  0
LINE
  5
62B
330
613
100
AcDbEntity
  8
RAHM2
100
AcDbLine
 10
-190.0
 20
44.60000000000002
 30
0.0
 11
-192.4248711305964
 21
40.40000000000003
 31
0.0
  0
LINE
  5
62C
330
613
100
AcDbEntity
  8
RAHM2
100
AcDbLine
 10
-190.0
 20
49.60000000000002
 30
0.0
 11
-192.4248711305964
 21
45.40000000000003
 31
0.0
  0
LINE
  5
62D
330
613
100
AcDbEntity
  8
RAHM2
100
AcDbLine
 10
-129.0
 20
50.00000000000003
 30
0.0
 11
-129.0
 21
19.99999999999994
 31
0.0
  0
MTEXT
  5
62E
330
613
100
AcDbEntity
  8
RAHM2
100
AcDbMText
 10
-157.1448171868856
 20
22.49999999999997
 30
0.0
 40
2.5
 41
45.0
 71
     5
 72
     5
  1
変更記事
 73
     1
 44
1.0
1001
ACAD
1000
MTEXTBEGIN
1070
    73
1070
     1
1070
    44
1040
1.0
1070
    74
1070
     0
1000
MTEXTEND
  0
LINE
  5
62F
330
613
100
AcDbEntity
  8
0
100
AcDbLine
 10
-34.0
 20
50.0
 30
0.0
 11
-34.0
 21
0.0
 31
0.0
  0
LINE
  5
630
330
613
100
AcDbEntity
  8
0
100
AcDbLine
 10
-94.0
 20
50.0
 30
0.0
 11
-94.0
 21
0.0
 31
0.0
  0
MTEXT
  5
631
330
613
100
AcDbEntity
  8
0
100
AcDbMText
 10
-64.0
 20
5.0
 30
0.0
 40
3.5
 41
60.0
 71
     5
 72
     5
  1
\fＭＳ ゴシック|b0|i0|c128|p49;株式会社タカチ電機工業
 73
     1
 44
1.0
1001
ACAD
1000
MTEXTBEGIN
1070
    73
1070
     1
1070
    44
1040
1.0
1070
    74
1070
     0
1000
MTEXTEND
  0
LINE
  5
632
330
613
100
AcDbEntity
  8
0
100
AcDbLine
 10
-94.0
 20
10.0
 30
0.0
 11
-34.0
 21
10.0
 31
0.0
  0
ATTDEF
  5
633
330
613
100
AcDbEntity
  8
0
100
AcDbText
 10
-58.01405119799745
 20
39.25500556178349
 30
0.0
 40
3.0
  1

 72
     2
 11
-58.01405119799745
 21
39.25500556178349
 31
0.0
100
AcDbAttributeDefinition
  3
尺度
  2
GEN-TITLE-SCA
 70
     0
  0
ATTDEF
  5
634
330
613
100
AcDbEntity
  8
0
100
AcDbText
 10
-77.00284966649007
 20
31.02180787943475
 30
0.0
 40
3.0
  1

 11
-77.00284966649007
 21
30.62180787943475
 31
0.0
100
AcDbAttributeDefinition
  3
材質
  2
GEN-TITLE-MAT1
 70
     0
 74
     1
  0
ATTDEF
  5
635
330
613
100
AcDbEntity
  8
0
100
AcDbText
 10
-77.00284966649007
 20
21.02180787943475
 30
0.0
 40
3.0
  1

 11
-77.00284966649007
 21
20.62180787943475
 31
0.0
100
AcDbAttributeDefinition
  3
表面処理
  2
GEN-TITLE-MAT2
 70
     0
 74
     1
  0
ATTDEF
  5
636
330
613
100
AcDbEntity
  8
0
100
AcDbText
 10
-77.00284966649007
 20
12.01751719109475
 30
0.0
 40
3.0
  1

 11
-77.00284966649007
 21
11.61751719109475
 31
0.0
100
AcDbAttributeDefinition
  3
日付
  2
GEN-TITLE-DAT
 70
     0
 74
     1
  0
LINE
  5
637
330
613
100
AcDbEntity
  8
0
100
AcDbLine
 10
-94.0
 20
37.5
 30
0.0
 11
-34.0
 21
37.5
 31
0.0
  0
LINE
  5
638
330
613
100
AcDbEntity
  8
0
100
AcDbLine
 10
-94.0
 20
27.5
 30
0.0
 11
-34.0
 21
27.5
 31
0.0
  0
LINE
  5
639
330
613
100
AcDbEntity
  8
0
100
AcDbLine
 10
-94.0
 20
17.5
 30
0.0
 11
-34.0
 21
17.5
 31
0.0
  0
LINE
  5
63A
330
613
100
AcDbEntity
  8
RAHM2
100
AcDbLine
 10
-109.0
 20
50.00000000000003
 30
0.0
 11
-109.0
 21
19.99999999999994
 31
0.0
  0
MTEXT
  5
63B
330
613
100
AcDbEntity
  8
RAHM2
100
AcDbMText
 10
-119.4582894723942
 20
32.50000000000003
 30
0.0
 40
2.5
 41
20.0
 71
     5
 72
     5
  1
・  ・   
 73
     1
 44
1.0
1001
ACAD
1000
MTEXTBEGIN
1070
    73
1070
     1
1070
    44
1040
1.0
1070
    74
1070
     0
1000
MTEXTEND
  0
MTEXT
  5
63C
330
613
100
AcDbEntity
  8
RAHM2
100
AcDbMText
 10
-118.738119805002
 20
22.49999999999997
 30
0.0
 40
2.5
 41
20.0
 71
     5
 72
     5
  1
年・月・日
 73
     1
 44
1.0
1001
ACAD
1000
MTEXTBEGIN
1070
    73
1070
     1
1070
    44
1040
1.0
1070
    74
1070
     0
1000
MTEXTEND
  0
MTEXT
  5
63D
330
613
100
AcDbEntity
  8
RAHM2
100
AcDbMText
 10
-101.5
 20
22.49999999999997
 30
0.0
 40
2.5
 41
15.0
 71
     5
 72
     5
  1
担当
 73
     1
 44
1.0
1001
ACAD
1000
MTEXTBEGIN
1070
    73
1070
     1
1070
    44
1040
1.0
1070
    74
1070
     0
1000
MTEXTEND
  0
MTEXT
  5
63E
330
613
100
AcDbEntity
  8
RAHM2
100
AcDbMText
 10
-119.4582894723942
 20
42.50000000000002
 30
0.0
 40
2.5
 41
20.0
 71
     5
 72
     5
  1
・  ・   
 73
     1
 44
1.0
1001
ACAD
1000
MTEXTBEGIN
1070
    73
1070
     1
1070
    44
1040
1.0
1070
    74
1070
     0
1000
MTEXTEND
  0
MTEXT
  5
63F
330
613
100
AcDbEntity
  8
RAHM2
100
AcDbMText
 10
-119.4582894723942
 20
37.50000000000003
 30
0.0
 40
2.5
 41
20.0
 71
     5
 72
     5
  1
・  ・   
 73
     1
 44
1.0
1001
ACAD
1000
MTEXTBEGIN
1070
    73
1070
     1
1070
    44
1040
1.0
1070
    74
1070
     0
1000
MTEXTEND
  0
MTEXT
  5
640
330
613
100
AcDbEntity
  8
RAHM2
100
AcDbMText
 10
-119.4582894723942
 20
47.50000000000002
 30
0.0
 40
2.5
 41
20.0
 71
     5
 72
     5
  1
・  ・   
 73
     1
 44
1.0
1001
ACAD
1000
MTEXTBEGIN
1070
    73
1070
     1
1070
    44
1040
1.0
1070
    74
1070
     0
1000
MTEXTEND
  0
MTEXT
  5
641
330
613
100
AcDbEntity
  8
RAHM2
100
AcDbMText
 10
-92.80025513713145
 20
16.30103540727964
 30
0.0
 40
2.5
 41
60.0
 71
     1
 72
     5
  1
日付
 73
     1
 44
1.0
1001
ACAD
1000
MTEXTBEGIN
1070
    73
1070
     1
1070
    44
1040
1.0
1070
    74
1070
     0
1000
MTEXTEND
  0
MTEXT
  5
642
330
613
100
AcDbEntity
  8
RAHM2
100
AcDbMText
 10
-92.80025513713145
 20
26.30103540727964
 30
0.0
 40
2.5
 41
60.0
 71
     1
 72
     5
  1
表面処理
 73
     1
 44
1.0
1001
ACAD
1000
MTEXTBEGIN
1070
    73
1070
     1
1070
    44
1040
1.0
1070
    74
1070
     0
1000
MTEXTEND
  0
LINE
  5
643
330
613
100
AcDbEntity
  8
7A
100
AcDbLine
 10
-89.0
 20
43.75
 30
0.0
 11
-75.2186915997147
 21
43.75
 31
0.0
1001
GENIUS_GENOREF_13
1005
656
  0
LINE
  5
644
330
613
100
AcDbEntity
  8
0
100
AcDbLine
 10
-84.0
 20
45.75
 30
0.0
 11
-76.0
 21
46.74999999999999
 31
0.0
  0
LINE
  5
645
330
613
100
AcDbEntity
  8
0
100
AcDbLine
 10
-76.0
 20
40.75
 30
0.0
 11
-84.0
 21
41.74999999999999
 31
0.0
  0
LINE
  5
646
330
613
100
AcDbEntity
  8
7A
100
AcDbLine
 10
-89.0
 20
43.75
 30
0.0
 11
-89.0
 21
47.32478664473148
 31
0.0
1001
GENIUS_GENOREF_13
1005
656
  0
CIRCLE
  5
647
330
613
100
AcDbEntity
  8
0
100
AcDbCircle
 10
-89.0
 20
43.75
 30
0.0
 40
2.0
  0
CIRCLE
  5
648
330
613
100
AcDbEntity
  8
0
100
AcDbCircle
 10
-89.0
 20
43.75
 30
0.0
 40
3.0
  0
LINE
  5
649
330
613
100
AcDbEntity
  8
0
100
AcDbLine
 10
-84.0
 20
41.74999999999999
 30
0.0
 11
-84.0
 21
45.75
 31
0.0
  0
MTEXT
  5
64A
330
613
100
AcDbEntity
  8
RAHM2
100
AcDbMText
 10
-92.80025513713145
 20
36.30103540727964
 30
0.0
 40
2.5
 41
60.0
 71
     1
 72
     5
  1
材質
 73
     1
 44
1.0
1001
ACAD
1000
MTEXTBEGIN
1070
    73
1070
     1
1070
    44
1040
1.0
1070
    74
1070
     0
1000
MTEXTEND
  0
LINE
  5
64B
330
613
100
AcDbEntity
  8
7A
100
AcDbLine
 10
-89.0
 20
43.75
 30
0.0
 11
-92.72303737125117
 21
43.75
 31
0.0
1001
GENIUS_GENOREF_13
1005
656
  0
LINE
  5
64C
330
613
100
AcDbEntity
  8
7A
100
AcDbLine
 10
-89.0
 20
43.75
 30
0.0
 11
-89.0
 21
40.03991724228479
 31
0.0
1001
GENIUS_GENOREF_13
1005
656
  0
LINE
  5
64D
330
613
100
AcDbEntity
  8
0
100
AcDbLine
 10
-76.0
 20
46.74999999999999
 30
0.0
 11
-76.0
 21
40.75
 31
0.0
  0
LINE
  5
64E
330
613
100
AcDbEntity
  8
0
100
AcDbLine
 10
-74.0
 20
50.0
 30
0.0
 11
-74.0
 21
37.5
 31
0.0
  0
MTEXT
  5
64F
330
613
100
AcDbEntity
  8
RAHM2
100
AcDbMText
 10
-72.80025513713145
 20
48.80103540727964
 30
0.0
 40
2.5
 41
20.0
 71
     1
 72
     5
  1
尺度
 73
     1
 44
1.0
1001
ACAD
1000
MTEXTBEGIN
1070
    73
1070
     1
1070
    44
1040
1.0
1070
    74
1070
     0
1000
MTEXTEND
  0
ATTDEF
  5
650
330
613
100
AcDbEntity
  8
0
100
AcDbText
 10
-37.76317379391503
 20
39.25500556178349
 30
0.0
 40
3.0
  1

 72
     2
 11
-37.76317379391503
 21
39.25500556178349
 31
0.0
100
AcDbAttributeDefinition
  3
数量
  2
GEN-TITLE-QTY
 70
     0
  0
LINE
  5
651
330
613
100
AcDbEntity
  8
0
100
AcDbLine
 10
-34.0
 20
25.0
 30
0.0
 11
0.0
 21
25.0
 31
0.0
  0
LINE
  5
652
330
613
100
AcDbEntity
  8
0
100
AcDbLine
 10
-54.0
 20
50.0
 30
0.0
 11
-54.0
 21
37.5
 31
0.0
  0
MTEXT
  5
653
330
613
100
AcDbEntity
  8
RAHM2
100
AcDbMText
 10
-52.80025513713145
 20
48.80103540727964
 30
0.0
 40
2.5
 41
20.0
 71
     1
 72
     5
  1
数量
 73
     1
 44
1.0
1001
ACAD
1000
MTEXTBEGIN
1070
    73
1070
     1
1070
    44
1040
1.0
1070
    74
1070
     0
1000
MTEXTEND
  0
MTEXT
  5
654
330
613
100
AcDbEntity
  8
RAHM2
100
AcDbMText
 10
-25.5
 20
23.80103540727964
 30
0.0
 40
2.5
 41
17.0
 71
     2
 72
     5
  1
承認
 73
     1
 44
1.0
1001
ACAD
1000
MTEXTBEGIN
1070
    73
1070
     1
1070
    44
1040
1.0
1070
    74
1070
     0
1000
MTEXTEND
  0
MTEXT
  5
655
330
613
100
AcDbEntity
  8
RAHM2
100
AcDbMText
 10
-25.5
 20
48.80103540727964
 30
0.0
 40
2.5
 41
17.0
 71
     2
 72
     5
  1
承認
 73
     1
 44
1.0
1001
ACAD
1000
MTEXTBEGIN
1070
    73
1070
     1
1070
    44
1040
1.0
1070
    74
1070
     0
1000
MTEXTEND
  0
POINT
  5
656
330
613
100
AcDbEntity
  8
0
 60
     1
100
AcDbPoint
 10
-320.5355579819676
 20
-138.1104841268254
 30
0.0
1001
GENIUS_GENODEF_13
1002
{
1000
HIER
1070
    10
1002
}
1002
{
1000
MANEDIT
1070
     0
1002
}
1002
{
1000
NOSEL
1070
     0
1002
}
1002
{
1000
BEHIND
1070
     0
1002
}
1002
{
1000
REACTOR
1002
}
1001
GENIUS_GENOBJ-N-CRS_13
1002
{
1000
OWNER
1000
GEN
1002
}
1001
GENIUS_GENOENT_13
1002
{
1000
MYREF
1005
656
1002
}
1002
{
1000
GRP
1005
0
1002
}
1001
GENIUS_GENOLIS_13
1002
{
1000
ENT
1005
64C
1005
64B
1005
646
1005
643
1002
}
  0
LINE
  5
657
330
613
100
AcDbEntity
  8
RAHM2
100
AcDbLine
 10
-190.0
 20
29.60000000000002
 30
0.0
 11
-192.4248711305964
 21
25.40000000000004
 31
0.0
  0
LINE
  5
658
330
613
100
AcDbEntity
  8
RAHM2
100
AcDbLine
 10
-187.5751288694036
 20
25.40000000000004
 30
0.0
 11
-190.0
 21
29.60000000000002
 31
0.0
  0
LINE
  5
659
330
613
100
AcDbEntity
  8
RAHM2
100
AcDbLine
 10
-192.4248711305964
 20
25.40000000000004
 30
0.0
 11
-187.5751288694036
 21
25.40000000000004
 31
0.0
  0
LINE
  5
65A
330
613
100
AcDbEntity
  8
RAHM2
100
AcDbLine
 10
-195.0
 20
25.00000000000003
 30
0.0
 11
-94.0
 21
25.00000000000003
 31
0.0
  0
MTEXT
  5
65B
330
613
100
AcDbEntity
  8
RAHM2
100
AcDbMText
 10
-119.4582894723942
 20
27.50000000000003
 30
0.0
 40
2.5
 41
20.0
 71
     5
 72
     5
  1
・  ・   
 73
     1
 44
1.0
1001
ACAD
1000
MTEXTBEGIN
1070
    73
1070
     1
1070
    44
1040
1.0
1070
    74
1070
     0
1000
MTEXTEND
  0
TEXT
  5
65C
330
613
100
AcDbEntity
  8
RAHM2
100
AcDbText
 10
-190.8155863565801
 20
25.98333333333337
 30
0.0
 40
2.5
  1
1
 72
     1
 11
-190.1905863565802
 21
25.65000000000003
 31
0.0
100
AcDbText
 73
     1
  0
TEXT
  5
65D
330
613
100
AcDbEntity
  8
RAHM2
100
AcDbText
 10
-190.9183316929134
 20
30.98333333333337
 30
0.0
 40
2.5
  1
2
 72
     1
 11
-190.0
 21
30.65000000000003
 31
0.0
100
AcDbText
 73
     1
  0
TEXT
  5
65E
330
613
100
AcDbEntity
  8
RAHM2
100
AcDbText
 10
-190.9267766952966
 20
35.98333333333334
 30
0.0
 40
2.5
  1
3
 72
     1
 11
-190.0
 21
35.65000000000001
 31
0.0
100
AcDbText
 73
     1
  0
TEXT
  5
65F
330
613
100
AcDbEntity
  8
RAHM2
100
AcDbText
 10
-191.0
 20
40.98333333333337
 30
0.0
 40
2.5
  1
4
 72
     1
 11
-190.0
 21
40.65000000000003
 31
0.0
100
AcDbText
 73
     1
  0
TEXT
  5
660
330
613
100
AcDbEntity
  8
RAHM2
100
AcDbText
 10
-190.9267766952966
 20
45.98333333333337
 30
0.0
 40
2.5
  1
5
 72
     1
 11
-190.0
 21
45.65000000000003
 31
0.0
100
AcDbText
 73
     1
  0
LINE
  5
661
330
613
100
AcDbEntity
  8
0
100
AcDbLine
 10
-17.0
 20
50.0
 30
0.0
 11
-17.0
 21
0.0
 31
0.0
  0
LINE
  5
662
330
613
100
AcDbEntity
  8
0
100
AcDbLine
 10
-195.0
 20
0.0
 30
0.0
 11
0.0
 21
0.0
 31
0.0
1001
GENIUS_GENREC_14
1002
{
1000
PYDIR
1011
-184.0
1021
50.0
1031
0.0
1002
}
1002
{
1000
PXDIR
1011
0.0
1021
0.0
1031
0.0
1002
}
1002
{
1000
PORI
1011
-184.0
1021
0.0
1031
0.0
1002
}
1002
{
1000
PINS
1011
-100.5
1021
25.0
1031
0.0
1002
}
1002
{
1000
HVAL
1000
50
1002
}
1002
{
1000
H
1070
     2
1002
}
1002
{
1000
WVAL
1000
167
1002
}
1002
{
1000
W
1070
     2
1002
}
1002
{
1000
C
1070
     4
1002
}
1001
GENIUS_GENODEF_13
1002
{
1000
HIER
1070
     0
1002
}
1002
{
1000
MANEDIT
1070
     0
1002
}
1002
{
1000
NOSEL
1070
     0
1002
}
1002
{
1000
BEHIND
1070
     0
1002
}
1002
{
1000
REACTOR
1002
}
1001
GENIUS_GENOBJ-N-REC_13
1002
{
1000
OWNER
1000
GEN
1002
}
  0
LINE
  5
663
330
613
100
AcDbEntity
  8
0
100
AcDbLine
 10
0.0
 20
0.0
 30
0.0
 11
0.0
 21
50.0
 31
0.0
1001
GENIUS_GENREC_14
1002
{
1000
PYDIR
1011
-184.0
1021
50.0
1031
0.0
1002
}
1002
{
1000
PXDIR
1011
0.0
1021
0.0
1031
0.0
1002
}
1002
{
1000
PORI
1011
-184.0
1021
0.0
1031
0.0
1002
}
1002
{
1000
PINS
1011
-100.5
1021
25.0
1031
0.0
1002
}
1002
{
1000
HVAL
1000
50
1002
}
1002
{
1000
H
1070
     2
1002
}
1002
{
1000
WVAL
1000
167
1002
}
1002
{
1000
W
1070
     2
1002
}
1002
{
1000
C
1070
     4
1002
}
1001
GENIUS_GENODEF_13
1002
{
1000
HIER
1070
     0
1002
}
1002
{
1000
MANEDIT
1070
     0
1002
}
1002
{
1000
NOSEL
1070
     0
1002
}
1002
{
1000
BEHIND
1070
     0
1002
}
1002
{
1000
REACTOR
1002
}
1001
GENIUS_GENOBJ-N-REC_13
1002
{
1000
OWNER
1000
GEN
1002
}
  0
LINE
  5
664
330
613
100
AcDbEntity
  8
0
100
AcDbLine
 10
0.0
 20
50.0
 30
0.0
 11
-195.0
 21
50.00000000000003
 31
0.0
1001
GENIUS_GENREC_14
1002
{
1000
PYDIR
1011
-184.0
1021
50.0
1031
0.0
1002
}
1002
{
1000
PXDIR
1011
0.0
1021
0.0
1031
0.0
1002
}
1002
{
1000
PORI
1011
-184.0
1021
0.0
1031
0.0
1002
}
1002
{
1000
PINS
1011
-100.5
1021
25.0
1031
0.0
1002
}
1002
{
1000
HVAL
1000
50
1002
}
1002
{
1000
H
1070
     2
1002
}
1002
{
1000
WVAL
1000
167
1002
}
1002
{
1000
W
1070
     2
1002
}
1002
{
1000
C
1070
     4
1002
}
1001
GENIUS_GENODEF_13
1002
{
1000
HIER
1070
     0
1002
}
1002
{
1000
MANEDIT
1070
     0
1002
}
1002
{
1000
NOSEL
1070
     0
1002
}
1002
{
1000
BEHIND
1070
     0
1002
}
1002
{
1000
REACTOR
1002
}
1001
GENIUS_GENOBJ-N-REC_13
1002
{
1000
OWNER
1000
GEN
1002
}
  0
LINE
  5
665
330
613
100
AcDbEntity
  8
0
100
AcDbLine
 10
-195.0
 20
50.00000000000003
 30
0.0
 11
-195.0
 21
0.0
 31
0.0
1001
GENIUS_GENREC_14
1002
{
1000
PYDIR
1011
-195.0
1021
50.0
1031
0.0
1002
}
1002
{
1000
PXDIR
1011
-11.0
1021
0.0
1031
0.0
1002
}
1002
{
1000
PORI
1011
-195.0
1021
0.0
1031
0.0
1002
}
1002
{
1000
PINS
1011
-111.5
1021
25.0
1031
0.0
1002
}
1002
{
1000
HVAL
1000
50
1002
}
1002
{
1000
H
1070
     2
1002
}
1002
{
1000
WVAL
1000
167
1002
}
1002
{
1000
W
1070
     2
1002
}
1002
{
1000
C
1070
     4
1002
}
1001
GENIUS_GENODEF_13
1002
{
1000
HIER
1070
     0
1002
}
1002
{
1000
MANEDIT
1070
     0
1002
}
1002
{
1000
NOSEL
1070
     0
1002
}
1002
{
1000
BEHIND
1070
     0
1002
}
1002
{
1000
REACTOR
1002
}
1001
GENIUS_GENOBJ-N-REC_13
1002
{
1000
OWNER
1000
GEN
1002
}
  0
MTEXT
  5
666
330
613
100
AcDbEntity
  8
RAHM2
100
AcDbMText
 10
-8.5
 20
48.80103540727964
 30
0.0
 40
2.5
 41
17.0
 71
     2
 72
     5
  1
検図
 73
     1
 44
1.0
1001
ACAD
1000
MTEXTBEGIN
1070
    73
1070
     1
1070
    44
1040
1.0
1070
    74
1070
     0
1000
MTEXTEND
  0
MTEXT
  5
667
330
613
100
AcDbEntity
  8
RAHM2
100
AcDbMText
 10
-8.5
 20
23.80103540727964
 30
0.0
 40
2.5
 41
17.0
 71
     2
 72
     5
  1
製図
 73
     1
 44
1.0
1001
ACAD
1000
MTEXTBEGIN
1070
    73
1070
     1
1070
    44
1040
1.0
1070
    74
1070
     0
1000
MTEXTEND
  0
ENDBLK
  5
66A
330
613
100
AcDbEntity
  8
0
100
AcDbBlockEnd
  0
BLOCK
  5
A84
330
A7E
100
AcDbEntity
  8
0
100
AcDbBlockBegin
  2
*D6
 70
     1
 10
0.0
 20
0.0
 30
0.0
  3
*D6
  1

  0
LINE
  5
CCA
330
A7E
100
AcDbEntity
  8
AM_5
100
AcDbLine
 10
359.2292531217469
 20
225.4083991755023
 30
0.0
 11
331.8088338863935
 21
208.2467098535885
 31
0.0
  0
MTEXT
  5
CCB
330
A7E
100
AcDbEntity
  8
AM_5
 62
     2
100
AcDbMText
 10
354.3919866467136
 20
226.2149452420195
 30
0.0
 40
3.5
 41
0.0
 71
     5
 72
     1
  1
R3
 11
0.8476656964823314
 21
0.5305307408691073
 31
0.0
 73
     1
 44
1.0
1001
ACAD
1000
MTEXTBEGIN
1070
    73
1070
     1
1070
    44
1040
1.0
1070
    74
1070
     0
1000
MTEXTEND
  0
INSERT
  5
CCC
330
A7E
100
AcDbEntity
  8
AM_5
100
AcDbBlockReference
  2
_Open30
 10
329.6896696451876
 20
206.9203830014157
 30
0.0
 41
2.5
 42
2.5
 43
2.5
 50
212.0413218659205
  0
POINT
  5
CCD
330
A7E
100
AcDbEntity
  8
Defpoints
 62
     0
100
AcDbPoint
 10
329.6896696451876
 20
206.9203830014157
 30
0.0
  0
POINT
  5
CCE
330
A7E
100
AcDbEntity
  8
Defpoints
 62
     0
100
AcDbPoint
 10
327.1466725557405
 20
205.3287907788083
 30
0.0
  0
ENDBLK
  5
A85
330
A7E
100
AcDbEntity
  8
0
100
AcDbBlockEnd
  0
BLOCK
  5
AE5
330
ADB
100
AcDbEntity
  8
0
100
AcDbBlockBegin
  2
*D7
 70
     1
 10
0.0
 20
0.0
 30
0.0
  3
*D7
  1

  0
LINE
  5
162D
330
ADB
100
AcDbEntity
  8
AM_5
100
AcDbLine
 10
156.6500041527188
 20
200.7324585175113
 30
0.0
 11
156.6500041527188
 21
228.7305545647142
 31
0.0
  0
LINE
  5
162E
330
ADB
100
AcDbEntity
  8
AM_5
100
AcDbLine
 10
181.1500041527188
 20
219.3287907788082
 30
0.0
 11
181.1500041527188
 21
228.7305545647142
 31
0.0
  0
LINE
  5
162F
330
ADB
100
AcDbEntity
  8
AM_5
100
AcDbLine
 10
159.1500041527188
 20
227.7305545647142
 30
0.0
 11
178.6500041527188
 21
227.7305545647142
 31
0.0
  0
INSERT
  5
1630
330
ADB
100
AcDbEntity
  8
AM_5
100
AcDbBlockReference
  2
_Open30
 10
156.6500041527188
 20
227.7305545647142
 30
0.0
 41
2.5
 42
2.5
 43
2.5
 50
180.0
  0
INSERT
  5
1631
330
ADB
100
AcDbEntity
  8
AM_5
100
AcDbBlockReference
  2
_Open30
 10
181.1500041527188
 20
227.7305545647142
 30
0.0
 41
2.5
 42
2.5
 43
2.5
  0
MTEXT
  5
1632
330
ADB
100
AcDbEntity
  8
AM_5
 62
     2
100
AcDbMText
 10
168.9000041527188
 20
230.9808990529032
 30
0.0
 40
3.5
 41
0.0
 71
     5
 72
     1
  1
24.5
 73
     1
 44
1.0
1001
ACAD
1000
MTEXTBEGIN
1070
    73
1070
     1
1070
    44
1040
1.0
1070
    74
1070
     0
1000
MTEXTEND
  0
POINT
  5
1633
330
ADB
100
AcDbEntity
  8
Defpoints
 62
     0
100
AcDbPoint
 10
156.6500041527188
 20
199.7324585175113
 30
0.0
  0
POINT
  5
1634
330
ADB
100
AcDbEntity
  8
Defpoints
 62
     0
100
AcDbPoint
 10
181.1500041527188
 20
218.3287907788082
 30
0.0
  0
POINT
  5
1635
330
ADB
100
AcDbEntity
  8
Defpoints
 62
     0
100
AcDbPoint
 10
181.1500041527188
 20
227.7305545647142
 30
0.0
  0
ENDBLK
  5
AE6
330
ADB
100
AcDbEntity
  8
0
100
AcDbBlockEnd
  0
BLOCK
  5
AF1
330
AE7
100
AcDbEntity
  8
0
100
AcDbBlockBegin
  2
*D8
 70
     1
 10
0.0
 20
0.0
 30
0.0
  3
*D8
  1

  0
LINE
  5
1640
330
AE7
100
AcDbEntity
  8
AM_5
100
AcDbLine
 10
60.5253347343247
 20
218.3287907788082
 30
0.0
 11
60.5253347343247
 21
240.4681743464198
 31
0.0
  0
LINE
  5
1641
330
AE7
100
AcDbEntity
  8
AM_5
100
AcDbLine
 10
119.5253347343247
 20
218.3287907788082
 30
0.0
 11
119.5253347343247
 21
240.4681743464198
 31
0.0
  0
LINE
  5
1642
330
AE7
100
AcDbEntity
  8
AM_5
100
AcDbLine
 10
63.0253347343247
 20
239.4681743464198
 30
0.0
 11
117.0253347343247
 21
239.4681743464198
 31
0.0
  0
INSERT
  5
1643
330
AE7
100
AcDbEntity
  8
AM_5
100
AcDbBlockReference
  2
_Open30
 10
60.5253347343247
 20
239.4681743464198
 30
0.0
 41
2.5
 42
2.5
 43
2.5
 50
180.0
  0
INSERT
  5
1644
330
AE7
100
AcDbEntity
  8
AM_5
100
AcDbBlockReference
  2
_Open30
 10
119.5253347343247
 20
239.4681743464198
 30
0.0
 41
2.5
 42
2.5
 43
2.5
  0
MTEXT
  5
1645
330
AE7
100
AcDbEntity
  8
AM_5
 62
     2
100
AcDbMText
 10
90.02533473432469
 20
242.7181743464198
 30
0.0
 40
3.5
 41
0.0
 71
     5
 72
     1
  1
59
 73
     1
 44
1.0
1001
ACAD
1000
MTEXTBEGIN
1070
    73
1070
     1
1070
    44
1040
1.0
1070
    74
1070
     0
1000
MTEXTEND
  0
POINT
  5
1646
330
AE7
100
AcDbEntity
  8
Defpoints
 62
     0
100
AcDbPoint
 10
60.5253347343247
 20
217.3287907788083
 30
0.0
  0
POINT
  5
1647
330
AE7
100
AcDbEntity
  8
Defpoints
 62
     0
100
AcDbPoint
 10
119.5253347343247
 20
217.3287907788083
 30
0.0
  0
POINT
  5
1648
330
AE7
100
AcDbEntity
  8
Defpoints
 62
     0
100
AcDbPoint
 10
119.5253347343247
 20
239.4681743464198
 30
0.0
  0
ENDBLK
  5
AF2
330
AE7
100
AcDbEntity
  8
0
100
AcDbBlockEnd
  0
BLOCK
  5
AFD
330
AF3
100
AcDbEntity
  8
0
100
AcDbBlockBegin
  2
*D9
 70
     1
 10
0.0
 20
0.0
 30
0.0
  3
*D9
  1

  0
LINE
  5
1637
330
AF3
100
AcDbEntity
  8
AM_5
100
AcDbLine
 10
60.5253347343247
 20
218.3287907788082
 30
0.0
 11
35.05864635993954
 21
218.3287907788082
 31
0.0
  0
LINE
  5
1638
330
AF3
100
AcDbEntity
  8
AM_5
100
AcDbLine
 10
69.5253347343247
 20
141.8287907788082
 30
0.0
 11
35.05864635993952
 21
141.8287907788083
 31
0.0
  0
LINE
  5
1639
330
AF3
100
AcDbEntity
  8
AM_5
100
AcDbLine
 10
36.05864635993954
 20
215.8287907788082
 30
0.0
 11
36.05864635993953
 21
144.3287907788082
 31
0.0
  0
INSERT
  5
163A
330
AF3
100
AcDbEntity
  8
AM_5
100
AcDbBlockReference
  2
_Open30
 10
36.05864635993954
 20
218.3287907788082
 30
0.0
 41
2.5
 42
2.5
 43
2.5
 50
90.0
  0
INSERT
  5
163B
330
AF3
100
AcDbEntity
  8
AM_5
100
AcDbBlockReference
  2
_Open30
 10
36.05864635993952
 20
141.8287907788083
 30
0.0
 41
2.5
 42
2.5
 43
2.5
 50
270.0
  0
MTEXT
  5
163C
330
AF3
100
AcDbEntity
  8
AM_5
 62
     2
100
AcDbMText
 10
32.8086463599395
 20
180.0787907788082
 30
0.0
 40
3.5
 41
0.0
 71
     5
 72
     1
  1
76.5
 11
0.0000000000000001
 21
1.0
 31
0.0
 73
     1
 44
1.0
1001
ACAD
1000
MTEXTBEGIN
1070
    73
1070
     1
1070
    44
1040
1.0
1070
    74
1070
     0
1000
MTEXTEND
  0
POINT
  5
163D
330
AF3
100
AcDbEntity
  8
Defpoints
 62
     0
100
AcDbPoint
 10
61.5253347343247
 20
218.3287907788082
 30
0.0
  0
POINT
  5
163E
330
AF3
100
AcDbEntity
  8
Defpoints
 62
     0
100
AcDbPoint
 10
70.5253347343247
 20
141.8287907788082
 30
0.0
  0
POINT
  5
163F
330
AF3
100
AcDbEntity
  8
Defpoints
 62
     0
100
AcDbPoint
 10
36.05864635993952
 20
141.8287907788083
 30
0.0
  0
ENDBLK
  5
AFE
330
AF3
100
AcDbEntity
  8
0
100
AcDbBlockEnd
  0
BLOCK
  5
B06
330
AFF
100
AcDbEntity
  8
0
100
AcDbBlockBegin
  2
*D10
 70
     1
 10
0.0
 20
0.0
 30
0.0
  3
*D10
  1

  0
LINE
  5
CD5
330
AFF
100
AcDbEntity
  8
AM_5
100
AcDbLine
 10
329.9052979041297
 20
217.5618212746781
 30
0.0
 11
349.4549597064267
 21
240.4734692183461
 31
0.0
  0
LINE
  5
CD6
330
AFF
100
AcDbEntity
  8
AM_5
100
AcDbLine
 10
349.4549597064267
 20
240.4734692183461
 30
0.0
 11
359.1499344532573
 21
240.4734692183461
 31
0.0
  0
INSERT
  5
CD7
330
AFF
100
AcDbEntity
  8
AM_5
100
AcDbBlockReference
  2
_Open30
 10
328.2825771109596
 20
215.6600386300488
 30
0.0
 41
2.5
 42
2.5
 43
2.5
 50
229.5270998796536
  0
MTEXT
  5
CD8
102
{ACAD_XDICTIONARY
360
1871
102
}
330
AFF
100
AcDbEntity
  8
AM_5
 62
     2
100
AcDbMText
 10
355.052447079842
 20
243.7234692183462
 30
0.0
 40
3.5
 41
0.0
 71
     5
 72
     1
  1
\U+22053.5
 73
     1
 44
1.0
1001
ACAD
1000
MTEXTBEGIN
1070
    73
1070
     1
1070
    44
1040
1.0
1070
    74
1070
     0
1000
MTEXTEND
  0
POINT
  5
CD9
330
AFF
100
AcDbEntity
  8
Defpoints
 62
     0
100
AcDbPoint
 10
328.2825771109596
 20
215.6600386300488
 30
0.0
  0
POINT
  5
CDA
330
AFF
100
AcDbEntity
  8
Defpoints
 62
     0
100
AcDbPoint
 10
326.0107680005216
 20
212.9975429275676
 30
0.0
  0
ENDBLK
  5
B07
330
AFF
100
AcDbEntity
  8
0
100
AcDbBlockEnd
  0
BLOCK
  5
B17
330
B0D
100
AcDbEntity
  8
0
100
AcDbBlockBegin
  2
*D11
 70
     1
 10
0.0
 20
0.0
 30
0.0
  3
*D11
  1

  0
LINE
  5
CC1
330
B0D
100
AcDbEntity
  8
AM_5
100
AcDbLine
 10
281.1466725557407
 20
206.3287907788082
 30
0.0
 11
281.1466725557407
 21
235.0379617829582
 31
0.0
  0
LINE
  5
CC2
330
B0D
100
AcDbEntity
  8
AM_5
100
AcDbLine
 10
330.1466725557407
 20
206.3287907788082
 30
0.0
 11
330.1466725557407
 21
235.0379617829582
 31
0.0
  0
LINE
  5
CC3
330
B0D
100
AcDbEntity
  8
AM_5
100
AcDbLine
 10
283.6466725557407
 20
234.0379617829583
 30
0.0
 11
327.6466725557407
 21
234.0379617829583
 31
0.0
  0
INSERT
  5
CC4
330
B0D
100
AcDbEntity
  8
AM_5
100
AcDbBlockReference
  2
_Open30
 10
281.1466725557407
 20
234.0379617829583
 30
0.0
 41
2.5
 42
2.5
 43
2.5
 50
180.0
  0
INSERT
  5
CC5
330
B0D
100
AcDbEntity
  8
AM_5
100
AcDbBlockReference
  2
_Open30
 10
330.1466725557407
 20
234.0379617829583
 30
0.0
 41
2.5
 42
2.5
 43
2.5
  0
MTEXT
  5
CC6
330
B0D
100
AcDbEntity
  8
AM_5
 62
     2
100
AcDbMText
 10
305.6466725557407
 20
237.2879617829582
 30
0.0
 40
3.5
 41
0.0
 71
     5
 72
     1
  1
49
 73
     1
 44
1.0
1001
ACAD
1000
MTEXTBEGIN
1070
    73
1070
     1
1070
    44
1040
1.0
1070
    74
1070
     0
1000
MTEXTEND
  0
POINT
  5
CC7
330
B0D
100
AcDbEntity
  8
Defpoints
 62
     0
100
AcDbPoint
 10
281.1466725557407
 20
205.3287907788083
 30
0.0
  0
POINT
  5
CC8
330
B0D
100
AcDbEntity
  8
Defpoints
 62
     0
100
AcDbPoint
 10
330.1466725557407
 20
205.3287907788083
 30
0.0
  0
POINT
  5
CC9
330
B0D
100
AcDbEntity
  8
Defpoints
 62
     0
100
AcDbPoint
 10
330.1466725557407
 20
234.0379617829583
 30
0.0
  0
ENDBLK
  5
B18
330
B0D
100
AcDbEntity
  8
0
100
AcDbBlockEnd
  0
BLOCK
  5
B23
330
B19
100
AcDbEntity
  8
0
100
AcDbBlockBegin
  2
*D12
 70
     1
 10
0.0
 20
0.0
 30
0.0
  3
*D12
  1

  0
LINE
  5
CB8
330
B19
100
AcDbEntity
  8
AM_5
100
AcDbLine
 10
328.1466725557407
 20
208.3287907788082
 30
0.0
 11
343.5976467248997
 21
208.3287907788082
 31
0.0
  0
LINE
  5
CB9
330
B19
100
AcDbEntity
  8
AM_5
100
AcDbLine
 10
328.1466725557407
 20
153.3287907788082
 30
0.0
 11
343.5976467248997
 21
153.3287907788082
 31
0.0
  0
LINE
  5
CBA
330
B19
100
AcDbEntity
  8
AM_5
100
AcDbLine
 10
342.5976467248997
 20
205.8287907788082
 30
0.0
 11
342.5976467248997
 21
155.8287907788082
 31
0.0
  0
INSERT
  5
CBB
330
B19
100
AcDbEntity
  8
AM_5
100
AcDbBlockReference
  2
_Open30
 10
342.5976467248997
 20
208.3287907788082
 30
0.0
 41
2.5
 42
2.5
 43
2.5
 50
90.0
  0
INSERT
  5
CBC
330
B19
100
AcDbEntity
  8
AM_5
100
AcDbBlockReference
  2
_Open30
 10
342.5976467248997
 20
153.3287907788082
 30
0.0
 41
2.5
 42
2.5
 43
2.5
 50
270.0
  0
MTEXT
  5
CBD
330
B19
100
AcDbEntity
  8
AM_5
 62
     2
100
AcDbMText
 10
339.3476467248997
 20
180.8287907788083
 30
0.0
 40
3.5
 41
0.0
 71
     5
 72
     1
  1
55
 11
0.0000000000000001
 21
1.0
 31
0.0
 73
     1
 44
1.0
1001
ACAD
1000
MTEXTBEGIN
1070
    73
1070
     1
1070
    44
1040
1.0
1070
    74
1070
     0
1000
MTEXTEND
  0
POINT
  5
CBE
330
B19
100
AcDbEntity
  8
Defpoints
 62
     0
100
AcDbPoint
 10
327.1466725557407
 20
208.3287907788082
 30
0.0
  0
POINT
  5
CBF
330
B19
100
AcDbEntity
  8
Defpoints
 62
     0
100
AcDbPoint
 10
327.1466725557407
 20
153.3287907788082
 30
0.0
  0
POINT
  5
CC0
330
B19
100
AcDbEntity
  8
Defpoints
 62
     0
100
AcDbPoint
 10
342.5976467248997
 20
153.3287907788082
 30
0.0
  0
ENDBLK
  5
B24
330
B19
100
AcDbEntity
  8
0
100
AcDbBlockEnd
  0
BLOCK
  5
B2F
330
B25
100
AcDbEntity
  8
0
100
AcDbBlockBegin
  2
*D13
 70
     1
 10
0.0
 20
0.0
 30
0.0
  3
*D13
  1

  0
LINE
  5
CAF
330
B25
100
AcDbEntity
  8
AM_5
100
AcDbLine
 10
331.1466725557407
 20
214.3287907788082
 30
0.0
 11
353.114432152091
 21
214.3287907788082
 31
0.0
  0
LINE
  5
CB0
330
B25
100
AcDbEntity
  8
AM_5
100
AcDbLine
 10
331.1466725557407
 20
147.3287907788082
 30
0.0
 11
353.114432152091
 21
147.3287907788082
 31
0.0
  0
LINE
  5
CB1
330
B25
100
AcDbEntity
  8
AM_5
100
AcDbLine
 10
352.114432152091
 20
211.8287907788082
 30
0.0
 11
352.114432152091
 21
149.8287907788082
 31
0.0
  0
INSERT
  5
CB2
330
B25
100
AcDbEntity
  8
AM_5
100
AcDbBlockReference
  2
_Open30
 10
352.114432152091
 20
214.3287907788082
 30
0.0
 41
2.5
 42
2.5
 43
2.5
 50
90.0
  0
INSERT
  5
CB3
330
B25
100
AcDbEntity
  8
AM_5
100
AcDbBlockReference
  2
_Open30
 10
352.114432152091
 20
147.3287907788082
 30
0.0
 41
2.5
 42
2.5
 43
2.5
 50
270.0
  0
MTEXT
  5
CB4
330
B25
100
AcDbEntity
  8
AM_5
 62
     2
100
AcDbMText
 10
348.864432152091
 20
180.8287907788083
 30
0.0
 40
3.5
 41
0.0
 71
     5
 72
     1
  1
67
 11
0.0000000000000001
 21
1.0
 31
0.0
 73
     1
 44
1.0
1001
ACAD
1000
MTEXTBEGIN
1070
    73
1070
     1
1070
    44
1040
1.0
1070
    74
1070
     0
1000
MTEXTEND
  0
POINT
  5
CB5
330
B25
100
AcDbEntity
  8
Defpoints
 62
     0
100
AcDbPoint
 10
330.1466725557407
 20
214.3287907788082
 30
0.0
  0
POINT
  5
CB6
330
B25
100
AcDbEntity
  8
Defpoints
 62
     0
100
AcDbPoint
 10
330.1466725557407
 20
147.3287907788082
 30
0.0
  0
POINT
  5
CB7
330
B25
100
AcDbEntity
  8
Defpoints
 62
     0
100
AcDbPoint
 10
352.114432152091
 20
147.3287907788082
 30
0.0
  0
ENDBLK
  5
B30
330
B25
100
AcDbEntity
  8
0
100
AcDbBlockEnd
  0
BLOCK
  5
B3B
330
B31
100
AcDbEntity
  8
0
100
AcDbBlockBegin
  2
*D14
 70
     1
 10
0.0
 20
0.0
 30
0.0
  3
*D14
  1

  0
LINE
  5
CA6
330
B31
100
AcDbEntity
  8
AM_5
100
AcDbLine
 10
284.1466725557407
 20
218.3287907788082
 30
0.0
 11
284.1466725557407
 21
225.9779789382184
 31
0.0
  0
LINE
  5
CA7
330
B31
100
AcDbEntity
  8
AM_5
100
AcDbLine
 10
327.1466725557407
 20
218.3287907788082
 30
0.0
 11
327.1466725557407
 21
225.9779789382184
 31
0.0
  0
LINE
  5
CA8
330
B31
100
AcDbEntity
  8
AM_5
100
AcDbLine
 10
286.6466725557407
 20
224.9779789382184
 30
0.0
 11
324.6466725557407
 21
224.9779789382184
 31
0.0
  0
INSERT
  5
CA9
330
B31
100
AcDbEntity
  8
AM_5
100
AcDbBlockReference
  2
_Open30
 10
284.1466725557407
 20
224.9779789382184
 30
0.0
 41
2.5
 42
2.5
 43
2.5
 50
180.0
  0
INSERT
  5
CAA
330
B31
100
AcDbEntity
  8
AM_5
100
AcDbBlockReference
  2
_Open30
 10
327.1466725557407
 20
224.9779789382184
 30
0.0
 41
2.5
 42
2.5
 43
2.5
  0
MTEXT
  5
CAB
330
B31
100
AcDbEntity
  8
AM_5
 62
     2
100
AcDbMText
 10
305.6466725557407
 20
228.2279789382184
 30
0.0
 40
3.5
 41
0.0
 71
     5
 72
     1
  1
43
 73
     1
 44
1.0
1001
ACAD
1000
MTEXTBEGIN
1070
    73
1070
     1
1070
    44
1040
1.0
1070
    74
1070
     0
1000
MTEXTEND
  0
POINT
  5
CAC
330
B31
100
AcDbEntity
  8
Defpoints
 62
     0
100
AcDbPoint
 10
284.1466725557407
 20
217.3287907788083
 30
0.0
  0
POINT
  5
CAD
330
B31
100
AcDbEntity
  8
Defpoints
 62
     0
100
AcDbPoint
 10
327.1466725557407
 20
217.3287907788083
 30
0.0
  0
POINT
  5
CAE
330
B31
100
AcDbEntity
  8
Defpoints
 62
     0
100
AcDbPoint
 10
327.1466725557407
 20
224.9779789382184
 30
0.0
  0
ENDBLK
  5
B3C
330
B31
100
AcDbEntity
  8
0
100
AcDbBlockEnd
  0
BLOCK
  5
B91
330
B88
100
AcDbEntity
  8
0
100
AcDbBlockBegin
  2
TK-A3
 70
     0
 10
0.0
 20
0.0
 30
0.0
  3
TK-A3
  1

  0
LWPOLYLINE
  5
B89
330
B88
100
AcDbEntity
  8
0
100
AcDbPolyline
 90
        4
 70
     1
 43
0.0
 10
0.0
 20
0.0
 10
403.0
 20
0.0
 10
403.0
 20
280.0
 10
0.0
 20
280.0000000000001
1001
GENIUS_GENREC_14
1002
{
1000
PYDIR
1011
0.0000000000000178
1021
280.0
1031
0.0
1002
}
1002
{
1000
PXDIR
1011
403.0
1021
0.0
1031
0.0
1002
}
1002
{
1000
PORI
1011
0.0
1021
0.0
1031
0.0
1002
}
1002
{
1000
PINS
1011
0.0
1021
0.0
1031
0.0
1002
}
1002
{
1000
PINS2
1011
403.0
1021
280.0
1031
0.0
1002
}
1002
{
1000
C
1070
     1
1002
}
1001
GENIUS_GENODEF_13
1002
{
1000
HIER
1070
     0
1002
}
1002
{
1000
MANEDIT
1070
     0
1002
}
1002
{
1000
NOSEL
1070
     0
1002
}
1002
{
1000
BEHIND
1070
     0
1002
}
1002
{
1000
OTHER
1070
     0
1002
}
1002
{
1000
REACTOR
1002
}
1001
GENIUS_GENOBJ-N-REC_13
1002
{
1000
OWNER
1000
GEN
1002
}
  0
TEXT
  5
B8A
330
B88
100
AcDbEntity
  8
0
 60
     1
100
AcDbText
 10
403.0
 20
280.0
 30
0.0
 40
2.5
  1
!GENTITLE-MAX
100
AcDbText
  0
TEXT
  5
B8B
330
B88
100
AcDbEntity
  8
0
 60
     1
100
AcDbText
 10
0.0
 20
0.0
 30
0.0
 40
2.5
  1
!GENTITLE-LL
100
AcDbText
  0
TEXT
  5
B8C
330
B88
100
AcDbEntity
  8
0
 60
     1
100
AcDbText
 10
403.0
 20
0.0
 30
0.0
 40
2.5
  1
!GENTITLE-INSERT
100
AcDbText
  0
LINE
  5
B8D
330
B88
100
AcDbEntity
  8
0
100
AcDbLine
 10
359.0
 20
275.0
 30
0.0
 11
403.0
 21
275.0
 31
0.0
  0
MTEXT
  5
B8E
330
B88
100
AcDbEntity
  8
0
100
AcDbMText
 10
402.3592953827349
 20
276.108542987227
 30
0.0
 40
2.5
 41
43.07840397728298
 71
     9
 72
     5
  1
(文書番号：TY-34)2008.02.08
 73
     1
 44
1.0
1001
ACAD
1000
MTEXTBEGIN
1070
    73
1070
     1
1070
    44
1040
1.0
1070
    74
1070
     0
1000
MTEXTEND
  0
LINE
  5
B8F
330
B88
100
AcDbEntity
  8
0
100
AcDbLine
 10
359.0
 20
280.0
 30
0.0
 11
359.0
 21
275.0
 31
0.0
  0
ENDBLK
  5
B92
330
B88
100
AcDbEntity
  8
0
100
AcDbBlockEnd
  0
BLOCK
  5
BF5
330
B9B
100
AcDbEntity
  8
0
100
AcDbBlockBegin
  2
TK-TITLE
 70
     2
 10
0.0
 20
0.0
 30
0.0
  3
TK-TITLE
  1

  0
ATTDEF
  5
B9C
330
B9B
100
AcDbEntity
  8
0
100
AcDbText
 10
-8.002309189545826
 20
1.705189434395036
 30
0.0
 40
2.5
  1

100
AcDbAttributeDefinition
  3
Rev.
  2
GEN-TITLE-NR2
 70
     0
  0
ATTDEF
  5
B9D
330
B9B
100
AcDbEntity
  8
0
100
AcDbText
 10
-84.14251901585329
 20
12.82790432564377
 30
0.0
 40
3.5
  1

100
AcDbAttributeDefinition
  3
品名
  2
GEN-TITLE-DES1
 70
     0
  0
LINE
  5
B9E
330
B9B
100
AcDbEntity
  8
0
100
AcDbLine
 10
0.0
 20
0.0
 30
0.0
 11
0.0
 21
50.0
 31
0.0
1001
GENIUS_GENREC_14
1002
{
1000
PYDIR
1011
-414.0
1021
291.0
1031
0.0
1002
}
1002
{
1000
PXDIR
1011
6.0
1021
-6.0
1031
0.0
1002
}
1002
{
1000
PORI
1011
-414.0
1021
-6.0
1031
0.0
1002
}
1002
{
1000
PINS
1011
-414.0
1021
-6.0
1031
0.0
1002
}
1002
{
1000
HVAL
1000
297
1002
}
1002
{
1000
H
1070
     2
1002
}
1002
{
1000
WVAL
1000
420
1002
}
1002
{
1000
W
1070
     2
1002
}
1002
{
1000
C
1070
     1
1002
}
1001
GENIUS_GENODEF_13
1002
{
1000
HIER
1070
     0
1002
}
1002
{
1000
MANEDIT
1070
     0
1002
}
1002
{
1000
NOSEL
1070
     0
1002
}
1002
{
1000
BEHIND
1070
     0
1002
}
1002
{
1000
OTHER
1070
     0
1002
}
1002
{
1000
REACTOR
1002
}
1001
GENIUS_GENOBJ-N-REC_13
1002
{
1000
OWNER
1000
GEN
1002
}
  0
ATTDEF
  5
B9F
330
B9B
100
AcDbEntity
  8
0
100
AcDbText
 10
-84.0
 20
9.149999999999948
 30
0.0
 40
2.5
  1

100
AcDbAttributeDefinition
  3
サブタイトル
  2
GEN-TITLE-DES2
 70
     0
  0
ATTDEF
  5
BA0
330
B9B
100
AcDbEntity
  8
0
100
AcDbText
 10
-84.0
 20
1.999999999999957
 30
0.0
 40
3.0
  1

100
AcDbAttributeDefinition
  3
図番
  2
GEN-TITLE-NR1
 70
     0
  0
LINE
  5
BA1
330
B9B
100
AcDbEntity
  8
0
100
AcDbLine
 10
-96.0
 20
50.00000000000001
 30
0.0
 11
-96.0
 21
-0.0000000000000142
 31
0.0
1001
GENIUS_GENREC_14
1002
{
1000
PYDIR
1011
-96.0
1021
49.99999999999999
1031
0.0
1002
}
1002
{
1000
PXDIR
1011
88.0
1021
-0.0000000000000142
1031
0.0
1002
}
1002
{
1000
PORI
1011
-96.0
1021
-0.0000000000000142
1031
0.0
1002
}
1002
{
1000
PINS
1011
-12.5
1021
24.99999999999999
1031
0.0
1002
}
1002
{
1000
HVAL
1000
50
1002
}
1002
{
1000
H
1070
     2
1002
}
1002
{
1000
WVAL
1000
167
1002
}
1002
{
1000
W
1070
     2
1002
}
1002
{
1000
C
1070
     4
1002
}
1001
GENIUS_GENODEF_13
1002
{
1000
HIER
1070
     0
1002
}
1002
{
1000
MANEDIT
1070
     0
1002
}
1002
{
1000
NOSEL
1070
     0
1002
}
1002
{
1000
BEHIND
1070
     0
1002
}
1002
{
1000
REACTOR
1002
}
1001
GENIUS_GENOBJ-N-REC_13
1002
{
1000
OWNER
1000
GEN
1002
}
  0
LINE
  5
BA2
330
B9B
100
AcDbEntity
  8
0
100
AcDbLine
 10
0.0
 20
50.0
 30
0.0
 11
-193.0000000000001
 21
50.00000000000002
 31
0.0
1001
GENIUS_GENREC_14
1002
{
1000
PYDIR
1011
-184.0
1021
50.0
1031
0.0
1002
}
1002
{
1000
PXDIR
1011
0.0
1021
0.0
1031
0.0
1002
}
1002
{
1000
PORI
1011
-184.0
1021
0.0
1031
0.0
1002
}
1002
{
1000
PINS
1011
-100.5
1021
25.0
1031
0.0
1002
}
1002
{
1000
HVAL
1000
50
1002
}
1002
{
1000
H
1070
     2
1002
}
1002
{
1000
WVAL
1000
167
1002
}
1002
{
1000
W
1070
     2
1002
}
1002
{
1000
C
1070
     4
1002
}
1001
GENIUS_GENODEF_13
1002
{
1000
HIER
1070
     0
1002
}
1002
{
1000
MANEDIT
1070
     0
1002
}
1002
{
1000
NOSEL
1070
     0
1002
}
1002
{
1000
BEHIND
1070
     0
1002
}
1002
{
1000
REACTOR
1002
}
1001
GENIUS_GENOBJ-N-REC_13
1002
{
1000
OWNER
1000
GEN
1002
}
  0
LINE
  5
BA3
330
B9B
100
AcDbEntity
  8
0
100
AcDbLine
 10
-193.0000000000001
 20
0.0
 30
0.0
 11
0.0
 21
0.0
 31
0.0
1001
GENIUS_GENREC_14
1002
{
1000
PYDIR
1011
-184.0
1021
50.0
1031
0.0
1002
}
1002
{
1000
PXDIR
1011
0.0
1021
0.0
1031
0.0
1002
}
1002
{
1000
PORI
1011
-184.0
1021
0.0
1031
0.0
1002
}
1002
{
1000
PINS
1011
-100.5
1021
25.0
1031
0.0
1002
}
1002
{
1000
HVAL
1000
50
1002
}
1002
{
1000
H
1070
     2
1002
}
1002
{
1000
WVAL
1000
167
1002
}
1002
{
1000
W
1070
     2
1002
}
1002
{
1000
C
1070
     4
1002
}
1001
GENIUS_GENODEF_13
1002
{
1000
HIER
1070
     0
1002
}
1002
{
1000
MANEDIT
1070
     0
1002
}
1002
{
1000
NOSEL
1070
     0
1002
}
1002
{
1000
BEHIND
1070
     0
1002
}
1002
{
1000
REACTOR
1002
}
1001
GENIUS_GENOBJ-N-REC_13
1002
{
1000
OWNER
1000
GEN
1002
}
  0
TEXT
  5
BA4
330
B9B
100
AcDbEntity
  8
RAHM2
100
AcDbText
 10
-91.92677669529663
 20
45.98333333333335
 30
0.0
 40
2.5
  1
5
 72
     1
 11
-91.0
 21
45.65000000000002
 31
0.0
100
AcDbText
 73
     1
  0
TEXT
  5
BA5
330
B9B
100
AcDbEntity
  8
RAHM2
100
AcDbText
 10
-92.0
 20
40.98333333333335
 30
0.0
 40
2.5
  1
4
 72
     1
 11
-91.0
 21
40.65000000000002
 31
0.0
100
AcDbText
 73
     1
  0
TEXT
  5
BA6
330
B9B
100
AcDbEntity
  8
RAHM2
100
AcDbText
 10
-91.92677669529663
 20
35.98333333333333
 30
0.0
 40
2.5
  1
3
 72
     1
 11
-91.0
 21
35.64999999999999
 31
0.0
100
AcDbText
 73
     1
  0
TEXT
  5
BA7
330
B9B
100
AcDbEntity
  8
RAHM2
100
AcDbText
 10
-91.91833169291339
 20
30.98333333333335
 30
0.0
 40
2.5
  1
2
 72
     1
 11
-91.0
 21
30.65000000000002
 31
0.0
100
AcDbText
 73
     1
  0
TEXT
  5
BA8
330
B9B
100
AcDbEntity
  8
RAHM2
100
AcDbText
 10
-91.81558635658019
 20
25.98333333333335
 30
0.0
 40
2.5
  1
1
 72
     1
 11
-91.19058635658019
 21
25.65000000000002
 31
0.0
100
AcDbText
 73
     1
  0
MTEXT
  5
BA9
330
B9B
100
AcDbEntity
  8
RAHM2
100
AcDbMText
 10
-22.27910888308327
 20
27.50000000000003
 30
0.0
 40
2.5
 41
20.0
 71
     5
 72
     5
  1
・  ・   
 73
     1
 44
1.0
1001
ACAD
1000
MTEXTBEGIN
1070
    73
1070
     1
1070
    44
1040
1.0
1070
    74
1070
     0
1000
MTEXTEND
  0
LINE
  5
BAA
330
B9B
100
AcDbEntity
  8
RAHM2
100
AcDbLine
 10
-96.0
 20
25.0
 30
0.0
 11
0.0000000000001137
 21
25.00000000000003
 31
0.0
  0
LINE
  5
BAB
330
B9B
100
AcDbEntity
  8
RAHM2
100
AcDbLine
 10
-93.42487113059645
 20
25.40000000000002
 30
0.0
 11
-88.57512886940355
 21
25.40000000000002
 31
0.0
  0
LINE
  5
BAC
330
B9B
100
AcDbEntity
  8
RAHM2
100
AcDbLine
 10
-88.57512886940355
 20
25.40000000000002
 30
0.0
 11
-91.0
 21
29.60000000000001
 31
0.0
  0
LINE
  5
BAD
330
B9B
100
AcDbEntity
  8
RAHM2
100
AcDbLine
 10
-91.0
 20
29.60000000000001
 30
0.0
 11
-93.42487113059645
 21
25.40000000000002
 31
0.0
  0
MTEXT
  5
BAE
330
B9B
100
AcDbEntity
  8
RAHM2
100
AcDbMText
 10
-22.27910888308327
 20
47.50000000000002
 30
0.0
 40
2.5
 41
20.0
 71
     5
 72
     5
  1
・  ・   
 73
     1
 44
1.0
1001
ACAD
1000
MTEXTBEGIN
1070
    73
1070
     1
1070
    44
1040
1.0
1070
    74
1070
     0
1000
MTEXTEND
  0
MTEXT
  5
BAF
330
B9B
100
AcDbEntity
  8
RAHM2
100
AcDbMText
 10
-22.27910888308327
 20
37.50000000000003
 30
0.0
 40
2.5
 41
20.0
 71
     5
 72
     5
  1
・  ・   
 73
     1
 44
1.0
1001
ACAD
1000
MTEXTBEGIN
1070
    73
1070
     1
1070
    44
1040
1.0
1070
    74
1070
     0
1000
MTEXTEND
  0
MTEXT
  5
BB0
330
B9B
100
AcDbEntity
  8
RAHM2
100
AcDbMText
 10
-22.27910888308327
 20
42.50000000000002
 30
0.0
 40
2.5
 41
20.0
 71
     5
 72
     5
  1
・  ・   
 73
     1
 44
1.0
1001
ACAD
1000
MTEXTBEGIN
1070
    73
1070
     1
1070
    44
1040
1.0
1070
    74
1070
     0
1000
MTEXTEND
  0
MTEXT
  5
BB1
330
B9B
100
AcDbEntity
  8
RAHM2
100
AcDbMText
 10
-5.910409705344477
 20
22.49999999999997
 30
0.0
 40
2.5
 41
15.0
 71
     5
 72
     5
  1
担当
 73
     1
 44
1.0
1001
ACAD
1000
MTEXTBEGIN
1070
    73
1070
     1
1070
    44
1040
1.0
1070
    74
1070
     0
1000
MTEXTEND
  0
MTEXT
  5
BB2
330
B9B
100
AcDbEntity
  8
RAHM2
100
AcDbMText
 10
-21.55893921569111
 20
22.49999999999997
 30
0.0
 40
2.5
 41
20.0
 71
     5
 72
     5
  1
年・月・日
 73
     1
 44
1.0
1001
ACAD
1000
MTEXTBEGIN
1070
    73
1070
     1
1070
    44
1040
1.0
1070
    74
1070
     0
1000
MTEXTEND
  0
MTEXT
  5
BB3
330
B9B
100
AcDbEntity
  8
RAHM2
100
AcDbMText
 10
-22.27910888308327
 20
32.50000000000003
 30
0.0
 40
2.5
 41
20.0
 71
     5
 72
     5
  1
・  ・   
 73
     1
 44
1.0
1001
ACAD
1000
MTEXTBEGIN
1070
    73
1070
     1
1070
    44
1040
1.0
1070
    74
1070
     0
1000
MTEXTEND
  0
LINE
  5
BB4
330
B9B
100
AcDbEntity
  8
RAHM2
100
AcDbLine
 10
-11.82081941068907
 20
50.00000000000003
 30
0.0
 11
-11.82081941068907
 21
19.99999999999994
 31
0.0
  0
MTEXT
  5
BB5
330
B9B
100
AcDbEntity
  8
RAHM2
100
AcDbMText
 10
-59.0
 20
22.49999999999996
 30
0.0
 40
2.5
 41
45.0
 71
     5
 72
     5
  1
変更記事
 73
     1
 44
1.0
1001
ACAD
1000
MTEXTBEGIN
1070
    73
1070
     1
1070
    44
1040
1.0
1070
    74
1070
     0
1000
MTEXTEND
  0
LINE
  5
BB6
330
B9B
100
AcDbEntity
  8
RAHM2
100
AcDbLine
 10
-31.82081941068907
 20
50.00000000000003
 30
0.0
 11
-31.82081941068918
 21
19.99999999999994
 31
0.0
  0
LINE
  5
BB7
330
B9B
100
AcDbEntity
  8
RAHM2
100
AcDbLine
 10
-91.0
 20
49.6
 30
0.0
 11
-93.42487113059645
 21
45.40000000000001
 31
0.0
  0
LINE
  5
BB8
330
B9B
100
AcDbEntity
  8
RAHM2
100
AcDbLine
 10
-91.0
 20
44.6
 30
0.0
 11
-93.42487113059645
 21
40.40000000000001
 31
0.0
  0
LINE
  5
BB9
330
B9B
100
AcDbEntity
  8
RAHM2
100
AcDbLine
 10
-91.0
 20
39.60000000000001
 30
0.0
 11
-93.42487113059645
 21
35.40000000000002
 31
0.0
  0
LINE
  5
BBA
330
B9B
100
AcDbEntity
  8
RAHM2
100
AcDbLine
 10
-88.57512886940355
 20
35.40000000000002
 30
0.0
 11
-91.0
 21
39.60000000000001
 31
0.0
  0
LINE
  5
BBB
330
B9B
100
AcDbEntity
  8
RAHM2
100
AcDbLine
 10
-93.42487113059645
 20
35.40000000000002
 30
0.0
 11
-88.57512886940355
 21
35.40000000000002
 31
0.0
  0
LINE
  5
BBC
330
B9B
100
AcDbEntity
  8
RAHM2
100
AcDbLine
 10
-88.57512886940355
 20
40.40000000000001
 30
0.0
 11
-91.0
 21
44.6
 31
0.0
  0
LINE
  5
BBD
330
B9B
100
AcDbEntity
  8
RAHM2
100
AcDbLine
 10
-93.42487113059645
 20
40.40000000000001
 30
0.0
 11
-88.57512886940355
 21
40.40000000000001
 31
0.0
  0
LINE
  5
BBE
330
B9B
100
AcDbEntity
  8
RAHM2
100
AcDbLine
 10
-88.57512886940355
 20
45.40000000000001
 30
0.0
 11
-91.0
 21
49.6
 31
0.0
  0
LINE
  5
BBF
330
B9B
100
AcDbEntity
  8
RAHM2
100
AcDbLine
 10
-93.42487113059645
 20
45.40000000000001
 30
0.0
 11
-88.57512886940355
 21
45.40000000000001
 31
0.0
  0
MTEXT
  5
BC0
330
B9B
100
AcDbEntity
  8
RAHM2
100
AcDbMText
 10
-94.80025513713144
 20
18.8010354072796
 30
0.0
 40
2.5
 41
90.0
 71
     1
 72
     5
  1
品名
 73
     1
 44
1.0
1001
ACAD
1000
MTEXTBEGIN
1070
    73
1070
     1
1070
    44
1040
1.0
1070
    74
1070
     0
1000
MTEXTEND
  0
MTEXT
  5
BC1
330
B9B
100
AcDbEntity
  8
RAHM2
100
AcDbMText
 10
-91.0
 20
22.49999999999996
 30
0.0
 40
2.5
 41
10.0
 71
     5
 72
     5
  1
符号
 73
     1
 44
1.0
1001
ACAD
1000
MTEXTBEGIN
1070
    73
1070
     1
1070
    44
1040
1.0
1070
    74
1070
     0
1000
MTEXTEND
  0
LINE
  5
BC2
330
B9B
100
AcDbEntity
  8
RAHM2
100
AcDbLine
 10
-93.42487113059645
 20
30.40000000000002
 30
0.0
 11
-88.57512886940355
 21
30.40000000000002
 31
0.0
  0
LINE
  5
BC3
330
B9B
100
AcDbEntity
  8
RAHM2
100
AcDbLine
 10
-86.0
 20
50.00000000000001
 30
0.0
 11
-86.0
 21
19.99999999999993
 31
0.0
  0
LINE
  5
BC4
330
B9B
100
AcDbEntity
  8
RAHM2
100
AcDbLine
 10
-91.0
 20
34.60000000000001
 30
0.0
 11
-93.42487113059645
 21
30.40000000000002
 31
0.0
  0
LINE
  5
BC5
330
B9B
100
AcDbEntity
  8
RAHM2
100
AcDbLine
 10
-88.57512886940355
 20
30.40000000000002
 30
0.0
 11
-91.0
 21
34.60000000000001
 31
0.0
  0
MTEXT
  5
BC6
330
B9B
100
AcDbEntity
  8
RAHM2
100
AcDbMText
 10
-94.80025513713144
 20
5.801035407279627
 30
0.0
 40
2.5
 41
90.0
 71
     1
 72
     5
  1
図番
 73
     1
 44
1.0
1001
ACAD
1000
MTEXTBEGIN
1070
    73
1070
     1
1070
    44
1040
1.0
1070
    74
1070
     0
1000
MTEXTEND
  0
LINE
  5
BC7
330
B9B
100
AcDbEntity
  8
0
100
AcDbLine
 10
-96.0
 20
19.99999999999997
 30
0.0
 11
0.0000000000001137
 21
19.99999999999997
 31
0.0
  0
LINE
  5
BC8
330
B9B
100
AcDbEntity
  8
0
100
AcDbLine
 10
-96.0
 20
7.0
 30
0.0
 11
0.0000000000001137
 21
7.0
 31
0.0
  0
LINE
  5
BC9
330
B9B
100
AcDbEntity
  8
RAHM2
100
AcDbLine
 10
-96.0
 20
45.00000000000002
 30
0.0
 11
0.0000000000001137
 21
45.00000000000002
 31
0.0
  0
LINE
  5
BCA
330
B9B
100
AcDbEntity
  8
RAHM2
100
AcDbLine
 10
-96.0
 20
39.99999999999993
 30
0.0
 11
0.0000000000001137
 21
40.00000000000002
 31
0.0
  0
LINE
  5
BCB
330
B9B
100
AcDbEntity
  8
RAHM2
100
AcDbLine
 10
-96.0
 20
35.00000000000003
 30
0.0
 11
0.0000000000001137
 21
35.00000000000003
 31
0.0
  0
LINE
  5
BCC
330
B9B
100
AcDbEntity
  8
RAHM2
100
AcDbLine
 10
-96.0
 20
29.99999999999992
 30
0.0
 11
0.0000000000001137
 21
30.00000000000003
 31
0.0
  0
LINE
  5
BCD
330
B9B
100
AcDbEntity
  8
0
100
AcDbLine
 10
-21.17541926625711
 20
0.0
 30
0.0
 11
-21.17541926625734
 21
7.0
 31
0.0
  0
MTEXT
  5
BCE
330
B9B
100
AcDbEntity
  8
RAHM2
100
AcDbMText
 10
-16.85742592933491
 20
3.434762466565985
 30
0.0
 40
2.5
 41
7.936478436748416
 71
     5
 72
     5
  1
Rev.
 73
     1
 44
1.0
1001
ACAD
1000
MTEXTBEGIN
1070
    73
1070
     1
1070
    44
1040
1.0
1070
    74
1070
     0
1000
MTEXTEND
  0
MTEXT
  5
BCF
330
B9B
100
AcDbEntity
  8
RAHM2
100
AcDbMText
 10
-104.875
 20
18.80103540727957
 30
0.0
 40
2.5
 41
17.0
 71
     2
 72
     5
  1
製図
 73
     1
 44
1.0
1001
ACAD
1000
MTEXTBEGIN
1070
    73
1070
     1
1070
    44
1040
1.0
1070
    74
1070
     0
1000
MTEXTEND
  0
LINE
  5
BD0
330
B9B
100
AcDbEntity
  8
0
100
AcDbLine
 10
-167.0
 20
19.99999999999993
 30
0.0
 11
-96.0
 21
19.99999999999993
 31
0.0
  0
LINE
  5
BD1
330
B9B
100
AcDbEntity
  8
0
100
AcDbLine
 10
-113.75
 20
19.99999999999993
 30
0.0
 11
-113.75
 21
-0.0000000000000533
 31
0.0
  0
LINE
  5
BD2
330
B9B
100
AcDbEntity
  8
0
100
AcDbLine
 10
-131.5000000000001
 20
19.99999999999993
 30
0.0
 11
-131.5000000000001
 21
-0.0000000000000533
 31
0.0
  0
MTEXT
  5
BD3
330
B9B
100
AcDbEntity
  8
RAHM2
100
AcDbMText
 10
-122.6250000000001
 20
18.80103540727958
 30
0.0
 40
2.5
 41
17.0
 71
     2
 72
     5
  1
検図
 73
     1
 44
1.0
1001
ACAD
1000
MTEXTBEGIN
1070
    73
1070
     1
1070
    44
1040
1.0
1070
    74
1070
     0
1000
MTEXTEND
  0
LINE
  5
BD4
330
B9B
100
AcDbEntity
  8
0
100
AcDbLine
 10
-167.0
 20
49.99999999999995
 30
0.0
 11
-167.0
 21
-0.0000000000000497
 31
0.0
  0
LINE
  5
BD5
330
B9B
100
AcDbEntity
  8
0
100
AcDbLine
 10
-149.2500000000001
 20
19.99999999999993
 30
0.0
 11
-149.2500000000001
 21
-0.0000000000000462
 31
0.0
  0
MTEXT
  5
BD6
330
B9B
100
AcDbEntity
  8
RAHM2
100
AcDbMText
 10
-140.3750000000001
 20
18.80103540727958
 30
0.0
 40
2.5
 41
17.0
 71
     2
 72
     5
  1
承認
 73
     1
 44
1.0
1001
ACAD
1000
MTEXTBEGIN
1070
    73
1070
     1
1070
    44
1040
1.0
1070
    74
1070
     0
1000
MTEXTEND
  0
MTEXT
  5
BD7
330
B9B
100
AcDbEntity
  8
RAHM2
100
AcDbMText
 10
-158.1250000000001
 20
18.80103540727956
 30
0.0
 40
2.5
 41
17.0
 71
     2
 72
     5
  1
承認
 73
     1
 44
1.0
1001
ACAD
1000
MTEXTBEGIN
1070
    73
1070
     1
1070
    44
1040
1.0
1070
    74
1070
     0
1000
MTEXTEND
  0
LINE
  5
BD8
330
B9B
100
AcDbEntity
  8
0
100
AcDbLine
 10
-167.0
 20
29.99999999999992
 30
0.0
 11
-96.0
 21
29.99999999999992
 31
0.0
  0
MTEXT
  5
BD9
330
B9B
100
AcDbEntity
  8
0
100
AcDbMText
 10
-131.5000000000001
 20
24.99999999999992
 30
0.0
 40
3.5
 41
60.0
 71
     5
 72
     5
  1
\fＭＳ ゴシック|b0|i0|c128|p49;株式会社タカチ電機工業
 73
     1
 44
1.0
1001
ACAD
1000
MTEXTBEGIN
1070
    73
1070
     1
1070
    44
1040
1.0
1070
    74
1070
     0
1000
MTEXTEND
  0
ATTDEF
  5
BDA
330
B9B
100
AcDbEntity
  8
0
100
AcDbText
 10
-148.9618675835291
 20
43.29999999999991
 30
0.0
 40
3.0
  1

100
AcDbAttributeDefinition
  3
材質
  2
GEN-TITLE-MAT1
 70
     0
  0
ATTDEF
  5
BDB
330
B9B
100
AcDbEntity
  8
0
100
AcDbText
 10
-148.9618675835291
 20
33.29999999999991
 30
0.0
 40
3.0
  1

100
AcDbAttributeDefinition
  3
表面処理
  2
GEN-TITLE-MAT2
 70
     0
  0
MTEXT
  5
BDC
330
B9B
100
AcDbEntity
  8
RAHM2
100
AcDbMText
 10
-165.8002551371314
 20
48.80103540727955
 30
0.0
 40
2.5
 41
60.0
 71
     1
 72
     5
  1
材質
 73
     1
 44
1.0
1001
ACAD
1000
MTEXTBEGIN
1070
    73
1070
     1
1070
    44
1040
1.0
1070
    74
1070
     0
1000
MTEXTEND
  0
MTEXT
  5
BDD
330
B9B
100
AcDbEntity
  8
RAHM2
100
AcDbMText
 10
-165.8002551371314
 20
38.80103540727956
 30
0.0
 40
2.5
 41
60.0
 71
     1
 72
     5
  1
表面処理
 73
     1
 44
1.0
1001
ACAD
1000
MTEXTBEGIN
1070
    73
1070
     1
1070
    44
1040
1.0
1070
    74
1070
     0
1000
MTEXTEND
  0
LINE
  5
BDE
330
B9B
100
AcDbEntity
  8
0
100
AcDbLine
 10
-167.0
 20
39.99999999999991
 30
0.0
 11
-96.0
 21
39.99999999999992
 31
0.0
  0
LINE
  5
BDF
330
B9B
100
AcDbEntity
  8
0
100
AcDbLine
 10
-167.0
 20
24.99999999999997
 30
0.0
 11
-193.0000000000001
 21
24.99999999999997
 31
0.0
  0
LINE
  5
BE0
330
B9B
100
AcDbEntity
  8
0
100
AcDbLine
 10
-171.7167418745796
 20
46.74999999999995
 30
0.0
 11
-171.7167418745796
 21
40.74999999999994
 31
0.0
  0
LINE
  5
BE1
330
B9B
100
AcDbEntity
  8
7A
100
AcDbLine
 10
-184.7167418745796
 20
43.74999999999995
 30
0.0
 11
-184.7167418745796
 21
40.03991724228473
 31
0.0
1001
GENIUS_GENOREF_13
1005
BF3
  0
LINE
  5
BE2
330
B9B
100
AcDbEntity
  8
7A
100
AcDbLine
 10
-184.7167418745796
 20
43.74999999999995
 30
0.0
 11
-188.4397792458307
 21
43.74999999999995
 31
0.0
1001
GENIUS_GENOREF_13
1005
BF3
  0
LINE
  5
BE3
330
B9B
100
AcDbEntity
  8
0
100
AcDbLine
 10
-179.7167418745796
 20
41.74999999999995
 30
0.0
 11
-179.7167418745796
 21
45.74999999999994
 31
0.0
  0
CIRCLE
  5
BE4
330
B9B
100
AcDbEntity
  8
0
100
AcDbCircle
 10
-184.7167418745796
 20
43.74999999999995
 30
0.0
 40
3.0
  0
CIRCLE
  5
BE5
330
B9B
100
AcDbEntity
  8
0
100
AcDbCircle
 10
-184.7167418745796
 20
43.74999999999995
 30
0.0
 40
2.0
  0
LINE
  5
BE6
330
B9B
100
AcDbEntity
  8
7A
100
AcDbLine
 10
-184.7167418745796
 20
43.74999999999995
 30
0.0
 11
-184.7167418745796
 21
47.32478664473144
 31
0.0
1001
GENIUS_GENOREF_13
1005
BF3
  0
LINE
  5
BE7
330
B9B
100
AcDbEntity
  8
0
100
AcDbLine
 10
-171.7167418745796
 20
40.74999999999994
 30
0.0
 11
-179.7167418745796
 21
41.74999999999995
 31
0.0
  0
LINE
  5
BE8
330
B9B
100
AcDbEntity
  8
0
100
AcDbLine
 10
-179.7167418745796
 20
45.74999999999994
 30
0.0
 11
-171.7167418745796
 21
46.74999999999995
 31
0.0
  0
LINE
  5
BE9
330
B9B
100
AcDbEntity
  8
7A
100
AcDbLine
 10
-184.7167418745796
 20
43.74999999999995
 30
0.0
 11
-170.9354334742943
 21
43.74999999999995
 31
0.0
1001
GENIUS_GENOREF_13
1005
BF3
  0
LINE
  5
BEA
330
B9B
100
AcDbEntity
  8
0
100
AcDbLine
 10
-193.0000000000001
 20
49.99999999999999
 30
0.0
 11
-193.0000000000001
 21
-0.0000000000000142
 31
0.0
  0
ATTDEF
  5
BEB
330
B9B
100
AcDbEntity
  8
0
100
AcDbText
 10
-175.6127409126095
 20
16.19999999999994
 30
0.0
 40
3.0
  1

 72
     2
 11
-175.6127409126095
 21
15.79999999999994
 31
0.0
100
AcDbAttributeDefinition
  3
数量
  2
GEN-TITLE-QTY
 70
     0
 74
     1
  0
MTEXT
  5
BEC
330
B9B
100
AcDbEntity
  8
RAHM2
100
AcDbMText
 10
-191.8002551371315
 20
23.80103540727963
 30
0.0
 40
2.5
 41
20.0
 71
     1
 72
     5
  1
数量
 73
     1
 44
1.0
1001
ACAD
1000
MTEXTBEGIN
1070
    73
1070
     1
1070
    44
1040
1.0
1070
    74
1070
     0
1000
MTEXTEND
  0
MTEXT
  5
BED
330
B9B
100
AcDbEntity
  8
RAHM2
100
AcDbMText
 10
-191.8002551371315
 20
36.30103540727966
 30
0.0
 40
2.5
 41
20.0
 71
     1
 72
     5
  1
尺度
 73
     1
 44
1.0
1001
ACAD
1000
MTEXTBEGIN
1070
    73
1070
     1
1070
    44
1040
1.0
1070
    74
1070
     0
1000
MTEXTEND
  0
ATTDEF
  5
BEE
330
B9B
100
AcDbEntity
  8
0
100
AcDbText
 10
-177.824739614424
 20
28.69999999999997
 30
0.0
 40
3.0
  1

 72
     2
 11
-177.824739614424
 21
28.29999999999998
 31
0.0
100
AcDbAttributeDefinition
  3
尺度
  2
GEN-TITLE-SCA
 70
     0
 74
     1
  0
MTEXT
  5
BEF
330
B9B
100
AcDbEntity
  8
RAHM2
100
AcDbMText
 10
-191.8002551371315
 20
11.3010354072796
 30
0.0
 40
2.5
 41
60.0
 71
     1
 72
     5
  1
日付
 73
     1
 44
1.0
1001
ACAD
1000
MTEXTBEGIN
1070
    73
1070
     1
1070
    44
1040
1.0
1070
    74
1070
     0
1000
MTEXTEND
  0
ATTDEF
  5
BF0
330
B9B
100
AcDbEntity
  8
0
100
AcDbText
 10
-180.2171951662138
 20
3.988342537610664
 30
0.0
 40
3.0
  1

 72
     1
 11
-180.2171951662138
 21
3.588342537610664
 31
0.0
100
AcDbAttributeDefinition
  3
日付
  2
GEN-TITLE-DAT
 70
     0
 74
     1
  0
LINE
  5
BF1
330
B9B
100
AcDbEntity
  8
0
100
AcDbLine
 10
-167.0
 20
37.49999999999998
 30
0.0
 11
-193.0000000000001
 21
37.49999999999998
 31
0.0
  0
LINE
  5
BF2
330
B9B
100
AcDbEntity
  8
0
100
AcDbLine
 10
-167.0
 20
12.49999999999996
 30
0.0
 11
-193.0000000000001
 21
12.49999999999996
 31
0.0
  0
POINT
  5
BF3
330
B9B
100
AcDbEntity
  8
0
 60
     1
100
AcDbPoint
 10
-418.5355579819675
 20
-138.1104841268254
 30
0.0
1001
GENIUS_GENODEF_13
1002
{
1000
HIER
1070
    10
1002
}
1002
{
1000
MANEDIT
1070
     0
1002
}
1002
{
1000
NOSEL
1070
     0
1002
}
1002
{
1000
BEHIND
1070
     0
1002
}
1002
{
1000
REACTOR
1002
}
1001
GENIUS_GENOBJ-N-CRS_13
1002
{
1000
OWNER
1000
GEN
1002
}
1001
GENIUS_GENOLIS_13
1002
{
1000
ENT
1005
BE1
1005
BE2
1005
BE6
1005
BE9
1002
}
1001
GENIUS_GENOENT_13
1002
{
1000
MYREF
1005
0
1002
}
1002
{
1000
GRP
1005
0
1002
}
  0
ENDBLK
  5
BF6
330
B9B
100
AcDbEntity
  8
0
100
AcDbBlockEnd
  0
BLOCK
  5
EC2
330
EAA
100
AcDbEntity
  8
0
100
AcDbBlockBegin
  2
*D17
 70
     1
 10
0.0
 20
0.0
 30
0.0
  3
*D17
  1

  0
LINE
  5
EB6
330
EAA
100
AcDbEntity
  8
AM_5
100
AcDbLine
 10
69.7753347343247
 20
205.8287907788082
 30
0.0
 11
47.52533373432469
 21
205.8287907788083
 31
0.0
  0
LINE
  5
EB7
330
EAA
100
AcDbEntity
  8
AM_5
100
AcDbLine
 10
69.7753347343247
 20
155.8287907788082
 30
0.0
 11
47.52533373432468
 21
155.8287907788082
 31
0.0
  0
LINE
  5
EB8
330
EAA
100
AcDbEntity
  8
AM_5
100
AcDbLine
 10
48.52533373432469
 20
203.3287907788082
 30
0.0
 11
48.52533373432468
 21
158.3287907788083
 31
0.0
  0
INSERT
  5
EB9
330
EAA
100
AcDbEntity
  8
AM_5
100
AcDbBlockReference
  2
_Open30
 10
48.52533373432469
 20
205.8287907788083
 30
0.0
 41
2.5
 42
2.5
 43
2.5
 50
90.0
  0
INSERT
  5
EBA
330
EAA
100
AcDbEntity
  8
AM_5
100
AcDbBlockReference
  2
_Open30
 10
48.52533373432468
 20
155.8287907788082
 30
0.0
 41
2.5
 42
2.5
 43
2.5
 50
270.0
  0
MTEXT
  5
EBB
330
EAA
100
AcDbEntity
  8
AM_5
 62
     2
100
AcDbMText
 10
45.27533373432466
 20
180.8287907788082
 30
0.0
 40
3.5
 41
0.0
 71
     5
 72
     1
  1
50
 11
0.0000000000000001
 21
1.0
 31
0.0
 73
     1
 44
1.0
1001
ACAD
1000
MTEXTBEGIN
1070
    73
1070
     1
1070
    44
1040
1.0
1070
    74
1070
     0
1000
MTEXTEND
  0
POINT
  5
EBC
330
EAA
100
AcDbEntity
  8
Defpoints
 62
     0
100
AcDbPoint
 10
70.7753347343247
 20
205.8287907788082
 30
0.0
  0
POINT
  5
EBD
330
EAA
100
AcDbEntity
  8
Defpoints
 62
     0
100
AcDbPoint
 10
70.7753347343247
 20
155.8287907788082
 30
0.0
  0
POINT
  5
EBE
330
EAA
100
AcDbEntity
  8
Defpoints
 62
     0
100
AcDbPoint
 10
48.52533373432468
 20
155.8287907788082
 30
0.0
  0
ENDBLK
  5
EC3
330
EAA
100
AcDbEntity
  8
0
100
AcDbBlockEnd
  0
BLOCK
  5
1707
330
16EF
100
AcDbEntity
  8
0
100
AcDbBlockBegin
  2
*D18
 70
     1
 10
0.0
 20
0.0
 30
0.0
  3
*D18
  1

  0
LINE
  5
1714
330
16EF
100
AcDbEntity
  8
AM_5
100
AcDbLine
 10
62.777434604864
 20
112.5380711881951
 30
0.0
 11
35.05864635993954
 21
112.5380711881951
 31
0.0
  0
LINE
  5
1715
330
16EF
100
AcDbEntity
  8
AM_5
100
AcDbLine
 10
62.77743460486401
 20
101.538071188195
 30
0.0
 11
35.05864635993953
 21
101.538071188195
 31
0.0
  0
LINE
  5
1716
330
16EF
100
AcDbEntity
  8
AM_5
100
AcDbLine
 10
36.05864635993953
 20
110.0380711881951
 30
0.0
 11
36.05864635993953
 21
104.0380711881949
 31
0.0
  0
INSERT
  5
1717
330
16EF
100
AcDbEntity
  8
AM_5
100
AcDbBlockReference
  2
_Open30
 10
36.05864635993954
 20
112.5380711881951
 30
0.0
 41
2.5
 42
2.5
 43
2.5
 50
90.0
  0
INSERT
  5
1718
330
16EF
100
AcDbEntity
  8
AM_5
100
AcDbBlockReference
  2
_Open30
 10
36.05864635993953
 20
101.538071188195
 30
0.0
 41
2.5
 42
2.5
 43
2.5
 50
270.0
  0
MTEXT
  5
1719
330
16EF
100
AcDbEntity
  8
AM_5
 62
     2
100
AcDbMText
 10
32.80864635993952
 20
107.038071188195
 30
0.0
 40
3.5
 41
0.0
 71
     5
 72
     1
  1
11
 11
0.0000000000000001
 21
1.0
 31
0.0
 73
     1
 44
1.0
1001
ACAD
1000
MTEXTBEGIN
1070
    73
1070
     1
1070
    44
1040
1.0
1070
    74
1070
     0
1000
MTEXTEND
  0
POINT
  5
171A
330
16EF
100
AcDbEntity
  8
Defpoints
 62
     0
100
AcDbPoint
 10
63.77743460486399
 20
112.5380711881951
 30
0.0
  0
POINT
  5
171B
330
16EF
100
AcDbEntity
  8
Defpoints
 62
     0
100
AcDbPoint
 10
63.777434604864
 20
101.538071188195
 30
0.0
  0
POINT
  5
171C
330
16EF
100
AcDbEntity
  8
Defpoints
 62
     0
100
AcDbPoint
 10
36.05864635993953
 20
101.538071188195
 30
0.0
  0
ENDBLK
  5
1708
330
16EF
100
AcDbEntity
  8
0
100
AcDbBlockEnd
  0
BLOCK
  5
1753
330
1737
100
AcDbEntity
  8
0
100
AcDbBlockBegin
  2
*D19
 70
     1
 10
0.0
 20
0.0
 30
0.0
  3
*D19
  1

  0
LINE
  5
1755
330
1737
100
AcDbEntity
  8
AM_5
100
AcDbLine
 10
66.22953447540325
 20
105.4380711881949
 30
0.0
 11
47.52533373432468
 21
105.4380711881949
 31
0.0
  0
LINE
  5
1756
330
1737
100
AcDbEntity
  8
AM_5
100
AcDbLine
 10
66.22953447540325
 20
108.638071188195
 30
0.0
 11
47.52533373432468
 21
108.638071188195
 31
0.0
  0
LINE
  5
1757
330
1737
100
AcDbEntity
  8
AM_5
100
AcDbLine
 10
48.52533373432468
 20
102.9380711881949
 30
0.0
 11
48.52533373432468
 21
100.4380711881949
 31
0.0
  0
LINE
  5
1758
330
1737
100
AcDbEntity
  8
AM_5
100
AcDbLine
 10
48.52533373432468
 20
111.138071188195
 30
0.0
 11
48.52533373432469
 21
121.7482778811084
 31
0.0
  0
LINE
  5
1759
330
1737
100
AcDbEntity
  8
AM_5
100
AcDbLine
 10
48.52533373432468
 20
105.4380711881949
 30
0.0
 11
48.52533373432468
 21
108.638071188195
 31
0.0
  0
INSERT
  5
175A
330
1737
100
AcDbEntity
  8
AM_5
100
AcDbBlockReference
  2
_Open30
 10
48.52533373432468
 20
105.4380711881949
 30
0.0
 41
2.5
 42
2.5
 43
2.5
 50
90.0
  0
INSERT
  5
175B
330
1737
100
AcDbEntity
  8
AM_5
100
AcDbBlockReference
  2
_Open30
 10
48.52533373432468
 20
108.638071188195
 30
0.0
 41
2.5
 42
2.5
 43
2.5
 50
270.0
  0
MTEXT
  5
175C
330
1737
100
AcDbEntity
  8
AM_5
 62
     2
100
AcDbMText
 10
45.27498924613569
 20
117.6931745346517
 30
0.0
 40
3.5
 41
0.0
 71
     5
 72
     1
  1
3.2
 11
0.0000000000000001
 21
1.0
 31
0.0
 73
     1
 44
1.0
1001
ACAD
1000
MTEXTBEGIN
1070
    73
1070
     1
1070
    44
1040
1.0
1070
    74
1070
     0
1000
MTEXTEND
  0
POINT
  5
175D
330
1737
100
AcDbEntity
  8
Defpoints
 62
     0
100
AcDbPoint
 10
67.22953447540326
 20
105.4380711881949
 30
0.0
  0
POINT
  5
175E
330
1737
100
AcDbEntity
  8
Defpoints
 62
     0
100
AcDbPoint
 10
67.22953447540326
 20
108.638071188195
 30
0.0
  0
POINT
  5
175F
330
1737
100
AcDbEntity
  8
Defpoints
 62
     0
100
AcDbPoint
 10
48.52533373432468
 20
108.638071188195
 30
0.0
  0
ENDBLK
  5
1754
330
1737
100
AcDbEntity
  8
0
100
AcDbBlockEnd
  0
BLOCK
  5
178D
330
1771
100
AcDbEntity
  8
0
100
AcDbBlockBegin
  2
*D20
 70
     1
 10
0.0
 20
0.0
 30
0.0
  3
*D20
  1

  0
LINE
  5
178F
330
1771
100
AcDbEntity
  8
AM_5
100
AcDbLine
 10
70.82953447540328
 20
108.638071188195
 30
0.0
 11
70.82953447540328
 21
120.638071188195
 31
0.0
  0
LINE
  5
1790
330
1771
100
AcDbEntity
  8
AM_5
100
AcDbLine
 10
66.22953447540325
 20
108.638071188195
 30
0.0
 11
66.22953447540325
 21
120.638071188195
 31
0.0
  0
LINE
  5
1791
330
1771
100
AcDbEntity
  8
AM_5
100
AcDbLine
 10
73.32953447540328
 20
119.638071188195
 30
0.0
 11
75.82953447540328
 21
119.638071188195
 31
0.0
  0
LINE
  5
1792
330
1771
100
AcDbEntity
  8
AM_5
100
AcDbLine
 10
63.72953447540325
 20
119.638071188195
 30
0.0
 11
61.22953447540325
 21
119.638071188195
 31
0.0
  0
LINE
  5
1793
330
1771
100
AcDbEntity
  8
AM_5
100
AcDbLine
 10
70.82953447540328
 20
119.638071188195
 30
0.0
 11
66.22953447540325
 21
119.638071188195
 31
0.0
  0
INSERT
  5
1794
330
1771
100
AcDbEntity
  8
AM_5
100
AcDbBlockReference
  2
_Open30
 10
70.82953447540328
 20
119.638071188195
 30
0.0
 41
2.5
 42
2.5
 43
2.5
 50
180.0
  0
INSERT
  5
1795
330
1771
100
AcDbEntity
  8
AM_5
100
AcDbBlockReference
  2
_Open30
 10
66.22953447540325
 20
119.638071188195
 30
0.0
 41
2.5
 42
2.5
 43
2.5
  0
MTEXT
  5
1796
330
1771
100
AcDbEntity
  8
AM_5
 62
     2
100
AcDbMText
 10
68.52953447540326
 20
122.888071188195
 30
0.0
 40
3.5
 41
0.0
 71
     5
 72
     1
  1
4.6
 73
     1
 44
1.0
1001
ACAD
1000
MTEXTBEGIN
1070
    73
1070
     1
1070
    44
1040
1.0
1070
    74
1070
     0
1000
MTEXTEND
  0
POINT
  5
1797
330
1771
100
AcDbEntity
  8
Defpoints
 62
     0
100
AcDbPoint
 10
70.82953447540328
 20
107.638071188195
 30
0.0
  0
POINT
  5
1798
330
1771
100
AcDbEntity
  8
Defpoints
 62
     0
100
AcDbPoint
 10
66.22953447540325
 20
107.638071188195
 30
0.0
  0
POINT
  5
1799
330
1771
100
AcDbEntity
  8
Defpoints
 62
     0
100
AcDbPoint
 10
66.22953447540325
 20
119.638071188195
 30
0.0
  0
ENDBLK
  5
178E
330
1771
100
AcDbEntity
  8
0
100
AcDbBlockEnd
  0
BLOCK
  5
17C2
330
17AA
100
AcDbEntity
  8
0
100
AcDbBlockBegin
  2
*D21
 70
     1
 10
0.0
 20
0.0
 30
0.0
  3
*D21
  1

  0
LINE
  5
17C4
330
17AA
100
AcDbEntity
  8
AM_5
100
AcDbLine
 10
60.777434604864
 20
110.5380711881951
 30
0.0
 11
60.777434604864
 21
128.5919521160549
 31
0.0
  0
LINE
  5
17C5
330
17AA
100
AcDbEntity
  8
AM_5
100
AcDbLine
 10
119.2774346048639
 20
110.5380711881951
 30
0.0
 11
119.2774346048639
 21
128.5919521160549
 31
0.0
  0
LINE
  5
17C6
330
17AA
100
AcDbEntity
  8
AM_5
100
AcDbLine
 10
63.277434604864
 20
127.5919521160549
 30
0.0
 11
116.777434604864
 21
127.5919521160549
 31
0.0
  0
INSERT
  5
17C7
330
17AA
100
AcDbEntity
  8
AM_5
100
AcDbBlockReference
  2
_Open30
 10
60.777434604864
 20
127.5919521160549
 30
0.0
 41
2.5
 42
2.5
 43
2.5
 50
180.0
  0
INSERT
  5
17C8
330
17AA
100
AcDbEntity
  8
AM_5
100
AcDbBlockReference
  2
_Open30
 10
119.2774346048639
 20
127.5919521160549
 30
0.0
 41
2.5
 42
2.5
 43
2.5
  0
MTEXT
  5
17C9
330
17AA
100
AcDbEntity
  8
AM_5
 62
     2
100
AcDbMText
 10
90.02743460486398
 20
130.8419521160549
 30
0.0
 40
3.5
 41
0.0
 71
     5
 72
     1
  1
58.5
 73
     1
 44
1.0
1001
ACAD
1000
MTEXTBEGIN
1070
    73
1070
     1
1070
    44
1040
1.0
1070
    74
1070
     0
1000
MTEXTEND
  0
POINT
  5
17CA
330
17AA
100
AcDbEntity
  8
Defpoints
 62
     0
100
AcDbPoint
 10
60.777434604864
 20
109.5380711881951
 30
0.0
  0
POINT
  5
17CB
330
17AA
100
AcDbEntity
  8
Defpoints
 62
     0
100
AcDbPoint
 10
119.2774346048639
 20
109.5380711881951
 30
0.0
  0
POINT
  5
17CC
330
17AA
100
AcDbEntity
  8
Defpoints
 62
     0
100
AcDbPoint
 10
119.2774346048639
 20
127.5919521160549
 30
0.0
  0
ENDBLK
  5
17C3
330
17AA
100
AcDbEntity
  8
0
100
AcDbBlockEnd
  0
BLOCK
  5
17F3
330
17DD
100
AcDbEntity
  8
0
100
AcDbBlockBegin
  2
*D22
 70
     1
 10
0.0
 20
0.0
 30
0.0
  3
*D22
  1

  0
LINE
  5
17E7
330
17DD
100
AcDbEntity
  8
AM_5
100
AcDbLine
 10
68.52953447540326
 20
104.4380711881949
 30
0.0
 11
68.52953447540326
 21
88.53807018819495
 31
0.0
  0
LINE
  5
17E8
330
17DD
100
AcDbEntity
  8
AM_5
100
AcDbLine
 10
111.5253347343247
 20
104.4380711881949
 30
0.0
 11
111.5253347343247
 21
88.53807018819495
 31
0.0
  0
LINE
  5
17E9
330
17DD
100
AcDbEntity
  8
AM_5
100
AcDbLine
 10
71.02953447540326
 20
89.53807018819494
 30
0.0
 11
109.0253347343247
 21
89.53807018819494
 31
0.0
  0
INSERT
  5
17EA
330
17DD
100
AcDbEntity
  8
AM_5
100
AcDbBlockReference
  2
_Open30
 10
68.52953447540326
 20
89.53807018819494
 30
0.0
 41
2.5
 42
2.5
 43
2.5
 50
180.0
  0
INSERT
  5
17EB
330
17DD
100
AcDbEntity
  8
AM_5
100
AcDbBlockReference
  2
_Open30
 10
111.5253347343247
 20
89.53807018819494
 30
0.0
 41
2.5
 42
2.5
 43
2.5
  0
MTEXT
  5
17EC
330
17DD
100
AcDbEntity
  8
AM_5
 62
     2
100
AcDbMText
 10
90.02743460486398
 20
92.78807018819495
 30
0.0
 40
3.5
 41
0.0
 71
     5
 72
     1
  1
43
 73
     1
 44
1.0
1001
ACAD
1000
MTEXTBEGIN
1070
    73
1070
     1
1070
    44
1040
1.0
1070
    74
1070
     0
1000
MTEXTEND
  0
POINT
  5
17ED
330
17DD
100
AcDbEntity
  8
Defpoints
 62
     0
100
AcDbPoint
 10
68.52953447540326
 20
105.4380711881949
 30
0.0
  0
POINT
  5
17EE
330
17DD
100
AcDbEntity
  8
Defpoints
 62
     0
100
AcDbPoint
 10
111.5253347343247
 20
105.4380711881949
 30
0.0
  0
POINT
  5
17EF
330
17DD
100
AcDbEntity
  8
Defpoints
 62
     0
100
AcDbPoint
 10
111.5253347343247
 20
89.53807018819494
 30
0.0
  0
ENDBLK
  5
17F4
330
17DD
100
AcDbEntity
  8
0
100
AcDbBlockEnd
  0
BLOCK
  5
1821
330
1805
100
AcDbEntity
  8
0
100
AcDbBlockBegin
  2
*D23
 70
     1
 10
0.0
 20
0.0
 30
0.0
  3
*D23
  1

  0
LINE
  5
182D
330
1805
100
AcDbEntity
  8
AM_5
100
AcDbLine
 10
130.7011170914726
 20
112.538071188195
 30
0.0
 11
130.7011170914726
 21
128.5919521160549
 31
0.0
  0
LINE
  5
182E
330
1805
100
AcDbEntity
  8
AM_5
100
AcDbLine
 10
134.7011170914726
 20
113.538071188195
 30
0.0
 11
134.7011170914726
 21
128.5919521160549
 31
0.0
  0
LINE
  5
182F
330
1805
100
AcDbEntity
  8
AM_5
100
AcDbLine
 10
128.2011170914726
 20
127.5919521160549
 30
0.0
 11
125.7011170914726
 21
127.5919521160549
 31
0.0
  0
LINE
  5
1830
330
1805
100
AcDbEntity
  8
AM_5
100
AcDbLine
 10
137.2011170914726
 20
127.5919521160549
 30
0.0
 11
144.4511170914726
 21
127.5919521160549
 31
0.0
  0
LINE
  5
1831
330
1805
100
AcDbEntity
  8
AM_5
100
AcDbLine
 10
130.7011170914726
 20
127.5919521160549
 30
0.0
 11
134.7011170914726
 21
127.5919521160549
 31
0.0
  0
INSERT
  5
1832
330
1805
100
AcDbEntity
  8
AM_5
100
AcDbBlockReference
  2
_Open30
 10
130.7011170914726
 20
127.5919521160549
 30
0.0
 41
2.5
 42
2.5
 43
2.5
  0
INSERT
  5
1833
330
1805
100
AcDbEntity
  8
AM_5
100
AcDbBlockReference
  2
_Open30
 10
134.7011170914726
 20
127.5919521160549
 30
0.0
 41
2.5
 42
2.5
 43
2.5
 50
180.0
  0
MTEXT
  5
1834
330
1805
100
AcDbEntity
  8
AM_5
 62
     2
100
AcDbMText
 10
142.0761170914726
 20
130.8419521160549
 30
0.0
 40
3.5
 41
0.0
 71
     5
 72
     1
  1
4
 73
     1
 44
1.0
1001
ACAD
1000
MTEXTBEGIN
1070
    73
1070
     1
1070
    44
1040
1.0
1070
    74
1070
     0
1000
MTEXTEND
  0
POINT
  5
1835
330
1805
100
AcDbEntity
  8
Defpoints
 62
     0
100
AcDbPoint
 10
130.7011170914726
 20
111.538071188195
 30
0.0
  0
POINT
  5
1836
330
1805
100
AcDbEntity
  8
Defpoints
 62
     0
100
AcDbPoint
 10
134.7011170914726
 20
112.538071188195
 30
0.0
  0
POINT
  5
1837
330
1805
100
AcDbEntity
  8
Defpoints
 62
     0
100
AcDbPoint
 10
134.7011170914726
 20
127.5919521160549
 30
0.0
  0
ENDBLK
  5
1822
330
1805
100
AcDbEntity
  8
0
100
AcDbBlockEnd
  0
ENDSEC
  0
SECTION
  2
ENTITIES
  0
LINE
  5
8F1
330
1F
100
AcDbEntity
  8
AM_7
  6
AM_ISO08W050x2
100
AcDbLine
 10
196.7139388499653
 20
214.3287907788082
 30
0.0
 11
206.7139388499653
 21
214.3287907788082
 31
0.0
1001
GENIUS_GENOBJ-N-CEN_13
1002
{
1000
OWNER
1000
GEN
1002
}
1001
GENIUS_GENODEF_13
1002
{
1000
HIER
1070
     0
1002
}
1002
{
1000
MANEDIT
1070
     0
1002
}
1002
{
1000
NOSEL
1070
     0
1002
}
1002
{
1000
BEHIND
1070
     0
1002
}
1002
{
1000
OTHER
1070
     0
1002
}
1002
{
1000
REACTOR
1002
}
  0
LINE
  5
8F2
330
1F
100
AcDbEntity
  8
AM_7
  6
AM_ISO08W050x2
100
AcDbLine
 10
196.7139388499653
 20
147.3287907788082
 30
0.0
 11
206.7139388499653
 21
147.3287907788082
 31
0.0
1001
GENIUS_GENOBJ-N-CEN_13
1002
{
1000
OWNER
1000
GEN
1002
}
1001
GENIUS_GENODEF_13
1002
{
1000
HIER
1070
     0
1002
}
1002
{
1000
MANEDIT
1070
     0
1002
}
1002
{
1000
NOSEL
1070
     0
1002
}
1002
{
1000
BEHIND
1070
     0
1002
}
1002
{
1000
OTHER
1070
     0
1002
}
1002
{
1000
REACTOR
1002
}
  0
LINE
  5
8FF
330
1F
100
AcDbEntity
  8
TK3
100
AcDbLine
 10
199.7139388499653
 20
142.8287907788082
 30
0.0
 11
199.7139388499653
 21
151.8287907788082
 31
0.0
  0
LINE
  5
900
330
1F
100
AcDbEntity
  8
TK3
100
AcDbLine
 10
200.7139388499653
 20
141.8287907788082
 30
0.0
 11
203.7139388499653
 21
141.8287907788082
 31
0.0
  0
LINE
  5
901
330
1F
100
AcDbEntity
  8
TK3
100
AcDbLine
 10
200.7139388499653
 20
152.8287907788082
 30
0.0
 11
203.7139388499653
 21
152.8287907788082
 31
0.0
  0
LINE
  5
902
330
1F
100
AcDbEntity
  8
TK3
100
AcDbLine
 10
203.7139388499653
 20
141.8287907788082
 30
0.0
 11
203.7139388499653
 21
152.8287907788082
 31
0.0
  0
ARC
  5
903
330
1F
100
AcDbEntity
  8
TK3
100
AcDbCircle
 10
200.7139388499653
 20
142.8287907788082
 30
0.0
 40
1.0
100
AcDbArc
 50
180.0
 51
270.0
1001
GENIUS_GENODEF_13
1002
{
1000
HIER
1070
     0
1002
}
1002
{
1000
MANEDIT
1070
     0
1002
}
1002
{
1000
NOSEL
1070
     0
1002
}
1002
{
1000
BEHIND
1070
     0
1002
}
1002
{
1000
OTHER
1070
     0
1002
}
1002
{
1000
REACTOR
1002
}
1001
GENIUS_GENOBJ-N-FIL_13
1002
{
1000
OWNER
1000
GEN
1002
}
  0
ARC
  5
904
330
1F
100
AcDbEntity
  8
TK3
100
AcDbCircle
 10
200.7139388499653
 20
151.8287907788082
 30
0.0
 40
1.0
100
AcDbArc
 50
90.0
 51
180.0
1001
GENIUS_GENOBJ-N-FIL_13
1002
{
1000
OWNER
1000
GEN
1002
}
1001
GENIUS_GENODEF_13
1002
{
1000
HIER
1070
     0
1002
}
1002
{
1000
MANEDIT
1070
     0
1002
}
1002
{
1000
NOSEL
1070
     0
1002
}
1002
{
1000
BEHIND
1070
     0
1002
}
1002
{
1000
OTHER
1070
     0
1002
}
1002
{
1000
REACTOR
1002
}
  0
ARC
  5
905
330
1F
100
AcDbEntity
  8
TK3
100
AcDbCircle
 10
200.7139388499653
 20
209.8287907788082
 30
0.0
 40
1.0
100
AcDbArc
 50
180.0
 51
270.0
1001
GENIUS_GENOBJ-N-FIL_13
1002
{
1000
OWNER
1000
GEN
1002
}
1001
GENIUS_GENODEF_13
1002
{
1000
HIER
1070
     0
1002
}
1002
{
1000
MANEDIT
1070
     0
1002
}
1002
{
1000
NOSEL
1070
     0
1002
}
1002
{
1000
BEHIND
1070
     0
1002
}
1002
{
1000
OTHER
1070
     0
1002
}
1002
{
1000
REACTOR
1002
}
  0
ARC
  5
906
330
1F
100
AcDbEntity
  8
TK3
100
AcDbCircle
 10
200.7139388499653
 20
218.8287907788083
 30
0.0
 40
1.0
100
AcDbArc
 50
90.0
 51
180.0
1001
GENIUS_GENODEF_13
1002
{
1000
HIER
1070
     0
1002
}
1002
{
1000
MANEDIT
1070
     0
1002
}
1002
{
1000
NOSEL
1070
     0
1002
}
1002
{
1000
BEHIND
1070
     0
1002
}
1002
{
1000
OTHER
1070
     0
1002
}
1002
{
1000
REACTOR
1002
}
1001
GENIUS_GENOBJ-N-FIL_13
1002
{
1000
OWNER
1000
GEN
1002
}
  0
LINE
  5
907
330
1F
100
AcDbEntity
  8
TK3
100
AcDbLine
 10
203.7139388499653
 20
219.8287907788083
 30
0.0
 11
203.7139388499653
 21
208.8287907788082
 31
0.0
  0
LINE
  5
908
330
1F
100
AcDbEntity
  8
TK3
100
AcDbLine
 10
200.7139388499653
 20
208.8287907788082
 30
0.0
 11
203.7139388499653
 21
208.8287907788082
 31
0.0
  0
LINE
  5
909
330
1F
100
AcDbEntity
  8
TK3
100
AcDbLine
 10
200.7139388499653
 20
219.8287907788083
 30
0.0
 11
203.7139388499653
 21
219.8287907788083
 31
0.0
  0
LINE
  5
90A
330
1F
100
AcDbEntity
  8
TK3
100
AcDbLine
 10
199.7139388499653
 20
218.8287907788083
 30
0.0
 11
199.7139388499653
 21
209.8287907788082
 31
0.0
  0
DIMENSION
  5
91F
102
{ACAD_XDICTIONARY
360
920
102
}
102
{ACAD_REACTORS
330
921
102
}
330
1F
100
AcDbEntity
  8
AM_5
100
AcDbDimension
  2
*D7
 10
181.1500041527188
 20
227.7305545647142
 30
0.0
 11
168.9000041527188
 21
230.9808990529032
 31
0.0
 70
    32
 71
     5
 42
24.49999999999994
  3
AM_ISO
100
AcDbAlignedDimension
 13
156.6500041527188
 23
199.7324585175113
 33
0.0
 14
181.1500041527188
 24
218.3287907788082
 34
0.0
100
AcDbRotatedDimension
  0
DIMENSION
  5
923
102
{ACAD_XDICTIONARY
360
924
102
}
102
{ACAD_REACTORS
330
925
102
}
330
1F
100
AcDbEntity
  8
AM_5
100
AcDbDimension
  2
*D8
 10
119.5253347343247
 20
239.4681743464198
 30
0.0
 11
90.02533473432469
 21
242.7181743464198
 31
0.0
 70
    32
 71
     5
 42
59.0
  3
AM_ISO
100
AcDbAlignedDimension
 13
60.5253347343247
 23
217.3287907788083
 33
0.0
 14
119.5253347343247
 24
217.3287907788083
 34
0.0
100
AcDbRotatedDimension
  0
DIMENSION
  5
926
102
{ACAD_XDICTIONARY
360
927
102
}
102
{ACAD_REACTORS
330
928
102
}
330
1F
100
AcDbEntity
  8
AM_5
100
AcDbDimension
  2
*D9
 10
36.05864635993952
 20
141.8287907788083
 30
0.0
 11
32.8086463599395
 21
180.0787907788082
 31
0.0
 70
    32
 71
     5
 42
76.49999999999997
  3
AM_ISO
100
AcDbAlignedDimension
 13
61.5253347343247
 23
218.3287907788082
 33
0.0
 14
70.5253347343247
 24
141.8287907788082
 34
0.0
 50
90.0
100
AcDbRotatedDimension
  0
MTEXT
  5
929
330
1F
100
AcDbEntity
  8
0
100
AcDbMText
 10
288.5339315901906
 20
254.194039575051
 30
0.0
 40
5.0
 41
84.83506370819942
 71
     1
 72
     5
  1
取付穴寸法
 73
     1
 44
1.0
1001
ACAD
1000
MTEXTBEGIN
1070
    73
1070
     1
1070
    44
1040
1.0
1070
    74
1070
     0
1000
MTEXTEND
  0
ARC
  5
92A
330
1F
100
AcDbEntity
  8
上側
100
AcDbCircle
 10
73.62376686616091
 20
68.91737970203405
 30
0.0
 40
2.25
100
AcDbArc
 50
90.0
 51
160.7099537808111
1001
GENIUS_GENODEF_13
1002
{
1000
HIER
1070
     0
1002
}
1002
{
1000
MANEDIT
1070
     0
1002
}
1002
{
1000
NOSEL
1070
     0
1002
}
1002
{
1000
BEHIND
1070
     0
1002
}
1002
{
1000
OTHER
1070
     0
1002
}
1002
{
1000
REACTOR
1002
}
1001
GENIUS_GENOBJ-N-FIL_13
1002
{
1000
OWNER
1000
GEN
1002
}
  0
ARC
  5
92B
330
1F
100
AcDbEntity
  8
上側
100
AcDbCircle
 10
106.4311023435671
 20
68.91737970203405
 30
0.0
 40
2.25
100
AcDbArc
 50
19.29004621918885
 51
90.0
1001
GENIUS_GENODEF_13
1002
{
1000
HIER
1070
     0
1002
}
1002
{
1000
MANEDIT
1070
     0
1002
}
1002
{
1000
NOSEL
1070
     0
1002
}
1002
{
1000
BEHIND
1070
     0
1002
}
1002
{
1000
OTHER
1070
     0
1002
}
1002
{
1000
REACTOR
1002
}
1001
GENIUS_GENOBJ-N-FIL_13
1002
{
1000
OWNER
1000
GEN
1002
}
  0
ARC
  5
92C
102
{ACAD_REACTORS
330
921
102
}
330
1F
100
AcDbEntity
  8
上側
100
AcDbCircle
 10
158.9000041527188
 20
199.7324585175113
 30
0.0
 40
2.25
100
AcDbArc
 50
109.290046219188
 51
180.0
1001
GENIUS_GENODEF_13
1002
{
1000
HIER
1070
     0
1002
}
1002
{
1000
MANEDIT
1070
     0
1002
}
1002
{
1000
NOSEL
1070
     0
1002
}
1002
{
1000
BEHIND
1070
     0
1002
}
1002
{
1000
OTHER
1070
     0
1002
}
1002
{
1000
REACTOR
1002
}
1001
GENIUS_GENOBJ-N-FIL_13
1002
{
1000
OWNER
1000
GEN
1002
}
  0
ARC
  5
92D
330
1F
100
AcDbEntity
  8
上側
100
AcDbCircle
 10
158.9000041527186
 20
161.9251230401051
 30
0.0
 40
2.25
100
AcDbArc
 50
180.0
 51
250.7099537808101
1001
GENIUS_GENOBJ-N-FIL_13
1002
{
1000
OWNER
1000
GEN
1002
}
1001
GENIUS_GENODEF_13
1002
{
1000
HIER
1070
     0
1002
}
1002
{
1000
MANEDIT
1070
     0
1002
}
1002
{
1000
NOSEL
1070
     0
1002
}
1002
{
1000
BEHIND
1070
     0
1002
}
1002
{
1000
OTHER
1070
     0
1002
}
1002
{
1000
REACTOR
1002
}
  0
LINE
  5
92E
330
1F
100
AcDbEntity
  8
下側0
100
AcDbLine
 10
171.1500041527188
 20
155.8287907788082
 30
0.0
 11
187.1500041527187
 21
155.8287907788082
 31
0.0
  0
LINE
  5
92F
330
1F
100
AcDbEntity
  8
下側0
100
AcDbLine
 10
171.1500041527187
 20
205.8287907788082
 30
0.0
 11
187.1500041527187
 21
205.8287907788082
 31
0.0
  0
DIMENSION
  5
938
102
{ACAD_XDICTIONARY
360
939
102
}
102
{ACAD_REACTORS
330
93A
102
}
330
1F
100
AcDbEntity
  8
AM_5
100
AcDbDimension
  2
*D10
 10
326.0107680005216
 20
212.9975429275676
 30
0.0
 11
355.052447079842
 21
240.4734692183462
 31
0.0
 70
   163
 71
     5
 42
3.5
  3
AM_ISO$3
100
AcDbDiametricDimension
 15
328.2825771109596
 25
215.6600386300488
 35
0.0
 40
0.0
  0
DIMENSION
  5
93B
330
1F
100
AcDbEntity
  8
AM_5
100
AcDbDimension
  2
*D6
 10
327.1466725557405
 20
205.3287907788083
 30
0.0
 11
356.1162115545382
 21
223.4600317284519
 31
0.0
 70
   164
 71
     5
 42
3.00000000000017
  3
AM_ISO$4
100
AcDbRadialDimension
 15
329.6896696451876
 25
206.9203830014157
 35
0.0
 40
0.0
1001
ACAD
1000
DSTYLE
1002
{
1070
    74
1070
     0
1070
   279
1070
     1
1070
   281
1070
     1
1002
}
  0
DIMENSION
  5
93C
102
{ACAD_XDICTIONARY
360
93D
102
}
102
{ACAD_REACTORS
330
93E
102
}
330
1F
100
AcDbEntity
  8
AM_5
100
AcDbDimension
  2
*D11
 10
330.1466725557407
 20
234.0379617829583
 30
0.0
 11
305.6466725557407
 21
237.2879617829582
 31
0.0
 70
    32
 71
     5
 42
49.0
  3
AM_ISO
100
AcDbAlignedDimension
 13
281.1466725557407
 23
205.3287907788083
 33
0.0
 14
330.1466725557407
 24
205.3287907788083
 34
0.0
100
AcDbRotatedDimension
  0
DIMENSION
  5
93F
102
{ACAD_XDICTIONARY
360
940
102
}
102
{ACAD_REACTORS
330
941
102
}
330
1F
100
AcDbEntity
  8
AM_5
100
AcDbDimension
  2
*D12
 10
342.5976467248997
 20
153.3287907788082
 30
0.0
 11
339.3476467248997
 21
180.8287907788083
 31
0.0
 70
    32
 71
     5
 42
55.0
  3
AM_ISO
100
AcDbAlignedDimension
 13
327.1466725557407
 23
208.3287907788082
 33
0.0
 14
327.1466725557407
 24
153.3287907788082
 34
0.0
 50
90.0
100
AcDbRotatedDimension
  0
DIMENSION
  5
942
102
{ACAD_XDICTIONARY
360
943
102
}
102
{ACAD_REACTORS
330
944
102
}
330
1F
100
AcDbEntity
  8
AM_5
100
AcDbDimension
  2
*D13
 10
352.114432152091
 20
147.3287907788082
 30
0.0
 11
348.864432152091
 21
180.8287907788083
 31
0.0
 70
    32
 71
     5
 42
67.0
  3
AM_ISO
100
AcDbAlignedDimension
 13
330.1466725557407
 23
214.3287907788082
 33
0.0
 14
330.1466725557407
 24
147.3287907788082
 34
0.0
 50
90.0
100
AcDbRotatedDimension
  0
DIMENSION
  5
945
102
{ACAD_XDICTIONARY
360
946
102
}
102
{ACAD_REACTORS
330
947
102
}
330
1F
100
AcDbEntity
  8
AM_5
100
AcDbDimension
  2
*D14
 10
327.1466725557407
 20
224.9779789382184
 30
0.0
 11
305.6466725557407
 21
228.2279789382184
 31
0.0
 70
    32
 71
     5
 42
43.0
  3
AM_ISO
100
AcDbAlignedDimension
 13
284.1466725557407
 23
217.3287907788083
 33
0.0
 14
327.1466725557407
 24
217.3287907788083
 34
0.0
100
AcDbRotatedDimension
  0
CIRCLE
  5
948
330
1F
100
AcDbEntity
  8
0
100
AcDbCircle
 10
327.1466725557407
 20
147.3287907788082
 30
0.0
 40
1.75
  0
LINE
  5
949
102
{ACAD_REACTORS
330
944
102
}
330
1F
100
AcDbEntity
  8
AM_7
  6
AM_ISO08W050x2
100
AcDbLine
 10
327.1466725557407
 20
147.3287907788082
 30
0.0
 11
330.1466725557407
 21
147.3287907788082
 31
0.0
1001
GENIUS_GENOREF_13
1005
A56
  0
LINE
  5
94A
330
1F
100
AcDbEntity
  8
AM_7
  6
AM_ISO08W050x2
100
AcDbLine
 10
327.1466725557407
 20
147.3287907788082
 30
0.0
 11
327.1466725557407
 21
150.3287907788082
 31
0.0
1001
GENIUS_GENOREF_13
1005
A56
  0
LINE
  5
94B
330
1F
100
AcDbEntity
  8
AM_7
  6
AM_ISO08W050x2
100
AcDbLine
 10
327.1466725557407
 20
147.3287907788082
 30
0.0
 11
324.1466725557407
 21
147.3287907788082
 31
0.0
1001
GENIUS_GENOREF_13
1005
A56
  0
LINE
  5
94C
330
1F
100
AcDbEntity
  8
AM_7
  6
AM_ISO08W050x2
100
AcDbLine
 10
327.1466725557407
 20
147.3287907788082
 30
0.0
 11
327.1466725557407
 21
144.3287907788082
 31
0.0
1001
GENIUS_GENOREF_13
1005
A56
  0
CIRCLE
  5
94D
330
1F
100
AcDbEntity
  8
0
100
AcDbCircle
 10
284.1466725557407
 20
147.3287907788082
 30
0.0
 40
1.75
  0
LINE
  5
94E
330
1F
100
AcDbEntity
  8
AM_7
  6
AM_ISO08W050x2
100
AcDbLine
 10
284.1466725557407
 20
147.3287907788082
 30
0.0
 11
287.1466725557407
 21
147.3287907788082
 31
0.0
1001
GENIUS_GENOREF_13
1005
A57
  0
LINE
  5
94F
330
1F
100
AcDbEntity
  8
AM_7
  6
AM_ISO08W050x2
100
AcDbLine
 10
284.1466725557407
 20
147.3287907788082
 30
0.0
 11
284.1466725557407
 21
150.3287907788083
 31
0.0
1001
GENIUS_GENOREF_13
1005
A57
  0
LINE
  5
950
330
1F
100
AcDbEntity
  8
AM_7
  6
AM_ISO08W050x2
100
AcDbLine
 10
284.1466725557407
 20
147.3287907788082
 30
0.0
 11
281.1466725557407
 21
147.3287907788082
 31
0.0
1001
GENIUS_GENOREF_13
1005
A57
  0
LINE
  5
951
330
1F
100
AcDbEntity
  8
AM_7
  6
AM_ISO08W050x2
100
AcDbLine
 10
284.1466725557407
 20
147.3287907788082
 30
0.0
 11
284.1466725557407
 21
144.3287907788082
 31
0.0
1001
GENIUS_GENOREF_13
1005
A57
  0
CIRCLE
  5
952
102
{ACAD_REACTORS
330
93A
102
}
330
1F
100
AcDbEntity
  8
0
100
AcDbCircle
 10
327.1466725557407
 20
214.3287907788082
 30
0.0
 40
1.75
  0
LINE
  5
953
102
{ACAD_REACTORS
330
944
102
}
330
1F
100
AcDbEntity
  8
AM_7
  6
AM_ISO08W050x2
100
AcDbLine
 10
327.1466725557407
 20
214.3287907788082
 30
0.0
 11
330.1466725557407
 21
214.3287907788082
 31
0.0
1001
GENIUS_GENOREF_13
1005
A58
  0
LINE
  5
954
102
{ACAD_REACTORS
330
947
102
}
330
1F
100
AcDbEntity
  8
AM_7
  6
AM_ISO08W050x2
100
AcDbLine
 10
327.1466725557407
 20
214.3287907788082
 30
0.0
 11
327.1466725557407
 21
217.3287907788083
 31
0.0
1001
GENIUS_GENOREF_13
1005
A58
  0
LINE
  5
955
330
1F
100
AcDbEntity
  8
AM_7
  6
AM_ISO08W050x2
100
AcDbLine
 10
327.1466725557407
 20
214.3287907788082
 30
0.0
 11
324.1466725557407
 21
214.3287907788082
 31
0.0
1001
GENIUS_GENOREF_13
1005
A58
  0
LINE
  5
956
330
1F
100
AcDbEntity
  8
AM_7
  6
AM_ISO08W050x2
100
AcDbLine
 10
327.1466725557407
 20
214.3287907788082
 30
0.0
 11
327.1466725557407
 21
211.3287907788083
 31
0.0
1001
GENIUS_GENOREF_13
1005
A58
  0
LINE
  5
957
330
1F
100
AcDbEntity
  8
AM_7
  6
AM_ISO08W050x2
100
AcDbLine
 10
284.1466725557407
 20
214.3287907788082
 30
0.0
 11
284.1466725557407
 21
211.3287907788083
 31
0.0
1001
GENIUS_GENOREF_13
1005
A59
  0
LINE
  5
958
330
1F
100
AcDbEntity
  8
AM_7
  6
AM_ISO08W050x2
100
AcDbLine
 10
284.1466725557407
 20
214.3287907788082
 30
0.0
 11
281.1466725557407
 21
214.3287907788082
 31
0.0
1001
GENIUS_GENOREF_13
1005
A59
  0
LINE
  5
959
102
{ACAD_REACTORS
330
947
102
}
330
1F
100
AcDbEntity
  8
AM_7
  6
AM_ISO08W050x2
100
AcDbLine
 10
284.1466725557407
 20
214.3287907788082
 30
0.0
 11
284.1466725557407
 21
217.3287907788083
 31
0.0
1001
GENIUS_GENOREF_13
1005
A59
  0
LINE
  5
95A
330
1F
100
AcDbEntity
  8
AM_7
  6
AM_ISO08W050x2
100
AcDbLine
 10
284.1466725557407
 20
214.3287907788082
 30
0.0
 11
287.1466725557407
 21
214.3287907788082
 31
0.0
1001
GENIUS_GENOREF_13
1005
A59
  0
CIRCLE
  5
95B
330
1F
100
AcDbEntity
  8
0
100
AcDbCircle
 10
284.1466725557407
 20
214.3287907788082
 30
0.0
 40
1.75
  0
LINE
  5
95C
330
1F
100
AcDbEntity
  8
AM_7
100
AcDbLine
 10
305.6466725557407
 20
211.3287907788083
 30
0.0
 11
305.6466725557407
 21
150.3287907788083
 31
0.0
1001
GENIUS_GENODEF_13
1002
{
1000
HIER
1070
     0
1002
}
1002
{
1000
MANEDIT
1070
     0
1002
}
1002
{
1000
NOSEL
1070
     0
1002
}
1002
{
1000
BEHIND
1070
     0
1002
}
1002
{
1000
OTHER
1070
     0
1002
}
1002
{
1000
REACTOR
1002
}
1001
GENIUS_GENOBJ-N-CEN_13
1002
{
1000
OWNER
1000
GEN
1002
}
  0
LINE
  5
95D
330
1F
100
AcDbEntity
  8
AM_7
100
AcDbLine
 10
278.1466725557407
 20
180.8287907788082
 30
0.0
 11
333.1466725557407
 21
180.8287907788082
 31
0.0
1001
GENIUS_GENODEF_13
1002
{
1000
HIER
1070
     0
1002
}
1002
{
1000
MANEDIT
1070
     0
1002
}
1002
{
1000
NOSEL
1070
     0
1002
}
1002
{
1000
BEHIND
1070
     0
1002
}
1002
{
1000
OTHER
1070
     0
1002
}
1002
{
1000
REACTOR
1002
}
1001
GENIUS_GENOBJ-N-CEN_13
1002
{
1000
OWNER
1000
GEN
1002
}
  0
POLYLINE
  5
95E
102
{ACAD_REACTORS
330
941
330
93E
102
}
330
1F
100
AcDbEntity
  8
上側
100
AcDb2dPolyline
 66
     1
 10
0.0
 20
0.0
 30
0.0
 70
     1
1001
GENIUS_GENREC_14
1002
{
1000
PYDIR
1011
281.1466725557407
1021
208.3287907788082
1031
0.0
1002
}
1002
{
1000
PXDIR
1011
330.1466725557407
1021
153.3287907788082
1031
0.0
1002
}
1002
{
1000
PORI
1011
281.1466725557407
1021
153.3287907788082
1031
0.0
1002
}
1002
{
1000
PINS
1011
281.1466725557407
1021
153.3287907788082
1031
0.0
1002
}
1002
{
1000
HVAL
1000
55
1002
}
1002
{
1000
H
1070
     2
1002
}
1002
{
1000
WVAL
1000
49
1002
}
1002
{
1000
W
1070
     2
1002
}
1002
{
1000
C
1070
     1
1002
}
1001
GENIUS_GENODEF_13
1002
{
1000
HIER
1070
     0
1002
}
1002
{
1000
MANEDIT
1070
     0
1002
}
1002
{
1000
NOSEL
1070
     0
1002
}
1002
{
1000
BEHIND
1070
     0
1002
}
1002
{
1000
OTHER
1070
     0
1002
}
1002
{
1000
REACTOR
1002
}
1001
GENIUS_GENOBJ-N-REC_13
1002
{
1000
OWNER
1000
GEN
1002
}
  0
VERTEX
  5
95F
330
95E
100
AcDbEntity
  8
上側
100
AcDbVertex
100
AcDb2dVertex
 10
284.1466725557407
 20
153.3287907788082
 30
0.0
  0
VERTEX
  5
960
102
{ACAD_REACTORS
330
941
102
}
330
95E
100
AcDbEntity
  8
上側
100
AcDbVertex
100
AcDb2dVertex
 10
327.1466725557407
 20
153.3287907788082
 30
0.0
 42
0.4142135623730951
  0
VERTEX
  5
961
102
{ACAD_REACTORS
330
93E
102
}
330
95E
100
AcDbEntity
  8
上側
100
AcDbVertex
100
AcDb2dVertex
 10
330.1466725557407
 20
156.3287907788082
 30
0.0
  0
VERTEX
  5
962
102
{ACAD_REACTORS
330
941
102
}
330
95E
100
AcDbEntity
  8
上側
100
AcDbVertex
100
AcDb2dVertex
 10
330.1466725557407
 20
205.3287907788083
 30
0.0
 42
0.4142135623730951
  0
VERTEX
  5
963
330
95E
100
AcDbEntity
  8
上側
100
AcDbVertex
100
AcDb2dVertex
 10
327.1466725557407
 20
208.3287907788082
 30
0.0
  0
VERTEX
  5
964
102
{ACAD_REACTORS
330
93E
102
}
330
95E
100
AcDbEntity
  8
上側
100
AcDbVertex
100
AcDb2dVertex
 10
284.1466725557407
 20
208.3287907788082
 30
0.0
 42
0.4142135623730951
  0
VERTEX
  5
965
330
95E
100
AcDbEntity
  8
上側
100
AcDbVertex
100
AcDb2dVertex
 10
281.1466725557407
 20
205.3287907788083
 30
0.0
  0
VERTEX
  5
966
330
95E
100
AcDbEntity
  8
上側
100
AcDbVertex
100
AcDb2dVertex
 10
281.1466725557407
 20
156.3287907788082
 30
0.0
 42
0.4142135623730951
  0
SEQEND
  5
967
330
95E
100
AcDbEntity
  8
上側
  0
LINE
  5
968
330
1F
100
AcDbEntity
  8
上側
100
AcDbLine
 10
91.49485526272849
 20
61.16737970203406
 30
0.0
 11
90.02743460486398
 21
61.16737970203406
 31
0.0
  0
LINE
  5
969
330
1F
100
AcDbEntity
  8
上側
100
AcDbLine
 10
88.56001394699967
 20
61.16737970203406
 30
0.0
 11
90.02743460486398
 21
61.16737970203406
 31
0.0
  0
LINE
  5
96A
330
1F
100
AcDbEntity
  8
下側
100
AcDbLine
 10
93.15435768178691
 20
57.66737970203405
 30
0.0
 11
93.22743460486391
 21
56.66737970203405
 31
0.0
  0
LINE
  5
96B
330
1F
100
AcDbEntity
  8
下側
100
AcDbLine
 10
91.75062449349765
 20
57.66737970203405
 30
0.0
 11
91.82370141657452
 21
56.66737970203405
 31
0.0
  0
LINE
  5
96C
330
1F
100
AcDbEntity
  8
下側
100
AcDbLine
 10
88.52347548546118
 20
60.66737970203405
 30
0.0
 11
89.02127184553796
 21
67.47932989255952
 31
0.0
  0
LINE
  5
96D
330
1F
100
AcDbEntity
  8
下側
100
AcDbLine
 10
87.11974229717169
 20
60.66737970203405
 30
0.0
 11
87.62499510551993
 21
67.58136550048391
 31
0.0
  0
LINE
  5
96E
330
1F
100
AcDbEntity
  8
下側
100
AcDbLine
 10
70.5253347343247
 20
141.8287907788082
 30
0.0
 11
90.02533473432469
 21
141.8287907788082
 31
0.0
  0
LINE
  5
96F
330
1F
100
AcDbEntity
  8
下側
100
AcDbLine
 10
105.8753347343246
 20
143.5287907788082
 30
0.0
 11
106.0253347343247
 21
143.5287907788082
 31
0.0
  0
LINE
  5
970
330
1F
100
AcDbEntity
  8
下側
100
AcDbLine
 10
105.8753347343247
 20
148.5287907788082
 30
0.0
 11
106.0253347343247
 21
148.5287907788082
 31
0.0
  0
LINE
  5
971
102
{ACAD_REACTORS
330
925
102
}
330
1F
100
AcDbEntity
  8
下側
100
AcDbLine
 10
119.5253347343247
 20
217.3287907788083
 30
0.0
 11
119.5253347343248
 21
211.3287907788083
 31
0.0
  0
LINE
  5
972
330
1F
100
AcDbEntity
  8
下側
100
AcDbLine
 10
90.02533473432469
 20
218.3287907788082
 30
0.0
 11
118.5253347343247
 21
218.3287907788082
 31
0.0
  0
LINE
  5
973
330
1F
100
AcDbEntity
  8
AM_7
100
AcDbLine
 10
90.02533473432469
 20
221.3287907788082
 30
0.0
 11
90.02533473432469
 21
138.8287907788082
 31
0.0
1001
GENIUS_GENOBJ-N-CEN_13
1002
{
1000
OWNER
1000
GEN
1002
}
1001
GENIUS_GENODEF_13
1002
{
1000
HIER
1070
     0
1002
}
1002
{
1000
MANEDIT
1070
     0
1002
}
1002
{
1000
NOSEL
1070
     0
1002
}
1002
{
1000
BEHIND
1070
     0
1002
}
1002
{
1000
OTHER
1070
     0
1002
}
1002
{
1000
REACTOR
1002
}
  0
LINE
  5
974
330
1F
100
AcDbEntity
  8
下側
100
AcDbLine
 10
116.0253347343248
 20
211.6287907788083
 30
0.0
 11
118.5253347343247
 21
211.6287907788083
 31
0.0
  0
LINE
  5
975
330
1F
100
AcDbEntity
  8
下側
100
AcDbLine
 10
115.0253347343248
 20
217.3287907788083
 30
0.0
 11
115.0253347343248
 21
212.6287907788082
 31
0.0
  0
ARC
  5
976
330
1F
100
AcDbEntity
  8
下側
100
AcDbCircle
 10
118.5253347343247
 20
217.3287907788083
 30
0.0
 40
1.0
100
AcDbArc
 50
0.0
 51
90.0
1001
GENIUS_GENODEF_13
1002
{
1000
HIER
1070
     0
1002
}
1002
{
1000
MANEDIT
1070
     0
1002
}
1002
{
1000
NOSEL
1070
     0
1002
}
1002
{
1000
BEHIND
1070
     0
1002
}
1002
{
1000
OTHER
1070
     0
1002
}
1002
{
1000
REACTOR
1002
}
1001
GENIUS_GENOBJ-N-FIL_13
1002
{
1000
OWNER
1000
GEN
1002
}
  0
ARC
  5
977
330
1F
100
AcDbEntity
  8
下側
100
AcDbCircle
 10
118.5253347343247
 20
212.6287907788082
 30
0.0
 40
1.0
100
AcDbArc
 50
270.0
 51
0.0
1001
GENIUS_GENODEF_13
1002
{
1000
HIER
1070
     0
1002
}
1002
{
1000
MANEDIT
1070
     0
1002
}
1002
{
1000
NOSEL
1070
     0
1002
}
1002
{
1000
BEHIND
1070
     0
1002
}
1002
{
1000
OTHER
1070
     0
1002
}
1002
{
1000
REACTOR
1002
}
1001
GENIUS_GENOBJ-N-FIL_13
1002
{
1000
OWNER
1000
GEN
1002
}
  0
ARC
  5
978
330
1F
100
AcDbEntity
  8
下側
100
AcDbCircle
 10
116.0253347343248
 20
212.6287907788082
 30
0.0
 40
1.0
100
AcDbArc
 50
180.0
 51
270.0
1001
GENIUS_GENODEF_13
1002
{
1000
HIER
1070
     0
1002
}
1002
{
1000
MANEDIT
1070
     0
1002
}
1002
{
1000
NOSEL
1070
     0
1002
}
1002
{
1000
BEHIND
1070
     0
1002
}
1002
{
1000
OTHER
1070
     0
1002
}
1002
{
1000
REACTOR
1002
}
1001
GENIUS_GENOBJ-N-FIL_13
1002
{
1000
OWNER
1000
GEN
1002
}
  0
ARC
  5
979
330
1F
100
AcDbEntity
  8
下側
100
AcDbCircle
 10
116.0253347343248
 20
217.3287907788083
 30
0.0
 40
1.0
100
AcDbArc
 50
90.0
 51
180.0000000000008
1001
GENIUS_GENOBJ-N-FIL_13
1002
{
1000
OWNER
1000
GEN
1002
}
1001
GENIUS_GENODEF_13
1002
{
1000
HIER
1070
     0
1002
}
1002
{
1000
MANEDIT
1070
     0
1002
}
1002
{
1000
NOSEL
1070
     0
1002
}
1002
{
1000
BEHIND
1070
     0
1002
}
1002
{
1000
OTHER
1070
     0
1002
}
1002
{
1000
REACTOR
1002
}
  0
LINE
  5
97A
330
1F
100
AcDbEntity
  8
下側
100
AcDbLine
 10
90.02743460486398
 20
46.66737970203405
 30
0.0
 11
119.5274346048639
 21
46.66737970203405
 31
0.0
  0
LINE
  5
97B
330
1F
100
AcDbEntity
  8
下側
100
AcDbLine
 10
119.5274346048639
 20
56.66737970203405
 30
0.0
 11
119.5274346048639
 21
46.66737970203405
 31
0.0
  0
LINE
  5
97C
330
1F
100
AcDbEntity
  8
下側
100
AcDbLine
 10
90.02743460486398
 20
56.66737970203405
 30
0.0
 11
119.5274346048639
 21
56.66737970203405
 31
0.0
  0
LINE
  5
97D
330
1F
100
AcDbEntity
  8
下側
100
AcDbLine
 10
113.5274346048639
 20
40.66737970203405
 30
0.0
 11
90.02743460486398
 21
40.66737970203405
 31
0.0
  0
LINE
  5
97E
330
1F
100
AcDbEntity
  8
下側
100
AcDbLine
 10
113.5274346048639
 20
46.66737970203405
 30
0.0
 11
113.5274346048639
 21
40.66737970203405
 31
0.0
  0
LINE
  5
97F
330
1F
100
AcDbEntity
  8
AM_7
100
AcDbLine
 10
90.02743460486398
 20
72.66737970203405
 30
0.0
 11
90.02743460486398
 21
37.66737970203406
 31
0.0
1001
GENIUS_GENODEF_13
1002
{
1000
HIER
1070
     0
1002
}
1002
{
1000
MANEDIT
1070
     0
1002
}
1002
{
1000
NOSEL
1070
     0
1002
}
1002
{
1000
BEHIND
1070
     0
1002
}
1002
{
1000
OTHER
1070
     0
1002
}
1002
{
1000
REACTOR
1002
}
1001
GENIUS_GENOBJ-N-CEN_13
1002
{
1000
OWNER
1000
GEN
1002
}
  0
LINE
  5
980
330
1F
100
AcDbEntity
  8
下側0
100
AcDbLine
 10
111.7774346048641
 20
56.66737970203405
 30
0.0
 11
111.7774346048641
 21
40.66737970203405
 31
0.0
  0
LINE
  5
981
330
1F
100
AcDbEntity
  8
下側0
100
AcDbLine
 10
102.9253347343247
 20
202.8287907788083
 30
0.0
 11
102.9253347343247
 21
180.8287907788082
 31
0.0
  0
LINE
  5
982
330
1F
100
AcDbEntity
  8
下側0
100
AcDbLine
 10
104.4253347343246
 20
204.3287907788082
 30
0.0
 11
104.9253347343245
 21
204.3287907788082
 31
0.0
  0
LINE
  5
983
330
1F
100
AcDbEntity
  8
下側0
100
AcDbLine
 10
110.9253347343248
 20
202.8287907788083
 30
0.0
 11
110.9253347343248
 21
180.8287907788082
 31
0.0
  0
LINE
  5
984
330
1F
100
AcDbEntity
  8
下側0
100
AcDbLine
 10
108.9253347343247
 20
204.3287907788082
 30
0.0
 11
108.9253347343247
 21
205.8287907788082
 31
0.0
  0
LINE
  5
985
330
1F
100
AcDbEntity
  8
下側0
100
AcDbLine
 10
104.9253347343247
 20
205.8287907788082
 30
0.0
 11
104.9253347343247
 21
204.3287907788082
 31
0.0
  0
ARC
  5
986
330
1F
100
AcDbEntity
  8
下側0
100
AcDbCircle
 10
104.4253347343246
 20
202.8287907788083
 30
0.0
 40
1.5
100
AcDbArc
 50
90.0
 51
180.0
1001
GENIUS_GENODEF_13
1002
{
1000
HIER
1070
     0
1002
}
1002
{
1000
MANEDIT
1070
     0
1002
}
1002
{
1000
NOSEL
1070
     0
1002
}
1002
{
1000
BEHIND
1070
     0
1002
}
1002
{
1000
OTHER
1070
     0
1002
}
1002
{
1000
REACTOR
1002
}
1001
GENIUS_GENOBJ-N-FIL_13
1002
{
1000
OWNER
1000
GEN
1002
}
  0
ARC
  5
987
330
1F
100
AcDbEntity
  8
下側0
100
AcDbCircle
 10
109.4253347343248
 20
202.8287907788083
 30
0.0
 40
1.5
100
AcDbArc
 50
0.0
 51
90.0
1001
GENIUS_GENODEF_13
1002
{
1000
HIER
1070
     0
1002
}
1002
{
1000
MANEDIT
1070
     0
1002
}
1002
{
1000
NOSEL
1070
     0
1002
}
1002
{
1000
BEHIND
1070
     0
1002
}
1002
{
1000
OTHER
1070
     0
1002
}
1002
{
1000
REACTOR
1002
}
1001
GENIUS_GENOBJ-N-FIL_13
1002
{
1000
OWNER
1000
GEN
1002
}
  0
ARC
  5
988
330
1F
100
AcDbEntity
  8
下側0
100
AcDbCircle
 10
109.4253347343248
 20
158.8287907788082
 30
0.0
 40
1.5
100
AcDbArc
 50
270.0
 51
0.0
1001
GENIUS_GENODEF_13
1002
{
1000
HIER
1070
     0
1002
}
1002
{
1000
MANEDIT
1070
     0
1002
}
1002
{
1000
NOSEL
1070
     0
1002
}
1002
{
1000
BEHIND
1070
     0
1002
}
1002
{
1000
OTHER
1070
     0
1002
}
1002
{
1000
REACTOR
1002
}
1001
GENIUS_GENOBJ-N-FIL_13
1002
{
1000
OWNER
1000
GEN
1002
}
  0
ARC
  5
989
330
1F
100
AcDbEntity
  8
下側0
100
AcDbCircle
 10
104.4253347343246
 20
158.8287907788082
 30
0.0
 40
1.5
100
AcDbArc
 50
180.0
 51
270.0
1001
GENIUS_GENODEF_13
1002
{
1000
HIER
1070
     0
1002
}
1002
{
1000
MANEDIT
1070
     0
1002
}
1002
{
1000
NOSEL
1070
     0
1002
}
1002
{
1000
BEHIND
1070
     0
1002
}
1002
{
1000
OTHER
1070
     0
1002
}
1002
{
1000
REACTOR
1002
}
1001
GENIUS_GENOBJ-N-FIL_13
1002
{
1000
OWNER
1000
GEN
1002
}
  0
LINE
  5
98A
330
1F
100
AcDbEntity
  8
下側0
100
AcDbLine
 10
104.9253347343247
 20
155.8287907788082
 30
0.0
 11
104.9253347343247
 21
157.3287907788082
 31
0.0
  0
LINE
  5
98B
330
1F
100
AcDbEntity
  8
下側0
100
AcDbLine
 10
108.9253347343247
 20
157.3287907788082
 30
0.0
 11
108.9253347343247
 21
155.8287907788082
 31
0.0
  0
LINE
  5
98C
330
1F
100
AcDbEntity
  8
下側0
100
AcDbLine
 10
104.4253347343246
 20
157.3287907788082
 30
0.0
 11
104.9253347343245
 21
157.3287907788082
 31
0.0
  0
LINE
  5
98D
330
1F
100
AcDbEntity
  8
下側0
100
AcDbLine
 10
102.9253347343247
 20
158.8287907788082
 30
0.0
 11
102.9253347343247
 21
180.8287907788082
 31
0.0
  0
LINE
  5
98E
330
1F
100
AcDbEntity
  8
下側0
100
AcDbLine
 10
110.9253347343248
 20
158.8287907788082
 30
0.0
 11
110.9253347343248
 21
180.8287907788082
 31
0.0
  0
LINE
  5
98F
330
1F
100
AcDbEntity
  8
下側0
100
AcDbLine
 10
108.9253347343247
 20
204.3287907788082
 30
0.0
 11
109.4253347343248
 21
204.3287907788083
 31
0.0
  0
LINE
  5
990
330
1F
100
AcDbEntity
  8
下側0
100
AcDbLine
 10
108.9253347343247
 20
157.3287907788082
 30
0.0
 11
109.4253347343248
 21
157.3287907788082
 31
0.0
  0
LINE
  5
991
330
1F
100
AcDbEntity
  8
下側
100
AcDbLine
 10
71.12533473432484
 20
157.3287907788082
 30
0.0
 11
70.62533473432472
 21
157.3287907788082
 31
0.0
  0
LINE
  5
992
330
1F
100
AcDbEntity
  8
下側
100
AcDbLine
 10
71.12533473432484
 20
204.3287907788082
 30
0.0
 11
70.62533473432472
 21
204.3287907788083
 31
0.0
  0
LINE
  5
993
330
1F
100
AcDbEntity
  8
下側
100
AcDbLine
 10
69.12533473432472
 20
158.8287907788082
 30
0.0
 11
69.12533473432472
 21
180.8287907788082
 31
0.0
  0
LINE
  5
994
330
1F
100
AcDbEntity
  8
下側
100
AcDbLine
 10
77.12533473432472
 20
158.8287907788082
 30
0.0
 11
77.12533473432472
 21
180.8287907788082
 31
0.0
  0
LINE
  5
995
330
1F
100
AcDbEntity
  8
下側
100
AcDbLine
 10
75.62533473432472
 20
157.3287907788082
 30
0.0
 11
75.12533473432483
 21
157.3287907788082
 31
0.0
  0
LINE
  5
996
330
1F
100
AcDbEntity
  8
下側
100
AcDbLine
 10
71.12533473432472
 20
157.3287907788082
 30
0.0
 11
71.12533473432472
 21
155.8287907788082
 31
0.0
  0
LINE
  5
997
330
1F
100
AcDbEntity
  8
下側
100
AcDbLine
 10
75.12533473432473
 20
155.8287907788082
 30
0.0
 11
75.12533473432473
 21
157.3287907788082
 31
0.0
  0
ARC
  5
998
330
1F
100
AcDbEntity
  8
下側
100
AcDbCircle
 10
75.62533473432472
 20
158.8287907788082
 30
0.0
 40
1.5
100
AcDbArc
 50
270.0
 51
0.0
1001
GENIUS_GENODEF_13
1002
{
1000
HIER
1070
     0
1002
}
1002
{
1000
MANEDIT
1070
     0
1002
}
1002
{
1000
NOSEL
1070
     0
1002
}
1002
{
1000
BEHIND
1070
     0
1002
}
1002
{
1000
OTHER
1070
     0
1002
}
1002
{
1000
REACTOR
1002
}
1001
GENIUS_GENOBJ-N-FIL_13
1002
{
1000
OWNER
1000
GEN
1002
}
  0
ARC
  5
999
330
1F
100
AcDbEntity
  8
下側
100
AcDbCircle
 10
70.62533473432472
 20
158.8287907788082
 30
0.0
 40
1.5
100
AcDbArc
 50
180.0
 51
270.0
1001
GENIUS_GENODEF_13
1002
{
1000
HIER
1070
     0
1002
}
1002
{
1000
MANEDIT
1070
     0
1002
}
1002
{
1000
NOSEL
1070
     0
1002
}
1002
{
1000
BEHIND
1070
     0
1002
}
1002
{
1000
OTHER
1070
     0
1002
}
1002
{
1000
REACTOR
1002
}
1001
GENIUS_GENOBJ-N-FIL_13
1002
{
1000
OWNER
1000
GEN
1002
}
  0
ARC
  5
99A
330
1F
100
AcDbEntity
  8
下側
100
AcDbCircle
 10
70.62533473432472
 20
202.8287907788083
 30
0.0
 40
1.5
100
AcDbArc
 50
90.0
 51
180.0
1001
GENIUS_GENODEF_13
1002
{
1000
HIER
1070
     0
1002
}
1002
{
1000
MANEDIT
1070
     0
1002
}
1002
{
1000
NOSEL
1070
     0
1002
}
1002
{
1000
BEHIND
1070
     0
1002
}
1002
{
1000
OTHER
1070
     0
1002
}
1002
{
1000
REACTOR
1002
}
1001
GENIUS_GENOBJ-N-FIL_13
1002
{
1000
OWNER
1000
GEN
1002
}
  0
ARC
  5
99B
330
1F
100
AcDbEntity
  8
下側
100
AcDbCircle
 10
75.62533473432472
 20
202.8287907788083
 30
0.0
 40
1.5
100
AcDbArc
 50
0.0
 51
90.0
1001
GENIUS_GENODEF_13
1002
{
1000
HIER
1070
     0
1002
}
1002
{
1000
MANEDIT
1070
     0
1002
}
1002
{
1000
NOSEL
1070
     0
1002
}
1002
{
1000
BEHIND
1070
     0
1002
}
1002
{
1000
OTHER
1070
     0
1002
}
1002
{
1000
REACTOR
1002
}
1001
GENIUS_GENOBJ-N-FIL_13
1002
{
1000
OWNER
1000
GEN
1002
}
  0
LINE
  5
99C
330
1F
100
AcDbEntity
  8
下側
100
AcDbLine
 10
75.12533473432473
 20
205.8287907788082
 30
0.0
 11
75.12533473432473
 21
204.3287907788082
 31
0.0
  0
LINE
  5
99D
330
1F
100
AcDbEntity
  8
下側
100
AcDbLine
 10
71.12533473432472
 20
204.3287907788082
 30
0.0
 11
71.12533473432472
 21
205.8287907788082
 31
0.0
  0
LINE
  5
99E
330
1F
100
AcDbEntity
  8
下側
100
AcDbLine
 10
69.12533473432472
 20
202.8287907788083
 30
0.0
 11
69.12533473432472
 21
180.8287907788082
 31
0.0
  0
LINE
  5
99F
330
1F
100
AcDbEntity
  8
下側
100
AcDbLine
 10
75.62533473432472
 20
204.3287907788082
 30
0.0
 11
75.12533473432483
 21
204.3287907788082
 31
0.0
  0
LINE
  5
9A0
330
1F
100
AcDbEntity
  8
下側
100
AcDbLine
 10
77.12533473432472
 20
202.8287907788083
 30
0.0
 11
77.12533473432472
 21
180.8287907788082
 31
0.0
  0
LINE
  5
9A1
330
1F
100
AcDbEntity
  8
下側
100
AcDbLine
 10
84.0253347343247
 20
143.5287907788082
 30
0.0
 11
84.0253347343247
 21
148.5287907788082
 31
0.0
  0
LINE
  5
9A2
330
1F
100
AcDbEntity
  8
下側
100
AcDbLine
 10
84.0253347343247
 20
143.5287907788082
 30
0.0
 11
74.0253347343247
 21
143.5287907788082
 31
0.0
  0
LINE
  5
9A3
330
1F
100
AcDbEntity
  8
下側
100
AcDbLine
 10
84.0253347343247
 20
148.5287907788082
 30
0.0
 11
74.0253347343247
 21
148.5287907788082
 31
0.0
  0
LINE
  5
9A4
330
1F
100
AcDbEntity
  8
下側
100
AcDbLine
 10
74.0253347343247
 20
143.5287907788082
 30
0.0
 11
74.0253347343247
 21
148.5287907788082
 31
0.0
  0
ARC
  5
9A5
330
1F
100
AcDbEntity
  8
下側
100
AcDbCircle
 10
64.0253347343247
 20
217.3287907788083
 30
0.0
 40
1.0
100
AcDbArc
 50
359.9999999999992
 51
90.0
1001
GENIUS_GENOBJ-N-FIL_13
1002
{
1000
OWNER
1000
GEN
1002
}
1001
GENIUS_GENODEF_13
1002
{
1000
HIER
1070
     0
1002
}
1002
{
1000
MANEDIT
1070
     0
1002
}
1002
{
1000
NOSEL
1070
     0
1002
}
1002
{
1000
BEHIND
1070
     0
1002
}
1002
{
1000
OTHER
1070
     0
1002
}
1002
{
1000
REACTOR
1002
}
  0
ARC
  5
9A6
330
1F
100
AcDbEntity
  8
下側
100
AcDbCircle
 10
64.0253347343247
 20
212.6287907788082
 30
0.0
 40
1.0
100
AcDbArc
 50
270.0
 51
0.0
1001
GENIUS_GENODEF_13
1002
{
1000
HIER
1070
     0
1002
}
1002
{
1000
MANEDIT
1070
     0
1002
}
1002
{
1000
NOSEL
1070
     0
1002
}
1002
{
1000
BEHIND
1070
     0
1002
}
1002
{
1000
OTHER
1070
     0
1002
}
1002
{
1000
REACTOR
1002
}
1001
GENIUS_GENOBJ-N-FIL_13
1002
{
1000
OWNER
1000
GEN
1002
}
  0
ARC
  5
9A7
330
1F
100
AcDbEntity
  8
下側
100
AcDbCircle
 10
61.5253347343247
 20
212.6287907788082
 30
0.0
 40
1.0
100
AcDbArc
 50
180.0
 51
270.0
1001
GENIUS_GENODEF_13
1002
{
1000
HIER
1070
     0
1002
}
1002
{
1000
MANEDIT
1070
     0
1002
}
1002
{
1000
NOSEL
1070
     0
1002
}
1002
{
1000
BEHIND
1070
     0
1002
}
1002
{
1000
OTHER
1070
     0
1002
}
1002
{
1000
REACTOR
1002
}
1001
GENIUS_GENOBJ-N-FIL_13
1002
{
1000
OWNER
1000
GEN
1002
}
  0
ARC
  5
9A8
102
{ACAD_REACTORS
330
928
330
925
102
}
330
1F
100
AcDbEntity
  8
下側
100
AcDbCircle
 10
61.5253347343247
 20
217.3287907788083
 30
0.0
 40
1.0
100
AcDbArc
 50
90.0
 51
180.0
1001
GENIUS_GENODEF_13
1002
{
1000
HIER
1070
     0
1002
}
1002
{
1000
MANEDIT
1070
     0
1002
}
1002
{
1000
NOSEL
1070
     0
1002
}
1002
{
1000
BEHIND
1070
     0
1002
}
1002
{
1000
OTHER
1070
     0
1002
}
1002
{
1000
REACTOR
1002
}
1001
GENIUS_GENOBJ-N-FIL_13
1002
{
1000
OWNER
1000
GEN
1002
}
  0
LINE
  5
9A9
330
1F
100
AcDbEntity
  8
下側
100
AcDbLine
 10
62.7753347343247
 20
203.3287907788082
 30
0.0
 11
62.7753347343247
 21
180.8287907788082
 31
0.0
  0
LINE
  5
9AA
330
1F
100
AcDbEntity
  8
下側
100
AcDbLine
 10
90.02533473432469
 20
211.3287907788083
 30
0.0
 11
70.7753347343247
 21
211.3287907788083
 31
0.0
  0
ARC
  5
9AB
330
1F
100
AcDbEntity
  8
下側
100
AcDbCircle
 10
70.7753347343247
 20
203.3287907788082
 30
0.0
 40
8.0
100
AcDbArc
 50
90.0
 51
180.0
1001
GENIUS_GENODEF_13
1002
{
1000
HIER
1070
     0
1002
}
1002
{
1000
MANEDIT
1070
     0
1002
}
1002
{
1000
NOSEL
1070
     0
1002
}
1002
{
1000
BEHIND
1070
     0
1002
}
1002
{
1000
OTHER
1070
     0
1002
}
1002
{
1000
REACTOR
1002
}
1001
GENIUS_GENOBJ-N-FIL_13
1002
{
1000
OWNER
1000
GEN
1002
}
  0
LINE
  5
9AC
330
1F
100
AcDbEntity
  8
下側
100
AcDbLine
 10
66.57533473432477
 20
203.3287907788082
 30
0.0
 11
66.57533473432477
 21
180.8287907788082
 31
0.0
  0
ARC
  5
9AD
330
1F
100
AcDbEntity
  8
下側
100
AcDbCircle
 10
70.7753347343247
 20
203.3287907788082
 30
0.0
 40
4.2
100
AcDbArc
 50
90.0
 51
180.0
1001
GENIUS_GENODEF_13
1002
{
1000
HIER
1070
     0
1002
}
1002
{
1000
MANEDIT
1070
     0
1002
}
1002
{
1000
NOSEL
1070
     0
1002
}
1002
{
1000
BEHIND
1070
     0
1002
}
1002
{
1000
OTHER
1070
     0
1002
}
1002
{
1000
REACTOR
1002
}
1001
GENIUS_GENOBJ-N-FIL_13
1002
{
1000
OWNER
1000
GEN
1002
}
  0
LINE
  5
9AE
330
1F
100
AcDbEntity
  8
下側
100
AcDbLine
 10
90.02533473432469
 20
207.5287907788082
 30
0.0
 11
70.7753347343247
 21
207.5287907788082
 31
0.0
  0
LINE
  5
9AF
330
1F
100
AcDbEntity
  8
下側
100
AcDbLine
 10
68.2753347343247
 20
203.3287907788082
 30
0.0
 11
68.2753347343247
 21
180.8287907788082
 31
0.0
  0
ARC
  5
9B0
330
1F
100
AcDbEntity
  8
下側
100
AcDbCircle
 10
70.7753347343247
 20
203.3287907788082
 30
0.0
 40
2.5
100
AcDbArc
 50
90.0
 51
180.0
1001
GENIUS_GENODEF_13
1002
{
1000
HIER
1070
     0
1002
}
1002
{
1000
MANEDIT
1070
     0
1002
}
1002
{
1000
NOSEL
1070
     0
1002
}
1002
{
1000
BEHIND
1070
     0
1002
}
1002
{
1000
OTHER
1070
     0
1002
}
1002
{
1000
REACTOR
1002
}
1001
GENIUS_GENOBJ-N-FIL_13
1002
{
1000
OWNER
1000
GEN
1002
}
  0
LINE
  5
9B1
102
{ACAD_REACTORS
330
EB5
102
}
330
1F
100
AcDbEntity
  8
下側
100
AcDbLine
 10
90.02533473432469
 20
205.8287907788082
 30
0.0
 11
70.7753347343247
 21
205.8287907788082
 31
0.0
  0
LINE
  5
9B2
330
1F
100
AcDbEntity
  8
下側
100
AcDbLine
 10
90.02533473432469
 20
155.8287907788082
 30
0.0
 11
70.7753347343247
 21
155.8287907788082
 31
0.0
  0
ARC
  5
9B3
102
{ACAD_REACTORS
330
EB5
102
}
330
1F
100
AcDbEntity
  8
下側
100
AcDbCircle
 10
70.7753347343247
 20
158.3287907788082
 30
0.0
 40
2.5
100
AcDbArc
 50
180.0
 51
270.0
1001
GENIUS_GENODEF_13
1002
{
1000
HIER
1070
     0
1002
}
1002
{
1000
MANEDIT
1070
     0
1002
}
1002
{
1000
NOSEL
1070
     0
1002
}
1002
{
1000
BEHIND
1070
     0
1002
}
1002
{
1000
OTHER
1070
     0
1002
}
1002
{
1000
REACTOR
1002
}
1001
GENIUS_GENOBJ-N-FIL_13
1002
{
1000
OWNER
1000
GEN
1002
}
  0
LINE
  5
9B4
330
1F
100
AcDbEntity
  8
下側
100
AcDbLine
 10
68.2753347343247
 20
158.3287907788082
 30
0.0
 11
68.2753347343247
 21
180.8287907788082
 31
0.0
  0
LINE
  5
9B5
330
1F
100
AcDbEntity
  8
下側
100
AcDbLine
 10
90.02533473432469
 20
154.1287907788082
 30
0.0
 11
70.7753347343247
 21
154.1287907788082
 31
0.0
  0
ARC
  5
9B6
330
1F
100
AcDbEntity
  8
下側
100
AcDbCircle
 10
70.7753347343247
 20
158.3287907788082
 30
0.0
 40
4.2
100
AcDbArc
 50
180.0
 51
270.0
1001
GENIUS_GENODEF_13
1002
{
1000
HIER
1070
     0
1002
}
1002
{
1000
MANEDIT
1070
     0
1002
}
1002
{
1000
NOSEL
1070
     0
1002
}
1002
{
1000
BEHIND
1070
     0
1002
}
1002
{
1000
OTHER
1070
     0
1002
}
1002
{
1000
REACTOR
1002
}
1001
GENIUS_GENOBJ-N-FIL_13
1002
{
1000
OWNER
1000
GEN
1002
}
  0
LINE
  5
9B7
330
1F
100
AcDbEntity
  8
下側
100
AcDbLine
 10
66.57533473432477
 20
158.3287907788082
 30
0.0
 11
66.57533473432477
 21
180.8287907788082
 31
0.0
  0
ARC
  5
9B8
330
1F
100
AcDbEntity
  8
下側
100
AcDbCircle
 10
70.7753347343247
 20
158.3287907788082
 30
0.0
 40
8.0
100
AcDbArc
 50
180.0
 51
270.0
1001
GENIUS_GENODEF_13
1002
{
1000
HIER
1070
     0
1002
}
1002
{
1000
MANEDIT
1070
     0
1002
}
1002
{
1000
NOSEL
1070
     0
1002
}
1002
{
1000
BEHIND
1070
     0
1002
}
1002
{
1000
OTHER
1070
     0
1002
}
1002
{
1000
REACTOR
1002
}
1001
GENIUS_GENOBJ-N-FIL_13
1002
{
1000
OWNER
1000
GEN
1002
}
  0
LINE
  5
9B9
330
1F
100
AcDbEntity
  8
下側
100
AcDbLine
 10
90.02533473432469
 20
150.3287907788082
 30
0.0
 11
70.7753347343247
 21
150.3287907788082
 31
0.0
  0
LINE
  5
9BA
330
1F
100
AcDbEntity
  8
下側
100
AcDbLine
 10
62.7753347343247
 20
158.3287907788082
 30
0.0
 11
62.7753347343247
 21
180.8287907788082
 31
0.0
  0
LINE
  5
9BB
330
1F
100
AcDbEntity
  8
下側
100
AcDbLine
 10
65.0253347343247
 20
217.3287907788083
 30
0.0
 11
65.0253347343247
 21
212.6287907788082
 31
0.0
  0
LINE
  5
9BC
330
1F
100
AcDbEntity
  8
下側
100
AcDbLine
 10
64.0253347343247
 20
211.6287907788083
 30
0.0
 11
61.5253347343247
 21
211.6287907788083
 31
0.0
  0
ARC
  5
9BD
330
1F
100
AcDbEntity
  8
下側
100
AcDbCircle
 10
70.5253347343247
 20
151.8287907788082
 30
0.0
 40
10.0
100
AcDbArc
 50
180.0
 51
270.0
1001
GENIUS_GENODEF_13
1002
{
1000
HIER
1070
     0
1002
}
1002
{
1000
MANEDIT
1070
     0
1002
}
1002
{
1000
NOSEL
1070
     0
1002
}
1002
{
1000
BEHIND
1070
     0
1002
}
1002
{
1000
OTHER
1070
     0
1002
}
1002
{
1000
REACTOR
1002
}
1001
GENIUS_GENOBJ-N-FIL_13
1002
{
1000
OWNER
1000
GEN
1002
}
  0
LINE
  5
9BE
330
1F
100
AcDbEntity
  8
下側
100
AcDbLine
 10
90.02533473432482
 20
218.3287907788082
 30
0.0
 11
61.5253347343247
 21
218.3287907788082
 31
0.0
  0
LINE
  5
9BF
330
1F
100
AcDbEntity
  8
下側
100
AcDbLine
 10
60.5253347343247
 20
217.3287907788083
 30
0.0
 11
60.5253347343247
 21
151.8287907788082
 31
0.0
  0
LINE
  5
9C0
330
1F
100
AcDbEntity
  8
下側0
100
AcDbLine
 10
68.27743460486397
 20
56.66737970203405
 30
0.0
 11
68.27743460486397
 21
40.66737970203405
 31
0.0
  0
LINE
  5
9C1
330
1F
100
AcDbEntity
  8
下側
100
AcDbLine
 10
66.52743460486397
 20
46.66737970203405
 30
0.0
 11
66.52743460486397
 21
40.66737970203405
 31
0.0
  0
LINE
  5
9C2
330
1F
100
AcDbEntity
  8
下側
100
AcDbLine
 10
66.52743460486397
 20
40.66737970203405
 30
0.0
 11
90.02743460486398
 21
40.66737970203405
 31
0.0
  0
LINE
  5
9C3
330
1F
100
AcDbEntity
  8
下側
100
AcDbLine
 10
90.02743460486398
 20
56.66737970203405
 30
0.0
 11
60.52743460486396
 21
56.66737970203405
 31
0.0
  0
LINE
  5
9C4
330
1F
100
AcDbEntity
  8
下側
100
AcDbLine
 10
60.52743460486396
 20
56.66737970203405
 30
0.0
 11
60.52743460486396
 21
46.66737970203405
 31
0.0
  0
LINE
  5
9C5
330
1F
100
AcDbEntity
  8
下側
100
AcDbLine
 10
90.02743460486398
 20
46.66737970203405
 30
0.0
 11
60.52743460486396
 21
46.66737970203405
 31
0.0
  0
LINE
  5
9C6
330
1F
100
AcDbEntity
  8
上側
100
AcDbLine
 10
60.52743460486396
 20
57.66737970203405
 30
0.0
 11
90.02743460486398
 21
57.66737970203405
 31
0.0
  0
LINE
  5
9C7
330
1F
100
AcDbEntity
  8
上側
100
AcDbLine
 10
60.52743460486396
 20
57.66737970203405
 30
0.0
 11
60.52743460486396
 21
61.16737970203406
 31
0.0
  0
LINE
  5
9C8
330
1F
100
AcDbEntity
  8
上側
100
AcDbLine
 10
60.52743460486396
 20
61.16737970203406
 30
0.0
 11
78.41243460486396
 21
61.16737970203406
 31
0.0
  0
LINE
  5
9C9
330
1F
100
AcDbEntity
  8
上側
100
AcDbLine
 10
78.41243460486396
 20
68.66737970203406
 30
0.0
 11
78.41243460486396
 21
61.16737970203406
 31
0.0
  0
LINE
  5
9CA
330
1F
100
AcDbEntity
  8
上側
100
AcDbLine
 10
84.612434604864
 20
61.16737970203406
 30
0.0
 11
87.15628075871018
 21
61.16737970203406
 31
0.0
  0
LINE
  5
9CB
330
1F
100
AcDbEntity
  8
上側
100
AcDbLine
 10
74.17743460486395
 20
61.16737970203406
 30
0.0
 11
75.86827852738418
 21
68.35441203489392
 31
0.0
  0
LINE
  5
9CC
330
1F
100
AcDbEntity
  8
上側
100
AcDbLine
 10
78.78855018830972
 20
70.66737970203405
 30
0.0
 11
83.6124346048639
 21
70.66737970203405
 31
0.0
  0
LINE
  5
9CD
330
1F
100
AcDbEntity
  8
上側
100
AcDbLine
 10
84.61243460486389
 20
69.66737970203405
 30
0.0
 11
84.612434604864
 21
60.66737970203405
 31
0.0
  0
LINE
  5
9CE
330
1F
100
AcDbEntity
  8
上側
100
AcDbLine
 10
84.612434604864
 20
60.66737970203405
 30
0.0
 11
90.02743460486398
 21
60.66737970203405
 31
0.0
  0
LINE
  5
9CF
330
1F
100
AcDbEntity
  8
上側
100
AcDbLine
 10
78.26627444004168
 20
68.66737970203406
 30
0.0
 11
78.41243460486396
 21
68.66737970203406
 31
0.0
  0
LINE
  5
9D0
330
1F
100
AcDbEntity
  8
上側
100
AcDbLine
 10
77.68222010785655
 20
68.20478616860606
 30
0.0
 11
76.0265776391418
 21
61.16737970203406
 31
0.0
  0
ARC
  5
9D1
330
1F
100
AcDbEntity
  8
上側
100
AcDbCircle
 10
78.78855018830972
 20
67.66737970203405
 30
0.0
 40
3.0
100
AcDbArc
 50
90.0
 51
166.7611609044417
1001
GENIUS_GENODEF_13
1002
{
1000
HIER
1070
     0
1002
}
1002
{
1000
MANEDIT
1070
     0
1002
}
1002
{
1000
NOSEL
1070
     0
1002
}
1002
{
1000
BEHIND
1070
     0
1002
}
1002
{
1000
OTHER
1070
     0
1002
}
1002
{
1000
REACTOR
1002
}
1001
GENIUS_GENOBJ-N-FIL_13
1002
{
1000
OWNER
1000
GEN
1002
}
  0
ARC
  5
9D2
330
1F
100
AcDbEntity
  8
上側
100
AcDbCircle
 10
78.26627444004168
 20
68.06737970203409
 30
0.0
 40
0.6
100
AcDbArc
 50
90.0
 51
166.7611609044401
1001
GENIUS_GENOBJ-N-FIL_13
1002
{
1000
OWNER
1000
GEN
1002
}
1001
GENIUS_GENODEF_13
1002
{
1000
HIER
1070
     0
1002
}
1002
{
1000
MANEDIT
1070
     0
1002
}
1002
{
1000
NOSEL
1070
     0
1002
}
1002
{
1000
BEHIND
1070
     0
1002
}
1002
{
1000
OTHER
1070
     0
1002
}
1002
{
1000
REACTOR
1002
}
  0
LINE
  5
9D3
330
1F
100
AcDbEntity
  8
上側
100
AcDbLine
 10
68.52743460486397
 20
61.16737970203406
 30
0.0
 11
71.50008556433738
 21
69.66066815767229
 31
0.0
  0
LINE
  5
9D4
330
1F
100
AcDbEntity
  8
上側
100
AcDbLine
 10
73.62376686616091
 20
71.16737970203406
 30
0.0
 11
90.02743460486398
 21
71.16737970203406
 31
0.0
  0
ARC
  5
9D5
330
1F
100
AcDbEntity
  8
上側
100
AcDbCircle
 10
83.6124346048639
 20
69.66737970203405
 30
0.0
 40
1.0
100
AcDbArc
 50
0.0
 51
90.0
1001
GENIUS_GENODEF_13
1002
{
1000
HIER
1070
     0
1002
}
1002
{
1000
MANEDIT
1070
     0
1002
}
1002
{
1000
NOSEL
1070
     0
1002
}
1002
{
1000
BEHIND
1070
     0
1002
}
1002
{
1000
OTHER
1070
     0
1002
}
1002
{
1000
REACTOR
1002
}
1001
GENIUS_GENOBJ-N-FIL_13
1002
{
1000
OWNER
1000
GEN
1002
}
  0
LINE
  5
9D6
330
1F
100
AcDbEntity
  8
上側
100
AcDbLine
 10
63.17743460486394
 20
57.66737970203405
 30
0.0
 11
63.92743460486395
 21
56.66737970203405
 31
0.0
  0
LINE
  5
9D7
330
1F
100
AcDbEntity
  8
上側
100
AcDbLine
 10
65.42743460486395
 20
56.66737970203405
 30
0.0
 11
66.17743460486394
 21
57.66737970203405
 31
0.0
  0
LINE
  5
9D8
330
1F
100
AcDbEntity
  8
上側
100
AcDbLine
 10
114.627434604864
 20
56.66737970203405
 30
0.0
 11
113.877434604864
 21
57.66737970203405
 31
0.0
  0
LINE
  5
9D9
330
1F
100
AcDbEntity
  8
上側
100
AcDbLine
 10
116.877434604864
 20
57.66737970203405
 30
0.0
 11
116.127434604864
 21
56.66737970203405
 31
0.0
  0
ARC
  5
9DA
330
1F
100
AcDbEntity
  8
上側
100
AcDbCircle
 10
96.44243460486405
 20
69.66737970203405
 30
0.0
 40
1.0
100
AcDbArc
 50
90.0
 51
180.0
1001
GENIUS_GENODEF_13
1002
{
1000
HIER
1070
     0
1002
}
1002
{
1000
MANEDIT
1070
     0
1002
}
1002
{
1000
NOSEL
1070
     0
1002
}
1002
{
1000
BEHIND
1070
     0
1002
}
1002
{
1000
OTHER
1070
     0
1002
}
1002
{
1000
REACTOR
1002
}
1001
GENIUS_GENOBJ-N-FIL_13
1002
{
1000
OWNER
1000
GEN
1002
}
  0
LINE
  5
9DB
330
1F
100
AcDbEntity
  8
上側
100
AcDbLine
 10
106.4311023435671
 20
71.16737970203406
 30
0.0
 11
90.02743460486398
 21
71.16737970203406
 31
0.0
  0
LINE
  5
9DC
330
1F
100
AcDbEntity
  8
上側
100
AcDbLine
 10
111.5274346048639
 20
61.16737970203406
 30
0.0
 11
108.5547836453906
 21
69.66066815767229
 31
0.0
  0
ARC
  5
9DD
330
1F
100
AcDbEntity
  8
上側
100
AcDbCircle
 10
101.7885947696862
 20
68.06737970203409
 30
0.0
 40
0.6
100
AcDbArc
 50
13.2388390955599
 51
90.0
1001
GENIUS_GENOBJ-N-FIL_13
1002
{
1000
OWNER
1000
GEN
1002
}
1001
GENIUS_GENODEF_13
1002
{
1000
HIER
1070
     0
1002
}
1002
{
1000
MANEDIT
1070
     0
1002
}
1002
{
1000
NOSEL
1070
     0
1002
}
1002
{
1000
BEHIND
1070
     0
1002
}
1002
{
1000
OTHER
1070
     0
1002
}
1002
{
1000
REACTOR
1002
}
  0
ARC
  5
9DE
330
1F
100
AcDbEntity
  8
上側
100
AcDbCircle
 10
101.2663190214182
 20
67.66737970203405
 30
0.0
 40
3.0
100
AcDbArc
 50
13.23883909555832
 51
90.0
1001
GENIUS_GENODEF_13
1002
{
1000
HIER
1070
     0
1002
}
1002
{
1000
MANEDIT
1070
     0
1002
}
1002
{
1000
NOSEL
1070
     0
1002
}
1002
{
1000
BEHIND
1070
     0
1002
}
1002
{
1000
OTHER
1070
     0
1002
}
1002
{
1000
REACTOR
1002
}
1001
GENIUS_GENOBJ-N-FIL_13
1002
{
1000
OWNER
1000
GEN
1002
}
  0
LINE
  5
9DF
330
1F
100
AcDbEntity
  8
上側
100
AcDbLine
 10
102.3726491018714
 20
68.20478616860606
 30
0.0
 11
104.0282915705861
 21
61.16737970203406
 31
0.0
  0
LINE
  5
9E0
330
1F
100
AcDbEntity
  8
上側
100
AcDbLine
 10
101.7885947696862
 20
68.66737970203406
 30
0.0
 11
101.6424346048639
 21
68.66737970203406
 31
0.0
  0
LINE
  5
9E1
330
1F
100
AcDbEntity
  8
上側
100
AcDbLine
 10
95.44243460486404
 20
60.66737970203405
 30
0.0
 11
90.02743460486398
 21
60.66737970203405
 31
0.0
  0
LINE
  5
9E2
330
1F
100
AcDbEntity
  8
上側
100
AcDbLine
 10
95.44243460486404
 20
69.66737970203405
 30
0.0
 11
95.44243460486404
 21
60.66737970203405
 31
0.0
  0
LINE
  5
9E3
330
1F
100
AcDbEntity
  8
上側
100
AcDbLine
 10
101.2663190214182
 20
70.66737970203405
 30
0.0
 11
96.44243460486405
 21
70.66737970203405
 31
0.0
  0
LINE
  5
9E4
330
1F
100
AcDbEntity
  8
上側
100
AcDbLine
 10
105.877434604864
 20
61.16737970203406
 30
0.0
 11
104.1865906823437
 21
68.35441203489392
 31
0.0
  0
LINE
  5
9E5
330
1F
100
AcDbEntity
  8
上側
100
AcDbLine
 10
95.44243460486404
 20
61.16737970203406
 30
0.0
 11
92.89858845101775
 21
61.16737970203406
 31
0.0
  0
LINE
  5
9E6
330
1F
100
AcDbEntity
  8
上側
100
AcDbLine
 10
101.6424346048639
 20
68.66737970203406
 30
0.0
 11
101.6424346048639
 21
61.16737970203406
 31
0.0
  0
LINE
  5
9E7
330
1F
100
AcDbEntity
  8
上側
100
AcDbLine
 10
119.5274346048639
 20
61.16737970203406
 30
0.0
 11
101.6424346048639
 21
61.16737970203406
 31
0.0
  0
LINE
  5
9E8
330
1F
100
AcDbEntity
  8
上側
100
AcDbLine
 10
119.5274346048639
 20
57.66737970203405
 30
0.0
 11
119.5274346048639
 21
61.16737970203406
 31
0.0
  0
LINE
  5
9E9
330
1F
100
AcDbEntity
  8
上側
100
AcDbLine
 10
119.5274346048639
 20
57.66737970203405
 30
0.0
 11
90.02743460486398
 21
57.66737970203405
 31
0.0
  0
LINE
  5
9EA
330
1F
100
AcDbEntity
  8
上側
100
AcDbLine
 10
70.52743460486396
 20
59.66737970203405
 30
0.0
 11
70.52743460486408
 21
57.66737970203405
 31
0.0
  0
LINE
  5
9EB
330
1F
100
AcDbEntity
  8
上側
100
AcDbLine
 10
84.02743460486396
 20
59.66737970203405
 30
0.0
 11
84.02743460486396
 21
57.66737970203405
 31
0.0
  0
LINE
  5
9EC
330
1F
100
AcDbEntity
  8
上側
100
AcDbLine
 10
82.77743460486396
 20
59.66737970203405
 30
0.0
 11
82.77743460486396
 21
57.66737970203405
 31
0.0
  0
LINE
  5
9ED
330
1F
100
AcDbEntity
  8
上側
100
AcDbLine
 10
71.77743460486396
 20
59.66737970203405
 30
0.0
 11
71.77743460486408
 21
57.66737970203405
 31
0.0
  0
LINE
  5
9EE
330
1F
100
AcDbEntity
  8
上側
100
AcDbLine
 10
96.02533473432471
 20
141.8287907788083
 30
0.0
 11
90.02533473432469
 21
141.8287907788083
 31
0.0
  0
LINE
  5
9EF
330
1F
100
AcDbEntity
  8
上側
100
AcDbLine
 10
97.27533473432471
 20
140.3287907788082
 30
0.0
 11
96.02533473432471
 21
141.8287907788083
 31
0.0
  0
LINE
  5
9F0
330
1F
100
AcDbEntity
  8
上側
100
AcDbLine
 10
108.2753347343247
 20
140.3287907788082
 30
0.0
 11
97.27533473432471
 21
140.3287907788082
 31
0.0
  0
LINE
  5
9F1
330
1F
100
AcDbEntity
  8
上側
100
AcDbLine
 10
109.5253347343247
 20
141.8287907788082
 30
0.0
 11
108.2753347343247
 21
140.3287907788082
 31
0.0
  0
LINE
  5
9F2
330
1F
100
AcDbEntity
  8
上側
100
AcDbLine
 10
119.5253347343247
 20
151.8287907788082
 30
0.0
 11
90.02533473432469
 21
151.8287907788082
 31
0.0
  0
LINE
  5
9F3
330
1F
100
AcDbEntity
  8
上側
100
AcDbLine
 10
90.02533473432469
 20
160.3287907788082
 30
0.0
 11
106.5253347343247
 21
160.3287907788082
 31
0.0
  0
ARC
  5
9F4
330
1F
100
AcDbEntity
  8
上側
100
AcDbCircle
 10
106.5253347343247
 20
161.8287907788082
 30
0.0
 40
1.5
100
AcDbArc
 50
270.0
 51
0.0
1001
GENIUS_GENODEF_13
1002
{
1000
HIER
1070
     0
1002
}
1002
{
1000
MANEDIT
1070
     0
1002
}
1002
{
1000
NOSEL
1070
     0
1002
}
1002
{
1000
BEHIND
1070
     0
1002
}
1002
{
1000
OTHER
1070
     0
1002
}
1002
{
1000
REACTOR
1002
}
1001
GENIUS_GENOBJ-N-FIL_13
1002
{
1000
OWNER
1000
GEN
1002
}
  0
LINE
  5
9F5
330
1F
100
AcDbEntity
  8
上側
100
AcDbLine
 10
108.0253347343247
 20
199.8287907788082
 30
0.0
 11
108.0253347343247
 21
161.8287907788082
 31
0.0
  0
ARC
  5
9F6
330
1F
100
AcDbEntity
  8
上側
100
AcDbCircle
 10
106.5253347343247
 20
199.8287907788082
 30
0.0
 40
1.5
100
AcDbArc
 50
0.0
 51
90.0
1001
GENIUS_GENOBJ-N-FIL_13
1002
{
1000
OWNER
1000
GEN
1002
}
1001
GENIUS_GENODEF_13
1002
{
1000
HIER
1070
     0
1002
}
1002
{
1000
MANEDIT
1070
     0
1002
}
1002
{
1000
NOSEL
1070
     0
1002
}
1002
{
1000
BEHIND
1070
     0
1002
}
1002
{
1000
OTHER
1070
     0
1002
}
1002
{
1000
REACTOR
1002
}
  0
LINE
  5
9F7
330
1F
100
AcDbEntity
  8
上側
100
AcDbLine
 10
106.5253347343247
 20
201.3287907788082
 30
0.0
 11
90.02533473432469
 21
201.3287907788082
 31
0.0
  0
ARC
  5
9F8
330
1F
100
AcDbEntity
  8
上側
100
AcDbCircle
 10
106.5253347343247
 20
199.8287907788082
 30
0.0
 40
5.0
100
AcDbArc
 50
0.0
 51
90.0
1001
GENIUS_GENOBJ-N-FIL_13
1002
{
1000
OWNER
1000
GEN
1002
}
1001
GENIUS_GENODEF_13
1002
{
1000
HIER
1070
     0
1002
}
1002
{
1000
MANEDIT
1070
     0
1002
}
1002
{
1000
NOSEL
1070
     0
1002
}
1002
{
1000
BEHIND
1070
     0
1002
}
1002
{
1000
OTHER
1070
     0
1002
}
1002
{
1000
REACTOR
1002
}
  0
ARC
  5
9F9
330
1F
100
AcDbEntity
  8
上側
100
AcDbCircle
 10
106.5253347343247
 20
161.8287907788082
 30
0.0
 40
5.0
100
AcDbArc
 50
270.0
 51
0.0
1001
GENIUS_GENODEF_13
1002
{
1000
HIER
1070
     0
1002
}
1002
{
1000
MANEDIT
1070
     0
1002
}
1002
{
1000
NOSEL
1070
     0
1002
}
1002
{
1000
BEHIND
1070
     0
1002
}
1002
{
1000
OTHER
1070
     0
1002
}
1002
{
1000
REACTOR
1002
}
1001
GENIUS_GENOBJ-N-FIL_13
1002
{
1000
OWNER
1000
GEN
1002
}
  0
LINE
  5
9FA
330
1F
100
AcDbEntity
  8
上側
100
AcDbLine
 10
90.02533473432469
 20
156.8287907788082
 30
0.0
 11
106.5253347343247
 21
156.8287907788082
 31
0.0
  0
LINE
  5
9FB
330
1F
100
AcDbEntity
  8
上側
100
AcDbLine
 10
111.5253347343247
 20
199.8287907788082
 30
0.0
 11
111.5253347343247
 21
161.8287907788082
 31
0.0
  0
LINE
  5
9FC
330
1F
100
AcDbEntity
  8
上側
100
AcDbLine
 10
106.5253347343247
 20
204.8287907788082
 30
0.0
 11
90.02533473432469
 21
204.8287907788082
 31
0.0
  0
LINE
  5
9FD
330
1F
100
AcDbEntity
  8
上側
100
AcDbLine
 10
96.02533473432471
 20
216.4287907788083
 30
0.0
 11
113.5253347343247
 21
216.4287907788083
 31
0.0
  0
LINE
  5
9FE
330
1F
100
AcDbEntity
  8
上側
100
AcDbLine
 10
113.5253347343247
 20
216.4287907788083
 30
0.0
 11
113.5253347343247
 21
211.3287907788083
 31
0.0
  0
LINE
  5
9FF
330
1F
100
AcDbEntity
  8
上側
100
AcDbLine
 10
119.5253347343247
 20
211.3287907788083
 30
0.0
 11
119.5253347343247
 21
151.8287907788082
 31
0.0
  0
LINE
  5
A00
330
1F
100
AcDbEntity
  8
上側
100
AcDbLine
 10
113.5253347343247
 20
211.3287907788083
 30
0.0
 11
119.5253347343247
 21
211.3287907788083
 31
0.0
  0
ARC
  5
A01
330
1F
100
AcDbEntity
  8
上側
100
AcDbCircle
 10
109.5253347343247
 20
151.8287907788082
 30
0.0
 40
10.0
100
AcDbArc
 50
270.0
 51
0.0
1001
GENIUS_GENODEF_13
1002
{
1000
HIER
1070
     0
1002
}
1002
{
1000
MANEDIT
1070
     0
1002
}
1002
{
1000
NOSEL
1070
     0
1002
}
1002
{
1000
BEHIND
1070
     0
1002
}
1002
{
1000
OTHER
1070
     0
1002
}
1002
{
1000
REACTOR
1002
}
1001
GENIUS_GENOBJ-N-FIL_13
1002
{
1000
OWNER
1000
GEN
1002
}
  0
LINE
  5
A02
330
1F
100
AcDbEntity
  8
上側
100
AcDbLine
 10
87.52533473432469
 20
211.3287907788082
 30
0.0
 11
96.02533473432471
 21
211.3287907788083
 31
0.0
  0
LINE
  5
A03
330
1F
100
AcDbEntity
  8
上側
100
AcDbLine
 10
96.02533473432471
 20
211.3287907788083
 30
0.0
 11
96.02533473432471
 21
216.4287907788083
 31
0.0
  0
LINE
  5
A04
330
1F
100
AcDbEntity
  8
上側
100
AcDbLine
 10
90.02533473432469
 20
216.3787907788083
 30
0.0
 11
90.62533473432472
 21
216.3787907788083
 31
0.0
  0
LINE
  5
A05
330
1F
100
AcDbEntity
  8
上側
100
AcDbLine
 10
90.02533473432469
 20
213.5787907788083
 30
0.0
 11
90.62533473432472
 21
213.5787907788083
 31
0.0
  0
LINE
  5
A06
330
1F
100
AcDbEntity
  8
上側
100
AcDbLine
 10
92.0253347343247
 20
214.9787907788083
 30
0.0
 11
92.0253347343247
 21
214.9787907788083
 31
0.0
  0
LINE
  5
A07
330
1F
100
AcDbEntity
  8
上側
100
AcDbLine
 10
113.5253347343247
 20
213.5787907788083
 30
0.0
 11
115.0253347343248
 21
213.5787907788083
 31
0.0
  0
LINE
  5
A08
330
1F
100
AcDbEntity
  8
上側
100
AcDbLine
 10
113.5253347343247
 20
216.3787907788083
 30
0.0
 11
115.0253347343248
 21
216.3787907788083
 31
0.0
  0
ARC
  5
A09
330
1F
100
AcDbEntity
  8
上側
100
AcDbCircle
 10
90.62533473432472
 20
214.9787907788083
 30
0.0
 40
1.399999999999999
100
AcDbArc
 50
0.0
 51
90.0
1001
GENIUS_GENOBJ-N-FIL_13
1002
{
1000
OWNER
1000
GEN
1002
}
1001
GENIUS_GENODEF_13
1002
{
1000
HIER
1070
     0
1002
}
1002
{
1000
MANEDIT
1070
     0
1002
}
1002
{
1000
NOSEL
1070
     0
1002
}
1002
{
1000
BEHIND
1070
     0
1002
}
1002
{
1000
OTHER
1070
     0
1002
}
1002
{
1000
REACTOR
1002
}
  0
ARC
  5
A0A
330
1F
100
AcDbEntity
  8
上側
100
AcDbCircle
 10
90.62533473432472
 20
214.9787907788083
 30
0.0
 40
1.399999999999999
100
AcDbArc
 50
270.0
 51
0.0
1001
GENIUS_GENOBJ-N-FIL_13
1002
{
1000
OWNER
1000
GEN
1002
}
1001
GENIUS_GENODEF_13
1002
{
1000
HIER
1070
     0
1002
}
1002
{
1000
MANEDIT
1070
     0
1002
}
1002
{
1000
NOSEL
1070
     0
1002
}
1002
{
1000
BEHIND
1070
     0
1002
}
1002
{
1000
OTHER
1070
     0
1002
}
1002
{
1000
REACTOR
1002
}
  0
ARC
  5
A0B
330
1F
100
AcDbEntity
  8
上側
100
AcDbCircle
 10
98.94033473432466
 20
146.0287907788079
 30
0.0
 40
3.5
100
AcDbArc
 50
89.99999999999836
 51
179.9999999999975
1001
GENIUS_GENOBJ-N-FIL_13
1002
{
1000
OWNER
1000
GEN
1002
}
1001
GENIUS_GENODEF_13
1002
{
1000
HIER
1070
     0
1002
}
1002
{
1000
MANEDIT
1070
     0
1002
}
1002
{
1000
NOSEL
1070
     0
1002
}
1002
{
1000
BEHIND
1070
     0
1002
}
1002
{
1000
OTHER
1070
     0
1002
}
1002
{
1000
REACTOR
1002
}
  0
LINE
  5
A0C
330
1F
100
AcDbEntity
  8
上側
100
AcDbLine
 10
105.8753347343247
 20
149.5287907788076
 30
0.0
 11
105.8753347343245
 21
142.5287907788076
 31
0.0
  0
LINE
  5
A0D
330
1F
100
AcDbEntity
  8
上側
100
AcDbLine
 10
105.8753347343247
 20
149.5287907788076
 30
0.0
 11
98.94033473432479
 21
149.5287907788079
 31
0.0
  0
ARC
  5
A0E
330
1F
100
AcDbEntity
  8
上側
100
AcDbCircle
 10
98.94033473432466
 20
146.0287907788079
 30
0.0
 40
3.5
100
AcDbArc
 50
179.9999999999975
 51
269.9999999999984
1001
GENIUS_GENOBJ-N-FIL_13
1002
{
1000
OWNER
1000
GEN
1002
}
1001
GENIUS_GENODEF_13
1002
{
1000
HIER
1070
     0
1002
}
1002
{
1000
MANEDIT
1070
     0
1002
}
1002
{
1000
NOSEL
1070
     0
1002
}
1002
{
1000
BEHIND
1070
     0
1002
}
1002
{
1000
OTHER
1070
     0
1002
}
1002
{
1000
REACTOR
1002
}
  0
LINE
  5
A0F
330
1F
100
AcDbEntity
  8
上側
100
AcDbLine
 10
105.8753347343245
 20
142.5287907788076
 30
0.0
 11
98.94033473432456
 21
142.5287907788079
 31
0.0
  0
LINE
  5
A10
330
1F
100
AcDbEntity
  8
上側
100
AcDbLine
 10
90.02533473432482
 20
143.0287907788082
 30
0.0
 11
93.32533473432476
 21
143.0287907788082
 31
0.0
  0
LINE
  5
A11
330
1F
100
AcDbEntity
  8
上側
100
AcDbLine
 10
90.02533473432482
 20
149.0287907788082
 30
0.0
 11
93.32533473432476
 21
149.0287907788082
 31
0.0
  0
LINE
  5
A12
330
1F
100
AcDbEntity
  8
上側
100
AcDbLine
 10
93.32533473432476
 20
149.0287907788082
 30
0.0
 11
93.32533473432476
 21
143.0287907788082
 31
0.0
  0
LINE
  5
A13
330
1F
100
AcDbEntity
  8
上側
100
AcDbLine
 10
112.5253347343247
 20
143.5287907788082
 30
0.0
 11
112.5253347343247
 21
148.5287907788082
 31
0.0
  0
LINE
  5
A14
330
1F
100
AcDbEntity
  8
上側
100
AcDbLine
 10
105.8753347343247
 20
148.5287907788082
 30
0.0
 11
112.5253347343247
 21
148.5287907788082
 31
0.0
  0
LINE
  5
A15
330
1F
100
AcDbEntity
  8
上側
100
AcDbLine
 10
105.8753347343247
 20
143.5287907788082
 30
0.0
 11
112.5253347343247
 21
143.5287907788082
 31
0.0
  0
LINE
  5
A16
330
1F
100
AcDbEntity
  8
下側
100
AcDbLine
 10
187.1500041527187
 20
207.3287907788083
 30
0.0
 11
187.1500041527187
 21
154.3287907788082
 31
0.0
  0
LINE
  5
A17
102
{ACAD_REACTORS
330
921
102
}
330
1F
100
AcDbEntity
  8
下側
100
AcDbLine
 10
181.1500041527188
 20
218.3287907788082
 30
0.0
 11
181.1500041527188
 21
141.8287907788083
 31
0.0
  0
LINE
  5
A18
330
1F
100
AcDbEntity
  8
下側
100
AcDbLine
 10
171.1500041527187
 20
211.6287907788083
 30
0.0
 11
171.1500041527188
 21
141.8287907788083
 31
0.0
  0
LINE
  5
A19
330
1F
100
AcDbEntity
  8
下側
100
AcDbLine
 10
168.1500041527188
 20
218.3287907788082
 30
0.0
 11
181.1500041527188
 21
218.3287907788082
 31
0.0
  0
LINE
  5
A1A
330
1F
100
AcDbEntity
  8
下側
100
AcDbLine
 10
181.1500041527188
 20
207.3287907788083
 30
0.0
 11
187.1500041527187
 21
207.3287907788083
 31
0.0
  0
LINE
  5
A1B
330
1F
100
AcDbEntity
  8
下側
100
AcDbLine
 10
181.1500041527187
 20
154.3287907788082
 30
0.0
 11
187.1500041527187
 21
154.3287907788082
 31
0.0
  0
LINE
  5
A1C
330
1F
100
AcDbEntity
  8
下側
100
AcDbLine
 10
171.1500041527188
 20
141.8287907788083
 30
0.0
 11
181.1500041527188
 21
141.8287907788083
 31
0.0
  0
LINE
  5
A1D
330
1F
100
AcDbEntity
  8
下側
100
AcDbLine
 10
165.1500041527188
 20
214.6287907788082
 30
0.0
 11
165.1500041527188
 21
215.3287907788083
 31
0.0
  0
LINE
  5
A1E
330
1F
100
AcDbEntity
  8
下側
100
AcDbLine
 10
168.1500041527188
 20
211.6287907788083
 30
0.0
 11
171.1500041527188
 21
211.6287907788083
 31
0.0
  0
ARC
  5
A1F
330
1F
100
AcDbEntity
  8
下側
100
AcDbCircle
 10
168.1500041527188
 20
214.6287907788082
 30
0.0
 40
3.0
100
AcDbArc
 50
180.0
 51
270.0
1001
GENIUS_GENOBJ-N-FIL_13
1002
{
1000
OWNER
1000
GEN
1002
}
1001
GENIUS_GENODEF_13
1002
{
1000
HIER
1070
     0
1002
}
1002
{
1000
MANEDIT
1070
     0
1002
}
1002
{
1000
NOSEL
1070
     0
1002
}
1002
{
1000
BEHIND
1070
     0
1002
}
1002
{
1000
OTHER
1070
     0
1002
}
1002
{
1000
REACTOR
1002
}
  0
ARC
  5
A20
330
1F
100
AcDbEntity
  8
下側
100
AcDbCircle
 10
168.1500041527188
 20
215.3287907788083
 30
0.0
 40
3.0
100
AcDbArc
 50
90.0
 51
180.0
1001
GENIUS_GENODEF_13
1002
{
1000
HIER
1070
     0
1002
}
1002
{
1000
MANEDIT
1070
     0
1002
}
1002
{
1000
NOSEL
1070
     0
1002
}
1002
{
1000
BEHIND
1070
     0
1002
}
1002
{
1000
OTHER
1070
     0
1002
}
1002
{
1000
REACTOR
1002
}
1001
GENIUS_GENOBJ-N-FIL_13
1002
{
1000
OWNER
1000
GEN
1002
}
  0
LINE
  5
A21
330
1F
100
AcDbEntity
  8
上側
100
AcDbLine
 10
166.6500041527187
 20
212.030714567455
 30
0.0
 11
166.6500041527187
 21
151.8287907788082
 31
0.0
  0
LINE
  5
A22
330
1F
100
AcDbEntity
  8
上側
100
AcDbLine
 10
166.6500041527187
 20
211.3287907788083
 30
0.0
 11
170.1500041527188
 21
211.3287907788083
 31
0.0
  0
LINE
  5
A23
330
1F
100
AcDbEntity
  8
上側
100
AcDbLine
 10
168.1500041527186
 20
141.8287907788083
 30
0.0
 11
170.1500041527187
 21
141.8287907788083
 31
0.0
  0
LINE
  5
A24
330
1F
100
AcDbEntity
  8
上側
100
AcDbLine
 10
166.6500041527187
 20
204.8287907788082
 30
0.0
 11
158.1567156970806
 21
201.8561398193349
 31
0.0
  0
LINE
  5
A25
330
1F
100
AcDbEntity
  8
上側
100
AcDbLine
 10
156.6500041527188
 20
199.7324585175113
 30
0.0
 11
156.6500041527186
 21
161.9251230401051
 31
0.0
  0
LINE
  5
A26
330
1F
100
AcDbEntity
  8
上側
100
AcDbLine
 10
158.1567156970803
 20
159.8014417382816
 30
0.0
 11
166.6500041527187
 21
156.8287907788082
 31
0.0
  0
LINE
  5
A27
330
1F
100
AcDbEntity
  8
上側
100
AcDbLine
 10
166.6500041527187
 20
151.8287907788082
 30
0.0
 11
168.1500041527186
 21
151.8287907788082
 31
0.0
  0
LINE
  5
A28
330
1F
100
AcDbEntity
  8
上側
100
AcDbLine
 10
168.1500041527186
 20
140.3287907788082
 30
0.0
 11
170.1500041527187
 21
140.3287907788082
 31
0.0
  0
LINE
  5
A29
330
1F
100
AcDbEntity
  8
上側
100
AcDbLine
 10
168.1500041527189
 20
149.5138335138505
 30
0.0
 11
159.1072788624344
 21
149.3206128879901
 31
0.0
  0
LINE
  5
A2A
330
1F
100
AcDbEntity
  8
上側
100
AcDbLine
 10
157.1500041527188
 20
147.3210693026762
 30
0.0
 11
157.1500041527188
 21
144.7365122549402
 31
0.0
  0
LINE
  5
A2B
330
1F
100
AcDbEntity
  8
上側
100
AcDbLine
 10
159.1072788624342
 20
142.7369686696262
 30
0.0
 11
168.1500041527189
 21
142.5437480437651
 31
0.0
  0
ARC
  5
A2C
330
1F
100
AcDbEntity
  8
上側
100
AcDbCircle
 10
159.1500041527188
 20
144.7365122549402
 30
0.0
 40
2.0
100
AcDbArc
 50
180.0
 51
268.7759174778211
1001
GENIUS_GENOBJ-N-FIL_13
1002
{
1000
OWNER
1000
GEN
1002
}
1001
GENIUS_GENODEF_13
1002
{
1000
HIER
1070
     0
1002
}
1002
{
1000
MANEDIT
1070
     0
1002
}
1002
{
1000
NOSEL
1070
     0
1002
}
1002
{
1000
BEHIND
1070
     0
1002
}
1002
{
1000
OTHER
1070
     0
1002
}
1002
{
1000
REACTOR
1002
}
  0
ARC
  5
A2D
330
1F
100
AcDbEntity
  8
上側
100
AcDbCircle
 10
159.1500041527188
 20
147.3210693026762
 30
0.0
 40
2.0
100
AcDbArc
 50
91.22408252217402
 51
180.0
1001
GENIUS_GENODEF_13
1002
{
1000
HIER
1070
     0
1002
}
1002
{
1000
MANEDIT
1070
     0
1002
}
1002
{
1000
NOSEL
1070
     0
1002
}
1002
{
1000
BEHIND
1070
     0
1002
}
1002
{
1000
OTHER
1070
     0
1002
}
1002
{
1000
REACTOR
1002
}
1001
GENIUS_GENOBJ-N-FIL_13
1002
{
1000
OWNER
1000
GEN
1002
}
  0
LINE
  5
A2E
330
1F
100
AcDbEntity
  8
ｶﾞｽｹｯﾄ
100
AcDbLine
 10
115.427434604864
 20
44.76737970203402
 30
0.0
 11
113.5274346048639
 21
44.76737970203402
 31
0.0
  0
LINE
  5
A2F
330
1F
100
AcDbEntity
  8
ｶﾞｽｹｯﾄ
100
AcDbLine
 10
66.52743460486397
 20
44.76737970203402
 30
0.0
 11
64.62743460486399
 21
44.76737970203402
 31
0.0
  0
ARC
  5
A30
330
1F
100
AcDbEntity
  8
ｶﾞｽｹｯﾄ
100
AcDbCircle
 10
64.62743460486399
 20
46.66737970203405
 30
0.0
 40
1.9
100
AcDbArc
 50
180.0
 51
270.0
1001
GENIUS_GENOBJ-N-FIL_13
1002
{
1000
OWNER
1000
GEN
1002
}
1001
GENIUS_GENODEF_13
1002
{
1000
HIER
1070
     0
1002
}
1002
{
1000
MANEDIT
1070
     0
1002
}
1002
{
1000
NOSEL
1070
     0
1002
}
1002
{
1000
BEHIND
1070
     0
1002
}
1002
{
1000
OTHER
1070
     0
1002
}
1002
{
1000
REACTOR
1002
}
  0
ARC
  5
A31
330
1F
100
AcDbEntity
  8
ｶﾞｽｹｯﾄ
100
AcDbCircle
 10
115.427434604864
 20
46.66737970203405
 30
0.0
 40
1.9
100
AcDbArc
 50
270.0
 51
0.0
1001
GENIUS_GENOBJ-N-FIL_13
1002
{
1000
OWNER
1000
GEN
1002
}
1001
GENIUS_GENODEF_13
1002
{
1000
HIER
1070
     0
1002
}
1002
{
1000
MANEDIT
1070
     0
1002
}
1002
{
1000
NOSEL
1070
     0
1002
}
1002
{
1000
BEHIND
1070
     0
1002
}
1002
{
1000
OTHER
1070
     0
1002
}
1002
{
1000
REACTOR
1002
}
  0
ARC
  5
A32
330
1F
100
AcDbEntity
  8
ｶﾞｽｹｯﾄ
100
AcDbCircle
 10
181.1500041527187
 20
152.4287907788082
 30
0.0
 40
1.9
100
AcDbArc
 50
270.0
 51
0.0
1001
GENIUS_GENOBJ-N-FIL_13
1002
{
1000
OWNER
1000
GEN
1002
}
1001
GENIUS_GENODEF_13
1002
{
1000
HIER
1070
     0
1002
}
1002
{
1000
MANEDIT
1070
     0
1002
}
1002
{
1000
NOSEL
1070
     0
1002
}
1002
{
1000
BEHIND
1070
     0
1002
}
1002
{
1000
OTHER
1070
     0
1002
}
1002
{
1000
REACTOR
1002
}
  0
LINE
  5
A33
330
1F
100
AcDbEntity
  8
ｶﾞｽｹｯﾄ
100
AcDbLine
 10
183.0500041527186
 20
154.3287907788082
 30
0.0
 11
183.0500041527186
 21
152.4287907788082
 31
0.0
  0
LINE
  5
A34
330
1F
100
AcDbEntity
  8
ｶﾞｽｹｯﾄ
100
AcDbLine
 10
183.0500041527186
 20
207.3287907788083
 30
0.0
 11
183.0500041527186
 21
209.2287907788083
 31
0.0
  0
ARC
  5
A35
330
1F
100
AcDbEntity
  8
ｶﾞｽｹｯﾄ
100
AcDbCircle
 10
181.1500041527187
 20
209.2287907788083
 30
0.0
 40
1.9
100
AcDbArc
 50
0.0
 51
90.0
1001
GENIUS_GENOBJ-N-FIL_13
1002
{
1000
OWNER
1000
GEN
1002
}
1001
GENIUS_GENODEF_13
1002
{
1000
HIER
1070
     0
1002
}
1002
{
1000
MANEDIT
1070
     0
1002
}
1002
{
1000
NOSEL
1070
     0
1002
}
1002
{
1000
BEHIND
1070
     0
1002
}
1002
{
1000
OTHER
1070
     0
1002
}
1002
{
1000
REACTOR
1002
}
  0
LINE
  5
A36
330
1F
100
AcDbEntity
  8
上側
100
AcDbLine
 10
170.1500041527187
 20
140.3287907788082
 30
0.0
 11
170.1500041527187
 21
211.6287907788083
 31
0.0
  0
LINE
  5
A37
330
1F
100
AcDbEntity
  8
上側
100
AcDbLine
 10
60.52743460486396
 20
59.66737970203405
 30
0.0
 11
119.5274346048639
 21
59.66737970203405
 31
0.0
  0
LINE
  5
A38
330
1F
100
AcDbEntity
  8
上側
100
AcDbLine
 10
168.1500041527186
 20
151.8287907788082
 30
0.0
 11
168.1500041527186
 21
140.3287907788082
 31
0.0
  0
LINE
  5
A39
330
1F
100
AcDbEntity
  8
下側
100
AcDbLine
 10
65.02743460486385
 20
61.66737970203405
 30
0.0
 11
65.02743460486397
 21
61.16737970203406
 31
0.0
  0
LINE
  5
A3A
330
1F
100
AcDbEntity
  8
下側
100
AcDbLine
 10
60.52743460486408
 20
61.66737970203405
 30
0.0
 11
60.52743460486396
 21
61.16737970203406
 31
0.0
  0
LINE
  5
A3B
330
1F
100
AcDbEntity
  8
下側
100
AcDbLine
 10
64.02743460486385
 20
62.66737970203405
 30
0.0
 11
61.52743460486409
 21
62.66737970203405
 31
0.0
  0
LINE
  5
A3C
330
1F
100
AcDbEntity
  8
下側
100
AcDbLine
 10
65.02743460486397
 20
57.66737970203405
 30
0.0
 11
65.02743460486397
 21
56.66737970203405
 31
0.0
  0
LINE
  5
A3D
330
1F
100
AcDbEntity
  8
下側
100
AcDbLine
 10
60.52743460486396
 20
57.66737970203405
 30
0.0
 11
60.52743460486396
 21
56.66737970203405
 31
0.0
  0
ARC
  5
A3E
330
1F
100
AcDbEntity
  8
下側
100
AcDbCircle
 10
61.52743460486409
 20
61.66737970203405
 30
0.0
 40
1.0
100
AcDbArc
 50
90.0
 51
180.0
1001
GENIUS_GENODEF_13
1002
{
1000
HIER
1070
     0
1002
}
1002
{
1000
MANEDIT
1070
     0
1002
}
1002
{
1000
NOSEL
1070
     0
1002
}
1002
{
1000
BEHIND
1070
     0
1002
}
1002
{
1000
OTHER
1070
     0
1002
}
1002
{
1000
REACTOR
1002
}
1001
GENIUS_GENOBJ-N-FIL_13
1002
{
1000
OWNER
1000
GEN
1002
}
  0
ARC
  5
A3F
330
1F
100
AcDbEntity
  8
下側
100
AcDbCircle
 10
64.02743460486385
 20
61.66737970203405
 30
0.0
 40
1.0
100
AcDbArc
 50
0.0
 51
90.0
1001
GENIUS_GENODEF_13
1002
{
1000
HIER
1070
     0
1002
}
1002
{
1000
MANEDIT
1070
     0
1002
}
1002
{
1000
NOSEL
1070
     0
1002
}
1002
{
1000
BEHIND
1070
     0
1002
}
1002
{
1000
OTHER
1070
     0
1002
}
1002
{
1000
REACTOR
1002
}
1001
GENIUS_GENOBJ-N-FIL_13
1002
{
1000
OWNER
1000
GEN
1002
}
  0
ARC
  5
A40
330
1F
100
AcDbEntity
  8
下側
100
AcDbCircle
 10
116.0274346048641
 20
61.66737970203405
 30
0.0
 40
1.0
100
AcDbArc
 50
90.0
 51
180.0
1001
GENIUS_GENODEF_13
1002
{
1000
HIER
1070
     0
1002
}
1002
{
1000
MANEDIT
1070
     0
1002
}
1002
{
1000
NOSEL
1070
     0
1002
}
1002
{
1000
BEHIND
1070
     0
1002
}
1002
{
1000
OTHER
1070
     0
1002
}
1002
{
1000
REACTOR
1002
}
1001
GENIUS_GENOBJ-N-FIL_13
1002
{
1000
OWNER
1000
GEN
1002
}
  0
ARC
  5
A41
330
1F
100
AcDbEntity
  8
下側
100
AcDbCircle
 10
118.5274346048639
 20
61.66737970203405
 30
0.0
 40
1.0
100
AcDbArc
 50
0.0
 51
90.0
1001
GENIUS_GENODEF_13
1002
{
1000
HIER
1070
     0
1002
}
1002
{
1000
MANEDIT
1070
     0
1002
}
1002
{
1000
NOSEL
1070
     0
1002
}
1002
{
1000
BEHIND
1070
     0
1002
}
1002
{
1000
OTHER
1070
     0
1002
}
1002
{
1000
REACTOR
1002
}
1001
GENIUS_GENOBJ-N-FIL_13
1002
{
1000
OWNER
1000
GEN
1002
}
  0
LINE
  5
A42
330
1F
100
AcDbEntity
  8
下側
100
AcDbLine
 10
116.0274346048641
 20
62.66737970203405
 30
0.0
 11
118.5274346048639
 21
62.66737970203405
 31
0.0
  0
LINE
  5
A43
330
1F
100
AcDbEntity
  8
下側
100
AcDbLine
 10
119.5274346048639
 20
61.66737970203405
 30
0.0
 11
119.5274346048639
 21
61.16737970203406
 31
0.0
  0
LINE
  5
A44
330
1F
100
AcDbEntity
  8
下側
100
AcDbLine
 10
115.0274346048641
 20
61.66737970203405
 30
0.0
 11
115.0274346048641
 21
61.16737970203406
 31
0.0
  0
CIRCLE
  5
A45
330
1F
100
AcDbEntity
  8
下側0
100
AcDbCircle
 10
68.5253347343247
 20
214.3287907788082
 30
0.0
 40
1.199999999999999
  0
CIRCLE
  5
A46
330
1F
100
AcDbEntity
  8
下側0
100
AcDbCircle
 10
111.5253347343247
 20
214.3287907788082
 30
0.0
 40
1.199999999999999
  0
CIRCLE
  5
A47
330
1F
100
AcDbEntity
  8
下側0
100
AcDbCircle
 10
68.5253347343247
 20
147.3287907788082
 30
0.0
 40
1.199999999999999
  0
LINE
  5
A48
330
1F
100
AcDbEntity
  8
下側
100
AcDbLine
 10
88.23116779315341
 20
56.66737970203405
 30
0.0
 11
88.30424471623031
 21
57.66737970203405
 31
0.0
  0
LINE
  5
A49
330
1F
100
AcDbEntity
  8
下側
100
AcDbLine
 10
89.86901129483475
 20
68.26737970203396
 30
0.0
 11
90.18585791489318
 21
68.26737970203396
 31
0.0
  0
ARC
  5
A4A
330
1F
100
AcDbEntity
  8
下側
100
AcDbCircle
 10
89.86901129483475
 20
67.41737970203399
 30
0.0
 40
0.85
100
AcDbArc
 50
90.0
 51
175.8204301265706
1001
GENIUS_GENOBJ-N-FIL_13
1002
{
1000
OWNER
1000
GEN
1002
}
1001
GENIUS_GENODEF_13
1002
{
1000
HIER
1070
     0
1002
}
1002
{
1000
MANEDIT
1070
     0
1002
}
1002
{
1000
NOSEL
1070
     0
1002
}
1002
{
1000
BEHIND
1070
     0
1002
}
1002
{
1000
OTHER
1070
     0
1002
}
1002
{
1000
REACTOR
1002
}
  0
ARC
  5
A4B
330
1F
100
AcDbEntity
  8
下側
100
AcDbCircle
 10
90.18585791489318
 20
67.41737970203399
 30
0.0
 40
0.85
100
AcDbArc
 50
4.179569873429393
 51
90.0
1001
GENIUS_GENOBJ-N-FIL_13
1002
{
1000
OWNER
1000
GEN
1002
}
1001
GENIUS_GENODEF_13
1002
{
1000
HIER
1070
     0
1002
}
1002
{
1000
MANEDIT
1070
     0
1002
}
1002
{
1000
NOSEL
1070
     0
1002
}
1002
{
1000
BEHIND
1070
     0
1002
}
1002
{
1000
OTHER
1070
     0
1002
}
1002
{
1000
REACTOR
1002
}
  0
LINE
  5
A4C
330
1F
100
AcDbEntity
  8
下側
100
AcDbLine
 10
91.03359736418997
 20
67.47932989255952
 30
0.0
 11
91.53139372426688
 21
60.66737970203405
 31
0.0
  0
ARC
  5
A4D
330
1F
100
AcDbEntity
  8
下側
100
AcDbCircle
 10
90.18585791489318
 20
67.41737970203399
 30
0.0
 40
2.25
100
AcDbArc
 50
4.179569873429393
 51
90.0
1001
GENIUS_GENOBJ-N-FIL_13
1002
{
1000
OWNER
1000
GEN
1002
}
1001
GENIUS_GENODEF_13
1002
{
1000
HIER
1070
     0
1002
}
1002
{
1000
MANEDIT
1070
     0
1002
}
1002
{
1000
NOSEL
1070
     0
1002
}
1002
{
1000
BEHIND
1070
     0
1002
}
1002
{
1000
OTHER
1070
     0
1002
}
1002
{
1000
REACTOR
1002
}
  0
ARC
  5
A4E
330
1F
100
AcDbEntity
  8
下側
100
AcDbCircle
 10
89.86901129483475
 20
67.41737970203399
 30
0.0
 40
2.25
100
AcDbArc
 50
90.0
 51
175.8204301265706
1001
GENIUS_GENOBJ-N-FIL_13
1002
{
1000
OWNER
1000
GEN
1002
}
1001
GENIUS_GENODEF_13
1002
{
1000
HIER
1070
     0
1002
}
1002
{
1000
MANEDIT
1070
     0
1002
}
1002
{
1000
NOSEL
1070
     0
1002
}
1002
{
1000
BEHIND
1070
     0
1002
}
1002
{
1000
OTHER
1070
     0
1002
}
1002
{
1000
REACTOR
1002
}
  0
LINE
  5
A4F
330
1F
100
AcDbEntity
  8
下側
100
AcDbLine
 10
92.429874104208
 20
67.58136550048391
 30
0.0
 11
92.93512691255614
 21
60.66737970203405
 31
0.0
  0
LINE
  5
A50
330
1F
100
AcDbEntity
  8
下側
100
AcDbLine
 10
89.86901129483475
 20
69.667379702034
 30
0.0
 11
90.18585791489318
 21
69.667379702034
 31
0.0
  0
LINE
  5
A51
330
1F
100
AcDbEntity
  8
下側
100
AcDbLine
 10
86.82743460486404
 20
56.66737970203405
 30
0.0
 11
86.90051152794103
 21
57.66737970203405
 31
0.0
  0
LINE
  5
A52
330
1F
100
AcDbEntity
  8
下側
100
AcDbLine
 10
86.82533473432476
 20
144.8287907788083
 30
0.0
 11
93.22533473432462
 21
144.8287907788083
 31
0.0
  0
LINE
  5
A53
330
1F
100
AcDbEntity
  8
下側
100
AcDbLine
 10
86.82533473432476
 20
148.6287907788083
 30
0.0
 11
93.22533473432462
 21
148.6287907788083
 31
0.0
  0
LINE
  5
A54
330
1F
100
AcDbEntity
  8
下側
100
AcDbLine
 10
86.82533473432476
 20
148.6287907788083
 30
0.0
 11
86.82533473432476
 21
144.8287907788083
 31
0.0
  0
LINE
  5
A55
330
1F
100
AcDbEntity
  8
下側
100
AcDbLine
 10
93.22533473432462
 20
148.6287907788083
 30
0.0
 11
93.22533473432462
 21
144.8287907788083
 31
0.0
  0
POINT
  5
A56
330
1F
100
AcDbEntity
  8
0
 60
     1
100
AcDbPoint
 10
204.4259922087466
 20
-109.4910015811373
 30
0.0
1001
GENIUS_GENOLIS_13
1002
{
1000
ENT
1005
94C
1005
94B
1005
94A
1005
949
1002
}
1001
GENIUS_GENOENT_13
1002
{
1000
MYREF
1005
A56
1002
}
1002
{
1000
GRP
1005
0
1002
}
1001
GENIUS_GENOBJ-N-CRS_13
1002
{
1000
OWNER
1000
GEN
1002
}
1001
GENIUS_GENODEF_13
1002
{
1000
HIER
1070
    10
1002
}
1002
{
1000
MANEDIT
1070
     0
1002
}
1002
{
1000
NOSEL
1070
     0
1002
}
1002
{
1000
BEHIND
1070
     0
1002
}
1002
{
1000
OTHER
1070
     0
1002
}
1002
{
1000
REACTOR
1002
}
  0
POINT
  5
A57
330
1F
100
AcDbEntity
  8
0
 60
     1
100
AcDbPoint
 10
155.4259922087466
 20
-109.4910015811373
 30
0.0
1001
GENIUS_GENOLIS_13
1002
{
1000
ENT
1005
951
1005
950
1005
94F
1005
94E
1002
}
1001
GENIUS_GENOENT_13
1002
{
1000
MYREF
1005
A57
1002
}
1002
{
1000
GRP
1005
0
1002
}
1001
GENIUS_GENOBJ-N-CRS_13
1002
{
1000
OWNER
1000
GEN
1002
}
1001
GENIUS_GENODEF_13
1002
{
1000
HIER
1070
    10
1002
}
1002
{
1000
MANEDIT
1070
     0
1002
}
1002
{
1000
NOSEL
1070
     0
1002
}
1002
{
1000
BEHIND
1070
     0
1002
}
1002
{
1000
OTHER
1070
     0
1002
}
1002
{
1000
REACTOR
1002
}
  0
POINT
  5
A58
330
1F
100
AcDbEntity
  8
0
 60
     1
100
AcDbPoint
 10
204.4259922087466
 20
-42.49100158113731
 30
0.0
1001
GENIUS_GENOLIS_13
1002
{
1000
ENT
1005
956
1005
955
1005
954
1005
953
1002
}
1001
GENIUS_GENOENT_13
1002
{
1000
MYREF
1005
A58
1002
}
1002
{
1000
GRP
1005
0
1002
}
1001
GENIUS_GENOBJ-N-CRS_13
1002
{
1000
OWNER
1000
GEN
1002
}
1001
GENIUS_GENODEF_13
1002
{
1000
HIER
1070
    10
1002
}
1002
{
1000
MANEDIT
1070
     0
1002
}
1002
{
1000
NOSEL
1070
     0
1002
}
1002
{
1000
BEHIND
1070
     0
1002
}
1002
{
1000
OTHER
1070
     0
1002
}
1002
{
1000
REACTOR
1002
}
  0
POINT
  5
A59
330
1F
100
AcDbEntity
  8
0
 60
     1
100
AcDbPoint
 10
155.4259922087466
 20
-42.49100158113731
 30
0.0
1001
GENIUS_GENOLIS_13
1002
{
1000
ENT
1005
957
1005
958
1005
959
1005
95A
1002
}
1001
GENIUS_GENOENT_13
1002
{
1000
MYREF
1005
A59
1002
}
1002
{
1000
GRP
1005
0
1002
}
1001
GENIUS_GENOBJ-N-CRS_13
1002
{
1000
OWNER
1000
GEN
1002
}
1001
GENIUS_GENODEF_13
1002
{
1000
HIER
1070
    10
1002
}
1002
{
1000
MANEDIT
1070
     0
1002
}
1002
{
1000
NOSEL
1070
     0
1002
}
1002
{
1000
BEHIND
1070
     0
1002
}
1002
{
1000
OTHER
1070
     0
1002
}
1002
{
1000
REACTOR
1002
}
  0
INSERT
  5
B99
330
1F
100
AcDbEntity
  8
0
370
     0
100
AcDbBlockReference
  2
TK-A3
 10
0.0
 20
0.0
 30
0.0
1001
GENIUS_GENOREF_13
1005
C03
1001
GENIUS_GENOBJ-N-SDF_13
1002
{
1000
OWNER
1000
GEN
1002
}
1001
GENIUS_GENODEF_13
1002
{
1000
HIER
1070
     0
1002
}
1002
{
1000
MANEDIT
1070
     0
1002
}
1002
{
1000
NOSEL
1070
     0
1002
}
1002
{
1000
BEHIND
1070
     0
1002
}
1002
{
1000
OTHER
1070
     0
1002
}
1002
{
1000
REACTOR
1002
}
1001
GENIUS_GENSCREG_15
1040
1.0
1040
1.0
1011
0.0
1021
0.0
1031
0.0
1011
403.0
1021
280.0000000000001
1031
0.0
1070
     3
  0
INSERT
  5
BF8
330
1F
100
AcDbEntity
  8
0
370
     0
100
AcDbBlockReference
 66
     1
  2
TK-TITLE
 10
403.0
 20
0.0
 30
0.0
1001
GENIUS_GENOREF_13
1005
C03
  0
ATTRIB
  5
BFA
330
BF8
100
AcDbEntity
  8
0
100
AcDbText
 10
394.9976908104542
 20
1.705189434395036
 30
0.0
 40
2.5
  1

100
AcDbAttribute
  2
GEN-TITLE-NR2
 70
     0
  0
ATTRIB
  5
BFB
330
BF8
100
AcDbEntity
  8
0
100
AcDbText
 10
318.8574809841467
 20
12.82790432564377
 30
0.0
 40
3.5
  1
VMA-2
100
AcDbAttribute
  2
GEN-TITLE-DES1
 70
     0
  0
ATTRIB
  5
BFC
330
BF8
100
AcDbEntity
  8
0
100
AcDbText
 10
319.0
 20
9.149999999999948
 30
0.0
 40
2.5
  1
VMA型ポリカーボネート開閉式ウィンドウ
100
AcDbAttribute
  2
GEN-TITLE-DES2
 70
     0
  0
ATTRIB
  5
BFD
330
BF8
100
AcDbEntity
  8
0
100
AcDbText
 10
319.0
 20
1.999999999999957
 30
0.0
 40
3.0
  1

100
AcDbAttribute
  2
GEN-TITLE-NR1
 70
     0
  0
ATTRIB
  5
BFE
330
BF8
100
AcDbEntity
  8
0
100
AcDbText
 10
254.0381324164708
 20
43.29999999999991
 30
0.0
 40
3.0
  1
ポリカーボネート
100
AcDbAttribute
  2
GEN-TITLE-MAT1
 70
     0
  0
ATTRIB
  5
BFF
330
BF8
100
AcDbEntity
  8
0
100
AcDbText
 10
254.0381324164708
 20
33.29999999999991
 30
0.0
 40
3.0
  1
透明
100
AcDbAttribute
  2
GEN-TITLE-MAT2
 70
     0
  0
ATTRIB
  5
C00
330
BF8
100
AcDbEntity
  8
0
100
AcDbText
 10
226.3372590873905
 20
16.19999999999994
 30
0.0
 40
3.0
  1
1
 72
     2
 11
227.3872590873905
 21
15.79999999999994
 31
0.0
100
AcDbAttribute
  2
GEN-TITLE-QTY
 70
     0
 74
     1
  0
ATTRIB
  5
C01
330
BF8
100
AcDbEntity
  8
0
100
AcDbText
 10
225.1752603855759
 20
28.69999999999997
 30
0.0
 40
3.0
  1

 72
     2
 11
225.1752603855759
 21
28.29999999999998
 31
0.0
100
AcDbAttribute
  2
GEN-TITLE-SCA
 70
     0
 74
     1
  0
ATTRIB
  5
C02
330
BF8
100
AcDbEntity
  8
0
100
AcDbText
 10
212.3208953849673
 20
3.988342537610664
 30
0.0
 40
3.0
  1
2008/05/07
 72
     1
 11
222.7828048337861
 21
3.588342537610664
 31
0.0
100
AcDbAttribute
  2
GEN-TITLE-DAT
 70
     0
 74
     1
  0
SEQEND
  5
BF9
330
BF8
100
AcDbEntity
  8
0
370
     0
  0
POINT
  5
C03
330
1F
100
AcDbEntity
  8
0
 60
     1
100
AcDbPoint
 10
0.0
 20
0.0
 30
0.0
1001
GENIUS_GENOENT_13
1002
{
1000
MYREF
1005
C03
1002
}
1002
{
1000
GRP
1005
0
1002
}
1001
GENIUS_GENOBJ-N-TIT_13
1002
{
1000
OWNER
1000
GEN
1002
}
1001
GENIUS_GENODEF_13
1002
{
1000
HIER
1070
     1
1002
}
1002
{
1000
MANEDIT
1070
     0
1002
}
1002
{
1000
NOSEL
1070
     0
1002
}
1002
{
1000
BEHIND
1070
     0
1002
}
1002
{
1000
OTHER
1070
     0
1002
}
1002
{
1000
REACTOR
1002
}
1001
GENIUS_GENOLIS_13
1002
{
1000
ENT
1005
BF8
1005
B99
1002
}
1001
GENIUS_GENTITLE_13
1002
{
1000
BORDER
1000
TK-A3
1002
}
1002
{
1000
TITLE
1000
TK-TITLE
1002
}
1002
{
1000
ADDITIONAL1
1000

1002
}
1002
{
1000
ADDITIONAL2
1000

1002
}
1002
{
1000
SCALE
1000
1:1
1002
}
1002
{
1000
TITLESTD
1000
ISO
1002
}
1002
{
1000
HRA
1005
B99
1002
}
1002
{
1000
HTIT
1005
BF8
1002
}
1002
{
1000
GENIUSID
1005
C03
1002
}
1002
{
1000
INVTXTID
1005
0
1002
}
1002
{
1000
UNCHG
1002
{
1000
GEN-TITLE-SIZ
1000
GEN-TITLE-SCA
1002
}
1002
}
  0
LINE
  5
D16
330
1F
100
AcDbEntity
  8
上側
100
AcDbLine
 10
159.1500041527188
 20
199.7324585175113
 30
0.0
 11
159.1500041527186
 21
161.9251230401051
 31
0.0
  0
HATCH
  5
DC2
330
1F
100
AcDbEntity
  8
ｶﾞｽｹｯﾄ
100
AcDbHatch
 10
0.0
 20
0.0
 30
0.0
210
0.0
220
0.0
230
1.0
  2
SOLID
 70
     1
 71
     0
 91
        1
 92
        1
 93
        4
 72
     1
 10
183.0500041527186
 20
207.3287907788083
 11
183.0500041527186
 21
209.2287907788083
 72
     2
 10
181.1500041527187
 20
209.2287907788083
 40
1.899999999999977
 50
0.0
 51
89.99999999999657
 73
     1
 72
     1
 10
181.1500041527188
 20
211.1287907788083
 11
181.1500041527188
 21
207.3287907788083
 72
     1
 10
181.1500041527188
 20
207.3287907788083
 11
183.0500041527186
 21
207.3287907788083
 97
        0
 75
     0
 76
     1
 98
        1
 10
0.0
 20
0.0
1001
GENIUS_GENODEF_13
1002
{
1000
HIER
1070
     0
1002
}
1002
{
1000
MANEDIT
1070
     0
1002
}
1002
{
1000
NOSEL
1070
     0
1002
}
1002
{
1000
BEHIND
1070
     0
1002
}
1002
{
1000
OTHER
1070
     0
1002
}
1002
{
1000
REACTOR
1002
}
1001
GENIUS_GENOBJ-N-HTC_13
1002
{
1000
OWNER
1000
GEN
1002
}
1001
GENIUS_GENHATCH_13
1002
{
1000
DATA
1040
45.0
1042
2.5
1000
SOLID
1070
     0
1011
181.7726675542359
1021
208.8364128294444
1031
0.0
1002
}
1002
{
1000
UCS
1010
0.0
1020
0.0
1030
0.0
1010
1.0
1020
0.0
1030
0.0
1010
0.0
1020
1.0
1030
0.0
1002
}
  0
HATCH
  5
DC4
330
1F
100
AcDbEntity
  8
ｶﾞｽｹｯﾄ
100
AcDbHatch
 10
0.0
 20
0.0
 30
0.0
210
0.0
220
0.0
230
1.0
  2
SOLID
 70
     1
 71
     0
 91
        1
 92
        1
 93
        4
 72
     1
 10
181.1500041527187
 20
154.3287907788082
 11
181.1500041527188
 21
150.5287907788082
 72
     2
 10
181.1500041527187
 20
152.4287907788082
 40
1.900000000000005
 50
270.0000000000034
 51
360.0
 73
     1
 72
     1
 10
183.0500041527186
 20
152.4287907788082
 11
183.0500041527186
 21
154.3287907788082
 72
     1
 10
183.0500041527186
 20
154.3287907788082
 11
181.1500041527187
 21
154.3287907788082
 97
        0
 75
     0
 76
     1
 98
        1
 10
0.0
 20
0.0
1001
GENIUS_GENODEF_13
1002
{
1000
HIER
1070
     0
1002
}
1002
{
1000
MANEDIT
1070
     0
1002
}
1002
{
1000
NOSEL
1070
     0
1002
}
1002
{
1000
BEHIND
1070
     0
1002
}
1002
{
1000
OTHER
1070
     0
1002
}
1002
{
1000
REACTOR
1002
}
1001
GENIUS_GENOBJ-N-HTC_13
1002
{
1000
OWNER
1000
GEN
1002
}
1001
GENIUS_GENHATCH_13
1002
{
1000
DATA
1040
45.0
1042
2.5
1000
SOLID
1070
     0
1011
182.3872386458623
1021
153.2471056657023
1031
0.0
1002
}
1002
{
1000
UCS
1010
0.0
1020
0.0
1030
0.0
1010
1.0
1020
0.0
1030
0.0
1010
0.0
1020
1.0
1030
0.0
1002
}
  0
HATCH
  5
DC6
330
1F
100
AcDbEntity
  8
ｶﾞｽｹｯﾄ
100
AcDbHatch
 10
0.0
 20
0.0
 30
0.0
210
0.0
220
0.0
230
1.0
  2
SOLID
 70
     1
 71
     0
 91
        1
 92
        1
 93
        4
 72
     1
 10
113.5274346048639
 20
44.76737970203402
 11
115.427434604864
 21
44.76737970203402
 72
     2
 10
115.427434604864
 20
46.66737970203404
 40
1.900000000000019
 50
270.0000000000004
 51
360.0000000000004
 73
     1
 72
     1
 10
117.3274346048641
 20
46.66737970203405
 11
113.5274346048639
 21
46.66737970203405
 72
     1
 10
113.5274346048639
 20
46.66737970203405
 11
113.5274346048639
 21
44.76737970203402
 97
        0
 75
     0
 76
     1
 98
        1
 10
0.0
 20
-36.01585951750923
1001
GENIUS_GENOBJ-N-HTC_13
1002
{
1000
OWNER
1000
GEN
1002
}
1001
GENIUS_GENODEF_13
1002
{
1000
HIER
1070
     0
1002
}
1002
{
1000
MANEDIT
1070
     0
1002
}
1002
{
1000
NOSEL
1070
     0
1002
}
1002
{
1000
BEHIND
1070
     0
1002
}
1002
{
1000
OTHER
1070
     0
1002
}
1002
{
1000
REACTOR
1002
}
1001
GENIUS_GENHATCH_13
1002
{
1000
DATA
1040
45.0
1042
2.5
1000
SOLID
1070
     0
1011
114.8415516124588
1021
46.17651863168743
1031
0.0
1002
}
1002
{
1000
UCS
1010
0.0
1020
0.0
1030
0.0
1010
1.0
1020
0.0
1030
0.0
1010
0.0
1020
1.0
1030
0.0
1002
}
  0
HATCH
  5
DC8
330
1F
100
AcDbEntity
  8
ｶﾞｽｹｯﾄ
100
AcDbHatch
 10
0.0
 20
0.0
 30
0.0
210
0.0
220
0.0
230
1.0
  2
SOLID
 70
     1
 71
     0
 91
        1
 92
        1
 93
        4
 72
     1
 10
64.62743460486399
 20
44.76737970203404
 11
66.52743460486397
 21
44.76737970203402
 72
     1
 10
66.52743460486397
 20
44.76737970203402
 11
66.52743460486397
 21
46.66737970203405
 72
     1
 10
66.52743460486397
 20
46.66737970203405
 11
62.72743460486399
 21
46.66737970203405
 72
     2
 10
64.62743460486399
 20
46.66737970203405
 40
1.899999999999998
 50
180.0
 51
270.0
 73
     1
 97
        0
 75
     0
 76
     1
 98
        1
 10
0.0
 20
-36.01585951750923
1001
GENIUS_GENODEF_13
1002
{
1000
HIER
1070
     0
1002
}
1002
{
1000
MANEDIT
1070
     0
1002
}
1002
{
1000
NOSEL
1070
     0
1002
}
1002
{
1000
BEHIND
1070
     0
1002
}
1002
{
1000
OTHER
1070
     0
1002
}
1002
{
1000
REACTOR
1002
}
1001
GENIUS_GENOBJ-N-HTC_13
1002
{
1000
OWNER
1000
GEN
1002
}
1001
GENIUS_GENHATCH_13
1002
{
1000
DATA
1040
45.0
1042
2.5
1000
SOLID
1070
     0
1011
63.94060547418291
1021
46.26093651944239
1031
0.0
1002
}
1002
{
1000
UCS
1010
0.0
1020
0.0
1030
0.0
1010
1.0
1020
0.0
1030
0.0
1010
0.0
1020
1.0
1030
0.0
1002
}
  0
LINE
  5
E92
330
1F
100
AcDbEntity
  8
AM_5
100
AcDbLine
 10
68.2753347343247
 20
204.3287907788082
 30
0.0
 11
68.2753347343247
 21
228.7305545647142
 31
0.0
  0
LINE
  5
E94
330
1F
100
AcDbEntity
  8
AM_5
100
AcDbLine
 10
70.7753347343247
 20
227.7305545647142
 30
0.0
 11
90.02533473432469
 21
227.7305545647142
 31
0.0
  0
INSERT
  5
E95
330
1F
100
AcDbEntity
  8
AM_5
100
AcDbBlockReference
  2
_Open30
 10
68.2753347343247
 20
227.7305545647142
 30
0.0
 41
2.5
 42
2.5
 43
2.5
 50
180.0
  0
MTEXT
  5
E97
330
1F
100
AcDbEntity
  8
AM_5
 62
     2
100
AcDbMText
 10
90.02533473432471
 20
230.9805545647142
 30
0.0
 40
3.5
 41
0.0
 71
     5
 72
     1
  1
43.5
 73
     1
 44
1.0
1001
ACAD
1000
MTEXTBEGIN
1070
    73
1070
     1
1070
    44
1040
1.0
1070
    74
1070
     0
1000
MTEXTEND
  0
DIMENSION
  5
EA9
102
{ACAD_XDICTIONARY
360
EB4
102
}
102
{ACAD_REACTORS
330
EB5
102
}
330
1F
100
AcDbEntity
  8
AM_5
100
AcDbDimension
  2
*D17
 10
48.52533373432468
 20
155.8287907788082
 30
0.0
 11
45.27533373432466
 21
180.8287907788082
 31
0.0
 70
    32
 71
     5
 42
50.0
  3
AM_ISO$0
100
AcDbAlignedDimension
 13
70.7753347343247
 23
205.8287907788082
 33
0.0
 14
70.7753347343247
 24
155.8287907788082
 34
0.0
 50
90.00000000000003
100
AcDbRotatedDimension
  0
LINE
  5
13F5
330
1F
100
AcDbEntity
  8
TK6
100
AcDbLine
 10
214.7282207127456
 20
215.8287907788082
 30
0.0
 11
225.7282207127456
 21
215.8287907788082
 31
0.0
  0
LINE
  5
13F6
330
1F
100
AcDbEntity
  8
TK6
100
AcDbLine
 10
214.7282207127456
 20
212.8287907788082
 30
0.0
 11
225.7282207127456
 21
212.8287907788082
 31
0.0
  0
LINE
  5
13F7
330
1F
100
AcDbEntity
  8
TK60
100
AcDbLine
 10
214.7282207127456
 20
215.5787907788083
 30
0.0
 11
225.7282207127456
 21
215.5787907788083
 31
0.0
  0
LINE
  5
13F8
330
1F
100
AcDbEntity
  8
TK60
100
AcDbLine
 10
214.7282207127456
 20
213.0787907788082
 30
0.0
 11
225.7282207127456
 21
213.0787907788082
 31
0.0
  0
LINE
  5
13F9
330
1F
100
AcDbEntity
  8
TK6
100
AcDbLine
 10
225.7282207127456
 20
217.5787907788083
 30
0.0
 11
226.5282207127457
 21
217.5787907788083
 31
0.0
  0
LINE
  5
13FA
330
1F
100
AcDbEntity
  8
TK6
100
AcDbLine
 10
226.5282207127457
 20
216.8287907788082
 30
0.0
 11
228.2282207127456
 21
216.8287907788082
 31
0.0
  0
LINE
  5
13FB
330
1F
100
AcDbEntity
  8
TK6
100
AcDbLine
 10
226.5282207127457
 20
217.5787907788083
 30
0.0
 11
226.5282207127457
 21
214.3287907788082
 31
0.0
  0
LINE
  5
13FC
330
1F
100
AcDbEntity
  8
TK6
100
AcDbLine
 10
225.7282207127456
 20
217.5787907788083
 30
0.0
 11
225.7282207127456
 21
214.3287907788082
 31
0.0
  0
LINE
  5
13FD
330
1F
100
AcDbEntity
  8
TK6
100
AcDbLine
 10
228.2282207127456
 20
216.8287907788082
 30
0.0
 11
228.2282207127456
 21
214.3287907788082
 31
0.0
  0
LINE
  5
13FE
330
1F
100
AcDbEntity
  8
TK6
100
AcDbLine
 10
225.7282207127456
 20
211.0787907788082
 30
0.0
 11
226.5282207127457
 21
211.0787907788082
 31
0.0
  0
LINE
  5
13FF
330
1F
100
AcDbEntity
  8
TK6
100
AcDbLine
 10
226.5282207127457
 20
211.8287907788082
 30
0.0
 11
228.2282207127456
 21
211.8287907788082
 31
0.0
  0
LINE
  5
1400
330
1F
100
AcDbEntity
  8
TK6
100
AcDbLine
 10
226.5282207127457
 20
211.0787907788082
 30
0.0
 11
226.5282207127457
 21
214.3287907788082
 31
0.0
  0
LINE
  5
1401
330
1F
100
AcDbEntity
  8
TK6
100
AcDbLine
 10
225.7282207127456
 20
211.0787907788082
 30
0.0
 11
225.7282207127456
 21
214.3287907788082
 31
0.0
  0
LINE
  5
1402
330
1F
100
AcDbEntity
  8
TK6
100
AcDbLine
 10
228.2282207127456
 20
211.8287907788082
 30
0.0
 11
228.2282207127456
 21
214.3287907788082
 31
0.0
  0
CIRCLE
  5
1403
330
1F
100
AcDbEntity
  8
TK6
100
AcDbCircle
 10
238.6516683584815
 20
214.3287907788082
 30
0.0
 40
3.25
  0
LWPOLYLINE
  5
1404
330
1F
100
AcDbEntity
  8
TK6
100
AcDbPolyline
 90
        6
 70
     1
 43
0.0
 10
237.4016683584815
 20
216.4938542882694
 10
236.1516683584815
 20
214.3287907788082
 10
237.4016683584815
 20
212.1637272693472
 10
239.9016683584815
 20
212.1637272693472
 10
241.1516683584815
 20
214.3287907788082
 10
239.9016683584815
 20
216.4938542882694
  0
LINE
  5
1405
330
1F
100
AcDbEntity
  8
TK6
100
AcDbLine
 10
236.411475979617
 20
214.7787907788082
 30
0.0
 11
240.8918607373463
 21
214.7787907788082
 31
0.0
  0
LINE
  5
1406
330
1F
100
AcDbEntity
  8
TK6
100
AcDbLine
 10
236.411475979617
 20
213.8787907788082
 30
0.0
 11
240.8918607373463
 21
213.8787907788082
 31
0.0
  0
LINE
  5
1407
330
1F
100
AcDbEntity
  8
TK6
100
AcDbLine
 10
228.2282207127456
 20
214.7787907788082
 30
0.0
 11
226.8282207127457
 21
214.7787907788082
 31
0.0
  0
LINE
  5
1408
330
1F
100
AcDbEntity
  8
TK6
100
AcDbLine
 10
228.2282207127456
 20
213.8787907788082
 30
0.0
 11
226.8282207127457
 21
213.8787907788082
 31
0.0
  0
LINE
  5
1409
330
1F
100
AcDbEntity
  8
TK6
100
AcDbLine
 10
226.8282207127457
 20
214.7787907788082
 30
0.0
 11
226.8282207127457
 21
213.8787907788082
 31
0.0
  0
LINE
  5
140A
330
1F
100
AcDbEntity
  8
TK6
100
AcDbLine
 10
214.7282207127456
 20
215.8287907788082
 30
0.0
 11
214.7282207127456
 21
212.8287907788082
 31
0.0
  0
LINE
  5
1415
330
1F
100
AcDbEntity
  8
TK6
100
AcDbLine
 10
214.7282207127456
 20
148.8287907788082
 30
0.0
 11
225.7282207127456
 21
148.8287907788082
 31
0.0
  0
LINE
  5
1416
330
1F
100
AcDbEntity
  8
TK6
100
AcDbLine
 10
214.7282207127456
 20
145.8287907788082
 30
0.0
 11
225.7282207127456
 21
145.8287907788082
 31
0.0
  0
LINE
  5
1417
330
1F
100
AcDbEntity
  8
TK60
100
AcDbLine
 10
214.7282207127456
 20
148.5787907788082
 30
0.0
 11
225.7282207127456
 21
148.5787907788082
 31
0.0
  0
LINE
  5
1418
330
1F
100
AcDbEntity
  8
TK60
100
AcDbLine
 10
214.7282207127456
 20
146.0787907788082
 30
0.0
 11
225.7282207127456
 21
146.0787907788082
 31
0.0
  0
LINE
  5
1419
330
1F
100
AcDbEntity
  8
TK6
100
AcDbLine
 10
225.7282207127456
 20
150.5787907788082
 30
0.0
 11
226.5282207127457
 21
150.5787907788082
 31
0.0
  0
LINE
  5
141A
330
1F
100
AcDbEntity
  8
TK6
100
AcDbLine
 10
226.5282207127457
 20
149.8287907788082
 30
0.0
 11
228.2282207127456
 21
149.8287907788082
 31
0.0
  0
LINE
  5
141B
330
1F
100
AcDbEntity
  8
TK6
100
AcDbLine
 10
226.5282207127457
 20
150.5787907788082
 30
0.0
 11
226.5282207127457
 21
147.3287907788082
 31
0.0
  0
LINE
  5
141C
330
1F
100
AcDbEntity
  8
TK6
100
AcDbLine
 10
225.7282207127456
 20
150.5787907788082
 30
0.0
 11
225.7282207127456
 21
147.3287907788082
 31
0.0
  0
LINE
  5
141D
330
1F
100
AcDbEntity
  8
TK6
100
AcDbLine
 10
228.2282207127456
 20
149.8287907788082
 30
0.0
 11
228.2282207127456
 21
147.3287907788082
 31
0.0
  0
LINE
  5
141E
330
1F
100
AcDbEntity
  8
TK6
100
AcDbLine
 10
225.7282207127456
 20
144.0787907788082
 30
0.0
 11
226.5282207127457
 21
144.0787907788082
 31
0.0
  0
LINE
  5
141F
330
1F
100
AcDbEntity
  8
TK6
100
AcDbLine
 10
226.5282207127457
 20
144.8287907788082
 30
0.0
 11
228.2282207127456
 21
144.8287907788082
 31
0.0
  0
LINE
  5
1420
330
1F
100
AcDbEntity
  8
TK6
100
AcDbLine
 10
226.5282207127457
 20
144.0787907788082
 30
0.0
 11
226.5282207127457
 21
147.3287907788082
 31
0.0
  0
LINE
  5
1421
330
1F
100
AcDbEntity
  8
TK6
100
AcDbLine
 10
225.7282207127456
 20
144.0787907788082
 30
0.0
 11
225.7282207127456
 21
147.3287907788082
 31
0.0
  0
LINE
  5
1422
330
1F
100
AcDbEntity
  8
TK6
100
AcDbLine
 10
228.2282207127456
 20
144.8287907788082
 30
0.0
 11
228.2282207127456
 21
147.3287907788082
 31
0.0
  0
CIRCLE
  5
1423
330
1F
100
AcDbEntity
  8
TK6
100
AcDbCircle
 10
238.6516683584815
 20
147.3287907788082
 30
0.0
 40
3.25
  0
LWPOLYLINE
  5
1424
330
1F
100
AcDbEntity
  8
TK6
100
AcDbPolyline
 90
        6
 70
     1
 43
0.0
 10
237.4016683584815
 20
149.4938542882693
 10
236.1516683584815
 20
147.3287907788082
 10
237.4016683584815
 20
145.1637272693471
 10
239.9016683584815
 20
145.1637272693471
 10
241.1516683584815
 20
147.3287907788082
 10
239.9016683584815
 20
149.4938542882693
  0
LINE
  5
1425
330
1F
100
AcDbEntity
  8
TK6
100
AcDbLine
 10
236.411475979617
 20
147.7787907788081
 30
0.0
 11
240.8918607373463
 21
147.7787907788081
 31
0.0
  0
LINE
  5
1426
330
1F
100
AcDbEntity
  8
TK6
100
AcDbLine
 10
236.411475979617
 20
146.8787907788081
 30
0.0
 11
240.8918607373463
 21
146.8787907788081
 31
0.0
  0
LINE
  5
1427
330
1F
100
AcDbEntity
  8
TK6
100
AcDbLine
 10
228.2282207127456
 20
147.7787907788081
 30
0.0
 11
226.8282207127457
 21
147.7787907788081
 31
0.0
  0
LINE
  5
1428
330
1F
100
AcDbEntity
  8
TK6
100
AcDbLine
 10
228.2282207127456
 20
146.8787907788081
 30
0.0
 11
226.8282207127457
 21
146.8787907788081
 31
0.0
  0
LINE
  5
1429
330
1F
100
AcDbEntity
  8
TK6
100
AcDbLine
 10
226.8282207127457
 20
147.7787907788081
 30
0.0
 11
226.8282207127457
 21
146.8787907788081
 31
0.0
  0
LINE
  5
142A
330
1F
100
AcDbEntity
  8
TK6
100
AcDbLine
 10
214.7282207127456
 20
148.8287907788082
 30
0.0
 11
214.7282207127456
 21
145.8287907788082
 31
0.0
  0
LINE
  5
1481
330
1F
100
AcDbEntity
  8
TK3
100
AcDbLine
 10
90.02743460486398
 20
112.5380711881951
 30
0.0
 11
116.2774346048639
 21
112.5380711881951
 31
0.0
  0
LINE
  5
1482
330
1F
100
AcDbEntity
  8
TK3
100
AcDbLine
 10
90.02743460486398
 20
101.538071188195
 30
0.0
 11
116.2774346048639
 21
101.538071188195
 31
0.0
  0
LINE
  5
1483
330
1F
100
AcDbEntity
  8
TK3
100
AcDbLine
 10
119.2774346048639
 20
104.538071188195
 30
0.0
 11
119.2774346048639
 21
109.5380711881951
 31
0.0
  0
ARC
  5
1484
330
1F
100
AcDbEntity
  8
TK3
100
AcDbCircle
 10
116.2774346048639
 20
104.538071188195
 30
0.0
 40
3.0
100
AcDbArc
 50
270.0
 51
0.0
1001
GENIUS_GENOBJ-N-FIL_13
1002
{
1000
OWNER
1000
GEN
1002
}
1001
GENIUS_GENODEF_13
1002
{
1000
HIER
1070
     0
1002
}
1002
{
1000
MANEDIT
1070
     0
1002
}
1002
{
1000
NOSEL
1070
     0
1002
}
1002
{
1000
BEHIND
1070
     0
1002
}
1002
{
1000
OTHER
1070
     0
1002
}
1002
{
1000
REACTOR
1002
}
  0
ARC
  5
1485
102
{ACAD_REACTORS
330
17B5
102
}
330
1F
100
AcDbEntity
  8
TK3
100
AcDbCircle
 10
116.2774346048639
 20
109.5380711881951
 30
0.0
 40
3.0
100
AcDbArc
 50
0.0
 51
90.0
1001
GENIUS_GENOBJ-N-FIL_13
1002
{
1000
OWNER
1000
GEN
1002
}
1001
GENIUS_GENODEF_13
1002
{
1000
HIER
1070
     0
1002
}
1002
{
1000
MANEDIT
1070
     0
1002
}
1002
{
1000
NOSEL
1070
     0
1002
}
1002
{
1000
BEHIND
1070
     0
1002
}
1002
{
1000
OTHER
1070
     0
1002
}
1002
{
1000
REACTOR
1002
}
  0
LWPOLYLINE
  5
1486
330
1F
100
AcDbEntity
  8
TK3
100
AcDbPolyline
 90
        8
 70
     1
 43
0.0
 10
110.2253347343247
 20
105.4380711881949
 10
112.8253347343247
 20
105.4380711881949
 42
0.4142135623730951
 10
113.8253347343247
 20
106.4380711881949
 10
113.8253347343247
 20
107.638071188195
 42
0.4142135623730951
 10
112.8253347343247
 20
108.638071188195
 10
110.2253347343247
 20
108.638071188195
 42
0.4142135623730951
 10
109.2253347343247
 20
107.638071188195
 10
109.2253347343247
 20
106.4380711881949
 42
0.4142135623730989
1001
GENIUS_GENREC_14
1002
{
1000
PYDIR
1011
109.2253347343247
1021
108.638071188195
1031
0.0
1002
}
1002
{
1000
PXDIR
1011
113.8253347343247
1021
105.4380711881949
1031
0.0
1002
}
1002
{
1000
PORI
1011
109.2253347343247
1021
105.4380711881949
1031
0.0
1002
}
1002
{
1000
PINS
1011
111.5253347343247
1021
107.0380711881949
1031
0.0
1002
}
1002
{
1000
HVAL
1000
3.2
1002
}
1002
{
1000
H
1070
     2
1002
}
1002
{
1000
WVAL
1000
4.6
1002
}
1002
{
1000
W
1070
     2
1002
}
1002
{
1000
C
1070
     4
1002
}
1001
GENIUS_GENODEF_13
1002
{
1000
HIER
1070
     0
1002
}
1002
{
1000
MANEDIT
1070
     0
1002
}
1002
{
1000
NOSEL
1070
     0
1002
}
1002
{
1000
BEHIND
1070
     0
1002
}
1002
{
1000
OTHER
1070
     0
1002
}
1002
{
1000
REACTOR
1002
}
1001
GENIUS_GENOBJ-N-REC_13
1002
{
1000
OWNER
1000
GEN
1002
}
  0
CIRCLE
  5
150B
330
1F
100
AcDbEntity
  8
下側0
100
AcDbCircle
 10
111.5253347343247
 20
147.3287907788082
 30
0.0
 40
1.199999999999999
  0
LINE
  5
15D4
330
1F
100
AcDbEntity
  8
TK3
100
AcDbLine
 10
90.02743460486398
 20
112.5380711881951
 30
0.0
 11
63.77743460486399
 21
112.5380711881951
 31
0.0
  0
LINE
  5
15D5
102
{ACAD_REACTORS
330
16FA
102
}
330
1F
100
AcDbEntity
  8
TK3
100
AcDbLine
 10
90.02743460486398
 20
101.538071188195
 30
0.0
 11
63.77743460486399
 21
101.538071188195
 31
0.0
  0
LINE
  5
15D6
330
1F
100
AcDbEntity
  8
TK3
100
AcDbLine
 10
60.777434604864
 20
104.538071188195
 30
0.0
 11
60.777434604864
 21
109.5380711881951
 31
0.0
  0
ARC
  5
15D7
330
1F
100
AcDbEntity
  8
TK3
100
AcDbCircle
 10
63.77743460486399
 20
104.538071188195
 30
0.0
 40
3.0
100
AcDbArc
 50
180.0
 51
270.0
1001
GENIUS_GENOBJ-N-FIL_13
1002
{
1000
OWNER
1000
GEN
1002
}
1001
GENIUS_GENODEF_13
1002
{
1000
HIER
1070
     0
1002
}
1002
{
1000
MANEDIT
1070
     0
1002
}
1002
{
1000
NOSEL
1070
     0
1002
}
1002
{
1000
BEHIND
1070
     0
1002
}
1002
{
1000
OTHER
1070
     0
1002
}
1002
{
1000
REACTOR
1002
}
  0
ARC
  5
15D8
102
{ACAD_REACTORS
330
16FA
330
17B5
102
}
330
1F
100
AcDbEntity
  8
TK3
100
AcDbCircle
 10
63.77743460486399
 20
109.5380711881951
 30
0.0
 40
3.0
100
AcDbArc
 50
90.0
 51
180.0
1001
GENIUS_GENOBJ-N-FIL_13
1002
{
1000
OWNER
1000
GEN
1002
}
1001
GENIUS_GENODEF_13
1002
{
1000
HIER
1070
     0
1002
}
1002
{
1000
MANEDIT
1070
     0
1002
}
1002
{
1000
NOSEL
1070
     0
1002
}
1002
{
1000
BEHIND
1070
     0
1002
}
1002
{
1000
OTHER
1070
     0
1002
}
1002
{
1000
REACTOR
1002
}
  0
LWPOLYLINE
  5
15D9
102
{ACAD_REACTORS
330
1744
330
177E
102
}
330
1F
100
AcDbEntity
  8
TK3
100
AcDbPolyline
 90
        8
 70
     1
 43
0.0
 10
69.82953447540328
 20
105.4380711881949
 10
67.22953447540326
 20
105.4380711881949
 42
-0.4142135623730951
 10
66.22953447540325
 20
106.4380711881949
 10
66.22953447540325
 20
107.638071188195
 42
-0.4142135623730951
 10
67.22953447540326
 20
108.638071188195
 10
69.82953447540328
 20
108.638071188195
 42
-0.4142135623730951
 10
70.82953447540328
 20
107.638071188195
 10
70.82953447540328
 20
106.4380711881949
 42
-0.4142135623730989
1001
GENIUS_GENREC_14
1002
{
1000
PYDIR
1011
70.82953447540328
1021
108.638071188195
1031
0.0
1002
}
1002
{
1000
PXDIR
1011
66.22953447540325
1021
105.4380711881949
1031
0.0
1002
}
1002
{
1000
PORI
1011
70.82953447540328
1021
105.4380711881949
1031
0.0
1002
}
1002
{
1000
PINS
1011
68.52953447540326
1021
107.0380711881949
1031
0.0
1002
}
1002
{
1000
HVAL
1000
3.2
1002
}
1002
{
1000
H
1070
     2
1002
}
1002
{
1000
WVAL
1000
4.6
1002
}
1002
{
1000
W
1070
     2
1002
}
1002
{
1000
C
1070
     4
1002
}
1001
GENIUS_GENODEF_13
1002
{
1000
HIER
1070
     0
1002
}
1002
{
1000
MANEDIT
1070
     0
1002
}
1002
{
1000
NOSEL
1070
     0
1002
}
1002
{
1000
BEHIND
1070
     0
1002
}
1002
{
1000
OTHER
1070
     0
1002
}
1002
{
1000
REACTOR
1002
}
1001
GENIUS_GENOBJ-N-REC_13
1002
{
1000
OWNER
1000
GEN
1002
}
  0
LINE
  5
15F0
330
1F
100
AcDbEntity
  8
AM_7
  6
AM_ISO08W050x2
100
AcDbLine
 10
90.02743460486398
 20
115.5380711881951
 30
0.0
 11
90.02743460486398
 21
98.53807118819498
 31
0.0
1001
GENIUS_GENODEF_13
1002
{
1000
HIER
1070
     0
1002
}
1002
{
1000
MANEDIT
1070
     0
1002
}
1002
{
1000
NOSEL
1070
     0
1002
}
1002
{
1000
BEHIND
1070
     0
1002
}
1002
{
1000
OTHER
1070
     0
1002
}
1002
{
1000
REACTOR
1002
}
1001
GENIUS_GENOBJ-N-CEN_13
1002
{
1000
OWNER
1000
GEN
1002
}
1001
GENIUS_GENCEN_19
1002
{
1040
3.0
1002
}
  0
LINE
  5
166A
330
1F
100
AcDbEntity
  8
AM_7
  6
AM_ISO08W050x2
100
AcDbLine
 10
127.7011170914726
 20
107.0380711881949
 30
0.0
 11
137.7011170914726
 21
107.0380711881949
 31
0.0
1001
GENIUS_GENOBJ-N-CEN_13
1002
{
1000
OWNER
1000
GEN
1002
}
1001
GENIUS_GENODEF_13
1002
{
1000
HIER
1070
     0
1002
}
1002
{
1000
MANEDIT
1070
     0
1002
}
1002
{
1000
NOSEL
1070
     0
1002
}
1002
{
1000
BEHIND
1070
     0
1002
}
1002
{
1000
OTHER
1070
     0
1002
}
1002
{
1000
REACTOR
1002
}
  0
LINE
  5
166B
330
1F
100
AcDbEntity
  8
TK3
100
AcDbLine
 10
130.7011170914726
 20
102.538071188195
 30
0.0
 11
130.7011170914726
 21
111.538071188195
 31
0.0
  0
LINE
  5
166C
330
1F
100
AcDbEntity
  8
TK3
100
AcDbLine
 10
131.7011170914726
 20
101.538071188195
 30
0.0
 11
134.7011170914726
 21
101.538071188195
 31
0.0
  0
LINE
  5
166D
330
1F
100
AcDbEntity
  8
TK3
100
AcDbLine
 10
131.7011170914726
 20
112.538071188195
 30
0.0
 11
134.7011170914726
 21
112.538071188195
 31
0.0
  0
LINE
  5
166E
102
{ACAD_REACTORS
330
1812
102
}
330
1F
100
AcDbEntity
  8
TK3
100
AcDbLine
 10
134.7011170914726
 20
101.538071188195
 30
0.0
 11
134.7011170914726
 21
112.538071188195
 31
0.0
  0
ARC
  5
166F
330
1F
100
AcDbEntity
  8
TK3
100
AcDbCircle
 10
131.7011170914726
 20
102.538071188195
 30
0.0
 40
1.0
100
AcDbArc
 50
180.0
 51
270.0
1001
GENIUS_GENODEF_13
1002
{
1000
HIER
1070
     0
1002
}
1002
{
1000
MANEDIT
1070
     0
1002
}
1002
{
1000
NOSEL
1070
     0
1002
}
1002
{
1000
BEHIND
1070
     0
1002
}
1002
{
1000
OTHER
1070
     0
1002
}
1002
{
1000
REACTOR
1002
}
1001
GENIUS_GENOBJ-N-FIL_13
1002
{
1000
OWNER
1000
GEN
1002
}
  0
ARC
  5
1670
102
{ACAD_REACTORS
330
1812
102
}
330
1F
100
AcDbEntity
  8
TK3
100
AcDbCircle
 10
131.7011170914726
 20
111.538071188195
 30
0.0
 40
1.0
100
AcDbArc
 50
90.0
 51
180.0
1001
GENIUS_GENOBJ-N-FIL_13
1002
{
1000
OWNER
1000
GEN
1002
}
1001
GENIUS_GENODEF_13
1002
{
1000
HIER
1070
     0
1002
}
1002
{
1000
MANEDIT
1070
     0
1002
}
1002
{
1000
NOSEL
1070
     0
1002
}
1002
{
1000
BEHIND
1070
     0
1002
}
1002
{
1000
OTHER
1070
     0
1002
}
1002
{
1000
REACTOR
1002
}
  0
DIMENSION
  5
16EE
102
{ACAD_XDICTIONARY
360
16F9
102
}
102
{ACAD_REACTORS
330
16FA
102
}
330
1F
100
AcDbEntity
  8
AM_5
100
AcDbDimension
  2
*D18
 10
36.05864635993953
 20
101.538071188195
 30
0.0
 11
32.80864635993952
 21
107.038071188195
 31
0.0
 70
    32
 71
     5
 42
11.00000000000011
  3
AM_ISO$0
100
AcDbAlignedDimension
 13
63.77743460486399
 23
112.5380711881951
 33
0.0
 14
63.777434604864
 24
101.538071188195
 34
0.0
 50
90.00000000000003
100
AcDbRotatedDimension
  0
DIMENSION
  5
1736
102
{ACAD_XDICTIONARY
360
1743
102
}
102
{ACAD_REACTORS
330
1744
102
}
330
1F
100
AcDbEntity
  8
AM_5
100
AcDbDimension
  2
*D19
 10
48.52533373432468
 20
108.638071188195
 30
0.0
 11
45.27498924613569
 21
117.6931745346517
 31
0.0
 70
    32
 71
     5
 42
3.200000000000045
  3
AM_ISO$0
100
AcDbAlignedDimension
 13
67.22953447540326
 23
105.4380711881949
 33
0.0
 14
67.22953447540326
 24
108.638071188195
 34
0.0
 50
90.00000000000003
100
AcDbRotatedDimension
  0
DIMENSION
  5
1770
102
{ACAD_XDICTIONARY
360
177D
102
}
102
{ACAD_REACTORS
330
177E
102
}
330
1F
100
AcDbEntity
  8
AM_5
100
AcDbDimension
  2
*D20
 10
66.22953447540325
 20
119.638071188195
 30
0.0
 11
68.52953447540326
 21
119.638071188195
 31
0.0
 70
   160
 71
     5
 42
4.600000000000022
  3
AM_ISO$0
100
AcDbAlignedDimension
 13
70.82953447540328
 23
107.638071188195
 33
0.0
 14
66.22953447540325
 24
107.638071188195
 34
0.0
100
AcDbRotatedDimension
  0
DIMENSION
  5
17A9
102
{ACAD_XDICTIONARY
360
17B4
102
}
102
{ACAD_REACTORS
330
17B5
102
}
330
1F
100
AcDbEntity
  8
AM_5
100
AcDbDimension
  2
*D21
 10
119.2774346048639
 20
127.5919521160549
 30
0.0
 11
90.02743460486398
 21
130.8419521160549
 31
0.0
 70
    32
 71
     5
 42
58.49999999999997
  3
AM_ISO$0
100
AcDbAlignedDimension
 13
60.777434604864
 23
109.5380711881951
 33
0.0
 14
119.2774346048639
 24
109.5380711881951
 34
0.0
100
AcDbRotatedDimension
  0
DIMENSION
  5
17DC
330
1F
100
AcDbEntity
  8
AM_5
100
AcDbDimension
  2
*D22
 10
111.5253347343247
 20
89.53807018819494
 30
0.0
 11
90.02743460486398
 21
92.78807018819495
 31
0.0
 70
    32
 71
     5
 42
42.99580025892143
  3
AM_ISO$0
100
AcDbAlignedDimension
 13
68.52953447540326
 23
105.4380711881949
 33
0.0
 14
111.5253347343247
 24
105.4380711881949
 34
0.0
 50
0.0000000000001132
100
AcDbRotatedDimension
  0
DIMENSION
  5
1804
102
{ACAD_XDICTIONARY
360
1811
102
}
102
{ACAD_REACTORS
330
1812
102
}
330
1F
100
AcDbEntity
  8
AM_5
100
AcDbDimension
  2
*D23
 10
134.7011170914726
 20
127.5919521160549
 30
0.0
 11
142.0761170914726
 21
130.8419521160549
 31
0.0
 70
    32
 71
     5
 42
4.0
  3
AM_ISO$0
100
AcDbAlignedDimension
 13
130.7011170914726
 23
111.538071188195
 33
0.0
 14
134.7011170914726
 24
112.538071188195
 34
0.0
100
AcDbRotatedDimension
  0
VIEWPORT
  5
17C
102
{ACAD_XDICTIONARY
360
186F
102
}
330
23
100
AcDbEntity
 67
     1
  8
0
100
AcDbViewport
 10
133.3499908447265
 20
101.5999970436096
 30
0.0
 40
370.2266912936524
 41
228.4221935424805
 68
     1
 69
     1
 12
133.3499908447265
 22
101.5999970436096
 13
0.0
 23
0.0
 14
10.0
 24
10.0
 15
10.0
 25
10.0
 16
0.0
 26
0.0
 36
1.0
 17
0.0
 27
0.0
 37
0.0
 42
50.0
 43
0.0
 44
0.0
 45
228.4221935424805
 50
0.0
 51
0.0
 72
   100
 90
    32800
  1

281
     0
 71
     1
 74
     0
110
0.0
120
0.0
130
0.0
111
1.0
121
0.0
131
0.0
112
0.0
122
1.0
132
0.0
 79
     0
146
0.0
  0
ENDSEC
  0
SECTION
  2
OBJECTS
  0
DICTIONARY
  5
C
330
0
100
AcDbDictionary
281
     1
  3
ACAD_COLOR
350
BE
  3
ACAD_GROUP
350
D
  3
ACAD_LAYOUT
350
1A
  3
ACAD_MATERIAL
350
BD
  3
ACAD_MLEADERSTYLE
350
D89
  3
ACAD_MLINESTYLE
350
17
  3
ACAD_PLOTSETTINGS
350
19
  3
ACAD_PLOTSTYLENAME
350
E
  3
ACAD_SCALELIST
350
D77
  3
ACAD_TABLESTYLE
350
D75
  3
ACAD_VISUALSTYLE
350
D64
  3
ACDB_RECOMPOSE_DATA
350
1865
  3
AcDbVariableDictionary
350
94
  3
AcmDictionary
350
5B
  3
AMG
350
41
  3
AMGSNAPSETTINGS
350
220
  3
DWGPROPS
350
1866
  0
DICTIONARY
  5
DF0
330
8
100
AcDbDictionary
280
     1
281
     1
  0
DICTIONARY
  5
35D
330
2
100
AcDbDictionary
280
     1
281
     1
  3
ACAD_LAYERFILTERS
360
451
  3
ACAD_LAYERSTATES
360
35E
  3
AMLAYER_GROUPCOLORS
360
4A4
  0
DICTIONARY
  5
DCF
330
10
100
AcDbDictionary
280
     1
281
     1
  3
ADSK_XREC_LAYER_RECONCILED
360
DD0
  0
DICTIONARY
  5
DD1
330
518
100
AcDbDictionary
280
     1
281
     1
  3
ADSK_XREC_LAYER_RECONCILED
360
DD2
  0
DICTIONARY
  5
DD3
330
519
100
AcDbDictionary
280
     1
281
     1
  3
ADSK_XREC_LAYER_RECONCILED
360
DD4
  0
DICTIONARY
  5
DD5
330
51A
100
AcDbDictionary
280
     1
281
     1
  3
ADSK_XREC_LAYER_RECONCILED
360
DD6
  0
DICTIONARY
  5
DD7
330
51B
100
AcDbDictionary
280
     1
281
     1
  3
ADSK_XREC_LAYER_RECONCILED
360
DD8
  0
DICTIONARY
  5
DD9
330
51C
100
AcDbDictionary
280
     1
281
     1
  3
ADSK_XREC_LAYER_RECONCILED
360
DDA
  0
DICTIONARY
  5
DDB
330
5E3
100
AcDbDictionary
280
     1
281
     1
  3
ADSK_XREC_LAYER_RECONCILED
360
DDC
  0
DICTIONARY
  5
DDD
330
5E4
100
AcDbDictionary
280
     1
281
     1
  3
ADSK_XREC_LAYER_RECONCILED
360
DDE
  0
DICTIONARY
  5
DDF
330
60F
100
AcDbDictionary
280
     1
281
     1
  3
ADSK_XREC_LAYER_RECONCILED
360
DE0
  0
DICTIONARY
  5
DE1
330
610
100
AcDbDictionary
280
     1
281
     1
  3
ADSK_XREC_LAYER_RECONCILED
360
DE2
  0
DICTIONARY
  5
DE3
330
CA4
100
AcDbDictionary
280
     1
281
     1
  3
ADSK_XREC_LAYER_RECONCILED
360
DE4
  0
DICTIONARY
  5
DE5
330
DB4
100
AcDbDictionary
280
     1
281
     1
  3
ADSK_XREC_LAYER_RECONCILED
360
DE6
  0
DICTIONARY
  5
DE7
330
DB7
100
AcDbDictionary
280
     1
281
     1
  3
ADSK_XREC_LAYER_RECONCILED
360
DE8
  0
DICTIONARY
  5
DE9
330
DBA
100
AcDbDictionary
280
     1
281
     1
  3
ADSK_XREC_LAYER_RECONCILED
360
DEA
  0
DICTIONARY
  5
DEB
330
DC9
100
AcDbDictionary
280
     1
281
     1
  3
ADSK_XREC_LAYER_RECONCILED
360
DEC
  0
DICTIONARY
  5
8F
330
1F
100
AcDbDictionary
280
     1
281
     1
  3
ACAD_SORTENTS
360
DB9
  0
DICTIONARY
  5
603
330
5FA
100
AcDbDictionary
280
     1
281
     1
  0
DICTIONARY
  5
668
330
613
100
AcDbDictionary
280
     1
281
     1
  0
DICTIONARY
  5
B90
330
B88
100
AcDbDictionary
280
     1
281
     1
  0
DICTIONARY
  5
BF4
330
B9B
100
AcDbDictionary
280
     1
281
     1
  0
DICTIONARY
  5
186D
330
178
100
AcDbDictionary
280
     1
281
     1
  3
ACAD_XREC_ROUNDTRIP
360
186E
  0
DICTIONARY
  5
1871
330
CD8
100
AcDbDictionary
280
     1
281
     1
  3
ACAD_MTEXT_RT
360
1872
  0
DICTIONARY
  5
920
330
91F
100
AcDbDictionary
280
     1
281
     1
  3
ACAD_DIMASSOC
360
921
  0
DICTIONARY
  5
924
330
923
100
AcDbDictionary
280
     1
281
     1
  3
ACAD_DIMASSOC
360
925
  0
DICTIONARY
  5
927
330
926
100
AcDbDictionary
280
     1
281
     1
  3
ACAD_DIMASSOC
360
928
  0
DICTIONARY
  5
939
330
938
100
AcDbDictionary
280
     1
281
     1
  3
ACAD_DIMASSOC
360
93A
  0
DICTIONARY
  5
93D
330
93C
100
AcDbDictionary
280
     1
281
     1
  3
ACAD_DIMASSOC
360
93E
  0
DICTIONARY
  5
940
330
93F
100
AcDbDictionary
280
     1
281
     1
  3
ACAD_DIMASSOC
360
941
  0
DICTIONARY
  5
943
330
942
100
AcDbDictionary
280
     1
281
     1
  3
ACAD_DIMASSOC
360
944
  0
DICTIONARY
  5
946
330
945
100
AcDbDictionary
280
     1
281
     1
  3
ACAD_DIMASSOC
360
947
  0
DICTIONARY
  5
EB4
330
EA9
100
AcDbDictionary
280
     1
281
     1
  3
ACAD_DIMASSOC
360
EB5
  0
DICTIONARY
  5
16F9
330
16EE
100
AcDbDictionary
280
     1
281
     1
  3
ACAD_DIMASSOC
360
16FA
  0
DICTIONARY
  5
1743
330
1736
100
AcDbDictionary
280
     1
281
     1
  3
ACAD_DIMASSOC
360
1744
  0
DICTIONARY
  5
177D
330
1770
100
AcDbDictionary
280
     1
281
     1
  3
ACAD_DIMASSOC
360
177E
  0
DICTIONARY
  5
17B4
330
17A9
100
AcDbDictionary
280
     1
281
     1
  3
ACAD_DIMASSOC
360
17B5
  0
DICTIONARY
  5
1811
330
1804
100
AcDbDictionary
280
     1
281
     1
  3
ACAD_DIMASSOC
360
1812
  0
DICTIONARY
  5
186F
330
17C
100
AcDbDictionary
280
     1
281
     1
  3
ACAD_XREC_ROUNDTRIP
360
1870
  0
DICTIONARY
  5
BE
102
{ACAD_REACTORS
330
C
102
}
330
C
100
AcDbDictionary
281
     1
  0
DICTIONARY
  5
D
102
{ACAD_REACTORS
330
C
102
}
330
C
100
AcDbDictionary
281
     1
  0
DICTIONARY
  5
1A
102
{ACAD_REACTORS
330
C
102
}
330
C
100
AcDbDictionary
281
     1
  3
Model
350
22
  3
レイアウト1
350
1E
  3
レイアウト2
350
26
  0
DICTIONARY
  5
BD
102
{ACAD_REACTORS
330
C
102
}
330
C
100
AcDbDictionary
281
     1
  3
ByBlock
350
D54
  3
ByLayer
350
D4C
  3
Global
350
D5C
  0
DICTIONARY
  5
D89
102
{ACAD_REACTORS
330
C
102
}
330
C
100
AcDbDictionary
281
     1
  3
Standard
350
D8A
  0
DICTIONARY
  5
17
102
{ACAD_REACTORS
330
C
102
}
330
C
100
AcDbDictionary
281
     1
  3
Standard
350
18
  0
DICTIONARY
  5
19
102
{ACAD_REACTORS
330
C
102
}
330
C
100
AcDbDictionary
281
     1
  0
ACDBDICTIONARYWDFLT
  5
E
102
{ACAD_REACTORS
330
C
102
}
330
C
100
AcDbDictionary
281
     1
  3
Normal
350
F
100
AcDbDictionaryWithDefault
340
F
  0
DICTIONARY
  5
D77
102
{ACAD_REACTORS
330
C
102
}
330
C
100
AcDbDictionary
281
     1
  3
A0
350
D78
  3
A1
350
D79
  3
A2
350
D7A
  3
A3
350
D7B
  3
A4
350
D7C
  3
A5
350
D7D
  3
A6
350
D7E
  3
A7
350
D7F
  3
A8
350
D80
  3
A9
350
D81
  3
B0
350
D82
  3
B1
350
D83
  3
B2
350
D84
  3
B3
350
D85
  3
B4
350
D86
  3
B5
350
D87
  3
B6
350
D88
  0
DICTIONARY
  5
D75
102
{ACAD_REACTORS
330
C
102
}
330
C
100
AcDbDictionary
281
     1
  3
Standard
350
D76
  0
DICTIONARY
  5
D64
102
{ACAD_REACTORS
330
C
102
}
330
C
100
AcDbDictionary
281
     1
  3
2dWireframe
350
D6A
  3
3D Hidden
350
D6C
  3
3dWireframe
350
D6B
  3
Basic
350
D69
  3
Brighten
350
D70
  3
ColorChange
350
D74
  3
Conceptual
350
D6D
  3
Dim
350
D6F
  3
EdgeColorOff
350
1844
  3
Facepattern
350
D73
  3
Flat
350
D65
  3
FlatWithEdges
350
D66
  3
Gouraud
350
D67
  3
GouraudWithEdges
350
D68
  3
Hidden
350
183C
  3
JitterOff
350
1842
  3
Linepattern
350
D72
  3
OverhangOff
350
1843
  3
Realistic
350
D6E
  3
Shaded
350
1841
  3
Shaded with edges
350
1840
  3
Shades of Gray
350
183D
  3
Sketchy
350
183E
  3
Thicken
350
D71
  3
Wireframe
350
183B
  3
X-Ray
350
183F
  0
XRECORD
  5
1865
102
{ACAD_REACTORS
330
C
102
}
330
C
100
AcDbXrecord
280
     1
 90
        1
330
D76
  0
DICTIONARY
  5
94
102
{ACAD_REACTORS
330
C
102
}
330
C
100
AcDbDictionary
281
     1
  3
CANNOSCALE
350
E0B
  3
CMLEADERSTYLE
350
E0A
  3
CTABLESTYLE
350
E09
  3
DIMASSOC
350
96
  3
INDEXCTL
350
95
  3
SORTENTS
350
1862
  3
XCLIPFRAME
350
1863
  0
DICTIONARY
  5
5B
102
{ACAD_REACTORS
330
C
102
}
330
C
100
AcDbDictionary
281
     1
  3
AcmStdDictionary
350
61
  3
AMDTSECTSYM_ARROWCOLOR
350
DAB
  0
DICTIONARY
  5
41
102
{ACAD_REACTORS
330
C
102
}
330
C
100
AcDbDictionary
281
     1
  0
DICTIONARY
  5
220
102
{ACAD_REACTORS
330
C
102
}
330
C
100
AcDbDictionary
281
     1
  0
XRECORD
  5
1866
102
{ACAD_REACTORS
330
C
102
}
330
C
100
AcDbXrecord
280
     1
  1
DWGPROPS COOKIE
  2

  3

  4

  6

  7

  8
TK100
  9

300
AmdtFileType=84
301
=
302
=
303
=
304
=
305
=
306
=
307
=
308
=
309
=
 40
0.0544446412037037
 41
2454594.831105637
 42
2455933.720406516
  1

 90
        1
  0
DICTIONARY
  5
451
102
{ACAD_REACTORS
330
35D
102
}
330
35D
100
AcDbDictionary
281
     1
  0
DICTIONARY
  5
35E
102
{ACAD_REACTORS
330
35D
102
}
330
35D
100
AcDbDictionary
281
     1
  3
takachi1
350
35F
  0
DICTIONARY
  5
4A4
102
{ACAD_REACTORS
330
35D
102
}
330
35D
100
AcDbDictionary
280
     1
281
     1
  0
XRECORD
  5
DD0
102
{ACAD_REACTORS
330
DCF
102
}
330
DCF
100
AcDbXrecord
280
     1
290
     1
  0
XRECORD
  5
DD2
102
{ACAD_REACTORS
330
DD1
102
}
330
DD1
100
AcDbXrecord
280
     1
290
     1
  0
XRECORD
  5
DD4
102
{ACAD_REACTORS
330
DD3
102
}
330
DD3
100
AcDbXrecord
280
     1
290
     1
  0
XRECORD
  5
DD6
102
{ACAD_REACTORS
330
DD5
102
}
330
DD5
100
AcDbXrecord
280
     1
290
     1
  0
XRECORD
  5
DD8
102
{ACAD_REACTORS
330
DD7
102
}
330
DD7
100
AcDbXrecord
280
     1
290
     1
  0
XRECORD
  5
DDA
102
{ACAD_REACTORS
330
DD9
102
}
330
DD9
100
AcDbXrecord
280
     1
290
     1
  0
XRECORD
  5
DDC
102
{ACAD_REACTORS
330
DDB
102
}
330
DDB
100
AcDbXrecord
280
     1
290
     1
  0
XRECORD
  5
DDE
102
{ACAD_REACTORS
330
DDD
102
}
330
DDD
100
AcDbXrecord
280
     1
290
     1
  0
XRECORD
  5
DE0
102
{ACAD_REACTORS
330
DDF
102
}
330
DDF
100
AcDbXrecord
280
     1
290
     1
  0
XRECORD
  5
DE2
102
{ACAD_REACTORS
330
DE1
102
}
330
DE1
100
AcDbXrecord
280
     1
290
     1
  0
XRECORD
  5
DE4
102
{ACAD_REACTORS
330
DE3
102
}
330
DE3
100
AcDbXrecord
280
     1
290
     1
  0
XRECORD
  5
DE6
102
{ACAD_REACTORS
330
DE5
102
}
330
DE5
100
AcDbXrecord
280
     1
290
     1
  0
XRECORD
  5
DE8
102
{ACAD_REACTORS
330
DE7
102
}
330
DE7
100
AcDbXrecord
280
     1
290
     1
  0
XRECORD
  5
DEA
102
{ACAD_REACTORS
330
DE9
102
}
330
DE9
100
AcDbXrecord
280
     1
290
     1
  0
XRECORD
  5
DEC
102
{ACAD_REACTORS
330
DEB
102
}
330
DEB
100
AcDbXrecord
280
     1
290
     1
  0
SORTENTSTABLE
  5
DB9
102
{ACAD_REACTORS
330
8F
102
}
330
8F
100
AcDbSortentsTable
330
1F
331
99E
  5
99E
331
99A
  5
99A
331
A14
  5
A14
331
9D5
  5
9D5
331
A10
  5
A10
331
A4F
  5
A4F
331
996
  5
996
331
992
  5
992
331
9D1
  5
9D1
331
A0C
  5
A0C
331
A4B
  5
A4B
331
A08
  5
A08
331
95C
  5
95C
331
909
  5
909
331
958
  5
958
331
A47
  5
A47
331
98E
  5
98E
331
9CD
  5
9CD
331
98A
  5
98A
331
9C9
  5
9C9
331
A43
  5
A43
331
A04
  5
A04
331
9C5
  5
9C5
331
A3F
  5
A3F
331
A00
  5
A00
331
986
  5
986
331
9C1
  5
9C1
331
982
  5
982
331
A3B
  5
A3B
331
9FC
  5
9FC
331
9F8
  5
9F8
331
954
  5
954
331
905
  5
905
331
950
  5
950
331
901
  5
901
331
94C
  5
94C
331
948
  5
948
331
9BD
  5
9BD
331
A37
  5
A37
331
97E
  5
97E
331
9B9
  5
9B9
331
97A
  5
97A
331
A33
  5
A33
331
E95
  5
E94
331
9F4
  5
9F4
331
9B5
  5
9B5
331
9F0
  5
9F0
331
A2F
  5
A2F
331
976
  5
976
331
972
  5
972
331
9B1
  5
9B1
331
9EC
  5
9EC
331
A2B
  5
A2B
331
DC6
  5
DC5
331
9E8
  5
9E8
331
DC2
  5
DC1
331
8F1
  5
8F1
331
93C
  5
93C
331
938
  5
938
331
A27
  5
A27
331
96E
  5
96E
331
9AD
  5
9AD
331
96A
  5
96A
331
9A9
  5
9A9
331
A23
  5
A23
331
9E4
  5
9E4
331
A1F
  5
A1F
331
9E0
  5
9E0
331
9A5
  5
9A5
331
9A1
  5
9A1
331
A1B
  5
A1B
331
9DC
  5
9DC
331
9D8
  5
9D8
331
A52
  5
A52
331
92C
  5
92C
331
A17
  5
A17
331
99D
  5
99D
331
999
  5
999
331
A13
  5
A13
331
A4E
  5
A4E
331
A0F
  5
A0F
331
995
  5
995
331
9D4
  5
9D4
331
991
  5
991
331
9D0
  5
9D0
331
A4A
  5
A4A
331
A0B
  5
A0B
331
95B
  5
95B
331
908
  5
908
331
9CC
  5
9CC
331
A46
  5
A46
331
A07
  5
A07
331
98D
  5
98D
331
9C8
  5
9C8
331
989
  5
989
331
A03
  5
A03
331
A42
  5
A42
331
9C4
  5
9C4
331
9FF
  5
9FF
331
A3E
  5
A3E
331
985
  5
985
331
981
  5
981
331
9C0
  5
9C0
331
9FB
  5
9FB
331
A3A
  5
A3A
331
957
  5
957
331
904
  5
904
331
953
  5
953
331
900
  5
900
331
94F
  5
94F
331
94B
  5
94B
331
9F7
  5
9F7
331
A36
  5
A36
331
97D
  5
97D
331
9BC
  5
9BC
331
979
  5
979
331
9B8
  5
9B8
331
A32
  5
A32
331
E94
  5
E93
331
9F3
  5
9F3
331
9B4
  5
9B4
331
A2E
  5
A2E
331
9EF
  5
9EF
331
975
  5
975
331
9B0
  5
9B0
331
971
  5
971
331
A2A
  5
A2A
331
9EB
  5
9EB
331
93F
  5
93F
331
93B
  5
93B
331
9AC
  5
9AC
331
A26
  5
A26
331
9E7
  5
9E7
331
96D
  5
96D
331
9A8
  5
9A8
331
969
  5
969
331
A22
  5
A22
331
9E3
  5
9E3
331
9DF
  5
9DF
331
A1E
  5
A1E
331
9A4
  5
9A4
331
9A0
  5
9A0
331
9DB
  5
9DB
331
A1A
  5
A1A
331
BF8
  5
BF8
331
A55
  5
A55
331
A51
  5
A51
331
92F
  5
92F
331
92B
  5
92B
331
923
  5
923
331
A16
  5
A16
331
99C
  5
99C
331
9D7
  5
9D7
331
998
  5
998
331
A12
  5
A12
331
A0E
  5
A0E
331
A4D
  5
A4D
331
994
  5
994
331
9D3
  5
9D3
331
990
  5
990
331
A0A
  5
A0A
331
A49
  5
A49
331
91F
  5
91F
331
95E
  5
95E
331
95A
  5
95A
331
9CF
  5
9CF
331
A45
  5
A45
331
A06
  5
A06
331
98C
  5
98C
331
9CB
  5
9CB
331
988
  5
988
331
9C7
  5
9C7
331
A41
  5
A41
331
A02
  5
A02
331
9C3
  5
9C3
331
A3D
  5
A3D
331
9FE
  5
9FE
331
984
  5
984
331
980
  5
980
331
A39
  5
A39
331
9FA
  5
9FA
331
DC8
  5
DC7
331
956
  5
956
331
907
  5
907
331
952
  5
952
331
903
  5
903
331
94E
  5
94E
331
8FF
  5
8FF
331
94A
  5
94A
331
9BF
  5
9BF
331
9BB
  5
9BB
331
97C
  5
97C
331
A35
  5
A35
331
9F6
  5
9F6
331
E97
  5
E96
331
9B7
  5
9B7
331
9F2
  5
9F2
331
A31
  5
A31
331
978
  5
978
331
9B3
  5
9B3
331
974
  5
974
331
9EE
  5
9EE
331
A2D
  5
A2D
331
9EA
  5
9EA
331
A29
  5
A29
331
D16
  5
D16
331
970
  5
970
331
DC4
  5
DC3
331
942
  5
942
331
9AF
  5
9AF
331
96C
  5
96C
331
9AB
  5
9AB
331
9E6
  5
9E6
331
A25
  5
A25
331
A21
  5
A21
331
9E2
  5
9E2
331
968
  5
968
331
9A7
  5
9A7
331
9A3
  5
9A3
331
A1D
  5
A1D
331
9DE
  5
9DE
331
A19
  5
A19
331
9DA
  5
9DA
331
A54
  5
A54
331
A50
  5
A50
331
92E
  5
92E
331
92A
  5
92A
331
926
  5
926
331
99F
  5
99F
331
99B
  5
99B
331
A15
  5
A15
331
A11
  5
A11
331
997
  5
997
331
9D6
  5
9D6
331
993
  5
993
331
9D2
  5
9D2
331
A4C
  5
A4C
331
A0D
  5
A0D
331
A48
  5
A48
331
A09
  5
A09
331
95D
  5
95D
331
959
  5
959
331
90A
  5
90A
331
9CE
  5
9CE
331
98F
  5
98F
331
9CA
  5
9CA
331
98B
  5
98B
331
A44
  5
A44
331
A05
  5
A05
331
9C6
  5
9C6
331
A01
  5
A01
331
A40
  5
A40
331
987
  5
987
331
983
  5
983
331
9C2
  5
9C2
331
9FD
  5
9FD
331
A3C
  5
A3C
331
9F9
  5
9F9
331
A38
  5
A38
331
B99
  5
B99
331
955
  5
955
331
906
  5
906
331
902
  5
902
331
951
  5
951
331
94D
  5
94D
331
949
  5
949
331
97F
  5
97F
331
9BE
  5
9BE
331
97B
  5
97B
331
9BA
  5
9BA
331
A34
  5
A34
331
9F5
  5
9F5
331
A30
  5
A30
331
9F1
  5
9F1
331
E92
  5
E8E
331
977
  5
977
331
9B6
  5
9B6
331
9B2
  5
9B2
331
973
  5
973
331
A2C
  5
A2C
331
9ED
  5
9ED
331
A28
  5
A28
331
9E9
  5
9E9
331
945
  5
945
331
8F2
  5
8F2
331
9AE
  5
9AE
331
96F
  5
96F
331
9AA
  5
9AA
331
96B
  5
96B
331
A24
  5
A24
331
9E5
  5
9E5
331
9E1
  5
9E1
331
A20
  5
A20
331
9A6
  5
9A6
331
9A2
  5
9A2
331
9DD
  5
9DD
331
A1C
  5
A1C
331
9D9
  5
9D9
331
A18
  5
A18
331
A53
  5
A53
331
92D
  5
92D
331
929
  5
929
  0
XRECORD
  5
186E
102
{ACAD_REACTORS
330
186D
102
}
330
186D
100
AcDbXrecord
280
     1
102
SHADEPLOT
 70
     0
  0
XRECORD
  5
1872
102
{ACAD_REACTORS
330
1871
102
}
330
1871
100
AcDbXrecord
280
     1
 40
2852.0
  1
\U+22053.5
  0
DIMASSOC
  5
921
102
{ACAD_REACTORS
330
920
102
}
330
920
100
AcDbDimAssoc
330
91F
 90
        3
 70
     0
 71
     0
  1
AcDbOsnapPointRef
 72
     1
331
92C
 73
     0
 91
        0
 40
0.0
 10
0.0
 20
0.0
 30
2.000000000000000E+50
 75
     0
  1
AcDbOsnapPointRef
 72
    13
331
A17
 73
     0
 91
        0
 40
0.0
 10
0.0
 20
0.0
 30
2.000000000000000E+50
 75
     0
  0
DIMASSOC
  5
925
102
{ACAD_REACTORS
330
924
102
}
330
924
100
AcDbDimAssoc
330
923
 90
        3
 70
     0
 71
     0
  1
AcDbOsnapPointRef
 72
     1
331
9A8
 73
     0
 91
        0
 40
0.0
 10
0.0
 20
0.0
 30
2.000000000000000E+50
 75
     0
  1
AcDbOsnapPointRef
 72
    13
331
971
 73
     0
 91
        0
 40
0.0
 10
0.0
 20
0.0
 30
2.000000000000000E+50
 75
     0
  0
DIMASSOC
  5
928
102
{ACAD_REACTORS
330
927
102
}
330
927
100
AcDbDimAssoc
330
926
 90
        1
 70
     0
 71
     0
  1
AcDbOsnapPointRef
 72
    13
331
9A8
 73
     0
 91
        0
 40
0.0
 10
0.0
 20
0.0
 30
2.000000000000000E+50
 75
     0
  0
DIMASSOC
  5
93A
102
{ACAD_REACTORS
330
939
102
}
330
939
100
AcDbDimAssoc
330
938
 90
        2
 70
     0
 71
     0
  1
AcDbOsnapPointRef
 72
     3
331
952
 73
     2
 91
        0
 40
0.0
 10
0.0
 20
0.0
 30
0.0
 75
     0
  0
DIMASSOC
  5
93E
102
{ACAD_REACTORS
330
93D
102
}
330
93D
100
AcDbDimAssoc
330
93C
 90
        3
 70
     0
 71
     0
  1
AcDbOsnapPointRef
 72
     1
331
95E
331
964
 73
     0
 91
        0
 40
0.0
 10
0.0
 20
0.0
 30
2.000000000000000E+50
 75
     0
  1
AcDbOsnapPointRef
 72
     1
331
95E
331
961
 73
     0
 91
        0
 40
0.0
 10
0.0
 20
0.0
 30
2.000000000000000E+50
 75
     0
  0
DIMASSOC
  5
941
102
{ACAD_REACTORS
330
940
102
}
330
940
100
AcDbDimAssoc
330
93F
 90
        3
 70
     0
 71
     0
  1
AcDbOsnapPointRef
 72
     1
331
95E
331
962
 73
     0
 91
        0
 40
0.0
 10
0.0
 20
0.0
 30
2.000000000000000E+50
 75
     0
  1
AcDbOsnapPointRef
 72
    13
331
95E
331
960
 73
     0
 91
        0
 40
0.0
 10
0.0
 20
0.0
 30
2.000000000000000E+50
 75
     0
  0
DIMASSOC
  5
944
102
{ACAD_REACTORS
330
943
102
}
330
943
100
AcDbDimAssoc
330
942
 90
        3
 70
     0
 71
     0
  1
AcDbOsnapPointRef
 72
     1
331
953
 73
     0
 91
        0
 40
0.0
 10
0.0
 20
0.0
 30
2.000000000000000E+50
 75
     0
  1
AcDbOsnapPointRef
 72
     1
331
949
 73
     0
 91
        0
 40
0.0
 10
0.0
 20
0.0
 30
2.000000000000000E+50
 75
     0
  0
DIMASSOC
  5
947
102
{ACAD_REACTORS
330
946
102
}
330
946
100
AcDbDimAssoc
330
945
 90
        3
 70
     0
 71
     0
  1
AcDbOsnapPointRef
 72
     1
331
959
 73
     0
 91
        0
 40
0.0
 10
0.0
 20
0.0
 30
2.000000000000000E+50
 75
     0
  1
AcDbOsnapPointRef
 72
     8
331
954
 73
     0
 91
        0
 40
1.0
 10
0.0
 20
0.0
 30
0.0
 75
     1
  1
AcDbOsnapPointRef
 72
     1
331
959
 73
     0
 91
        0
 40
0.0
 10
0.0
 20
0.0
 30
2.000000000000000E+50
 75
     0
  0
DIMASSOC
  5
EB5
102
{ACAD_REACTORS
330
EB4
102
}
330
EB4
100
AcDbDimAssoc
330
EA9
 90
        3
 70
     0
 71
     0
  1
AcDbOsnapPointRef
 72
     1
331
9B1
 73
     0
 91
        0
 40
0.0
 10
0.0
 20
0.0
 30
2.000000000000000E+50
 75
     0
  1
AcDbOsnapPointRef
 72
     1
331
9B3
 73
     0
 91
        0
 40
0.0
 10
0.0
 20
0.0
 30
2.000000000000000E+50
 75
     0
  0
DIMASSOC
  5
16FA
102
{ACAD_REACTORS
330
16F9
102
}
330
16F9
100
AcDbDimAssoc
330
16EE
 90
        3
 70
     0
 71
     0
  1
AcDbOsnapPointRef
 72
    13
331
15D8
 73
     0
 91
        0
 40
0.0
 10
0.0
 20
0.0
 30
2.000000000000000E+50
 75
     0
  1
AcDbOsnapPointRef
 72
     8
331
15D5
 73
     0
 91
        0
 40
0.9999999999999998
 10
0.0
 20
0.0
 30
0.0
 75
     1
  1
AcDbOsnapPointRef
 72
    13
331
15D8
 73
     0
 91
        0
 40
0.0
 10
0.0
 20
0.0
 30
2.000000000000000E+50
 75
     0
  0
DIMASSOC
  5
1744
102
{ACAD_REACTORS
330
1743
102
}
330
1743
100
AcDbDimAssoc
330
1736
 90
        3
 70
     0
 71
     0
  1
AcDbOsnapPointRef
 72
    13
331
15D9
 73
     2
 91
        2
 40
0.0
 10
0.0
 20
0.0
 30
2.000000000000000E+50
 75
     0
  1
AcDbOsnapPointRef
 72
     1
331
15D9
 73
     2
 91
        4
 40
0.0
 10
0.0
 20
0.0
 30
2.000000000000000E+50
 75
     0
  0
DIMASSOC
  5
177E
102
{ACAD_REACTORS
330
177D
102
}
330
177D
100
AcDbDimAssoc
330
1770
 90
        3
 70
     0
 71
     0
  1
AcDbOsnapPointRef
 72
     1
331
15D9
 73
     2
 91
        6
 40
0.0
 10
0.0
 20
0.0
 30
2.000000000000000E+50
 75
     0
  1
AcDbOsnapPointRef
 72
     1
331
15D9
 73
     2
 91
        3
 40
0.0
 10
0.0
 20
0.0
 30
2.000000000000000E+50
 75
     0
  0
DIMASSOC
  5
17B5
102
{ACAD_REACTORS
330
17B4
102
}
330
17B4
100
AcDbDimAssoc
330
17A9
 90
        3
 70
     0
 71
     0
  1
AcDbOsnapPointRef
 72
     1
331
15D8
 73
     0
 91
        0
 40
0.0
 10
0.0
 20
0.0
 30
2.000000000000000E+50
 75
     0
  1
AcDbOsnapPointRef
 72
    13
331
1485
 73
     0
 91
        0
 40
0.0
 10
0.0
 20
0.0
 30
2.000000000000000E+50
 75
     0
  0
DIMASSOC
  5
1812
102
{ACAD_REACTORS
330
1811
102
}
330
1811
100
AcDbDimAssoc
330
1804
 90
        3
 70
     0
 71
     0
  1
AcDbOsnapPointRef
 72
     1
331
1670
 73
     0
 91
        0
 40
0.0
 10
0.0
 20
0.0
 30
2.000000000000000E+50
 75
     0
  1
AcDbOsnapPointRef
 72
     1
331
166E
 73
     0
 91
        0
 40
0.0
 10
0.0
 20
0.0
 30
2.000000000000000E+50
 75
     0
  0
XRECORD
  5
1870
102
{ACAD_REACTORS
330
186F
102
}
330
186F
100
AcDbXrecord
280
     1
102
SHADEPLOT
 70
     0
  0
LAYOUT
  5
22
102
{ACAD_XDICTIONARY
360
1869
102
}
102
{ACAD_REACTORS
330
1A
102
}
330
1A
100
AcDbPlotSettings
  1

  2
RICOH IPSiO CX7200 RPCS
  4
A3
  6
AM_VIEW1
 40
5.873749732971191
 41
5.873747825622558
 42
5.873748779296875
 43
5.873748779296875
 44
296.9259948730469
 45
419.9466552734374
 46
2.589999999999999
 47
4.099999999999999
 48
10.0
 49
0.0
140
410.0
141
280.0
142
1.0
143
1.0
 70
 11956
 72
     1
 73
     1
 74
     4
  7
takachi-1.ctb
 75
    16
147
1.0
148
-10.0
149
0.0
100
AcDbLayout
  1
Model
 70
     1
 71
     0
 10
0.0
 20
0.0
 11
12.0
 21
9.0
 12
0.0
 22
0.0
 32
0.0
 14
0.0
 24
0.0
 34
0.0
 15
0.0
 25
0.0
 35
0.0
146
0.0
 13
0.0
 23
0.0
 33
0.0
 16
1.0
 26
0.0
 36
0.0
 17
0.0
 27
1.0
 37
0.0
 76
     0
330
1F
331
1839
  0
LAYOUT
  5
1E
102
{ACAD_XDICTIONARY
360
1867
102
}
102
{ACAD_REACTORS
330
1A
102
}
330
1A
100
AcDbPlotSettings
  1

  2
none_device
  4
Letter_(8.50_x_11.00_Inches)
  6

 40
6.349999904632568
 41
6.349999904632568
 42
6.350006103515625
 43
6.350006103515625
 44
215.8999938964844
 45
279.3999938964844
 46
0.0
 47
0.0
 48
0.0
 49
0.0
140
0.0
141
0.0
142
1.0
143
1.0
 70
   688
 72
     1
 73
     1
 74
     5
  7
takachi-1.ctb
 75
    16
147
1.0
148
0.0
149
0.0
100
AcDbLayout
  1
レイアウト1
 70
     1
 71
     1
 10
-6.350006103515625
 20
-6.349999904632568
 11
273.0499877929688
 21
209.5499939918518
 12
0.0
 22
0.0
 32
0.0
 14
1.000000000000000E+20
 24
1.000000000000000E+20
 34
1.000000000000000E+20
 15
-1.000000000000000E+20
 25
-1.000000000000000E+20
 35
-1.000000000000000E+20
146
0.0
 13
0.0
 23
0.0
 33
0.0
 16
1.0
 26
0.0
 36
0.0
 17
0.0
 27
1.0
 37
0.0
 76
     0
330
1B
331
178
  0
LAYOUT
  5
26
102
{ACAD_XDICTIONARY
360
186B
102
}
102
{ACAD_REACTORS
330
1A
102
}
330
1A
100
AcDbPlotSettings
  1

  2
none_device
  4
Letter_(8.50_x_11.00_Inches)
  6

 40
6.349999904632568
 41
6.349999904632568
 42
6.350006103515625
 43
6.350006103515625
 44
215.8999938964844
 45
279.3999938964844
 46
0.0
 47
0.0
 48
0.0
 49
0.0
140
0.0
141
0.0
142
1.0
143
1.0
 70
   688
 72
     1
 73
     1
 74
     5
  7
takachi-1.ctb
 75
    16
147
1.0
148
0.0
149
0.0
100
AcDbLayout
  1
レイアウト2
 70
     1
 71
     2
 10
-6.350006103515625
 20
-6.349999904632568
 11
273.0499877929688
 21
209.5499939918518
 12
0.0
 22
0.0
 32
0.0
 14
1.000000000000000E+20
 24
1.000000000000000E+20
 34
1.000000000000000E+20
 15
-1.000000000000000E+20
 25
-1.000000000000000E+20
 35
-1.000000000000000E+20
146
0.0
 13
0.0
 23
0.0
 33
0.0
 16
1.0
 26
0.0
 36
0.0
 17
0.0
 27
1.0
 37
0.0
 76
     0
330
23
331
17C
  0
MATERIAL
  5
D54
102
{ACAD_XDICTIONARY
360
D55
102
}
102
{ACAD_REACTORS
330
BD
102
}
330
BD
100
AcDbMaterial
  1
ByBlock
 72
     0
 43
0.0008202099737533
 43
0.0
 43
0.0
 43
0.0
 43
0.0
 43
0.0008202099737533
 43
0.0
 43
0.0
 43
0.0
 43
0.0
 43
1.0
 43
0.0
 43
0.0
 43
0.0
 43
0.0
 43
1.0
 77
     0
 47
0.0008202099737533
 47
0.0
 47
0.0
 47
0.0
 47
0.0
 47
0.0008202099737533
 47
0.0
 47
0.0
 47
0.0
 47
0.0
 47
1.0
 47
0.0
 47
0.0
 47
0.0
 47
0.0
 47
1.0
171
     0
 49
0.0008202099737533
 49
0.0
 49
0.0
 49
0.0
 49
0.0
 49
0.0008202099737533
 49
0.0
 49
0.0
 49
0.0
 49
0.0
 49
1.0
 49
0.0
 49
0.0
 49
0.0
 49
0.0
 49
1.0
175
     0
142
0.0008202099737533
142
0.0
142
0.0
142
0.0
142
0.0
142
0.0008202099737533
142
0.0
142
0.0
142
0.0
142
0.0
142
1.0
142
0.0
142
0.0
142
0.0
142
0.0
142
1.0
179
     0
144
0.0008202099737533
144
0.0
144
0.0
144
0.0
144
0.0
144
0.0008202099737533
144
0.0
144
0.0
144
0.0
144
0.0
144
1.0
144
0.0
144
0.0
144
0.0
144
0.0
144
1.0
147
0.0008202099737533
147
0.0
147
0.0
147
0.0
147
0.0
147
0.0008202099737533
147
0.0
147
0.0
147
0.0
147
0.0
147
1.0
147
0.0
147
0.0
147
0.0
147
0.0
147
1.0
  0
MATERIAL
  5
D4C
102
{ACAD_XDICTIONARY
360
D4D
102
}
102
{ACAD_REACTORS
330
BD
102
}
330
BD
100
AcDbMaterial
  1
ByLayer
 72
     0
 43
0.0008202099737533
 43
0.0
 43
0.0
 43
0.0
 43
0.0
 43
0.0008202099737533
 43
0.0
 43
0.0
 43
0.0
 43
0.0
 43
1.0
 43
0.0
 43
0.0
 43
0.0
 43
0.0
 43
1.0
 77
     0
 47
0.0008202099737533
 47
0.0
 47
0.0
 47
0.0
 47
0.0
 47
0.0008202099737533
 47
0.0
 47
0.0
 47
0.0
 47
0.0
 47
1.0
 47
0.0
 47
0.0
 47
0.0
 47
0.0
 47
1.0
171
     0
 49
0.0008202099737533
 49
0.0
 49
0.0
 49
0.0
 49
0.0
 49
0.0008202099737533
 49
0.0
 49
0.0
 49
0.0
 49
0.0
 49
1.0
 49
0.0
 49
0.0
 49
0.0
 49
0.0
 49
1.0
175
     0
142
0.0008202099737533
142
0.0
142
0.0
142
0.0
142
0.0
142
0.0008202099737533
142
0.0
142
0.0
142
0.0
142
0.0
142
1.0
142
0.0
142
0.0
142
0.0
142
0.0
142
1.0
179
     0
144
0.0008202099737533
144
0.0
144
0.0
144
0.0
144
0.0
144
0.0008202099737533
144
0.0
144
0.0
144
0.0
144
0.0
144
1.0
144
0.0
144
0.0
144
0.0
144
0.0
144
1.0
147
0.0008202099737533
147
0.0
147
0.0
147
0.0
147
0.0
147
0.0008202099737533
147
0.0
147
0.0
147
0.0
147
0.0
147
1.0
147
0.0
147
0.0
147
0.0
147
0.0
147
1.0
  0
MATERIAL
  5
D5C
102
{ACAD_XDICTIONARY
360
D5D
102
}
102
{ACAD_REACTORS
330
BD
102
}
330
BD
100
AcDbMaterial
  1
Global
 72
     0
 43
0.0008202099737533
 43
0.0
 43
0.0
 43
0.0
 43
0.0
 43
0.0008202099737533
 43
0.0
 43
0.0
 43
0.0
 43
0.0
 43
1.0
 43
0.0
 43
0.0
 43
0.0
 43
0.0
 43
1.0
 77
     0
 47
0.0008202099737533
 47
0.0
 47
0.0
 47
0.0
 47
0.0
 47
0.0008202099737533
 47
0.0
 47
0.0
 47
0.0
 47
0.0
 47
1.0
 47
0.0
 47
0.0
 47
0.0
 47
0.0
 47
1.0
171
     0
 49
0.0008202099737533
 49
0.0
 49
0.0
 49
0.0
 49
0.0
 49
0.0008202099737533
 49
0.0
 49
0.0
 49
0.0
 49
0.0
 49
1.0
 49
0.0
 49
0.0
 49
0.0
 49
0.0
 49
1.0
175
     0
142
0.0008202099737533
142
0.0
142
0.0
142
0.0
142
0.0
142
0.0008202099737533
142
0.0
142
0.0
142
0.0
142
0.0
142
1.0
142
0.0
142
0.0
142
0.0
142
0.0
142
1.0
179
     0
144
0.0008202099737533
144
0.0
144
0.0
144
0.0
144
0.0
144
0.0008202099737533
144
0.0
144
0.0
144
0.0
144
0.0
144
1.0
144
0.0
144
0.0
144
0.0
144
0.0
144
1.0
147
0.0008202099737533
147
0.0
147
0.0
147
0.0
147
0.0
147
0.0008202099737533
147
0.0
147
0.0
147
0.0
147
0.0
147
1.0
147
0.0
147
0.0
147
0.0
147
0.0
147
1.0
  0
MLEADERSTYLE
  5
D8A
102
{ACAD_REACTORS
330
D89
102
}
330
D89
100
AcDbMLeaderStyle
170
     2
171
     1
172
     0
 90
        2
 40
0.0
 41
0.0
173
     1
 91
-1056964608
340
14
 92
       -2
290
     1
 42
2.0
291
     1
 43
0.36
  3
Standard
 44
4.0
300

342
11
174
     1
178
     6
175
     1
176
     0
 93
-1056964608
 45
4.0
292
     0
297
     0
 46
4.0
 94
-1056964608
 47
1.0
 49
1.0
140
1.0
293
     1
141
0.0
294
     1
177
     0
142
1.0
295
     0
296
     0
143
0.125
1001
ACAD_MLEADERVER
1070
     2
  0
MLINESTYLE
  5
18
102
{ACAD_REACTORS
330
17
102
}
330
17
100
AcDbMlineStyle
  2
STANDARD
 70
     0
  3

 62
   256
 51
90.0
 52
90.0
 71
     2
 49
0.5
 62
   256
  6
BYLAYER
 49
-0.5
 62
   256
  6
BYLAYER
  0
ACDBPLACEHOLDER
  5
F
102
{ACAD_REACTORS
330
E
102
}
330
E
  0
SCALE
  5
D78
102
{ACAD_REACTORS
330
D77
102
}
330
D77
100
AcDbScale
 70
     0
300
1:1
140
1.0
141
1.0
290
     1
  0
SCALE
  5
D79
102
{ACAD_REACTORS
330
D77
102
}
330
D77
100
AcDbScale
 70
     0
300
1:2
140
1.0
141
2.0
290
     0
  0
SCALE
  5
D7A
102
{ACAD_REACTORS
330
D77
102
}
330
D77
100
AcDbScale
 70
     0
300
1:4
140
1.0
141
4.0
290
     0
  0
SCALE
  5
D7B
102
{ACAD_REACTORS
330
D77
102
}
330
D77
100
AcDbScale
 70
     0
300
1:5
140
1.0
141
5.0
290
     0
  0
SCALE
  5
D7C
102
{ACAD_REACTORS
330
D77
102
}
330
D77
100
AcDbScale
 70
     0
300
1:8
140
1.0
141
8.0
290
     0
  0
SCALE
  5
D7D
102
{ACAD_REACTORS
330
D77
102
}
330
D77
100
AcDbScale
 70
     0
300
1:10
140
1.0
141
10.0
290
     0
  0
SCALE
  5
D7E
102
{ACAD_REACTORS
330
D77
102
}
330
D77
100
AcDbScale
 70
     0
300
1:16
140
1.0
141
16.0
290
     0
  0
SCALE
  5
D7F
102
{ACAD_REACTORS
330
D77
102
}
330
D77
100
AcDbScale
 70
     0
300
1:20
140
1.0
141
20.0
290
     0
  0
SCALE
  5
D80
102
{ACAD_REACTORS
330
D77
102
}
330
D77
100
AcDbScale
 70
     0
300
1:30
140
1.0
141
30.0
290
     0
  0
SCALE
  5
D81
102
{ACAD_REACTORS
330
D77
102
}
330
D77
100
AcDbScale
 70
     0
300
1:40
140
1.0
141
40.0
290
     0
  0
SCALE
  5
D82
102
{ACAD_REACTORS
330
D77
102
}
330
D77
100
AcDbScale
 70
     0
300
1:50
140
1.0
141
50.0
290
     0
  0
SCALE
  5
D83
102
{ACAD_REACTORS
330
D77
102
}
330
D77
100
AcDbScale
 70
     0
300
1:100
140
1.0
141
100.0
290
     0
  0
SCALE
  5
D84
102
{ACAD_REACTORS
330
D77
102
}
330
D77
100
AcDbScale
 70
     0
300
2:1
140
2.0
141
1.0
290
     0
  0
SCALE
  5
D85
102
{ACAD_REACTORS
330
D77
102
}
330
D77
100
AcDbScale
 70
     0
300
4:1
140
4.0
141
1.0
290
     0
  0
SCALE
  5
D86
102
{ACAD_REACTORS
330
D77
102
}
330
D77
100
AcDbScale
 70
     0
300
8:1
140
8.0
141
1.0
290
     0
  0
SCALE
  5
D87
102
{ACAD_REACTORS
330
D77
102
}
330
D77
100
AcDbScale
 70
     0
300
10:1
140
10.0
141
1.0
290
     0
  0
SCALE
  5
D88
102
{ACAD_REACTORS
330
D77
102
}
330
D77
100
AcDbScale
 70
     0
300
100:1
140
100.0
141
1.0
290
     0
  0
TABLESTYLE
  5
D76
102
{ACAD_XDICTIONARY
360
DED
102
}
102
{ACAD_REACTORS
330
D75
102
}
330
D75
100
AcDbTableStyle
  3
Standard
 70
     0
 71
     0
 40
1.5
 41
1.5
280
     0
281
     0
  7
STANDARD
140
4.5
170
     2
 62
     0
 63
     7
283
     0
274
    -2
284
     1
 64
     0
275
    -2
285
     1
 65
     0
276
    -2
286
     1
 66
     0
277
    -2
287
     1
 67
     0
278
    -2
288
     1
 68
     0
279
    -2
289
     1
 69
     0
  7
STANDARD
140
6.0
170
     5
 62
     0
 63
     7
283
     0
274
    -2
284
     1
 64
     0
275
    -2
285
     1
 65
     0
276
    -2
286
     1
 66
     0
277
    -2
287
     1
 67
     0
278
    -2
288
     1
 68
     0
279
    -2
289
     1
 69
     0
  7
STANDARD
140
4.5
170
     5
 62
     0
 63
     7
283
     0
274
    -2
284
     1
 64
     0
275
    -2
285
     1
 65
     0
276
    -2
286
     1
 66
     0
277
    -2
287
     1
 67
     0
278
    -2
288
     1
 68
     0
279
    -2
289
     1
 69
     0
  0
VISUALSTYLE
  5
D6A
102
{ACAD_XDICTIONARY
360
1880
102
}
102
{ACAD_REACTORS
330
D64
102
}
330
D64
100
AcDbVisualStyle
  2
2dWireframe
 70
     4
 71
     0
 72
     2
 73
     0
 90
        0
 40
-0.6
 41
-30.0
 62
     5
 63
     7
 74
     1
 91
        4
 64
     7
 65
   257
 75
     1
175
     1
 42
1.0
 92
        0
 66
   257
 43
1.0
 76
     1
 77
     6
 78
     2
 67
     7
 79
     5
170
     0
171
     0
290
     0
174
     0
 93
        1
 44
0.0
173
     0
291
     0
 45
0.0
1001
ACAD
1000
AcDbSavedByObjectVersion
1070
     0
  0
VISUALSTYLE
  5
D6C
102
{ACAD_XDICTIONARY
360
1884
102
}
102
{ACAD_REACTORS
330
D64
102
}
330
D64
100
AcDbVisualStyle
  2
3D Hidden
 70
     6
 71
     1
 72
     2
 73
     2
 90
        0
 40
-0.6
 41
-30.0
 62
     5
 63
     7
 74
     2
 91
        2
 64
     7
 65
   257
 75
     2
175
     1
 42
40.0
 92
        0
 66
   257
 43
1.0
 76
     1
 77
     6
 78
     2
 67
     7
 79
     3
170
     0
171
     0
290
     0
174
     0
 93
        1
 44
0.0
173
     0
291
     0
 45
0.0
1001
ACAD
1000
AcDbSavedByObjectVersion
1070
     0
  0
VISUALSTYLE
  5
D6B
102
{ACAD_XDICTIONARY
360
1882
102
}
102
{ACAD_REACTORS
330
D64
102
}
330
D64
100
AcDbVisualStyle
  2
3dWireframe
 70
     5
 71
     0
 72
     2
 73
     0
 90
        0
 40
-0.6
 41
-30.0
 62
     5
 63
     7
 74
     1
 91
        4
 64
     7
 65
   257
 75
     1
175
     1
 42
1.0
 92
        0
 66
   257
 43
1.0
 76
     1
 77
     6
 78
     2
 67
     7
 79
     5
170
     0
171
     0
290
     0
174
     0
 93
        1
 44
0.0
173
     0
291
     0
 45
0.0
1001
ACAD
1000
AcDbSavedByObjectVersion
1070
     0
  0
VISUALSTYLE
  5
D69
102
{ACAD_XDICTIONARY
360
187E
102
}
102
{ACAD_REACTORS
330
D64
102
}
330
D64
100
AcDbVisualStyle
  2
Basic
 70
     7
 71
     1
 72
     0
 73
     1
 90
        0
 40
-0.6
 41
-30.0
 62
     5
 63
     7
 74
     0
 91
        4
 64
     7
 65
   257
 75
     1
175
     1
 42
1.0
 92
        8
 66
     7
 43
1.0
 76
     1
 77
     6
 78
     2
 67
     7
 79
     5
170
     0
171
     0
290
     0
174
     0
 93
        1
 44
0.0
173
     0
291
     1
 45
0.0
1001
ACAD
1000
AcDbSavedByObjectVersion
1070
     0
  0
VISUALSTYLE
  5
D70
102
{ACAD_XDICTIONARY
360
188C
102
}
102
{ACAD_REACTORS
330
D64
102
}
330
D64
100
AcDbVisualStyle
  2
Brighten
 70
    12
 71
     2
 72
     2
 73
     0
 90
        0
 40
-0.6
 41
-30.0
 62
     5
 63
     7
 74
     1
 91
        4
 64
     7
 65
   257
 75
     1
175
     1
 42
1.0
 92
        8
 66
     7
 43
1.0
 76
     1
 77
     6
 78
     2
 67
     7
 79
     5
170
     0
171
     0
290
     0
174
     0
 93
        1
 44
50.0
173
     0
291
     1
 45
0.0
1001
ACAD
1000
AcDbSavedByObjectVersion
1070
     0
  0
VISUALSTYLE
  5
D74
102
{ACAD_XDICTIONARY
360
1894
102
}
102
{ACAD_REACTORS
330
D64
102
}
330
D64
100
AcDbVisualStyle
  2
ColorChange
 70
    16
 71
     2
 72
     2
 73
     3
 90
        0
 40
-0.6
 41
-30.0
 62
     5
 63
     8
 74
     1
 91
        4
 64
     7
 65
   257
 75
     1
175
     1
 42
1.0
 92
        8
 66
     8
 43
1.0
 76
     1
 77
     6
 78
     2
 67
     7
 79
     5
170
     0
171
     0
290
     0
174
     0
 93
        1
 44
0.0
173
     0
291
     1
 45
0.0
1001
ACAD
1000
AcDbSavedByObjectVersion
1070
     0
  0
VISUALSTYLE
  5
D6D
102
{ACAD_XDICTIONARY
360
1886
102
}
102
{ACAD_REACTORS
330
D64
102
}
330
D64
100
AcDbVisualStyle
  2
Conceptual
 70
     9
 71
     3
 72
     2
 73
     0
 90
        0
 40
-0.6
 41
-30.0
 62
     5
 63
     7
 74
     2
 91
        2
 64
     7
 65
   257
 75
     1
175
     1
 42
40.0
 92
        8
 66
     7
 43
1.0
 76
     1
 77
     6
 78
     2
 67
     7
 79
     3
170
     0
171
     0
290
     0
174
     0
 93
        1
 44
0.0
173
     0
291
     0
 45
0.0
1001
ACAD
1000
AcDbSavedByObjectVersion
1070
     0
  0
VISUALSTYLE
  5
D6F
102
{ACAD_XDICTIONARY
360
188A
102
}
102
{ACAD_REACTORS
330
D64
102
}
330
D64
100
AcDbVisualStyle
  2
Dim
 70
    11
 71
     2
 72
     2
 73
     0
 90
        0
 40
-0.6
 41
-30.0
 62
     5
 63
     7
 74
     1
 91
        4
 64
     7
 65
   257
 75
     1
175
     1
 42
1.0
 92
        8
 66
     7
 43
1.0
 76
     1
 77
     6
 78
     2
 67
     7
 79
     5
170
     0
171
     0
290
     0
174
     0
 93
        1
 44
-50.0
173
     0
291
     1
 45
0.0
1001
ACAD
1000
AcDbSavedByObjectVersion
1070
     0
  0
VISUALSTYLE
  5
1844
102
{ACAD_XDICTIONARY
360
18A9
102
}
102
{ACAD_REACTORS
330
D64
102
}
330
D64
100
AcDbVisualStyle
  2
EdgeColorOff
 70
    22
 71
     2
 72
     2
 73
     0
 90
        0
 40
-0.6
 41
-30.0
 62
     5
 63
     7
 74
     1
 91
        4
 64
     7
 65
   257
 75
     1
175
     1
 42
1.0
 92
        8
 66
     7
 43
1.0
 76
     1
 77
     6
 78
     2
 67
     7
 79
     5
170
     0
171
     0
290
     0
174
     0
 93
        1
 44
0.0
173
     0
291
     1
 45
0.0
1001
ACAD
1000
AcDbSavedByObjectVersion
1070
     0
  0
VISUALSTYLE
  5
D73
102
{ACAD_XDICTIONARY
360
1892
102
}
102
{ACAD_REACTORS
330
D64
102
}
330
D64
100
AcDbVisualStyle
  2
Facepattern
 70
    15
 71
     2
 72
     2
 73
     0
 90
        0
 40
-0.6
 41
-30.0
 62
     5
 63
     7
 74
     1
 91
        4
 64
     7
 65
   257
 75
     1
175
     1
 42
1.0
 92
        8
 66
     7
 43
1.0
 76
     1
 77
     6
 78
     2
 67
     7
 79
     5
170
     0
171
     0
290
     0
174
     0
 93
        1
 44
0.0
173
     0
291
     1
 45
0.0
1001
ACAD
1000
AcDbSavedByObjectVersion
1070
     0
  0
VISUALSTYLE
  5
D65
102
{ACAD_XDICTIONARY
360
1876
102
}
102
{ACAD_REACTORS
330
D64
102
}
330
D64
100
AcDbVisualStyle
  2
Flat
 70
     0
 71
     2
 72
     1
 73
     1
 90
        2
 40
-0.6
 41
30.0
 62
     5
 63
     7
 74
     0
 91
        4
 64
     7
 65
   257
 75
     1
175
     1
 42
1.0
 92
        8
 66
     7
 43
1.0
 76
     1
 77
     6
 78
     2
 67
     7
 79
     5
170
     0
171
     0
290
     0
174
     0
 93
       13
 44
0.0
173
     0
291
     1
 45
0.0
1001
ACAD
1000
AcDbSavedByObjectVersion
1070
     0
  0
VISUALSTYLE
  5
D66
102
{ACAD_XDICTIONARY
360
1878
102
}
102
{ACAD_REACTORS
330
D64
102
}
330
D64
100
AcDbVisualStyle
  2
FlatWithEdges
 70
     1
 71
     2
 72
     1
 73
     1
 90
        2
 40
-0.6
 41
30.0
 62
     5
 63
     7
 74
     1
 91
        4
 64
     7
 65
   257
 75
     1
175
     1
 42
1.0
 92
        0
 66
   257
 43
1.0
 76
     1
 77
     6
 78
     2
 67
     7
 79
     5
170
     0
171
     0
290
     0
174
     0
 93
       13
 44
0.0
173
     0
291
     1
 45
0.0
1001
ACAD
1000
AcDbSavedByObjectVersion
1070
     0
  0
VISUALSTYLE
  5
D67
102
{ACAD_XDICTIONARY
360
187A
102
}
102
{ACAD_REACTORS
330
D64
102
}
330
D64
100
AcDbVisualStyle
  2
Gouraud
 70
     2
 71
     2
 72
     2
 73
     1
 90
        2
 40
-0.6
 41
30.0
 62
     5
 63
     7
 74
     0
 91
        4
 64
     7
 65
   257
 75
     1
175
     1
 42
1.0
 92
        0
 66
     7
 43
1.0
 76
     1
 77
     6
 78
     2
 67
     7
 79
     5
170
     0
171
     0
290
     0
174
     0
 93
       13
 44
0.0
173
     0
291
     1
 45
0.0
1001
ACAD
1000
AcDbSavedByObjectVersion
1070
     0
  0
VISUALSTYLE
  5
D68
102
{ACAD_XDICTIONARY
360
187C
102
}
102
{ACAD_REACTORS
330
D64
102
}
330
D64
100
AcDbVisualStyle
  2
GouraudWithEdges
 70
     3
 71
     2
 72
     2
 73
     1
 90
        2
 40
-0.6
 41
30.0
 62
     5
 63
     7
 74
     1
 91
        4
 64
     7
 65
   257
 75
     1
175
     1
 42
1.0
 92
        0
 66
   257
 43
1.0
 76
     1
 77
     6
 78
     2
 67
     7
 79
     5
170
     0
171
     0
290
     0
174
     0
 93
       13
 44
0.0
173
     0
291
     1
 45
0.0
1001
ACAD
1000
AcDbSavedByObjectVersion
1070
     0
  0
VISUALSTYLE
  5
183C
102
{ACAD_XDICTIONARY
360
1899
102
}
102
{ACAD_REACTORS
330
D64
102
}
330
D64
100
AcDbVisualStyle
  2
Hidden
 70
     6
 71
     1
 72
     2
 73
     2
 90
        0
 40
-0.6
 41
-30.0
 62
     5
 63
     7
 74
     2
 91
        2
 64
     7
 65
   257
 75
     2
175
     1
 42
40.0
 92
        0
 66
   257
 43
1.0
 76
     1
 77
     6
 78
     2
 67
     7
 79
     3
170
     0
171
     0
290
     0
174
     0
 93
        1
 44
0.0
173
     0
291
     0
 45
0.0
1001
ACAD
1000
AcDbSavedByObjectVersion
1070
     0
  0
VISUALSTYLE
  5
1842
102
{ACAD_XDICTIONARY
360
18A5
102
}
102
{ACAD_REACTORS
330
D64
102
}
330
D64
100
AcDbVisualStyle
  2
JitterOff
 70
    20
 71
     2
 72
     2
 73
     0
 90
        0
 40
-0.6
 41
-30.0
 62
     5
 63
     7
 74
     1
 91
        4
 64
     7
 65
   257
 75
     1
175
     1
 42
1.0
 92
       10
 66
     7
 43
1.0
 76
     1
 77
     6
 78
     2
 67
     7
 79
     5
170
     0
171
     0
290
     0
174
     0
 93
        1
 44
0.0
173
     0
291
     1
 45
0.0
1001
ACAD
1000
AcDbSavedByObjectVersion
1070
     0
  0
VISUALSTYLE
  5
D72
102
{ACAD_XDICTIONARY
360
1890
102
}
102
{ACAD_REACTORS
330
D64
102
}
330
D64
100
AcDbVisualStyle
  2
Linepattern
 70
    14
 71
     2
 72
     2
 73
     0
 90
        0
 40
-0.6
 41
-30.0
 62
     5
 63
     7
 74
     1
 91
        4
 64
     7
 65
   257
 75
     7
175
     7
 42
1.0
 92
        8
 66
     7
 43
1.0
 76
     1
 77
     6
 78
     2
 67
     7
 79
     5
170
     0
171
     0
290
     0
174
     0
 93
        1
 44
0.0
173
     0
291
     1
 45
0.0
1001
ACAD
1000
AcDbSavedByObjectVersion
1070
     0
  0
VISUALSTYLE
  5
1843
102
{ACAD_XDICTIONARY
360
18A7
102
}
102
{ACAD_REACTORS
330
D64
102
}
330
D64
100
AcDbVisualStyle
  2
OverhangOff
 70
    21
 71
     2
 72
     2
 73
     0
 90
        0
 40
-0.6
 41
-30.0
 62
     5
 63
     7
 74
     1
 91
        4
 64
     7
 65
   257
 75
     1
175
     1
 42
1.0
 92
        9
 66
     7
 43
1.0
 76
     1
 77
     6
 78
     2
 67
     7
 79
     5
170
     0
171
     0
290
     0
174
     0
 93
        1
 44
0.0
173
     0
291
     1
 45
0.0
1001
ACAD
1000
AcDbSavedByObjectVersion
1070
     0
  0
VISUALSTYLE
  5
D6E
102
{ACAD_XDICTIONARY
360
1888
102
}
102
{ACAD_REACTORS
330
D64
102
}
330
D64
100
AcDbVisualStyle
  2
Realistic
 70
     8
 71
     2
 72
     2
 73
     0
 90
        0
 40
-0.6
 41
-30.0
 62
     5
 63
     7
 74
     1
 91
        0
 64
     7
 65
   257
 75
     1
175
     1
 42
1.0
 92
        8
 66
     8
 43
1.0
 76
     1
 77
     6
 78
     2
 67
     7
 79
     5
170
     0
171
     0
290
     0
174
     0
 93
       13
 44
0.0
173
     0
291
     0
 45
0.0
1001
ACAD
1000
AcDbSavedByObjectVersion
1070
     0
  0
VISUALSTYLE
  5
1841
102
{ACAD_XDICTIONARY
360
18A3
102
}
102
{ACAD_REACTORS
330
D64
102
}
330
D64
100
AcDbVisualStyle
  2
Shaded
 70
    27
 71
     2
 72
     2
 73
     1
 90
        2
 40
-0.6
 41
30.0
 62
     5
 63
     7
 74
     0
 91
        4
 64
     7
 65
   257
 75
     1
175
     1
 42
1.0
 92
        8
 66
   257
 43
1.0
 76
     1
 77
     6
 78
     2
 67
     8
 79
     3
170
     0
171
     0
290
     0
174
     0
 93
        5
 44
0.0
173
     0
291
     0
 45
0.0
1001
ACAD
1000
AcDbSavedByObjectVersion
1070
     0
  0
VISUALSTYLE
  5
1840
102
{ACAD_XDICTIONARY
360
18A1
102
}
102
{ACAD_REACTORS
330
D64
102
}
330
D64
100
AcDbVisualStyle
  2
Shaded with edges
 70
    26
 71
     2
 72
     2
 73
     1
 90
        2
 40
-0.6
 41
30.0
 62
     5
 63
     7
 74
     1
 91
       10
 64
     7
 65
   257
 75
     2
175
     1
 42
1.0
 92
        8
 66
   257
 43
1.0
 76
     1
 77
     6
 78
     2
 67
     7
 79
     3
170
     0
171
     0
290
     0
174
     0
 93
        5
 44
0.0
173
     0
291
     0
 45
0.0
1001
ACAD
1000
AcDbSavedByObjectVersion
1070
     0
  0
VISUALSTYLE
  5
183D
102
{ACAD_XDICTIONARY
360
189B
102
}
102
{ACAD_REACTORS
330
D64
102
}
330
D64
100
AcDbVisualStyle
  2
Shades of Gray
 70
    23
 71
     2
 72
     2
 73
     3
 90
        0
 40
-0.6
 41
-30.0
 62
     5
 63
     7
 74
     2
 91
        2
 64
     7
 65
     7
 75
     1
175
     1
 42
40.0
 92
        8
 66
     7
 43
1.0
 76
     1
 77
     6
 78
     2
 67
     7
 79
     3
170
     0
171
     0
290
     0
174
     0
 93
        1
 44
0.0
173
     0
291
     0
 45
0.0
1001
ACAD
1000
AcDbSavedByObjectVersion
1070
     0
  0
VISUALSTYLE
  5
183E
102
{ACAD_XDICTIONARY
360
189D
102
}
102
{ACAD_REACTORS
330
D64
102
}
330
D64
100
AcDbVisualStyle
  2
Sketchy
 70
    24
 71
     1
 72
     2
 73
     2
 90
        0
 40
-0.6
 41
-30.0
 62
     5
 63
     7
 74
     2
 91
        2
 64
     7
 65
     7
 75
     1
175
     1
 42
40.0
 92
       11
 66
     7
 43
1.0
 76
     1
 77
     6
 78
     2
 67
     7
 79
     6
170
     0
171
     0
290
     0
174
     0
 93
        1
 44
0.0
173
     0
291
     0
 45
0.0
1001
ACAD
1000
AcDbSavedByObjectVersion
1070
     0
  0
VISUALSTYLE
  5
D71
102
{ACAD_XDICTIONARY
360
188E
102
}
102
{ACAD_REACTORS
330
D64
102
}
330
D64
100
AcDbVisualStyle
  2
Thicken
 70
    13
 71
     2
 72
     2
 73
     0
 90
        0
 40
-0.6
 41
-30.0
 62
     5
 63
     7
 74
     1
 91
        4
 64
     7
 65
   257
 75
     1
175
     1
 42
1.0
 92
       12
 66
     7
 43
1.0
 76
     1
 77
     6
 78
     2
 67
     7
 79
     5
170
     0
171
     0
290
     0
174
     0
 93
        1
 44
0.0
173
     0
291
     1
 45
0.0
1001
ACAD
1000
AcDbSavedByObjectVersion
1070
     0
  0
VISUALSTYLE
  5
183B
102
{ACAD_XDICTIONARY
360
1897
102
}
102
{ACAD_REACTORS
330
D64
102
}
330
D64
100
AcDbVisualStyle
  2
Wireframe
 70
     5
 71
     0
 72
     2
 73
     0
 90
        0
 40
-0.6
 41
-30.0
 62
     5
 63
     7
 74
     1
 91
        4
 64
     7
 65
   257
 75
     1
175
     1
 42
1.0
 92
        0
 66
   257
 43
1.0
 76
     1
 77
     6
 78
     2
 67
     7
 79
     3
170
     0
171
     0
290
     0
174
     0
 93
        1
 44
0.0
173
     0
291
     0
 45
0.0
1001
ACAD
1000
AcDbSavedByObjectVersion
1070
     0
  0
VISUALSTYLE
  5
183F
102
{ACAD_XDICTIONARY
360
189F
102
}
102
{ACAD_REACTORS
330
D64
102
}
330
D64
100
AcDbVisualStyle
  2
X-Ray
 70
    25
 71
     2
 72
     2
 73
     1
 90
        1
 40
0.5
 41
-30.0
 62
     5
 63
     7
 74
     1
 91
        0
 64
     7
 65
   257
 75
     1
175
     1
 42
1.0
 92
        8
 66
     7
 43
1.0
 76
     1
 77
     6
 78
     2
 67
     7
 79
     3
170
     0
171
     0
290
     0
174
     0
 93
       13
 44
0.0
173
     0
291
     0
 45
0.0
1001
ACAD
1000
AcDbSavedByObjectVersion
1070
     0
  0
DICTIONARYVAR
  5
E0B
102
{ACAD_REACTORS
330
94
102
}
330
94
100
DictionaryVariables
280
     0
  1
1:1
  0
DICTIONARYVAR
  5
E0A
102
{ACAD_REACTORS
330
94
102
}
330
94
100
DictionaryVariables
280
     0
  1
STANDARD
  0
DICTIONARYVAR
  5
E09
102
{ACAD_REACTORS
330
94
102
}
330
94
100
DictionaryVariables
280
     0
  1
STANDARD
  0
DICTIONARYVAR
  5
96
102
{ACAD_REACTORS
330
94
102
}
330
94
100
DictionaryVariables
280
     0
  1
2
  0
DICTIONARYVAR
  5
95
102
{ACAD_REACTORS
330
94
102
}
330
94
100
DictionaryVariables
280
     0
  1
0
  0
DICTIONARYVAR
  5
1862
102
{ACAD_REACTORS
330
94
102
}
330
94
100
DictionaryVariables
280
     0
  1
127
  0
DICTIONARYVAR
  5
1863
102
{ACAD_REACTORS
330
94
102
}
330
94
100
DictionaryVariables
280
     0
  1
0
  0
DICTIONARY
  5
61
102
{ACAD_REACTORS
330
5B
102
}
330
5B
100
AcDbDictionary
281
     1
  0
XRECORD
  5
DAB
102
{ACAD_REACTORS
330
5B
102
}
330
5B
100
AcDbXrecord
280
     1
 90
-1023410169
  0
XRECORD
  5
35F
102
{ACAD_REACTORS
330
35E
102
}
330
35E
100
AcDbXrecord
280
     1
 91
       16
330
1E1
 90
        0
 62
     7
370
    -3
331
16
  1
色_7
330
10
 90
        8
 62
     7
370
    -3
331
16
  1
色_7
  0
DICTIONARY
  5
1869
330
22
100
AcDbDictionary
280
     1
281
     1
  3
ACAD_XREC_ROUNDTRIP
360
186A
  0
DICTIONARY
  5
1867
330
1E
100
AcDbDictionary
280
     1
281
     1
  3
ACAD_XREC_ROUNDTRIP
360
1868
  0
DICTIONARY
  5
186B
330
26
100
AcDbDictionary
280
     1
281
     1
  3
ACAD_XREC_ROUNDTRIP
360
186C
  0
DICTIONARY
  5
D55
330
D54
100
AcDbDictionary
280
     1
281
     1
  3
ACAD_XREC_ROUNDTRIP
360
1874
  3
BUMPTILE
360
D57
  3
DIFFUSETILE
360
D56
  3
OPACITYTILE
360
D5A
  3
REFLECTIONTILE
360
D59
  3
REFRACTIONTILE
360
D5B
  3
SPECULARTILE
360
D58
  0
DICTIONARY
  5
D4D
330
D4C
100
AcDbDictionary
280
     1
281
     1
  3
ACAD_XREC_ROUNDTRIP
360
1873
  3
BUMPTILE
360
D4F
  3
DIFFUSETILE
360
D4E
  3
OPACITYTILE
360
D52
  3
REFLECTIONTILE
360
D51
  3
REFRACTIONTILE
360
D53
  3
SPECULARTILE
360
D50
  0
DICTIONARY
  5
D5D
330
D5C
100
AcDbDictionary
280
     1
281
     1
  3
ACAD_XREC_ROUNDTRIP
360
1875
  3
BUMPTILE
360
D5F
  3
DIFFUSETILE
360
D5E
  3
OPACITYTILE
360
D62
  3
REFLECTIONTILE
360
D61
  3
REFRACTIONTILE
360
D63
  3
SPECULARTILE
360
D60
  0
DICTIONARY
  5
DED
330
D76
100
AcDbDictionary
280
     1
281
     1
  3
ACAD_ROUNDTRIP_2008_TABLESTYLE_CELLSTYLEMAP
360
1864
  3
ACAD_XREC_ROUNDTRIP
360
1896
  0
DICTIONARY
  5
1880
330
D6A
100
AcDbDictionary
280
     1
281
     1
  3
ACAD_XREC_ROUNDTRIP
360
1881
  0
DICTIONARY
  5
1884
330
D6C
100
AcDbDictionary
280
     1
281
     1
  3
ACAD_XREC_ROUNDTRIP
360
1885
  0
DICTIONARY
  5
1882
330
D6B
100
AcDbDictionary
280
     1
281
     1
  3
ACAD_XREC_ROUNDTRIP
360
1883
  0
DICTIONARY
  5
187E
330
D69
100
AcDbDictionary
280
     1
281
     1
  3
ACAD_XREC_ROUNDTRIP
360
187F
  0
DICTIONARY
  5
188C
330
D70
100
AcDbDictionary
280
     1
281
     1
  3
ACAD_XREC_ROUNDTRIP
360
188D
  0
DICTIONARY
  5
1894
330
D74
100
AcDbDictionary
280
     1
281
     1
  3
ACAD_XREC_ROUNDTRIP
360
1895
  0
DICTIONARY
  5
1886
330
D6D
100
AcDbDictionary
280
     1
281
     1
  3
ACAD_XREC_ROUNDTRIP
360
1887
  0
DICTIONARY
  5
188A
330
D6F
100
AcDbDictionary
280
     1
281
     1
  3
ACAD_XREC_ROUNDTRIP
360
188B
  0
DICTIONARY
  5
18A9
330
1844
100
AcDbDictionary
280
     1
281
     1
  3
ACAD_XREC_ROUNDTRIP
360
18AA
  0
DICTIONARY
  5
1892
330
D73
100
AcDbDictionary
280
     1
281
     1
  3
ACAD_XREC_ROUNDTRIP
360
1893
  0
DICTIONARY
  5
1876
330
D65
100
AcDbDictionary
280
     1
281
     1
  3
ACAD_XREC_ROUNDTRIP
360
1877
  0
DICTIONARY
  5
1878
330
D66
100
AcDbDictionary
280
     1
281
     1
  3
ACAD_XREC_ROUNDTRIP
360
1879
  0
DICTIONARY
  5
187A
330
D67
100
AcDbDictionary
280
     1
281
     1
  3
ACAD_XREC_ROUNDTRIP
360
187B
  0
DICTIONARY
  5
187C
330
D68
100
AcDbDictionary
280
     1
281
     1
  3
ACAD_XREC_ROUNDTRIP
360
187D
  0
DICTIONARY
  5
1899
330
183C
100
AcDbDictionary
280
     1
281
     1
  3
ACAD_XREC_ROUNDTRIP
360
189A
  0
DICTIONARY
  5
18A5
330
1842
100
AcDbDictionary
280
     1
281
     1
  3
ACAD_XREC_ROUNDTRIP
360
18A6
  0
DICTIONARY
  5
1890
330
D72
100
AcDbDictionary
280
     1
281
     1
  3
ACAD_XREC_ROUNDTRIP
360
1891
  0
DICTIONARY
  5
18A7
330
1843
100
AcDbDictionary
280
     1
281
     1
  3
ACAD_XREC_ROUNDTRIP
360
18A8
  0
DICTIONARY
  5
1888
330
D6E
100
AcDbDictionary
280
     1
281
     1
  3
ACAD_XREC_ROUNDTRIP
360
1889
  0
DICTIONARY
  5
18A3
330
1841
100
AcDbDictionary
280
     1
281
     1
  3
ACAD_XREC_ROUNDTRIP
360
18A4
  0
DICTIONARY
  5
18A1
330
1840
100
AcDbDictionary
280
     1
281
     1
  3
ACAD_XREC_ROUNDTRIP
360
18A2
  0
DICTIONARY
  5
189B
330
183D
100
AcDbDictionary
280
     1
281
     1
  3
ACAD_XREC_ROUNDTRIP
360
189C
  0
DICTIONARY
  5
189D
330
183E
100
AcDbDictionary
280
     1
281
     1
  3
ACAD_XREC_ROUNDTRIP
360
189E
  0
DICTIONARY
  5
188E
330
D71
100
AcDbDictionary
280
     1
281
     1
  3
ACAD_XREC_ROUNDTRIP
360
188F
  0
DICTIONARY
  5
1897
330
183B
100
AcDbDictionary
280
     1
281
     1
  3
ACAD_XREC_ROUNDTRIP
360
1898
  0
DICTIONARY
  5
189F
330
183F
100
AcDbDictionary
280
     1
281
     1
  3
ACAD_XREC_ROUNDTRIP
360
18A0
  0
XRECORD
  5
186A
102
{ACAD_REACTORS
330
1869
102
}
330
1869
100
AcDbXrecord
280
     1
102
SHADEPLOT
 70
     0
102
SHADEPLOTRESLEVEL
 70
     2
102
SHADEPLOTCUSTOMDPI
 70
   300
  0
XRECORD
  5
1868
102
{ACAD_REACTORS
330
1867
102
}
330
1867
100
AcDbXrecord
280
     1
102
SHADEPLOT
 70
     1
102
SHADEPLOTRESLEVEL
 70
     2
102
SHADEPLOTCUSTOMDPI
 70
   300
  0
XRECORD
  5
186C
102
{ACAD_REACTORS
330
186B
102
}
330
186B
100
AcDbXrecord
280
     1
102
SHADEPLOT
 70
     1
102
SHADEPLOTRESLEVEL
 70
     2
102
SHADEPLOTCUSTOMDPI
 70
   300
  0
XRECORD
  5
1874
102
{ACAD_REACTORS
330
D55
102
}
330
D55
100
AcDbXrecord
280
     1
102
MATERIAL
148
0.0
149
0.0
149
0.0
 93
        0
 94
      127
282
     0
 72
     0
 77
     0
171
     0
175
     0
179
     0
273
     0
  0
XRECORD
  5
D57
102
{ACAD_REACTORS
330
D55
102
}
330
D55
100
AcDbXrecord
280
     1
270
     1
271
     1
  0
XRECORD
  5
D56
102
{ACAD_REACTORS
330
D55
102
}
330
D55
100
AcDbXrecord
280
     1
270
     1
271
     1
  0
XRECORD
  5
D5A
102
{ACAD_REACTORS
330
D55
102
}
330
D55
100
AcDbXrecord
280
     1
270
     1
271
     1
  0
XRECORD
  5
D59
102
{ACAD_REACTORS
330
D55
102
}
330
D55
100
AcDbXrecord
280
     1
270
     1
271
     1
  0
XRECORD
  5
D5B
102
{ACAD_REACTORS
330
D55
102
}
330
D55
100
AcDbXrecord
280
     1
270
     1
271
     1
  0
XRECORD
  5
D58
102
{ACAD_REACTORS
330
D55
102
}
330
D55
100
AcDbXrecord
280
     1
270
     1
271
     1
  0
XRECORD
  5
1873
102
{ACAD_REACTORS
330
D4D
102
}
330
D4D
100
AcDbXrecord
280
     1
102
MATERIAL
148
0.0
149
0.0
149
0.0
 93
        0
 94
      127
282
     0
 72
     0
 77
     0
171
     0
175
     0
179
     0
273
     0
  0
XRECORD
  5
D4F
102
{ACAD_REACTORS
330
D4D
102
}
330
D4D
100
AcDbXrecord
280
     1
270
     1
271
     1
  0
XRECORD
  5
D4E
102
{ACAD_REACTORS
330
D4D
102
}
330
D4D
100
AcDbXrecord
280
     1
270
     1
271
     1
  0
XRECORD
  5
D52
102
{ACAD_REACTORS
330
D4D
102
}
330
D4D
100
AcDbXrecord
280
     1
270
     1
271
     1
  0
XRECORD
  5
D51
102
{ACAD_REACTORS
330
D4D
102
}
330
D4D
100
AcDbXrecord
280
     1
270
     1
271
     1
  0
XRECORD
  5
D53
102
{ACAD_REACTORS
330
D4D
102
}
330
D4D
100
AcDbXrecord
280
     1
270
     1
271
     1
  0
XRECORD
  5
D50
102
{ACAD_REACTORS
330
D4D
102
}
330
D4D
100
AcDbXrecord
280
     1
270
     1
271
     1
  0
XRECORD
  5
1875
102
{ACAD_REACTORS
330
D5D
102
}
330
D5D
100
AcDbXrecord
280
     1
102
MATERIAL
148
0.0
149
0.0
149
0.0
 93
        0
 94
      127
282
     0
 72
     0
 77
     0
171
     0
175
     0
179
     0
273
     0
  0
XRECORD
  5
D5F
102
{ACAD_REACTORS
330
D5D
102
}
330
D5D
100
AcDbXrecord
280
     1
270
     1
271
     1
  0
XRECORD
  5
D5E
102
{ACAD_REACTORS
330
D5D
102
}
330
D5D
100
AcDbXrecord
280
     1
270
     1
271
     1
  0
XRECORD
  5
D62
102
{ACAD_REACTORS
330
D5D
102
}
330
D5D
100
AcDbXrecord
280
     1
270
     1
271
     1
  0
XRECORD
  5
D61
102
{ACAD_REACTORS
330
D5D
102
}
330
D5D
100
AcDbXrecord
280
     1
270
     1
271
     1
  0
XRECORD
  5
D63
102
{ACAD_REACTORS
330
D5D
102
}
330
D5D
100
AcDbXrecord
280
     1
270
     1
271
     1
  0
XRECORD
  5
D60
102
{ACAD_REACTORS
330
D5D
102
}
330
D5D
100
AcDbXrecord
280
     1
270
     1
271
     1
  0
CELLSTYLEMAP
  5
1864
102
{ACAD_REACTORS
330
DED
102
}
330
DED
100
AcDbCellStyleMap
 90
        3
300
CELLSTYLE
  1
TABLEFORMAT_BEGIN
 90
        5
170
     1
 91
        0
 92
    32768
 62
   257
 93
        1
300
CONTENTFORMAT
  1
CONTENTFORMAT_BEGIN
 90
        0
 91
        0
 92
      512
 93
        0
300

 40
0.0
140
1.0
 94
        5
 62
     0
340
11
144
6.0
309
CONTENTFORMAT_END
171
     1
301
MARGIN
  1
CELLMARGIN_BEGIN
 40
1.5
 40
1.5
 40
1.5
 40
1.5
 40
0.18
 40
0.18
309
CELLMARGIN_END
 94
        6
 95
        1
302
GRIDFORMAT
  1
GRIDFORMAT_BEGIN
 90
        0
 91
        1
 62
     0
 92
       -2
340
0
 93
        0
 40
1.125
309
GRIDFORMAT_END
 95
        2
302
GRIDFORMAT
  1
GRIDFORMAT_BEGIN
 90
        0
 91
        1
 62
     0
 92
       -2
340
0
 93
        0
 40
1.125
309
GRIDFORMAT_END
 95
        4
302
GRIDFORMAT
  1
GRIDFORMAT_BEGIN
 90
        0
 91
        1
 62
     0
 92
       -2
340
0
 93
        0
 40
1.125
309
GRIDFORMAT_END
 95
        8
302
GRIDFORMAT
  1
GRIDFORMAT_BEGIN
 90
        0
 91
        1
 62
     0
 92
       -2
340
0
 93
        0
 40
1.125
309
GRIDFORMAT_END
 95
       16
302
GRIDFORMAT
  1
GRIDFORMAT_BEGIN
 90
        0
 91
        1
 62
     0
 92
       -2
340
0
 93
        0
 40
1.125
309
GRIDFORMAT_END
 95
       32
302
GRIDFORMAT
  1
GRIDFORMAT_BEGIN
 90
        0
 91
        1
 62
     0
 92
       -2
340
0
 93
        0
 40
1.125
309
GRIDFORMAT_END
309
TABLEFORMAT_END
  1
CELLSTYLE_BEGIN
 90
        1
 91
        1
300
_TITLE
309
CELLSTYLE_END
300
CELLSTYLE
  1
TABLEFORMAT_BEGIN
 90
        5
170
     1
 91
        0
 92
        0
 62
   257
 93
        1
300
CONTENTFORMAT
  1
CONTENTFORMAT_BEGIN
 90
        0
 91
        0
 92
      512
 93
        0
300

 40
0.0
140
1.0
 94
        5
 62
     0
340
11
144
4.5
309
CONTENTFORMAT_END
171
     1
301
MARGIN
  1
CELLMARGIN_BEGIN
 40
1.5
 40
1.5
 40
1.5
 40
1.5
 40
0.18
 40
0.18
309
CELLMARGIN_END
 94
        6
 95
        1
302
GRIDFORMAT
  1
GRIDFORMAT_BEGIN
 90
        0
 91
        1
 62
     0
 92
       -2
340
0
 93
        0
 40
1.125
309
GRIDFORMAT_END
 95
        2
302
GRIDFORMAT
  1
GRIDFORMAT_BEGIN
 90
        0
 91
        1
 62
     0
 92
       -2
340
0
 93
        0
 40
1.125
309
GRIDFORMAT_END
 95
        4
302
GRIDFORMAT
  1
GRIDFORMAT_BEGIN
 90
        0
 91
        1
 62
     0
 92
       -2
340
0
 93
        0
 40
1.125
309
GRIDFORMAT_END
 95
        8
302
GRIDFORMAT
  1
GRIDFORMAT_BEGIN
 90
        0
 91
        1
 62
     0
 92
       -2
340
0
 93
        0
 40
1.125
309
GRIDFORMAT_END
 95
       16
302
GRIDFORMAT
  1
GRIDFORMAT_BEGIN
 90
        0
 91
        1
 62
     0
 92
       -2
340
0
 93
        0
 40
1.125
309
GRIDFORMAT_END
 95
       32
302
GRIDFORMAT
  1
GRIDFORMAT_BEGIN
 90
        0
 91
        1
 62
     0
 92
       -2
340
0
 93
        0
 40
1.125
309
GRIDFORMAT_END
309
TABLEFORMAT_END
  1
CELLSTYLE_BEGIN
 90
        2
 91
        1
300
_HEADER
309
CELLSTYLE_END
300
CELLSTYLE
  1
TABLEFORMAT_BEGIN
 90
        5
170
     1
 91
        0
 92
        0
 62
   257
 93
        1
300
CONTENTFORMAT
  1
CONTENTFORMAT_BEGIN
 90
        0
 91
        0
 92
      512
 93
        0
300

 40
0.0
140
1.0
 94
        2
 62
     0
340
11
144
4.5
309
CONTENTFORMAT_END
171
     1
301
MARGIN
  1
CELLMARGIN_BEGIN
 40
1.5
 40
1.5
 40
1.5
 40
1.5
 40
0.18
 40
0.18
309
CELLMARGIN_END
 94
        6
 95
        1
302
GRIDFORMAT
  1
GRIDFORMAT_BEGIN
 90
        0
 91
        1
 62
     0
 92
       -2
340
0
 93
        0
 40
1.125
309
GRIDFORMAT_END
 95
        2
302
GRIDFORMAT
  1
GRIDFORMAT_BEGIN
 90
        0
 91
        1
 62
     0
 92
       -2
340
0
 93
        0
 40
1.125
309
GRIDFORMAT_END
 95
        4
302
GRIDFORMAT
  1
GRIDFORMAT_BEGIN
 90
        0
 91
        1
 62
     0
 92
       -2
340
0
 93
        0
 40
1.125
309
GRIDFORMAT_END
 95
        8
302
GRIDFORMAT
  1
GRIDFORMAT_BEGIN
 90
        0
 91
        1
 62
     0
 92
       -2
340
0
 93
        0
 40
1.125
309
GRIDFORMAT_END
 95
       16
302
GRIDFORMAT
  1
GRIDFORMAT_BEGIN
 90
        0
 91
        1
 62
     0
 92
       -2
340
0
 93
        0
 40
1.125
309
GRIDFORMAT_END
 95
       32
302
GRIDFORMAT
  1
GRIDFORMAT_BEGIN
 90
        0
 91
        1
 62
     0
 92
       -2
340
0
 93
        0
 40
1.125
309
GRIDFORMAT_END
309
TABLEFORMAT_END
  1
CELLSTYLE_BEGIN
 90
        3
 91
        2
300
_DATA
309
CELLSTYLE_END
  0
XRECORD
  5
1896
102
{ACAD_REACTORS
330
DED
102
}
330
DED
100
AcDbXrecord
280
     1
102
ACAD_ROUNDTRIP_PRE2007_TABLESTYLE
 90
      512
 91
        0
  1

 92
      512
 93
        0
  2

 94
      512
 95
        0
  3

  0
XRECORD
  5
1881
102
{ACAD_REACTORS
330
1880
102
}
330
1880
100
AcDbXrecord
280
     1
102
RTVSPropertyOp0
 70
     1
102
RTVSPropertyOp1
 70
     1
102
RTVSPropertyOp2
 70
     1
102
RTVSPropertyOp3
 70
     1
102
RTVSPropertyOp4
 70
     1
102
RTVSPropertyOp5
 70
     1
102
RTVSPropertyOp6
 70
     1
102
RTVSPropertyOp7
 70
     1
102
RTVSPropertyOp8
 70
     1
102
RTVSPropertyOp9
 70
     1
102
RTVSPropertyOp10
 70
     1
102
RTVSPropertyOp11
 70
     1
102
RTVSPropertyOp12
 70
     1
102
RTVSPropertyOp13
 70
     1
102
RTVSPropertyOp14
 70
     1
102
RTVSPropertyOp15
 70
     1
102
RTVSPropertyOp16
 70
     1
102
RTVSPropertyOp17
 70
     1
102
RTVSPropertyOp18
 70
     1
102
RTVSPropertyOp19
 70
     1
102
RTVSPropertyOp20
 70
     1
102
RTVSPropertyOp21
 70
     1
102
RTVSPropertyOp22
 70
     1
102
RTVSPropertyOp23
 70
     1
102
RTVSPropertyOp24
 70
     1
102
RTVSPropertyOp25
 70
     1
102
RTVSPropertyOp26
 70
     1
102
RTVSPropertyOp27
 70
     1
102
RTVSPropertyOp28
 70
     1
102
RTVSPropertyOp29
 70
     1
102
RTVSPropertyOp30
 70
     1
102
RTVSPropertyOp31
 70
     1
102
RTVSPropertyOp32
 70
     1
  0
XRECORD
  5
1885
102
{ACAD_REACTORS
330
1884
102
}
330
1884
100
AcDbXrecord
280
     1
102
RTVSPropertyOp0
 70
     1
102
RTVSPropertyOp1
 70
     1
102
RTVSPropertyOp2
 70
     1
102
RTVSPropertyOp3
 70
     1
102
RTVSPropertyOp4
 70
     1
102
RTVSPropertyOp5
 70
     1
102
RTVSPropertyOp6
 70
     1
102
RTVSPropertyOp7
 70
     1
102
RTVSPropertyOp8
 70
     1
102
RTVSPropertyOp9
 70
     1
102
RTVSPropertyOp10
 70
     1
102
RTVSPropertyOp11
 70
     1
102
RTVSPropertyOp12
 70
     1
102
RTVSPropertyOp13
 70
     1
102
RTVSPropertyOp14
 70
     1
102
RTVSPropertyOp15
 70
     1
102
RTVSPropertyOp16
 70
     1
102
RTVSPropertyOp17
 70
     1
102
RTVSPropertyOp18
 70
     1
102
RTVSPropertyOp19
 70
     1
102
RTVSPropertyOp20
 70
     1
102
RTVSPropertyOp21
 70
     1
102
RTVSPropertyOp22
 70
     1
102
RTVSPropertyOp23
 70
     1
102
RTVSPropertyOp24
 70
     1
102
RTVSPropertyOp25
 70
     1
102
RTVSPropertyOp26
 70
     1
102
RTVSPropertyOp27
 70
     1
102
RTVSPropertyOp28
 70
     1
102
RTVSPropertyOp29
 70
     1
102
RTVSPropertyOp30
 70
     1
102
RTVSPropertyOp31
 70
     1
102
RTVSPropertyOp32
 70
     1
  0
XRECORD
  5
1883
102
{ACAD_REACTORS
330
1882
102
}
330
1882
100
AcDbXrecord
280
     1
102
RTVSPropertyOp0
 70
     1
102
RTVSPropertyOp1
 70
     1
102
RTVSPropertyOp2
 70
     1
102
RTVSPropertyOp3
 70
     1
102
RTVSPropertyOp4
 70
     1
102
RTVSPropertyOp5
 70
     1
102
RTVSPropertyOp6
 70
     1
102
RTVSPropertyOp7
 70
     1
102
RTVSPropertyOp8
 70
     1
102
RTVSPropertyOp9
 70
     1
102
RTVSPropertyOp10
 70
     1
102
RTVSPropertyOp11
 70
     1
102
RTVSPropertyOp12
 70
     1
102
RTVSPropertyOp13
 70
     1
102
RTVSPropertyOp14
 70
     1
102
RTVSPropertyOp15
 70
     1
102
RTVSPropertyOp16
 70
     1
102
RTVSPropertyOp17
 70
     1
102
RTVSPropertyOp18
 70
     1
102
RTVSPropertyOp19
 70
     1
102
RTVSPropertyOp20
 70
     1
102
RTVSPropertyOp21
 70
     1
102
RTVSPropertyOp22
 70
     1
102
RTVSPropertyOp23
 70
     1
102
RTVSPropertyOp24
 70
     1
102
RTVSPropertyOp25
 70
     1
102
RTVSPropertyOp26
 70
     1
102
RTVSPropertyOp27
 70
     1
102
RTVSPropertyOp28
 70
     1
102
RTVSPropertyOp29
 70
     1
102
RTVSPropertyOp30
 70
     1
102
RTVSPropertyOp31
 70
     1
102
RTVSPropertyOp32
 70
     1
  0
XRECORD
  5
187F
102
{ACAD_REACTORS
330
187E
102
}
330
187E
100
AcDbXrecord
280
     1
102
RTVSPropertyOp0
 70
     1
102
RTVSPropertyOp1
 70
     1
102
RTVSPropertyOp2
 70
     1
102
RTVSPropertyOp3
 70
     1
102
RTVSPropertyOp4
 70
     1
102
RTVSPropertyOp5
 70
     1
102
RTVSPropertyOp6
 70
     1
102
RTVSPropertyOp7
 70
     1
102
RTVSPropertyOp8
 70
     1
102
RTVSPropertyOp9
 70
     1
102
RTVSPropertyOp10
 70
     1
102
RTVSPropertyOp11
 70
     1
102
RTVSPropertyOp12
 70
     1
102
RTVSPropertyOp13
 70
     1
102
RTVSPropertyOp14
 70
     1
102
RTVSPropertyOp15
 70
     1
102
RTVSPropertyOp16
 70
     1
102
RTVSPropertyOp17
 70
     1
102
RTVSPropertyOp18
 70
     1
102
RTVSPropertyOp19
 70
     1
102
RTVSPropertyOp20
 70
     1
102
RTVSPropertyOp21
 70
     1
102
RTVSPropertyOp22
 70
     1
102
RTVSPropertyOp23
 70
     1
102
RTVSPropertyOp24
 70
     1
102
RTVSPropertyOp25
 70
     1
102
RTVSPropertyOp26
 70
     1
102
RTVSPropertyOp27
 70
     1
102
RTVSPropertyOp28
 70
     1
102
RTVSPropertyOp29
 70
     1
102
RTVSPropertyOp30
 70
     1
102
RTVSPropertyOp31
 70
     1
102
RTVSPropertyOp32
 70
     1
  0
XRECORD
  5
188D
102
{ACAD_REACTORS
330
188C
102
}
330
188C
100
AcDbXrecord
280
     1
102
RTVSPropertyOp0
 70
     1
102
RTVSPropertyOp1
 70
     1
102
RTVSPropertyOp2
 70
     1
102
RTVSPropertyOp3
 70
     1
102
RTVSPropertyOp4
 70
     1
102
RTVSPropertyOp5
 70
     1
102
RTVSPropertyOp6
 70
     1
102
RTVSPropertyOp7
 70
     1
102
RTVSPropertyOp8
 70
     1
102
RTVSPropertyOp9
 70
     1
102
RTVSPropertyOp10
 70
     1
102
RTVSPropertyOp11
 70
     1
102
RTVSPropertyOp12
 70
     1
102
RTVSPropertyOp13
 70
     1
102
RTVSPropertyOp14
 70
     1
102
RTVSPropertyOp15
 70
     1
102
RTVSPropertyOp16
 70
     1
102
RTVSPropertyOp17
 70
     1
102
RTVSPropertyOp18
 70
     1
102
RTVSPropertyOp19
 70
     1
102
RTVSPropertyOp20
 70
     1
102
RTVSPropertyOp21
 70
     1
102
RTVSPropertyOp22
 70
     1
102
RTVSPropertyOp23
 70
     1
102
RTVSPropertyOp24
 70
     1
102
RTVSPropertyOp25
 70
     1
102
RTVSPropertyOp26
 70
     1
102
RTVSPropertyOp27
 70
     1
102
RTVSPropertyOp28
 70
     1
102
RTVSPropertyOp29
 70
     1
102
RTVSPropertyOp30
 70
     1
102
RTVSPropertyOp31
 70
     1
102
RTVSPropertyOp32
 70
     1
  0
XRECORD
  5
1895
102
{ACAD_REACTORS
330
1894
102
}
330
1894
100
AcDbXrecord
280
     1
102
RTVSPropertyOp0
 70
     1
102
RTVSPropertyOp1
 70
     1
102
RTVSPropertyOp2
 70
     1
102
RTVSPropertyOp3
 70
     1
102
RTVSPropertyOp4
 70
     1
102
RTVSPropertyOp5
 70
     1
102
RTVSPropertyOp6
 70
     1
102
RTVSPropertyOp7
 70
     1
102
RTVSPropertyOp8
 70
     1
102
RTVSPropertyOp9
 70
     1
102
RTVSPropertyOp10
 70
     1
102
RTVSPropertyOp11
 70
     1
102
RTVSPropertyOp12
 70
     1
102
RTVSPropertyOp13
 70
     1
102
RTVSPropertyOp14
 70
     1
102
RTVSPropertyOp15
 70
     1
102
RTVSPropertyOp16
 70
     1
102
RTVSPropertyOp17
 70
     1
102
RTVSPropertyOp18
 70
     1
102
RTVSPropertyOp19
 70
     1
102
RTVSPropertyOp20
 70
     1
102
RTVSPropertyOp21
 70
     1
102
RTVSPropertyOp22
 70
     1
102
RTVSPropertyOp23
 70
     1
102
RTVSPropertyOp24
 70
     1
102
RTVSPropertyOp25
 70
     1
102
RTVSPropertyOp26
 70
     1
102
RTVSPropertyOp27
 70
     1
102
RTVSPropertyOp28
 70
     1
102
RTVSPropertyOp29
 70
     1
102
RTVSPropertyOp30
 70
     1
102
RTVSPropertyOp31
 70
     1
102
RTVSPropertyOp32
 70
     1
  0
XRECORD
  5
1887
102
{ACAD_REACTORS
330
1886
102
}
330
1886
100
AcDbXrecord
280
     1
102
RTVSPropertyOp0
 70
     1
102
RTVSPropertyOp1
 70
     1
102
RTVSPropertyOp2
 70
     1
102
RTVSPropertyOp3
 70
     1
102
RTVSPropertyOp4
 70
     1
102
RTVSPropertyOp5
 70
     1
102
RTVSPropertyOp6
 70
     1
102
RTVSPropertyOp7
 70
     1
102
RTVSPropertyOp8
 70
     1
102
RTVSPropertyOp9
 70
     1
102
RTVSPropertyOp10
 70
     1
102
RTVSPropertyOp11
 70
     1
102
RTVSPropertyOp12
 70
     1
102
RTVSPropertyOp13
 70
     1
102
RTVSPropertyOp14
 70
     1
102
RTVSPropertyOp15
 70
     1
102
RTVSPropertyOp16
 70
     1
102
RTVSPropertyOp17
 70
     1
102
RTVSPropertyOp18
 70
     1
102
RTVSPropertyOp19
 70
     1
102
RTVSPropertyOp20
 70
     1
102
RTVSPropertyOp21
 70
     1
102
RTVSPropertyOp22
 70
     1
102
RTVSPropertyOp23
 70
     1
102
RTVSPropertyOp24
 70
     1
102
RTVSPropertyOp25
 70
     1
102
RTVSPropertyOp26
 70
     1
102
RTVSPropertyOp27
 70
     1
102
RTVSPropertyOp28
 70
     1
102
RTVSPropertyOp29
 70
     1
102
RTVSPropertyOp30
 70
     1
102
RTVSPropertyOp31
 70
     1
102
RTVSPropertyOp32
 70
     1
  0
XRECORD
  5
188B
102
{ACAD_REACTORS
330
188A
102
}
330
188A
100
AcDbXrecord
280
     1
102
RTVSPropertyOp0
 70
     1
102
RTVSPropertyOp1
 70
     1
102
RTVSPropertyOp2
 70
     1
102
RTVSPropertyOp3
 70
     1
102
RTVSPropertyOp4
 70
     1
102
RTVSPropertyOp5
 70
     1
102
RTVSPropertyOp6
 70
     1
102
RTVSPropertyOp7
 70
     1
102
RTVSPropertyOp8
 70
     1
102
RTVSPropertyOp9
 70
     1
102
RTVSPropertyOp10
 70
     1
102
RTVSPropertyOp11
 70
     1
102
RTVSPropertyOp12
 70
     1
102
RTVSPropertyOp13
 70
     1
102
RTVSPropertyOp14
 70
     1
102
RTVSPropertyOp15
 70
     1
102
RTVSPropertyOp16
 70
     1
102
RTVSPropertyOp17
 70
     1
102
RTVSPropertyOp18
 70
     1
102
RTVSPropertyOp19
 70
     1
102
RTVSPropertyOp20
 70
     1
102
RTVSPropertyOp21
 70
     1
102
RTVSPropertyOp22
 70
     1
102
RTVSPropertyOp23
 70
     1
102
RTVSPropertyOp24
 70
     1
102
RTVSPropertyOp25
 70
     1
102
RTVSPropertyOp26
 70
     1
102
RTVSPropertyOp27
 70
     1
102
RTVSPropertyOp28
 70
     1
102
RTVSPropertyOp29
 70
     1
102
RTVSPropertyOp30
 70
     1
102
RTVSPropertyOp31
 70
     1
102
RTVSPropertyOp32
 70
     1
  0
XRECORD
  5
18AA
102
{ACAD_REACTORS
330
18A9
102
}
330
18A9
100
AcDbXrecord
280
     1
102
RTVSPropertyOp0
 70
     0
102
RTVSPropertyOp1
 70
     0
102
RTVSPropertyOp2
 70
     0
102
RTVSPropertyOp3
 70
     0
102
RTVSPropertyOp4
 70
     0
102
RTVSPropertyOp5
 70
     0
102
RTVSPropertyOp6
 70
     0
102
RTVSPropertyOp7
 70
     0
102
RTVSPropertyOp8
 70
     0
102
RTVSPropertyOp9
 70
     0
102
RTVSPropertyOp10
 70
     0
102
RTVSPropertyOp11
 70
     0
102
RTVSPropertyOp12
 70
     0
102
RTVSPropertyOp13
 70
     0
102
RTVSPropertyOp14
 70
     2
102
RTVSPropertyOp15
 70
     0
102
RTVSPropertyOp16
 70
     0
102
RTVSPropertyOp17
 70
     0
102
RTVSPropertyOp18
 70
     0
102
RTVSPropertyOp19
 70
     0
102
RTVSPropertyOp20
 70
     0
102
RTVSPropertyOp21
 70
     0
102
RTVSPropertyOp22
 70
     0
102
RTVSPropertyOp23
 70
     0
102
RTVSPropertyOp24
 70
     0
102
RTVSPropertyOp25
 70
     0
102
RTVSPropertyOp26
 70
     0
102
RTVSPropertyOp27
 70
     0
102
RTVSPropertyOp28
 70
     0
102
RTVSPropertyOp29
 70
     0
102
RTVSPropertyOp30
 70
     0
102
RTVSPropertyOp31
 70
     0
102
RTVSPropertyOp32
 70
     0
  0
XRECORD
  5
1893
102
{ACAD_REACTORS
330
1892
102
}
330
1892
100
AcDbXrecord
280
     1
102
RTVSPropertyOp0
 70
     1
102
RTVSPropertyOp1
 70
     1
102
RTVSPropertyOp2
 70
     1
102
RTVSPropertyOp3
 70
     1
102
RTVSPropertyOp4
 70
     1
102
RTVSPropertyOp5
 70
     1
102
RTVSPropertyOp6
 70
     1
102
RTVSPropertyOp7
 70
     1
102
RTVSPropertyOp8
 70
     1
102
RTVSPropertyOp9
 70
     1
102
RTVSPropertyOp10
 70
     1
102
RTVSPropertyOp11
 70
     1
102
RTVSPropertyOp12
 70
     1
102
RTVSPropertyOp13
 70
     1
102
RTVSPropertyOp14
 70
     1
102
RTVSPropertyOp15
 70
     1
102
RTVSPropertyOp16
 70
     1
102
RTVSPropertyOp17
 70
     1
102
RTVSPropertyOp18
 70
     1
102
RTVSPropertyOp19
 70
     1
102
RTVSPropertyOp20
 70
     1
102
RTVSPropertyOp21
 70
     1
102
RTVSPropertyOp22
 70
     1
102
RTVSPropertyOp23
 70
     1
102
RTVSPropertyOp24
 70
     1
102
RTVSPropertyOp25
 70
     1
102
RTVSPropertyOp26
 70
     1
102
RTVSPropertyOp27
 70
     1
102
RTVSPropertyOp28
 70
     1
102
RTVSPropertyOp29
 70
     1
102
RTVSPropertyOp30
 70
     1
102
RTVSPropertyOp31
 70
     1
102
RTVSPropertyOp32
 70
     1
  0
XRECORD
  5
1877
102
{ACAD_REACTORS
330
1876
102
}
330
1876
100
AcDbXrecord
280
     1
102
RTVSPropertyOp0
 70
     1
102
RTVSPropertyOp1
 70
     1
102
RTVSPropertyOp2
 70
     1
102
RTVSPropertyOp3
 70
     1
102
RTVSPropertyOp4
 70
     1
102
RTVSPropertyOp5
 70
     1
102
RTVSPropertyOp6
 70
     1
102
RTVSPropertyOp7
 70
     1
102
RTVSPropertyOp8
 70
     1
102
RTVSPropertyOp9
 70
     1
102
RTVSPropertyOp10
 70
     1
102
RTVSPropertyOp11
 70
     1
102
RTVSPropertyOp12
 70
     1
102
RTVSPropertyOp13
 70
     1
102
RTVSPropertyOp14
 70
     1
102
RTVSPropertyOp15
 70
     1
102
RTVSPropertyOp16
 70
     1
102
RTVSPropertyOp17
 70
     1
102
RTVSPropertyOp18
 70
     1
102
RTVSPropertyOp19
 70
     1
102
RTVSPropertyOp20
 70
     1
102
RTVSPropertyOp21
 70
     1
102
RTVSPropertyOp22
 70
     1
102
RTVSPropertyOp23
 70
     1
102
RTVSPropertyOp24
 70
     1
102
RTVSPropertyOp25
 70
     1
102
RTVSPropertyOp26
 70
     1
102
RTVSPropertyOp27
 70
     1
102
RTVSPropertyOp28
 70
     1
102
RTVSPropertyOp29
 70
     1
102
RTVSPropertyOp30
 70
     1
102
RTVSPropertyOp31
 70
     1
102
RTVSPropertyOp32
 70
     1
  0
XRECORD
  5
1879
102
{ACAD_REACTORS
330
1878
102
}
330
1878
100
AcDbXrecord
280
     1
102
RTVSPropertyOp0
 70
     1
102
RTVSPropertyOp1
 70
     1
102
RTVSPropertyOp2
 70
     1
102
RTVSPropertyOp3
 70
     1
102
RTVSPropertyOp4
 70
     1
102
RTVSPropertyOp5
 70
     1
102
RTVSPropertyOp6
 70
     1
102
RTVSPropertyOp7
 70
     1
102
RTVSPropertyOp8
 70
     1
102
RTVSPropertyOp9
 70
     1
102
RTVSPropertyOp10
 70
     1
102
RTVSPropertyOp11
 70
     1
102
RTVSPropertyOp12
 70
     1
102
RTVSPropertyOp13
 70
     1
102
RTVSPropertyOp14
 70
     1
102
RTVSPropertyOp15
 70
     1
102
RTVSPropertyOp16
 70
     1
102
RTVSPropertyOp17
 70
     1
102
RTVSPropertyOp18
 70
     1
102
RTVSPropertyOp19
 70
     1
102
RTVSPropertyOp20
 70
     1
102
RTVSPropertyOp21
 70
     1
102
RTVSPropertyOp22
 70
     1
102
RTVSPropertyOp23
 70
     1
102
RTVSPropertyOp24
 70
     1
102
RTVSPropertyOp25
 70
     1
102
RTVSPropertyOp26
 70
     1
102
RTVSPropertyOp27
 70
     1
102
RTVSPropertyOp28
 70
     1
102
RTVSPropertyOp29
 70
     1
102
RTVSPropertyOp30
 70
     1
102
RTVSPropertyOp31
 70
     1
102
RTVSPropertyOp32
 70
     1
  0
XRECORD
  5
187B
102
{ACAD_REACTORS
330
187A
102
}
330
187A
100
AcDbXrecord
280
     1
102
RTVSPropertyOp0
 70
     1
102
RTVSPropertyOp1
 70
     1
102
RTVSPropertyOp2
 70
     1
102
RTVSPropertyOp3
 70
     1
102
RTVSPropertyOp4
 70
     1
102
RTVSPropertyOp5
 70
     1
102
RTVSPropertyOp6
 70
     1
102
RTVSPropertyOp7
 70
     1
102
RTVSPropertyOp8
 70
     1
102
RTVSPropertyOp9
 70
     1
102
RTVSPropertyOp10
 70
     1
102
RTVSPropertyOp11
 70
     1
102
RTVSPropertyOp12
 70
     1
102
RTVSPropertyOp13
 70
     1
102
RTVSPropertyOp14
 70
     1
102
RTVSPropertyOp15
 70
     1
102
RTVSPropertyOp16
 70
     1
102
RTVSPropertyOp17
 70
     1
102
RTVSPropertyOp18
 70
     1
102
RTVSPropertyOp19
 70
     1
102
RTVSPropertyOp20
 70
     1
102
RTVSPropertyOp21
 70
     1
102
RTVSPropertyOp22
 70
     1
102
RTVSPropertyOp23
 70
     1
102
RTVSPropertyOp24
 70
     1
102
RTVSPropertyOp25
 70
     1
102
RTVSPropertyOp26
 70
     1
102
RTVSPropertyOp27
 70
     1
102
RTVSPropertyOp28
 70
     1
102
RTVSPropertyOp29
 70
     1
102
RTVSPropertyOp30
 70
     1
102
RTVSPropertyOp31
 70
     1
102
RTVSPropertyOp32
 70
     1
  0
XRECORD
  5
187D
102
{ACAD_REACTORS
330
187C
102
}
330
187C
100
AcDbXrecord
280
     1
102
RTVSPropertyOp0
 70
     1
102
RTVSPropertyOp1
 70
     1
102
RTVSPropertyOp2
 70
     1
102
RTVSPropertyOp3
 70
     1
102
RTVSPropertyOp4
 70
     1
102
RTVSPropertyOp5
 70
     1
102
RTVSPropertyOp6
 70
     1
102
RTVSPropertyOp7
 70
     1
102
RTVSPropertyOp8
 70
     1
102
RTVSPropertyOp9
 70
     1
102
RTVSPropertyOp10
 70
     1
102
RTVSPropertyOp11
 70
     1
102
RTVSPropertyOp12
 70
     1
102
RTVSPropertyOp13
 70
     1
102
RTVSPropertyOp14
 70
     1
102
RTVSPropertyOp15
 70
     1
102
RTVSPropertyOp16
 70
     1
102
RTVSPropertyOp17
 70
     1
102
RTVSPropertyOp18
 70
     1
102
RTVSPropertyOp19
 70
     1
102
RTVSPropertyOp20
 70
     1
102
RTVSPropertyOp21
 70
     1
102
RTVSPropertyOp22
 70
     1
102
RTVSPropertyOp23
 70
     1
102
RTVSPropertyOp24
 70
     1
102
RTVSPropertyOp25
 70
     1
102
RTVSPropertyOp26
 70
     1
102
RTVSPropertyOp27
 70
     1
102
RTVSPropertyOp28
 70
     1
102
RTVSPropertyOp29
 70
     1
102
RTVSPropertyOp30
 70
     1
102
RTVSPropertyOp31
 70
     1
102
RTVSPropertyOp32
 70
     1
  0
XRECORD
  5
189A
102
{ACAD_REACTORS
330
1899
102
}
330
1899
100
AcDbXrecord
280
     1
102
RTVSPropertyOp0
 70
     1
102
RTVSPropertyOp1
 70
     1
102
RTVSPropertyOp2
 70
     1
102
RTVSPropertyOp3
 70
     1
102
RTVSPropertyOp4
 70
     1
102
RTVSPropertyOp5
 70
     1
102
RTVSPropertyOp6
 70
     1
102
RTVSPropertyOp7
 70
     1
102
RTVSPropertyOp8
 70
     1
102
RTVSPropertyOp9
 70
     1
102
RTVSPropertyOp10
 70
     1
102
RTVSPropertyOp11
 70
     1
102
RTVSPropertyOp12
 70
     1
102
RTVSPropertyOp13
 70
     1
102
RTVSPropertyOp14
 70
     1
102
RTVSPropertyOp15
 70
     1
102
RTVSPropertyOp16
 70
     1
102
RTVSPropertyOp17
 70
     1
102
RTVSPropertyOp18
 70
     1
102
RTVSPropertyOp19
 70
     1
102
RTVSPropertyOp20
 70
     1
102
RTVSPropertyOp21
 70
     1
102
RTVSPropertyOp22
 70
     1
102
RTVSPropertyOp23
 70
     1
102
RTVSPropertyOp24
 70
     1
102
RTVSPropertyOp25
 70
     1
102
RTVSPropertyOp26
 70
     1
102
RTVSPropertyOp27
 70
     1
102
RTVSPropertyOp28
 70
     1
102
RTVSPropertyOp29
 70
     1
102
RTVSPropertyOp30
 70
     1
102
RTVSPropertyOp31
 70
     1
102
RTVSPropertyOp32
 70
     1
  0
XRECORD
  5
18A6
102
{ACAD_REACTORS
330
18A5
102
}
330
18A5
100
AcDbXrecord
280
     1
102
RTVSPropertyOp0
 70
     0
102
RTVSPropertyOp1
 70
     0
102
RTVSPropertyOp2
 70
     0
102
RTVSPropertyOp3
 70
     0
102
RTVSPropertyOp4
 70
     0
102
RTVSPropertyOp5
 70
     0
102
RTVSPropertyOp6
 70
     0
102
RTVSPropertyOp7
 70
     0
102
RTVSPropertyOp8
 70
     0
102
RTVSPropertyOp9
 70
     0
102
RTVSPropertyOp10
 70
     0
102
RTVSPropertyOp11
 70
     0
102
RTVSPropertyOp12
 70
     0
102
RTVSPropertyOp13
 70
     0
102
RTVSPropertyOp14
 70
     2
102
RTVSPropertyOp15
 70
     0
102
RTVSPropertyOp16
 70
     0
102
RTVSPropertyOp17
 70
     0
102
RTVSPropertyOp18
 70
     0
102
RTVSPropertyOp19
 70
     0
102
RTVSPropertyOp20
 70
     0
102
RTVSPropertyOp21
 70
     0
102
RTVSPropertyOp22
 70
     0
102
RTVSPropertyOp23
 70
     0
102
RTVSPropertyOp24
 70
     0
102
RTVSPropertyOp25
 70
     0
102
RTVSPropertyOp26
 70
     0
102
RTVSPropertyOp27
 70
     0
102
RTVSPropertyOp28
 70
     0
102
RTVSPropertyOp29
 70
     0
102
RTVSPropertyOp30
 70
     0
102
RTVSPropertyOp31
 70
     0
102
RTVSPropertyOp32
 70
     0
  0
XRECORD
  5
1891
102
{ACAD_REACTORS
330
1890
102
}
330
1890
100
AcDbXrecord
280
     1
102
RTVSPropertyOp0
 70
     1
102
RTVSPropertyOp1
 70
     1
102
RTVSPropertyOp2
 70
     1
102
RTVSPropertyOp3
 70
     1
102
RTVSPropertyOp4
 70
     1
102
RTVSPropertyOp5
 70
     1
102
RTVSPropertyOp6
 70
     1
102
RTVSPropertyOp7
 70
     1
102
RTVSPropertyOp8
 70
     1
102
RTVSPropertyOp9
 70
     1
102
RTVSPropertyOp10
 70
     1
102
RTVSPropertyOp11
 70
     1
102
RTVSPropertyOp12
 70
     1
102
RTVSPropertyOp13
 70
     1
102
RTVSPropertyOp14
 70
     1
102
RTVSPropertyOp15
 70
     1
102
RTVSPropertyOp16
 70
     1
102
RTVSPropertyOp17
 70
     1
102
RTVSPropertyOp18
 70
     1
102
RTVSPropertyOp19
 70
     1
102
RTVSPropertyOp20
 70
     1
102
RTVSPropertyOp21
 70
     1
102
RTVSPropertyOp22
 70
     1
102
RTVSPropertyOp23
 70
     1
102
RTVSPropertyOp24
 70
     1
102
RTVSPropertyOp25
 70
     1
102
RTVSPropertyOp26
 70
     1
102
RTVSPropertyOp27
 70
     1
102
RTVSPropertyOp28
 70
     1
102
RTVSPropertyOp29
 70
     1
102
RTVSPropertyOp30
 70
     1
102
RTVSPropertyOp31
 70
     1
102
RTVSPropertyOp32
 70
     1
  0
XRECORD
  5
18A8
102
{ACAD_REACTORS
330
18A7
102
}
330
18A7
100
AcDbXrecord
280
     1
102
RTVSPropertyOp0
 70
     0
102
RTVSPropertyOp1
 70
     0
102
RTVSPropertyOp2
 70
     0
102
RTVSPropertyOp3
 70
     0
102
RTVSPropertyOp4
 70
     0
102
RTVSPropertyOp5
 70
     0
102
RTVSPropertyOp6
 70
     0
102
RTVSPropertyOp7
 70
     0
102
RTVSPropertyOp8
 70
     0
102
RTVSPropertyOp9
 70
     0
102
RTVSPropertyOp10
 70
     0
102
RTVSPropertyOp11
 70
     0
102
RTVSPropertyOp12
 70
     0
102
RTVSPropertyOp13
 70
     0
102
RTVSPropertyOp14
 70
     2
102
RTVSPropertyOp15
 70
     0
102
RTVSPropertyOp16
 70
     0
102
RTVSPropertyOp17
 70
     0
102
RTVSPropertyOp18
 70
     0
102
RTVSPropertyOp19
 70
     0
102
RTVSPropertyOp20
 70
     0
102
RTVSPropertyOp21
 70
     0
102
RTVSPropertyOp22
 70
     0
102
RTVSPropertyOp23
 70
     0
102
RTVSPropertyOp24
 70
     0
102
RTVSPropertyOp25
 70
     0
102
RTVSPropertyOp26
 70
     0
102
RTVSPropertyOp27
 70
     0
102
RTVSPropertyOp28
 70
     0
102
RTVSPropertyOp29
 70
     0
102
RTVSPropertyOp30
 70
     0
102
RTVSPropertyOp31
 70
     0
102
RTVSPropertyOp32
 70
     0
  0
XRECORD
  5
1889
102
{ACAD_REACTORS
330
1888
102
}
330
1888
100
AcDbXrecord
280
     1
102
RTVSPropertyOp0
 70
     1
102
RTVSPropertyOp1
 70
     1
102
RTVSPropertyOp2
 70
     1
102
RTVSPropertyOp3
 70
     1
102
RTVSPropertyOp4
 70
     1
102
RTVSPropertyOp5
 70
     1
102
RTVSPropertyOp6
 70
     1
102
RTVSPropertyOp7
 70
     1
102
RTVSPropertyOp8
 70
     1
102
RTVSPropertyOp9
 70
     1
102
RTVSPropertyOp10
 70
     1
102
RTVSPropertyOp11
 70
     1
102
RTVSPropertyOp12
 70
     1
102
RTVSPropertyOp13
 70
     1
102
RTVSPropertyOp14
 70
     1
102
RTVSPropertyOp15
 70
     1
102
RTVSPropertyOp16
 70
     1
102
RTVSPropertyOp17
 70
     1
102
RTVSPropertyOp18
 70
     1
102
RTVSPropertyOp19
 70
     1
102
RTVSPropertyOp20
 70
     1
102
RTVSPropertyOp21
 70
     1
102
RTVSPropertyOp22
 70
     1
102
RTVSPropertyOp23
 70
     1
102
RTVSPropertyOp24
 70
     1
102
RTVSPropertyOp25
 70
     1
102
RTVSPropertyOp26
 70
     1
102
RTVSPropertyOp27
 70
     1
102
RTVSPropertyOp28
 70
     1
102
RTVSPropertyOp29
 70
     1
102
RTVSPropertyOp30
 70
     1
102
RTVSPropertyOp31
 70
     1
102
RTVSPropertyOp32
 70
     1
  0
XRECORD
  5
18A4
102
{ACAD_REACTORS
330
18A3
102
}
330
18A3
100
AcDbXrecord
280
     1
102
RTVSPropertyOp0
 70
     1
102
RTVSPropertyOp1
 70
     1
102
RTVSPropertyOp2
 70
     1
102
RTVSPropertyOp3
 70
     1
102
RTVSPropertyOp4
 70
     1
102
RTVSPropertyOp5
 70
     1
102
RTVSPropertyOp6
 70
     1
102
RTVSPropertyOp7
 70
     1
102
RTVSPropertyOp8
 70
     1
102
RTVSPropertyOp9
 70
     1
102
RTVSPropertyOp10
 70
     1
102
RTVSPropertyOp11
 70
     1
102
RTVSPropertyOp12
 70
     1
102
RTVSPropertyOp13
 70
     1
102
RTVSPropertyOp14
 70
     1
102
RTVSPropertyOp15
 70
     1
102
RTVSPropertyOp16
 70
     1
102
RTVSPropertyOp17
 70
     1
102
RTVSPropertyOp18
 70
     1
102
RTVSPropertyOp19
 70
     1
102
RTVSPropertyOp20
 70
     1
102
RTVSPropertyOp21
 70
     1
102
RTVSPropertyOp22
 70
     1
102
RTVSPropertyOp23
 70
     1
102
RTVSPropertyOp24
 70
     1
102
RTVSPropertyOp25
 70
     1
102
RTVSPropertyOp26
 70
     1
102
RTVSPropertyOp27
 70
     1
102
RTVSPropertyOp28
 70
     1
102
RTVSPropertyOp29
 70
     1
102
RTVSPropertyOp30
 70
     1
102
RTVSPropertyOp31
 70
     1
102
RTVSPropertyOp32
 70
     1
  0
XRECORD
  5
18A2
102
{ACAD_REACTORS
330
18A1
102
}
330
18A1
100
AcDbXrecord
280
     1
102
RTVSPropertyOp0
 70
     1
102
RTVSPropertyOp1
 70
     1
102
RTVSPropertyOp2
 70
     1
102
RTVSPropertyOp3
 70
     1
102
RTVSPropertyOp4
 70
     1
102
RTVSPropertyOp5
 70
     1
102
RTVSPropertyOp6
 70
     1
102
RTVSPropertyOp7
 70
     1
102
RTVSPropertyOp8
 70
     1
102
RTVSPropertyOp9
 70
     1
102
RTVSPropertyOp10
 70
     1
102
RTVSPropertyOp11
 70
     1
102
RTVSPropertyOp12
 70
     1
102
RTVSPropertyOp13
 70
     1
102
RTVSPropertyOp14
 70
     1
102
RTVSPropertyOp15
 70
     1
102
RTVSPropertyOp16
 70
     1
102
RTVSPropertyOp17
 70
     1
102
RTVSPropertyOp18
 70
     1
102
RTVSPropertyOp19
 70
     1
102
RTVSPropertyOp20
 70
     1
102
RTVSPropertyOp21
 70
     1
102
RTVSPropertyOp22
 70
     1
102
RTVSPropertyOp23
 70
     1
102
RTVSPropertyOp24
 70
     1
102
RTVSPropertyOp25
 70
     1
102
RTVSPropertyOp26
 70
     1
102
RTVSPropertyOp27
 70
     1
102
RTVSPropertyOp28
 70
     1
102
RTVSPropertyOp29
 70
     1
102
RTVSPropertyOp30
 70
     1
102
RTVSPropertyOp31
 70
     1
102
RTVSPropertyOp32
 70
     1
  0
XRECORD
  5
189C
102
{ACAD_REACTORS
330
189B
102
}
330
189B
100
AcDbXrecord
280
     1
102
RTVSPropertyOp0
 70
     1
102
RTVSPropertyOp1
 70
     1
102
RTVSPropertyOp2
 70
     1
102
RTVSPropertyOp3
 70
     1
102
RTVSPropertyOp4
 70
     1
102
RTVSPropertyOp5
 70
     1
102
RTVSPropertyOp6
 70
     1
102
RTVSPropertyOp7
 70
     1
102
RTVSPropertyOp8
 70
     1
102
RTVSPropertyOp9
 70
     1
102
RTVSPropertyOp10
 70
     1
102
RTVSPropertyOp11
 70
     1
102
RTVSPropertyOp12
 70
     1
102
RTVSPropertyOp13
 70
     1
102
RTVSPropertyOp14
 70
     1
102
RTVSPropertyOp15
 70
     1
102
RTVSPropertyOp16
 70
     1
102
RTVSPropertyOp17
 70
     1
102
RTVSPropertyOp18
 70
     1
102
RTVSPropertyOp19
 70
     1
102
RTVSPropertyOp20
 70
     1
102
RTVSPropertyOp21
 70
     1
102
RTVSPropertyOp22
 70
     1
102
RTVSPropertyOp23
 70
     1
102
RTVSPropertyOp24
 70
     1
102
RTVSPropertyOp25
 70
     1
102
RTVSPropertyOp26
 70
     1
102
RTVSPropertyOp27
 70
     1
102
RTVSPropertyOp28
 70
     1
102
RTVSPropertyOp29
 70
     1
102
RTVSPropertyOp30
 70
     1
102
RTVSPropertyOp31
 70
     1
102
RTVSPropertyOp32
 70
     1
  0
XRECORD
  5
189E
102
{ACAD_REACTORS
330
189D
102
}
330
189D
100
AcDbXrecord
280
     1
102
RTVSPropertyOp0
 70
     1
102
RTVSPropertyOp1
 70
     1
102
RTVSPropertyOp2
 70
     1
102
RTVSPropertyOp3
 70
     1
102
RTVSPropertyOp4
 70
     1
102
RTVSPropertyOp5
 70
     1
102
RTVSPropertyOp6
 70
     1
102
RTVSPropertyOp7
 70
     1
102
RTVSPropertyOp8
 70
     1
102
RTVSPropertyOp9
 70
     1
102
RTVSPropertyOp10
 70
     1
102
RTVSPropertyOp11
 70
     1
102
RTVSPropertyOp12
 70
     1
102
RTVSPropertyOp13
 70
     1
102
RTVSPropertyOp14
 70
     1
102
RTVSPropertyOp15
 70
     1
102
RTVSPropertyOp16
 70
     1
102
RTVSPropertyOp17
 70
     1
102
RTVSPropertyOp18
 70
     1
102
RTVSPropertyOp19
 70
     1
102
RTVSPropertyOp20
 70
     1
102
RTVSPropertyOp21
 70
     1
102
RTVSPropertyOp22
 70
     1
102
RTVSPropertyOp23
 70
     1
102
RTVSPropertyOp24
 70
     1
102
RTVSPropertyOp25
 70
     1
102
RTVSPropertyOp26
 70
     1
102
RTVSPropertyOp27
 70
     1
102
RTVSPropertyOp28
 70
     1
102
RTVSPropertyOp29
 70
     1
102
RTVSPropertyOp30
 70
     1
102
RTVSPropertyOp31
 70
     1
102
RTVSPropertyOp32
 70
     1
  0
XRECORD
  5
188F
102
{ACAD_REACTORS
330
188E
102
}
330
188E
100
AcDbXrecord
280
     1
102
RTVSPropertyOp0
 70
     1
102
RTVSPropertyOp1
 70
     1
102
RTVSPropertyOp2
 70
     1
102
RTVSPropertyOp3
 70
     1
102
RTVSPropertyOp4
 70
     1
102
RTVSPropertyOp5
 70
     1
102
RTVSPropertyOp6
 70
     1
102
RTVSPropertyOp7
 70
     1
102
RTVSPropertyOp8
 70
     1
102
RTVSPropertyOp9
 70
     1
102
RTVSPropertyOp10
 70
     1
102
RTVSPropertyOp11
 70
     1
102
RTVSPropertyOp12
 70
     1
102
RTVSPropertyOp13
 70
     1
102
RTVSPropertyOp14
 70
     1
102
RTVSPropertyOp15
 70
     1
102
RTVSPropertyOp16
 70
     1
102
RTVSPropertyOp17
 70
     1
102
RTVSPropertyOp18
 70
     1
102
RTVSPropertyOp19
 70
     1
102
RTVSPropertyOp20
 70
     1
102
RTVSPropertyOp21
 70
     1
102
RTVSPropertyOp22
 70
     1
102
RTVSPropertyOp23
 70
     1
102
RTVSPropertyOp24
 70
     1
102
RTVSPropertyOp25
 70
     1
102
RTVSPropertyOp26
 70
     1
102
RTVSPropertyOp27
 70
     1
102
RTVSPropertyOp28
 70
     1
102
RTVSPropertyOp29
 70
     1
102
RTVSPropertyOp30
 70
     1
102
RTVSPropertyOp31
 70
     1
102
RTVSPropertyOp32
 70
     1
  0
XRECORD
  5
1898
102
{ACAD_REACTORS
330
1897
102
}
330
1897
100
AcDbXrecord
280
     1
102
RTVSPropertyOp0
 70
     1
102
RTVSPropertyOp1
 70
     1
102
RTVSPropertyOp2
 70
     1
102
RTVSPropertyOp3
 70
     1
102
RTVSPropertyOp4
 70
     1
102
RTVSPropertyOp5
 70
     1
102
RTVSPropertyOp6
 70
     1
102
RTVSPropertyOp7
 70
     1
102
RTVSPropertyOp8
 70
     1
102
RTVSPropertyOp9
 70
     1
102
RTVSPropertyOp10
 70
     1
102
RTVSPropertyOp11
 70
     1
102
RTVSPropertyOp12
 70
     1
102
RTVSPropertyOp13
 70
     1
102
RTVSPropertyOp14
 70
     1
102
RTVSPropertyOp15
 70
     1
102
RTVSPropertyOp16
 70
     1
102
RTVSPropertyOp17
 70
     1
102
RTVSPropertyOp18
 70
     1
102
RTVSPropertyOp19
 70
     1
102
RTVSPropertyOp20
 70
     1
102
RTVSPropertyOp21
 70
     1
102
RTVSPropertyOp22
 70
     1
102
RTVSPropertyOp23
 70
     1
102
RTVSPropertyOp24
 70
     1
102
RTVSPropertyOp25
 70
     1
102
RTVSPropertyOp26
 70
     1
102
RTVSPropertyOp27
 70
     1
102
RTVSPropertyOp28
 70
     1
102
RTVSPropertyOp29
 70
     1
102
RTVSPropertyOp30
 70
     1
102
RTVSPropertyOp31
 70
     1
102
RTVSPropertyOp32
 70
     1
  0
XRECORD
  5
18A0
102
{ACAD_REACTORS
330
189F
102
}
330
189F
100
AcDbXrecord
280
     1
102
RTVSPropertyOp0
 70
     1
102
RTVSPropertyOp1
 70
     1
102
RTVSPropertyOp2
 70
     1
102
RTVSPropertyOp3
 70
     1
102
RTVSPropertyOp4
 70
     1
102
RTVSPropertyOp5
 70
     1
102
RTVSPropertyOp6
 70
     1
102
RTVSPropertyOp7
 70
     1
102
RTVSPropertyOp8
 70
     1
102
RTVSPropertyOp9
 70
     1
102
RTVSPropertyOp10
 70
     1
102
RTVSPropertyOp11
 70
     1
102
RTVSPropertyOp12
 70
     1
102
RTVSPropertyOp13
 70
     1
102
RTVSPropertyOp14
 70
     1
102
RTVSPropertyOp15
 70
     1
102
RTVSPropertyOp16
 70
     1
102
RTVSPropertyOp17
 70
     1
102
RTVSPropertyOp18
 70
     1
102
RTVSPropertyOp19
 70
     1
102
RTVSPropertyOp20
 70
     1
102
RTVSPropertyOp21
 70
     1
102
RTVSPropertyOp22
 70
     1
102
RTVSPropertyOp23
 70
     1
102
RTVSPropertyOp24
 70
     1
102
RTVSPropertyOp25
 70
     1
102
RTVSPropertyOp26
 70
     1
102
RTVSPropertyOp27
 70
     1
102
RTVSPropertyOp28
 70
     1
102
RTVSPropertyOp29
 70
     1
102
RTVSPropertyOp30
 70
     1
102
RTVSPropertyOp31
 70
     1
102
RTVSPropertyOp32
 70
     1
  0
ENDSEC
  0
EOF
