  0
SECTION
  2
HEADER
  9
$ACADVER
  1
AC1015
  9
$ACADMAINTVER
 70
    20
  9
$DWGCODEPAGE
  3
ANSI_932
  9
$INSBASE
 10
0.0
 20
0.0
 30
0.0
  9
$EXTMIN
 10
-0.0245960419711082
 20
-0.0170890614192558
 30
-0.0000000349181948
  9
$EXTMAX
 10
403.0245997953159
 20
280.0170916692019
 30
0.0000000814935746
  9
$LIMMIN
 10
0.0
 20
0.0
  9
$LIMMAX
 10
403.0
 20
280.0000000000001
  9
$ORTHOMODE
 70
     0
  9
$REGENMODE
 70
     1
  9
$FILLMODE
 70
     1
  9
$QTEXTMODE
 70
     0
  9
$MIRRTEXT
 70
     1
  9
$LTSCALE
 40
1.0
  9
$ATTMODE
 70
     1
  9
$TEXTSIZE
 40
73.98571745357912
  9
$TRACEWID
 40
1.0
  9
$TEXTSTYLE
  7
STANDARD
  9
$CLAYER
  8
0
  9
$CELTYPE
  6
ByLayer
  9
$CECOLOR
 62
   256
  9
$CELTSCALE
 40
1.0
  9
$DISPSILH
 70
     0
  9
$DIMSCALE
 40
1.0
  9
$DIMASZ
 40
2.5
  9
$DIMEXO
 40
1.0
  9
$DIMDLI
 40
10.0
  9
$DIMRND
 40
0.0
  9
$DIMDLE
 40
0.0
  9
$DIMEXE
 40
1.0
  9
$DIMTP
 40
0.1
  9
$DIMTM
 40
0.1
  9
$DIMTXT
 40
3.5
  9
$DIMCEN
 40
0.0
  9
$DIMTSZ
 40
0.0
  9
$DIMTOL
 70
     0
  9
$DIMLIM
 70
     0
  9
$DIMTIH
 70
     0
  9
$DIMTOH
 70
     0
  9
$DIMSE1
 70
     0
  9
$DIMSE2
 70
     0
  9
$DIMTAD
 70
     1
  9
$DIMZIN
 70
     8
  9
$DIMBLK
  1
Open30
  9
$DIMASO
 70
     1
  9
$DIMSHO
 70
     1
  9
$DIMPOST
  1

  9
$DIMAPOST
  1
"
  9
$DIMALT
 70
     0
  9
$DIMALTD
 70
     2
  9
$DIMALTF
 40
0.0393701
  9
$DIMLFAC
 40
1.0
  9
$DIMTOFL
 70
     1
  9
$DIMTVP
 40
0.0
  9
$DIMTIX
 70
     0
  9
$DIMSOXD
 70
     0
  9
$DIMSAH
 70
     0
  9
$DIMBLK1
  1

  9
$DIMBLK2
  1

  9
$DIMSTYLE
  2
AM_ISO
  9
$DIMCLRD
 70
   256
  9
$DIMCLRE
 70
   256
  9
$DIMCLRT
 70
     2
  9
$DIMTFAC
 40
0.71
  9
$DIMGAP
 40
1.5
  9
$DIMJUST
 70
     0
  9
$DIMSD1
 70
     0
  9
$DIMSD2
 70
     0
  9
$DIMTOLJ
 70
     0
  9
$DIMTZIN
 70
     8
  9
$DIMALTZ
 70
     0
  9
$DIMALTTZ
 70
     0
  9
$DIMUPT
 70
     0
  9
$DIMDEC
 70
     2
  9
$DIMTDEC
 70
     2
  9
$DIMALTU
 70
     2
  9
$DIMALTTD
 70
     2
  9
$DIMTXSTY
  7
STANDARD
  9
$DIMAUNIT
 70
     0
  9
$DIMADEC
 70
     0
  9
$DIMALTRND
 40
0.0
  9
$DIMAZIN
 70
     2
  9
$DIMDSEP
 70
    46
  9
$DIMATFIT
 70
     3
  9
$DIMFRAC
 70
     0
  9
$DIMLDRBLK
  1
Open30
  9
$DIMLUNIT
 70
     2
  9
$DIMLWD
 70
    -1
  9
$DIMLWE
 70
    -1
  9
$DIMTMOVE
 70
     0
  9
$LUNITS
 70
     2
  9
$LUPREC
 70
     2
  9
$SKETCHINC
 40
1.0
  9
$FILLETRAD
 40
1.0
  9
$AUNITS
 70
     0
  9
$AUPREC
 70
     0
  9
$MENU
  1
.
  9
$ELEVATION
 40
0.0
  9
$PELEVATION
 40
0.0
  9
$THICKNESS
 40
0.0
  9
$LIMCHECK
 70
     0
  9
$CHAMFERA
 40
2.5
  9
$CHAMFERB
 40
2.5
  9
$CHAMFERC
 40
20.0
  9
$CHAMFERD
 40
0.0
  9
$SKPOLY
 70
     0
  9
$TDCREATE
 40
2454594.835300868
  9
$TDUCREATE
 40
2454594.460300868
  9
$TDUPDATE
 40
2456049.609941215
  9
$TDUUPDATE
 40
2456049.234941215
  9
$TDINDWG
 40
0.0480738194
  9
$TDUSRTIMER
 40
0.0480738194
  9
$USRTIMER
 70
     1
  9
$ANGBASE
 50
0.0
  9
$ANGDIR
 70
     0
  9
$PDMODE
 70
     0
  9
$PDSIZE
 40
0.0
  9
$PLINEWID
 40
0.0
  9
$SPLFRAME
 70
     0
  9
$SPLINETYPE
 70
     6
  9
$SPLINESEGS
 70
     8
  9
$HANDSEED
  5
1B30
  9
$SURFTAB1
 70
     6
  9
$SURFTAB2
 70
     6
  9
$SURFTYPE
 70
     6
  9
$SURFU
 70
     6
  9
$SURFV
 70
     6
  9
$UCSBASE
  2

  9
$UCSNAME
  2

  9
$UCSORG
 10
0.0
 20
0.0
 30
0.0
  9
$UCSXDIR
 10
1.0
 20
0.0
 30
0.0
  9
$UCSYDIR
 10
0.0
 20
1.0
 30
0.0
  9
$UCSORTHOREF
  2

  9
$UCSORTHOVIEW
 70
     0
  9
$UCSORGTOP
 10
0.0
 20
0.0
 30
0.0
  9
$UCSORGBOTTOM
 10
0.0
 20
0.0
 30
0.0
  9
$UCSORGLEFT
 10
0.0
 20
0.0
 30
0.0
  9
$UCSORGRIGHT
 10
0.0
 20
0.0
 30
0.0
  9
$UCSORGFRONT
 10
0.0
 20
0.0
 30
0.0
  9
$UCSORGBACK
 10
0.0
 20
0.0
 30
0.0
  9
$PUCSBASE
  2

  9
$PUCSNAME
  2

  9
$PUCSORG
 10
0.0
 20
0.0
 30
0.0
  9
$PUCSXDIR
 10
1.0
 20
0.0
 30
0.0
  9
$PUCSYDIR
 10
0.0
 20
1.0
 30
0.0
  9
$PUCSORTHOREF
  2

  9
$PUCSORTHOVIEW
 70
     0
  9
$PUCSORGTOP
 10
0.0
 20
0.0
 30
0.0
  9
$PUCSORGBOTTOM
 10
0.0
 20
0.0
 30
0.0
  9
$PUCSORGLEFT
 10
0.0
 20
0.0
 30
0.0
  9
$PUCSORGRIGHT
 10
0.0
 20
0.0
 30
0.0
  9
$PUCSORGFRONT
 10
0.0
 20
0.0
 30
0.0
  9
$PUCSORGBACK
 10
0.0
 20
0.0
 30
0.0
  9
$USERI1
 70
     0
  9
$USERI2
 70
     0
  9
$USERI3
 70
     0
  9
$USERI4
 70
     0
  9
$USERI5
 70
     0
  9
$USERR1
 40
0.0
  9
$USERR2
 40
0.0
  9
$USERR3
 40
0.0
  9
$USERR4
 40
0.0
  9
$USERR5
 40
0.0
  9
$WORLDVIEW
 70
     1
  9
$SHADEDGE
 70
     3
  9
$SHADEDIF
 70
    70
  9
$TILEMODE
 70
     1
  9
$MAXACTVP
 70
    64
  9
$PINSBASE
 10
0.0
 20
0.0
 30
0.0
  9
$PLIMCHECK
 70
     0
  9
$PEXTMIN
 10
1.000000000000000E+20
 20
1.000000000000000E+20
 30
1.000000000000000E+20
  9
$PEXTMAX
 10
-1.000000000000000E+20
 20
-1.000000000000000E+20
 30
-1.000000000000000E+20
  9
$PLIMMIN
 10
-6.350006103515625
 20
-6.349999904632568
  9
$PLIMMAX
 10
273.0499877929688
 20
209.5499939918518
  9
$UNITMODE
 70
     0
  9
$VISRETAIN
 70
     1
  9
$PLINEGEN
 70
     0
  9
$PSLTSCALE
 70
     1
  9
$TREEDEPTH
 70
  3020
  9
$CMLSTYLE
  2
Standard
  9
$CMLJUST
 70
     0
  9
$CMLSCALE
 40
20.0
  9
$PROXYGRAPHICS
 70
     1
  9
$MEASUREMENT
 70
     1
  9
$CELWEIGHT
370
    -1
  9
$ENDCAPS
280
     0
  9
$JOINSTYLE
280
     0
  9
$LWDISPLAY
290
     0
  9
$INSUNITS
 70
     4
  9
$HYPERLINKBASE
  1

  9
$STYLESHEET
  1
takachi-2.ctb
  9
$XEDIT
290
     1
  9
$CEPSNTYPE
380
     0
  9
$PSTYLEMODE
290
     1
  9
$FINGERPRINTGUID
  2
{FDEAD578-A652-11D2-9A35-0060089B3A3F}
  9
$VERSIONGUID
  2
{761222E4-3D16-4116-842D-3F2BE8523568}
  9
$EXTNAMES
290
     1
  9
$PSVPSCALE
 40
0.0
  9
$OLESTARTUP
290
     0
  0
ENDSEC
  0
SECTION
  2
CLASSES
  0
CLASS
  1
ACDBDICTIONARYWDFLT
  2
AcDbDictionaryWithDefault
  3
ObjectDBX Classes
 90
        0
280
     0
281
     0
  0
CLASS
  1
ACDBPLACEHOLDER
  2
AcDbPlaceHolder
  3
ObjectDBX Classes
 90
        0
280
     0
281
     0
  0
CLASS
  1
LAYOUT
  2
AcDbLayout
  3
ObjectDBX Classes
 90
        0
280
     0
281
     0
  0
CLASS
  1
ACME_DOCUMENT
  2
AcMeDbDoc
  3
AcMeServices
 90
        0
280
     0
281
     0
  0
CLASS
  1
AMGSETTINGSOBJ
  2
AmgSettingsObj
  3
"AcadM|Product Description: AutoCAD Mechanical 2000|Company: Autodesk"
 90
        0
280
     0
281
     0
  0
CLASS
  1
ACMESCOPE
  2
AcMeScope
  3
AcMeServices
 90
        0
280
     0
281
     0
  0
CLASS
  1
ACMECOMMANDHISTORY
  2
AcMeCommandHistory
  3
AcMeServices
 90
        0
280
     0
281
     0
  0
CLASS
  1
ACIMSYSVARMAN
  2
AcImSysVarManager
  3
AcMeServices
 90
        0
280
     0
281
     0
  0
CLASS
  1
ACIMREALSYSVAR
  2
AcImRealSysVar
  3
AcMeServices
 90
        0
280
     0
281
     0
  0
CLASS
  1
ACIMINTSYSVAR
  2
AcImIntSysVar
  3
AcMeServices
 90
        0
280
     0
281
     0
  0
CLASS
  1
ACMEDRAWINGMAN
  2
AcMeDrawingMan
  3
AcMeServices
 90
        0
280
     0
281
     0
  0
CLASS
  1
ACMEVIEW
  2
AcMeView
  3
AcMeServices
 90
        0
280
     0
281
     0
  0
CLASS
  1
ACDBENTITYCACHE
  2
AcMeEntityCache
  3
AcMeServices
 90
        0
280
     0
281
     0
  0
CLASS
  1
GSMANAGER
  2
AcMeGSManager
  3
AcMeServices
 90
        0
280
     0
281
     0
  0
CLASS
  1
AMDTINTERNALREACTOR
  2
AmdtInternalReactor
  3
AcMeServices
 90
        0
280
     0
281
     0
  0
CLASS
  1
ACMESTATEMGR
  2
AcMeStateMgr
  3
AcMeServices
 90
        0
280
     0
281
     0
  0
CLASS
  1
ACGREFMASTER
  2
AcGrefMaster
  3
AcAttribServices
 90
        0
280
     0
281
     0
  0
CLASS
  1
ACME_DATABASE
  2
AcMeDbDatabase
  3
AcMeServices
 90
        0
280
     0
281
     0
  0
CLASS
  1
ACRFINSADJUSTERMGR
  2
AcRfInsAdjusterMgr
  3
AcMeServices
 90
        0
280
     0
281
     0
  0
CLASS
  1
ACGREFACADMASTER
  2
AcGrefacadMaster
  3
AcGrefServices
 90
        0
280
     0
281
     0
  0
CLASS
  1
AMIMASTER
  2
AmiMaster
  3
AmiServices
 90
        0
280
     0
281
     0
  0
CLASS
  1
ACMDATADICTIONARY
  2
AcmDataDictionary
  3
"AcmSymBB|Product Description: AutoCAD Mechanical 2004 DX|Company: Autodesk"
 90
        0
280
     0
281
     0
  0
CLASS
  1
ACMDATAENTRYBLOCK
  2
AcmDataEntryBlock
  3
"AcmSymBB|Product Description: AutoCAD Mechanical 2004 DX|Company: Autodesk"
 90
    32768
280
     0
281
     0
  0
CLASS
  1
ACIMSTRSYSVAR
  2
AcImStrSysVar
  3
AcMeServices
 90
        0
280
     0
281
     0
  0
CLASS
  1
ACMSTANDARDISO
  2
AcmStandardISO
  3
"Amdt_StdImp|Product Description: AutoCAD Mechanical 2004 DX|Company: Autodesk"
 90
        0
280
     0
281
     0
  0
CLASS
  1
AMGOBJPROPCFG
  2
AmgObjPropCfg
  3
"AmgLay|Product Description: AutoCAD Mechanical 2000|Company: Autodesk"
 90
        1
280
     0
281
     0
  0
CLASS
  1
AMDTEDGESTANDARDISO
  2
AmdtEdgeStdISO
  3
"Amdt_StdImp|Product Description: AutoCAD Mechanical 2004 DX|Company: Autodesk"
 90
    32768
280
     0
281
     0
  0
CLASS
  1
ACMSURFSTANDARDISO
  2
AcmSurfTextStdISO
  3
"Amdt_StdImp|Product Description: AutoCAD Mechanical 2004 DX|Company: Autodesk"
 90
        0
280
     0
281
     0
  0
CLASS
  1
ACMFCFSTANDARDISO
  2
AcmFCFStdISO
  3
"Amdt_StdImp|Product Description: AutoCAD Mechanical 2004 DX|Company: Autodesk"
 90
        0
280
     0
281
     0
  0
CLASS
  1
ACMWELDSTANDARDISO
  2
AcmWeldingStdISO
  3
"Amdt_StdImp|Product Description: AutoCAD Mechanical 2004 DX|Company: Autodesk"
 90
        0
280
     0
281
     0
  0
CLASS
  1
ACMIDSTANDARDISO
  2
AcmIdStdISO
  3
"Amdt_StdImp|Product Description: AutoCAD Mechanical 2004 DX|Company: Autodesk"
 90
        0
280
     0
281
     0
  0
CLASS
  1
ACMDATUMSTANDARDISO
  2
AcmDatumStdISO
  3
"Amdt_StdImp|Product Description: AutoCAD Mechanical 2004 DX|Company: Autodesk"
 90
        0
280
     0
281
     0
  0
CLASS
  1
ACMBOMSTANDARDISO
  2
AcmBOMStdISO
  3
"Amdt_StdImp|Product Description: AutoCAD Mechanical 2004 DX|Company: Autodesk"
 90
        0
280
     0
281
     0
  0
CLASS
  1
ACMDETAILSTANDARDISO
  2
AmdtDetailSymStdISO
  3
"Amdt_StdImp|Product Description: AutoCAD Mechanical 2004 DX|Company: Autodesk"
 90
        0
280
     0
281
     0
  0
CLASS
  1
ACMSECTIONSTANDARDISO
  2
AmdtSectionSymStdISO
  3
"Amdt_StdImp|Product Description: AutoCAD Mechanical 2004 DX|Company: Autodesk"
 90
        0
280
     0
281
     0
  0
CLASS
  1
ACMCENTERLINESTANDARDISO
  2
AmdtCenterLineStdISO
  3
"Amdt_StdImp|Product Description: AutoCAD Mechanical 2004 DX|Company: Autodesk"
 90
        0
280
     0
281
     0
  0
CLASS
  1
ACMNOTESTANDARDISO
  2
AmdtNoteStdISO
  3
"Amdt_StdImp|Product Description: AutoCAD Mechanical 2004 DX|Company: Autodesk"
 90
        0
280
     0
281
     0
  0
CLASS
  1
ACAMGLAYSTD
  2
AcAmgLayStd
  3
"AcAmgLayStd|Product Description: AutoCAD Mechanical 2000|Company: Autodesk"
 90
        0
280
     0
281
     0
  0
CLASS
  1
ACAMGDIMSTD
  2
AcAmgDimStd
  3
"AcAmgDimStd|Product Description: AutoCAD Mechanical 2000|Company: Autodesk"
 90
        0
280
     0
281
     0
  0
CLASS
  1
ACAMGHOLECHARTSTDISO
  2
AcAmgHoleChartStdISO
  3
ACMSYMBB_MODULE_NAME
 90
        0
280
     0
281
     0
  0
CLASS
  1
ACAMGTITLESTD
  2
AcAmgTitleStd
  3
"TITLEAPP"
 90
        0
280
     0
281
     0
  0
CLASS
  1
LAYER_INDEX
  2
AcDbLayerIndex
  3
ObjectDBX Classes
 90
    32768
280
     0
281
     0
  0
CLASS
  1
IDBUFFER
  2
AcDbIdBuffer
  3
ObjectDBX Classes
 90
    32768
280
     0
281
     0
  0
CLASS
  1
DICTIONARYVAR
  2
AcDbDictionaryVar
  3
ObjectDBX Classes
 90
        0
280
     0
281
     0
  0
CLASS
  1
AM_DRAWING_MGR
  2
AcDmDwgMgr
  3
AcMechDwgViewMgmt
 90
        0
280
     0
281
     0
  0
CLASS
  1
AM_DWG_DOCUMENT
  2
AcDmDwgDocument
  3
AcMechDwgViewMgmt
 90
        0
280
     0
281
     0
  0
CLASS
  1
AM_DWG_SHEET
  2
AcDmSheet
  3
AcMechDwgViewMgmt
 90
        0
280
     0
281
     0
  0
CLASS
  1
AM_VIEWDIMPARMAP
  2
AcDmViewDimParMap
  3
AcMechDwgViewMgmt
 90
        0
280
     0
281
     0
  0
CLASS
  1
AM_DWGMGR_NAME
  2
AcDmDwgMgrName
  3
AcMechDwgViewMgmt
 90
        0
280
     0
281
     0
  0
CLASS
  1
AMDTMENUSTATEMGR
  2
AmdtMenuStateMgr
  3
McadcomServices
 90
        0
280
     0
281
     0
  0
CLASS
  1
AMDTMCOMMENUSTATE
  2
AmdtMcomMenuState
  3
McadcomServices
 90
        0
280
     0
281
     0
  0
CLASS
  1
MAPIAMMOUDLE
  2
MApiAmModule
  3
MApiAmServices
 90
        0
280
     0
281
     0
  0
CLASS
  1
AMDTADMENUSTATE
  2
AmdtAdMenuState
  3
DesignerServices
 90
        0
280
     0
281
     0
  0
CLASS
  1
ADAPPL
  2
AcAdAppl
  3
DesignerServices
 90
        0
280
     0
281
     0
  0
CLASS
  1
DEPMGR
  2
AcAdDepMgr
  3
DesignerServices
 90
        0
280
     0
281
     0
  0
CLASS
  1
PARAMMGR
  2
AcAdParamMgr
  3
DesignerServices
 90
        0
280
     0
281
     0
  0
CLASS
  1
PARAMSCOPE
  2
AcAdParamScope
  3
DesignerServices
 90
        0
280
     0
281
     0
  0
CLASS
  1
NAMEDAPPL
  2
AcAdNamedAppl
  3
DesignerServices
 90
        0
280
     0
281
     0
  0
CLASS
  1
AMDTDMMENUSTATE
  2
AmdtDmMenuState
  3
AcMechDwgViewMgmt
 90
        0
280
     0
281
     0
  0
CLASS
  1
AMDTAMMENUSTATE
  2
AmdtAmMenuState
  3
DesignerAssemblies
 90
        0
280
     0
281
     0
  0
CLASS
  1
ACAMPROJECT
  2
AcAmProject
  3
DesignerAssemblies
 90
        0
280
     0
281
     0
  0
CLASS
  1
ACAMGRCOMPDEF
  2
AcAmGrCompDef
  3
DesignerAssemblies
 90
        0
280
     0
281
     0
  0
CLASS
  1
ACCMCONTEXT
  2
AcCmContext
  3
DesignerAssemblies
 90
        0
280
     0
281
     0
  0
CLASS
  1
ACAMCOMPDEF
  2
AcAmCompDef
  3
DesignerAssemblies
 90
        0
280
     0
281
     0
  0
CLASS
  1
ACAMCOMPDEFMGR
  2
AcAmCompDefMgr
  3
DesignerAssemblies
 90
        0
280
     0
281
     0
  0
CLASS
  1
AMCONTEXTMGR
  2
AcAmContextMgr
  3
DesignerAssemblies
 90
        0
280
     0
281
     0
  0
CLASS
  1
ACAMCONTEXTMODELER
  2
AcAmContextModeler
  3
DesignerAssemblies
 90
        0
280
     0
281
     0
  0
CLASS
  1
ACMTHREADLINESTANDARDISO
  2
AmdtThreadLineStdISO
  3
"Amdt_StdImp|Product Description: AutoCAD Mechanical 2004 DX|Company: Autodesk"
 90
        0
280
     0
281
     0
  0
CLASS
  1
CATALOGSTATE
  2
AcAmCatalogState
  3
DesignerAssemblies
 90
        0
280
     0
281
     0
  0
CLASS
  1
ACAMGRCOMPDEFSET
  2
AcAmGrCompDefSet
  3
DesignerAssemblies
 90
        0
280
     0
281
     0
  0
CLASS
  1
AMDTBROWSERDBTAB
  2
AmdtBrowserDbTab
  3
McadcomServices
 90
        0
280
     0
281
     0
  0
CLASS
  1
CBROWSERAPPOBJECT
  2
CBrowserAppObject
  3
McadcomServices
 90
        0
280
     0
281
     0
  0
CLASS
  1
DM_PLACEHOLDER
  2
AcDmSelsetPlaceholder
  3
AcMechDwgViewMgmt
 90
        0
280
     0
281
     0
  0
CLASS
  1
AMDTNOTETEMPLATEDB
  2
AmdtNoteTemplateDB
  3
AMDT_STDIMP_MODULE_NAME
 90
        0
280
     0
281
     0
  0
CLASS
  1
ACAMGFILTERDAT
  2
AcAmgFilterDat
  3
"AcadM|Product Description: AutoCAD Mechanical 2000|Company: Autodesk"
 90
    32768
280
     0
281
     0
  0
CLASS
  1
AMDTNOTE
  2
AmdtNote
  3
"AcmSymBB|Product Description: AutoCAD Mechanical 2004 DX|Company: Autodesk"
 90
    33791
280
     0
281
     1
  0
CLASS
  1
AMDTFORMULAUPDATEDISPATCHER
  2
AmdtFormulaUpdateDispatcher
  3
AcMeServices
 90
    32768
280
     0
281
     0
  0
CLASS
  1
AMDTSECTIONSYM
  2
AmdtSectionSym
  3
"AcmSymBB|Product Description: AutoCAD Mechanical 2004 DX|Company: Autodesk"
 90
    33791
280
     0
281
     1
  0
CLASS
  1
AMDTSECTIONSYMLABEL
  2
AmdtSectionSymLabel
  3
"AcmSymBB|Product Description: AutoCAD Mechanical 2004 DX|Company: Autodesk"
 90
    33791
280
     0
281
     1
  0
CLASS
  1
AMDTDETAILSYM
  2
AmdtDetailSym
  3
"AcmSymBB|Product Description: AutoCAD Mechanical 2004 DX|Company: Autodesk"
 90
    33791
280
     0
281
     1
  0
CLASS
  1
AMDTDETAILSYMLABEL
  2
AmdtDetailSymLabel
  3
"AcmSymBB|Product Description: AutoCAD Mechanical 2004 DX|Company: Autodesk"
 90
    33791
280
     0
281
     1
  0
CLASS
  1
DIMASSOC
  2
AcDbDimAssoc
  3
"AcDbDimAssoc|Product Desc:     AcDim ARX App For Dimension|Company:          Autodesk, Inc.|WEB Address:      www.autodesk.com"
 90
        0
280
     0
281
     0
  0
CLASS
  1
MATERIAL
  2
AcDbMaterial
  3
ObjectDBX Classes
 90
        0
280
     0
281
     0
  0
CLASS
  1
VISUALSTYLE
  2
AcDbVisualStyle
  3
ObjectDBX Classes
 90
     4095
280
     0
281
     0
  0
CLASS
  1
TABLESTYLE
  2
AcDbTableStyle
  3
ObjectDBX Classes
 90
     2047
280
     0
281
     0
  0
CLASS
  1
SCALE
  2
AcDbScale
  3
ObjectDBX Classes
 90
     1153
280
     0
281
     0
  0
CLASS
  1
MLEADERSTYLE
  2
AcDbMLeaderStyle
  3
ACDB_MLEADERSTYLE_CLASS
 90
     4095
280
     0
281
     0
  0
CLASS
  1
ACRFATTGENMGR
  2
AcRfAttGeneralMgr
  3
AcAttribServices
 90
    32768
280
     0
281
     0
  0
CLASS
  1
ACRFOBJATTMGR
  2
AcRfObjAttGroupMgr
  3
AcAttribServices
 90
    32768
280
     0
281
     0
  0
CLASS
  1
ACRFMCADAPIATTHOLDER
  2
AcRfMCADAPIAttHolder
  3
AcAttribServices
 90
    32768
280
     0
281
     0
  0
CLASS
  1
AMDTSYSATTR
  2
AmdtSystemAttribute
  3
AcAttribServices
 90
    32768
280
     0
281
     0
  0
CLASS
  1
ACMTAPERSTANDARDISO
  2
AcmTaperStdISO
  3
"Amdt_StdImp|Product Description: AutoCAD Mechanical|Company: Autodesk, Inc."
 90
    33792
280
     0
281
     0
  0
CLASS
  1
ACMANOOTATIONVIEWSTANDARDISO
  2
AmdtAnViewStdISO
  3
"Amdt_StdImp|Product Description: AutoCAD Mechanical|Company: Autodesk, Inc."
 90
    33792
280
     0
281
     0
  0
CLASS
  1
EXACXREFPANELOBJECT
  2
ExAcXREFPanelObject
  3
EXAC_ESW
 90
    33793
280
     0
281
     0
  0
CLASS
  1
NPOCOLLECTION
  2
AcDbImpNonPersistentObjectsCollection
  3
ObjectDBX Classes
 90
    33921
280
     0
281
     0
  0
CLASS
  1
SORTENTSTABLE
  2
AcDbSortentsTable
  3
ObjectDBX Classes
 90
        0
280
     0
281
     0
  0
CLASS
  1
CELLSTYLEMAP
  2
AcDbCellStyleMap
  3
ObjectDBX Classes
 90
     1152
280
     0
281
     0
  0
CLASS
  1
VAACXREFPANELOBJECT
  2
VaAcXREFPanelObject
  3
VAAC_ADDIN
 90
    32768
280
     0
281
     0
  0
CLASS
  1
VAACIMAGEINVENTORY
  2
VaAcImageInventory
  3
VAAC_ADDIN
 90
    32768
280
     0
281
     0
  0
CLASS
  1
AMDTEDGESTANDARDISO13715
  2
AmdtEdgeStdISO13715
  3
"Amdt_StdImp|Product Description: AutoCAD Mechanical 2004 DX|Company: Autodesk"
 90
        0
280
     0
281
     0
  0
ENDSEC
  0
SECTION
  2
TABLES
  0
TABLE
  2
VPORT
  5
8
102
{ACAD_XDICTIONARY
360
DF2
102
}
330
0
100
AcDbSymbolTable
 70
     3
  0
VPORT
  5
1B27
330
8
100
AcDbSymbolTableRecord
100
AcDbViewportTableRecord
  2
*Active
 70
     0
 10
0.0
 20
0.0
 11
1.0
 21
1.0
 12
201.5000018766724
 22
140.0000013038913
 13
0.0
 23
0.0
 14
2.5
 24
2.5
 15
10.0
 25
10.0
 16
0.0
 26
0.0
 36
1.0
 17
0.0
 27
0.0
 37
0.0
 40
358.6059370567697
 41
1.131612903225806
 42
50.0
 43
0.0
 44
0.0
 50
0.0
 51
0.0
 71
    16
 72
   100
 73
     1
 74
     3
 75
     0
 76
     0
 77
     0
 78
     0
281
     0
 65
     1
110
0.0
120
0.0
130
0.0
111
1.0
121
0.0
131
0.0
112
0.0
122
1.0
132
0.0
 79
     0
146
0.0
  0
ENDTAB
  0
TABLE
  2
LTYPE
  5
5
330
0
100
AcDbSymbolTable
 70
    20
  0
LTYPE
  5
14
330
5
100
AcDbSymbolTableRecord
100
AcDbLinetypeTableRecord
  2
ByBlock
 70
     0
  3

 72
    65
 73
     0
 40
0.0
  0
LTYPE
  5
15
330
5
100
AcDbSymbolTableRecord
100
AcDbLinetypeTableRecord
  2
ByLayer
 70
     0
  3

 72
    65
 73
     0
 40
0.0
  0
LTYPE
  5
16
330
5
100
AcDbSymbolTableRecord
100
AcDbLinetypeTableRecord
  2
Continuous
 70
     0
  3
Solid line
 72
    65
 73
     0
 40
0.0
  0
LTYPE
  5
64
330
5
100
AcDbSymbolTableRecord
100
AcDbLinetypeTableRecord
  2
AM_ISO02W050
 70
     0
  3
__ __ __ __ __ __ __ __ __ __ __ __ __ __ __
 72
    65
 73
     2
 40
7.5
 49
6.0
 74
     0
 49
-1.5
 74
     0
  0
LTYPE
  5
65
330
5
100
AcDbSymbolTableRecord
100
AcDbLinetypeTableRecord
  2
AM_ISO08W050
 70
     0
  3
____ . ____ . ____ . ____ . ____ . ____ . ____
 72
    65
 73
     4
 40
18.0
 49
12.0
 74
     0
 49
-1.5
 74
     0
 49
3.0
 74
     0
 49
-1.5
 74
     0
  0
LTYPE
  5
66
330
5
100
AcDbSymbolTableRecord
100
AcDbLinetypeTableRecord
  2
AM_ISO09W050
 70
     0
  3
_____ . . _____ . . _____ . . ____ .. ____
 72
    65
 73
     6
 40
22.5
 49
12.0
 74
     0
 49
-1.5
 74
     0
 49
3.0
 74
     0
 49
-1.5
 74
     0
 49
3.0
 74
     0
 49
-1.5
 74
     0
  0
LTYPE
  5
67
330
5
100
AcDbSymbolTableRecord
100
AcDbLinetypeTableRecord
  2
Amconstr
 70
     0
  3
_______________________
 72
    65
 73
     2
 40
9999.0
 49
9999.0
 74
     0
 49
0.0
 74
     0
  0
LTYPE
  5
68
330
5
100
AcDbSymbolTableRecord
100
AcDbLinetypeTableRecord
  2
AM_ISO08W050x2
 70
     0
  3
__ . __ . __ . __ . __ . __
 72
    65
 73
     4
 40
9.0
 49
6.0
 74
     0
 49
-0.75
 74
     0
 49
1.5
 74
     0
 49
-0.75
 74
     0
  0
LTYPE
  5
69
330
5
100
AcDbSymbolTableRecord
100
AcDbLinetypeTableRecord
  2
AM_ISO02W050x2
 70
     0
  3
 _ _ _ _ _ _ _ _ _ _ _ _
 72
    65
 73
     2
 40
3.75
 49
3.0
 74
     0
 49
-0.75
 74
     0
  0
LTYPE
  5
6C
330
5
100
AcDbSymbolTableRecord
100
AcDbLinetypeTableRecord
  2
Amzigzag
 70
     0
  3
/\/-/\/-/\/-/\/-/\/-/\/
 72
    65
 73
     2
 40
11.0001
 49
0.0001
 74
     4
 75
   135
340
6B
 46
0.04
 50
0.0
 44
0.0
 45
0.0
 49
-11.0
 74
     0
  0
LTYPE
  5
7A
330
5
100
AcDbSymbolTableRecord
100
AcDbLinetypeTableRecord
  2
ACISOWELD
 70
     0
  3
_ _ _ _ _
 72
    65
 73
     2
 40
2.0
 49
2.0
 74
     0
 49
-1.0
 74
     0
  0
LTYPE
  5
7B
330
5
100
AcDbSymbolTableRecord
100
AcDbLinetypeTableRecord
  2
ACISOTGB
 70
     0
  3
__ . . __ . .
 72
    65
 73
     6
 40
9.0
 49
4.0
 74
     0
 49
-1.0
 74
     0
 49
1.0
 74
     0
 49
-1.0
 74
     0
 49
1.0
 74
     0
 49
-1.0
 74
     0
  0
LTYPE
  5
7C
330
5
100
AcDbSymbolTableRecord
100
AcDbLinetypeTableRecord
  2
ACISOTGL
 70
     0
  3
_ _ _ _ _
 72
    65
 73
     2
 40
3.0
 49
2.0
 74
     0
 49
-1.0
 74
     0
  0
LTYPE
  5
7E
330
5
100
AcDbSymbolTableRecord
100
AcDbLinetypeTableRecord
  2
CENTER
 70
     0
  3
__ . __
 72
    65
 73
     4
 40
7.0
 49
4.0
 74
     0
 49
-1.0
 74
     0
 49
1.0
 74
     0
 49
-1.0
 74
     0
  0
LTYPE
  5
D8
330
5
100
AcDbSymbolTableRecord
100
AcDbLinetypeTableRecord
  2
HIDDEN
 70
     0
  3
Hidden __ __ __ __ __ __ __ __ __ __ __ __ __ _
 72
    65
 73
     2
 40
9.524999999999998
 49
6.349999999999999
 74
     0
 49
-3.174999999999999
 74
     0
  0
LTYPE
  5
D9
330
5
100
AcDbSymbolTableRecord
100
AcDbLinetypeTableRecord
  2
PHANTOM2
 70
     0
  3
Phantom (.5x) ___ _ _ ___ _ _ ___ _ _ ___ _ _
 72
    65
 73
     6
 40
31.75
 49
15.875
 74
     0
 49
-3.174999999999999
 74
     0
 49
3.174999999999999
 74
     0
 49
-3.174999999999999
 74
     0
 49
3.174999999999999
 74
     0
 49
-3.174999999999999
 74
     0
  0
LTYPE
  5
5ED
330
5
100
AcDbSymbolTableRecord
100
AcDbLinetypeTableRecord
  2
gen3
 70
     0
  3
-- -- -- -- -- -- -- -- -- -- -- -- -- -- --
 72
    65
 73
     2
 40
6.25
 49
4.75
 74
     0
 49
-1.5
 74
     0
  0
LTYPE
  5
5EE
330
5
100
AcDbSymbolTableRecord
100
AcDbLinetypeTableRecord
  2
gen7
 70
     0
  3
____ . ____ . ____ . ____ . ____ . ____ . ____
 72
    65
 73
     4
 40
13.75
 49
9.75
 74
     0
 49
-1.5
 74
     0
 49
1.0
 74
     0
 49
-1.5
 74
     0
  0
LTYPE
  5
5EF
330
5
100
AcDbSymbolTableRecord
100
AcDbLinetypeTableRecord
  2
gen3a
 70
     0
  3
 - - - - -
 72
    65
 73
     2
 40
3.125
 49
2.25
 74
     0
 49
-0.875
 74
     0
  0
LTYPE
  5
5F0
330
5
100
AcDbSymbolTableRecord
100
AcDbLinetypeTableRecord
  2
gen7a
 70
     0
  3
__ . __ . __
 72
    65
 73
     4
 40
6.875
 49
4.75
 74
     0
 49
-0.875
 74
     0
 49
0.375
 74
     0
 49
-0.875
 74
     0
  0
LTYPE
  5
5F1
330
5
100
AcDbSymbolTableRecord
100
AcDbLinetypeTableRecord
  2
gen4a
 70
     0
  3
_____ . . _____ . . _____ . . ____ .. ____
 72
    65
 73
     6
 40
16.25
 49
9.75
 74
     0
 49
-1.5
 74
     0
 49
1.0
 74
     0
 49
-1.5
 74
     0
 49
1.0
 74
     0
 49
-1.5
 74
     0
  0
LTYPE
  5
5F2
330
5
100
AcDbSymbolTableRecord
100
AcDbLinetypeTableRecord
  2
genzigzag
 70
     0
  3
/\/-/\/-/\/-/\/-/\/-/\/
 72
    65
 73
     2
 40
12.0001
 49
0.0001
 74
     4
 75
   135
340
6B
 46
2.0
 50
0.0
 44
0.0
 45
0.0
 49
-12.0
 74
     0
  0
ENDTAB
  0
TABLE
  2
LAYER
  5
2
102
{ACAD_XDICTIONARY
360
35D
102
}
330
0
100
AcDbSymbolTable
 70
    25
  0
LAYER
  5
10
102
{ACAD_XDICTIONARY
360
F5D
102
}
330
2
100
AcDbSymbolTableRecord
100
AcDbLayerTableRecord
  2
0
 70
     0
 62
     7
  6
Continuous
370
    -3
390
F
  0
LAYER
  5
1E1
330
2
100
AcDbSymbolTableRecord
100
AcDbLayerTableRecord
  2
Defpoints
 70
     0
 62
     7
  6
Continuous
290
     0
370
    -3
390
F
  0
LAYER
  5
518
102
{ACAD_XDICTIONARY
360
F5F
102
}
330
2
100
AcDbSymbolTableRecord
100
AcDbLayerTableRecord
  2
上側
 70
     0
 62
     7
  6
Continuous
370
    25
390
F
  0
LAYER
  5
519
102
{ACAD_XDICTIONARY
360
F61
102
}
330
2
100
AcDbSymbolTableRecord
100
AcDbLayerTableRecord
  2
上側0
 70
     0
 62
     7
  6
AM_ISO02W050x2
370
    13
390
F
  0
LAYER
  5
51A
102
{ACAD_XDICTIONARY
360
F63
102
}
330
2
100
AcDbSymbolTableRecord
100
AcDbLayerTableRecord
  2
下側
 70
     0
 62
     2
  6
Continuous
370
    25
390
F
  0
LAYER
  5
51B
102
{ACAD_XDICTIONARY
360
F65
102
}
330
2
100
AcDbSymbolTableRecord
100
AcDbLayerTableRecord
  2
ｶﾞｽｹｯﾄ
 70
     0
 62
     5
  6
Continuous
370
    25
390
F
  0
LAYER
  5
51C
102
{ACAD_XDICTIONARY
360
F67
102
}
330
2
100
AcDbSymbolTableRecord
100
AcDbLayerTableRecord
  2
下側0
 70
     0
 62
     2
  6
AM_ISO02W050x2
370
    13
390
F
  0
LAYER
  5
5E3
102
{ACAD_XDICTIONARY
360
F69
102
}
330
2
100
AcDbSymbolTableRecord
100
AcDbLayerTableRecord
  2
AM_7
 70
     0
 62
     4
  6
AM_ISO08W050
370
    13
390
F
  0
LAYER
  5
5E4
102
{ACAD_XDICTIONARY
360
F6B
102
}
330
2
100
AcDbSymbolTableRecord
100
AcDbLayerTableRecord
  2
AM_5
 70
     0
 62
     3
  6
Continuous
370
    13
390
F
  0
LAYER
  5
60F
102
{ACAD_XDICTIONARY
360
F6D
102
}
330
2
100
AcDbSymbolTableRecord
100
AcDbLayerTableRecord
  2
7A
 70
     0
 62
     4
  6
gen7a
370
    -3
390
F
  0
LAYER
  5
610
102
{ACAD_XDICTIONARY
360
F6F
102
}
330
2
100
AcDbSymbolTableRecord
100
AcDbLayerTableRecord
  2
RAHM2
 70
     0
 62
     1
  6
Continuous
370
    -3
390
F
  0
LAYER
  5
BB6
102
{ACAD_XDICTIONARY
360
F71
102
}
330
2
100
AcDbSymbolTableRecord
100
AcDbLayerTableRecord
  2
AM_CL
 70
     0
 62
     1
  6
Amconstr
370
    25
390
F
  0
LAYER
  5
DD2
102
{ACAD_XDICTIONARY
360
F73
102
}
330
2
100
AcDbSymbolTableRecord
100
AcDbLayerTableRecord
  2
AM_6
 70
     0
 62
     2
  6
Continuous
370
    35
390
F
1001
AcAecLayerStandard
1000

1000

  0
LAYER
  5
DD9
102
{ACAD_XDICTIONARY
360
F75
102
}
330
2
100
AcDbSymbolTableRecord
100
AcDbLayerTableRecord
  2
AM_0
 70
     0
 62
     7
  6
Continuous
370
    50
390
F
1001
AcAecLayerStandard
1000

1000

  0
LAYER
  5
DDB
102
{ACAD_XDICTIONARY
360
F77
102
}
330
2
100
AcDbSymbolTableRecord
100
AcDbLayerTableRecord
  2
AM_4
 70
     0
 62
     3
  6
Continuous
370
    25
390
F
1001
AcAecLayerStandard
1000

1000

  0
LAYER
  5
DDE
102
{ACAD_XDICTIONARY
360
F79
102
}
330
2
100
AcDbSymbolTableRecord
100
AcDbLayerTableRecord
  2
AM_8
 70
     0
 62
     1
  6
Continuous
370
    25
390
F
1001
AcAecLayerStandard
1000

1000

  0
LAYER
  5
1089
330
2
100
AcDbSymbolTableRecord
100
AcDbLayerTableRecord
  2
TK1
 70
     0
 62
     7
  6
Continuous
370
    25
390
F
  0
LAYER
  5
108A
330
2
100
AcDbSymbolTableRecord
100
AcDbLayerTableRecord
  2
TK10
 70
     0
 62
     7
  6
AM_ISO02W050x2
370
    13
390
F
  0
LAYER
  5
108B
330
2
100
AcDbSymbolTableRecord
100
AcDbLayerTableRecord
  2
TK2
 70
     0
 62
     2
  6
Continuous
370
    25
390
F
  0
LAYER
  5
108C
330
2
100
AcDbSymbolTableRecord
100
AcDbLayerTableRecord
  2
TK3
 70
     0
 62
     5
  6
Continuous
370
    25
390
F
  0
LAYER
  5
108D
330
2
100
AcDbSymbolTableRecord
100
AcDbLayerTableRecord
  2
TK20
 70
     0
 62
     2
  6
AM_ISO02W050x2
370
    13
390
F
  0
LAYER
  5
108E
330
2
100
AcDbSymbolTableRecord
100
AcDbLayerTableRecord
  2
TK4
 70
     0
 62
     3
  6
Continuous
370
    25
390
F
  0
LAYER
  5
108F
330
2
100
AcDbSymbolTableRecord
100
AcDbLayerTableRecord
  2
TK6
 70
     0
 62
     6
  6
Continuous
370
    25
390
F
  0
LAYER
  5
1090
330
2
100
AcDbSymbolTableRecord
100
AcDbLayerTableRecord
  2
TK40
 70
     0
 62
     3
  6
AM_ISO02W050x2
370
    13
390
F
  0
LAYER
  5
1091
330
2
100
AcDbSymbolTableRecord
100
AcDbLayerTableRecord
  2
TK60
 70
     0
 62
     6
  6
AM_ISO02W050x2
370
    13
390
F
  0
ENDTAB
  0
TABLE
  2
STYLE
  5
3
330
0
100
AcDbSymbolTable
 70
     5
  0
STYLE
  5
11
330
3
100
AcDbSymbolTableRecord
100
AcDbTextStyleTableRecord
  2
STANDARD
 70
     0
 40
0.0
 41
1.0
 50
0.0
 71
     0
 42
73.98571745357912
  3
ISOCP.SHX
  4
bigfont.shx
  0
STYLE
  5
6B
330
3
100
AcDbSymbolTableRecord
100
AcDbTextStyleTableRecord
  2

 70
     1
 40
0.0
 41
1.0
 50
0.0
 71
     0
 42
2.5
  3
ltypeshp.shx
  4

  0
STYLE
  5
6D
330
3
100
AcDbSymbolTableRecord
100
AcDbTextStyleTableRecord
  2
ACISOTS
 70
     0
 40
1.0
 41
1.0
 50
0.0
 71
     0
 42
2.5
  3
isocp.shx
  4
extfont.shx
  0
STYLE
  5
79
330
3
100
AcDbSymbolTableRecord
100
AcDbTextStyleTableRecord
  2
ACISOGDT
 70
     0
 40
0.0
 41
1.0
 50
0.0
 71
     0
 42
2.5
  3
amgdt.shx
  4

  0
STYLE
  5
612
330
3
100
AcDbSymbolTableRecord
100
AcDbTextStyleTableRecord
  2

 70
     1
 40
0.0
 41
1.0
 50
0.0
 71
     0
 42
3.0
  3
genltshp.shx
  4

  0
ENDTAB
  0
TABLE
  2
VIEW
  5
6
330
0
100
AcDbSymbolTable
 70
     6
  0
VIEW
  5
291
102
{ACAD_XDICTIONARY
360
F8A
102
}
330
6
100
AcDbSymbolTableRecord
100
AcDbViewTableRecord
  2
AM_VIEW1
 70
     0
 40
140.0
 10
103.7546012269939
 20
210.0
 41
207.5092024539878
 11
0.0
 21
0.0
 31
1.0
 12
0.0
 22
0.0
 32
0.0
 42
50.0
 43
0.0
 44
0.0
 50
0.0
 71
    16
281
     0
 72
     0
  0
VIEW
  5
292
102
{ACAD_XDICTIONARY
360
F8C
102
}
330
6
100
AcDbSymbolTableRecord
100
AcDbViewTableRecord
  2
AM_VIEW2
 70
     0
 40
140.0
 10
299.2453987730061
 20
210.0
 41
207.5092024539878
 11
0.0
 21
0.0
 31
1.0
 12
0.0
 22
0.0
 32
0.0
 42
50.0
 43
0.0
 44
0.0
 50
0.0
 71
    16
281
     0
 72
     0
  0
VIEW
  5
293
102
{ACAD_XDICTIONARY
360
F8E
102
}
330
6
100
AcDbSymbolTableRecord
100
AcDbViewTableRecord
  2
AM_VIEW3
 70
     0
 40
140.0
 10
103.7546012269939
 20
70.00000000000001
 41
207.5092024539878
 11
0.0
 21
0.0
 31
1.0
 12
0.0
 22
0.0
 32
0.0
 42
50.0
 43
0.0
 44
0.0
 50
0.0
 71
    16
281
     0
 72
     0
  0
VIEW
  5
294
102
{ACAD_XDICTIONARY
360
F90
102
}
330
6
100
AcDbSymbolTableRecord
100
AcDbViewTableRecord
  2
AM_VIEW4
 70
     0
 40
140.0
 10
299.2453987730061
 20
70.00000000000001
 41
207.5092024539878
 11
0.0
 21
0.0
 31
1.0
 12
0.0
 22
0.0
 32
0.0
 42
50.0
 43
0.0
 44
0.0
 50
0.0
 71
    16
281
     0
 72
     0
  0
VIEW
  5
295
102
{ACAD_XDICTIONARY
360
F92
102
}
330
6
100
AcDbSymbolTableRecord
100
AcDbViewTableRecord
  2
AM_VIEW5
 70
     0
 40
140.0
 10
201.5
 20
140.0
 41
207.5092024539878
 11
0.0
 21
0.0
 31
1.0
 12
0.0
 22
0.0
 32
0.0
 42
50.0
 43
0.0
 44
0.0
 50
0.0
 71
    16
281
     0
 72
     0
  0
VIEW
  5
296
102
{ACAD_XDICTIONARY
360
F94
102
}
330
6
100
AcDbSymbolTableRecord
100
AcDbViewTableRecord
  2
AM_VIEW6
 70
     0
 40
279.9972000000001
 10
201.5
 20
140.0
 41
415.0142547239266
 11
0.0
 21
0.0
 31
1.0
 12
0.0
 22
0.0
 32
0.0
 42
50.0
 43
0.0
 44
0.0
 50
0.0
 71
    16
281
     0
 72
     0
  0
ENDTAB
  0
TABLE
  2
UCS
  5
7
330
0
100
AcDbSymbolTable
 70
     0
  0
ENDTAB
  0
TABLE
  2
APPID
  5
9
330
0
100
AcDbSymbolTable
 70
    39
  0
APPID
  5
12
330
9
100
AcDbSymbolTableRecord
100
AcDbRegAppTableRecord
  2
ACAD
 70
     0
  0
APPID
  5
46
330
9
100
AcDbSymbolTableRecord
100
AcDbRegAppTableRecord
  2
MCAD_NO_VIS
 70
     0
  0
APPID
  5
47
330
9
100
AcDbSymbolTableRecord
100
AcDbRegAppTableRecord
  2
ACAD_TEMP_GRAPHIC
 70
     0
  0
APPID
  5
58
330
9
100
AcDbSymbolTableRecord
100
AcDbRegAppTableRecord
  2
ACATTRIBSERVICES
 70
     0
  0
APPID
  5
EE
330
9
100
AcDbSymbolTableRecord
100
AcDbRegAppTableRecord
  2
AD_DRAW
 70
     0
  0
APPID
  5
10C
330
9
100
AcDbSymbolTableRecord
100
AcDbRegAppTableRecord
  2
DESIGNERASSEMBLIES
 70
     0
  0
APPID
  5
111
330
9
100
AcDbSymbolTableRecord
100
AcDbRegAppTableRecord
  2
ACADM_DIM_EDIT
 70
     0
  0
APPID
  5
112
330
9
100
AcDbSymbolTableRecord
100
AcDbRegAppTableRecord
  2
AMDT_DM_ADJ
 70
     0
  0
APPID
  5
1E2
330
9
100
AcDbSymbolTableRecord
100
AcDbRegAppTableRecord
  2
GENIUS_GENREC_14
 70
     0
  0
APPID
  5
1E3
330
9
100
AcDbSymbolTableRecord
100
AcDbRegAppTableRecord
  2
GENIUS_GENODEF_13
 70
     0
  0
APPID
  5
1E4
330
9
100
AcDbSymbolTableRecord
100
AcDbRegAppTableRecord
  2
GENIUS_GENOBJ-N-REC_13
 70
     0
  0
APPID
  5
1E5
330
9
100
AcDbSymbolTableRecord
100
AcDbRegAppTableRecord
  2
GENIUS_GENDIMSH_14
 70
     0
  0
APPID
  5
1E6
330
9
100
AcDbSymbolTableRecord
100
AcDbRegAppTableRecord
  2
GENIUS_GENCFG_13
 70
     0
  0
APPID
  5
1E7
330
9
100
AcDbSymbolTableRecord
100
AcDbRegAppTableRecord
  2
GENIUS_GENCFG0_13
 70
     0
  0
APPID
  5
1E8
330
9
100
AcDbSymbolTableRecord
100
AcDbRegAppTableRecord
  2
GENIUS_GENCFG1_13
 70
     0
  0
APPID
  5
1E9
330
9
100
AcDbSymbolTableRecord
100
AcDbRegAppTableRecord
  2
GENIUS_GENCFG2_13
 70
     0
  0
APPID
  5
1EA
330
9
100
AcDbSymbolTableRecord
100
AcDbRegAppTableRecord
  2
GENIUS_GENCFG3_13
 70
     0
  0
APPID
  5
1EB
330
9
100
AcDbSymbolTableRecord
100
AcDbRegAppTableRecord
  2
GENIUS_GENCFG4_13
 70
     0
  0
APPID
  5
1EC
330
9
100
AcDbSymbolTableRecord
100
AcDbRegAppTableRecord
  2
GENIUS_GEVCFG0_13
 70
     0
  0
APPID
  5
1ED
330
9
100
AcDbSymbolTableRecord
100
AcDbRegAppTableRecord
  2
GENIUS_GENOENT_13
 70
     0
  0
APPID
  5
1EE
330
9
100
AcDbSymbolTableRecord
100
AcDbRegAppTableRecord
  2
GENIUS_GENOBJ-N-CRS_13
 70
     0
  0
APPID
  5
1EF
330
9
100
AcDbSymbolTableRecord
100
AcDbRegAppTableRecord
  2
GENIUS_GENOREF_13
 70
     0
  0
APPID
  5
1F0
330
9
100
AcDbSymbolTableRecord
100
AcDbRegAppTableRecord
  2
GENIUS_GENOLIS_13
 70
     0
  0
APPID
  5
1F1
330
9
100
AcDbSymbolTableRecord
100
AcDbRegAppTableRecord
  2
GENIUS_GENOBJ-N-TIT_13
 70
     0
  0
APPID
  5
1F2
330
9
100
AcDbSymbolTableRecord
100
AcDbRegAppTableRecord
  2
GENIUS_GENTITLE_13
 70
     0
  0
APPID
  5
1F3
330
9
100
AcDbSymbolTableRecord
100
AcDbRegAppTableRecord
  2
GENIUS_GENSCREG_15
 70
     0
  0
APPID
  5
1F4
330
9
100
AcDbSymbolTableRecord
100
AcDbRegAppTableRecord
  2
GENIUS_GENOBJ-N-SDF_13
 70
     0
  0
APPID
  5
1F5
330
9
100
AcDbSymbolTableRecord
100
AcDbRegAppTableRecord
  2
GENIUS_GENOBJ-N-CEN_13
 70
     0
  0
APPID
  5
1F6
330
9
100
AcDbSymbolTableRecord
100
AcDbRegAppTableRecord
  2
GENIUS_GENOBJ-N-HTC_13
 70
     0
  0
APPID
  5
1F7
330
9
100
AcDbSymbolTableRecord
100
AcDbRegAppTableRecord
  2
GENIUS_GENHATCH_13
 70
     0
  0
APPID
  5
484
330
9
100
AcDbSymbolTableRecord
100
AcDbRegAppTableRecord
  2
GENIUS_GENOBJ-N-ZOO_13
 70
     0
  0
APPID
  5
485
330
9
100
AcDbSymbolTableRecord
100
AcDbRegAppTableRecord
  2
GENIUS_GENZOO_17
 70
     0
  0
APPID
  5
792
330
9
100
AcDbSymbolTableRecord
100
AcDbRegAppTableRecord
  2
GENIUS_GENOBJ-N-FIL_13
 70
     0
  0
APPID
  5
DA8
330
9
100
AcDbSymbolTableRecord
100
AcDbRegAppTableRecord
  2
ACAD_MLEADERVER
 70
     0
  0
APPID
  5
DD3
330
9
100
AcDbSymbolTableRecord
100
AcDbRegAppTableRecord
  2
AcAecLayerStandard
 70
     0
  0
APPID
  5
DD4
330
9
100
AcDbSymbolTableRecord
100
AcDbRegAppTableRecord
  2
ACAD_EXEMPT_FROM_CAD_STANDARDS
 70
     0
  0
APPID
  5
DD8
330
9
100
AcDbSymbolTableRecord
100
AcDbRegAppTableRecord
  2
GENIUS_AMGTXT_16
 70
     0
  0
APPID
  5
EDA
330
9
100
AcDbSymbolTableRecord
100
AcDbRegAppTableRecord
  2
GENIUS_GENDTOL_13
 70
     0
  0
APPID
  5
1092
330
9
100
AcDbSymbolTableRecord
100
AcDbRegAppTableRecord
  2
GENIUS_GENCEN_19
 70
     0
  0
ENDTAB
  0
TABLE
  2
DIMSTYLE
  5
A
330
0
100
AcDbSymbolTable
 70
    16
100
AcDbDimStyleTable
 71
     1
340
81
  0
DIMSTYLE
105
81
330
A
100
AcDbSymbolTableRecord
100
AcDbDimStyleTableRecord
  2
AM_ISO
 70
     0
  4
"
 41
2.5
 42
1.0
 43
10.0
 44
1.0
 47
0.1
 48
0.1
 73
     0
 74
     0
 77
     1
 78
     8
 79
     2
140
3.5
141
0.0
143
0.0393701
146
0.71
147
1.5
172
     1
176
   256
177
   256
178
     2
271
     2
272
     2
283
     0
284
     8
340
11
341
407
342
407
371
    -1
372
    -1
  0
DIMSTYLE
105
82
102
{ACAD_REACTORS
330
18E8
102
}
330
A
100
AcDbSymbolTableRecord
100
AcDbDimStyleTableRecord
  2
AM_ISO$3
 70
     0
  4
"
 41
2.5
 42
1.0
 43
10.0
 44
1.0
 47
0.1
 48
0.1
 73
     0
 77
     1
 78
     8
 79
     2
140
3.5
141
0.0
143
0.0393701
146
0.71
147
1.5
176
   256
177
   256
178
     2
271
     2
272
     2
283
     0
284
     8
288
     1
289
     0
340
11
341
407
342
407
371
    -1
372
    -1
  0
DIMSTYLE
105
83
102
{ACAD_REACTORS
330
18C0
102
}
330
A
100
AcDbSymbolTableRecord
100
AcDbDimStyleTableRecord
  2
AM_ISO$4
 70
     0
  4
"
 41
2.5
 42
1.0
 43
10.0
 44
1.0
 47
0.1
 48
0.1
 73
     0
 77
     1
 78
     8
 79
     2
140
3.5
141
0.0
143
0.0393701
146
0.71
147
1.5
176
   256
177
   256
178
     2
271
     2
272
     2
283
     0
284
     8
288
     1
289
     0
340
11
341
407
342
407
371
    -1
372
    -1
  0
DIMSTYLE
105
84
330
A
100
AcDbSymbolTableRecord
100
AcDbDimStyleTableRecord
  2
AM_ISO$6
 70
     0
  4
"
 41
2.5
 42
1.0
 43
10.0
 44
1.0
 47
0.1
 48
0.1
 73
     0
 74
     0
 78
     8
 79
     2
140
3.5
141
0.0
143
0.0393701
146
0.71
147
1.5
172
     1
176
   256
177
   256
178
     2
271
     2
272
     2
283
     0
284
     8
340
11
341
407
342
407
371
    -1
372
    -1
  0
DIMSTYLE
105
85
330
A
100
AcDbSymbolTableRecord
100
AcDbDimStyleTableRecord
  2
AM_ISO$7
 70
     0
  4
"
 41
2.5
 42
1.0
 43
10.0
 44
1.0
 47
0.1
 48
0.1
 73
     0
 74
     0
 77
     1
 78
     8
 79
     2
140
5.0
141
0.0
143
0.0393701
146
0.71
147
1.5
172
     1
176
   256
177
   256
178
     2
271
     2
272
     2
283
     0
284
     8
340
11
341
407
342
407
371
    -1
372
    -1
  0
DIMSTYLE
105
86
330
A
100
AcDbSymbolTableRecord
100
AcDbDimStyleTableRecord
  2
AM_ISO$SF
 70
     0
  4
"
 41
2.5
 42
1.0
 43
10.0
 44
1.0
 47
0.1
 48
0.1
 73
     0
 74
     0
 75
     1
 76
     1
 77
     1
 78
     8
 79
     2
140
3.5
141
0.0
143
0.0393701
146
0.71
147
1.5
172
     1
176
   256
177
   256
178
     2
271
     2
272
     2
283
     0
284
     8
340
11
341
407
342
407
371
    -1
372
    -1
  0
DIMSTYLE
105
8B
330
A
100
AcDbSymbolTableRecord
100
AcDbDimStyleTableRecord
  2
AM_ISO$SH
 70
     0
  4
"
 41
2.5
 42
1.0
 43
10.0
 44
1.0
 47
0.1
 48
0.1
 73
     0
 74
     0
 75
     1
 76
     1
 77
     1
 78
     8
 79
     2
140
3.5
141
0.0
143
0.0393701
144
2.0
146
0.71
147
1.5
172
     1
173
     1
176
   256
177
   256
178
     2
271
     2
272
     2
283
     0
284
     8
340
11
341
407
343
87
344
407
371
    -1
372
    -1
  0
DIMSTYLE
105
5F3
330
A
100
AcDbSymbolTableRecord
100
AcDbDimStyleTableRecord
  2
GEN-ISO
 70
     0
  4
"
 41
2.5
 42
1.0
 43
10.0
 44
1.0
 47
0.1
 48
0.1
 73
     0
 74
     0
 77
     1
 78
     8
140
3.5
141
0.0
143
0.0393701
146
0.71
147
1.5
172
     1
176
   256
177
   256
178
     2
271
     2
272
     3
274
     4
283
     0
340
11
  0
DIMSTYLE
105
5F4
330
A
100
AcDbSymbolTableRecord
100
AcDbDimStyleTableRecord
  2
GEN-ISO$3
 70
     0
  4
"
 41
2.5
 42
1.0
 43
10.0
 44
1.0
 47
0.1
 48
0.1
 73
     0
 77
     1
 78
     8
140
3.5
141
0.0
143
0.0393701
146
0.71
147
1.5
176
   256
177
   256
178
     2
271
     2
272
     3
274
     4
283
     0
288
     1
289
     0
340
11
  0
DIMSTYLE
105
5F5
330
A
100
AcDbSymbolTableRecord
100
AcDbDimStyleTableRecord
  2
GEN-ISO$4
 70
     0
  4
"
 41
2.5
 42
1.0
 43
10.0
 44
1.0
 47
0.1
 48
0.1
 73
     0
 77
     1
 78
     8
140
3.5
141
0.0
143
0.0393701
146
0.71
147
1.5
176
   256
177
   256
178
     2
271
     2
272
     3
274
     4
283
     0
288
     1
289
     0
340
11
  0
DIMSTYLE
105
5F6
330
A
100
AcDbSymbolTableRecord
100
AcDbDimStyleTableRecord
  2
GEN-ISO$6
 70
     0
  4
"
 41
2.5
 42
1.0
 43
10.0
 44
1.0
 47
0.1
 48
0.1
 73
     0
 74
     0
 78
     8
140
3.5
141
0.0
143
0.0393701
146
0.71
147
1.5
176
   256
177
   256
178
     2
271
     2
272
     3
274
     4
283
     0
340
11
  0
DIMSTYLE
105
5F7
330
A
100
AcDbSymbolTableRecord
100
AcDbDimStyleTableRecord
  2
GEN-ISO-POS
 70
     0
  4
"
 41
2.5
 42
1.0
 43
10.0
 44
1.0
 47
0.1
 48
0.1
 73
     0
 74
     0
 78
     8
140
5.0
141
0.0
143
0.0393701
146
0.71
147
1.5
176
   256
177
   256
178
     2
271
     2
272
     3
274
     4
283
     0
340
11
  0
DIMSTYLE
105
5F8
330
A
100
AcDbSymbolTableRecord
100
AcDbDimStyleTableRecord
  2
GEN-ISO-AXE-F
 70
     0
  4
"
 41
2.5
 42
1.0
 43
10.0
 44
1.0
 47
0.1
 48
0.1
 73
     0
 74
     0
 75
     1
 76
     1
 77
     1
 78
     8
140
3.5
141
0.0
143
0.0393701
146
0.71
147
1.5
172
     1
176
   256
177
   256
178
     2
271
     2
272
     3
274
     4
283
     0
340
11
  0
DIMSTYLE
105
5F9
330
A
100
AcDbSymbolTableRecord
100
AcDbDimStyleTableRecord
  2
GEN-ISO-AXE-H
 70
     0
  4
"
 41
2.5
 42
1.0
 43
10.0
 44
1.0
 47
0.1
 48
0.1
 73
     0
 74
     0
 75
     1
 76
     1
 77
     1
 78
     8
140
3.5
141
0.0
143
0.0393701
144
2.0
146
0.71
147
1.5
172
     1
173
     1
176
   256
177
   256
178
     2
271
     2
272
     3
274
     4
283
     0
340
11
  0
DIMSTYLE
105
BF2
330
A
100
AcDbSymbolTableRecord
100
AcDbDimStyleTableRecord
  2
AM_ANSI
 70
     0
  4
mm
 41
0.1
 42
0.05
 43
0.5
 44
0.1
 47
0.1
 48
0.1
 78
     7
 79
     2
140
0.12
141
0.0
146
0.71
147
0.06
176
   256
177
   256
178
     2
274
     4
284
     7
340
11
371
    -1
372
    -1
  0
DIMSTYLE
105
E75
102
{ACAD_REACTORS
330
E79
330
1795
330
17D4
330
181B
330
1850
330
188E
330
1915
330
1939
330
19E2
330
1A0A
330
1A40
330
1A6E
330
1A99
330
1ACF
102
}
330
A
100
AcDbSymbolTableRecord
100
AcDbDimStyleTableRecord
  2
AM_ISO$0
 70
     0
  4
"
 41
2.5
 42
1.0
 43
10.0
 44
1.0
 47
0.1
 48
0.1
 73
     0
 74
     0
 77
     1
 78
     8
 79
     2
140
3.5
141
0.0
143
0.0393701
146
0.71
147
1.5
172
     1
176
   256
177
   256
178
     2
271
     2
272
     2
283
     0
284
     8
340
11
341
407
342
407
371
    -1
372
    -1
  0
ENDTAB
  0
TABLE
  2
BLOCK_RECORD
  5
1
330
0
100
AcDbSymbolTable
 70
    24
  0
BLOCK_RECORD
  5
1F
102
{ACAD_XDICTIONARY
360
8F
102
}
330
1
100
AcDbSymbolTableRecord
100
AcDbBlockTableRecord
  2
*Model_Space
340
22
  0
BLOCK_RECORD
  5
23
330
1
100
AcDbSymbolTableRecord
100
AcDbBlockTableRecord
  2
*Paper_Space
340
26
  0
BLOCK_RECORD
  5
1B
330
1
100
AcDbSymbolTableRecord
100
AcDbBlockTableRecord
  2
*Paper_Space0
340
1E
  0
BLOCK_RECORD
  5
87
330
1
100
AcDbSymbolTableRecord
100
AcDbBlockTableRecord
  2
GENAXEH
340
0
  0
BLOCK_RECORD
  5
407
330
1
100
AcDbSymbolTableRecord
100
AcDbBlockTableRecord
  2
_Open30
340
0
102
{BLKREFS
331
E89
331
E8A
331
EC2
331
17B4
331
17B5
331
1805
331
1806
331
183A
331
183B
331
1879
331
187A
331
189E
331
189F
331
18D8
331
18FB
331
1925
331
1926
331
1949
331
194A
331
19F6
331
19F7
331
1A2A
331
1A2B
331
1A54
331
1A55
331
1A7E
331
1A7F
331
1AA7
331
1AA8
331
1AFE
331
1AFF
102
}
  0
BLOCK_RECORD
  5
5FA
102
{ACAD_XDICTIONARY
360
603
102
}
330
1
100
AcDbSymbolTableRecord
100
AcDbBlockTableRecord
  2
TAKACHI-A3
340
0
  0
BLOCK_RECORD
  5
613
102
{ACAD_XDICTIONARY
360
668
102
}
330
1
100
AcDbSymbolTableRecord
100
AcDbBlockTableRecord
  2
TAKACHI-TITLE
340
0
  0
BLOCK_RECORD
  5
BF3
102
{ACAD_XDICTIONARY
360
BFB
102
}
330
1
100
AcDbSymbolTableRecord
100
AcDbBlockTableRecord
  2
TK-A3
340
0
102
{BLKREFS
331
C06
102
}
  0
BLOCK_RECORD
  5
C08
102
{ACAD_XDICTIONARY
360
C61
102
}
330
1
100
AcDbSymbolTableRecord
100
AcDbBlockTableRecord
  2
TK-TITLE
340
0
102
{BLKREFS
331
C65
102
}
  0
BLOCK_RECORD
  5
E7A
330
1
100
AcDbSymbolTableRecord
100
AcDbBlockTableRecord
  2
*D7
340
0
  0
BLOCK_RECORD
  5
1796
330
1
100
AcDbSymbolTableRecord
100
AcDbBlockTableRecord
  2
*D9
340
0
  0
BLOCK_RECORD
  5
17D5
330
1
100
AcDbSymbolTableRecord
100
AcDbBlockTableRecord
  2
*D10
340
0
  0
BLOCK_RECORD
  5
181C
330
1
100
AcDbSymbolTableRecord
100
AcDbBlockTableRecord
  2
*D11
340
0
  0
BLOCK_RECORD
  5
1851
330
1
100
AcDbSymbolTableRecord
100
AcDbBlockTableRecord
  2
*D12
340
0
  0
BLOCK_RECORD
  5
188F
330
1
100
AcDbSymbolTableRecord
100
AcDbBlockTableRecord
  2
*D13
340
0
  0
BLOCK_RECORD
  5
18C1
330
1
100
AcDbSymbolTableRecord
100
AcDbBlockTableRecord
  2
*D14
340
0
  0
BLOCK_RECORD
  5
18E9
330
1
100
AcDbSymbolTableRecord
100
AcDbBlockTableRecord
  2
*D15
340
0
  0
BLOCK_RECORD
  5
1916
330
1
100
AcDbSymbolTableRecord
100
AcDbBlockTableRecord
  2
*D16
340
0
  0
BLOCK_RECORD
  5
193A
330
1
100
AcDbSymbolTableRecord
100
AcDbBlockTableRecord
  2
*D17
340
0
  0
BLOCK_RECORD
  5
19E3
330
1
100
AcDbSymbolTableRecord
100
AcDbBlockTableRecord
  2
*D18
340
0
  0
BLOCK_RECORD
  5
1A0B
330
1
100
AcDbSymbolTableRecord
100
AcDbBlockTableRecord
  2
*D19
340
0
  0
BLOCK_RECORD
  5
1A41
330
1
100
AcDbSymbolTableRecord
100
AcDbBlockTableRecord
  2
*D20
340
0
  0
BLOCK_RECORD
  5
1A6F
330
1
100
AcDbSymbolTableRecord
100
AcDbBlockTableRecord
  2
*D21
340
0
  0
BLOCK_RECORD
  5
1A9A
330
1
100
AcDbSymbolTableRecord
100
AcDbBlockTableRecord
  2
*D22
340
0
  0
BLOCK_RECORD
  5
1AD0
330
1
100
AcDbSymbolTableRecord
100
AcDbBlockTableRecord
  2
*D23
340
0
  0
ENDTAB
  0
ENDSEC
  0
SECTION
  2
BLOCKS
  0
BLOCK
  5
20
330
1F
100
AcDbEntity
  8
0
100
AcDbBlockBegin
  2
*Model_Space
 70
     0
 10
0.0
 20
0.0
 30
0.0
  3
*Model_Space
  1

  0
ENDBLK
  5
21
330
1F
100
AcDbEntity
  8
0
100
AcDbBlockEnd
  0
BLOCK
  5
24
330
23
100
AcDbEntity
 67
     1
  8
0
100
AcDbBlockBegin
  2
*Paper_Space
 70
     0
 10
0.0
 20
0.0
 30
0.0
  3
*Paper_Space
  1

  0
ENDBLK
  5
25
330
23
100
AcDbEntity
 67
     1
  8
0
100
AcDbBlockEnd
  0
BLOCK
  5
1C
330
1B
100
AcDbEntity
  8
0
100
AcDbBlockBegin
  2
*Paper_Space0
 70
     0
 10
0.0
 20
0.0
 30
0.0
  3
*Paper_Space0
  1

  0
VIEWPORT
  5
178
102
{ACAD_XDICTIONARY
360
F86
102
}
330
1B
100
AcDbEntity
  8
0
100
AcDbViewport
 10
133.3499908447265
 20
101.5999970436096
 30
0.0
 40
370.2266912936524
 41
228.4221935424805
 69
     0
 12
133.3499908447265
 22
101.5999970436096
 13
0.0
 23
0.0
 14
10.0
 24
10.0
 15
10.0
 25
10.0
 16
0.0
 26
0.0
 36
1.0
 17
0.0
 27
0.0
 37
0.0
 42
50.0
 43
0.0
 44
0.0
 45
228.4221935424805
 50
0.0
 51
0.0
 72
   100
 90
    32800
  1

281
     0
 71
     1
 74
     0
110
0.0
120
0.0
130
0.0
111
1.0
121
0.0
131
0.0
112
0.0
122
1.0
132
0.0
 79
     0
146
0.0
1001
GENIUS_GENSCREG_15
1000
PF
1040
1.0
1000
DF
1040
1.0
1000
MIN
1011
-51.76335480209963
1021
-12.6110997276306
1031
0.0
1000
MAX
1011
318.4633364915527
1021
215.8110938148499
1031
0.0
1000
FLAGS
1070
     4
1001
GENIUS_GENODEF_13
1002
{
1000
HIER
1070
     0
1002
}
1002
{
1000
MANEDIT
1070
     0
1002
}
1002
{
1000
NOSEL
1070
     0
1002
}
1002
{
1000
BEHIND
1070
     0
1002
}
1002
{
1000
OTHER
1070
     0
1002
}
1002
{
1000
REACTOR
1002
}
1001
GENIUS_GENOBJ-N-SDF_13
1002
{
1000
OWNER
1000
GEN
1002
}
  0
ENDBLK
  5
1D
330
1B
100
AcDbEntity
  8
0
100
AcDbBlockEnd
  0
BLOCK
  5
89
330
87
100
AcDbEntity
  8
0
100
AcDbBlockBegin
  2
GENAXEH
 70
     0
 10
0.0
 20
0.0
 30
0.0
  3
GENAXEH
  1

  0
LINE
  5
88
330
87
100
AcDbEntity
  8
0
100
AcDbLine
 10
-1.0
 20
0.0
 30
0.0
 11
1.0
 21
0.0
 31
0.0
  0
ENDBLK
  5
8A
330
87
100
AcDbEntity
  8
0
100
AcDbBlockEnd
  0
BLOCK
  5
40B
330
407
100
AcDbEntity
  8
0
100
AcDbBlockBegin
  2
_Open30
 70
     0
 10
0.0
 20
0.0
 30
0.0
  3
_Open30
  1

  0
LINE
  5
408
330
407
100
AcDbEntity
  8
0
  6
ByBlock
 62
     0
370
    -2
100
AcDbLine
 10
-1.0
 20
0.26794919
 30
0.0
 11
0.0
 21
0.0
 31
0.0
  0
LINE
  5
409
330
407
100
AcDbEntity
  8
0
  6
ByBlock
 62
     0
370
    -2
100
AcDbLine
 10
0.0
 20
0.0
 30
0.0
 11
-1.0
 21
-0.26794919
 31
0.0
  0
LINE
  5
40A
330
407
100
AcDbEntity
  8
0
  6
ByBlock
 62
     0
370
    -2
100
AcDbLine
 10
0.0
 20
0.0
 30
0.0
 11
-1.0
 21
0.0
 31
0.0
  0
ENDBLK
  5
40C
330
407
100
AcDbEntity
  8
0
100
AcDbBlockEnd
  0
BLOCK
  5
604
330
5FA
100
AcDbEntity
  8
0
100
AcDbBlockBegin
  2
TAKACHI-A3
 70
     0
 10
0.0
 20
0.0
 30
0.0
  3
TAKACHI-A3
  1

  0
LWPOLYLINE
  5
5FB
330
5FA
100
AcDbEntity
  8
0
100
AcDbPolyline
 90
        4
 70
     1
 43
0.0
 10
10.0
 20
0.0
 10
410.0
 20
0.0
 10
410.0
 20
280.0
 10
10.00000000000003
 20
280.0
1001
GENIUS_GENREC_14
1002
{
1000
PYDIR
1011
10.00000000000001
1021
280.0
1031
0.0
1002
}
1002
{
1000
PXDIR
1011
410.0
1021
0.0
1031
0.0
1002
}
1002
{
1000
PORI
1011
10.0
1021
0.0
1031
0.0
1002
}
1002
{
1000
PINS
1011
210.0
1021
139.9999999999999
1031
0.0
1002
}
1002
{
1000
HVAL
1000
280
1002
}
1002
{
1000
H
1070
     2
1002
}
1002
{
1000
WVAL
1000
400
1002
}
1002
{
1000
W
1070
     2
1002
}
1002
{
1000
C
1070
     4
1002
}
1001
GENIUS_GENODEF_13
1002
{
1000
HIER
1070
     0
1002
}
1002
{
1000
MANEDIT
1070
     0
1002
}
1002
{
1000
NOSEL
1070
     0
1002
}
1002
{
1000
BEHIND
1070
     0
1002
}
1002
{
1000
REACTOR
1002
}
1001
GENIUS_GENOBJ-N-REC_13
1002
{
1000
OWNER
1000
GEN
1002
}
  0
TEXT
  5
5FC
330
5FA
100
AcDbEntity
  8
0
 60
     1
100
AcDbText
 10
15.00000000000003
 20
50.0
 30
0.0
 40
2.5
  1
!GENTITLE-LL
100
AcDbText
  0
TEXT
  5
5FD
330
5FA
100
AcDbEntity
  8
0
 60
     1
100
AcDbText
 10
410.0
 20
0.0
 30
0.0
 40
2.5
  1
!GENTITLE-INSERT
100
AcDbText
  0
TEXT
  5
5FE
330
5FA
100
AcDbEntity
  8
0
 60
     1
100
AcDbText
 10
405.0
 20
275.0
 30
0.0
 40
2.5
  1
!GENTITLE-RU
100
AcDbText
  0
TEXT
  5
5FF
330
5FA
100
AcDbEntity
  8
0
 60
     1
100
AcDbText
 10
410.0
 20
280.0
 30
0.0
 40
2.5
  1
!GENTITLE-MAX
100
AcDbText
  0
LINE
  5
600
330
5FA
100
AcDbEntity
  8
0
100
AcDbLine
 10
366.0
 20
275.0
 30
0.0
 11
410.0
 21
275.0
 31
0.0
  0
MTEXT
  5
601
330
5FA
100
AcDbEntity
  8
0
100
AcDbMText
 10
409.3592953827348
 20
276.108542987227
 30
0.0
 40
2.5
 41
43.07840397728298
 71
     9
 72
     5
  1
(文書番号：TY-34)2004.10.29
 73
     1
 44
1.0
1001
ACAD
1000
MTEXTBEGIN
1070
    73
1070
     1
1070
    44
1040
1.0
1070
    74
1070
     0
1000
MTEXTEND
  0
LINE
  5
602
330
5FA
100
AcDbEntity
  8
0
100
AcDbLine
 10
366.0
 20
280.0
 30
0.0
 11
366.0
 21
275.0
 31
0.0
  0
ENDBLK
  5
605
330
5FA
100
AcDbEntity
  8
0
100
AcDbBlockEnd
  0
BLOCK
  5
669
330
613
100
AcDbEntity
  8
0
100
AcDbBlockBegin
  2
TAKACHI-TITLE
 70
     2
 10
0.0
 20
0.0
 30
0.0
  3
TAKACHI-TITLE
  1

  0
LINE
  5
614
330
613
100
AcDbEntity
  8
RAHM2
100
AcDbLine
 10
-195.0
 20
30.00000000000003
 30
0.0
 11
-94.0
 21
30.00000000000003
 31
0.0
  0
LINE
  5
615
330
613
100
AcDbEntity
  8
RAHM2
100
AcDbLine
 10
-195.0
 20
35.00000000000003
 30
0.0
 11
-94.0
 21
35.00000000000003
 31
0.0
  0
LINE
  5
616
330
613
100
AcDbEntity
  8
RAHM2
100
AcDbLine
 10
-195.0
 20
40.00000000000002
 30
0.0
 11
-94.0
 21
40.00000000000002
 31
0.0
  0
LINE
  5
617
330
613
100
AcDbEntity
  8
RAHM2
100
AcDbLine
 10
-195.0
 20
45.00000000000002
 30
0.0
 11
-94.0
 21
45.00000000000002
 31
0.0
  0
LINE
  5
618
330
613
100
AcDbEntity
  8
0
100
AcDbLine
 10
-195.0
 20
7.0
 30
0.0
 11
-94.0
 21
7.0
 31
0.0
  0
LINE
  5
619
330
613
100
AcDbEntity
  8
0
100
AcDbLine
 10
-195.0
 20
19.99999999999997
 30
0.0
 11
-94.0
 21
19.99999999999997
 31
0.0
  0
ATTDEF
  5
61A
330
613
100
AcDbEntity
  8
0
100
AcDbText
 10
-183.2438527145607
 20
8.950850524428082
 30
0.0
 40
2.5
  1

 11
-183.2438527145607
 21
8.617517191094748
 31
0.0
100
AcDbAttributeDefinition
  3
サブタイトル
  2
GEN-TITLE-DES2
 70
     0
 74
     1
  0
ATTDEF
  5
61B
330
613
100
AcDbEntity
  8
0
100
AcDbText
 10
-183.2438527145607
 20
2.017517191094748
 30
0.0
 40
3.0
  1

 11
-183.2438527145607
 21
1.617517191094748
 31
0.0
100
AcDbAttributeDefinition
  3
図番
  2
GEN-TITLE-NR
 70
     0
 74
     1
  0
MTEXT
  5
61C
330
613
100
AcDbEntity
  8
RAHM2
100
AcDbMText
 10
-193.8002551371314
 20
5.801035407279641
 30
0.0
 40
2.5
 41
90.0
 71
     1
 72
     5
  1
図番
 73
     1
 44
1.0
1001
ACAD
1000
MTEXTBEGIN
1070
    73
1070
     1
1070
    44
1040
1.0
1070
    74
1070
     0
1000
MTEXTEND
  0
ATTDEF
  5
61D
330
613
100
AcDbEntity
  8
0
100
AcDbText
 10
-183.2438527145607
 20
14.40728619501834
 30
0.0
 40
4.0
  1

 11
-183.2438527145607
 21
13.87395286168501
 31
0.0
100
AcDbAttributeDefinition
  3
品名
  2
GEN-TITLE-DES1
 70
     0
 74
     1
  0
LINE
  5
61E
330
613
100
AcDbEntity
  8
RAHM2
100
AcDbLine
 10
-187.5751288694036
 20
30.40000000000004
 30
0.0
 11
-190.0
 21
34.60000000000003
 31
0.0
  0
LINE
  5
61F
330
613
100
AcDbEntity
  8
RAHM2
100
AcDbLine
 10
-190.0
 20
34.60000000000003
 30
0.0
 11
-192.4248711305964
 21
30.40000000000004
 31
0.0
  0
LINE
  5
620
330
613
100
AcDbEntity
  8
RAHM2
100
AcDbLine
 10
-185.0
 20
50.00000000000003
 30
0.0
 11
-185.0
 21
19.99999999999994
 31
0.0
  0
LINE
  5
621
330
613
100
AcDbEntity
  8
RAHM2
100
AcDbLine
 10
-192.4248711305964
 20
30.40000000000004
 30
0.0
 11
-187.5751288694036
 21
30.40000000000004
 31
0.0
  0
MTEXT
  5
622
330
613
100
AcDbEntity
  8
RAHM2
100
AcDbMText
 10
-190.0
 20
22.49999999999997
 30
0.0
 40
2.5
 41
10.0
 71
     5
 72
     5
  1
符号
 73
     1
 44
1.0
1001
ACAD
1000
MTEXTBEGIN
1070
    73
1070
     1
1070
    44
1040
1.0
1070
    74
1070
     0
1000
MTEXTEND
  0
MTEXT
  5
623
330
613
100
AcDbEntity
  8
RAHM2
100
AcDbMText
 10
-193.8002551371314
 20
18.80103540727961
 30
0.0
 40
2.5
 41
90.0
 71
     1
 72
     5
  1
品名
 73
     1
 44
1.0
1001
ACAD
1000
MTEXTBEGIN
1070
    73
1070
     1
1070
    44
1040
1.0
1070
    74
1070
     0
1000
MTEXTEND
  0
LINE
  5
624
330
613
100
AcDbEntity
  8
RAHM2
100
AcDbLine
 10
-192.4248711305964
 20
45.40000000000003
 30
0.0
 11
-187.5751288694036
 21
45.40000000000003
 31
0.0
  0
LINE
  5
625
330
613
100
AcDbEntity
  8
RAHM2
100
AcDbLine
 10
-187.5751288694036
 20
45.40000000000003
 30
0.0
 11
-190.0
 21
49.60000000000002
 31
0.0
  0
LINE
  5
626
330
613
100
AcDbEntity
  8
RAHM2
100
AcDbLine
 10
-192.4248711305964
 20
40.40000000000003
 30
0.0
 11
-187.5751288694036
 21
40.40000000000003
 31
0.0
  0
LINE
  5
627
330
613
100
AcDbEntity
  8
RAHM2
100
AcDbLine
 10
-187.5751288694036
 20
40.40000000000003
 30
0.0
 11
-190.0
 21
44.60000000000002
 31
0.0
  0
LINE
  5
628
330
613
100
AcDbEntity
  8
RAHM2
100
AcDbLine
 10
-192.4248711305964
 20
35.40000000000004
 30
0.0
 11
-187.5751288694036
 21
35.40000000000004
 31
0.0
  0
LINE
  5
629
330
613
100
AcDbEntity
  8
RAHM2
100
AcDbLine
 10
-187.5751288694036
 20
35.40000000000004
 30
0.0
 11
-190.0
 21
39.60000000000002
 31
0.0
  0
LINE
  5
62A
330
613
100
AcDbEntity
  8
RAHM2
100
AcDbLine
 10
-190.0
 20
39.60000000000002
 30
0.0
 11
-192.4248711305964
 21
35.40000000000004
 31
0.0
  0
LINE
  5
62B
330
613
100
AcDbEntity
  8
RAHM2
100
AcDbLine
 10
-190.0
 20
44.60000000000002
 30
0.0
 11
-192.4248711305964
 21
40.40000000000003
 31
0.0
  0
LINE
  5
62C
330
613
100
AcDbEntity
  8
RAHM2
100
AcDbLine
 10
-190.0
 20
49.60000000000002
 30
0.0
 11
-192.4248711305964
 21
45.40000000000003
 31
0.0
  0
LINE
  5
62D
330
613
100
AcDbEntity
  8
RAHM2
100
AcDbLine
 10
-129.0
 20
50.00000000000003
 30
0.0
 11
-129.0
 21
19.99999999999994
 31
0.0
  0
MTEXT
  5
62E
330
613
100
AcDbEntity
  8
RAHM2
100
AcDbMText
 10
-157.1448171868856
 20
22.49999999999997
 30
0.0
 40
2.5
 41
45.0
 71
     5
 72
     5
  1
変更記事
 73
     1
 44
1.0
1001
ACAD
1000
MTEXTBEGIN
1070
    73
1070
     1
1070
    44
1040
1.0
1070
    74
1070
     0
1000
MTEXTEND
  0
LINE
  5
62F
330
613
100
AcDbEntity
  8
0
100
AcDbLine
 10
-34.0
 20
50.0
 30
0.0
 11
-34.0
 21
0.0
 31
0.0
  0
LINE
  5
630
330
613
100
AcDbEntity
  8
0
100
AcDbLine
 10
-94.0
 20
50.0
 30
0.0
 11
-94.0
 21
0.0
 31
0.0
  0
MTEXT
  5
631
330
613
100
AcDbEntity
  8
0
100
AcDbMText
 10
-64.0
 20
5.0
 30
0.0
 40
3.5
 41
60.0
 71
     5
 72
     5
  1
\fＭＳ ゴシック|b0|i0|c128|p49;株式会社タカチ電機工業
 73
     1
 44
1.0
1001
ACAD
1000
MTEXTBEGIN
1070
    73
1070
     1
1070
    44
1040
1.0
1070
    74
1070
     0
1000
MTEXTEND
  0
LINE
  5
632
330
613
100
AcDbEntity
  8
0
100
AcDbLine
 10
-94.0
 20
10.0
 30
0.0
 11
-34.0
 21
10.0
 31
0.0
  0
ATTDEF
  5
633
330
613
100
AcDbEntity
  8
0
100
AcDbText
 10
-58.01405119799745
 20
39.25500556178349
 30
0.0
 40
3.0
  1

 72
     2
 11
-58.01405119799745
 21
39.25500556178349
 31
0.0
100
AcDbAttributeDefinition
  3
尺度
  2
GEN-TITLE-SCA
 70
     0
  0
ATTDEF
  5
634
330
613
100
AcDbEntity
  8
0
100
AcDbText
 10
-77.00284966649007
 20
31.02180787943475
 30
0.0
 40
3.0
  1

 11
-77.00284966649007
 21
30.62180787943475
 31
0.0
100
AcDbAttributeDefinition
  3
材質
  2
GEN-TITLE-MAT1
 70
     0
 74
     1
  0
ATTDEF
  5
635
330
613
100
AcDbEntity
  8
0
100
AcDbText
 10
-77.00284966649007
 20
21.02180787943475
 30
0.0
 40
3.0
  1

 11
-77.00284966649007
 21
20.62180787943475
 31
0.0
100
AcDbAttributeDefinition
  3
表面処理
  2
GEN-TITLE-MAT2
 70
     0
 74
     1
  0
ATTDEF
  5
636
330
613
100
AcDbEntity
  8
0
100
AcDbText
 10
-77.00284966649007
 20
12.01751719109475
 30
0.0
 40
3.0
  1

 11
-77.00284966649007
 21
11.61751719109475
 31
0.0
100
AcDbAttributeDefinition
  3
日付
  2
GEN-TITLE-DAT
 70
     0
 74
     1
  0
LINE
  5
637
330
613
100
AcDbEntity
  8
0
100
AcDbLine
 10
-94.0
 20
37.5
 30
0.0
 11
-34.0
 21
37.5
 31
0.0
  0
LINE
  5
638
330
613
100
AcDbEntity
  8
0
100
AcDbLine
 10
-94.0
 20
27.5
 30
0.0
 11
-34.0
 21
27.5
 31
0.0
  0
LINE
  5
639
330
613
100
AcDbEntity
  8
0
100
AcDbLine
 10
-94.0
 20
17.5
 30
0.0
 11
-34.0
 21
17.5
 31
0.0
  0
LINE
  5
63A
330
613
100
AcDbEntity
  8
RAHM2
100
AcDbLine
 10
-109.0
 20
50.00000000000003
 30
0.0
 11
-109.0
 21
19.99999999999994
 31
0.0
  0
MTEXT
  5
63B
330
613
100
AcDbEntity
  8
RAHM2
100
AcDbMText
 10
-119.4582894723942
 20
32.50000000000003
 30
0.0
 40
2.5
 41
20.0
 71
     5
 72
     5
  1
・  ・   
 73
     1
 44
1.0
1001
ACAD
1000
MTEXTBEGIN
1070
    73
1070
     1
1070
    44
1040
1.0
1070
    74
1070
     0
1000
MTEXTEND
  0
MTEXT
  5
63C
330
613
100
AcDbEntity
  8
RAHM2
100
AcDbMText
 10
-118.738119805002
 20
22.49999999999997
 30
0.0
 40
2.5
 41
20.0
 71
     5
 72
     5
  1
年・月・日
 73
     1
 44
1.0
1001
ACAD
1000
MTEXTBEGIN
1070
    73
1070
     1
1070
    44
1040
1.0
1070
    74
1070
     0
1000
MTEXTEND
  0
MTEXT
  5
63D
330
613
100
AcDbEntity
  8
RAHM2
100
AcDbMText
 10
-101.5
 20
22.49999999999997
 30
0.0
 40
2.5
 41
15.0
 71
     5
 72
     5
  1
担当
 73
     1
 44
1.0
1001
ACAD
1000
MTEXTBEGIN
1070
    73
1070
     1
1070
    44
1040
1.0
1070
    74
1070
     0
1000
MTEXTEND
  0
MTEXT
  5
63E
330
613
100
AcDbEntity
  8
RAHM2
100
AcDbMText
 10
-119.4582894723942
 20
42.50000000000002
 30
0.0
 40
2.5
 41
20.0
 71
     5
 72
     5
  1
・  ・   
 73
     1
 44
1.0
1001
ACAD
1000
MTEXTBEGIN
1070
    73
1070
     1
1070
    44
1040
1.0
1070
    74
1070
     0
1000
MTEXTEND
  0
MTEXT
  5
63F
330
613
100
AcDbEntity
  8
RAHM2
100
AcDbMText
 10
-119.4582894723942
 20
37.50000000000003
 30
0.0
 40
2.5
 41
20.0
 71
     5
 72
     5
  1
・  ・   
 73
     1
 44
1.0
1001
ACAD
1000
MTEXTBEGIN
1070
    73
1070
     1
1070
    44
1040
1.0
1070
    74
1070
     0
1000
MTEXTEND
  0
MTEXT
  5
640
330
613
100
AcDbEntity
  8
RAHM2
100
AcDbMText
 10
-119.4582894723942
 20
47.50000000000002
 30
0.0
 40
2.5
 41
20.0
 71
     5
 72
     5
  1
・  ・   
 73
     1
 44
1.0
1001
ACAD
1000
MTEXTBEGIN
1070
    73
1070
     1
1070
    44
1040
1.0
1070
    74
1070
     0
1000
MTEXTEND
  0
MTEXT
  5
641
330
613
100
AcDbEntity
  8
RAHM2
100
AcDbMText
 10
-92.80025513713145
 20
16.30103540727964
 30
0.0
 40
2.5
 41
60.0
 71
     1
 72
     5
  1
日付
 73
     1
 44
1.0
1001
ACAD
1000
MTEXTBEGIN
1070
    73
1070
     1
1070
    44
1040
1.0
1070
    74
1070
     0
1000
MTEXTEND
  0
MTEXT
  5
642
330
613
100
AcDbEntity
  8
RAHM2
100
AcDbMText
 10
-92.80025513713145
 20
26.30103540727964
 30
0.0
 40
2.5
 41
60.0
 71
     1
 72
     5
  1
表面処理
 73
     1
 44
1.0
1001
ACAD
1000
MTEXTBEGIN
1070
    73
1070
     1
1070
    44
1040
1.0
1070
    74
1070
     0
1000
MTEXTEND
  0
LINE
  5
643
330
613
100
AcDbEntity
  8
7A
100
AcDbLine
 10
-89.0
 20
43.75
 30
0.0
 11
-75.2186915997147
 21
43.75
 31
0.0
1001
GENIUS_GENOREF_13
1005
656
  0
LINE
  5
644
330
613
100
AcDbEntity
  8
0
100
AcDbLine
 10
-84.0
 20
45.75
 30
0.0
 11
-76.0
 21
46.74999999999999
 31
0.0
  0
LINE
  5
645
330
613
100
AcDbEntity
  8
0
100
AcDbLine
 10
-76.0
 20
40.75
 30
0.0
 11
-84.0
 21
41.74999999999999
 31
0.0
  0
LINE
  5
646
330
613
100
AcDbEntity
  8
7A
100
AcDbLine
 10
-89.0
 20
43.75
 30
0.0
 11
-89.0
 21
47.32478664473148
 31
0.0
1001
GENIUS_GENOREF_13
1005
656
  0
CIRCLE
  5
647
330
613
100
AcDbEntity
  8
0
100
AcDbCircle
 10
-89.0
 20
43.75
 30
0.0
 40
2.0
  0
CIRCLE
  5
648
330
613
100
AcDbEntity
  8
0
100
AcDbCircle
 10
-89.0
 20
43.75
 30
0.0
 40
3.0
  0
LINE
  5
649
330
613
100
AcDbEntity
  8
0
100
AcDbLine
 10
-84.0
 20
41.74999999999999
 30
0.0
 11
-84.0
 21
45.75
 31
0.0
  0
MTEXT
  5
64A
330
613
100
AcDbEntity
  8
RAHM2
100
AcDbMText
 10
-92.80025513713145
 20
36.30103540727964
 30
0.0
 40
2.5
 41
60.0
 71
     1
 72
     5
  1
材質
 73
     1
 44
1.0
1001
ACAD
1000
MTEXTBEGIN
1070
    73
1070
     1
1070
    44
1040
1.0
1070
    74
1070
     0
1000
MTEXTEND
  0
LINE
  5
64B
330
613
100
AcDbEntity
  8
7A
100
AcDbLine
 10
-89.0
 20
43.75
 30
0.0
 11
-92.72303737125117
 21
43.75
 31
0.0
1001
GENIUS_GENOREF_13
1005
656
  0
LINE
  5
64C
330
613
100
AcDbEntity
  8
7A
100
AcDbLine
 10
-89.0
 20
43.75
 30
0.0
 11
-89.0
 21
40.03991724228479
 31
0.0
1001
GENIUS_GENOREF_13
1005
656
  0
LINE
  5
64D
330
613
100
AcDbEntity
  8
0
100
AcDbLine
 10
-76.0
 20
46.74999999999999
 30
0.0
 11
-76.0
 21
40.75
 31
0.0
  0
LINE
  5
64E
330
613
100
AcDbEntity
  8
0
100
AcDbLine
 10
-74.0
 20
50.0
 30
0.0
 11
-74.0
 21
37.5
 31
0.0
  0
MTEXT
  5
64F
330
613
100
AcDbEntity
  8
RAHM2
100
AcDbMText
 10
-72.80025513713145
 20
48.80103540727964
 30
0.0
 40
2.5
 41
20.0
 71
     1
 72
     5
  1
尺度
 73
     1
 44
1.0
1001
ACAD
1000
MTEXTBEGIN
1070
    73
1070
     1
1070
    44
1040
1.0
1070
    74
1070
     0
1000
MTEXTEND
  0
ATTDEF
  5
650
330
613
100
AcDbEntity
  8
0
100
AcDbText
 10
-37.76317379391503
 20
39.25500556178349
 30
0.0
 40
3.0
  1

 72
     2
 11
-37.76317379391503
 21
39.25500556178349
 31
0.0
100
AcDbAttributeDefinition
  3
数量
  2
GEN-TITLE-QTY
 70
     0
  0
LINE
  5
651
330
613
100
AcDbEntity
  8
0
100
AcDbLine
 10
-34.0
 20
25.0
 30
0.0
 11
0.0
 21
25.0
 31
0.0
  0
LINE
  5
652
330
613
100
AcDbEntity
  8
0
100
AcDbLine
 10
-54.0
 20
50.0
 30
0.0
 11
-54.0
 21
37.5
 31
0.0
  0
MTEXT
  5
653
330
613
100
AcDbEntity
  8
RAHM2
100
AcDbMText
 10
-52.80025513713145
 20
48.80103540727964
 30
0.0
 40
2.5
 41
20.0
 71
     1
 72
     5
  1
数量
 73
     1
 44
1.0
1001
ACAD
1000
MTEXTBEGIN
1070
    73
1070
     1
1070
    44
1040
1.0
1070
    74
1070
     0
1000
MTEXTEND
  0
MTEXT
  5
654
330
613
100
AcDbEntity
  8
RAHM2
100
AcDbMText
 10
-25.5
 20
23.80103540727964
 30
0.0
 40
2.5
 41
17.0
 71
     2
 72
     5
  1
承認
 73
     1
 44
1.0
1001
ACAD
1000
MTEXTBEGIN
1070
    73
1070
     1
1070
    44
1040
1.0
1070
    74
1070
     0
1000
MTEXTEND
  0
MTEXT
  5
655
330
613
100
AcDbEntity
  8
RAHM2
100
AcDbMText
 10
-25.5
 20
48.80103540727964
 30
0.0
 40
2.5
 41
17.0
 71
     2
 72
     5
  1
承認
 73
     1
 44
1.0
1001
ACAD
1000
MTEXTBEGIN
1070
    73
1070
     1
1070
    44
1040
1.0
1070
    74
1070
     0
1000
MTEXTEND
  0
POINT
  5
656
330
613
100
AcDbEntity
  8
0
 60
     1
100
AcDbPoint
 10
-320.5355579819676
 20
-138.1104841268254
 30
0.0
1001
GENIUS_GENODEF_13
1002
{
1000
HIER
1070
    10
1002
}
1002
{
1000
MANEDIT
1070
     0
1002
}
1002
{
1000
NOSEL
1070
     0
1002
}
1002
{
1000
BEHIND
1070
     0
1002
}
1002
{
1000
REACTOR
1002
}
1001
GENIUS_GENOBJ-N-CRS_13
1002
{
1000
OWNER
1000
GEN
1002
}
1001
GENIUS_GENOENT_13
1002
{
1000
MYREF
1005
656
1002
}
1002
{
1000
GRP
1005
0
1002
}
1001
GENIUS_GENOLIS_13
1002
{
1000
ENT
1005
64C
1005
64B
1005
646
1005
643
1002
}
  0
LINE
  5
657
330
613
100
AcDbEntity
  8
RAHM2
100
AcDbLine
 10
-190.0
 20
29.60000000000002
 30
0.0
 11
-192.4248711305964
 21
25.40000000000004
 31
0.0
  0
LINE
  5
658
330
613
100
AcDbEntity
  8
RAHM2
100
AcDbLine
 10
-187.5751288694036
 20
25.40000000000004
 30
0.0
 11
-190.0
 21
29.60000000000002
 31
0.0
  0
LINE
  5
659
330
613
100
AcDbEntity
  8
RAHM2
100
AcDbLine
 10
-192.4248711305964
 20
25.40000000000004
 30
0.0
 11
-187.5751288694036
 21
25.40000000000004
 31
0.0
  0
LINE
  5
65A
330
613
100
AcDbEntity
  8
RAHM2
100
AcDbLine
 10
-195.0
 20
25.00000000000003
 30
0.0
 11
-94.0
 21
25.00000000000003
 31
0.0
  0
MTEXT
  5
65B
330
613
100
AcDbEntity
  8
RAHM2
100
AcDbMText
 10
-119.4582894723942
 20
27.50000000000003
 30
0.0
 40
2.5
 41
20.0
 71
     5
 72
     5
  1
・  ・   
 73
     1
 44
1.0
1001
ACAD
1000
MTEXTBEGIN
1070
    73
1070
     1
1070
    44
1040
1.0
1070
    74
1070
     0
1000
MTEXTEND
  0
TEXT
  5
65C
330
613
100
AcDbEntity
  8
RAHM2
100
AcDbText
 10
-190.8155863565801
 20
25.98333333333337
 30
0.0
 40
2.5
  1
1
 72
     1
 11
-190.1905863565802
 21
25.65000000000003
 31
0.0
100
AcDbText
 73
     1
  0
TEXT
  5
65D
330
613
100
AcDbEntity
  8
RAHM2
100
AcDbText
 10
-190.9183316929134
 20
30.98333333333337
 30
0.0
 40
2.5
  1
2
 72
     1
 11
-190.0
 21
30.65000000000003
 31
0.0
100
AcDbText
 73
     1
  0
TEXT
  5
65E
330
613
100
AcDbEntity
  8
RAHM2
100
AcDbText
 10
-190.9267766952966
 20
35.98333333333334
 30
0.0
 40
2.5
  1
3
 72
     1
 11
-190.0
 21
35.65000000000001
 31
0.0
100
AcDbText
 73
     1
  0
TEXT
  5
65F
330
613
100
AcDbEntity
  8
RAHM2
100
AcDbText
 10
-191.0
 20
40.98333333333337
 30
0.0
 40
2.5
  1
4
 72
     1
 11
-190.0
 21
40.65000000000003
 31
0.0
100
AcDbText
 73
     1
  0
TEXT
  5
660
330
613
100
AcDbEntity
  8
RAHM2
100
AcDbText
 10
-190.9267766952966
 20
45.98333333333337
 30
0.0
 40
2.5
  1
5
 72
     1
 11
-190.0
 21
45.65000000000003
 31
0.0
100
AcDbText
 73
     1
  0
LINE
  5
661
330
613
100
AcDbEntity
  8
0
100
AcDbLine
 10
-17.0
 20
50.0
 30
0.0
 11
-17.0
 21
0.0
 31
0.0
  0
LINE
  5
662
330
613
100
AcDbEntity
  8
0
100
AcDbLine
 10
-195.0
 20
0.0
 30
0.0
 11
0.0
 21
0.0
 31
0.0
1001
GENIUS_GENREC_14
1002
{
1000
PYDIR
1011
-184.0
1021
50.0
1031
0.0
1002
}
1002
{
1000
PXDIR
1011
0.0
1021
0.0
1031
0.0
1002
}
1002
{
1000
PORI
1011
-184.0
1021
0.0
1031
0.0
1002
}
1002
{
1000
PINS
1011
-100.5
1021
25.0
1031
0.0
1002
}
1002
{
1000
HVAL
1000
50
1002
}
1002
{
1000
H
1070
     2
1002
}
1002
{
1000
WVAL
1000
167
1002
}
1002
{
1000
W
1070
     2
1002
}
1002
{
1000
C
1070
     4
1002
}
1001
GENIUS_GENODEF_13
1002
{
1000
HIER
1070
     0
1002
}
1002
{
1000
MANEDIT
1070
     0
1002
}
1002
{
1000
NOSEL
1070
     0
1002
}
1002
{
1000
BEHIND
1070
     0
1002
}
1002
{
1000
REACTOR
1002
}
1001
GENIUS_GENOBJ-N-REC_13
1002
{
1000
OWNER
1000
GEN
1002
}
  0
LINE
  5
663
330
613
100
AcDbEntity
  8
0
100
AcDbLine
 10
0.0
 20
0.0
 30
0.0
 11
0.0
 21
50.0
 31
0.0
1001
GENIUS_GENREC_14
1002
{
1000
PYDIR
1011
-184.0
1021
50.0
1031
0.0
1002
}
1002
{
1000
PXDIR
1011
0.0
1021
0.0
1031
0.0
1002
}
1002
{
1000
PORI
1011
-184.0
1021
0.0
1031
0.0
1002
}
1002
{
1000
PINS
1011
-100.5
1021
25.0
1031
0.0
1002
}
1002
{
1000
HVAL
1000
50
1002
}
1002
{
1000
H
1070
     2
1002
}
1002
{
1000
WVAL
1000
167
1002
}
1002
{
1000
W
1070
     2
1002
}
1002
{
1000
C
1070
     4
1002
}
1001
GENIUS_GENODEF_13
1002
{
1000
HIER
1070
     0
1002
}
1002
{
1000
MANEDIT
1070
     0
1002
}
1002
{
1000
NOSEL
1070
     0
1002
}
1002
{
1000
BEHIND
1070
     0
1002
}
1002
{
1000
REACTOR
1002
}
1001
GENIUS_GENOBJ-N-REC_13
1002
{
1000
OWNER
1000
GEN
1002
}
  0
LINE
  5
664
330
613
100
AcDbEntity
  8
0
100
AcDbLine
 10
0.0
 20
50.0
 30
0.0
 11
-195.0
 21
50.00000000000003
 31
0.0
1001
GENIUS_GENREC_14
1002
{
1000
PYDIR
1011
-184.0
1021
50.0
1031
0.0
1002
}
1002
{
1000
PXDIR
1011
0.0
1021
0.0
1031
0.0
1002
}
1002
{
1000
PORI
1011
-184.0
1021
0.0
1031
0.0
1002
}
1002
{
1000
PINS
1011
-100.5
1021
25.0
1031
0.0
1002
}
1002
{
1000
HVAL
1000
50
1002
}
1002
{
1000
H
1070
     2
1002
}
1002
{
1000
WVAL
1000
167
1002
}
1002
{
1000
W
1070
     2
1002
}
1002
{
1000
C
1070
     4
1002
}
1001
GENIUS_GENODEF_13
1002
{
1000
HIER
1070
     0
1002
}
1002
{
1000
MANEDIT
1070
     0
1002
}
1002
{
1000
NOSEL
1070
     0
1002
}
1002
{
1000
BEHIND
1070
     0
1002
}
1002
{
1000
REACTOR
1002
}
1001
GENIUS_GENOBJ-N-REC_13
1002
{
1000
OWNER
1000
GEN
1002
}
  0
LINE
  5
665
330
613
100
AcDbEntity
  8
0
100
AcDbLine
 10
-195.0
 20
50.00000000000003
 30
0.0
 11
-195.0
 21
0.0
 31
0.0
1001
GENIUS_GENREC_14
1002
{
1000
PYDIR
1011
-195.0
1021
50.0
1031
0.0
1002
}
1002
{
1000
PXDIR
1011
-11.0
1021
0.0
1031
0.0
1002
}
1002
{
1000
PORI
1011
-195.0
1021
0.0
1031
0.0
1002
}
1002
{
1000
PINS
1011
-111.5
1021
25.0
1031
0.0
1002
}
1002
{
1000
HVAL
1000
50
1002
}
1002
{
1000
H
1070
     2
1002
}
1002
{
1000
WVAL
1000
167
1002
}
1002
{
1000
W
1070
     2
1002
}
1002
{
1000
C
1070
     4
1002
}
1001
GENIUS_GENODEF_13
1002
{
1000
HIER
1070
     0
1002
}
1002
{
1000
MANEDIT
1070
     0
1002
}
1002
{
1000
NOSEL
1070
     0
1002
}
1002
{
1000
BEHIND
1070
     0
1002
}
1002
{
1000
REACTOR
1002
}
1001
GENIUS_GENOBJ-N-REC_13
1002
{
1000
OWNER
1000
GEN
1002
}
  0
MTEXT
  5
666
330
613
100
AcDbEntity
  8
RAHM2
100
AcDbMText
 10
-8.5
 20
48.80103540727964
 30
0.0
 40
2.5
 41
17.0
 71
     2
 72
     5
  1
検図
 73
     1
 44
1.0
1001
ACAD
1000
MTEXTBEGIN
1070
    73
1070
     1
1070
    44
1040
1.0
1070
    74
1070
     0
1000
MTEXTEND
  0
MTEXT
  5
667
330
613
100
AcDbEntity
  8
RAHM2
100
AcDbMText
 10
-8.5
 20
23.80103540727964
 30
0.0
 40
2.5
 41
17.0
 71
     2
 72
     5
  1
製図
 73
     1
 44
1.0
1001
ACAD
1000
MTEXTBEGIN
1070
    73
1070
     1
1070
    44
1040
1.0
1070
    74
1070
     0
1000
MTEXTEND
  0
ENDBLK
  5
66A
330
613
100
AcDbEntity
  8
0
100
AcDbBlockEnd
  0
BLOCK
  5
BFC
330
BF3
100
AcDbEntity
  8
0
100
AcDbBlockBegin
  2
TK-A3
 70
     0
 10
0.0
 20
0.0
 30
0.0
  3
TK-A3
  1

  0
LWPOLYLINE
  5
BF4
330
BF3
100
AcDbEntity
  8
0
100
AcDbPolyline
 90
        4
 70
     1
 43
0.0
 10
0.0
 20
0.0
 10
403.0
 20
0.0
 10
403.0
 20
280.0
 10
0.0
 20
280.0000000000001
1001
GENIUS_GENREC_14
1002
{
1000
PYDIR
1011
0.0000000000000178
1021
280.0
1031
0.0
1002
}
1002
{
1000
PXDIR
1011
403.0
1021
0.0
1031
0.0
1002
}
1002
{
1000
PORI
1011
0.0
1021
0.0
1031
0.0
1002
}
1002
{
1000
PINS
1011
0.0
1021
0.0
1031
0.0
1002
}
1002
{
1000
PINS2
1011
403.0
1021
280.0
1031
0.0
1002
}
1002
{
1000
C
1070
     1
1002
}
1001
GENIUS_GENODEF_13
1002
{
1000
HIER
1070
     0
1002
}
1002
{
1000
MANEDIT
1070
     0
1002
}
1002
{
1000
NOSEL
1070
     0
1002
}
1002
{
1000
BEHIND
1070
     0
1002
}
1002
{
1000
OTHER
1070
     0
1002
}
1002
{
1000
REACTOR
1002
}
1001
GENIUS_GENOBJ-N-REC_13
1002
{
1000
OWNER
1000
GEN
1002
}
  0
TEXT
  5
BF5
330
BF3
100
AcDbEntity
  8
0
 60
     1
100
AcDbText
 10
403.0
 20
280.0
 30
0.0
 40
2.5
  1
!GENTITLE-MAX
100
AcDbText
  0
TEXT
  5
BF6
330
BF3
100
AcDbEntity
  8
0
 60
     1
100
AcDbText
 10
0.0
 20
0.0
 30
0.0
 40
2.5
  1
!GENTITLE-LL
100
AcDbText
  0
TEXT
  5
BF7
330
BF3
100
AcDbEntity
  8
0
 60
     1
100
AcDbText
 10
403.0
 20
0.0
 30
0.0
 40
2.5
  1
!GENTITLE-INSERT
100
AcDbText
  0
LINE
  5
BF8
330
BF3
100
AcDbEntity
  8
0
100
AcDbLine
 10
359.0
 20
275.0
 30
0.0
 11
403.0
 21
275.0
 31
0.0
  0
MTEXT
  5
BF9
330
BF3
100
AcDbEntity
  8
0
100
AcDbMText
 10
402.3592953827349
 20
276.108542987227
 30
0.0
 40
2.5
 41
43.07840397728298
 71
     9
 72
     5
  1
(文書番号：TY-34)2008.02.08
 73
     1
 44
1.0
1001
ACAD
1000
MTEXTBEGIN
1070
    73
1070
     1
1070
    44
1040
1.0
1070
    74
1070
     0
1000
MTEXTEND
  0
LINE
  5
BFA
330
BF3
100
AcDbEntity
  8
0
100
AcDbLine
 10
359.0
 20
280.0
 30
0.0
 11
359.0
 21
275.0
 31
0.0
  0
ENDBLK
  5
BFD
330
BF3
100
AcDbEntity
  8
0
100
AcDbBlockEnd
  0
BLOCK
  5
C62
330
C08
100
AcDbEntity
  8
0
100
AcDbBlockBegin
  2
TK-TITLE
 70
     2
 10
0.0
 20
0.0
 30
0.0
  3
TK-TITLE
  1

  0
ATTDEF
  5
C09
330
C08
100
AcDbEntity
  8
0
100
AcDbText
 10
-8.002309189545826
 20
1.705189434395036
 30
0.0
 40
2.5
  1

100
AcDbAttributeDefinition
  3
Rev.
  2
GEN-TITLE-NR2
 70
     0
  0
ATTDEF
  5
C0A
330
C08
100
AcDbEntity
  8
0
100
AcDbText
 10
-84.14251901585329
 20
12.82790432564377
 30
0.0
 40
3.5
  1

100
AcDbAttributeDefinition
  3
品名
  2
GEN-TITLE-DES1
 70
     0
  0
LINE
  5
C0B
330
C08
100
AcDbEntity
  8
0
100
AcDbLine
 10
0.0
 20
0.0
 30
0.0
 11
0.0
 21
50.0
 31
0.0
1001
GENIUS_GENREC_14
1002
{
1000
PYDIR
1011
-414.0
1021
291.0
1031
0.0
1002
}
1002
{
1000
PXDIR
1011
6.0
1021
-6.0
1031
0.0
1002
}
1002
{
1000
PORI
1011
-414.0
1021
-6.0
1031
0.0
1002
}
1002
{
1000
PINS
1011
-414.0
1021
-6.0
1031
0.0
1002
}
1002
{
1000
HVAL
1000
297
1002
}
1002
{
1000
H
1070
     2
1002
}
1002
{
1000
WVAL
1000
420
1002
}
1002
{
1000
W
1070
     2
1002
}
1002
{
1000
C
1070
     1
1002
}
1001
GENIUS_GENODEF_13
1002
{
1000
HIER
1070
     0
1002
}
1002
{
1000
MANEDIT
1070
     0
1002
}
1002
{
1000
NOSEL
1070
     0
1002
}
1002
{
1000
BEHIND
1070
     0
1002
}
1002
{
1000
OTHER
1070
     0
1002
}
1002
{
1000
REACTOR
1002
}
1001
GENIUS_GENOBJ-N-REC_13
1002
{
1000
OWNER
1000
GEN
1002
}
  0
ATTDEF
  5
C0C
330
C08
100
AcDbEntity
  8
0
100
AcDbText
 10
-84.0
 20
9.149999999999948
 30
0.0
 40
2.5
  1

100
AcDbAttributeDefinition
  3
サブタイトル
  2
GEN-TITLE-DES2
 70
     0
  0
ATTDEF
  5
C0D
330
C08
100
AcDbEntity
  8
0
100
AcDbText
 10
-84.0
 20
1.999999999999957
 30
0.0
 40
3.0
  1

100
AcDbAttributeDefinition
  3
図番
  2
GEN-TITLE-NR1
 70
     0
  0
LINE
  5
C0E
330
C08
100
AcDbEntity
  8
0
100
AcDbLine
 10
-96.0
 20
50.00000000000001
 30
0.0
 11
-96.0
 21
-0.0000000000000142
 31
0.0
1001
GENIUS_GENREC_14
1002
{
1000
PYDIR
1011
-96.0
1021
49.99999999999999
1031
0.0
1002
}
1002
{
1000
PXDIR
1011
88.0
1021
-0.0000000000000142
1031
0.0
1002
}
1002
{
1000
PORI
1011
-96.0
1021
-0.0000000000000142
1031
0.0
1002
}
1002
{
1000
PINS
1011
-12.5
1021
24.99999999999999
1031
0.0
1002
}
1002
{
1000
HVAL
1000
50
1002
}
1002
{
1000
H
1070
     2
1002
}
1002
{
1000
WVAL
1000
167
1002
}
1002
{
1000
W
1070
     2
1002
}
1002
{
1000
C
1070
     4
1002
}
1001
GENIUS_GENODEF_13
1002
{
1000
HIER
1070
     0
1002
}
1002
{
1000
MANEDIT
1070
     0
1002
}
1002
{
1000
NOSEL
1070
     0
1002
}
1002
{
1000
BEHIND
1070
     0
1002
}
1002
{
1000
REACTOR
1002
}
1001
GENIUS_GENOBJ-N-REC_13
1002
{
1000
OWNER
1000
GEN
1002
}
  0
LINE
  5
C0F
330
C08
100
AcDbEntity
  8
0
100
AcDbLine
 10
0.0
 20
50.0
 30
0.0
 11
-193.0000000000001
 21
50.00000000000002
 31
0.0
1001
GENIUS_GENREC_14
1002
{
1000
PYDIR
1011
-184.0
1021
50.0
1031
0.0
1002
}
1002
{
1000
PXDIR
1011
0.0
1021
0.0
1031
0.0
1002
}
1002
{
1000
PORI
1011
-184.0
1021
0.0
1031
0.0
1002
}
1002
{
1000
PINS
1011
-100.5
1021
25.0
1031
0.0
1002
}
1002
{
1000
HVAL
1000
50
1002
}
1002
{
1000
H
1070
     2
1002
}
1002
{
1000
WVAL
1000
167
1002
}
1002
{
1000
W
1070
     2
1002
}
1002
{
1000
C
1070
     4
1002
}
1001
GENIUS_GENODEF_13
1002
{
1000
HIER
1070
     0
1002
}
1002
{
1000
MANEDIT
1070
     0
1002
}
1002
{
1000
NOSEL
1070
     0
1002
}
1002
{
1000
BEHIND
1070
     0
1002
}
1002
{
1000
REACTOR
1002
}
1001
GENIUS_GENOBJ-N-REC_13
1002
{
1000
OWNER
1000
GEN
1002
}
  0
LINE
  5
C10
330
C08
100
AcDbEntity
  8
0
100
AcDbLine
 10
-193.0000000000001
 20
0.0
 30
0.0
 11
0.0
 21
0.0
 31
0.0
1001
GENIUS_GENREC_14
1002
{
1000
PYDIR
1011
-184.0
1021
50.0
1031
0.0
1002
}
1002
{
1000
PXDIR
1011
0.0
1021
0.0
1031
0.0
1002
}
1002
{
1000
PORI
1011
-184.0
1021
0.0
1031
0.0
1002
}
1002
{
1000
PINS
1011
-100.5
1021
25.0
1031
0.0
1002
}
1002
{
1000
HVAL
1000
50
1002
}
1002
{
1000
H
1070
     2
1002
}
1002
{
1000
WVAL
1000
167
1002
}
1002
{
1000
W
1070
     2
1002
}
1002
{
1000
C
1070
     4
1002
}
1001
GENIUS_GENODEF_13
1002
{
1000
HIER
1070
     0
1002
}
1002
{
1000
MANEDIT
1070
     0
1002
}
1002
{
1000
NOSEL
1070
     0
1002
}
1002
{
1000
BEHIND
1070
     0
1002
}
1002
{
1000
REACTOR
1002
}
1001
GENIUS_GENOBJ-N-REC_13
1002
{
1000
OWNER
1000
GEN
1002
}
  0
TEXT
  5
C11
330
C08
100
AcDbEntity
  8
RAHM2
100
AcDbText
 10
-91.92677669529663
 20
45.98333333333335
 30
0.0
 40
2.5
  1
5
 72
     1
 11
-91.0
 21
45.65000000000002
 31
0.0
100
AcDbText
 73
     1
  0
TEXT
  5
C12
330
C08
100
AcDbEntity
  8
RAHM2
100
AcDbText
 10
-92.0
 20
40.98333333333335
 30
0.0
 40
2.5
  1
4
 72
     1
 11
-91.0
 21
40.65000000000002
 31
0.0
100
AcDbText
 73
     1
  0
TEXT
  5
C13
330
C08
100
AcDbEntity
  8
RAHM2
100
AcDbText
 10
-91.92677669529663
 20
35.98333333333333
 30
0.0
 40
2.5
  1
3
 72
     1
 11
-91.0
 21
35.64999999999999
 31
0.0
100
AcDbText
 73
     1
  0
TEXT
  5
C14
330
C08
100
AcDbEntity
  8
RAHM2
100
AcDbText
 10
-91.91833169291339
 20
30.98333333333335
 30
0.0
 40
2.5
  1
2
 72
     1
 11
-91.0
 21
30.65000000000002
 31
0.0
100
AcDbText
 73
     1
  0
TEXT
  5
C15
330
C08
100
AcDbEntity
  8
RAHM2
100
AcDbText
 10
-91.81558635658019
 20
25.98333333333335
 30
0.0
 40
2.5
  1
1
 72
     1
 11
-91.19058635658019
 21
25.65000000000002
 31
0.0
100
AcDbText
 73
     1
  0
MTEXT
  5
C16
330
C08
100
AcDbEntity
  8
RAHM2
100
AcDbMText
 10
-22.27910888308327
 20
27.50000000000003
 30
0.0
 40
2.5
 41
20.0
 71
     5
 72
     5
  1
・  ・   
 73
     1
 44
1.0
1001
ACAD
1000
MTEXTBEGIN
1070
    73
1070
     1
1070
    44
1040
1.0
1070
    74
1070
     0
1000
MTEXTEND
  0
LINE
  5
C17
330
C08
100
AcDbEntity
  8
RAHM2
100
AcDbLine
 10
-96.0
 20
25.0
 30
0.0
 11
0.0000000000001137
 21
25.00000000000003
 31
0.0
  0
LINE
  5
C18
330
C08
100
AcDbEntity
  8
RAHM2
100
AcDbLine
 10
-93.42487113059645
 20
25.40000000000002
 30
0.0
 11
-88.57512886940355
 21
25.40000000000002
 31
0.0
  0
LINE
  5
C19
330
C08
100
AcDbEntity
  8
RAHM2
100
AcDbLine
 10
-88.57512886940355
 20
25.40000000000002
 30
0.0
 11
-91.0
 21
29.60000000000001
 31
0.0
  0
LINE
  5
C1A
330
C08
100
AcDbEntity
  8
RAHM2
100
AcDbLine
 10
-91.0
 20
29.60000000000001
 30
0.0
 11
-93.42487113059645
 21
25.40000000000002
 31
0.0
  0
MTEXT
  5
C1B
330
C08
100
AcDbEntity
  8
RAHM2
100
AcDbMText
 10
-22.27910888308327
 20
47.50000000000002
 30
0.0
 40
2.5
 41
20.0
 71
     5
 72
     5
  1
・  ・   
 73
     1
 44
1.0
1001
ACAD
1000
MTEXTBEGIN
1070
    73
1070
     1
1070
    44
1040
1.0
1070
    74
1070
     0
1000
MTEXTEND
  0
MTEXT
  5
C1C
330
C08
100
AcDbEntity
  8
RAHM2
100
AcDbMText
 10
-22.27910888308327
 20
37.50000000000003
 30
0.0
 40
2.5
 41
20.0
 71
     5
 72
     5
  1
・  ・   
 73
     1
 44
1.0
1001
ACAD
1000
MTEXTBEGIN
1070
    73
1070
     1
1070
    44
1040
1.0
1070
    74
1070
     0
1000
MTEXTEND
  0
MTEXT
  5
C1D
330
C08
100
AcDbEntity
  8
RAHM2
100
AcDbMText
 10
-22.27910888308327
 20
42.50000000000002
 30
0.0
 40
2.5
 41
20.0
 71
     5
 72
     5
  1
・  ・   
 73
     1
 44
1.0
1001
ACAD
1000
MTEXTBEGIN
1070
    73
1070
     1
1070
    44
1040
1.0
1070
    74
1070
     0
1000
MTEXTEND
  0
MTEXT
  5
C1E
330
C08
100
AcDbEntity
  8
RAHM2
100
AcDbMText
 10
-5.910409705344477
 20
22.49999999999997
 30
0.0
 40
2.5
 41
15.0
 71
     5
 72
     5
  1
担当
 73
     1
 44
1.0
1001
ACAD
1000
MTEXTBEGIN
1070
    73
1070
     1
1070
    44
1040
1.0
1070
    74
1070
     0
1000
MTEXTEND
  0
MTEXT
  5
C1F
330
C08
100
AcDbEntity
  8
RAHM2
100
AcDbMText
 10
-21.55893921569111
 20
22.49999999999997
 30
0.0
 40
2.5
 41
20.0
 71
     5
 72
     5
  1
年・月・日
 73
     1
 44
1.0
1001
ACAD
1000
MTEXTBEGIN
1070
    73
1070
     1
1070
    44
1040
1.0
1070
    74
1070
     0
1000
MTEXTEND
  0
MTEXT
  5
C20
330
C08
100
AcDbEntity
  8
RAHM2
100
AcDbMText
 10
-22.27910888308327
 20
32.50000000000003
 30
0.0
 40
2.5
 41
20.0
 71
     5
 72
     5
  1
・  ・   
 73
     1
 44
1.0
1001
ACAD
1000
MTEXTBEGIN
1070
    73
1070
     1
1070
    44
1040
1.0
1070
    74
1070
     0
1000
MTEXTEND
  0
LINE
  5
C21
330
C08
100
AcDbEntity
  8
RAHM2
100
AcDbLine
 10
-11.82081941068907
 20
50.00000000000003
 30
0.0
 11
-11.82081941068907
 21
19.99999999999994
 31
0.0
  0
MTEXT
  5
C22
330
C08
100
AcDbEntity
  8
RAHM2
100
AcDbMText
 10
-59.0
 20
22.49999999999996
 30
0.0
 40
2.5
 41
45.0
 71
     5
 72
     5
  1
変更記事
 73
     1
 44
1.0
1001
ACAD
1000
MTEXTBEGIN
1070
    73
1070
     1
1070
    44
1040
1.0
1070
    74
1070
     0
1000
MTEXTEND
  0
LINE
  5
C23
330
C08
100
AcDbEntity
  8
RAHM2
100
AcDbLine
 10
-31.82081941068907
 20
50.00000000000003
 30
0.0
 11
-31.82081941068918
 21
19.99999999999994
 31
0.0
  0
LINE
  5
C24
330
C08
100
AcDbEntity
  8
RAHM2
100
AcDbLine
 10
-91.0
 20
49.6
 30
0.0
 11
-93.42487113059645
 21
45.40000000000001
 31
0.0
  0
LINE
  5
C25
330
C08
100
AcDbEntity
  8
RAHM2
100
AcDbLine
 10
-91.0
 20
44.6
 30
0.0
 11
-93.42487113059645
 21
40.40000000000001
 31
0.0
  0
LINE
  5
C26
330
C08
100
AcDbEntity
  8
RAHM2
100
AcDbLine
 10
-91.0
 20
39.60000000000001
 30
0.0
 11
-93.42487113059645
 21
35.40000000000002
 31
0.0
  0
LINE
  5
C27
330
C08
100
AcDbEntity
  8
RAHM2
100
AcDbLine
 10
-88.57512886940355
 20
35.40000000000002
 30
0.0
 11
-91.0
 21
39.60000000000001
 31
0.0
  0
LINE
  5
C28
330
C08
100
AcDbEntity
  8
RAHM2
100
AcDbLine
 10
-93.42487113059645
 20
35.40000000000002
 30
0.0
 11
-88.57512886940355
 21
35.40000000000002
 31
0.0
  0
LINE
  5
C29
330
C08
100
AcDbEntity
  8
RAHM2
100
AcDbLine
 10
-88.57512886940355
 20
40.40000000000001
 30
0.0
 11
-91.0
 21
44.6
 31
0.0
  0
LINE
  5
C2A
330
C08
100
AcDbEntity
  8
RAHM2
100
AcDbLine
 10
-93.42487113059645
 20
40.40000000000001
 30
0.0
 11
-88.57512886940355
 21
40.40000000000001
 31
0.0
  0
LINE
  5
C2B
330
C08
100
AcDbEntity
  8
RAHM2
100
AcDbLine
 10
-88.57512886940355
 20
45.40000000000001
 30
0.0
 11
-91.0
 21
49.6
 31
0.0
  0
LINE
  5
C2C
330
C08
100
AcDbEntity
  8
RAHM2
100
AcDbLine
 10
-93.42487113059645
 20
45.40000000000001
 30
0.0
 11
-88.57512886940355
 21
45.40000000000001
 31
0.0
  0
MTEXT
  5
C2D
330
C08
100
AcDbEntity
  8
RAHM2
100
AcDbMText
 10
-94.80025513713144
 20
18.8010354072796
 30
0.0
 40
2.5
 41
90.0
 71
     1
 72
     5
  1
品名
 73
     1
 44
1.0
1001
ACAD
1000
MTEXTBEGIN
1070
    73
1070
     1
1070
    44
1040
1.0
1070
    74
1070
     0
1000
MTEXTEND
  0
MTEXT
  5
C2E
330
C08
100
AcDbEntity
  8
RAHM2
100
AcDbMText
 10
-91.0
 20
22.49999999999996
 30
0.0
 40
2.5
 41
10.0
 71
     5
 72
     5
  1
符号
 73
     1
 44
1.0
1001
ACAD
1000
MTEXTBEGIN
1070
    73
1070
     1
1070
    44
1040
1.0
1070
    74
1070
     0
1000
MTEXTEND
  0
LINE
  5
C2F
330
C08
100
AcDbEntity
  8
RAHM2
100
AcDbLine
 10
-93.42487113059645
 20
30.40000000000002
 30
0.0
 11
-88.57512886940355
 21
30.40000000000002
 31
0.0
  0
LINE
  5
C30
330
C08
100
AcDbEntity
  8
RAHM2
100
AcDbLine
 10
-86.0
 20
50.00000000000001
 30
0.0
 11
-86.0
 21
19.99999999999993
 31
0.0
  0
LINE
  5
C31
330
C08
100
AcDbEntity
  8
RAHM2
100
AcDbLine
 10
-91.0
 20
34.60000000000001
 30
0.0
 11
-93.42487113059645
 21
30.40000000000002
 31
0.0
  0
LINE
  5
C32
330
C08
100
AcDbEntity
  8
RAHM2
100
AcDbLine
 10
-88.57512886940355
 20
30.40000000000002
 30
0.0
 11
-91.0
 21
34.60000000000001
 31
0.0
  0
MTEXT
  5
C33
330
C08
100
AcDbEntity
  8
RAHM2
100
AcDbMText
 10
-94.80025513713144
 20
5.801035407279627
 30
0.0
 40
2.5
 41
90.0
 71
     1
 72
     5
  1
図番
 73
     1
 44
1.0
1001
ACAD
1000
MTEXTBEGIN
1070
    73
1070
     1
1070
    44
1040
1.0
1070
    74
1070
     0
1000
MTEXTEND
  0
LINE
  5
C34
330
C08
100
AcDbEntity
  8
0
100
AcDbLine
 10
-96.0
 20
19.99999999999997
 30
0.0
 11
0.0000000000001137
 21
19.99999999999997
 31
0.0
  0
LINE
  5
C35
330
C08
100
AcDbEntity
  8
0
100
AcDbLine
 10
-96.0
 20
7.0
 30
0.0
 11
0.0000000000001137
 21
7.0
 31
0.0
  0
LINE
  5
C36
330
C08
100
AcDbEntity
  8
RAHM2
100
AcDbLine
 10
-96.0
 20
45.00000000000002
 30
0.0
 11
0.0000000000001137
 21
45.00000000000002
 31
0.0
  0
LINE
  5
C37
330
C08
100
AcDbEntity
  8
RAHM2
100
AcDbLine
 10
-96.0
 20
39.99999999999993
 30
0.0
 11
0.0000000000001137
 21
40.00000000000002
 31
0.0
  0
LINE
  5
C38
330
C08
100
AcDbEntity
  8
RAHM2
100
AcDbLine
 10
-96.0
 20
35.00000000000003
 30
0.0
 11
0.0000000000001137
 21
35.00000000000003
 31
0.0
  0
LINE
  5
C39
330
C08
100
AcDbEntity
  8
RAHM2
100
AcDbLine
 10
-96.0
 20
29.99999999999992
 30
0.0
 11
0.0000000000001137
 21
30.00000000000003
 31
0.0
  0
LINE
  5
C3A
330
C08
100
AcDbEntity
  8
0
100
AcDbLine
 10
-21.17541926625711
 20
0.0
 30
0.0
 11
-21.17541926625734
 21
7.0
 31
0.0
  0
MTEXT
  5
C3B
330
C08
100
AcDbEntity
  8
RAHM2
100
AcDbMText
 10
-16.85742592933491
 20
3.434762466565985
 30
0.0
 40
2.5
 41
7.936478436748416
 71
     5
 72
     5
  1
Rev.
 73
     1
 44
1.0
1001
ACAD
1000
MTEXTBEGIN
1070
    73
1070
     1
1070
    44
1040
1.0
1070
    74
1070
     0
1000
MTEXTEND
  0
MTEXT
  5
C3C
330
C08
100
AcDbEntity
  8
RAHM2
100
AcDbMText
 10
-104.875
 20
18.80103540727957
 30
0.0
 40
2.5
 41
17.0
 71
     2
 72
     5
  1
製図
 73
     1
 44
1.0
1001
ACAD
1000
MTEXTBEGIN
1070
    73
1070
     1
1070
    44
1040
1.0
1070
    74
1070
     0
1000
MTEXTEND
  0
LINE
  5
C3D
330
C08
100
AcDbEntity
  8
0
100
AcDbLine
 10
-167.0
 20
19.99999999999993
 30
0.0
 11
-96.0
 21
19.99999999999993
 31
0.0
  0
LINE
  5
C3E
330
C08
100
AcDbEntity
  8
0
100
AcDbLine
 10
-113.75
 20
19.99999999999993
 30
0.0
 11
-113.75
 21
-0.0000000000000533
 31
0.0
  0
LINE
  5
C3F
330
C08
100
AcDbEntity
  8
0
100
AcDbLine
 10
-131.5000000000001
 20
19.99999999999993
 30
0.0
 11
-131.5000000000001
 21
-0.0000000000000533
 31
0.0
  0
MTEXT
  5
C40
330
C08
100
AcDbEntity
  8
RAHM2
100
AcDbMText
 10
-122.6250000000001
 20
18.80103540727958
 30
0.0
 40
2.5
 41
17.0
 71
     2
 72
     5
  1
検図
 73
     1
 44
1.0
1001
ACAD
1000
MTEXTBEGIN
1070
    73
1070
     1
1070
    44
1040
1.0
1070
    74
1070
     0
1000
MTEXTEND
  0
LINE
  5
C41
330
C08
100
AcDbEntity
  8
0
100
AcDbLine
 10
-167.0
 20
49.99999999999995
 30
0.0
 11
-167.0
 21
-0.0000000000000497
 31
0.0
  0
LINE
  5
C42
330
C08
100
AcDbEntity
  8
0
100
AcDbLine
 10
-149.2500000000001
 20
19.99999999999993
 30
0.0
 11
-149.2500000000001
 21
-0.0000000000000462
 31
0.0
  0
MTEXT
  5
C43
330
C08
100
AcDbEntity
  8
RAHM2
100
AcDbMText
 10
-140.3750000000001
 20
18.80103540727958
 30
0.0
 40
2.5
 41
17.0
 71
     2
 72
     5
  1
承認
 73
     1
 44
1.0
1001
ACAD
1000
MTEXTBEGIN
1070
    73
1070
     1
1070
    44
1040
1.0
1070
    74
1070
     0
1000
MTEXTEND
  0
MTEXT
  5
C44
330
C08
100
AcDbEntity
  8
RAHM2
100
AcDbMText
 10
-158.1250000000001
 20
18.80103540727956
 30
0.0
 40
2.5
 41
17.0
 71
     2
 72
     5
  1
承認
 73
     1
 44
1.0
1001
ACAD
1000
MTEXTBEGIN
1070
    73
1070
     1
1070
    44
1040
1.0
1070
    74
1070
     0
1000
MTEXTEND
  0
LINE
  5
C45
330
C08
100
AcDbEntity
  8
0
100
AcDbLine
 10
-167.0
 20
29.99999999999992
 30
0.0
 11
-96.0
 21
29.99999999999992
 31
0.0
  0
MTEXT
  5
C46
330
C08
100
AcDbEntity
  8
0
100
AcDbMText
 10
-131.5000000000001
 20
24.99999999999992
 30
0.0
 40
3.5
 41
60.0
 71
     5
 72
     5
  1
\fＭＳ ゴシック|b0|i0|c128|p49;株式会社タカチ電機工業
 73
     1
 44
1.0
1001
ACAD
1000
MTEXTBEGIN
1070
    73
1070
     1
1070
    44
1040
1.0
1070
    74
1070
     0
1000
MTEXTEND
  0
ATTDEF
  5
C47
330
C08
100
AcDbEntity
  8
0
100
AcDbText
 10
-148.9618675835291
 20
43.29999999999991
 30
0.0
 40
3.0
  1

100
AcDbAttributeDefinition
  3
材質
  2
GEN-TITLE-MAT1
 70
     0
  0
ATTDEF
  5
C48
330
C08
100
AcDbEntity
  8
0
100
AcDbText
 10
-148.9618675835291
 20
33.29999999999991
 30
0.0
 40
3.0
  1

100
AcDbAttributeDefinition
  3
表面処理
  2
GEN-TITLE-MAT2
 70
     0
  0
MTEXT
  5
C49
330
C08
100
AcDbEntity
  8
RAHM2
100
AcDbMText
 10
-165.8002551371314
 20
48.80103540727955
 30
0.0
 40
2.5
 41
60.0
 71
     1
 72
     5
  1
材質
 73
     1
 44
1.0
1001
ACAD
1000
MTEXTBEGIN
1070
    73
1070
     1
1070
    44
1040
1.0
1070
    74
1070
     0
1000
MTEXTEND
  0
MTEXT
  5
C4A
330
C08
100
AcDbEntity
  8
RAHM2
100
AcDbMText
 10
-165.8002551371314
 20
38.80103540727956
 30
0.0
 40
2.5
 41
60.0
 71
     1
 72
     5
  1
表面処理
 73
     1
 44
1.0
1001
ACAD
1000
MTEXTBEGIN
1070
    73
1070
     1
1070
    44
1040
1.0
1070
    74
1070
     0
1000
MTEXTEND
  0
LINE
  5
C4B
330
C08
100
AcDbEntity
  8
0
100
AcDbLine
 10
-167.0
 20
39.99999999999991
 30
0.0
 11
-96.0
 21
39.99999999999992
 31
0.0
  0
LINE
  5
C4C
330
C08
100
AcDbEntity
  8
0
100
AcDbLine
 10
-167.0
 20
24.99999999999997
 30
0.0
 11
-193.0000000000001
 21
24.99999999999997
 31
0.0
  0
LINE
  5
C4D
330
C08
100
AcDbEntity
  8
0
100
AcDbLine
 10
-171.7167418745796
 20
46.74999999999995
 30
0.0
 11
-171.7167418745796
 21
40.74999999999994
 31
0.0
  0
LINE
  5
C4E
330
C08
100
AcDbEntity
  8
7A
100
AcDbLine
 10
-184.7167418745796
 20
43.74999999999995
 30
0.0
 11
-184.7167418745796
 21
40.03991724228473
 31
0.0
1001
GENIUS_GENOREF_13
1005
C60
  0
LINE
  5
C4F
330
C08
100
AcDbEntity
  8
7A
100
AcDbLine
 10
-184.7167418745796
 20
43.74999999999995
 30
0.0
 11
-188.4397792458307
 21
43.74999999999995
 31
0.0
1001
GENIUS_GENOREF_13
1005
C60
  0
LINE
  5
C50
330
C08
100
AcDbEntity
  8
0
100
AcDbLine
 10
-179.7167418745796
 20
41.74999999999995
 30
0.0
 11
-179.7167418745796
 21
45.74999999999994
 31
0.0
  0
CIRCLE
  5
C51
330
C08
100
AcDbEntity
  8
0
100
AcDbCircle
 10
-184.7167418745796
 20
43.74999999999995
 30
0.0
 40
3.0
  0
CIRCLE
  5
C52
330
C08
100
AcDbEntity
  8
0
100
AcDbCircle
 10
-184.7167418745796
 20
43.74999999999995
 30
0.0
 40
2.0
  0
LINE
  5
C53
330
C08
100
AcDbEntity
  8
7A
100
AcDbLine
 10
-184.7167418745796
 20
43.74999999999995
 30
0.0
 11
-184.7167418745796
 21
47.32478664473144
 31
0.0
1001
GENIUS_GENOREF_13
1005
C60
  0
LINE
  5
C54
330
C08
100
AcDbEntity
  8
0
100
AcDbLine
 10
-171.7167418745796
 20
40.74999999999994
 30
0.0
 11
-179.7167418745796
 21
41.74999999999995
 31
0.0
  0
LINE
  5
C55
330
C08
100
AcDbEntity
  8
0
100
AcDbLine
 10
-179.7167418745796
 20
45.74999999999994
 30
0.0
 11
-171.7167418745796
 21
46.74999999999995
 31
0.0
  0
LINE
  5
C56
330
C08
100
AcDbEntity
  8
7A
100
AcDbLine
 10
-184.7167418745796
 20
43.74999999999995
 30
0.0
 11
-170.9354334742943
 21
43.74999999999995
 31
0.0
1001
GENIUS_GENOREF_13
1005
C60
  0
LINE
  5
C57
330
C08
100
AcDbEntity
  8
0
100
AcDbLine
 10
-193.0000000000001
 20
49.99999999999999
 30
0.0
 11
-193.0000000000001
 21
-0.0000000000000142
 31
0.0
  0
ATTDEF
  5
C58
330
C08
100
AcDbEntity
  8
0
100
AcDbText
 10
-175.6127409126095
 20
16.19999999999994
 30
0.0
 40
3.0
  1

 72
     2
 11
-175.6127409126095
 21
15.79999999999994
 31
0.0
100
AcDbAttributeDefinition
  3
数量
  2
GEN-TITLE-QTY
 70
     0
 74
     1
  0
MTEXT
  5
C59
330
C08
100
AcDbEntity
  8
RAHM2
100
AcDbMText
 10
-191.8002551371315
 20
23.80103540727963
 30
0.0
 40
2.5
 41
20.0
 71
     1
 72
     5
  1
数量
 73
     1
 44
1.0
1001
ACAD
1000
MTEXTBEGIN
1070
    73
1070
     1
1070
    44
1040
1.0
1070
    74
1070
     0
1000
MTEXTEND
  0
MTEXT
  5
C5A
330
C08
100
AcDbEntity
  8
RAHM2
100
AcDbMText
 10
-191.8002551371315
 20
36.30103540727966
 30
0.0
 40
2.5
 41
20.0
 71
     1
 72
     5
  1
尺度
 73
     1
 44
1.0
1001
ACAD
1000
MTEXTBEGIN
1070
    73
1070
     1
1070
    44
1040
1.0
1070
    74
1070
     0
1000
MTEXTEND
  0
ATTDEF
  5
C5B
330
C08
100
AcDbEntity
  8
0
100
AcDbText
 10
-177.824739614424
 20
28.69999999999997
 30
0.0
 40
3.0
  1

 72
     2
 11
-177.824739614424
 21
28.29999999999998
 31
0.0
100
AcDbAttributeDefinition
  3
尺度
  2
GEN-TITLE-SCA
 70
     0
 74
     1
  0
MTEXT
  5
C5C
330
C08
100
AcDbEntity
  8
RAHM2
100
AcDbMText
 10
-191.8002551371315
 20
11.3010354072796
 30
0.0
 40
2.5
 41
60.0
 71
     1
 72
     5
  1
日付
 73
     1
 44
1.0
1001
ACAD
1000
MTEXTBEGIN
1070
    73
1070
     1
1070
    44
1040
1.0
1070
    74
1070
     0
1000
MTEXTEND
  0
ATTDEF
  5
C5D
330
C08
100
AcDbEntity
  8
0
100
AcDbText
 10
-180.2171951662138
 20
3.988342537610664
 30
0.0
 40
3.0
  1

 72
     1
 11
-180.2171951662138
 21
3.588342537610664
 31
0.0
100
AcDbAttributeDefinition
  3
日付
  2
GEN-TITLE-DAT
 70
     0
 74
     1
  0
LINE
  5
C5E
330
C08
100
AcDbEntity
  8
0
100
AcDbLine
 10
-167.0
 20
37.49999999999998
 30
0.0
 11
-193.0000000000001
 21
37.49999999999998
 31
0.0
  0
LINE
  5
C5F
330
C08
100
AcDbEntity
  8
0
100
AcDbLine
 10
-167.0
 20
12.49999999999996
 30
0.0
 11
-193.0000000000001
 21
12.49999999999996
 31
0.0
  0
POINT
  5
C60
330
C08
100
AcDbEntity
  8
0
 60
     1
100
AcDbPoint
 10
-418.5355579819675
 20
-138.1104841268254
 30
0.0
1001
GENIUS_GENODEF_13
1002
{
1000
HIER
1070
    10
1002
}
1002
{
1000
MANEDIT
1070
     0
1002
}
1002
{
1000
NOSEL
1070
     0
1002
}
1002
{
1000
BEHIND
1070
     0
1002
}
1002
{
1000
REACTOR
1002
}
1001
GENIUS_GENOBJ-N-CRS_13
1002
{
1000
OWNER
1000
GEN
1002
}
1001
GENIUS_GENOLIS_13
1002
{
1000
ENT
1005
C4E
1005
C4F
1005
C53
1005
C56
1002
}
1001
GENIUS_GENOENT_13
1002
{
1000
MYREF
1005
0
1002
}
1002
{
1000
GRP
1005
0
1002
}
  0
ENDBLK
  5
C63
330
C08
100
AcDbEntity
  8
0
100
AcDbBlockEnd
  0
BLOCK
  5
E92
330
E7A
100
AcDbEntity
  8
0
100
AcDbBlockBegin
  2
*D7
 70
     1
 10
0.0
 20
0.0
 30
0.0
  3
*D7
  1

  0
LINE
  5
E86
330
E7A
100
AcDbEntity
  8
AM_5
100
AcDbLine
 10
51.5459712449707
 20
223.1179370775412
 30
0.0
 11
29.59597024497065
 21
223.1179370775412
 31
0.0
  0
LINE
  5
E87
330
E7A
100
AcDbEntity
  8
AM_5
100
AcDbLine
 10
51.5459712449707
 20
173.1179370775413
 30
0.0
 11
29.59597024497064
 21
173.1179370775413
 31
0.0
  0
LINE
  5
E88
330
E7A
100
AcDbEntity
  8
AM_5
100
AcDbLine
 10
30.59597024497065
 20
220.6179370775412
 30
0.0
 11
30.59597024497064
 21
175.6179370775413
 31
0.0
  0
INSERT
  5
E89
330
E7A
100
AcDbEntity
  8
AM_5
100
AcDbBlockReference
  2
_Open30
 10
30.59597024497065
 20
223.1179370775412
 30
0.0
 41
2.5
 42
2.5
 43
2.5
 50
90.0
  0
INSERT
  5
E8A
330
E7A
100
AcDbEntity
  8
AM_5
100
AcDbBlockReference
  2
_Open30
 10
30.59597024497064
 20
173.1179370775413
 30
0.0
 41
2.5
 42
2.5
 43
2.5
 50
270.0
  0
MTEXT
  5
E8B
330
E7A
100
AcDbEntity
  8
AM_5
 62
     2
100
AcDbMText
 10
27.34597024497061
 20
198.1179370775412
 30
0.0
 40
3.5
 41
0.0
 71
     5
 72
     1
  1
50
 11
0.0000000000000001
 21
1.0
 31
0.0
 73
     1
 44
1.0
1001
ACAD
1000
MTEXTBEGIN
1070
    73
1070
     1
1070
    44
1040
1.0
1070
    74
1070
     0
1000
MTEXTEND
  0
POINT
  5
E8C
330
E7A
100
AcDbEntity
  8
Defpoints
 62
     0
100
AcDbPoint
 10
52.5459712449707
 20
223.1179370775412
 30
0.0
  0
POINT
  5
E8D
330
E7A
100
AcDbEntity
  8
Defpoints
 62
     0
100
AcDbPoint
 10
52.5459712449707
 20
173.1179370775413
 30
0.0
  0
POINT
  5
E8E
330
E7A
100
AcDbEntity
  8
Defpoints
 62
     0
100
AcDbPoint
 10
30.59597024497064
 20
173.1179370775413
 30
0.0
  0
ENDBLK
  5
E93
330
E7A
100
AcDbEntity
  8
0
100
AcDbBlockEnd
  0
BLOCK
  5
17AE
330
1796
100
AcDbEntity
  8
0
100
AcDbBlockBegin
  2
*D9
 70
     1
 10
0.0
 20
0.0
 30
0.0
  3
*D9
  1

  0
LINE
  5
17B1
330
1796
100
AcDbEntity
  8
AM_5
100
AcDbLine
 10
42.59597124497076
 20
235.4179370775415
 30
0.0
 11
42.59597124497076
 21
257.8291390903705
 31
0.0
  0
LINE
  5
17B2
330
1796
100
AcDbEntity
  8
AM_5
100
AcDbLine
 10
136.5930440029357
 20
235.49439566322
 30
0.0
 11
136.5930440029357
 21
257.8291390903705
 31
0.0
  0
LINE
  5
17B3
330
1796
100
AcDbEntity
  8
AM_5
100
AcDbLine
 10
45.09597124497076
 20
256.8291390903705
 30
0.0
 11
134.0930440029357
 21
256.8291390903705
 31
0.0
  0
INSERT
  5
17B4
330
1796
100
AcDbEntity
  8
AM_5
100
AcDbBlockReference
  2
_Open30
 10
42.59597124497076
 20
256.8291390903705
 30
0.0
 41
2.5
 42
2.5
 43
2.5
 50
180.0
  0
INSERT
  5
17B5
330
1796
100
AcDbEntity
  8
AM_5
100
AcDbBlockReference
  2
_Open30
 10
136.5930440029357
 20
256.8291390903705
 30
0.0
 41
2.5
 42
2.5
 43
2.5
  0
MTEXT
  5
17B6
330
1796
100
AcDbEntity
  8
AM_5
 62
     2
100
AcDbMText
 10
89.59450762395324
 20
260.0791390903705
 30
0.0
 40
3.5
 41
0.0
 71
     5
 72
     1
  1
94
 73
     1
 44
1.0
1001
ACAD
1000
MTEXTBEGIN
1070
    73
1070
     1
1070
    44
1040
1.0
1070
    74
1070
     0
1000
MTEXTEND
  0
POINT
  5
17B7
330
1796
100
AcDbEntity
  8
Defpoints
 62
     0
100
AcDbPoint
 10
42.59597124497076
 20
234.4179370775415
 30
0.0
  0
POINT
  5
17B8
330
1796
100
AcDbEntity
  8
Defpoints
 62
     0
100
AcDbPoint
 10
136.5930440029357
 20
234.49439566322
 30
0.0
  0
POINT
  5
17B9
330
1796
100
AcDbEntity
  8
Defpoints
 62
     0
100
AcDbPoint
 10
136.5930440029357
 20
256.8291390903705
 30
0.0
  0
ENDBLK
  5
17AF
330
1796
100
AcDbEntity
  8
0
100
AcDbBlockEnd
  0
BLOCK
  5
17ED
330
17D5
100
AcDbEntity
  8
0
100
AcDbBlockBegin
  2
*D10
 70
     1
 10
0.0
 20
0.0
 30
0.0
  3
*D10
  1

  0
LINE
  5
1802
330
17D5
100
AcDbEntity
  8
AM_5
100
AcDbLine
 10
172.5418033335303
 20
218.1005370643073
 30
0.0
 11
172.5418033335303
 21
257.8291390903705
 31
0.0
  0
LINE
  5
1803
330
17D5
100
AcDbEntity
  8
AM_5
100
AcDbLine
 10
197.6418033335303
 20
236.417937077541
 30
0.0
 11
197.6418033335303
 21
257.8291390903705
 31
0.0
  0
LINE
  5
1804
330
17D5
100
AcDbEntity
  8
AM_5
100
AcDbLine
 10
175.0418033335303
 20
256.8291390903705
 30
0.0
 11
195.1418033335303
 21
256.8291390903705
 31
0.0
  0
INSERT
  5
1805
330
17D5
100
AcDbEntity
  8
AM_5
100
AcDbBlockReference
  2
_Open30
 10
172.5418033335303
 20
256.8291390903705
 30
0.0
 41
2.5
 42
2.5
 43
2.5
 50
180.0
  0
INSERT
  5
1806
330
17D5
100
AcDbEntity
  8
AM_5
100
AcDbBlockReference
  2
_Open30
 10
197.6418033335303
 20
256.8291390903705
 30
0.0
 41
2.5
 42
2.5
 43
2.5
  0
MTEXT
  5
1807
330
17D5
100
AcDbEntity
  8
AM_5
 62
     2
100
AcDbMText
 10
185.0918033335303
 20
260.0794835785595
 30
0.0
 40
3.5
 41
0.0
 71
     5
 72
     1
  1
25
 73
     1
 44
1.0
1001
ACAD
1000
MTEXTBEGIN
1070
    73
1070
     1
1070
    44
1040
1.0
1070
    74
1070
     0
1000
MTEXTEND
  0
POINT
  5
1808
330
17D5
100
AcDbEntity
  8
Defpoints
 62
     0
100
AcDbPoint
 10
172.5418033335303
 20
217.1005370643073
 30
0.0
  0
POINT
  5
1809
330
17D5
100
AcDbEntity
  8
Defpoints
 62
     0
100
AcDbPoint
 10
197.6418033335303
 20
235.417937077541
 30
0.0
  0
POINT
  5
180A
330
17D5
100
AcDbEntity
  8
Defpoints
 62
     0
100
AcDbPoint
 10
197.6418033335303
 20
256.8291390903705
 30
0.0
  0
ENDBLK
  5
17EE
330
17D5
100
AcDbEntity
  8
0
100
AcDbBlockEnd
  0
BLOCK
  5
1834
330
181C
100
AcDbEntity
  8
0
100
AcDbBlockBegin
  2
*D11
 70
     1
 10
0.0
 20
0.0
 30
0.0
  3
*D11
  1

  0
LINE
  5
1837
330
181C
100
AcDbEntity
  8
AM_5
100
AcDbLine
 10
42.59597124497077
 20
235.4179370775415
 30
0.0
 11
15.89933459543682
 21
235.4179370775415
 31
0.0
  0
LINE
  5
1838
330
181C
100
AcDbEntity
  8
AM_5
100
AcDbLine
 10
51.59597124497065
 20
159.4179370775412
 30
0.0
 11
15.89933459543681
 21
159.4179370775412
 31
0.0
  0
LINE
  5
1839
330
181C
100
AcDbEntity
  8
AM_5
100
AcDbLine
 10
16.89933459543683
 20
232.9179370775415
 30
0.0
 11
16.89933459543681
 21
161.9179370775412
 31
0.0
  0
INSERT
  5
183A
330
181C
100
AcDbEntity
  8
AM_5
100
AcDbBlockReference
  2
_Open30
 10
16.89933459543683
 20
235.4179370775415
 30
0.0
 41
2.5
 42
2.5
 43
2.5
 50
90.0
  0
INSERT
  5
183B
330
181C
100
AcDbEntity
  8
AM_5
100
AcDbBlockReference
  2
_Open30
 10
16.89933459543681
 20
159.4179370775412
 30
0.0
 41
2.5
 42
2.5
 43
2.5
 50
270.0
  0
MTEXT
  5
183C
330
181C
100
AcDbEntity
  8
AM_5
 62
     2
100
AcDbMText
 10
13.64933459543678
 20
197.4179370775413
 30
0.0
 40
3.5
 41
0.0
 71
     5
 72
     1
  1
76
 11
0.0000000000000001
 21
1.0
 31
0.0
 73
     1
 44
1.0
1001
ACAD
1000
MTEXTBEGIN
1070
    73
1070
     1
1070
    44
1040
1.0
1070
    74
1070
     0
1000
MTEXTEND
  0
POINT
  5
183D
330
181C
100
AcDbEntity
  8
Defpoints
 62
     0
100
AcDbPoint
 10
43.59597124497077
 20
235.4179370775415
 30
0.0
  0
POINT
  5
183E
330
181C
100
AcDbEntity
  8
Defpoints
 62
     0
100
AcDbPoint
 10
52.59597124497066
 20
159.4179370775412
 30
0.0
  0
POINT
  5
183F
330
181C
100
AcDbEntity
  8
Defpoints
 62
     0
100
AcDbPoint
 10
16.89933459543681
 20
159.4179370775412
 30
0.0
  0
ENDBLK
  5
1835
330
181C
100
AcDbEntity
  8
0
100
AcDbBlockEnd
  0
BLOCK
  5
1869
330
1851
100
AcDbEntity
  8
0
100
AcDbBlockBegin
  2
*D12
 70
     1
 10
0.0
 20
0.0
 30
0.0
  3
*D12
  1

  0
LINE
  5
1876
330
1851
100
AcDbEntity
  8
AM_5
100
AcDbLine
 10
275.0872925184058
 20
131.160474408576
 30
0.0
 11
275.0872925184058
 21
139.5962556556183
 31
0.0
  0
LINE
  5
1877
330
1851
100
AcDbEntity
  8
AM_5
100
AcDbLine
 10
345.0872925184058
 20
131.160474408576
 30
0.0
 11
345.0872925184058
 21
139.5962556556183
 31
0.0
  0
LINE
  5
1878
330
1851
100
AcDbEntity
  8
AM_5
100
AcDbLine
 10
277.5872925184058
 20
138.5962556556183
 30
0.0
 11
342.5872925184058
 21
138.5962556556183
 31
0.0
  0
INSERT
  5
1879
330
1851
100
AcDbEntity
  8
AM_5
100
AcDbBlockReference
  2
_Open30
 10
275.0872925184058
 20
138.5962556556183
 30
0.0
 41
2.5
 42
2.5
 43
2.5
 50
180.0
  0
INSERT
  5
187A
330
1851
100
AcDbEntity
  8
AM_5
100
AcDbBlockReference
  2
_Open30
 10
345.0872925184058
 20
138.5962556556183
 30
0.0
 41
2.5
 42
2.5
 43
2.5
  0
MTEXT
  5
187B
330
1851
100
AcDbEntity
  8
AM_5
 62
     2
100
AcDbMText
 10
310.0872925184058
 20
141.8462556556183
 30
0.0
 40
3.5
 41
0.0
 71
     5
 72
     1
  1
70
 73
     1
 44
1.0
1001
ACAD
1000
MTEXTBEGIN
1070
    73
1070
     1
1070
    44
1040
1.0
1070
    74
1070
     0
1000
MTEXTEND
  0
POINT
  5
187C
330
1851
100
AcDbEntity
  8
Defpoints
 62
     0
100
AcDbPoint
 10
275.0872925184058
 20
130.160474408576
 30
0.0
  0
POINT
  5
187D
330
1851
100
AcDbEntity
  8
Defpoints
 62
     0
100
AcDbPoint
 10
345.0872925184058
 20
130.160474408576
 30
0.0
  0
POINT
  5
187E
330
1851
100
AcDbEntity
  8
Defpoints
 62
     0
100
AcDbPoint
 10
345.0872925184058
 20
138.5962556556183
 30
0.0
  0
ENDBLK
  5
186A
330
1851
100
AcDbEntity
  8
0
100
AcDbBlockEnd
  0
BLOCK
  5
18A7
330
188F
100
AcDbEntity
  8
0
100
AcDbBlockBegin
  2
*D13
 70
     1
 10
0.0
 20
0.0
 30
0.0
  3
*D13
  1

  0
LINE
  5
189B
330
188F
100
AcDbEntity
  8
AM_5
100
AcDbLine
 10
268.0872925184058
 20
119.1604744085761
 30
0.0
 11
268.0872925184058
 21
149.5962556556181
 31
0.0
  0
LINE
  5
189C
330
188F
100
AcDbEntity
  8
AM_5
100
AcDbLine
 10
352.0872925184058
 20
119.1604744085761
 30
0.0
 11
352.0872925184058
 21
149.5962556556181
 31
0.0
  0
LINE
  5
189D
330
188F
100
AcDbEntity
  8
AM_5
100
AcDbLine
 10
270.5872925184058
 20
148.5962556556181
 30
0.0
 11
349.5872925184058
 21
148.5962556556181
 31
0.0
  0
INSERT
  5
189E
330
188F
100
AcDbEntity
  8
AM_5
100
AcDbBlockReference
  2
_Open30
 10
268.0872925184058
 20
148.5962556556181
 30
0.0
 41
2.5
 42
2.5
 43
2.5
 50
180.0
  0
INSERT
  5
189F
330
188F
100
AcDbEntity
  8
AM_5
100
AcDbBlockReference
  2
_Open30
 10
352.0872925184058
 20
148.5962556556181
 30
0.0
 41
2.5
 42
2.5
 43
2.5
  0
MTEXT
  5
18A0
330
188F
100
AcDbEntity
  8
AM_5
 62
     2
100
AcDbMText
 10
310.0872925184058
 20
151.8462556556181
 30
0.0
 40
3.5
 41
0.0
 71
     5
 72
     1
  1
84
 73
     1
 44
1.0
1001
ACAD
1000
MTEXTBEGIN
1070
    73
1070
     1
1070
    44
1040
1.0
1070
    74
1070
     0
1000
MTEXTEND
  0
POINT
  5
18A1
330
188F
100
AcDbEntity
  8
Defpoints
 62
     0
100
AcDbPoint
 10
268.0872925184058
 20
118.1604744085761
 30
0.0
  0
POINT
  5
18A2
330
188F
100
AcDbEntity
  8
Defpoints
 62
     0
100
AcDbPoint
 10
352.0872925184058
 20
118.1604744085761
 30
0.0
  0
POINT
  5
18A3
330
188F
100
AcDbEntity
  8
Defpoints
 62
     0
100
AcDbPoint
 10
352.0872925184058
 20
148.5962556556181
 30
0.0
  0
ENDBLK
  5
18A8
330
188F
100
AcDbEntity
  8
0
100
AcDbBlockEnd
  0
BLOCK
  5
18E1
330
18C1
100
AcDbEntity
  8
0
100
AcDbBlockBegin
  2
*D14
 70
     1
 10
0.0
 20
0.0
 30
0.0
  3
*D14
  1

  0
LINE
  5
18D6
330
18C1
100
AcDbEntity
  8
AM_5
100
AcDbLine
 10
377.9677406949272
 20
145.3807238428382
 30
0.0
 11
353.0897181311764
 21
121.932819728697
 31
0.0
  0
MTEXT
  5
18D7
330
18C1
100
AcDbEntity
  8
AM_5
 62
     2
100
AcDbMText
 10
373.0661080010496
 20
145.2269043310561
 30
0.0
 40
3.5
 41
0.0
 71
     5
 72
     1
  1
R3
 11
0.7277137477764693
 21
0.6858809672947088
 31
0.0
 73
     1
 44
1.0
1001
ACAD
1000
MTEXTBEGIN
1070
    73
1070
     1
1070
    44
1040
1.0
1070
    74
1070
     0
1000
MTEXTEND
  0
INSERT
  5
18D8
330
18C1
100
AcDbEntity
  8
AM_5
100
AcDbBlockReference
  2
_Open30
 10
351.2704337617352
 20
120.2181173104602
 30
0.0
 41
2.5
 42
2.5
 43
2.5
 50
223.3049296767362
  0
POINT
  5
18D9
330
18C1
100
AcDbEntity
  8
Defpoints
 62
     0
100
AcDbPoint
 10
351.2704337617352
 20
120.2181173104602
 30
0.0
  0
POINT
  5
18DA
330
18C1
100
AcDbEntity
  8
Defpoints
 62
     0
100
AcDbPoint
 10
349.0872925184058
 20
118.1604744085761
 30
0.0
  0
ENDBLK
  5
18E2
330
18C1
100
AcDbEntity
  8
0
100
AcDbBlockEnd
  0
BLOCK
  5
1903
330
18E9
100
AcDbEntity
  8
0
100
AcDbBlockBegin
  2
*D15
 70
     1
 10
0.0
 20
0.0
 30
0.0
  3
*D15
  1

  0
LINE
  5
18F9
330
18E9
100
AcDbEntity
  8
AM_5
100
AcDbLine
 10
347.8766204441255
 20
130.367053539488
 30
0.0
 11
367.908025092807
 21
153.3949247040952
 31
0.0
  0
LINE
  5
18FA
330
18E9
100
AcDbEntity
  8
AM_5
100
AcDbLine
 10
367.908025092807
 20
153.3949247040952
 30
0.0
 11
377.6029998396375
 21
153.3949247040952
 31
0.0
  0
INSERT
  5
18FB
330
18E9
100
AcDbEntity
  8
AM_5
100
AcDbBlockReference
  2
_Open30
 10
346.2358393113492
 20
128.4808305213045
 30
0.0
 41
2.5
 42
2.5
 43
2.5
 50
228.9807578266196
  0
MTEXT
  5
18FC
330
18E9
100
AcDbEntity
  8
AM_5
 62
     2
100
AcDbMText
 10
373.505512466222
 20
156.6449247040956
 30
0.0
 40
3.5
 41
0.0
 71
     5
 72
     1
  1
\U+22053.5
 73
     1
 44
1.0
1001
ACAD
1000
MTEXTBEGIN
1070
    73
1070
     1
1070
    44
1040
1.0
1070
    74
1070
     0
1000
MTEXTEND
  0
POINT
  5
18FD
330
18E9
100
AcDbEntity
  8
Defpoints
 62
     0
100
AcDbPoint
 10
346.2358393113492
 20
128.4808305213045
 30
0.0
  0
POINT
  5
18FE
330
18E9
100
AcDbEntity
  8
Defpoints
 62
     0
100
AcDbPoint
 10
343.9387457254623
 20
125.8401182958476
 30
0.0
  0
ENDBLK
  5
1904
330
18E9
100
AcDbEntity
  8
0
100
AcDbBlockEnd
  0
BLOCK
  5
1952
330
1916
100
AcDbEntity
  8
0
100
AcDbBlockBegin
  2
*D16
 70
     1
 10
0.0
 20
0.0
 30
0.0
  3
*D16
  1

  0
LINE
  5
1922
330
1916
100
AcDbEntity
  8
AM_5
100
AcDbLine
 10
350.0872925184058
 20
121.1604744085761
 30
0.0
 11
365.0872935284058
 21
121.160474408576
 31
0.0
  0
LINE
  5
1923
330
1916
100
AcDbEntity
  8
AM_5
100
AcDbLine
 10
350.0872925184058
 20
66.16047440857608
 30
0.0
 11
365.0872935284058
 21
66.16047440857606
 31
0.0
  0
LINE
  5
1924
330
1916
100
AcDbEntity
  8
AM_5
100
AcDbLine
 10
364.0872935284058
 20
118.660474408576
 30
0.0
 11
364.0872935284058
 21
68.66047440857606
 31
0.0
  0
INSERT
  5
1925
330
1916
100
AcDbEntity
  8
AM_5
100
AcDbBlockReference
  2
_Open30
 10
364.0872935284058
 20
121.160474408576
 30
0.0
 41
2.5
 42
2.5
 43
2.5
 50
90.0
  0
INSERT
  5
1926
330
1916
100
AcDbEntity
  8
AM_5
100
AcDbBlockReference
  2
_Open30
 10
364.0872935284058
 20
66.16047440857606
 30
0.0
 41
2.5
 42
2.5
 43
2.5
 50
270.0
  0
MTEXT
  5
1927
330
1916
100
AcDbEntity
  8
AM_5
 62
     2
100
AcDbMText
 10
360.8372935284058
 20
93.66047440857611
 30
0.0
 40
3.5
 41
0.0
 71
     5
 72
     1
  1
55
 11
0.0000000000000001
 21
1.0
 31
0.0
 73
     1
 44
1.0
1001
ACAD
1000
MTEXTBEGIN
1070
    73
1070
     1
1070
    44
1040
1.0
1070
    74
1070
     0
1000
MTEXTEND
  0
POINT
  5
1928
330
1916
100
AcDbEntity
  8
Defpoints
 62
     0
100
AcDbPoint
 10
349.0872925184058
 20
121.1604744085761
 30
0.0
  0
POINT
  5
1929
330
1916
100
AcDbEntity
  8
Defpoints
 62
     0
100
AcDbPoint
 10
349.0872925184058
 20
66.16047440857608
 30
0.0
  0
POINT
  5
192A
330
1916
100
AcDbEntity
  8
Defpoints
 62
     0
100
AcDbPoint
 10
364.0872935284058
 20
66.16047440857606
 30
0.0
  0
ENDBLK
  5
1953
330
1916
100
AcDbEntity
  8
0
100
AcDbBlockEnd
  0
BLOCK
  5
1954
330
193A
100
AcDbEntity
  8
0
100
AcDbBlockBegin
  2
*D17
 70
     1
 10
0.0
 20
0.0
 30
0.0
  3
*D17
  1

  0
LINE
  5
1946
330
193A
100
AcDbEntity
  8
AM_5
100
AcDbLine
 10
349.0872925184058
 20
127.160474408576
 30
0.0
 11
374.5734902311697
 21
127.160474408576
 31
0.0
  0
LINE
  5
1947
330
193A
100
AcDbEntity
  8
AM_5
100
AcDbLine
 10
349.0872925184058
 20
60.16047440857608
 30
0.0
 11
374.5734902311697
 21
60.16047440857607
 31
0.0
  0
LINE
  5
1948
330
193A
100
AcDbEntity
  8
AM_5
100
AcDbLine
 10
373.5734902311697
 20
124.660474408576
 30
0.0
 11
373.5734902311697
 21
62.66047440857607
 31
0.0
  0
INSERT
  5
1949
330
193A
100
AcDbEntity
  8
AM_5
100
AcDbBlockReference
  2
_Open30
 10
373.5734902311697
 20
127.160474408576
 30
0.0
 41
2.5
 42
2.5
 43
2.5
 50
90.0
  0
INSERT
  5
194A
330
193A
100
AcDbEntity
  8
AM_5
100
AcDbBlockReference
  2
_Open30
 10
373.5734902311697
 20
60.16047440857607
 30
0.0
 41
2.5
 42
2.5
 43
2.5
 50
270.0
  0
MTEXT
  5
194B
330
193A
100
AcDbEntity
  8
AM_5
 62
     2
100
AcDbMText
 10
370.3234902311697
 20
93.66047440857611
 30
0.0
 40
3.5
 41
0.0
 71
     5
 72
     1
  1
67
 11
0.0000000000000001
 21
1.0
 31
0.0
 73
     1
 44
1.0
1001
ACAD
1000
MTEXTBEGIN
1070
    73
1070
     1
1070
    44
1040
1.0
1070
    74
1070
     0
1000
MTEXTEND
  0
POINT
  5
194C
330
193A
100
AcDbEntity
  8
Defpoints
 62
     0
100
AcDbPoint
 10
348.0872925184058
 20
127.160474408576
 30
0.0
  0
POINT
  5
194D
330
193A
100
AcDbEntity
  8
Defpoints
 62
     0
100
AcDbPoint
 10
348.0872925184058
 20
60.16047440857608
 30
0.0
  0
POINT
  5
194E
330
193A
100
AcDbEntity
  8
Defpoints
 62
     0
100
AcDbPoint
 10
373.5734902311697
 20
60.16047440857607
 30
0.0
  0
ENDBLK
  5
1955
330
193A
100
AcDbEntity
  8
0
100
AcDbBlockEnd
  0
BLOCK
  5
1A23
330
19E3
100
AcDbEntity
  8
0
100
AcDbBlockBegin
  2
*D18
 70
     1
 10
0.0
 20
0.0
 30
0.0
  3
*D18
  1

  0
LINE
  5
19F1
330
19E3
100
AcDbEntity
  8
AM_5
100
AcDbLine
 10
52.0959712449704
 20
107.4249350713231
 30
0.0
 11
29.59597024497049
 21
107.4249350713231
 31
0.0
  0
LINE
  5
19F2
330
19E3
100
AcDbEntity
  8
AM_5
100
AcDbLine
 10
52.09597124497047
 20
111.4249350713231
 30
0.0
 11
29.59597024497049
 21
111.4249350713231
 31
0.0
  0
LINE
  5
19F3
330
19E3
100
AcDbEntity
  8
AM_5
100
AcDbLine
 10
30.59597024497049
 20
104.9249350713231
 30
0.0
 11
30.59597024497048
 21
102.4249350713231
 31
0.0
  0
LINE
  5
19F4
330
19E3
100
AcDbEntity
  8
AM_5
100
AcDbLine
 10
30.59597024497049
 20
113.9249350713231
 30
0.0
 11
30.59597024497049
 21
121.1749350713231
 31
0.0
  0
LINE
  5
19F5
330
19E3
100
AcDbEntity
  8
AM_5
100
AcDbLine
 10
30.59597024497049
 20
107.4249350713231
 30
0.0
 11
30.59597024497049
 21
111.4249350713231
 31
0.0
  0
INSERT
  5
19F6
330
19E3
100
AcDbEntity
  8
AM_5
100
AcDbBlockReference
  2
_Open30
 10
30.59597024497049
 20
107.4249350713231
 30
0.0
 41
2.5
 42
2.5
 43
2.5
 50
90.0
  0
INSERT
  5
19F7
330
19E3
100
AcDbEntity
  8
AM_5
100
AcDbBlockReference
  2
_Open30
 10
30.59597024497049
 20
111.4249350713231
 30
0.0
 41
2.5
 42
2.5
 43
2.5
 50
270.0
  0
MTEXT
  5
19F8
330
19E3
100
AcDbEntity
  8
AM_5
 62
     2
100
AcDbMText
 10
27.34597024497047
 20
118.7999350713231
 30
0.0
 40
3.5
 41
0.0
 71
     5
 72
     1
  1
4
 11
0.0000000000000001
 21
1.0
 31
0.0
 73
     1
 44
1.0
1001
ACAD
1000
MTEXTBEGIN
1070
    73
1070
     1
1070
    44
1040
1.0
1070
    74
1070
     0
1000
MTEXTEND
  0
POINT
  5
19F9
330
19E3
100
AcDbEntity
  8
Defpoints
 62
     0
100
AcDbPoint
 10
53.0959712449704
 20
107.4249350713231
 30
0.0
  0
POINT
  5
19FA
330
19E3
100
AcDbEntity
  8
Defpoints
 62
     0
100
AcDbPoint
 10
53.09597124497048
 20
111.4249350713231
 30
0.0
  0
POINT
  5
19FB
330
19E3
100
AcDbEntity
  8
Defpoints
 62
     0
100
AcDbPoint
 10
30.59597024497049
 20
111.4249350713231
 30
0.0
  0
ENDBLK
  5
1A24
330
19E3
100
AcDbEntity
  8
0
100
AcDbBlockEnd
  0
BLOCK
  5
1A25
330
1A0B
100
AcDbEntity
  8
0
100
AcDbBlockBegin
  2
*D19
 70
     1
 10
0.0
 20
0.0
 30
0.0
  3
*D19
  1

  0
LINE
  5
1A27
330
1A0B
100
AcDbEntity
  8
AM_5
100
AcDbLine
 10
44.59597124497048
 20
103.924935071323
 30
0.0
 11
15.89933459543681
 21
103.924935071323
 31
0.0
  0
LINE
  5
1A28
330
1A0B
100
AcDbEntity
  8
AM_5
100
AcDbLine
 10
44.59597124497049
 20
114.9249350713231
 30
0.0
 11
15.89933459543681
 21
114.9249350713231
 31
0.0
  0
LINE
  5
1A29
330
1A0B
100
AcDbEntity
  8
AM_5
100
AcDbLine
 10
16.89933459543681
 20
106.424935071323
 30
0.0
 11
16.89933459543681
 21
112.4249350713231
 31
0.0
  0
INSERT
  5
1A2A
330
1A0B
100
AcDbEntity
  8
AM_5
100
AcDbBlockReference
  2
_Open30
 10
16.89933459543681
 20
103.924935071323
 30
0.0
 41
2.5
 42
2.5
 43
2.5
 50
270.0
  0
INSERT
  5
1A2B
330
1A0B
100
AcDbEntity
  8
AM_5
100
AcDbBlockReference
  2
_Open30
 10
16.89933459543681
 20
114.9249350713231
 30
0.0
 41
2.5
 42
2.5
 43
2.5
 50
90.0
  0
MTEXT
  5
1A2C
330
1A0B
100
AcDbEntity
  8
AM_5
 62
     2
100
AcDbMText
 10
13.64933459543679
 20
109.4249350713231
 30
0.0
 40
3.5
 41
0.0
 71
     5
 72
     1
  1
11
 11
0.0000000000000001
 21
1.0
 31
0.0
 73
     1
 44
1.0
1001
ACAD
1000
MTEXTBEGIN
1070
    73
1070
     1
1070
    44
1040
1.0
1070
    74
1070
     0
1000
MTEXTEND
  0
POINT
  5
1A2D
330
1A0B
100
AcDbEntity
  8
Defpoints
 62
     0
100
AcDbPoint
 10
45.59597124497048
 20
103.924935071323
 30
0.0
  0
POINT
  5
1A2E
330
1A0B
100
AcDbEntity
  8
Defpoints
 62
     0
100
AcDbPoint
 10
45.59597124497049
 20
114.9249350713231
 30
0.0
  0
POINT
  5
1A2F
330
1A0B
100
AcDbEntity
  8
Defpoints
 62
     0
100
AcDbPoint
 10
16.89933459543681
 20
114.9249350713231
 30
0.0
  0
ENDBLK
  5
1A26
330
1A0B
100
AcDbEntity
  8
0
100
AcDbBlockEnd
  0
BLOCK
  5
1A5D
330
1A41
100
AcDbEntity
  8
0
100
AcDbBlockBegin
  2
*D20
 70
     1
 10
0.0
 20
0.0
 30
0.0
  3
*D20
  1

  0
LINE
  5
1A4F
330
1A41
100
AcDbEntity
  8
AM_5
100
AcDbLine
 10
52.09597124497041
 20
111.4249350713231
 30
0.0
 11
52.09597124497041
 21
127.9249360713231
 31
0.0
  0
LINE
  5
1A50
330
1A41
100
AcDbEntity
  8
AM_5
100
AcDbLine
 10
57.09597124497041
 20
111.424935071323
 30
0.0
 11
57.09597124497041
 21
127.9249360713231
 31
0.0
  0
LINE
  5
1A51
330
1A41
100
AcDbEntity
  8
AM_5
100
AcDbLine
 10
49.59597124497041
 20
126.9249360713231
 30
0.0
 11
47.09597124497041
 21
126.9249360713231
 31
0.0
  0
LINE
  5
1A52
330
1A41
100
AcDbEntity
  8
AM_5
100
AcDbLine
 10
59.59597124497041
 20
126.9249360713231
 30
0.0
 11
62.09597124497041
 21
126.9249360713231
 31
0.0
  0
LINE
  5
1A53
330
1A41
100
AcDbEntity
  8
AM_5
100
AcDbLine
 10
52.09597124497041
 20
126.9249360713231
 30
0.0
 11
57.09597124497041
 21
126.9249360713231
 31
0.0
  0
INSERT
  5
1A54
330
1A41
100
AcDbEntity
  8
AM_5
100
AcDbBlockReference
  2
_Open30
 10
52.09597124497041
 20
126.9249360713231
 30
0.0
 41
2.5
 42
2.5
 43
2.5
  0
INSERT
  5
1A55
330
1A41
100
AcDbEntity
  8
AM_5
100
AcDbBlockReference
  2
_Open30
 10
57.09597124497041
 20
126.9249360713231
 30
0.0
 41
2.5
 42
2.5
 43
2.5
 50
180.0
  0
MTEXT
  5
1A56
330
1A41
100
AcDbEntity
  8
AM_5
 62
     2
100
AcDbMText
 10
54.59597124497041
 20
130.1749360713231
 30
0.0
 40
3.5
 41
0.0
 71
     5
 72
     1
  1
5
 73
     1
 44
1.0
1001
ACAD
1000
MTEXTBEGIN
1070
    73
1070
     1
1070
    44
1040
1.0
1070
    74
1070
     0
1000
MTEXTEND
  0
POINT
  5
1A57
330
1A41
100
AcDbEntity
  8
Defpoints
 62
     0
100
AcDbPoint
 10
52.09597124497041
 20
110.4249350713231
 30
0.0
  0
POINT
  5
1A58
330
1A41
100
AcDbEntity
  8
Defpoints
 62
     0
100
AcDbPoint
 10
57.09597124497041
 20
110.424935071323
 30
0.0
  0
POINT
  5
1A59
330
1A41
100
AcDbEntity
  8
Defpoints
 62
     0
100
AcDbPoint
 10
57.09597124497041
 20
126.9249360713231
 30
0.0
  0
ENDBLK
  5
1A5E
330
1A41
100
AcDbEntity
  8
0
100
AcDbBlockEnd
  0
BLOCK
  5
1A87
330
1A6F
100
AcDbEntity
  8
0
100
AcDbBlockBegin
  2
*D21
 70
     1
 10
0.0
 20
0.0
 30
0.0
  3
*D21
  1

  0
LINE
  5
1A7B
330
1A6F
100
AcDbEntity
  8
AM_5
100
AcDbLine
 10
42.59597124497048
 20
112.9249350713231
 30
0.0
 11
42.59597124497048
 21
136.266707252943
 31
0.0
  0
LINE
  5
1A7C
330
1A6F
100
AcDbEntity
  8
AM_5
100
AcDbLine
 10
136.5959712449705
 20
112.9249350713231
 30
0.0
 11
136.5959712449705
 21
136.266707252943
 31
0.0
  0
LINE
  5
1A7D
330
1A6F
100
AcDbEntity
  8
AM_5
100
AcDbLine
 10
45.09597124497048
 20
135.266707252943
 30
0.0
 11
134.0959712449705
 21
135.266707252943
 31
0.0
  0
INSERT
  5
1A7E
330
1A6F
100
AcDbEntity
  8
AM_5
100
AcDbBlockReference
  2
_Open30
 10
42.59597124497048
 20
135.266707252943
 30
0.0
 41
2.5
 42
2.5
 43
2.5
 50
180.0
  0
INSERT
  5
1A7F
330
1A6F
100
AcDbEntity
  8
AM_5
100
AcDbBlockReference
  2
_Open30
 10
136.5959712449705
 20
135.266707252943
 30
0.0
 41
2.5
 42
2.5
 43
2.5
  0
MTEXT
  5
1A80
330
1A6F
100
AcDbEntity
  8
AM_5
 62
     2
100
AcDbMText
 10
89.59597124497051
 20
138.516707252943
 30
0.0
 40
3.5
 41
0.0
 71
     5
 72
     1
  1
94
 73
     1
 44
1.0
1001
ACAD
1000
MTEXTBEGIN
1070
    73
1070
     1
1070
    44
1040
1.0
1070
    74
1070
     0
1000
MTEXTEND
  0
POINT
  5
1A81
330
1A6F
100
AcDbEntity
  8
Defpoints
 62
     0
100
AcDbPoint
 10
42.59597124497048
 20
111.9249350713231
 30
0.0
  0
POINT
  5
1A82
330
1A6F
100
AcDbEntity
  8
Defpoints
 62
     0
100
AcDbPoint
 10
136.5959712449705
 20
111.9249350713231
 30
0.0
  0
POINT
  5
1A83
330
1A6F
100
AcDbEntity
  8
Defpoints
 62
     0
100
AcDbPoint
 10
136.5959712449705
 20
135.266707252943
 30
0.0
  0
ENDBLK
  5
1A88
330
1A6F
100
AcDbEntity
  8
0
100
AcDbBlockEnd
  0
BLOCK
  5
1AB0
330
1A9A
100
AcDbEntity
  8
0
100
AcDbBlockBegin
  2
*D22
 70
     1
 10
0.0
 20
0.0
 30
0.0
  3
*D22
  1

  0
LINE
  5
1AA4
330
1A9A
100
AcDbEntity
  8
AM_5
100
AcDbLine
 10
54.5959712449704
 20
106.4249350713231
 30
0.0
 11
54.5959712449704
 21
90.92493407132298
 31
0.0
  0
LINE
  5
1AA5
330
1A9A
100
AcDbEntity
  8
AM_5
100
AcDbLine
 10
124.5959712449706
 20
106.4249350713231
 30
0.0
 11
124.5959712449706
 21
90.92493407132298
 31
0.0
  0
LINE
  5
1AA6
330
1A9A
100
AcDbEntity
  8
AM_5
100
AcDbLine
 10
57.0959712449704
 20
91.92493407132298
 30
0.0
 11
122.0959712449706
 21
91.92493407132298
 31
0.0
  0
INSERT
  5
1AA7
330
1A9A
100
AcDbEntity
  8
AM_5
100
AcDbBlockReference
  2
_Open30
 10
54.5959712449704
 20
91.92493407132298
 30
0.0
 41
2.5
 42
2.5
 43
2.5
 50
180.0
  0
INSERT
  5
1AA8
330
1A9A
100
AcDbEntity
  8
AM_5
100
AcDbBlockReference
  2
_Open30
 10
124.5959712449706
 20
91.92493407132298
 30
0.0
 41
2.5
 42
2.5
 43
2.5
  0
MTEXT
  5
1AA9
330
1A9A
100
AcDbEntity
  8
AM_5
 62
     2
100
AcDbMText
 10
89.59597124497051
 20
95.17493407132297
 30
0.0
 40
3.5
 41
0.0
 71
     5
 72
     1
  1
70
 73
     1
 44
1.0
1001
ACAD
1000
MTEXTBEGIN
1070
    73
1070
     1
1070
    44
1040
1.0
1070
    74
1070
     0
1000
MTEXTEND
  0
POINT
  5
1AAA
330
1A9A
100
AcDbEntity
  8
Defpoints
 62
     0
100
AcDbPoint
 10
54.5959712449704
 20
107.4249350713231
 30
0.0
  0
POINT
  5
1AAB
330
1A9A
100
AcDbEntity
  8
Defpoints
 62
     0
100
AcDbPoint
 10
124.5959712449706
 20
107.4249350713231
 30
0.0
  0
POINT
  5
1AAC
330
1A9A
100
AcDbEntity
  8
Defpoints
 62
     0
100
AcDbPoint
 10
124.5959712449706
 20
91.92493407132298
 30
0.0
  0
ENDBLK
  5
1AB1
330
1A9A
100
AcDbEntity
  8
0
100
AcDbBlockEnd
  0
BLOCK
  5
1AEC
330
1AD0
100
AcDbEntity
  8
0
100
AcDbBlockBegin
  2
*D23
 70
     1
 10
0.0
 20
0.0
 30
0.0
  3
*D23
  1

  0
LINE
  5
1AF9
330
1AD0
100
AcDbEntity
  8
AM_5
100
AcDbLine
 10
154.0430383693236
 20
114.924935071323
 30
0.0
 11
154.0430383693236
 21
136.266707252943
 31
0.0
  0
LINE
  5
1AFA
330
1AD0
100
AcDbEntity
  8
AM_5
100
AcDbLine
 10
158.0430383693236
 20
115.924935071323
 30
0.0
 11
158.0430383693236
 21
136.266707252943
 31
0.0
  0
LINE
  5
1AFB
330
1AD0
100
AcDbEntity
  8
AM_5
100
AcDbLine
 10
151.5430383693236
 20
135.266707252943
 30
0.0
 11
149.0430383693236
 21
135.266707252943
 31
0.0
  0
LINE
  5
1AFC
330
1AD0
100
AcDbEntity
  8
AM_5
100
AcDbLine
 10
160.5430383693236
 20
135.266707252943
 30
0.0
 11
163.0430383693236
 21
135.266707252943
 31
0.0
  0
LINE
  5
1AFD
330
1AD0
100
AcDbEntity
  8
AM_5
100
AcDbLine
 10
154.0430383693236
 20
135.266707252943
 30
0.0
 11
158.0430383693236
 21
135.266707252943
 31
0.0
  0
INSERT
  5
1AFE
330
1AD0
100
AcDbEntity
  8
AM_5
100
AcDbBlockReference
  2
_Open30
 10
154.0430383693236
 20
135.266707252943
 30
0.0
 41
2.5
 42
2.5
 43
2.5
  0
INSERT
  5
1AFF
330
1AD0
100
AcDbEntity
  8
AM_5
100
AcDbBlockReference
  2
_Open30
 10
158.0430383693236
 20
135.266707252943
 30
0.0
 41
2.5
 42
2.5
 43
2.5
 50
180.0
  0
MTEXT
  5
1B00
330
1AD0
100
AcDbEntity
  8
AM_5
 62
     2
100
AcDbMText
 10
156.0430383693236
 20
138.516707252943
 30
0.0
 40
3.5
 41
0.0
 71
     5
 72
     1
  1
4
 73
     1
 44
1.0
1001
ACAD
1000
MTEXTBEGIN
1070
    73
1070
     1
1070
    44
1040
1.0
1070
    74
1070
     0
1000
MTEXTEND
  0
POINT
  5
1B01
330
1AD0
100
AcDbEntity
  8
Defpoints
 62
     0
100
AcDbPoint
 10
154.0430383693236
 20
113.924935071323
 30
0.0
  0
POINT
  5
1B02
330
1AD0
100
AcDbEntity
  8
Defpoints
 62
     0
100
AcDbPoint
 10
158.0430383693236
 20
114.924935071323
 30
0.0
  0
POINT
  5
1B03
330
1AD0
100
AcDbEntity
  8
Defpoints
 62
     0
100
AcDbPoint
 10
158.0430383693236
 20
135.266707252943
 30
0.0
  0
ENDBLK
  5
1AED
330
1AD0
100
AcDbEntity
  8
0
100
AcDbBlockEnd
  0
ENDSEC
  0
SECTION
  2
ENTITIES
  0
MTEXT
  5
933
330
1F
100
AcDbEntity
  8
上側
100
AcDbMText
 10
296.2296555021899
 20
175.5093902719741
 30
0.0
 40
7.0
 41
67.25450471008662
 71
     1
 72
     5
  1
取付穴寸法
 73
     1
 44
1.0
1001
ACAD
1000
MTEXTBEGIN
1070
    73
1070
     1
1070
    44
1040
1.0
1070
    74
1070
     0
1000
MTEXTEND
  0
LINE
  5
957
330
1F
100
AcDbEntity
  8
TK3
100
AcDbLine
 10
221.5653395357392
 20
236.1179370775413
 30
0.0
 11
221.5653395357392
 21
227.1179370775413
 31
0.0
  0
LINE
  5
958
330
1F
100
AcDbEntity
  8
TK3
100
AcDbLine
 10
222.5653395357392
 20
237.1179370775414
 30
0.0
 11
225.5653395357392
 21
237.1179370775413
 31
0.0
  0
LINE
  5
959
330
1F
100
AcDbEntity
  8
TK3
100
AcDbLine
 10
222.5653395357392
 20
226.1179370775413
 30
0.0
 11
225.5653395357392
 21
226.1179370775413
 31
0.0
  0
LINE
  5
95A
330
1F
100
AcDbEntity
  8
TK3
100
AcDbLine
 10
225.5653395357392
 20
237.1179370775413
 30
0.0
 11
225.5653395357392
 21
226.1179370775413
 31
0.0
  0
ARC
  5
95B
330
1F
100
AcDbEntity
  8
TK3
100
AcDbCircle
 10
222.5653395357392
 20
236.1179370775413
 30
0.0
 40
1.0
100
AcDbArc
 50
90.0
 51
180.0
1001
GENIUS_GENODEF_13
1002
{
1000
HIER
1070
     0
1002
}
1002
{
1000
MANEDIT
1070
     0
1002
}
1002
{
1000
NOSEL
1070
     0
1002
}
1002
{
1000
BEHIND
1070
     0
1002
}
1002
{
1000
OTHER
1070
     0
1002
}
1002
{
1000
REACTOR
1002
}
1001
GENIUS_GENOBJ-N-FIL_13
1002
{
1000
OWNER
1000
GEN
1002
}
  0
ARC
  5
95C
330
1F
100
AcDbEntity
  8
TK3
100
AcDbCircle
 10
222.5653395357392
 20
227.1179370775413
 30
0.0
 40
1.0
100
AcDbArc
 50
180.0
 51
270.0
1001
GENIUS_GENOBJ-N-FIL_13
1002
{
1000
OWNER
1000
GEN
1002
}
1001
GENIUS_GENODEF_13
1002
{
1000
HIER
1070
     0
1002
}
1002
{
1000
MANEDIT
1070
     0
1002
}
1002
{
1000
NOSEL
1070
     0
1002
}
1002
{
1000
BEHIND
1070
     0
1002
}
1002
{
1000
OTHER
1070
     0
1002
}
1002
{
1000
REACTOR
1002
}
  0
ARC
  5
95D
330
1F
100
AcDbEntity
  8
TK3
100
AcDbCircle
 10
222.5653395357392
 20
169.1179370775412
 30
0.0
 40
1.0
100
AcDbArc
 50
90.0
 51
180.0
1001
GENIUS_GENOBJ-N-FIL_13
1002
{
1000
OWNER
1000
GEN
1002
}
1001
GENIUS_GENODEF_13
1002
{
1000
HIER
1070
     0
1002
}
1002
{
1000
MANEDIT
1070
     0
1002
}
1002
{
1000
NOSEL
1070
     0
1002
}
1002
{
1000
BEHIND
1070
     0
1002
}
1002
{
1000
OTHER
1070
     0
1002
}
1002
{
1000
REACTOR
1002
}
  0
ARC
  5
95E
330
1F
100
AcDbEntity
  8
TK3
100
AcDbCircle
 10
222.5653395357392
 20
160.1179370775412
 30
0.0
 40
1.0
100
AcDbArc
 50
180.0
 51
270.0
1001
GENIUS_GENODEF_13
1002
{
1000
HIER
1070
     0
1002
}
1002
{
1000
MANEDIT
1070
     0
1002
}
1002
{
1000
NOSEL
1070
     0
1002
}
1002
{
1000
BEHIND
1070
     0
1002
}
1002
{
1000
OTHER
1070
     0
1002
}
1002
{
1000
REACTOR
1002
}
1001
GENIUS_GENOBJ-N-FIL_13
1002
{
1000
OWNER
1000
GEN
1002
}
  0
LINE
  5
95F
330
1F
100
AcDbEntity
  8
TK3
100
AcDbLine
 10
225.5653395357392
 20
159.1179370775412
 30
0.0
 11
225.5653395357392
 21
170.1179370775412
 31
0.0
  0
LINE
  5
960
330
1F
100
AcDbEntity
  8
TK3
100
AcDbLine
 10
222.5653395357392
 20
170.1179370775412
 30
0.0
 11
225.5653395357392
 21
170.1179370775412
 31
0.0
  0
LINE
  5
961
330
1F
100
AcDbEntity
  8
TK3
100
AcDbLine
 10
222.5653395357392
 20
159.1179370775412
 30
0.0
 11
225.5653395357392
 21
159.1179370775412
 31
0.0
  0
LINE
  5
962
330
1F
100
AcDbEntity
  8
TK3
100
AcDbLine
 10
221.5653395357392
 20
160.1179370775412
 30
0.0
 11
221.5653395357392
 21
169.1179370775412
 31
0.0
  0
LINE
  5
963
330
1F
100
AcDbEntity
  8
AM_7
  6
AM_ISO08W050x2
100
AcDbLine
 10
218.5653395357392
 20
164.6179370775412
 30
0.0
 11
228.5653395357392
 21
164.6179370775412
 31
0.0
1001
GENIUS_GENOBJ-N-CEN_13
1002
{
1000
OWNER
1000
GEN
1002
}
1001
GENIUS_GENODEF_13
1002
{
1000
HIER
1070
     0
1002
}
1002
{
1000
MANEDIT
1070
     0
1002
}
1002
{
1000
NOSEL
1070
     0
1002
}
1002
{
1000
BEHIND
1070
     0
1002
}
1002
{
1000
OTHER
1070
     0
1002
}
1002
{
1000
REACTOR
1002
}
  0
LINE
  5
964
330
1F
100
AcDbEntity
  8
AM_7
  6
AM_ISO08W050x2
100
AcDbLine
 10
218.5653395357392
 20
231.6179370775413
 30
0.0
 11
228.5653395357392
 21
231.6179370775413
 31
0.0
1001
GENIUS_GENOBJ-N-CEN_13
1002
{
1000
OWNER
1000
GEN
1002
}
1001
GENIUS_GENODEF_13
1002
{
1000
HIER
1070
     0
1002
}
1002
{
1000
MANEDIT
1070
     0
1002
}
1002
{
1000
NOSEL
1070
     0
1002
}
1002
{
1000
BEHIND
1070
     0
1002
}
1002
{
1000
OTHER
1070
     0
1002
}
1002
{
1000
REACTOR
1002
}
  0
LINE
  5
96F
330
1F
100
AcDbEntity
  8
AM_7
100
AcDbLine
 10
89.59597124497049
 20
79.41761129463583
 30
0.0
 11
89.59597124497049
 21
39.3176112946357
 31
0.0
1001
GENIUS_GENODEF_13
1002
{
1000
HIER
1070
     0
1002
}
1002
{
1000
MANEDIT
1070
     0
1002
}
1002
{
1000
NOSEL
1070
     0
1002
}
1002
{
1000
BEHIND
1070
     0
1002
}
1002
{
1000
OTHER
1070
     0
1002
}
1002
{
1000
REACTOR
1002
}
1001
GENIUS_GENOBJ-N-CEN_13
1002
{
1000
OWNER
1000
GEN
1002
}
  0
LINE
  5
970
330
1F
100
AcDbEntity
  8
上側
100
AcDbLine
 10
89.59597124497054
 20
74.91761129463583
 30
0.0
 11
56.11337125820449
 21
74.91761129463577
 31
0.0
  0
LINE
  5
971
330
1F
100
AcDbEntity
  8
上側
100
AcDbLine
 10
53.756511795
 20
73.25140591605247
 30
0.0
 11
50.59597124497054
 21
64.31761129463581
 31
0.0
  0
ARC
  5
972
330
1F
100
AcDbEntity
  8
上側
100
AcDbCircle
 10
56.11337125820449
 20
72.41761129463577
 30
0.0
 40
2.5
100
AcDbArc
 50
90.0
 51
160.5175657373969
1001
GENIUS_GENODEF_13
1002
{
1000
HIER
1070
     0
1002
}
1002
{
1000
MANEDIT
1070
     0
1002
}
1002
{
1000
NOSEL
1070
     0
1002
}
1002
{
1000
BEHIND
1070
     0
1002
}
1002
{
1000
OTHER
1070
     0
1002
}
1002
{
1000
REACTOR
1002
}
1001
GENIUS_GENOBJ-N-FIL_13
1002
{
1000
OWNER
1000
GEN
1002
}
  0
ARC
  5
973
330
1F
100
AcDbEntity
  8
上側
100
AcDbCircle
 10
123.0785712317366
 20
72.41761129463577
 30
0.0
 40
2.5
100
AcDbArc
 50
19.48243426260302
 51
90.0
1001
GENIUS_GENODEF_13
1002
{
1000
HIER
1070
     0
1002
}
1002
{
1000
MANEDIT
1070
     0
1002
}
1002
{
1000
NOSEL
1070
     0
1002
}
1002
{
1000
BEHIND
1070
     0
1002
}
1002
{
1000
OTHER
1070
     0
1002
}
1002
{
1000
REACTOR
1002
}
1001
GENIUS_GENOBJ-N-FIL_13
1002
{
1000
OWNER
1000
GEN
1002
}
  0
LINE
  5
974
330
1F
100
AcDbEntity
  8
上側
100
AcDbLine
 10
125.4354306949411
 20
73.25140591605247
 30
0.0
 11
128.5959712449705
 21
64.31761129463581
 31
0.0
  0
ARC
  5
979
330
1F
100
AcDbEntity
  8
上側
100
AcDbCircle
 10
175.0418033335303
 20
179.1353370907752
 30
0.0
 40
2.5
100
AcDbArc
 50
180.0
 51
250.5175657373988
1001
GENIUS_GENODEF_13
1002
{
1000
HIER
1070
     0
1002
}
1002
{
1000
MANEDIT
1070
     0
1002
}
1002
{
1000
NOSEL
1070
     0
1002
}
1002
{
1000
BEHIND
1070
     0
1002
}
1002
{
1000
OTHER
1070
     0
1002
}
1002
{
1000
REACTOR
1002
}
1001
GENIUS_GENOBJ-N-FIL_13
1002
{
1000
OWNER
1000
GEN
1002
}
  0
ARC
  5
97A
330
1F
100
AcDbEntity
  8
上側
100
AcDbCircle
 10
175.0418033335303
 20
217.1005370643073
 30
0.0
 40
2.5
100
AcDbArc
 50
109.4824342626012
 51
180.0
1001
GENIUS_GENODEF_13
1002
{
1000
HIER
1070
     0
1002
}
1002
{
1000
MANEDIT
1070
     0
1002
}
1002
{
1000
NOSEL
1070
     0
1002
}
1002
{
1000
BEHIND
1070
     0
1002
}
1002
{
1000
OTHER
1070
     0
1002
}
1002
{
1000
REACTOR
1002
}
1001
GENIUS_GENOBJ-N-FIL_13
1002
{
1000
OWNER
1000
GEN
1002
}
  0
LINE
  5
97B
330
1F
100
AcDbEntity
  8
上側
100
AcDbLine
 10
89.59597124497042
 20
177.3679370775413
 30
0.0
 11
121.5959712449705
 21
177.3679370775413
 31
0.0
  0
ARC
  5
97C
330
1F
100
AcDbEntity
  8
上側
100
AcDbCircle
 10
121.5959712449705
 20
180.6179370775413
 30
0.0
 40
3.25
100
AcDbArc
 50
270.0
 51
0.0
1001
GENIUS_GENODEF_13
1002
{
1000
HIER
1070
     0
1002
}
1002
{
1000
MANEDIT
1070
     0
1002
}
1002
{
1000
NOSEL
1070
     0
1002
}
1002
{
1000
BEHIND
1070
     0
1002
}
1002
{
1000
OTHER
1070
     0
1002
}
1002
{
1000
REACTOR
1002
}
1001
GENIUS_GENOBJ-N-FIL_13
1002
{
1000
OWNER
1000
GEN
1002
}
  0
LINE
  5
97D
330
1F
100
AcDbEntity
  8
上側
100
AcDbLine
 10
124.8459712449704
 20
215.6179370775413
 30
0.0
 11
124.8459712449705
 21
180.6179370775413
 31
0.0
  0
ARC
  5
97E
330
1F
100
AcDbEntity
  8
上側
100
AcDbCircle
 10
121.5959712449705
 20
215.6179370775413
 30
0.0
 40
3.25
100
AcDbArc
 50
0.0
 51
90.0
1001
GENIUS_GENOBJ-N-FIL_13
1002
{
1000
OWNER
1000
GEN
1002
}
1001
GENIUS_GENODEF_13
1002
{
1000
HIER
1070
     0
1002
}
1002
{
1000
MANEDIT
1070
     0
1002
}
1002
{
1000
NOSEL
1070
     0
1002
}
1002
{
1000
BEHIND
1070
     0
1002
}
1002
{
1000
OTHER
1070
     0
1002
}
1002
{
1000
REACTOR
1002
}
  0
LINE
  5
97F
330
1F
100
AcDbEntity
  8
上側
100
AcDbLine
 10
121.5959712449705
 20
218.8679370775413
 30
0.0
 11
89.59597124497065
 21
218.8679370775413
 31
0.0
  0
ARC
  5
980
330
1F
100
AcDbEntity
  8
上側
100
AcDbCircle
 10
121.5959712449705
 20
180.6179370775413
 30
0.0
 40
7.0
100
AcDbArc
 50
270.0
 51
0.0
1001
GENIUS_GENODEF_13
1002
{
1000
HIER
1070
     0
1002
}
1002
{
1000
MANEDIT
1070
     0
1002
}
1002
{
1000
NOSEL
1070
     0
1002
}
1002
{
1000
BEHIND
1070
     0
1002
}
1002
{
1000
OTHER
1070
     0
1002
}
1002
{
1000
REACTOR
1002
}
1001
GENIUS_GENOBJ-N-FIL_13
1002
{
1000
OWNER
1000
GEN
1002
}
  0
ARC
  5
981
330
1F
100
AcDbEntity
  8
上側
100
AcDbCircle
 10
121.5959712449705
 20
215.6179370775413
 30
0.0
 40
7.0
100
AcDbArc
 50
0.0
 51
90.0
1001
GENIUS_GENOBJ-N-FIL_13
1002
{
1000
OWNER
1000
GEN
1002
}
1001
GENIUS_GENODEF_13
1002
{
1000
HIER
1070
     0
1002
}
1002
{
1000
MANEDIT
1070
     0
1002
}
1002
{
1000
NOSEL
1070
     0
1002
}
1002
{
1000
BEHIND
1070
     0
1002
}
1002
{
1000
OTHER
1070
     0
1002
}
1002
{
1000
REACTOR
1002
}
  0
LINE
  5
982
330
1F
100
AcDbEntity
  8
上側
100
AcDbLine
 10
128.5959712449705
 20
215.6179370775413
 30
0.0
 11
128.5959712449705
 21
180.6179370775413
 31
0.0
  0
LINE
  5
989
330
1F
100
AcDbEntity
  8
上側
100
AcDbLine
 10
89.59597124497054
 20
74.91761129463583
 30
0.0
 11
123.0785712317366
 21
74.91761129463577
 31
0.0
  0
LINE
  5
98A
330
1F
100
AcDbEntity
  8
上側
100
AcDbLine
 10
174.2080087121136
 20
176.7784776275707
 30
0.0
 11
183.1418033335303
 21
173.6179370775413
 31
0.0
  0
LINE
  5
98B
102
{ACAD_REACTORS
330
17E0
102
}
330
1F
100
AcDbEntity
  8
上側
100
AcDbLine
 10
172.5418033335303
 20
217.1005370643073
 30
0.0
 11
172.5418033335303
 21
179.1353370907752
 31
0.0
  0
LINE
  5
98C
330
1F
100
AcDbEntity
  8
上側
100
AcDbLine
 10
183.1418033335303
 20
222.6179370775412
 30
0.0
 11
174.2080087121136
 21
219.4573965275118
 31
0.0
  0
CIRCLE
  5
993
330
1F
100
AcDbEntity
  8
0
100
AcDbCircle
 10
345.0872925184058
 20
60.16047440857608
 30
0.0
 40
1.75
  0
LINE
  5
994
102
{ACAD_REACTORS
330
1945
102
}
330
1F
100
AcDbEntity
  8
AM_7
  6
AM_ISO08W050x2
100
AcDbLine
 10
345.0872925184058
 20
60.16047440857608
 30
0.0
 11
348.0872925184058
 21
60.16047440857608
 31
0.0
1001
GENIUS_GENOREF_13
1005
AA6
  0
LINE
  5
995
330
1F
100
AcDbEntity
  8
AM_7
  6
AM_ISO08W050x2
100
AcDbLine
 10
345.0872925184058
 20
60.16047440857608
 30
0.0
 11
345.0872925184058
 21
63.16047440857608
 31
0.0
1001
GENIUS_GENOREF_13
1005
AA6
  0
LINE
  5
996
330
1F
100
AcDbEntity
  8
AM_7
  6
AM_ISO08W050x2
100
AcDbLine
 10
345.0872925184058
 20
60.16047440857608
 30
0.0
 11
342.0872925184058
 21
60.16047440857608
 31
0.0
1001
GENIUS_GENOREF_13
1005
AA6
  0
LINE
  5
997
330
1F
100
AcDbEntity
  8
AM_7
  6
AM_ISO08W050x2
100
AcDbLine
 10
345.0872925184058
 20
60.16047440857608
 30
0.0
 11
345.0872925184058
 21
57.16047440857607
 31
0.0
1001
GENIUS_GENOREF_13
1005
AA6
  0
CIRCLE
  5
998
330
1F
100
AcDbEntity
  8
0
100
AcDbCircle
 10
275.0872925184058
 20
60.16047440857608
 30
0.0
 40
1.75
  0
LINE
  5
999
330
1F
100
AcDbEntity
  8
AM_7
  6
AM_ISO08W050x2
100
AcDbLine
 10
275.0872925184058
 20
60.16047440857608
 30
0.0
 11
278.0872925184058
 21
60.16047440857608
 31
0.0
1001
GENIUS_GENOREF_13
1005
AA7
  0
LINE
  5
99A
330
1F
100
AcDbEntity
  8
AM_7
  6
AM_ISO08W050x2
100
AcDbLine
 10
275.0872925184058
 20
60.16047440857608
 30
0.0
 11
275.0872925184058
 21
63.16047440857608
 31
0.0
1001
GENIUS_GENOREF_13
1005
AA7
  0
LINE
  5
99B
330
1F
100
AcDbEntity
  8
AM_7
  6
AM_ISO08W050x2
100
AcDbLine
 10
275.0872925184058
 20
60.16047440857608
 30
0.0
 11
272.0872925184058
 21
60.16047440857608
 31
0.0
1001
GENIUS_GENOREF_13
1005
AA7
  0
LINE
  5
99C
330
1F
100
AcDbEntity
  8
AM_7
  6
AM_ISO08W050x2
100
AcDbLine
 10
275.0872925184058
 20
60.16047440857608
 30
0.0
 11
275.0872925184058
 21
57.16047440857607
 31
0.0
1001
GENIUS_GENOREF_13
1005
AA7
  0
CIRCLE
  5
99D
102
{ACAD_REACTORS
330
18F0
102
}
330
1F
100
AcDbEntity
  8
0
100
AcDbCircle
 10
345.0872925184058
 20
127.160474408576
 30
0.0
 40
1.75
  0
LINE
  5
99E
102
{ACAD_REACTORS
330
1945
102
}
330
1F
100
AcDbEntity
  8
AM_7
  6
AM_ISO08W050x2
100
AcDbLine
 10
345.0872925184058
 20
127.160474408576
 30
0.0
 11
348.0872925184058
 21
127.160474408576
 31
0.0
1001
GENIUS_GENOREF_13
1005
AA8
  0
LINE
  5
99F
102
{ACAD_REACTORS
330
185C
102
}
330
1F
100
AcDbEntity
  8
AM_7
  6
AM_ISO08W050x2
100
AcDbLine
 10
345.0872925184058
 20
127.160474408576
 30
0.0
 11
345.0872925184058
 21
130.160474408576
 31
0.0
1001
GENIUS_GENOREF_13
1005
AA8
  0
LINE
  5
9A0
330
1F
100
AcDbEntity
  8
AM_7
  6
AM_ISO08W050x2
100
AcDbLine
 10
345.0872925184058
 20
127.160474408576
 30
0.0
 11
342.0872925184058
 21
127.160474408576
 31
0.0
1001
GENIUS_GENOREF_13
1005
AA8
  0
LINE
  5
9A1
330
1F
100
AcDbEntity
  8
AM_7
  6
AM_ISO08W050x2
100
AcDbLine
 10
345.0872925184058
 20
127.160474408576
 30
0.0
 11
345.0872925184058
 21
124.160474408576
 31
0.0
1001
GENIUS_GENOREF_13
1005
AA8
  0
CIRCLE
  5
9A2
330
1F
100
AcDbEntity
  8
0
100
AcDbCircle
 10
275.0872925184058
 20
127.160474408576
 30
0.0
 40
1.75
  0
LINE
  5
9A3
330
1F
100
AcDbEntity
  8
AM_7
  6
AM_ISO08W050x2
100
AcDbLine
 10
275.0872925184058
 20
127.160474408576
 30
0.0
 11
278.0872925184058
 21
127.160474408576
 31
0.0
1001
GENIUS_GENOREF_13
1005
AA9
  0
LINE
  5
9A4
102
{ACAD_REACTORS
330
185C
102
}
330
1F
100
AcDbEntity
  8
AM_7
  6
AM_ISO08W050x2
100
AcDbLine
 10
275.0872925184058
 20
127.160474408576
 30
0.0
 11
275.0872925184058
 21
130.160474408576
 31
0.0
1001
GENIUS_GENOREF_13
1005
AA9
  0
LINE
  5
9A5
330
1F
100
AcDbEntity
  8
AM_7
  6
AM_ISO08W050x2
100
AcDbLine
 10
275.0872925184058
 20
127.160474408576
 30
0.0
 11
272.0872925184058
 21
127.160474408576
 31
0.0
1001
GENIUS_GENOREF_13
1005
AA9
  0
LINE
  5
9A6
330
1F
100
AcDbEntity
  8
AM_7
  6
AM_ISO08W050x2
100
AcDbLine
 10
275.0872925184058
 20
127.160474408576
 30
0.0
 11
275.0872925184058
 21
124.160474408576
 31
0.0
1001
GENIUS_GENOREF_13
1005
AA9
  0
LINE
  5
9A7
330
1F
100
AcDbEntity
  8
AM_7
100
AcDbLine
 10
310.0872925184058
 20
124.160474408576
 30
0.0
 11
310.0872925184058
 21
63.16047440857608
 31
0.0
1001
GENIUS_GENODEF_13
1002
{
1000
HIER
1070
     0
1002
}
1002
{
1000
MANEDIT
1070
     0
1002
}
1002
{
1000
NOSEL
1070
     0
1002
}
1002
{
1000
BEHIND
1070
     0
1002
}
1002
{
1000
OTHER
1070
     0
1002
}
1002
{
1000
REACTOR
1002
}
1001
GENIUS_GENOBJ-N-CEN_13
1002
{
1000
OWNER
1000
GEN
1002
}
  0
LINE
  5
9A8
330
1F
100
AcDbEntity
  8
AM_7
100
AcDbLine
 10
265.0872925184058
 20
93.66047440857608
 30
0.0
 11
355.0872925184058
 21
93.66047440857608
 31
0.0
1001
GENIUS_GENODEF_13
1002
{
1000
HIER
1070
     0
1002
}
1002
{
1000
MANEDIT
1070
     0
1002
}
1002
{
1000
NOSEL
1070
     0
1002
}
1002
{
1000
BEHIND
1070
     0
1002
}
1002
{
1000
OTHER
1070
     0
1002
}
1002
{
1000
REACTOR
1002
}
1001
GENIUS_GENOBJ-N-CEN_13
1002
{
1000
OWNER
1000
GEN
1002
}
  0
POLYLINE
  5
9A9
102
{ACAD_REACTORS
330
189A
330
18C8
330
1921
102
}
330
1F
100
AcDbEntity
  8
上側
100
AcDb2dPolyline
 66
     1
 10
0.0
 20
0.0
 30
0.0
 70
     1
1001
GENIUS_GENREC_14
1002
{
1000
PYDIR
1011
268.0872925184058
1021
121.1604744085761
1031
0.0
1002
}
1002
{
1000
PXDIR
1011
352.0872925184058
1021
66.16047440857608
1031
0.0
1002
}
1002
{
1000
PORI
1011
268.0872925184058
1021
66.16047440857608
1031
0.0
1002
}
1002
{
1000
PINS
1011
268.0872925184058
1021
66.16047440857608
1031
0.0
1002
}
1002
{
1000
HVAL
1000
55
1002
}
1002
{
1000
H
1070
     2
1002
}
1002
{
1000
WVAL
1000
84
1002
}
1002
{
1000
W
1070
     2
1002
}
1002
{
1000
C
1070
     1
1002
}
1001
GENIUS_GENOBJ-N-REC_13
1002
{
1000
OWNER
1000
GEN
1002
}
1001
GENIUS_GENODEF_13
1002
{
1000
HIER
1070
     0
1002
}
1002
{
1000
MANEDIT
1070
     0
1002
}
1002
{
1000
NOSEL
1070
     0
1002
}
1002
{
1000
BEHIND
1070
     0
1002
}
1002
{
1000
OTHER
1070
     0
1002
}
1002
{
1000
REACTOR
1002
}
  0
VERTEX
  5
9AA
330
9A9
100
AcDbEntity
  8
上側
100
AcDbVertex
100
AcDb2dVertex
 10
271.0872925184058
 20
66.16047440857608
 30
0.0
  0
VERTEX
  5
9AB
102
{ACAD_REACTORS
330
1921
102
}
330
9A9
100
AcDbEntity
  8
上側
100
AcDbVertex
100
AcDb2dVertex
 10
349.0872925184058
 20
66.16047440857608
 30
0.0
 42
0.4142135623730951
  0
VERTEX
  5
9AC
102
{ACAD_REACTORS
330
189A
102
}
330
9A9
100
AcDbEntity
  8
上側
100
AcDbVertex
100
AcDb2dVertex
 10
352.0872925184058
 20
69.16047440857608
 30
0.0
  0
VERTEX
  5
9AD
102
{ACAD_REACTORS
330
18C8
330
1921
102
}
330
9A9
100
AcDbEntity
  8
上側
100
AcDbVertex
100
AcDb2dVertex
 10
352.0872925184058
 20
118.1604744085761
 30
0.0
 42
0.4142135623730951
  0
VERTEX
  5
9AE
330
9A9
100
AcDbEntity
  8
上側
100
AcDbVertex
100
AcDb2dVertex
 10
349.0872925184058
 20
121.1604744085761
 30
0.0
  0
VERTEX
  5
9AF
102
{ACAD_REACTORS
330
189A
102
}
330
9A9
100
AcDbEntity
  8
上側
100
AcDbVertex
100
AcDb2dVertex
 10
271.0872925184058
 20
121.1604744085761
 30
0.0
 42
0.4142135623730951
  0
VERTEX
  5
9B0
330
9A9
100
AcDbEntity
  8
上側
100
AcDbVertex
100
AcDb2dVertex
 10
268.0872925184058
 20
118.1604744085761
 30
0.0
  0
VERTEX
  5
9B1
330
9A9
100
AcDbEntity
  8
上側
100
AcDbVertex
100
AcDb2dVertex
 10
268.0872925184058
 20
69.16047440857608
 30
0.0
 42
0.4142135623730951
  0
SEQEND
  5
9B2
330
9A9
100
AcDbEntity
  8
上側
  0
ARC
  5
9B3
330
1F
100
AcDbEntity
  8
下側
100
AcDbCircle
 10
46.59597124497077
 20
64.81761129463581
 30
0.0
 40
1.0
100
AcDbArc
 50
0.0
 51
90.0
1001
GENIUS_GENOBJ-N-FIL_13
1002
{
1000
OWNER
1000
GEN
1002
}
1001
GENIUS_GENODEF_13
1002
{
1000
HIER
1070
     0
1002
}
1002
{
1000
MANEDIT
1070
     0
1002
}
1002
{
1000
NOSEL
1070
     0
1002
}
1002
{
1000
BEHIND
1070
     0
1002
}
1002
{
1000
OTHER
1070
     0
1002
}
1002
{
1000
REACTOR
1002
}
  0
ARC
  5
9B4
330
1F
100
AcDbEntity
  8
下側
100
AcDbCircle
 10
43.59597124497077
 20
64.81761129463581
 30
0.0
 40
1.0
100
AcDbArc
 50
90.0
 51
180.0
1001
GENIUS_GENOBJ-N-FIL_13
1002
{
1000
OWNER
1000
GEN
1002
}
1001
GENIUS_GENODEF_13
1002
{
1000
HIER
1070
     0
1002
}
1002
{
1000
MANEDIT
1070
     0
1002
}
1002
{
1000
NOSEL
1070
     0
1002
}
1002
{
1000
BEHIND
1070
     0
1002
}
1002
{
1000
OTHER
1070
     0
1002
}
1002
{
1000
REACTOR
1002
}
  0
ARC
  5
9B5
330
1F
100
AcDbEntity
  8
下側
100
AcDbCircle
 10
135.5959712449706
 20
64.81761129463581
 30
0.0
 40
1.0
100
AcDbArc
 50
0.0
 51
90.0
1001
GENIUS_GENODEF_13
1002
{
1000
HIER
1070
     0
1002
}
1002
{
1000
MANEDIT
1070
     0
1002
}
1002
{
1000
NOSEL
1070
     0
1002
}
1002
{
1000
BEHIND
1070
     0
1002
}
1002
{
1000
OTHER
1070
     0
1002
}
1002
{
1000
REACTOR
1002
}
1001
GENIUS_GENOBJ-N-FIL_13
1002
{
1000
OWNER
1000
GEN
1002
}
  0
ARC
  5
9B6
330
1F
100
AcDbEntity
  8
下側
100
AcDbCircle
 10
132.5959712449705
 20
64.81761129463581
 30
0.0
 40
1.0
100
AcDbArc
 50
90.0
 51
180.0
1001
GENIUS_GENODEF_13
1002
{
1000
HIER
1070
     0
1002
}
1002
{
1000
MANEDIT
1070
     0
1002
}
1002
{
1000
NOSEL
1070
     0
1002
}
1002
{
1000
BEHIND
1070
     0
1002
}
1002
{
1000
OTHER
1070
     0
1002
}
1002
{
1000
REACTOR
1002
}
1001
GENIUS_GENOBJ-N-FIL_13
1002
{
1000
OWNER
1000
GEN
1002
}
  0
LINE
  5
9B7
330
1F
100
AcDbEntity
  8
下側
100
AcDbLine
 10
46.59597124497077
 20
65.81761129463581
 30
0.0
 11
43.59597124497077
 21
65.81761129463581
 31
0.0
  0
LINE
  5
9B8
330
1F
100
AcDbEntity
  8
下側
100
AcDbLine
 10
47.59597124497076
 20
64.31761129463581
 30
0.0
 11
47.59597124497076
 21
64.81761129463581
 31
0.0
  0
LINE
  5
9B9
330
1F
100
AcDbEntity
  8
下側
100
AcDbLine
 10
42.59597124497076
 20
64.31761129463581
 30
0.0
 11
42.59597124497076
 21
64.81761129463581
 31
0.0
  0
LINE
  5
9BA
330
1F
100
AcDbEntity
  8
下側
100
AcDbLine
 10
136.5959712449706
 20
64.31761129463581
 30
0.0
 11
136.5959712449706
 21
64.81761129463581
 31
0.0
  0
LINE
  5
9BB
330
1F
100
AcDbEntity
  8
下側
100
AcDbLine
 10
131.5959712449705
 20
64.31761129463581
 30
0.0
 11
131.5959712449705
 21
64.81761129463581
 31
0.0
  0
LINE
  5
9BC
330
1F
100
AcDbEntity
  8
下側
100
AcDbLine
 10
135.5959712449706
 20
65.81761129463581
 30
0.0
 11
132.5959712449705
 21
65.81761129463581
 31
0.0
  0
LINE
  5
9BD
330
1F
100
AcDbEntity
  8
ｶﾞｽｹｯﾄ
100
AcDbLine
 10
132.4959712449707
 20
47.91761129463572
 30
0.0
 11
130.5959712449706
 21
47.91761129463572
 31
0.0
  0
ARC
  5
9BE
330
1F
100
AcDbEntity
  8
ｶﾞｽｹｯﾄ
100
AcDbCircle
 10
132.4959712449707
 20
49.8176112946357
 30
0.0
 40
1.9
100
AcDbArc
 50
270.0
 51
0.0
1001
GENIUS_GENOBJ-N-FIL_13
1002
{
1000
OWNER
1000
GEN
1002
}
1001
GENIUS_GENODEF_13
1002
{
1000
HIER
1070
     0
1002
}
1002
{
1000
MANEDIT
1070
     0
1002
}
1002
{
1000
NOSEL
1070
     0
1002
}
1002
{
1000
BEHIND
1070
     0
1002
}
1002
{
1000
OTHER
1070
     0
1002
}
1002
{
1000
REACTOR
1002
}
  0
LINE
  5
9BF
330
1F
100
AcDbEntity
  8
ｶﾞｽｹｯﾄ
100
AcDbLine
 10
48.59597124497065
 20
47.91761129463572
 30
0.0
 11
46.69597124497056
 21
47.91761129463572
 31
0.0
  0
ARC
  5
9C0
330
1F
100
AcDbEntity
  8
ｶﾞｽｹｯﾄ
100
AcDbCircle
 10
46.69597124497056
 20
49.8176112946357
 30
0.0
 40
1.9
100
AcDbArc
 50
180.0
 51
270.0
1001
GENIUS_GENOBJ-N-FIL_13
1002
{
1000
OWNER
1000
GEN
1002
}
1001
GENIUS_GENODEF_13
1002
{
1000
HIER
1070
     0
1002
}
1002
{
1000
MANEDIT
1070
     0
1002
}
1002
{
1000
NOSEL
1070
     0
1002
}
1002
{
1000
BEHIND
1070
     0
1002
}
1002
{
1000
OTHER
1070
     0
1002
}
1002
{
1000
REACTOR
1002
}
  0
LINE
  5
9C1
330
1F
100
AcDbEntity
  8
上側
100
AcDbLine
 10
68.64597124497061
 20
71.81761129463581
 30
0.0
 11
68.64597124497061
 21
64.31761129463581
 31
0.0
  0
LINE
  5
9C2
330
1F
100
AcDbEntity
  8
上側
100
AcDbLine
 10
64.41097124497071
 20
64.31761129463581
 30
0.0
 11
66.10181516749083
 21
71.50464362749568
 31
0.0
  0
LINE
  5
9C3
330
1F
100
AcDbEntity
  8
上側
100
AcDbLine
 10
74.84597124497065
 20
72.81761129463581
 30
0.0
 11
74.84597124497065
 21
64.31761129463581
 31
0.0
  0
LINE
  5
9C4
330
1F
100
AcDbEntity
  8
上側
100
AcDbLine
 10
68.49981108014834
 20
71.81761129463581
 30
0.0
 11
68.64597124497061
 21
71.81761129463581
 31
0.0
  0
LINE
  5
9C5
330
1F
100
AcDbEntity
  8
上側
100
AcDbLine
 10
67.9157567479632
 20
71.35501776120776
 30
0.0
 11
66.26011427924857
 21
64.31761129463581
 31
0.0
  0
ARC
  5
9C6
330
1F
100
AcDbEntity
  8
上側
100
AcDbCircle
 10
69.02208682841649
 20
70.81761129463581
 30
0.0
 40
3.0
100
AcDbArc
 50
90.0
 51
166.7611609044417
1001
GENIUS_GENODEF_13
1002
{
1000
HIER
1070
     0
1002
}
1002
{
1000
MANEDIT
1070
     0
1002
}
1002
{
1000
NOSEL
1070
     0
1002
}
1002
{
1000
BEHIND
1070
     0
1002
}
1002
{
1000
OTHER
1070
     0
1002
}
1002
{
1000
REACTOR
1002
}
1001
GENIUS_GENOBJ-N-FIL_13
1002
{
1000
OWNER
1000
GEN
1002
}
  0
ARC
  5
9C7
330
1F
100
AcDbEntity
  8
上側
100
AcDbCircle
 10
68.49981108014834
 20
71.21761129463578
 30
0.0
 40
0.6
100
AcDbArc
 50
90.0
 51
166.7611609044401
1001
GENIUS_GENOBJ-N-FIL_13
1002
{
1000
OWNER
1000
GEN
1002
}
1001
GENIUS_GENODEF_13
1002
{
1000
HIER
1070
     0
1002
}
1002
{
1000
MANEDIT
1070
     0
1002
}
1002
{
1000
NOSEL
1070
     0
1002
}
1002
{
1000
BEHIND
1070
     0
1002
}
1002
{
1000
OTHER
1070
     0
1002
}
1002
{
1000
REACTOR
1002
}
  0
ARC
  5
9C8
330
1F
100
AcDbEntity
  8
上側
100
AcDbCircle
 10
73.84597124497066
 20
72.81761129463581
 30
0.0
 40
1.0
100
AcDbArc
 50
0.0
 51
90.0
1001
GENIUS_GENODEF_13
1002
{
1000
HIER
1070
     0
1002
}
1002
{
1000
MANEDIT
1070
     0
1002
}
1002
{
1000
NOSEL
1070
     0
1002
}
1002
{
1000
BEHIND
1070
     0
1002
}
1002
{
1000
OTHER
1070
     0
1002
}
1002
{
1000
REACTOR
1002
}
1001
GENIUS_GENOBJ-N-FIL_13
1002
{
1000
OWNER
1000
GEN
1002
}
  0
LINE
  5
9C9
330
1F
100
AcDbEntity
  8
上側
100
AcDbLine
 10
69.02208682841649
 20
73.81761129463581
 30
0.0
 11
73.84597124497066
 21
73.81761129463581
 31
0.0
  0
LINE
  5
9CA
330
1F
100
AcDbEntity
  8
上側
100
AcDbLine
 10
110.1698556615248
 20
73.81761129463581
 30
0.0
 11
105.3459712449706
 21
73.81761129463581
 31
0.0
  0
ARC
  5
9CB
330
1F
100
AcDbEntity
  8
上側
100
AcDbCircle
 10
105.3459712449706
 20
72.81761129463581
 30
0.0
 40
1.0
100
AcDbArc
 50
90.0
 51
180.0
1001
GENIUS_GENODEF_13
1002
{
1000
HIER
1070
     0
1002
}
1002
{
1000
MANEDIT
1070
     0
1002
}
1002
{
1000
NOSEL
1070
     0
1002
}
1002
{
1000
BEHIND
1070
     0
1002
}
1002
{
1000
OTHER
1070
     0
1002
}
1002
{
1000
REACTOR
1002
}
1001
GENIUS_GENOBJ-N-FIL_13
1002
{
1000
OWNER
1000
GEN
1002
}
  0
ARC
  5
9CC
330
1F
100
AcDbEntity
  8
上側
100
AcDbCircle
 10
110.6921314097927
 20
71.21761129463578
 30
0.0
 40
0.6
100
AcDbArc
 50
13.2388390955599
 51
90.0
1001
GENIUS_GENOBJ-N-FIL_13
1002
{
1000
OWNER
1000
GEN
1002
}
1001
GENIUS_GENODEF_13
1002
{
1000
HIER
1070
     0
1002
}
1002
{
1000
MANEDIT
1070
     0
1002
}
1002
{
1000
NOSEL
1070
     0
1002
}
1002
{
1000
BEHIND
1070
     0
1002
}
1002
{
1000
OTHER
1070
     0
1002
}
1002
{
1000
REACTOR
1002
}
  0
ARC
  5
9CD
330
1F
100
AcDbEntity
  8
上側
100
AcDbCircle
 10
110.1698556615248
 20
70.81761129463581
 30
0.0
 40
3.0
100
AcDbArc
 50
13.23883909555832
 51
90.0
1001
GENIUS_GENODEF_13
1002
{
1000
HIER
1070
     0
1002
}
1002
{
1000
MANEDIT
1070
     0
1002
}
1002
{
1000
NOSEL
1070
     0
1002
}
1002
{
1000
BEHIND
1070
     0
1002
}
1002
{
1000
OTHER
1070
     0
1002
}
1002
{
1000
REACTOR
1002
}
1001
GENIUS_GENOBJ-N-FIL_13
1002
{
1000
OWNER
1000
GEN
1002
}
  0
LINE
  5
9CE
330
1F
100
AcDbEntity
  8
上側
100
AcDbLine
 10
111.2761857419779
 20
71.35501776120776
 30
0.0
 11
112.9318282106927
 21
64.31761129463581
 31
0.0
  0
LINE
  5
9CF
330
1F
100
AcDbEntity
  8
上側
100
AcDbLine
 10
110.6921314097927
 20
71.81761129463581
 30
0.0
 11
110.5459712449704
 21
71.81761129463581
 31
0.0
  0
LINE
  5
9D0
330
1F
100
AcDbEntity
  8
上側
100
AcDbLine
 10
104.3459712449706
 20
72.81761129463581
 30
0.0
 11
104.3459712449706
 21
64.31761129463581
 31
0.0
  0
LINE
  5
9D1
330
1F
100
AcDbEntity
  8
上側
100
AcDbLine
 10
114.7809712449706
 20
64.31761129463581
 30
0.0
 11
113.0901273224502
 21
71.50464362749568
 31
0.0
  0
LINE
  5
9D2
330
1F
100
AcDbEntity
  8
上側
100
AcDbLine
 10
110.5459712449704
 20
71.81761129463581
 30
0.0
 11
110.5459712449704
 21
64.31761129463581
 31
0.0
  0
LINE
  5
9D3
330
1F
100
AcDbEntity
  8
上側
100
AcDbLine
 10
105.3459712449705
 20
60.81761129463581
 30
0.0
 11
105.3459712449705
 21
64.31761129463581
 31
0.0
  0
LINE
  5
9D4
330
1F
100
AcDbEntity
  8
上側
100
AcDbLine
 10
103.8459712449706
 20
60.81761129463581
 30
0.0
 11
103.8459712449706
 21
64.31761129463581
 31
0.0
  0
LINE
  5
9D5
330
1F
100
AcDbEntity
  8
上側
100
AcDbLine
 10
54.34597124497054
 20
60.81761129463581
 30
0.0
 11
54.34597124497054
 21
64.31761129463581
 31
0.0
  0
LINE
  5
9D6
330
1F
100
AcDbEntity
  8
上側
100
AcDbLine
 10
52.84597124497054
 20
60.81761129463581
 30
0.0
 11
52.84597124497054
 21
64.31761129463581
 31
0.0
  0
LINE
  5
9D7
330
1F
100
AcDbEntity
  8
上側
100
AcDbLine
 10
126.3459712449704
 20
64.31761129463581
 30
0.0
 11
126.3459712449704
 21
60.81761129463581
 31
0.0
  0
LINE
  5
9D8
330
1F
100
AcDbEntity
  8
上側
100
AcDbLine
 10
124.8459712449705
 20
64.31761129463581
 30
0.0
 11
124.8459712449705
 21
60.81761129463581
 31
0.0
  0
LINE
  5
9D9
330
1F
100
AcDbEntity
  8
上側
100
AcDbLine
 10
75.34597124497065
 20
64.31761129463581
 30
0.0
 11
75.34597124497065
 21
60.81761129463581
 31
0.0
  0
LINE
  5
9DA
330
1F
100
AcDbEntity
  8
上側
100
AcDbLine
 10
73.84597124497054
 20
64.31761129463581
 30
0.0
 11
73.84597124497054
 21
60.81761129463581
 31
0.0
  0
LINE
  5
9DB
330
1F
100
AcDbEntity
  8
上側
100
AcDbLine
 10
136.5959712449704
 20
60.81761129463581
 30
0.0
 11
136.5959712449704
 21
64.31761129463581
 31
0.0
  0
LINE
  5
9DC
330
1F
100
AcDbEntity
  8
上側
100
AcDbLine
 10
42.59597124497065
 20
60.81761129463581
 30
0.0
 11
42.59597124497065
 21
64.31761129463581
 31
0.0
  0
LINE
  5
9DD
330
1F
100
AcDbEntity
  8
上側
100
AcDbLine
 10
42.59597124497065
 20
64.31761129463581
 30
0.0
 11
136.5959712449704
 21
64.31761129463581
 31
0.0
  0
LINE
  5
9DE
330
1F
100
AcDbEntity
  8
上側
100
AcDbLine
 10
42.59597124497065
 20
60.81761129463581
 30
0.0
 11
136.5959712449704
 21
60.81761129463581
 31
0.0
  0
ARC
  5
9DF
330
1F
100
AcDbEntity
  8
ｶﾞｽｹｯﾄ
100
AcDbCircle
 10
197.6418033335302
 20
169.7179370775412
 30
0.0
 40
1.9
100
AcDbArc
 50
270.0
 51
0.0
1001
GENIUS_GENOBJ-N-FIL_13
1002
{
1000
OWNER
1000
GEN
1002
}
1001
GENIUS_GENODEF_13
1002
{
1000
HIER
1070
     0
1002
}
1002
{
1000
MANEDIT
1070
     0
1002
}
1002
{
1000
NOSEL
1070
     0
1002
}
1002
{
1000
BEHIND
1070
     0
1002
}
1002
{
1000
OTHER
1070
     0
1002
}
1002
{
1000
REACTOR
1002
}
  0
LINE
  5
9E0
330
1F
100
AcDbEntity
  8
ｶﾞｽｹｯﾄ
100
AcDbLine
 10
199.5418033335302
 20
171.6179370775413
 30
0.0
 11
199.5418033335302
 21
169.7179370775412
 31
0.0
  0
LINE
  5
9E1
330
1F
100
AcDbEntity
  8
ｶﾞｽｹｯﾄ
100
AcDbLine
 10
199.5418033335302
 20
224.6179370775413
 30
0.0
 11
199.5418033335302
 21
226.5179370775413
 31
0.0
  0
ARC
  5
9E2
330
1F
100
AcDbEntity
  8
ｶﾞｽｹｯﾄ
100
AcDbCircle
 10
197.6418033335302
 20
226.5179370775413
 30
0.0
 40
1.9
100
AcDbArc
 50
0.0
 51
90.0
1001
GENIUS_GENOBJ-N-FIL_13
1002
{
1000
OWNER
1000
GEN
1002
}
1001
GENIUS_GENODEF_13
1002
{
1000
HIER
1070
     0
1002
}
1002
{
1000
MANEDIT
1070
     0
1002
}
1002
{
1000
NOSEL
1070
     0
1002
}
1002
{
1000
BEHIND
1070
     0
1002
}
1002
{
1000
OTHER
1070
     0
1002
}
1002
{
1000
REACTOR
1002
}
  0
LINE
  5
9E3
330
1F
100
AcDbEntity
  8
上側
100
AcDbLine
 10
183.1418033335303
 20
157.9179370775412
 30
0.0
 11
186.6418033335303
 21
157.9179370775412
 31
0.0
  0
LINE
  5
9E4
330
1F
100
AcDbEntity
  8
上側
100
AcDbLine
 10
183.1418033335303
 20
166.9179370775412
 30
0.0
 11
175.599078043246
 21
166.6948019217661
 31
0.0
  0
LINE
  5
9E5
330
1F
100
AcDbEntity
  8
上側
100
AcDbLine
 10
173.6418033335303
 20
164.6952583364522
 30
0.0
 11
173.6418033335303
 21
162.1107012887161
 31
0.0
  0
LINE
  5
9E6
330
1F
100
AcDbEntity
  8
上側
100
AcDbLine
 10
175.5990780432458
 20
160.1111577034022
 30
0.0
 11
183.1418033335303
 21
159.9179370775411
 31
0.0
  0
ARC
  5
9E7
330
1F
100
AcDbEntity
  8
上側
100
AcDbCircle
 10
175.6418033335303
 20
162.1107012887161
 30
0.0
 40
2.0
100
AcDbArc
 50
180.0
 51
268.7759174778211
1001
GENIUS_GENOBJ-N-FIL_13
1002
{
1000
OWNER
1000
GEN
1002
}
1001
GENIUS_GENODEF_13
1002
{
1000
HIER
1070
     0
1002
}
1002
{
1000
MANEDIT
1070
     0
1002
}
1002
{
1000
NOSEL
1070
     0
1002
}
1002
{
1000
BEHIND
1070
     0
1002
}
1002
{
1000
OTHER
1070
     0
1002
}
1002
{
1000
REACTOR
1002
}
  0
ARC
  5
9E8
330
1F
100
AcDbEntity
  8
上側
100
AcDbCircle
 10
175.6418033335303
 20
164.6952583364522
 30
0.0
 40
2.0
100
AcDbArc
 50
91.22408252217564
 51
180.0
1001
GENIUS_GENODEF_13
1002
{
1000
HIER
1070
     0
1002
}
1002
{
1000
MANEDIT
1070
     0
1002
}
1002
{
1000
NOSEL
1070
     0
1002
}
1002
{
1000
BEHIND
1070
     0
1002
}
1002
{
1000
OTHER
1070
     0
1002
}
1002
{
1000
REACTOR
1002
}
1001
GENIUS_GENOBJ-N-FIL_13
1002
{
1000
OWNER
1000
GEN
1002
}
  0
LINE
  5
9E9
330
1F
100
AcDbEntity
  8
上側
100
AcDbLine
 10
131.5959712449705
 20
231.1679370775412
 30
0.0
 11
130.5959712449705
 21
231.1679370775412
 31
0.0
  0
LINE
  5
9EA
330
1F
100
AcDbEntity
  8
上側
100
AcDbLine
 10
131.5959712449706
 20
233.9679370775412
 30
0.0
 11
130.5959712449705
 21
233.9679370775412
 31
0.0
  0
LINE
  5
9EB
330
1F
100
AcDbEntity
  8
上側
100
AcDbLine
 10
113.0959712449706
 20
233.9679370775412
 30
0.0
 11
116.1959712449705
 21
233.9679370775412
 31
0.0
  0
LINE
  5
9EC
330
1F
100
AcDbEntity
  8
上側
100
AcDbLine
 10
113.0959712449706
 20
231.1679370775412
 30
0.0
 11
116.1959712449705
 21
231.1679370775412
 31
0.0
  0
LINE
  5
9ED
330
1F
100
AcDbEntity
  8
上側
100
AcDbLine
 10
117.5959712449706
 20
232.5679370775413
 30
0.0
 11
117.5959712449706
 21
232.5679370775413
 31
0.0
  0
ARC
  5
9EE
330
1F
100
AcDbEntity
  8
上側
100
AcDbCircle
 10
116.1959712449705
 20
232.5679370775413
 30
0.0
 40
1.399999999999999
100
AcDbArc
 50
0.0
 51
90.0
1001
GENIUS_GENOBJ-N-FIL_13
1002
{
1000
OWNER
1000
GEN
1002
}
1001
GENIUS_GENODEF_13
1002
{
1000
HIER
1070
     0
1002
}
1002
{
1000
MANEDIT
1070
     0
1002
}
1002
{
1000
NOSEL
1070
     0
1002
}
1002
{
1000
BEHIND
1070
     0
1002
}
1002
{
1000
OTHER
1070
     0
1002
}
1002
{
1000
REACTOR
1002
}
  0
ARC
  5
9EF
330
1F
100
AcDbEntity
  8
上側
100
AcDbCircle
 10
116.1959712449705
 20
232.5679370775413
 30
0.0
 40
1.399999999999999
100
AcDbArc
 50
270.0
 51
0.0
1001
GENIUS_GENOBJ-N-FIL_13
1002
{
1000
OWNER
1000
GEN
1002
}
1001
GENIUS_GENODEF_13
1002
{
1000
HIER
1070
     0
1002
}
1002
{
1000
MANEDIT
1070
     0
1002
}
1002
{
1000
NOSEL
1070
     0
1002
}
1002
{
1000
BEHIND
1070
     0
1002
}
1002
{
1000
OTHER
1070
     0
1002
}
1002
{
1000
REACTOR
1002
}
  0
LINE
  5
9F0
330
1F
100
AcDbEntity
  8
上側
100
AcDbLine
 10
122.0959712449705
 20
228.9179370775412
 30
0.0
 11
122.0959712449705
 21
234.0179370775413
 31
0.0
  0
LINE
  5
9F1
330
1F
100
AcDbEntity
  8
上側
100
AcDbLine
 10
113.0959712449706
 20
228.9179370775412
 30
0.0
 11
122.0959712449705
 21
228.9179370775412
 31
0.0
  0
LINE
  5
9F2
330
1F
100
AcDbEntity
  8
上側
100
AcDbLine
 10
113.0959712449706
 20
234.0179370775413
 30
0.0
 11
89.59597124497065
 21
234.0179370775413
 31
0.0
  0
LINE
  5
9F3
330
1F
100
AcDbEntity
  8
上側
100
AcDbLine
 10
113.0959712449706
 20
234.0179370775413
 30
0.0
 11
113.0959712449706
 21
228.9179370775412
 31
0.0
  0
LINE
  5
9F4
330
1F
100
AcDbEntity
  8
上側
100
AcDbLine
 10
126.3459712449705
 20
159.4179370775412
 30
0.0
 11
126.5959712449705
 21
159.4179370775412
 31
0.0
  0
LINE
  5
9F5
330
1F
100
AcDbEntity
  8
上側
100
AcDbLine
 10
100.8459712449705
 20
160.6679370775412
 30
0.0
 11
94.34597124497054
 21
160.6679370775412
 31
0.0
  0
LINE
  5
9F6
330
1F
100
AcDbEntity
  8
上側
100
AcDbLine
 10
94.34597124497054
 20
166.1679370775412
 30
0.0
 11
94.34597124497054
 21
160.6679370775412
 31
0.0
  0
LINE
  5
9F7
330
1F
100
AcDbEntity
  8
上側
100
AcDbLine
 10
100.8459712449705
 20
166.1679370775412
 30
0.0
 11
100.8459712449705
 21
160.6679370775412
 31
0.0
  0
LINE
  5
9F8
330
1F
100
AcDbEntity
  8
上側
100
AcDbLine
 10
94.34597124497054
 20
166.1679370775412
 30
0.0
 11
100.8459712449705
 21
166.1679370775412
 31
0.0
  0
LINE
  5
9F9
330
1F
100
AcDbEntity
  8
上側
100
AcDbLine
 10
124.8459712449705
 20
157.9179370775412
 30
0.0
 11
126.3459712449705
 21
159.4179370775412
 31
0.0
  0
LINE
  5
9FA
330
1F
100
AcDbEntity
  8
上側
100
AcDbLine
 10
105.3459712449705
 20
157.9179370775412
 30
0.0
 11
124.8459712449705
 21
157.9179370775412
 31
0.0
  0
LINE
  5
9FB
330
1F
100
AcDbEntity
  8
上側
100
AcDbLine
 10
103.8459712449705
 20
159.4179370775412
 30
0.0
 11
105.3459712449705
 21
157.9179370775412
 31
0.0
  0
LINE
  5
9FC
330
1F
100
AcDbEntity
  8
上側
100
AcDbLine
 10
120.0959712449704
 20
160.9179370775412
 30
0.0
 11
120.0959712449704
 21
165.9179370775412
 31
0.0
  0
LINE
  5
9FD
330
1F
100
AcDbEntity
  8
上側
100
AcDbLine
 10
114.7809712449705
 20
160.9179370775412
 30
0.0
 11
120.0959712449704
 21
160.9179370775412
 31
0.0
  0
LINE
  5
9FE
330
1F
100
AcDbEntity
  8
上側
100
AcDbLine
 10
114.7809712449706
 20
165.9179370775412
 30
0.0
 11
120.0959712449704
 21
165.9179370775412
 31
0.0
  0
ARC
  5
9FF
330
1F
100
AcDbEntity
  8
上側
100
AcDbCircle
 10
107.8459712449706
 20
163.4179370775412
 30
0.0
 40
3.5
100
AcDbArc
 50
89.99999999999674
 51
179.9999999999984
1001
GENIUS_GENOBJ-N-FIL_13
1002
{
1000
OWNER
1000
GEN
1002
}
1001
GENIUS_GENODEF_13
1002
{
1000
HIER
1070
     0
1002
}
1002
{
1000
MANEDIT
1070
     0
1002
}
1002
{
1000
NOSEL
1070
     0
1002
}
1002
{
1000
BEHIND
1070
     0
1002
}
1002
{
1000
OTHER
1070
     0
1002
}
1002
{
1000
REACTOR
1002
}
  0
ARC
  5
A00
330
1F
100
AcDbEntity
  8
上側
100
AcDbCircle
 10
107.8459712449706
 20
163.4179370775412
 30
0.0
 40
3.5
100
AcDbArc
 50
179.9999999999984
 51
269.9999999999968
1001
GENIUS_GENOBJ-N-FIL_13
1002
{
1000
OWNER
1000
GEN
1002
}
1001
GENIUS_GENODEF_13
1002
{
1000
HIER
1070
     0
1002
}
1002
{
1000
MANEDIT
1070
     0
1002
}
1002
{
1000
NOSEL
1070
     0
1002
}
1002
{
1000
BEHIND
1070
     0
1002
}
1002
{
1000
OTHER
1070
     0
1002
}
1002
{
1000
REACTOR
1002
}
  0
LINE
  5
A01
330
1F
100
AcDbEntity
  8
上側
100
AcDbLine
 10
114.7809712449703
 20
159.917937077541
 30
0.0
 11
107.8459712449704
 21
159.9179370775412
 31
0.0
  0
LINE
  5
A02
330
1F
100
AcDbEntity
  8
上側
100
AcDbLine
 10
114.7809712449706
 20
166.917937077541
 30
0.0
 11
114.7809712449703
 21
159.917937077541
 31
0.0
  0
LINE
  5
A03
330
1F
100
AcDbEntity
  8
上側
100
AcDbLine
 10
114.7809712449706
 20
166.917937077541
 30
0.0
 11
107.8459712449706
 21
166.9179370775412
 31
0.0
  0
LINE
  5
A04
330
1F
100
AcDbEntity
  8
上側
100
AcDbLine
 10
183.1418033335303
 20
229.4198608661879
 30
0.0
 11
183.1418033335303
 21
157.9179370775412
 31
0.0
  0
LINE
  5
A05
330
1F
100
AcDbEntity
  8
上側
100
AcDbLine
 10
183.1418033335303
 20
159.4179370775412
 30
0.0
 11
186.6418033335303
 21
159.4179370775412
 31
0.0
  0
LINE
  5
A06
330
1F
100
AcDbEntity
  8
上側
100
AcDbLine
 10
186.6418033335303
 20
229.0179370775413
 30
0.0
 11
186.6418033335303
 21
157.9179370775412
 31
0.0
  0
LINE
  5
A07
330
1F
100
AcDbEntity
  8
上側
100
AcDbLine
 10
121.5959712449705
 20
222.6179370775413
 30
0.0
 11
89.59597124497065
 21
222.6179370775413
 31
0.0
  0
LINE
  5
A08
330
1F
100
AcDbEntity
  8
上側
100
AcDbLine
 10
89.59597124497042
 20
173.6179370775413
 30
0.0
 11
121.5959712449705
 21
173.6179370775413
 31
0.0
  0
LINE
  5
A09
330
1F
100
AcDbEntity
  8
下側
100
AcDbLine
 10
95.79970443326009
 20
59.81761129463581
 30
0.0
 11
95.87278135633699
 21
60.81761129463586
 31
0.0
  0
LINE
  5
A0A
330
1F
100
AcDbEntity
  8
下側
100
AcDbLine
 10
97.43754793494133
 20
71.41761129463572
 30
0.0
 11
97.75439455499975
 21
71.41761129463572
 31
0.0
  0
ARC
  5
A0B
330
1F
100
AcDbEntity
  8
下側
100
AcDbCircle
 10
97.43754793494133
 20
70.5676112946357
 30
0.0
 40
0.85
100
AcDbArc
 50
90.0
 51
175.8204301265706
1001
GENIUS_GENOBJ-N-FIL_13
1002
{
1000
OWNER
1000
GEN
1002
}
1001
GENIUS_GENODEF_13
1002
{
1000
HIER
1070
     0
1002
}
1002
{
1000
MANEDIT
1070
     0
1002
}
1002
{
1000
NOSEL
1070
     0
1002
}
1002
{
1000
BEHIND
1070
     0
1002
}
1002
{
1000
OTHER
1070
     0
1002
}
1002
{
1000
REACTOR
1002
}
  0
ARC
  5
A0C
330
1F
100
AcDbEntity
  8
下側
100
AcDbCircle
 10
97.75439455499975
 20
70.5676112946357
 30
0.0
 40
0.85
100
AcDbArc
 50
4.179569873429334
 51
90.0
1001
GENIUS_GENOBJ-N-FIL_13
1002
{
1000
OWNER
1000
GEN
1002
}
1001
GENIUS_GENODEF_13
1002
{
1000
HIER
1070
     0
1002
}
1002
{
1000
MANEDIT
1070
     0
1002
}
1002
{
1000
NOSEL
1070
     0
1002
}
1002
{
1000
BEHIND
1070
     0
1002
}
1002
{
1000
OTHER
1070
     0
1002
}
1002
{
1000
REACTOR
1002
}
  0
LINE
  5
A0D
330
1F
100
AcDbEntity
  8
下側
100
AcDbLine
 10
98.60213400429655
 20
70.62956148516121
 30
0.0
 11
99.06339190283507
 21
64.31761129463581
 31
0.0
  0
ARC
  5
A0E
330
1F
100
AcDbEntity
  8
下側
100
AcDbCircle
 10
97.75439455499975
 20
70.5676112946357
 30
0.0
 40
2.25
100
AcDbArc
 50
4.179569873429334
 51
90.0
1001
GENIUS_GENOBJ-N-FIL_13
1002
{
1000
OWNER
1000
GEN
1002
}
1001
GENIUS_GENODEF_13
1002
{
1000
HIER
1070
     0
1002
}
1002
{
1000
MANEDIT
1070
     0
1002
}
1002
{
1000
NOSEL
1070
     0
1002
}
1002
{
1000
BEHIND
1070
     0
1002
}
1002
{
1000
OTHER
1070
     0
1002
}
1002
{
1000
REACTOR
1002
}
  0
ARC
  5
A0F
330
1F
100
AcDbEntity
  8
下側
100
AcDbCircle
 10
97.43754793494133
 20
70.5676112946357
 30
0.0
 40
2.25
100
AcDbArc
 50
90.0
 51
175.8204301265706
1001
GENIUS_GENOBJ-N-FIL_13
1002
{
1000
OWNER
1000
GEN
1002
}
1001
GENIUS_GENODEF_13
1002
{
1000
HIER
1070
     0
1002
}
1002
{
1000
MANEDIT
1070
     0
1002
}
1002
{
1000
NOSEL
1070
     0
1002
}
1002
{
1000
BEHIND
1070
     0
1002
}
1002
{
1000
OTHER
1070
     0
1002
}
1002
{
1000
REACTOR
1002
}
  0
LINE
  5
A10
330
1F
100
AcDbEntity
  8
下側
100
AcDbLine
 10
99.99841074431458
 20
70.73159709308566
 30
0.0
 11
100.4671250911243
 21
64.31761129463581
 31
0.0
  0
LINE
  5
A11
330
1F
100
AcDbEntity
  8
下側
100
AcDbLine
 10
97.43754793494133
 20
72.8176112946357
 30
0.0
 11
97.75439455499975
 21
72.8176112946357
 31
0.0
  0
LINE
  5
A12
330
1F
100
AcDbEntity
  8
下側
100
AcDbLine
 10
94.3959712449706
 20
59.81761129463581
 30
0.0
 11
94.4690481680476
 21
60.81761129463581
 31
0.0
  0
LINE
  5
A13
330
1F
100
AcDbEntity
  8
下側
100
AcDbLine
 10
42.59597124497065
 20
49.8176112946357
 30
0.0
 11
42.59597124497065
 21
59.81761129463581
 31
0.0
  0
LINE
  5
A14
330
1F
100
AcDbEntity
  8
下側
100
AcDbLine
 10
130.5959712449706
 20
43.81761129463581
 30
0.0
 11
130.5959712449706
 21
49.8176112946357
 31
0.0
  0
LINE
  5
A15
330
1F
100
AcDbEntity
  8
下側
100
AcDbLine
 10
48.59597124497065
 20
43.81761129463569
 30
0.0
 11
48.59597124497065
 21
49.8176112946357
 31
0.0
  0
LINE
  5
A16
330
1F
100
AcDbEntity
  8
下側0
100
AcDbLine
 10
128.8459712449704
 20
43.81761129463569
 30
0.0
 11
128.8459712449704
 21
59.81761129463581
 31
0.0
  0
LINE
  5
A17
330
1F
100
AcDbEntity
  8
下側0
100
AcDbLine
 10
50.34597124497065
 20
43.81761129463569
 30
0.0
 11
50.34597124497065
 21
59.81761129463581
 31
0.0
  0
LINE
  5
A18
330
1F
100
AcDbEntity
  8
下側
100
AcDbLine
 10
130.5959712449706
 20
43.81761129463569
 30
0.0
 11
48.59597124497065
 21
43.81761129463569
 31
0.0
  0
LINE
  5
A19
330
1F
100
AcDbEntity
  8
下側
100
AcDbLine
 10
42.59597124497065
 20
49.8176112946357
 30
0.0
 11
136.5959712449704
 21
49.8176112946357
 31
0.0
  0
LINE
  5
A1A
330
1F
100
AcDbEntity
  8
下側
100
AcDbLine
 10
136.5959712449704
 20
59.81761129463581
 30
0.0
 11
136.5959712449704
 21
49.8176112946357
 31
0.0
  0
LINE
  5
A1B
330
1F
100
AcDbEntity
  8
下側
100
AcDbLine
 10
42.59597124497065
 20
59.81761129463581
 30
0.0
 11
136.5959712449704
 21
59.81761129463581
 31
0.0
  0
ARC
  5
A1C
330
1F
100
AcDbEntity
  8
下側
100
AcDbCircle
 10
184.6418033335304
 20
232.4179370775413
 30
0.0
 40
3.0
100
AcDbArc
 50
90.0
 51
179.9999999999984
1001
GENIUS_GENODEF_13
1002
{
1000
HIER
1070
     0
1002
}
1002
{
1000
MANEDIT
1070
     0
1002
}
1002
{
1000
NOSEL
1070
     0
1002
}
1002
{
1000
BEHIND
1070
     0
1002
}
1002
{
1000
OTHER
1070
     0
1002
}
1002
{
1000
REACTOR
1002
}
1001
GENIUS_GENOBJ-N-FIL_13
1002
{
1000
OWNER
1000
GEN
1002
}
  0
ARC
  5
A1D
330
1F
100
AcDbEntity
  8
下側
100
AcDbCircle
 10
184.6418033335302
 20
232.0179370775413
 30
0.0
 40
3.0
100
AcDbArc
 50
180.0
 51
270.0
1001
GENIUS_GENODEF_13
1002
{
1000
HIER
1070
     0
1002
}
1002
{
1000
MANEDIT
1070
     0
1002
}
1002
{
1000
NOSEL
1070
     0
1002
}
1002
{
1000
BEHIND
1070
     0
1002
}
1002
{
1000
OTHER
1070
     0
1002
}
1002
{
1000
REACTOR
1002
}
1001
GENIUS_GENOBJ-N-FIL_13
1002
{
1000
OWNER
1000
GEN
1002
}
  0
LINE
  5
A1E
330
1F
100
AcDbEntity
  8
下側
100
AcDbLine
 10
184.6418033335304
 20
235.4179370775412
 30
0.0
 11
197.6418033335303
 21
235.4179370775412
 31
0.0
  0
LINE
  5
A1F
330
1F
100
AcDbEntity
  8
下側
100
AcDbLine
 10
181.6418033335302
 20
232.0179370775413
 30
0.0
 11
181.6418033335303
 21
232.4179370775413
 31
0.0
  0
LINE
  5
A20
330
1F
100
AcDbEntity
  8
下側
100
AcDbLine
 10
187.6418033335303
 20
229.0179370775413
 30
0.0
 11
184.6418033335302
 21
229.0179370775413
 31
0.0
  0
LINE
  5
A21
330
1F
100
AcDbEntity
  8
下側
100
AcDbLine
 10
203.6418033335304
 20
224.6179370775413
 30
0.0
 11
203.6418033335304
 21
171.6179370775413
 31
0.0
  0
LINE
  5
A22
330
1F
100
AcDbEntity
  8
下側
100
AcDbLine
 10
197.6418033335303
 20
171.6179370775413
 30
0.0
 11
203.6418033335304
 21
171.6179370775413
 31
0.0
  0
LINE
  5
A23
330
1F
100
AcDbEntity
  8
下側
100
AcDbLine
 10
197.6418033335303
 20
224.6179370775413
 30
0.0
 11
203.6418033335304
 21
224.6179370775413
 31
0.0
  0
LINE
  5
A24
330
1F
100
AcDbEntity
  8
下側0
100
AcDbLine
 10
187.6418033335303
 20
173.1179370775413
 30
0.0
 11
203.6418033335304
 21
173.1179370775413
 31
0.0
  0
LINE
  5
A25
330
1F
100
AcDbEntity
  8
下側0
100
AcDbLine
 10
203.6418033335304
 20
223.1179370775412
 30
0.0
 11
187.6418033335303
 21
223.1179370775412
 31
0.0
  0
LINE
  5
A26
330
1F
100
AcDbEntity
  8
下側
100
AcDbLine
 10
187.6418033335303
 20
159.4179370775412
 30
0.0
 11
197.6418033335303
 21
159.4179370775412
 31
0.0
  0
LINE
  5
A27
102
{ACAD_REACTORS
330
17E0
102
}
330
1F
100
AcDbEntity
  8
下側
100
AcDbLine
 10
197.6418033335303
 20
235.417937077541
 30
0.0
 11
197.6418033335303
 21
159.4179370775412
 31
0.0
  0
LINE
  5
A28
330
1F
100
AcDbEntity
  8
下側
100
AcDbLine
 10
187.6418033335302
 20
229.0179370775413
 30
0.0
 11
187.6418033335303
 21
159.4179370775412
 31
0.0
  0
CIRCLE
  5
A29
330
1F
100
AcDbEntity
  8
下側0
100
AcDbCircle
 10
54.59597124497065
 20
164.6179370775412
 30
0.0
 40
1.199999999999999
  0
CIRCLE
  5
A2A
330
1F
100
AcDbEntity
  8
下側0
100
AcDbCircle
 10
54.59597124497065
 20
231.6179370775413
 30
0.0
 40
1.199999999999999
  0
LINE
  5
A2B
330
1F
100
AcDbEntity
  8
下側
100
AcDbLine
 10
75.84597124497088
 20
221.6179370775413
 30
0.0
 11
76.345971244971
 21
221.6179370775413
 31
0.0
  0
ARC
  5
A2C
330
1F
100
AcDbEntity
  8
下側
100
AcDbCircle
 10
76.345971244971
 20
220.1179370775413
 30
0.0
 40
1.5
100
AcDbArc
 50
0.0
 51
90.0
1001
GENIUS_GENODEF_13
1002
{
1000
HIER
1070
     0
1002
}
1002
{
1000
MANEDIT
1070
     0
1002
}
1002
{
1000
NOSEL
1070
     0
1002
}
1002
{
1000
BEHIND
1070
     0
1002
}
1002
{
1000
OTHER
1070
     0
1002
}
1002
{
1000
REACTOR
1002
}
1001
GENIUS_GENOBJ-N-FIL_13
1002
{
1000
OWNER
1000
GEN
1002
}
  0
ARC
  5
A2D
330
1F
100
AcDbEntity
  8
下側
100
AcDbCircle
 10
71.34597124497088
 20
220.1179370775413
 30
0.0
 40
1.5
100
AcDbArc
 50
90.0
 51
180.0
1001
GENIUS_GENODEF_13
1002
{
1000
HIER
1070
     0
1002
}
1002
{
1000
MANEDIT
1070
     0
1002
}
1002
{
1000
NOSEL
1070
     0
1002
}
1002
{
1000
BEHIND
1070
     0
1002
}
1002
{
1000
OTHER
1070
     0
1002
}
1002
{
1000
REACTOR
1002
}
1001
GENIUS_GENOBJ-N-FIL_13
1002
{
1000
OWNER
1000
GEN
1002
}
  0
LINE
  5
A2E
330
1F
100
AcDbEntity
  8
下側
100
AcDbLine
 10
71.84597124497088
 20
223.1179370775413
 30
0.0
 11
71.84597124497088
 21
221.6179370775413
 31
0.0
  0
LINE
  5
A2F
330
1F
100
AcDbEntity
  8
下側
100
AcDbLine
 10
75.84597124497088
 20
221.6179370775413
 30
0.0
 11
75.84597124497088
 21
223.1179370775413
 31
0.0
  0
LINE
  5
A30
330
1F
100
AcDbEntity
  8
下側
100
AcDbLine
 10
71.34597124497088
 20
221.6179370775413
 30
0.0
 11
71.84597124497077
 21
221.6179370775412
 31
0.0
  0
LINE
  5
A31
330
1F
100
AcDbEntity
  8
下側
100
AcDbLine
 10
77.845971244971
 20
220.1179370775413
 30
0.0
 11
77.845971244971
 21
198.1179370775413
 31
0.0
  0
LINE
  5
A32
330
1F
100
AcDbEntity
  8
下側
100
AcDbLine
 10
69.84597124497089
 20
220.1179370775413
 30
0.0
 11
69.84597124497089
 21
198.1179370775413
 31
0.0
  0
LINE
  5
A33
330
1F
100
AcDbEntity
  8
下側
100
AcDbLine
 10
77.845971244971
 20
176.1179370775411
 30
0.0
 11
77.845971244971
 21
198.1179370775413
 31
0.0
  0
LINE
  5
A34
330
1F
100
AcDbEntity
  8
下側
100
AcDbLine
 10
69.84597124497089
 20
176.1179370775413
 30
0.0
 11
69.84597124497089
 21
198.1179370775413
 31
0.0
  0
LINE
  5
A35
330
1F
100
AcDbEntity
  8
下側
100
AcDbLine
 10
75.84597124497088
 20
174.6179370775412
 30
0.0
 11
76.345971244971
 21
174.6179370775412
 31
0.0
  0
LINE
  5
A36
330
1F
100
AcDbEntity
  8
下側
100
AcDbLine
 10
71.34597124497088
 20
174.6179370775413
 30
0.0
 11
71.84597124497077
 21
174.6179370775412
 31
0.0
  0
LINE
  5
A37
330
1F
100
AcDbEntity
  8
下側
100
AcDbLine
 10
75.84597124497088
 20
174.6179370775413
 30
0.0
 11
75.84597124497088
 21
173.1179370775413
 31
0.0
  0
LINE
  5
A38
330
1F
100
AcDbEntity
  8
下側
100
AcDbLine
 10
71.84597124497088
 20
173.1179370775413
 30
0.0
 11
71.84597124497088
 21
174.6179370775413
 31
0.0
  0
ARC
  5
A39
330
1F
100
AcDbEntity
  8
下側
100
AcDbCircle
 10
71.34597124497088
 20
176.1179370775413
 30
0.0
 40
1.5
100
AcDbArc
 50
180.0
 51
270.0
1001
GENIUS_GENODEF_13
1002
{
1000
HIER
1070
     0
1002
}
1002
{
1000
MANEDIT
1070
     0
1002
}
1002
{
1000
NOSEL
1070
     0
1002
}
1002
{
1000
BEHIND
1070
     0
1002
}
1002
{
1000
OTHER
1070
     0
1002
}
1002
{
1000
REACTOR
1002
}
1001
GENIUS_GENOBJ-N-FIL_13
1002
{
1000
OWNER
1000
GEN
1002
}
  0
ARC
  5
A3A
330
1F
100
AcDbEntity
  8
下側
100
AcDbCircle
 10
76.345971244971
 20
176.1179370775411
 30
0.0
 40
1.5
100
AcDbArc
 50
270.0
 51
0.0
1001
GENIUS_GENODEF_13
1002
{
1000
HIER
1070
     0
1002
}
1002
{
1000
MANEDIT
1070
     0
1002
}
1002
{
1000
NOSEL
1070
     0
1002
}
1002
{
1000
BEHIND
1070
     0
1002
}
1002
{
1000
OTHER
1070
     0
1002
}
1002
{
1000
REACTOR
1002
}
1001
GENIUS_GENOBJ-N-FIL_13
1002
{
1000
OWNER
1000
GEN
1002
}
  0
ARC
  5
A3B
330
1F
100
AcDbEntity
  8
下側
100
AcDbCircle
 10
85.34597124497111
 20
176.1179370775411
 30
0.0
 40
1.5
100
AcDbArc
 50
270.0
 51
0.0
1001
GENIUS_GENODEF_13
1002
{
1000
HIER
1070
     0
1002
}
1002
{
1000
MANEDIT
1070
     0
1002
}
1002
{
1000
NOSEL
1070
     0
1002
}
1002
{
1000
BEHIND
1070
     0
1002
}
1002
{
1000
OTHER
1070
     0
1002
}
1002
{
1000
REACTOR
1002
}
1001
GENIUS_GENOBJ-N-FIL_13
1002
{
1000
OWNER
1000
GEN
1002
}
  0
ARC
  5
A3C
330
1F
100
AcDbEntity
  8
下側
100
AcDbCircle
 10
80.345971244971
 20
176.1179370775413
 30
0.0
 40
1.5
100
AcDbArc
 50
180.0
 51
270.0
1001
GENIUS_GENODEF_13
1002
{
1000
HIER
1070
     0
1002
}
1002
{
1000
MANEDIT
1070
     0
1002
}
1002
{
1000
NOSEL
1070
     0
1002
}
1002
{
1000
BEHIND
1070
     0
1002
}
1002
{
1000
OTHER
1070
     0
1002
}
1002
{
1000
REACTOR
1002
}
1001
GENIUS_GENOBJ-N-FIL_13
1002
{
1000
OWNER
1000
GEN
1002
}
  0
LINE
  5
A3D
330
1F
100
AcDbEntity
  8
下側
100
AcDbLine
 10
80.84597124497099
 20
173.1179370775413
 30
0.0
 11
80.84597124497099
 21
174.6179370775413
 31
0.0
  0
LINE
  5
A3E
330
1F
100
AcDbEntity
  8
下側
100
AcDbLine
 10
84.84597124497099
 20
174.6179370775413
 30
0.0
 11
84.84597124497099
 21
173.1179370775413
 31
0.0
  0
LINE
  5
A3F
330
1F
100
AcDbEntity
  8
下側
100
AcDbLine
 10
80.345971244971
 20
174.6179370775413
 30
0.0
 11
80.84597124497088
 21
174.6179370775412
 31
0.0
  0
LINE
  5
A40
330
1F
100
AcDbEntity
  8
下側
100
AcDbLine
 10
84.84597124497099
 20
174.6179370775412
 30
0.0
 11
85.34597124497111
 21
174.6179370775412
 31
0.0
  0
LINE
  5
A41
330
1F
100
AcDbEntity
  8
下側
100
AcDbLine
 10
78.845971244971
 20
176.1179370775413
 30
0.0
 11
78.845971244971
 21
198.1179370775413
 31
0.0
  0
LINE
  5
A42
330
1F
100
AcDbEntity
  8
下側
100
AcDbLine
 10
86.84597124497111
 20
176.1179370775411
 30
0.0
 11
86.84597124497111
 21
198.1179370775413
 31
0.0
  0
LINE
  5
A43
330
1F
100
AcDbEntity
  8
下側
100
AcDbLine
 10
78.845971244971
 20
220.1179370775413
 30
0.0
 11
78.845971244971
 21
198.1179370775413
 31
0.0
  0
LINE
  5
A44
330
1F
100
AcDbEntity
  8
下側
100
AcDbLine
 10
86.84597124497111
 20
220.1179370775413
 30
0.0
 11
86.84597124497111
 21
198.1179370775413
 31
0.0
  0
LINE
  5
A45
330
1F
100
AcDbEntity
  8
下側
100
AcDbLine
 10
80.345971244971
 20
221.6179370775413
 30
0.0
 11
80.84597124497088
 21
221.6179370775412
 31
0.0
  0
LINE
  5
A46
330
1F
100
AcDbEntity
  8
下側
100
AcDbLine
 10
84.84597124497099
 20
221.6179370775413
 30
0.0
 11
84.84597124497099
 21
223.1179370775413
 31
0.0
  0
LINE
  5
A47
330
1F
100
AcDbEntity
  8
下側
100
AcDbLine
 10
80.84597124497099
 20
223.1179370775413
 30
0.0
 11
80.84597124497099
 21
221.6179370775413
 31
0.0
  0
ARC
  5
A48
330
1F
100
AcDbEntity
  8
下側
100
AcDbCircle
 10
80.345971244971
 20
220.1179370775413
 30
0.0
 40
1.5
100
AcDbArc
 50
90.0
 51
180.0
1001
GENIUS_GENODEF_13
1002
{
1000
HIER
1070
     0
1002
}
1002
{
1000
MANEDIT
1070
     0
1002
}
1002
{
1000
NOSEL
1070
     0
1002
}
1002
{
1000
BEHIND
1070
     0
1002
}
1002
{
1000
OTHER
1070
     0
1002
}
1002
{
1000
REACTOR
1002
}
1001
GENIUS_GENOBJ-N-FIL_13
1002
{
1000
OWNER
1000
GEN
1002
}
  0
ARC
  5
A49
330
1F
100
AcDbEntity
  8
下側
100
AcDbCircle
 10
85.34597124497111
 20
220.1179370775413
 30
0.0
 40
1.5
100
AcDbArc
 50
0.0
 51
90.0
1001
GENIUS_GENODEF_13
1002
{
1000
HIER
1070
     0
1002
}
1002
{
1000
MANEDIT
1070
     0
1002
}
1002
{
1000
NOSEL
1070
     0
1002
}
1002
{
1000
BEHIND
1070
     0
1002
}
1002
{
1000
OTHER
1070
     0
1002
}
1002
{
1000
REACTOR
1002
}
1001
GENIUS_GENOBJ-N-FIL_13
1002
{
1000
OWNER
1000
GEN
1002
}
  0
LINE
  5
A4A
330
1F
100
AcDbEntity
  8
下側
100
AcDbLine
 10
84.84597124497099
 20
221.6179370775413
 30
0.0
 11
85.34597124497111
 21
221.6179370775413
 31
0.0
  0
LINE
  5
A4B
330
1F
100
AcDbEntity
  8
下側
100
AcDbLine
 10
66.84597124497077
 20
221.6179370775413
 30
0.0
 11
67.34597124497089
 21
221.6179370775413
 31
0.0
  0
ARC
  5
A4C
330
1F
100
AcDbEntity
  8
下側
100
AcDbCircle
 10
67.34597124497089
 20
220.1179370775413
 30
0.0
 40
1.5
100
AcDbArc
 50
0.0
 51
90.0
1001
GENIUS_GENODEF_13
1002
{
1000
HIER
1070
     0
1002
}
1002
{
1000
MANEDIT
1070
     0
1002
}
1002
{
1000
NOSEL
1070
     0
1002
}
1002
{
1000
BEHIND
1070
     0
1002
}
1002
{
1000
OTHER
1070
     0
1002
}
1002
{
1000
REACTOR
1002
}
1001
GENIUS_GENOBJ-N-FIL_13
1002
{
1000
OWNER
1000
GEN
1002
}
  0
ARC
  5
A4D
330
1F
100
AcDbEntity
  8
下側
100
AcDbCircle
 10
62.34597124497077
 20
220.1179370775413
 30
0.0
 40
1.5
100
AcDbArc
 50
90.0
 51
180.0
1001
GENIUS_GENODEF_13
1002
{
1000
HIER
1070
     0
1002
}
1002
{
1000
MANEDIT
1070
     0
1002
}
1002
{
1000
NOSEL
1070
     0
1002
}
1002
{
1000
BEHIND
1070
     0
1002
}
1002
{
1000
OTHER
1070
     0
1002
}
1002
{
1000
REACTOR
1002
}
1001
GENIUS_GENOBJ-N-FIL_13
1002
{
1000
OWNER
1000
GEN
1002
}
  0
LINE
  5
A4E
330
1F
100
AcDbEntity
  8
下側
100
AcDbLine
 10
62.84597124497077
 20
223.1179370775413
 30
0.0
 11
62.84597124497077
 21
221.6179370775413
 31
0.0
  0
LINE
  5
A4F
330
1F
100
AcDbEntity
  8
下側
100
AcDbLine
 10
66.84597124497077
 20
221.6179370775413
 30
0.0
 11
66.84597124497077
 21
223.1179370775413
 31
0.0
  0
LINE
  5
A50
330
1F
100
AcDbEntity
  8
下側
100
AcDbLine
 10
62.34597124497077
 20
221.6179370775413
 30
0.0
 11
62.84597124497065
 21
221.6179370775412
 31
0.0
  0
LINE
  5
A51
330
1F
100
AcDbEntity
  8
下側
100
AcDbLine
 10
68.84597124497088
 20
220.1179370775413
 30
0.0
 11
68.84597124497088
 21
198.1179370775413
 31
0.0
  0
LINE
  5
A52
330
1F
100
AcDbEntity
  8
下側
100
AcDbLine
 10
60.84597124497077
 20
220.1179370775413
 30
0.0
 11
60.84597124497077
 21
198.1179370775413
 31
0.0
  0
LINE
  5
A53
330
1F
100
AcDbEntity
  8
下側
100
AcDbLine
 10
68.84597124497088
 20
176.1179370775411
 30
0.0
 11
68.84597124497088
 21
198.1179370775413
 31
0.0
  0
LINE
  5
A54
330
1F
100
AcDbEntity
  8
下側
100
AcDbLine
 10
60.84597124497077
 20
176.1179370775413
 30
0.0
 11
60.84597124497077
 21
198.1179370775413
 31
0.0
  0
LINE
  5
A55
330
1F
100
AcDbEntity
  8
下側
100
AcDbLine
 10
66.84597124497077
 20
174.6179370775412
 30
0.0
 11
67.34597124497089
 21
174.6179370775412
 31
0.0
  0
LINE
  5
A56
330
1F
100
AcDbEntity
  8
下側
100
AcDbLine
 10
62.34597124497077
 20
174.6179370775413
 30
0.0
 11
62.84597124497065
 21
174.6179370775412
 31
0.0
  0
LINE
  5
A57
330
1F
100
AcDbEntity
  8
下側
100
AcDbLine
 10
66.84597124497077
 20
174.6179370775413
 30
0.0
 11
66.84597124497077
 21
173.1179370775413
 31
0.0
  0
LINE
  5
A58
330
1F
100
AcDbEntity
  8
下側
100
AcDbLine
 10
62.84597124497077
 20
173.1179370775413
 30
0.0
 11
62.84597124497077
 21
174.6179370775413
 31
0.0
  0
ARC
  5
A59
330
1F
100
AcDbEntity
  8
下側
100
AcDbCircle
 10
62.34597124497077
 20
176.1179370775413
 30
0.0
 40
1.5
100
AcDbArc
 50
180.0
 51
270.0
1001
GENIUS_GENODEF_13
1002
{
1000
HIER
1070
     0
1002
}
1002
{
1000
MANEDIT
1070
     0
1002
}
1002
{
1000
NOSEL
1070
     0
1002
}
1002
{
1000
BEHIND
1070
     0
1002
}
1002
{
1000
OTHER
1070
     0
1002
}
1002
{
1000
REACTOR
1002
}
1001
GENIUS_GENOBJ-N-FIL_13
1002
{
1000
OWNER
1000
GEN
1002
}
  0
ARC
  5
A5A
330
1F
100
AcDbEntity
  8
下側
100
AcDbCircle
 10
67.34597124497089
 20
176.1179370775411
 30
0.0
 40
1.5
100
AcDbArc
 50
270.0
 51
0.0
1001
GENIUS_GENODEF_13
1002
{
1000
HIER
1070
     0
1002
}
1002
{
1000
MANEDIT
1070
     0
1002
}
1002
{
1000
NOSEL
1070
     0
1002
}
1002
{
1000
BEHIND
1070
     0
1002
}
1002
{
1000
OTHER
1070
     0
1002
}
1002
{
1000
REACTOR
1002
}
1001
GENIUS_GENOBJ-N-FIL_13
1002
{
1000
OWNER
1000
GEN
1002
}
  0
ARC
  5
A5B
330
1F
100
AcDbEntity
  8
下側
100
AcDbCircle
 10
58.34597124497077
 20
176.1179370775411
 30
0.0
 40
1.5
100
AcDbArc
 50
270.0
 51
0.0
1001
GENIUS_GENODEF_13
1002
{
1000
HIER
1070
     0
1002
}
1002
{
1000
MANEDIT
1070
     0
1002
}
1002
{
1000
NOSEL
1070
     0
1002
}
1002
{
1000
BEHIND
1070
     0
1002
}
1002
{
1000
OTHER
1070
     0
1002
}
1002
{
1000
REACTOR
1002
}
1001
GENIUS_GENOBJ-N-FIL_13
1002
{
1000
OWNER
1000
GEN
1002
}
  0
ARC
  5
A5C
330
1F
100
AcDbEntity
  8
下側
100
AcDbCircle
 10
53.34597124497065
 20
176.1179370775413
 30
0.0
 40
1.5
100
AcDbArc
 50
180.0
 51
270.0
1001
GENIUS_GENODEF_13
1002
{
1000
HIER
1070
     0
1002
}
1002
{
1000
MANEDIT
1070
     0
1002
}
1002
{
1000
NOSEL
1070
     0
1002
}
1002
{
1000
BEHIND
1070
     0
1002
}
1002
{
1000
OTHER
1070
     0
1002
}
1002
{
1000
REACTOR
1002
}
1001
GENIUS_GENOBJ-N-FIL_13
1002
{
1000
OWNER
1000
GEN
1002
}
  0
LINE
  5
A5D
330
1F
100
AcDbEntity
  8
下側
100
AcDbLine
 10
53.84597124497066
 20
173.1179370775413
 30
0.0
 11
53.84597124497066
 21
174.6179370775413
 31
0.0
  0
LINE
  5
A5E
330
1F
100
AcDbEntity
  8
下側
100
AcDbLine
 10
57.84597124497065
 20
174.6179370775413
 30
0.0
 11
57.84597124497065
 21
173.1179370775413
 31
0.0
  0
LINE
  5
A5F
330
1F
100
AcDbEntity
  8
下側
100
AcDbLine
 10
53.34597124497065
 20
174.6179370775413
 30
0.0
 11
53.84597124497054
 21
174.6179370775412
 31
0.0
  0
LINE
  5
A60
330
1F
100
AcDbEntity
  8
下側
100
AcDbLine
 10
57.84597124497065
 20
174.6179370775412
 30
0.0
 11
58.34597124497077
 21
174.6179370775412
 31
0.0
  0
LINE
  5
A61
330
1F
100
AcDbEntity
  8
下側
100
AcDbLine
 10
51.84597124497066
 20
176.1179370775413
 30
0.0
 11
51.84597124497066
 21
198.1179370775413
 31
0.0
  0
LINE
  5
A62
330
1F
100
AcDbEntity
  8
下側
100
AcDbLine
 10
59.84597124497077
 20
176.1179370775411
 30
0.0
 11
59.84597124497077
 21
198.1179370775413
 31
0.0
  0
LINE
  5
A63
330
1F
100
AcDbEntity
  8
下側
100
AcDbLine
 10
51.84597124497066
 20
220.1179370775413
 30
0.0
 11
51.84597124497066
 21
198.1179370775413
 31
0.0
  0
LINE
  5
A64
330
1F
100
AcDbEntity
  8
下側
100
AcDbLine
 10
59.84597124497077
 20
220.1179370775413
 30
0.0
 11
59.84597124497077
 21
198.1179370775413
 31
0.0
  0
LINE
  5
A65
330
1F
100
AcDbEntity
  8
下側
100
AcDbLine
 10
53.34597124497065
 20
221.6179370775413
 30
0.0
 11
53.84597124497054
 21
221.6179370775412
 31
0.0
  0
LINE
  5
A66
330
1F
100
AcDbEntity
  8
下側
100
AcDbLine
 10
57.84597124497065
 20
221.6179370775413
 30
0.0
 11
57.84597124497065
 21
223.1179370775413
 31
0.0
  0
LINE
  5
A67
330
1F
100
AcDbEntity
  8
下側
100
AcDbLine
 10
53.84597124497066
 20
223.1179370775413
 30
0.0
 11
53.84597124497066
 21
221.6179370775413
 31
0.0
  0
ARC
  5
A68
330
1F
100
AcDbEntity
  8
下側
100
AcDbCircle
 10
53.34597124497065
 20
220.1179370775413
 30
0.0
 40
1.5
100
AcDbArc
 50
90.0
 51
180.0
1001
GENIUS_GENODEF_13
1002
{
1000
HIER
1070
     0
1002
}
1002
{
1000
MANEDIT
1070
     0
1002
}
1002
{
1000
NOSEL
1070
     0
1002
}
1002
{
1000
BEHIND
1070
     0
1002
}
1002
{
1000
OTHER
1070
     0
1002
}
1002
{
1000
REACTOR
1002
}
1001
GENIUS_GENOBJ-N-FIL_13
1002
{
1000
OWNER
1000
GEN
1002
}
  0
ARC
  5
A69
330
1F
100
AcDbEntity
  8
下側
100
AcDbCircle
 10
58.34597124497077
 20
220.1179370775413
 30
0.0
 40
1.5
100
AcDbArc
 50
0.0
 51
90.0
1001
GENIUS_GENODEF_13
1002
{
1000
HIER
1070
     0
1002
}
1002
{
1000
MANEDIT
1070
     0
1002
}
1002
{
1000
NOSEL
1070
     0
1002
}
1002
{
1000
BEHIND
1070
     0
1002
}
1002
{
1000
OTHER
1070
     0
1002
}
1002
{
1000
REACTOR
1002
}
1001
GENIUS_GENOBJ-N-FIL_13
1002
{
1000
OWNER
1000
GEN
1002
}
  0
LINE
  5
A6A
330
1F
100
AcDbEntity
  8
下側
100
AcDbLine
 10
57.84597124497065
 20
221.6179370775413
 30
0.0
 11
58.34597124497077
 21
221.6179370775413
 31
0.0
  0
CIRCLE
  5
A6B
330
1F
100
AcDbEntity
  8
下側
100
AcDbCircle
 10
81.59597124497054
 20
163.4179370775412
 30
0.0
 40
1.5
  0
LINE
  5
A6C
330
1F
100
AcDbEntity
  8
下側
100
AcDbLine
 10
42.59597124497076
 20
234.4179370775415
 30
0.0
 11
42.59597124497065
 21
169.4179370775413
 31
0.0
  0
LINE
  5
A6D
330
1F
100
AcDbEntity
  8
下側
100
AcDbLine
 10
89.59597124497078
 20
235.4179370775408
 30
0.0
 11
43.59597124497077
 21
235.4179370775415
 31
0.0
  0
LINE
  5
A6E
330
1F
100
AcDbEntity
  8
下側
100
AcDbLine
 10
47.59597124497065
 20
234.4179370775413
 30
0.0
 11
47.59597124497088
 21
230.0179370775414
 31
0.0
  0
ARC
  5
A6F
102
{ACAD_REACTORS
330
17A1
102
}
330
1F
100
AcDbEntity
  8
下側
100
AcDbCircle
 10
43.59597124497077
 20
234.4179370775415
 30
0.0
 40
1.0
100
AcDbArc
 50
90.0
 51
180.0
1001
GENIUS_GENODEF_13
1002
{
1000
HIER
1070
     0
1002
}
1002
{
1000
MANEDIT
1070
     0
1002
}
1002
{
1000
NOSEL
1070
     0
1002
}
1002
{
1000
BEHIND
1070
     0
1002
}
1002
{
1000
OTHER
1070
     0
1002
}
1002
{
1000
REACTOR
1002
}
1001
GENIUS_GENOBJ-N-FIL_13
1002
{
1000
OWNER
1000
GEN
1002
}
  0
ARC
  5
A70
330
1F
100
AcDbEntity
  8
下側
100
AcDbCircle
 10
46.59597124497065
 20
234.4179370775413
 30
0.0
 40
1.0
100
AcDbArc
 50
0.0
 51
90.0
1001
GENIUS_GENOBJ-N-FIL_13
1002
{
1000
OWNER
1000
GEN
1002
}
1001
GENIUS_GENODEF_13
1002
{
1000
HIER
1070
     0
1002
}
1002
{
1000
MANEDIT
1070
     0
1002
}
1002
{
1000
NOSEL
1070
     0
1002
}
1002
{
1000
BEHIND
1070
     0
1002
}
1002
{
1000
OTHER
1070
     0
1002
}
1002
{
1000
REACTOR
1002
}
  0
LINE
  5
A71
330
1F
100
AcDbEntity
  8
下側
100
AcDbLine
 10
46.59597124497088
 20
229.0179370775414
 30
0.0
 11
43.59597124497065
 21
229.0179370775414
 31
0.0
  0
ARC
  5
A72
330
1F
100
AcDbEntity
  8
下側
100
AcDbCircle
 10
46.59597124497088
 20
230.0179370775414
 30
0.0
 40
1.0
100
AcDbArc
 50
270.0
 51
0.0000000000016284
1001
GENIUS_GENOBJ-N-FIL_13
1002
{
1000
OWNER
1000
GEN
1002
}
1001
GENIUS_GENODEF_13
1002
{
1000
HIER
1070
     0
1002
}
1002
{
1000
MANEDIT
1070
     0
1002
}
1002
{
1000
NOSEL
1070
     0
1002
}
1002
{
1000
BEHIND
1070
     0
1002
}
1002
{
1000
OTHER
1070
     0
1002
}
1002
{
1000
REACTOR
1002
}
  0
ARC
  5
A73
330
1F
100
AcDbEntity
  8
下側
100
AcDbCircle
 10
43.59597124497065
 20
230.0179370775414
 30
0.0
 40
1.0
100
AcDbArc
 50
180.0
 51
270.0
1001
GENIUS_GENODEF_13
1002
{
1000
HIER
1070
     0
1002
}
1002
{
1000
MANEDIT
1070
     0
1002
}
1002
{
1000
NOSEL
1070
     0
1002
}
1002
{
1000
BEHIND
1070
     0
1002
}
1002
{
1000
OTHER
1070
     0
1002
}
1002
{
1000
REACTOR
1002
}
1001
GENIUS_GENOBJ-N-FIL_13
1002
{
1000
OWNER
1000
GEN
1002
}
  0
ARC
  5
A74
330
1F
100
AcDbEntity
  8
上側
100
AcDbCircle
 10
126.5959712449705
 20
169.4179370775412
 30
0.0
 40
10.0
100
AcDbArc
 50
270.0
 51
0.0
1001
GENIUS_GENOBJ-N-FIL_13
1002
{
1000
OWNER
1000
GEN
1002
}
1001
GENIUS_GENODEF_13
1002
{
1000
HIER
1070
     0
1002
}
1002
{
1000
MANEDIT
1070
     0
1002
}
1002
{
1000
NOSEL
1070
     0
1002
}
1002
{
1000
BEHIND
1070
     0
1002
}
1002
{
1000
OTHER
1070
     0
1002
}
1002
{
1000
REACTOR
1002
}
  0
LINE
  5
A75
330
1F
100
AcDbEntity
  8
上側
100
AcDbLine
 10
89.59597124497042
 20
159.4179370775412
 30
0.0
 11
103.8459712449704
 21
159.4179370775412
 31
0.0
  0
LINE
  5
A76
330
1F
100
AcDbEntity
  8
上側
100
AcDbLine
 10
130.5959712449705
 20
228.9179370775412
 30
0.0
 11
136.5959712449706
 21
228.9179370775412
 31
0.0
  0
LINE
  5
A77
330
1F
100
AcDbEntity
  8
上側
100
AcDbLine
 10
130.5959712449705
 20
234.0179370775413
 30
0.0
 11
122.0959712449705
 21
234.0179370775413
 31
0.0
  0
LINE
  5
A78
330
1F
100
AcDbEntity
  8
上側
100
AcDbLine
 10
130.5959712449705
 20
234.0179370775413
 30
0.0
 11
130.5959712449705
 21
228.9179370775412
 31
0.0
  0
LINE
  5
A79
330
1F
100
AcDbEntity
  8
上側
100
AcDbLine
 10
136.5959712449705
 20
228.9179370775412
 30
0.0
 11
136.5959712449705
 21
169.4179370775412
 31
0.0
  0
ARC
  5
A7A
330
1F
100
AcDbEntity
  8
下側
100
AcDbCircle
 10
135.5959712449706
 20
230.0179370775413
 30
0.0
 40
1.0
100
AcDbArc
 50
270.0
 51
0.0
1001
GENIUS_GENODEF_13
1002
{
1000
HIER
1070
     0
1002
}
1002
{
1000
MANEDIT
1070
     0
1002
}
1002
{
1000
NOSEL
1070
     0
1002
}
1002
{
1000
BEHIND
1070
     0
1002
}
1002
{
1000
OTHER
1070
     0
1002
}
1002
{
1000
REACTOR
1002
}
1001
GENIUS_GENOBJ-N-FIL_13
1002
{
1000
OWNER
1000
GEN
1002
}
  0
ARC
  5
A7B
330
1F
100
AcDbEntity
  8
下側
100
AcDbCircle
 10
132.5959712449704
 20
230.0179370775413
 30
0.0
 40
1.0
100
AcDbArc
 50
179.9999999999984
 51
270.0
1001
GENIUS_GENOBJ-N-FIL_13
1002
{
1000
OWNER
1000
GEN
1002
}
1001
GENIUS_GENODEF_13
1002
{
1000
HIER
1070
     0
1002
}
1002
{
1000
MANEDIT
1070
     0
1002
}
1002
{
1000
NOSEL
1070
     0
1002
}
1002
{
1000
BEHIND
1070
     0
1002
}
1002
{
1000
OTHER
1070
     0
1002
}
1002
{
1000
REACTOR
1002
}
  0
LINE
  5
A7C
330
1F
100
AcDbEntity
  8
下側
100
AcDbLine
 10
132.5959712449704
 20
229.0179370775413
 30
0.0
 11
135.5959712449706
 21
229.0179370775413
 31
0.0
  0
ARC
  5
A7D
330
1F
100
AcDbEntity
  8
下側
100
AcDbCircle
 10
132.5959712449706
 20
234.4179370775413
 30
0.0
 40
1.0
100
AcDbArc
 50
90.0
 51
180.0
1001
GENIUS_GENOBJ-N-FIL_13
1002
{
1000
OWNER
1000
GEN
1002
}
1001
GENIUS_GENODEF_13
1002
{
1000
HIER
1070
     0
1002
}
1002
{
1000
MANEDIT
1070
     0
1002
}
1002
{
1000
NOSEL
1070
     0
1002
}
1002
{
1000
BEHIND
1070
     0
1002
}
1002
{
1000
OTHER
1070
     0
1002
}
1002
{
1000
REACTOR
1002
}
  0
ARC
  5
A7E
102
{ACAD_REACTORS
330
17A1
102
}
330
1F
100
AcDbEntity
  8
下側
100
AcDbCircle
 10
135.5959712449706
 20
234.4179370775413
 30
0.0
 40
1.0
100
AcDbArc
 50
0.0
 51
90.0
1001
GENIUS_GENODEF_13
1002
{
1000
HIER
1070
     0
1002
}
1002
{
1000
MANEDIT
1070
     0
1002
}
1002
{
1000
NOSEL
1070
     0
1002
}
1002
{
1000
BEHIND
1070
     0
1002
}
1002
{
1000
OTHER
1070
     0
1002
}
1002
{
1000
REACTOR
1002
}
1001
GENIUS_GENOBJ-N-FIL_13
1002
{
1000
OWNER
1000
GEN
1002
}
  0
LINE
  5
A7F
330
1F
100
AcDbEntity
  8
下側
100
AcDbLine
 10
131.5959712449706
 20
234.4179370775413
 30
0.0
 11
131.5959712449704
 21
230.0179370775413
 31
0.0
  0
LINE
  5
A80
330
1F
100
AcDbEntity
  8
下側
100
AcDbLine
 10
100.7959712449705
 20
165.8179370775412
 30
0.0
 11
100.7959712449705
 21
162.0179370775412
 31
0.0
  0
LINE
  5
A81
330
1F
100
AcDbEntity
  8
下側
100
AcDbLine
 10
94.3959712449706
 20
162.0179370775412
 30
0.0
 11
100.7959712449705
 21
162.0179370775412
 31
0.0
  0
LINE
  5
A82
330
1F
100
AcDbEntity
  8
下側
100
AcDbLine
 10
94.3959712449706
 20
162.0179370775412
 30
0.0
 11
94.3959712449706
 21
165.8179370775412
 31
0.0
  0
LINE
  5
A83
330
1F
100
AcDbEntity
  8
下側
100
AcDbLine
 10
94.3959712449706
 20
165.8179370775412
 30
0.0
 11
100.7959712449705
 21
165.8179370775412
 31
0.0
  0
LINE
  5
A84
330
1F
100
AcDbEntity
  8
AM_7
100
AcDbLine
 10
89.59597124497065
 20
238.4179370775413
 30
0.0
 11
89.59597124497042
 21
156.4179370775412
 31
0.0
1001
GENIUS_GENOBJ-N-CEN_13
1002
{
1000
OWNER
1000
GEN
1002
}
1001
GENIUS_GENODEF_13
1002
{
1000
HIER
1070
     0
1002
}
1002
{
1000
MANEDIT
1070
     0
1002
}
1002
{
1000
NOSEL
1070
     0
1002
}
1002
{
1000
BEHIND
1070
     0
1002
}
1002
{
1000
OTHER
1070
     0
1002
}
1002
{
1000
REACTOR
1002
}
  0
LINE
  5
A85
330
1F
100
AcDbEntity
  8
下側
100
AcDbLine
 10
104.3459712449706
 20
165.9179370775412
 30
0.0
 11
105.3964815021875
 21
165.9179370775412
 31
0.0
  0
LINE
  5
A86
330
1F
100
AcDbEntity
  8
下側
100
AcDbLine
 10
104.3459712449706
 20
165.9179370775412
 30
0.0
 11
104.3459712449706
 21
160.9179370775412
 31
0.0
  0
LINE
  5
A87
330
1F
100
AcDbEntity
  8
下側
100
AcDbLine
 10
74.84597124497065
 20
160.9179370775412
 30
0.0
 11
64.34597124497066
 21
160.9179370775412
 31
0.0
  0
LINE
  5
A88
330
1F
100
AcDbEntity
  8
下側
100
AcDbLine
 10
74.84597124497065
 20
165.9179370775412
 30
0.0
 11
74.84597124497065
 21
160.9179370775412
 31
0.0
  0
LINE
  5
A89
330
1F
100
AcDbEntity
  8
下側
100
AcDbLine
 10
64.34597124497066
 20
165.9179370775412
 30
0.0
 11
74.84597124497065
 21
165.9179370775412
 31
0.0
  0
LINE
  5
A8A
330
1F
100
AcDbEntity
  8
下側
100
AcDbLine
 10
104.3459712449706
 20
160.9179370775412
 30
0.0
 11
105.3964815021875
 21
160.9179370775412
 31
0.0
  0
LINE
  5
A8B
330
1F
100
AcDbEntity
  8
下側
100
AcDbLine
 10
64.34597124497066
 20
165.9179370775412
 30
0.0
 11
64.34597124497066
 21
160.9179370775412
 31
0.0
  0
LINE
  5
A8C
330
1F
100
AcDbEntity
  8
下側
100
AcDbLine
 10
89.59597124497065
 20
167.3179370775412
 30
0.0
 11
52.5459712449707
 21
167.3179370775412
 31
0.0
  0
ARC
  5
A8D
330
1F
100
AcDbEntity
  8
下側
100
AcDbCircle
 10
52.5459712449707
 20
175.3179370775412
 30
0.0
 40
8.0
100
AcDbArc
 50
180.0
 51
270.0
1001
GENIUS_GENODEF_13
1002
{
1000
HIER
1070
     0
1002
}
1002
{
1000
MANEDIT
1070
     0
1002
}
1002
{
1000
NOSEL
1070
     0
1002
}
1002
{
1000
BEHIND
1070
     0
1002
}
1002
{
1000
OTHER
1070
     0
1002
}
1002
{
1000
REACTOR
1002
}
1001
GENIUS_GENOBJ-N-FIL_13
1002
{
1000
OWNER
1000
GEN
1002
}
  0
LINE
  5
A8E
330
1F
100
AcDbEntity
  8
下側
100
AcDbLine
 10
48.34597124497065
 20
175.3179370775412
 30
0.0
 11
48.34597124497065
 21
198.1179370775413
 31
0.0
  0
ARC
  5
A8F
330
1F
100
AcDbEntity
  8
下側
100
AcDbCircle
 10
52.5459712449707
 20
175.3179370775412
 30
0.0
 40
4.2
100
AcDbArc
 50
180.0
 51
270.0
1001
GENIUS_GENODEF_13
1002
{
1000
HIER
1070
     0
1002
}
1002
{
1000
MANEDIT
1070
     0
1002
}
1002
{
1000
NOSEL
1070
     0
1002
}
1002
{
1000
BEHIND
1070
     0
1002
}
1002
{
1000
OTHER
1070
     0
1002
}
1002
{
1000
REACTOR
1002
}
1001
GENIUS_GENOBJ-N-FIL_13
1002
{
1000
OWNER
1000
GEN
1002
}
  0
LINE
  5
A90
330
1F
100
AcDbEntity
  8
下側
100
AcDbLine
 10
89.59597124497065
 20
171.1179370775413
 30
0.0
 11
52.5459712449707
 21
171.1179370775413
 31
0.0
  0
LINE
  5
A91
330
1F
100
AcDbEntity
  8
下側
100
AcDbLine
 10
50.34597124497065
 20
175.3179370775412
 30
0.0
 11
50.34597124497065
 21
198.1179370775413
 31
0.0
  0
ARC
  5
A92
330
1F
100
AcDbEntity
  8
下側
100
AcDbCircle
 10
52.5459712449707
 20
175.3179370775412
 30
0.0
 40
2.2
100
AcDbArc
 50
180.0
 51
270.0
1001
GENIUS_GENODEF_13
1002
{
1000
HIER
1070
     0
1002
}
1002
{
1000
MANEDIT
1070
     0
1002
}
1002
{
1000
NOSEL
1070
     0
1002
}
1002
{
1000
BEHIND
1070
     0
1002
}
1002
{
1000
OTHER
1070
     0
1002
}
1002
{
1000
REACTOR
1002
}
1001
GENIUS_GENOBJ-N-FIL_13
1002
{
1000
OWNER
1000
GEN
1002
}
  0
LINE
  5
A93
102
{ACAD_REACTORS
330
E85
102
}
330
1F
100
AcDbEntity
  8
下側
100
AcDbLine
 10
89.59597124497065
 20
173.1179370775413
 30
0.0
 11
52.5459712449707
 21
173.1179370775413
 31
0.0
  0
LINE
  5
A94
330
1F
100
AcDbEntity
  8
下側
100
AcDbLine
 10
44.5459712449707
 20
175.3179370775412
 30
0.0
 11
44.5459712449707
 21
198.1179370775413
 31
0.0
  0
LINE
  5
A95
330
1F
100
AcDbEntity
  8
下側
100
AcDbLine
 10
44.5459712449707
 20
220.9179370775412
 30
0.0
 11
44.5459712449707
 21
198.1179370775411
 31
0.0
  0
LINE
  5
A96
330
1F
100
AcDbEntity
  8
下側
100
AcDbLine
 10
89.59597124497065
 20
223.1179370775412
 30
0.0
 11
52.5459712449707
 21
223.1179370775412
 31
0.0
  0
ARC
  5
A97
102
{ACAD_REACTORS
330
E85
102
}
330
1F
100
AcDbEntity
  8
下側
100
AcDbCircle
 10
52.5459712449707
 20
220.9179370775412
 30
0.0
 40
2.2
100
AcDbArc
 50
90.0
 51
180.0
1001
GENIUS_GENODEF_13
1002
{
1000
HIER
1070
     0
1002
}
1002
{
1000
MANEDIT
1070
     0
1002
}
1002
{
1000
NOSEL
1070
     0
1002
}
1002
{
1000
BEHIND
1070
     0
1002
}
1002
{
1000
OTHER
1070
     0
1002
}
1002
{
1000
REACTOR
1002
}
1001
GENIUS_GENOBJ-N-FIL_13
1002
{
1000
OWNER
1000
GEN
1002
}
  0
LINE
  5
A98
330
1F
100
AcDbEntity
  8
下側
100
AcDbLine
 10
50.34597124497065
 20
220.9179370775412
 30
0.0
 11
50.34597124497065
 21
198.1179370775411
 31
0.0
  0
LINE
  5
A99
330
1F
100
AcDbEntity
  8
下側
100
AcDbLine
 10
89.59597124497065
 20
225.1179370775412
 30
0.0
 11
52.5459712449707
 21
225.1179370775412
 31
0.0
  0
ARC
  5
A9A
330
1F
100
AcDbEntity
  8
下側
100
AcDbCircle
 10
52.5459712449707
 20
220.9179370775412
 30
0.0
 40
4.2
100
AcDbArc
 50
90.0
 51
180.0
1001
GENIUS_GENODEF_13
1002
{
1000
HIER
1070
     0
1002
}
1002
{
1000
MANEDIT
1070
     0
1002
}
1002
{
1000
NOSEL
1070
     0
1002
}
1002
{
1000
BEHIND
1070
     0
1002
}
1002
{
1000
OTHER
1070
     0
1002
}
1002
{
1000
REACTOR
1002
}
1001
GENIUS_GENOBJ-N-FIL_13
1002
{
1000
OWNER
1000
GEN
1002
}
  0
LINE
  5
A9B
330
1F
100
AcDbEntity
  8
下側
100
AcDbLine
 10
48.34597124497065
 20
220.9179370775412
 30
0.0
 11
48.34597124497065
 21
198.1179370775411
 31
0.0
  0
ARC
  5
A9C
330
1F
100
AcDbEntity
  8
下側
100
AcDbCircle
 10
52.5459712449707
 20
220.9179370775412
 30
0.0
 40
8.0
100
AcDbArc
 50
90.0
 51
180.0
1001
GENIUS_GENODEF_13
1002
{
1000
HIER
1070
     0
1002
}
1002
{
1000
MANEDIT
1070
     0
1002
}
1002
{
1000
NOSEL
1070
     0
1002
}
1002
{
1000
BEHIND
1070
     0
1002
}
1002
{
1000
OTHER
1070
     0
1002
}
1002
{
1000
REACTOR
1002
}
1001
GENIUS_GENOBJ-N-FIL_13
1002
{
1000
OWNER
1000
GEN
1002
}
  0
LINE
  5
A9D
330
1F
100
AcDbEntity
  8
下側
100
AcDbLine
 10
89.59597124497065
 20
228.9179370775412
 30
0.0
 11
52.5459712449707
 21
228.9179370775412
 31
0.0
  0
ARC
  5
A9E
330
1F
100
AcDbEntity
  8
下側
100
AcDbCircle
 10
52.59597124497066
 20
169.4179370775412
 30
0.0
 40
10.0
100
AcDbArc
 50
180.0
 51
270.0
1001
GENIUS_GENOBJ-N-FIL_13
1002
{
1000
OWNER
1000
GEN
1002
}
1001
GENIUS_GENODEF_13
1002
{
1000
HIER
1070
     0
1002
}
1002
{
1000
MANEDIT
1070
     0
1002
}
1002
{
1000
NOSEL
1070
     0
1002
}
1002
{
1000
BEHIND
1070
     0
1002
}
1002
{
1000
OTHER
1070
     0
1002
}
1002
{
1000
REACTOR
1002
}
  0
LINE
  5
A9F
330
1F
100
AcDbEntity
  8
下側
100
AcDbLine
 10
89.59597124497065
 20
235.4179370775408
 30
0.0
 11
135.5959712449706
 21
235.4179370775412
 31
0.0
  0
LINE
  5
AA0
330
1F
100
AcDbEntity
  8
下側
100
AcDbLine
 10
136.5959712449706
 20
234.4179370775413
 30
0.0
 11
136.5959712449704
 21
228.9179370775412
 31
0.0
  0
LINE
  5
AA1
102
{ACAD_REACTORS
330
1827
102
}
330
1F
100
AcDbEntity
  8
下側
100
AcDbLine
 10
89.59597124497031
 20
159.4179370775412
 30
0.0
 11
52.59597124497066
 21
159.4179370775412
 31
0.0
  0
LINE
  5
AA2
330
1F
100
AcDbEntity
  8
下側
100
AcDbLine
 10
94.72481739881676
 20
64.31761129463581
 30
0.0
 11
95.19353174562651
 21
70.73159709308566
 31
0.0
  0
LINE
  5
AA3
330
1F
100
AcDbEntity
  8
下側
100
AcDbLine
 10
96.12855058710625
 20
64.31761129463581
 30
0.0
 11
96.58980848564453
 21
70.62956148516121
 31
0.0
  0
LINE
  5
AA4
330
1F
100
AcDbEntity
  8
下側
100
AcDbLine
 10
99.31916113360433
 20
60.81761129463586
 30
0.0
 11
99.3922380566811
 21
59.81761129463581
 31
0.0
  0
LINE
  5
AA5
330
1F
100
AcDbEntity
  8
下側
100
AcDbLine
 10
100.7228943218934
 20
60.81761129463581
 30
0.0
 11
100.7959712449705
 21
59.81761129463581
 31
0.0
  0
POINT
  5
AA6
330
1F
100
AcDbEntity
  8
0
 60
     1
100
AcDbPoint
 10
524.8688528195819
 20
-134.6546093012089
 30
0.0
1001
GENIUS_GENOLIS_13
1002
{
1000
ENT
1005
997
1005
996
1005
995
1005
994
1002
}
1001
GENIUS_GENOENT_13
1002
{
1000
MYREF
1005
AA6
1002
}
1002
{
1000
GRP
1005
0
1002
}
1001
GENIUS_GENOBJ-N-CRS_13
1002
{
1000
OWNER
1000
GEN
1002
}
1001
GENIUS_GENODEF_13
1002
{
1000
HIER
1070
    10
1002
}
1002
{
1000
MANEDIT
1070
     0
1002
}
1002
{
1000
NOSEL
1070
     0
1002
}
1002
{
1000
BEHIND
1070
     0
1002
}
1002
{
1000
OTHER
1070
     0
1002
}
1002
{
1000
REACTOR
1002
}
  0
POINT
  5
AA7
330
1F
100
AcDbEntity
  8
0
 60
     1
100
AcDbPoint
 10
454.8688528195819
 20
-134.6546093012089
 30
0.0
1001
GENIUS_GENOLIS_13
1002
{
1000
ENT
1005
99C
1005
99B
1005
99A
1005
999
1002
}
1001
GENIUS_GENOENT_13
1002
{
1000
MYREF
1005
AA7
1002
}
1002
{
1000
GRP
1005
0
1002
}
1001
GENIUS_GENOBJ-N-CRS_13
1002
{
1000
OWNER
1000
GEN
1002
}
1001
GENIUS_GENODEF_13
1002
{
1000
HIER
1070
    10
1002
}
1002
{
1000
MANEDIT
1070
     0
1002
}
1002
{
1000
NOSEL
1070
     0
1002
}
1002
{
1000
BEHIND
1070
     0
1002
}
1002
{
1000
OTHER
1070
     0
1002
}
1002
{
1000
REACTOR
1002
}
  0
POINT
  5
AA8
330
1F
100
AcDbEntity
  8
0
 60
     1
100
AcDbPoint
 10
524.8688528195819
 20
-67.65460930120889
 30
0.0
1001
GENIUS_GENOLIS_13
1002
{
1000
ENT
1005
9A1
1005
9A0
1005
99F
1005
99E
1002
}
1001
GENIUS_GENOENT_13
1002
{
1000
MYREF
1005
AA8
1002
}
1002
{
1000
GRP
1005
0
1002
}
1001
GENIUS_GENOBJ-N-CRS_13
1002
{
1000
OWNER
1000
GEN
1002
}
1001
GENIUS_GENODEF_13
1002
{
1000
HIER
1070
    10
1002
}
1002
{
1000
MANEDIT
1070
     0
1002
}
1002
{
1000
NOSEL
1070
     0
1002
}
1002
{
1000
BEHIND
1070
     0
1002
}
1002
{
1000
OTHER
1070
     0
1002
}
1002
{
1000
REACTOR
1002
}
  0
POINT
  5
AA9
330
1F
100
AcDbEntity
  8
0
 60
     1
100
AcDbPoint
 10
454.8688528195819
 20
-67.65460930120889
 30
0.0
1001
GENIUS_GENOLIS_13
1002
{
1000
ENT
1005
9A6
1005
9A5
1005
9A4
1005
9A3
1002
}
1001
GENIUS_GENOENT_13
1002
{
1000
MYREF
1005
AA9
1002
}
1002
{
1000
GRP
1005
0
1002
}
1001
GENIUS_GENOBJ-N-CRS_13
1002
{
1000
OWNER
1000
GEN
1002
}
1001
GENIUS_GENODEF_13
1002
{
1000
HIER
1070
    10
1002
}
1002
{
1000
MANEDIT
1070
     0
1002
}
1002
{
1000
NOSEL
1070
     0
1002
}
1002
{
1000
BEHIND
1070
     0
1002
}
1002
{
1000
OTHER
1070
     0
1002
}
1002
{
1000
REACTOR
1002
}
  0
INSERT
  5
C06
330
1F
100
AcDbEntity
  8
0
370
     0
100
AcDbBlockReference
  2
TK-A3
 10
0.0
 20
0.0
 30
0.0
1001
GENIUS_GENOREF_13
1005
C70
1001
GENIUS_GENODEF_13
1002
{
1000
HIER
1070
     0
1002
}
1002
{
1000
MANEDIT
1070
     0
1002
}
1002
{
1000
NOSEL
1070
     0
1002
}
1002
{
1000
BEHIND
1070
     0
1002
}
1002
{
1000
OTHER
1070
     0
1002
}
1002
{
1000
REACTOR
1002
}
1001
GENIUS_GENOBJ-N-SDF_13
1002
{
1000
OWNER
1000
GEN
1002
}
1001
GENIUS_GENSCREG_15
1040
1.0
1040
1.0
1011
0.0
1021
0.0
1031
0.0
1011
403.0
1021
280.0000000000001
1031
0.0
1070
     3
  0
INSERT
  5
C65
330
1F
100
AcDbEntity
  8
0
370
     0
100
AcDbBlockReference
 66
     1
  2
TK-TITLE
 10
403.0
 20
0.0
 30
0.0
1001
GENIUS_GENOREF_13
1005
C70
  0
ATTRIB
  5
C67
330
C65
100
AcDbEntity
  8
0
100
AcDbText
 10
394.9976908104542
 20
1.705189434395036
 30
0.0
 40
2.5
  1

100
AcDbAttribute
  2
GEN-TITLE-NR2
 70
     0
  0
ATTRIB
  5
C68
330
C65
100
AcDbEntity
  8
0
100
AcDbText
 10
318.8574809841467
 20
12.82790432564377
 30
0.0
 40
3.5
  1
VMA-4
100
AcDbAttribute
  2
GEN-TITLE-DES1
 70
     0
  0
ATTRIB
  5
C69
330
C65
100
AcDbEntity
  8
0
100
AcDbText
 10
319.0
 20
9.149999999999948
 30
0.0
 40
2.5
  1
VMA型ポリカーボネート開閉式ウィンドウ
100
AcDbAttribute
  2
GEN-TITLE-DES2
 70
     0
  0
ATTRIB
  5
C6A
330
C65
100
AcDbEntity
  8
0
100
AcDbText
 10
319.0
 20
1.999999999999957
 30
0.0
 40
3.0
  1

100
AcDbAttribute
  2
GEN-TITLE-NR1
 70
     0
  0
ATTRIB
  5
C6B
330
C65
100
AcDbEntity
  8
0
100
AcDbText
 10
254.0381324164708
 20
43.29999999999991
 30
0.0
 40
3.0
  1
ポリカーボネート
100
AcDbAttribute
  2
GEN-TITLE-MAT1
 70
     0
  0
ATTRIB
  5
C6C
330
C65
100
AcDbEntity
  8
0
100
AcDbText
 10
254.0381324164708
 20
33.29999999999991
 30
0.0
 40
3.0
  1
透明
100
AcDbAttribute
  2
GEN-TITLE-MAT2
 70
     0
  0
ATTRIB
  5
C6D
330
C65
100
AcDbEntity
  8
0
100
AcDbText
 10
226.3372590873905
 20
16.19999999999994
 30
0.0
 40
3.0
  1
1
 72
     2
 11
227.3872590873905
 21
15.79999999999994
 31
0.0
100
AcDbAttribute
  2
GEN-TITLE-QTY
 70
     0
 74
     1
  0
ATTRIB
  5
C6E
330
C65
100
AcDbEntity
  8
0
100
AcDbText
 10
225.1752603855759
 20
28.69999999999997
 30
0.0
 40
3.0
  1

 72
     2
 11
225.1752603855759
 21
28.29999999999998
 31
0.0
100
AcDbAttribute
  2
GEN-TITLE-SCA
 70
     0
 74
     1
  0
ATTRIB
  5
C6F
330
C65
100
AcDbEntity
  8
0
100
AcDbText
 10
212.3208953849673
 20
3.988342537610664
 30
0.0
 40
3.0
  1
2008/05/07
 72
     1
 11
222.7828048337861
 21
3.588342537610664
 31
0.0
100
AcDbAttribute
  2
GEN-TITLE-DAT
 70
     0
 74
     1
  0
SEQEND
  5
C66
330
C65
100
AcDbEntity
  8
0
370
     0
  0
POINT
  5
C70
330
1F
100
AcDbEntity
  8
0
 60
     1
100
AcDbPoint
 10
0.0
 20
0.0
 30
0.0
1001
GENIUS_GENOENT_13
1002
{
1000
MYREF
1005
C70
1002
}
1002
{
1000
GRP
1005
0
1002
}
1001
GENIUS_GENOBJ-N-TIT_13
1002
{
1000
OWNER
1000
GEN
1002
}
1001
GENIUS_GENODEF_13
1002
{
1000
HIER
1070
     1
1002
}
1002
{
1000
MANEDIT
1070
     0
1002
}
1002
{
1000
NOSEL
1070
     0
1002
}
1002
{
1000
BEHIND
1070
     0
1002
}
1002
{
1000
OTHER
1070
     0
1002
}
1002
{
1000
REACTOR
1002
}
1001
GENIUS_GENOLIS_13
1002
{
1000
ENT
1005
C65
1005
C06
1002
}
1001
GENIUS_GENTITLE_13
1002
{
1000
BORDER
1000
TK-A3
1002
}
1002
{
1000
TITLE
1000
TK-TITLE
1002
}
1002
{
1000
ADDITIONAL1
1000

1002
}
1002
{
1000
ADDITIONAL2
1000

1002
}
1002
{
1000
SCALE
1000
1:1
1002
}
1002
{
1000
TITLESTD
1000
ISO
1002
}
1002
{
1000
HRA
1005
C06
1002
}
1002
{
1000
HTIT
1005
C65
1002
}
1002
{
1000
GENIUSID
1005
C70
1002
}
1002
{
1000
INVTXTID
1005
0
1002
}
1002
{
1000
UNCHG
1002
{
1000
GEN-TITLE-SIZ
1000
GEN-TITLE-SCA
1002
}
1002
}
  0
HATCH
  5
DE6
330
1F
100
AcDbEntity
  8
ｶﾞｽｹｯﾄ
100
AcDbHatch
 10
0.0
 20
0.0
 30
0.0
210
0.0
220
0.0
230
1.0
  2
SOLID
 70
     1
 71
     0
 91
        1
 92
        1
 93
        4
 72
     1
 10
199.5418033335302
 20
224.6179370775413
 11
199.5418033335302
 21
226.5179370775413
 72
     2
 10
197.6418033335302
 20
226.5179370775413
 40
1.899999999999977
 50
0.0
 51
89.99999999999657
 73
     1
 72
     1
 10
197.6418033335303
 20
228.4179370775412
 11
197.6418033335303
 21
224.6179370775413
 72
     1
 10
197.6418033335303
 20
224.6179370775413
 11
199.5418033335302
 21
224.6179370775413
 97
        0
 75
     0
 76
     1
 98
        1
 10
-9.999999999999971
 20
0.0
1001
GENIUS_GENODEF_13
1002
{
1000
HIER
1070
     0
1002
}
1002
{
1000
MANEDIT
1070
     0
1002
}
1002
{
1000
NOSEL
1070
     0
1002
}
1002
{
1000
BEHIND
1070
     0
1002
}
1002
{
1000
OTHER
1070
     0
1002
}
1002
{
1000
REACTOR
1002
}
1001
GENIUS_GENOBJ-N-HTC_13
1002
{
1000
OWNER
1000
GEN
1002
}
1001
GENIUS_GENHATCH_13
1002
{
1000
DATA
1040
45.0
1042
2.5
1000
SOLID
1070
     0
1011
198.4084504862936
1021
226.2995662738541
1031
0.0
1002
}
1002
{
1000
UCS
1010
0.0
1020
0.0
1030
0.0
1010
1.0
1020
0.0
1030
0.0
1010
0.0
1020
1.0
1030
0.0
1002
}
  0
HATCH
  5
DE8
330
1F
100
AcDbEntity
  8
ｶﾞｽｹｯﾄ
100
AcDbHatch
 10
0.0
 20
0.0
 30
0.0
210
0.0
220
0.0
230
1.0
  2
SOLID
 70
     1
 71
     0
 91
        1
 92
        1
 93
        4
 72
     1
 10
199.5418033335302
 20
169.7179370775412
 11
199.5418033335302
 21
171.6179370775413
 72
     1
 10
199.5418033335302
 20
171.6179370775413
 11
197.6418033335303
 21
171.6179370775413
 72
     1
 10
197.6418033335303
 20
171.6179370775413
 11
197.6418033335303
 21
167.8179370775412
 72
     2
 10
197.6418033335302
 20
169.7179370775412
 40
1.900000000000005
 50
270.0000000000034
 51
360.0
 73
     1
 97
        0
 75
     0
 76
     1
 98
        1
 10
-9.999999999999971
 20
0.0
1001
GENIUS_GENODEF_13
1002
{
1000
HIER
1070
     0
1002
}
1002
{
1000
MANEDIT
1070
     0
1002
}
1002
{
1000
NOSEL
1070
     0
1002
}
1002
{
1000
BEHIND
1070
     0
1002
}
1002
{
1000
OTHER
1070
     0
1002
}
1002
{
1000
REACTOR
1002
}
1001
GENIUS_GENOBJ-N-HTC_13
1002
{
1000
OWNER
1000
GEN
1002
}
1001
GENIUS_GENHATCH_13
1002
{
1000
DATA
1040
45.0
1042
2.5
1000
SOLID
1070
     0
1011
198.3754990260203
1021
170.5260270827797
1031
0.0
1002
}
1002
{
1000
UCS
1010
0.0
1020
0.0
1030
0.0
1010
1.0
1020
0.0
1030
0.0
1010
0.0
1020
1.0
1030
0.0
1002
}
  0
HATCH
  5
DEA
330
1F
100
AcDbEntity
  8
ｶﾞｽｹｯﾄ
100
AcDbHatch
 10
0.0
 20
0.0
 30
0.0
210
0.0
220
0.0
230
1.0
  2
SOLID
 70
     1
 71
     0
 91
        1
 92
        1
 93
        4
 72
     1
 10
130.5959712449706
 20
47.91761129463572
 11
132.4959712449707
 21
47.91761129463572
 72
     2
 10
132.4959712449707
 20
49.81761129463571
 40
1.899999999999991
 50
270.0
 51
359.9999999999996
 73
     1
 72
     1
 10
134.3959712449707
 20
49.8176112946357
 11
130.5959712449706
 21
49.8176112946357
 72
     1
 10
130.5959712449706
 20
49.8176112946357
 11
130.5959712449706
 21
47.91761129463572
 97
        0
 75
     0
 76
     1
 98
        1
 10
0.0
 20
-30.20000000000005
1001
GENIUS_GENODEF_13
1002
{
1000
HIER
1070
     0
1002
}
1002
{
1000
MANEDIT
1070
     0
1002
}
1002
{
1000
NOSEL
1070
     0
1002
}
1002
{
1000
BEHIND
1070
     0
1002
}
1002
{
1000
OTHER
1070
     0
1002
}
1002
{
1000
REACTOR
1002
}
1001
GENIUS_GENOBJ-N-HTC_13
1002
{
1000
OWNER
1000
GEN
1002
}
1001
GENIUS_GENHATCH_13
1002
{
1000
DATA
1040
45.0
1042
2.5
1000
SOLID
1070
     0
1011
132.0630896809807
1021
48.89071576819424
1031
0.0
1002
}
1002
{
1000
UCS
1010
0.0
1020
0.0
1030
0.0
1010
1.0
1020
0.0
1030
0.0
1010
0.0
1020
1.0
1030
0.0
1002
}
  0
HATCH
  5
DEE
330
1F
100
AcDbEntity
  8
ｶﾞｽｹｯﾄ
100
AcDbHatch
 10
0.0
 20
0.0
 30
0.0
210
0.0
220
0.0
230
1.0
  2
SOLID
 70
     1
 71
     0
 91
        1
 92
        1
 93
        4
 72
     1
 10
46.69597124497056
 20
47.91761129463568
 11
48.59597124497065
 21
47.91761129463572
 72
     1
 10
48.59597124497065
 20
47.91761129463572
 11
48.59597124497065
 21
49.8176112946357
 72
     1
 10
48.59597124497065
 20
49.8176112946357
 11
44.79597124497057
 21
49.8176112946357
 72
     2
 10
46.69597124497056
 20
49.8176112946357
 40
1.899999999999998
 50
180.0
 51
270.0
 73
     1
 97
        0
 75
     0
 76
     1
 98
        1
 10
0.0
 20
-30.20000000000005
1001
GENIUS_GENODEF_13
1002
{
1000
HIER
1070
     0
1002
}
1002
{
1000
MANEDIT
1070
     0
1002
}
1002
{
1000
NOSEL
1070
     0
1002
}
1002
{
1000
BEHIND
1070
     0
1002
}
1002
{
1000
OTHER
1070
     0
1002
}
1002
{
1000
REACTOR
1002
}
1001
GENIUS_GENOBJ-N-HTC_13
1002
{
1000
OWNER
1000
GEN
1002
}
1001
GENIUS_GENHATCH_13
1002
{
1000
DATA
1040
45.0
1042
2.5
1000
SOLID
1070
     0
1011
46.7735069577534
1021
48.88419277483809
1031
0.0
1002
}
1002
{
1000
UCS
1010
0.0
1020
0.0
1030
0.0
1010
1.0
1020
0.0
1030
0.0
1010
0.0
1020
1.0
1030
0.0
1002
}
  0
DIMENSION
  5
E79
102
{ACAD_XDICTIONARY
360
E84
102
}
102
{ACAD_REACTORS
330
E85
102
}
330
1F
100
AcDbEntity
  8
AM_5
100
AcDbDimension
  2
*D7
 10
30.59597024497064
 20
173.1179370775413
 30
0.0
 11
27.34597024497061
 21
198.1179370775412
 31
0.0
 70
    32
 71
     5
 42
49.99999999999994
  3
AM_ISO$0
100
AcDbAlignedDimension
 13
52.5459712449707
 23
223.1179370775412
 33
0.0
 14
52.5459712449707
 24
173.1179370775413
 34
0.0
 50
90.00000000000003
100
AcDbRotatedDimension
  0
LINE
  5
EBF
330
1F
100
AcDbEntity
  8
AM_5
100
AcDbLine
 10
50.34597124497065
 20
221.9179370775413
 30
0.0
 11
50.34597124497065
 21
247.0179380775412
 31
0.0
  0
LINE
  5
EC1
330
1F
100
AcDbEntity
  8
AM_5
100
AcDbLine
 10
52.84597124497065
 20
246.0179380775413
 30
0.0
 11
89.59597124497063
 21
246.0179380775413
 31
0.0
  0
INSERT
  5
EC2
330
1F
100
AcDbEntity
  8
AM_5
100
AcDbBlockReference
  2
_Open30
 10
50.34597124497065
 20
246.0179380775413
 30
0.0
 41
2.5
 42
2.5
 43
2.5
 50
180.0
  0
MTEXT
  5
EC4
330
1F
100
AcDbEntity
  8
AM_5
 62
     2
100
AcDbMText
 10
89.59597124497063
 20
249.2679380775413
 30
0.0
 40
3.5
 41
0.0
 71
     5
 72
     1
  1
78.5
 73
     1
 44
1.0
1001
ACAD
1000
MTEXTBEGIN
1070
    73
1070
     1
1070
    44
1040
1.0
1070
    74
1070
     0
1000
MTEXTEND
  0
LINE
  5
1508
330
1F
100
AcDbEntity
  8
TK6
100
AcDbLine
 10
241.4990866386886
 20
233.1179370775413
 30
0.0
 11
252.4990866386886
 21
233.1179370775413
 31
0.0
  0
LINE
  5
1509
330
1F
100
AcDbEntity
  8
TK6
100
AcDbLine
 10
241.4990866386886
 20
230.1179370775413
 30
0.0
 11
252.4990866386886
 21
230.1179370775413
 31
0.0
  0
LINE
  5
150A
330
1F
100
AcDbEntity
  8
TK60
100
AcDbLine
 10
241.4990866386886
 20
232.8679370775413
 30
0.0
 11
252.4990866386886
 21
232.8679370775413
 31
0.0
  0
LINE
  5
150B
330
1F
100
AcDbEntity
  8
TK60
100
AcDbLine
 10
241.4990866386886
 20
230.3679370775413
 30
0.0
 11
252.4990866386886
 21
230.3679370775413
 31
0.0
  0
LINE
  5
150C
330
1F
100
AcDbEntity
  8
TK6
100
AcDbLine
 10
252.4990866386886
 20
234.8679370775413
 30
0.0
 11
253.2990866386886
 21
234.8679370775413
 31
0.0
  0
LINE
  5
150D
330
1F
100
AcDbEntity
  8
TK6
100
AcDbLine
 10
253.2990866386886
 20
234.1179370775413
 30
0.0
 11
254.9990866386886
 21
234.1179370775413
 31
0.0
  0
LINE
  5
150E
330
1F
100
AcDbEntity
  8
TK6
100
AcDbLine
 10
253.2990866386886
 20
234.8679370775413
 30
0.0
 11
253.2990866386886
 21
231.6179370775413
 31
0.0
  0
LINE
  5
150F
330
1F
100
AcDbEntity
  8
TK6
100
AcDbLine
 10
252.4990866386886
 20
234.8679370775413
 30
0.0
 11
252.4990866386886
 21
231.6179370775413
 31
0.0
  0
LINE
  5
1510
330
1F
100
AcDbEntity
  8
TK6
100
AcDbLine
 10
254.9990866386886
 20
234.1179370775413
 30
0.0
 11
254.9990866386886
 21
231.6179370775413
 31
0.0
  0
LINE
  5
1511
330
1F
100
AcDbEntity
  8
TK6
100
AcDbLine
 10
252.4990866386886
 20
228.3679370775413
 30
0.0
 11
253.2990866386886
 21
228.3679370775413
 31
0.0
  0
LINE
  5
1512
330
1F
100
AcDbEntity
  8
TK6
100
AcDbLine
 10
253.2990866386886
 20
229.1179370775413
 30
0.0
 11
254.9990866386886
 21
229.1179370775413
 31
0.0
  0
LINE
  5
1513
330
1F
100
AcDbEntity
  8
TK6
100
AcDbLine
 10
253.2990866386886
 20
228.3679370775413
 30
0.0
 11
253.2990866386886
 21
231.6179370775413
 31
0.0
  0
LINE
  5
1514
330
1F
100
AcDbEntity
  8
TK6
100
AcDbLine
 10
252.4990866386886
 20
228.3679370775413
 30
0.0
 11
252.4990866386886
 21
231.6179370775413
 31
0.0
  0
LINE
  5
1515
330
1F
100
AcDbEntity
  8
TK6
100
AcDbLine
 10
254.9990866386886
 20
229.1179370775413
 30
0.0
 11
254.9990866386886
 21
231.6179370775413
 31
0.0
  0
CIRCLE
  5
1516
330
1F
100
AcDbEntity
  8
TK6
100
AcDbCircle
 10
265.4225342844245
 20
231.6179370775413
 30
0.0
 40
3.25
  0
LWPOLYLINE
  5
1517
330
1F
100
AcDbEntity
  8
TK6
100
AcDbPolyline
 90
        6
 70
     1
 43
0.0
 10
264.1725342844245
 20
233.7830005870024
 10
262.9225342844245
 20
231.6179370775413
 10
264.1725342844245
 20
229.4528735680802
 10
266.6725342844245
 20
229.4528735680802
 10
267.9225342844245
 20
231.6179370775413
 10
266.6725342844245
 20
233.7830005870024
  0
LINE
  5
1518
330
1F
100
AcDbEntity
  8
TK6
100
AcDbLine
 10
263.1823419055599
 20
232.0679370775412
 30
0.0
 11
267.6627266632893
 21
232.0679370775412
 31
0.0
  0
LINE
  5
1519
330
1F
100
AcDbEntity
  8
TK6
100
AcDbLine
 10
263.1823419055599
 20
231.1679370775412
 30
0.0
 11
267.6627266632893
 21
231.1679370775412
 31
0.0
  0
LINE
  5
151A
330
1F
100
AcDbEntity
  8
TK6
100
AcDbLine
 10
254.9990866386886
 20
232.0679370775412
 30
0.0
 11
253.5990866386887
 21
232.0679370775412
 31
0.0
  0
LINE
  5
151B
330
1F
100
AcDbEntity
  8
TK6
100
AcDbLine
 10
254.9990866386886
 20
231.1679370775412
 30
0.0
 11
253.5990866386887
 21
231.1679370775412
 31
0.0
  0
LINE
  5
151C
330
1F
100
AcDbEntity
  8
TK6
100
AcDbLine
 10
253.5990866386887
 20
232.0679370775412
 30
0.0
 11
253.5990866386887
 21
231.1679370775412
 31
0.0
  0
LINE
  5
151D
330
1F
100
AcDbEntity
  8
TK6
100
AcDbLine
 10
241.4990866386886
 20
233.1179370775413
 30
0.0
 11
241.4990866386886
 21
230.1179370775413
 31
0.0
  0
LINE
  5
151E
330
1F
100
AcDbEntity
  8
TK6
100
AcDbLine
 10
241.4990866386886
 20
166.1179370775411
 30
0.0
 11
252.4990866386886
 21
166.1179370775411
 31
0.0
  0
LINE
  5
151F
330
1F
100
AcDbEntity
  8
TK6
100
AcDbLine
 10
241.4990866386886
 20
163.1179370775411
 30
0.0
 11
252.4990866386886
 21
163.1179370775411
 31
0.0
  0
LINE
  5
1520
330
1F
100
AcDbEntity
  8
TK60
100
AcDbLine
 10
241.4990866386886
 20
165.8679370775411
 30
0.0
 11
252.4990866386886
 21
165.8679370775411
 31
0.0
  0
LINE
  5
1521
330
1F
100
AcDbEntity
  8
TK60
100
AcDbLine
 10
241.4990866386886
 20
163.3679370775412
 30
0.0
 11
252.4990866386886
 21
163.3679370775412
 31
0.0
  0
LINE
  5
1522
330
1F
100
AcDbEntity
  8
TK6
100
AcDbLine
 10
252.4990866386886
 20
167.8679370775411
 30
0.0
 11
253.2990866386886
 21
167.8679370775411
 31
0.0
  0
LINE
  5
1523
330
1F
100
AcDbEntity
  8
TK6
100
AcDbLine
 10
253.2990866386886
 20
167.1179370775411
 30
0.0
 11
254.9990866386886
 21
167.1179370775411
 31
0.0
  0
LINE
  5
1524
330
1F
100
AcDbEntity
  8
TK6
100
AcDbLine
 10
253.2990866386886
 20
167.8679370775411
 30
0.0
 11
253.2990866386886
 21
164.6179370775412
 31
0.0
  0
LINE
  5
1525
330
1F
100
AcDbEntity
  8
TK6
100
AcDbLine
 10
252.4990866386886
 20
167.8679370775411
 30
0.0
 11
252.4990866386886
 21
164.6179370775412
 31
0.0
  0
LINE
  5
1526
330
1F
100
AcDbEntity
  8
TK6
100
AcDbLine
 10
254.9990866386886
 20
167.1179370775411
 30
0.0
 11
254.9990866386886
 21
164.6179370775412
 31
0.0
  0
LINE
  5
1527
330
1F
100
AcDbEntity
  8
TK6
100
AcDbLine
 10
252.4990866386886
 20
161.3679370775412
 30
0.0
 11
253.2990866386886
 21
161.3679370775412
 31
0.0
  0
LINE
  5
1528
330
1F
100
AcDbEntity
  8
TK6
100
AcDbLine
 10
253.2990866386886
 20
162.1179370775412
 30
0.0
 11
254.9990866386886
 21
162.1179370775412
 31
0.0
  0
LINE
  5
1529
330
1F
100
AcDbEntity
  8
TK6
100
AcDbLine
 10
253.2990866386886
 20
161.3679370775412
 30
0.0
 11
253.2990866386886
 21
164.6179370775412
 31
0.0
  0
LINE
  5
152A
330
1F
100
AcDbEntity
  8
TK6
100
AcDbLine
 10
252.4990866386886
 20
161.3679370775412
 30
0.0
 11
252.4990866386886
 21
164.6179370775412
 31
0.0
  0
LINE
  5
152B
330
1F
100
AcDbEntity
  8
TK6
100
AcDbLine
 10
254.9990866386886
 20
162.1179370775412
 30
0.0
 11
254.9990866386886
 21
164.6179370775412
 31
0.0
  0
CIRCLE
  5
152C
330
1F
100
AcDbEntity
  8
TK6
100
AcDbCircle
 10
265.4225342844245
 20
164.6179370775412
 30
0.0
 40
3.25
  0
LWPOLYLINE
  5
152D
330
1F
100
AcDbEntity
  8
TK6
100
AcDbPolyline
 90
        6
 70
     1
 43
0.0
 10
264.1725342844245
 20
166.7830005870023
 10
262.9225342844245
 20
164.6179370775412
 10
264.1725342844245
 20
162.45287356808
 10
266.6725342844245
 20
162.45287356808
 10
267.9225342844245
 20
164.6179370775412
 10
266.6725342844245
 20
166.7830005870023
  0
LINE
  5
152E
330
1F
100
AcDbEntity
  8
TK6
100
AcDbLine
 10
263.1823419055599
 20
165.0679370775411
 30
0.0
 11
267.6627266632893
 21
165.0679370775411
 31
0.0
  0
LINE
  5
152F
330
1F
100
AcDbEntity
  8
TK6
100
AcDbLine
 10
263.1823419055599
 20
164.1679370775411
 30
0.0
 11
267.6627266632893
 21
164.1679370775411
 31
0.0
  0
LINE
  5
1530
330
1F
100
AcDbEntity
  8
TK6
100
AcDbLine
 10
254.9990866386886
 20
165.0679370775411
 30
0.0
 11
253.5990866386887
 21
165.0679370775411
 31
0.0
  0
LINE
  5
1531
330
1F
100
AcDbEntity
  8
TK6
100
AcDbLine
 10
254.9990866386886
 20
164.1679370775411
 30
0.0
 11
253.5990866386887
 21
164.1679370775411
 31
0.0
  0
LINE
  5
1532
330
1F
100
AcDbEntity
  8
TK6
100
AcDbLine
 10
253.5990866386887
 20
165.0679370775411
 30
0.0
 11
253.5990866386887
 21
164.1679370775411
 31
0.0
  0
LINE
  5
1533
330
1F
100
AcDbEntity
  8
TK6
100
AcDbLine
 10
241.4990866386886
 20
166.1179370775411
 30
0.0
 11
241.4990866386886
 21
163.1179370775411
 31
0.0
  0
ARC
  5
160A
330
1F
100
AcDbEntity
  8
TK3
100
AcDbCircle
 10
155.0430383693236
 20
113.924935071323
 30
0.0
 40
1.0
100
AcDbArc
 50
90.0
 51
180.0
1001
GENIUS_GENOBJ-N-FIL_13
1002
{
1000
OWNER
1000
GEN
1002
}
1001
GENIUS_GENODEF_13
1002
{
1000
HIER
1070
     0
1002
}
1002
{
1000
MANEDIT
1070
     0
1002
}
1002
{
1000
NOSEL
1070
     0
1002
}
1002
{
1000
BEHIND
1070
     0
1002
}
1002
{
1000
OTHER
1070
     0
1002
}
1002
{
1000
REACTOR
1002
}
  0
ARC
  5
160B
330
1F
100
AcDbEntity
  8
TK3
100
AcDbCircle
 10
155.0430383693236
 20
104.924935071323
 30
0.0
 40
1.0
100
AcDbArc
 50
180.0
 51
270.0
1001
GENIUS_GENODEF_13
1002
{
1000
HIER
1070
     0
1002
}
1002
{
1000
MANEDIT
1070
     0
1002
}
1002
{
1000
NOSEL
1070
     0
1002
}
1002
{
1000
BEHIND
1070
     0
1002
}
1002
{
1000
OTHER
1070
     0
1002
}
1002
{
1000
REACTOR
1002
}
1001
GENIUS_GENOBJ-N-FIL_13
1002
{
1000
OWNER
1000
GEN
1002
}
  0
LINE
  5
160C
330
1F
100
AcDbEntity
  8
TK3
100
AcDbLine
 10
158.0430383693236
 20
103.924935071323
 30
0.0
 11
158.0430383693236
 21
114.924935071323
 31
0.0
  0
LINE
  5
160D
102
{ACAD_REACTORS
330
1ADD
102
}
330
1F
100
AcDbEntity
  8
TK3
100
AcDbLine
 10
155.0430383693236
 20
114.924935071323
 30
0.0
 11
158.0430383693236
 21
114.924935071323
 31
0.0
  0
LINE
  5
160E
330
1F
100
AcDbEntity
  8
TK3
100
AcDbLine
 10
155.0430383693236
 20
103.924935071323
 30
0.0
 11
158.0430383693236
 21
103.924935071323
 31
0.0
  0
LINE
  5
160F
102
{ACAD_REACTORS
330
1ADD
102
}
330
1F
100
AcDbEntity
  8
TK3
100
AcDbLine
 10
154.0430383693236
 20
104.924935071323
 30
0.0
 11
154.0430383693236
 21
113.924935071323
 31
0.0
  0
LINE
  5
1610
330
1F
100
AcDbEntity
  8
AM_7
  6
AM_ISO08W050x2
100
AcDbLine
 10
151.0430383693236
 20
109.424935071323
 30
0.0
 11
161.0430383693236
 21
109.424935071323
 31
0.0
1001
GENIUS_GENOBJ-N-CEN_13
1002
{
1000
OWNER
1000
GEN
1002
}
1001
GENIUS_GENODEF_13
1002
{
1000
HIER
1070
     0
1002
}
1002
{
1000
MANEDIT
1070
     0
1002
}
1002
{
1000
NOSEL
1070
     0
1002
}
1002
{
1000
BEHIND
1070
     0
1002
}
1002
{
1000
OTHER
1070
     0
1002
}
1002
{
1000
REACTOR
1002
}
  0
LINE
  5
1611
330
1F
100
AcDbEntity
  8
TK3
100
AcDbLine
 10
89.59597124497051
 20
114.9249350713231
 30
0.0
 11
133.5959712449705
 21
114.9249350713231
 31
0.0
  0
LINE
  5
1612
330
1F
100
AcDbEntity
  8
TK3
100
AcDbLine
 10
89.59597124497051
 20
103.924935071323
 30
0.0
 11
133.5959712449705
 21
103.924935071323
 31
0.0
  0
LINE
  5
1613
330
1F
100
AcDbEntity
  8
TK3
100
AcDbLine
 10
136.5959712449705
 20
106.924935071323
 30
0.0
 11
136.5959712449705
 21
111.9249350713231
 31
0.0
  0
ARC
  5
1614
330
1F
100
AcDbEntity
  8
TK3
100
AcDbCircle
 10
133.5959712449705
 20
106.924935071323
 30
0.0
 40
3.0
100
AcDbArc
 50
270.0
 51
0.0
1001
GENIUS_GENOBJ-N-FIL_13
1002
{
1000
OWNER
1000
GEN
1002
}
1001
GENIUS_GENODEF_13
1002
{
1000
HIER
1070
     0
1002
}
1002
{
1000
MANEDIT
1070
     0
1002
}
1002
{
1000
NOSEL
1070
     0
1002
}
1002
{
1000
BEHIND
1070
     0
1002
}
1002
{
1000
OTHER
1070
     0
1002
}
1002
{
1000
REACTOR
1002
}
  0
ARC
  5
1615
102
{ACAD_REACTORS
330
1A7A
102
}
330
1F
100
AcDbEntity
  8
TK3
100
AcDbCircle
 10
133.5959712449705
 20
111.9249350713231
 30
0.0
 40
3.0
100
AcDbArc
 50
0.0
 51
90.0
1001
GENIUS_GENOBJ-N-FIL_13
1002
{
1000
OWNER
1000
GEN
1002
}
1001
GENIUS_GENODEF_13
1002
{
1000
HIER
1070
     0
1002
}
1002
{
1000
MANEDIT
1070
     0
1002
}
1002
{
1000
NOSEL
1070
     0
1002
}
1002
{
1000
BEHIND
1070
     0
1002
}
1002
{
1000
OTHER
1070
     0
1002
}
1002
{
1000
REACTOR
1002
}
  0
CIRCLE
  5
1654
330
1F
100
AcDbEntity
  8
下側0
100
AcDbCircle
 10
124.5959712449702
 20
164.6179370775409
 30
0.0
 40
1.199999999999999
  0
CIRCLE
  5
1655
330
1F
100
AcDbEntity
  8
下側0
100
AcDbCircle
 10
124.5959712449706
 20
231.6179370775411
 30
0.0
 40
1.199999999999999
  0
LWPOLYLINE
  5
1676
330
1F
100
AcDbEntity
  8
TK3
100
AcDbPolyline
 90
        8
 70
     1
 43
0.0
 10
123.0959712449706
 20
107.4249350713231
 10
126.0959712449706
 20
107.4249350713231
 42
0.4142135623730951
 10
127.0959712449706
 20
108.4249350713231
 10
127.0959712449706
 20
110.4249350713231
 42
0.4142135623730951
 10
126.0959712449706
 20
111.4249350713231
 10
123.0959712449706
 20
111.424935071323
 42
0.414213562373093
 10
122.0959712449706
 20
110.424935071323
 10
122.0959712449706
 20
108.4249350713231
 42
0.4142135623730951
1001
GENIUS_GENREC_14
1002
{
1000
PYDIR
1011
122.0959712449706
1021
111.4249350713231
1031
0.0
1002
}
1002
{
1000
PXDIR
1011
127.0959712449706
1021
107.4249350713231
1031
0.0
1002
}
1002
{
1000
PORI
1011
122.0959712449706
1021
107.4249350713231
1031
0.0
1002
}
1002
{
1000
PINS
1011
124.5959712449706
1021
109.4249350713231
1031
0.0
1002
}
1002
{
1000
HVAL
1000
4
1002
}
1002
{
1000
H
1070
     2
1002
}
1002
{
1000
WVAL
1000
5
1002
}
1002
{
1000
W
1070
     2
1002
}
1002
{
1000
C
1070
     4
1002
}
1001
GENIUS_GENOBJ-N-REC_13
1002
{
1000
OWNER
1000
GEN
1002
}
1001
GENIUS_GENODEF_13
1002
{
1000
HIER
1070
     0
1002
}
1002
{
1000
MANEDIT
1070
     0
1002
}
1002
{
1000
NOSEL
1070
     0
1002
}
1002
{
1000
BEHIND
1070
     0
1002
}
1002
{
1000
OTHER
1070
     0
1002
}
1002
{
1000
REACTOR
1002
}
  0
LINE
  5
16F2
330
1F
100
AcDbEntity
  8
AM_7
  6
AM_ISO08W050x2
100
AcDbLine
 10
89.59597124497051
 20
117.9249350713231
 30
0.0
 11
89.59597124497051
 21
100.924935071323
 31
0.0
1001
GENIUS_GENODEF_13
1002
{
1000
HIER
1070
     0
1002
}
1002
{
1000
MANEDIT
1070
     0
1002
}
1002
{
1000
NOSEL
1070
     0
1002
}
1002
{
1000
BEHIND
1070
     0
1002
}
1002
{
1000
OTHER
1070
     0
1002
}
1002
{
1000
REACTOR
1002
}
1001
GENIUS_GENOBJ-N-CEN_13
1002
{
1000
OWNER
1000
GEN
1002
}
1001
GENIUS_GENCEN_19
1002
{
1040
3.0
1002
}
  0
LINE
  5
16F4
102
{ACAD_REACTORS
330
1A16
102
}
330
1F
100
AcDbEntity
  8
TK3
100
AcDbLine
 10
89.59597124497051
 20
114.9249350713231
 30
0.0
 11
45.59597124497048
 21
114.9249350713231
 31
0.0
  0
LINE
  5
16F5
330
1F
100
AcDbEntity
  8
TK3
100
AcDbLine
 10
89.59597124497051
 20
103.924935071323
 30
0.0
 11
45.59597124497048
 21
103.924935071323
 31
0.0
  0
LINE
  5
16F6
330
1F
100
AcDbEntity
  8
TK3
100
AcDbLine
 10
42.59597124497048
 20
106.924935071323
 30
0.0
 11
42.59597124497048
 21
111.9249350713231
 31
0.0
  0
ARC
  5
16F7
102
{ACAD_REACTORS
330
1A16
102
}
330
1F
100
AcDbEntity
  8
TK3
100
AcDbCircle
 10
45.59597124497048
 20
106.924935071323
 30
0.0
 40
3.0
100
AcDbArc
 50
180.0
 51
270.0
1001
GENIUS_GENOBJ-N-FIL_13
1002
{
1000
OWNER
1000
GEN
1002
}
1001
GENIUS_GENODEF_13
1002
{
1000
HIER
1070
     0
1002
}
1002
{
1000
MANEDIT
1070
     0
1002
}
1002
{
1000
NOSEL
1070
     0
1002
}
1002
{
1000
BEHIND
1070
     0
1002
}
1002
{
1000
OTHER
1070
     0
1002
}
1002
{
1000
REACTOR
1002
}
  0
ARC
  5
16F8
102
{ACAD_REACTORS
330
1A7A
102
}
330
1F
100
AcDbEntity
  8
TK3
100
AcDbCircle
 10
45.59597124497048
 20
111.9249350713231
 30
0.0
 40
3.0
100
AcDbArc
 50
90.0
 51
180.0
1001
GENIUS_GENOBJ-N-FIL_13
1002
{
1000
OWNER
1000
GEN
1002
}
1001
GENIUS_GENODEF_13
1002
{
1000
HIER
1070
     0
1002
}
1002
{
1000
MANEDIT
1070
     0
1002
}
1002
{
1000
NOSEL
1070
     0
1002
}
1002
{
1000
BEHIND
1070
     0
1002
}
1002
{
1000
OTHER
1070
     0
1002
}
1002
{
1000
REACTOR
1002
}
  0
LWPOLYLINE
  5
16F9
102
{ACAD_REACTORS
330
19F0
330
1A4E
102
}
330
1F
100
AcDbEntity
  8
TK3
100
AcDbPolyline
 90
        8
 70
     1
 43
0.0
 10
56.09597124497041
 20
107.4249350713231
 10
53.0959712449704
 20
107.4249350713231
 42
-0.4142135623730951
 10
52.0959712449704
 20
108.4249350713231
 10
52.09597124497041
 20
110.4249350713231
 42
-0.4142135623730951
 10
53.09597124497042
 20
111.4249350713231
 10
56.09597124497042
 20
111.424935071323
 42
-0.414213562373093
 10
57.09597124497041
 20
110.424935071323
 10
57.09597124497041
 20
108.4249350713231
 42
-0.4142135623730951
1001
GENIUS_GENREC_14
1002
{
1000
PYDIR
1011
57.09597124497041
1021
111.4249350713231
1031
0.0
1002
}
1002
{
1000
PXDIR
1011
52.09597124497041
1021
107.4249350713231
1031
0.0
1002
}
1002
{
1000
PORI
1011
57.09597124497041
1021
107.4249350713231
1031
0.0
1002
}
1002
{
1000
PINS
1011
54.59597124497041
1021
109.4249350713231
1031
0.0
1002
}
1002
{
1000
HVAL
1000
4
1002
}
1002
{
1000
H
1070
     2
1002
}
1002
{
1000
WVAL
1000
5
1002
}
1002
{
1000
W
1070
     2
1002
}
1002
{
1000
C
1070
     4
1002
}
1001
GENIUS_GENOBJ-N-REC_13
1002
{
1000
OWNER
1000
GEN
1002
}
1001
GENIUS_GENODEF_13
1002
{
1000
HIER
1070
     0
1002
}
1002
{
1000
MANEDIT
1070
     0
1002
}
1002
{
1000
NOSEL
1070
     0
1002
}
1002
{
1000
BEHIND
1070
     0
1002
}
1002
{
1000
OTHER
1070
     0
1002
}
1002
{
1000
REACTOR
1002
}
  0
DIMENSION
  5
1795
102
{ACAD_XDICTIONARY
360
17A0
102
}
102
{ACAD_REACTORS
330
17A1
102
}
330
1F
100
AcDbEntity
  8
AM_5
100
AcDbDimension
  2
*D9
 10
136.5930440029357
 20
256.8291390903705
 30
0.0
 11
89.59450762395324
 21
260.0791390903705
 31
0.0
 70
    32
 71
     5
 42
93.99707275796492
  3
AM_ISO$0
100
AcDbAlignedDimension
 13
42.59597124497076
 23
234.4179370775415
 33
0.0
 14
136.5930440029357
 24
234.49439566322
 34
0.0
100
AcDbRotatedDimension
  0
DIMENSION
  5
17D4
102
{ACAD_XDICTIONARY
360
17DF
102
}
102
{ACAD_REACTORS
330
17E0
102
}
330
1F
100
AcDbEntity
  8
AM_5
100
AcDbDimension
  2
*D10
 10
197.6418033335303
 20
256.8291390903705
 30
0.0
 11
185.0918033335303
 21
260.0794835785595
 31
0.0
 70
    32
 71
     5
 42
25.10000000000002
  3
AM_ISO$0
100
AcDbAlignedDimension
 13
172.5418033335303
 23
217.1005370643073
 33
0.0
 14
197.6418033335303
 24
235.417937077541
 34
0.0
100
AcDbRotatedDimension
1001
ACAD
1000
DSTYLE
1002
{
1070
   271
1070
     0
1002
}
  0
DIMENSION
  5
181B
102
{ACAD_XDICTIONARY
360
1826
102
}
102
{ACAD_REACTORS
330
1827
102
}
330
1F
100
AcDbEntity
  8
AM_5
100
AcDbDimension
  2
*D11
 10
16.89933459543681
 20
159.4179370775412
 30
0.0
 11
13.64933459543678
 21
197.4179370775413
 31
0.0
 70
    32
 71
     5
 42
76.00000000000022
  3
AM_ISO$0
100
AcDbAlignedDimension
 13
43.59597124497077
 23
235.4179370775415
 33
0.0
 14
52.59597124497066
 24
159.4179370775412
 34
0.0
 50
89.99999999999914
100
AcDbRotatedDimension
  0
DIMENSION
  5
1850
102
{ACAD_XDICTIONARY
360
185B
102
}
102
{ACAD_REACTORS
330
185C
102
}
330
1F
100
AcDbEntity
  8
AM_5
100
AcDbDimension
  2
*D12
 10
345.0872925184058
 20
138.5962556556183
 30
0.0
 11
310.0872925184058
 21
141.8462556556183
 31
0.0
 70
    32
 71
     5
 42
70.0
  3
AM_ISO$0
100
AcDbAlignedDimension
 13
275.0872925184058
 23
130.160474408576
 33
0.0
 14
345.0872925184058
 24
130.160474408576
 34
0.0
100
AcDbRotatedDimension
  0
DIMENSION
  5
188E
102
{ACAD_XDICTIONARY
360
1899
102
}
102
{ACAD_REACTORS
330
189A
102
}
330
1F
100
AcDbEntity
  8
AM_5
100
AcDbDimension
  2
*D13
 10
352.0872925184058
 20
148.5962556556181
 30
0.0
 11
310.0872925184058
 21
151.8462556556181
 31
0.0
 70
    32
 71
     5
 42
84.0
  3
AM_ISO$0
100
AcDbAlignedDimension
 13
268.0872925184058
 23
118.1604744085761
 33
0.0
 14
352.0872925184058
 24
118.1604744085761
 34
0.0
100
AcDbRotatedDimension
  0
DIMENSION
  5
18C0
102
{ACAD_XDICTIONARY
360
18C7
102
}
102
{ACAD_REACTORS
330
18C8
102
}
330
1F
100
AcDbEntity
  8
AM_5
100
AcDbDimension
  2
*D14
 10
349.0872925184058
 20
118.1604744085761
 30
0.0
 11
375.2952211447574
 21
142.8618346507826
 31
0.0
 70
   164
 71
     5
 42
2.999999999999943
  3
AM_ISO$4
100
AcDbRadialDimension
 15
351.2704337617352
 25
120.2181173104602
 35
0.0
 40
0.0
1001
ACAD
1000
DSTYLE
1002
{
1070
    74
1070
     0
1070
   279
1070
     1
1070
   281
1070
     1
1002
}
  0
DIMENSION
  5
18E8
102
{ACAD_XDICTIONARY
360
18EF
102
}
102
{ACAD_REACTORS
330
18F0
102
}
330
1F
100
AcDbEntity
  8
AM_5
100
AcDbDimension
  2
*D15
 10
343.9387457254623
 20
125.8401182958476
 30
0.0
 11
373.505512466222
 21
153.3949247040956
 31
0.0
 70
   163
 71
     5
 42
3.5
  3
AM_ISO$3
100
AcDbDiametricDimension
 15
346.2358393113492
 25
128.4808305213045
 35
0.0
 40
0.0
  0
DIMENSION
  5
1915
102
{ACAD_XDICTIONARY
360
1920
102
}
102
{ACAD_REACTORS
330
1921
102
}
330
1F
100
AcDbEntity
  8
AM_5
100
AcDbDimension
  2
*D16
 10
364.0872935284058
 20
66.16047440857606
 30
0.0
 11
360.8372935284058
 21
93.66047440857611
 31
0.0
 70
    32
 71
     5
 42
55.0
  3
AM_ISO$0
100
AcDbAlignedDimension
 13
349.0872925184058
 23
121.1604744085761
 33
0.0
 14
349.0872925184058
 24
66.16047440857608
 34
0.0
 50
90.00000000000003
100
AcDbRotatedDimension
  0
DIMENSION
  5
1939
102
{ACAD_XDICTIONARY
360
1944
102
}
102
{ACAD_REACTORS
330
1945
102
}
330
1F
100
AcDbEntity
  8
AM_5
100
AcDbDimension
  2
*D17
 10
373.5734902311697
 20
60.16047440857607
 30
0.0
 11
370.3234902311697
 21
93.66047440857611
 31
0.0
 70
    32
 71
     5
 42
67.0
  3
AM_ISO$0
100
AcDbAlignedDimension
 13
348.0872925184058
 23
127.160474408576
 33
0.0
 14
348.0872925184058
 24
60.16047440857608
 34
0.0
 50
90.00000000000003
100
AcDbRotatedDimension
  0
DIMENSION
  5
19E2
102
{ACAD_XDICTIONARY
360
19EF
102
}
102
{ACAD_REACTORS
330
19F0
102
}
330
1F
100
AcDbEntity
  8
AM_5
100
AcDbDimension
  2
*D18
 10
30.59597024497049
 20
111.4249350713231
 30
0.0
 11
27.34597024497047
 21
118.7999350713231
 31
0.0
 70
    32
 71
     5
 42
4.000000000000028
  3
AM_ISO$0
100
AcDbAlignedDimension
 13
53.0959712449704
 23
107.4249350713231
 33
0.0
 14
53.09597124497048
 24
111.4249350713231
 34
0.0
 50
90.00000000000003
100
AcDbRotatedDimension
  0
DIMENSION
  5
1A0A
102
{ACAD_XDICTIONARY
360
1A15
102
}
102
{ACAD_REACTORS
330
1A16
102
}
330
1F
100
AcDbEntity
  8
AM_5
100
AcDbDimension
  2
*D19
 10
16.89933459543681
 20
114.9249350713231
 30
0.0
 11
13.64933459543679
 21
109.4249350713231
 31
0.0
 70
    32
 71
     5
 42
11.00000000000011
  3
AM_ISO$0
100
AcDbAlignedDimension
 13
45.59597124497048
 23
103.924935071323
 33
0.0
 14
45.59597124497049
 24
114.9249350713231
 34
0.0
 50
90.00000000000003
100
AcDbRotatedDimension
  0
DIMENSION
  5
1A40
102
{ACAD_XDICTIONARY
360
1A4D
102
}
102
{ACAD_REACTORS
330
1A4E
102
}
330
1F
100
AcDbEntity
  8
AM_5
100
AcDbDimension
  2
*D20
 10
57.09597124497041
 20
126.9249360713231
 30
0.0
 11
54.59597124497041
 21
130.1749360713231
 31
0.0
 70
    32
 71
     5
 42
5.0
  3
AM_ISO$0
100
AcDbAlignedDimension
 13
52.09597124497041
 23
110.4249350713231
 33
0.0
 14
57.09597124497041
 24
110.424935071323
 34
0.0
100
AcDbRotatedDimension
  0
DIMENSION
  5
1A6E
102
{ACAD_XDICTIONARY
360
1A79
102
}
102
{ACAD_REACTORS
330
1A7A
102
}
330
1F
100
AcDbEntity
  8
AM_5
100
AcDbDimension
  2
*D21
 10
136.5959712449705
 20
135.266707252943
 30
0.0
 11
89.59597124497051
 21
138.516707252943
 31
0.0
 70
    32
 71
     5
 42
94.00000000000005
  3
AM_ISO$0
100
AcDbAlignedDimension
 13
42.59597124497048
 23
111.9249350713231
 33
0.0
 14
136.5959712449705
 24
111.9249350713231
 34
0.0
100
AcDbRotatedDimension
  0
DIMENSION
  5
1A99
330
1F
100
AcDbEntity
  8
AM_5
100
AcDbDimension
  2
*D22
 10
124.5959712449706
 20
91.92493407132298
 30
0.0
 11
89.59597124497051
 21
95.17493407132297
 31
0.0
 70
    32
 71
     5
 42
70.00000000000023
  3
AM_ISO$0
100
AcDbAlignedDimension
 13
54.5959712449704
 23
107.4249350713231
 33
0.0
 14
124.5959712449706
 24
107.4249350713231
 34
0.0
 50
0.0000000000001132
100
AcDbRotatedDimension
  0
DIMENSION
  5
1ACF
102
{ACAD_XDICTIONARY
360
1ADC
102
}
102
{ACAD_REACTORS
330
1ADD
102
}
330
1F
100
AcDbEntity
  8
AM_5
100
AcDbDimension
  2
*D23
 10
158.0430383693236
 20
135.266707252943
 30
0.0
 11
156.0430383693236
 21
135.266707252943
 31
0.0
 70
   160
 71
     5
 42
4.0
  3
AM_ISO$0
100
AcDbAlignedDimension
 13
154.0430383693236
 23
113.924935071323
 33
0.0
 14
158.0430383693236
 24
114.924935071323
 34
0.0
100
AcDbRotatedDimension
  0
VIEWPORT
  5
17C
102
{ACAD_XDICTIONARY
360
F88
102
}
330
23
100
AcDbEntity
 67
     1
  8
0
100
AcDbViewport
 10
133.3499908447265
 20
101.5999970436096
 30
0.0
 40
370.2266912936524
 41
228.4221935424805
 68
     1
 69
     1
 12
133.3499908447265
 22
101.5999970436096
 13
0.0
 23
0.0
 14
10.0
 24
10.0
 15
10.0
 25
10.0
 16
0.0
 26
0.0
 36
1.0
 17
0.0
 27
0.0
 37
0.0
 42
50.0
 43
0.0
 44
0.0
 45
228.4221935424805
 50
0.0
 51
0.0
 72
   100
 90
    32800
  1

281
     0
 71
     1
 74
     0
110
0.0
120
0.0
130
0.0
111
1.0
121
0.0
131
0.0
112
0.0
122
1.0
132
0.0
 79
     0
146
0.0
1001
GENIUS_GENSCREG_15
1000
PF
1040
1.0
1000
DF
1040
1.0
1000
MIN
1011
-51.76335480209963
1021
-12.6110997276306
1031
0.0
1000
MAX
1011
318.4633364915527
1021
215.8110938148499
1031
0.0
1000
FLAGS
1070
     4
1001
GENIUS_GENODEF_13
1002
{
1000
HIER
1070
     0
1002
}
1002
{
1000
MANEDIT
1070
     0
1002
}
1002
{
1000
NOSEL
1070
     0
1002
}
1002
{
1000
BEHIND
1070
     0
1002
}
1002
{
1000
OTHER
1070
     0
1002
}
1002
{
1000
REACTOR
1002
}
1001
GENIUS_GENOBJ-N-SDF_13
1002
{
1000
OWNER
1000
GEN
1002
}
  0
ENDSEC
  0
SECTION
  2
OBJECTS
  0
DICTIONARY
  5
C
330
0
100
AcDbDictionary
281
     1
  3
ACAD_COLOR
350
BE
  3
ACAD_GROUP
350
D
  3
ACAD_LAYOUT
350
1A
  3
ACAD_MATERIAL
350
BD
  3
ACAD_MLEADERSTYLE
350
DA6
  3
ACAD_MLINESTYLE
350
17
  3
ACAD_PLOTSETTINGS
350
19
  3
ACAD_PLOTSTYLENAME
350
E
  3
ACAD_SCALELIST
350
D94
  3
ACAD_TABLESTYLE
350
D92
  3
ACAD_VISUALSTYLE
350
D81
  3
ACDB_RECOMPOSE_DATA
350
DF1
  3
ACDBHEADERROUNDTRIPXREC
350
1B29
  3
AcDbVariableDictionary
350
94
  3
AcmDictionary
350
5B
  3
AMG
350
41
  3
AMGSNAPSETTINGS
350
220
  3
DWGPROPS
350
1B28
  0
DICTIONARY
  5
DF2
330
8
100
AcDbDictionary
280
     1
281
     1
  3
ACAD_XREC_ROUNDTRIP
360
F85
  0
DICTIONARY
  5
35D
330
2
100
AcDbDictionary
280
     1
281
     1
  3
ACAD_LAYERFILTERS
360
14E0
  3
ACAD_LAYERSTATES
360
35E
  3
ACLYDICTIONARY
360
14DF
  3
AMLAYER_GROUPCOLORS
360
4A4
  0
DICTIONARY
  5
F5D
330
10
100
AcDbDictionary
280
     1
281
     1
  3
ADSK_XREC_LAYER_RECONCILED
360
F5E
  0
DICTIONARY
  5
F5F
330
518
100
AcDbDictionary
280
     1
281
     1
  3
ADSK_XREC_LAYER_RECONCILED
360
F60
  0
DICTIONARY
  5
F61
330
519
100
AcDbDictionary
280
     1
281
     1
  3
ADSK_XREC_LAYER_RECONCILED
360
F62
  0
DICTIONARY
  5
F63
330
51A
100
AcDbDictionary
280
     1
281
     1
  3
ADSK_XREC_LAYER_RECONCILED
360
F64
  0
DICTIONARY
  5
F65
330
51B
100
AcDbDictionary
280
     1
281
     1
  3
ADSK_XREC_LAYER_RECONCILED
360
F66
  0
DICTIONARY
  5
F67
330
51C
100
AcDbDictionary
280
     1
281
     1
  3
ADSK_XREC_LAYER_RECONCILED
360
F68
  0
DICTIONARY
  5
F69
330
5E3
100
AcDbDictionary
280
     1
281
     1
  3
ADSK_XREC_LAYER_RECONCILED
360
F6A
  0
DICTIONARY
  5
F6B
330
5E4
100
AcDbDictionary
280
     1
281
     1
  3
ADSK_XREC_LAYER_RECONCILED
360
F6C
  0
DICTIONARY
  5
F6D
330
60F
100
AcDbDictionary
280
     1
281
     1
  3
ADSK_XREC_LAYER_RECONCILED
360
F6E
  0
DICTIONARY
  5
F6F
330
610
100
AcDbDictionary
280
     1
281
     1
  3
ADSK_XREC_LAYER_RECONCILED
360
F70
  0
DICTIONARY
  5
F71
330
BB6
100
AcDbDictionary
280
     1
281
     1
  3
ADSK_XREC_LAYER_RECONCILED
360
F72
  0
DICTIONARY
  5
F73
330
DD2
100
AcDbDictionary
280
     1
281
     1
  3
ADSK_XREC_LAYER_RECONCILED
360
F74
  0
DICTIONARY
  5
F75
330
DD9
100
AcDbDictionary
280
     1
281
     1
  3
ADSK_XREC_LAYER_RECONCILED
360
F76
  0
DICTIONARY
  5
F77
330
DDB
100
AcDbDictionary
280
     1
281
     1
  3
ADSK_XREC_LAYER_RECONCILED
360
F78
  0
DICTIONARY
  5
F79
330
DDE
100
AcDbDictionary
280
     1
281
     1
  3
ADSK_XREC_LAYER_RECONCILED
360
F7A
  0
DICTIONARY
  5
F8A
330
291
100
AcDbDictionary
280
     1
281
     1
  3
ACAD_XREC_ROUNDTRIP
360
F8B
  0
DICTIONARY
  5
F8C
330
292
100
AcDbDictionary
280
     1
281
     1
  3
ACAD_XREC_ROUNDTRIP
360
F8D
  0
DICTIONARY
  5
F8E
330
293
100
AcDbDictionary
280
     1
281
     1
  3
ACAD_XREC_ROUNDTRIP
360
F8F
  0
DICTIONARY
  5
F90
330
294
100
AcDbDictionary
280
     1
281
     1
  3
ACAD_XREC_ROUNDTRIP
360
F91
  0
DICTIONARY
  5
F92
330
295
100
AcDbDictionary
280
     1
281
     1
  3
ACAD_XREC_ROUNDTRIP
360
F93
  0
DICTIONARY
  5
F94
330
296
100
AcDbDictionary
280
     1
281
     1
  3
ACAD_XREC_ROUNDTRIP
360
F95
  0
DICTIONARY
  5
8F
330
1F
100
AcDbDictionary
280
     1
281
     1
  3
ACAD_SORTENTS
360
DDD
  0
DICTIONARY
  5
603
330
5FA
100
AcDbDictionary
280
     1
281
     1
  0
DICTIONARY
  5
668
330
613
100
AcDbDictionary
280
     1
281
     1
  0
DICTIONARY
  5
BFB
330
BF3
100
AcDbDictionary
280
     1
281
     1
  0
DICTIONARY
  5
C61
330
C08
100
AcDbDictionary
280
     1
281
     1
  0
DICTIONARY
  5
F86
330
178
100
AcDbDictionary
280
     1
281
     1
  3
ACAD_XREC_ROUNDTRIP
360
F87
  0
DICTIONARY
  5
E84
330
E79
100
AcDbDictionary
280
     1
281
     1
  3
ACAD_DIMASSOC
360
E85
  0
DICTIONARY
  5
17A0
330
1795
100
AcDbDictionary
280
     1
281
     1
  3
ACAD_DIMASSOC
360
17A1
  0
DICTIONARY
  5
17DF
330
17D4
100
AcDbDictionary
280
     1
281
     1
  3
ACAD_DIMASSOC
360
17E0
  0
DICTIONARY
  5
1826
330
181B
100
AcDbDictionary
280
     1
281
     1
  3
ACAD_DIMASSOC
360
1827
  0
DICTIONARY
  5
185B
330
1850
100
AcDbDictionary
280
     1
281
     1
  3
ACAD_DIMASSOC
360
185C
  0
DICTIONARY
  5
1899
330
188E
100
AcDbDictionary
280
     1
281
     1
  3
ACAD_DIMASSOC
360
189A
  0
DICTIONARY
  5
18C7
330
18C0
100
AcDbDictionary
280
     1
281
     1
  3
ACAD_DIMASSOC
360
18C8
  0
DICTIONARY
  5
18EF
330
18E8
100
AcDbDictionary
280
     1
281
     1
  3
ACAD_DIMASSOC
360
18F0
  0
DICTIONARY
  5
1920
330
1915
100
AcDbDictionary
280
     1
281
     1
  3
ACAD_DIMASSOC
360
1921
  0
DICTIONARY
  5
1944
330
1939
100
AcDbDictionary
280
     1
281
     1
  3
ACAD_DIMASSOC
360
1945
  0
DICTIONARY
  5
19EF
330
19E2
100
AcDbDictionary
280
     1
281
     1
  3
ACAD_DIMASSOC
360
19F0
  0
DICTIONARY
  5
1A15
330
1A0A
100
AcDbDictionary
280
     1
281
     1
  3
ACAD_DIMASSOC
360
1A16
  0
DICTIONARY
  5
1A4D
330
1A40
100
AcDbDictionary
280
     1
281
     1
  3
ACAD_DIMASSOC
360
1A4E
  0
DICTIONARY
  5
1A79
330
1A6E
100
AcDbDictionary
280
     1
281
     1
  3
ACAD_DIMASSOC
360
1A7A
  0
DICTIONARY
  5
1ADC
330
1ACF
100
AcDbDictionary
280
     1
281
     1
  3
ACAD_DIMASSOC
360
1ADD
  0
DICTIONARY
  5
F88
330
17C
100
AcDbDictionary
280
     1
281
     1
  3
ACAD_XREC_ROUNDTRIP
360
F89
  0
DICTIONARY
  5
BE
102
{ACAD_REACTORS
330
C
102
}
330
C
100
AcDbDictionary
281
     1
  0
DICTIONARY
  5
D
102
{ACAD_REACTORS
330
C
102
}
330
C
100
AcDbDictionary
281
     1
  0
DICTIONARY
  5
1A
102
{ACAD_REACTORS
330
C
102
}
330
C
100
AcDbDictionary
281
     1
  3
Model
350
22
  3
レイアウト1
350
1E
  3
レイアウト2
350
26
  0
DICTIONARY
  5
BD
102
{ACAD_REACTORS
330
C
102
}
330
C
100
AcDbDictionary
281
     1
  3
ByBlock
350
D71
  3
ByLayer
350
D69
  3
Global
350
D79
  0
DICTIONARY
  5
DA6
102
{ACAD_REACTORS
330
C
102
}
330
C
100
AcDbDictionary
281
     1
  3
Standard
350
DA7
  0
DICTIONARY
  5
17
102
{ACAD_REACTORS
330
C
102
}
330
C
100
AcDbDictionary
281
     1
  3
Standard
350
18
  0
DICTIONARY
  5
19
102
{ACAD_REACTORS
330
C
102
}
330
C
100
AcDbDictionary
281
     1
  0
ACDBDICTIONARYWDFLT
  5
E
102
{ACAD_REACTORS
330
C
102
}
330
C
100
AcDbDictionary
281
     1
  3
Normal
350
F
100
AcDbDictionaryWithDefault
340
F
  0
DICTIONARY
  5
D94
102
{ACAD_REACTORS
330
C
102
}
330
C
100
AcDbDictionary
281
     1
  3
A0
350
D95
  3
A1
350
D96
  3
A2
350
D97
  3
A3
350
D98
  3
A4
350
D99
  3
A5
350
D9A
  3
A6
350
D9B
  3
A7
350
D9C
  3
A8
350
D9D
  3
A9
350
D9E
  3
B0
350
D9F
  3
B1
350
DA0
  3
B2
350
DA1
  3
B3
350
DA2
  3
B4
350
DA3
  3
B5
350
DA4
  3
B6
350
DA5
  0
DICTIONARY
  5
D92
102
{ACAD_REACTORS
330
C
102
}
330
C
100
AcDbDictionary
281
     1
  3
Standard
350
D93
  0
DICTIONARY
  5
D81
102
{ACAD_REACTORS
330
C
102
}
330
C
100
AcDbDictionary
281
     1
  3
2dWireframe
350
D87
  3
3D Hidden
350
D89
  3
3dWireframe
350
D88
  3
Basic
350
D86
  3
Brighten
350
D8D
  3
ColorChange
350
D91
  3
Conceptual
350
D8A
  3
Dim
350
D8C
  3
Facepattern
350
D90
  3
Flat
350
D82
  3
FlatWithEdges
350
D83
  3
Gouraud
350
D84
  3
GouraudWithEdges
350
D85
  3
Linepattern
350
D8F
  3
Realistic
350
D8B
  3
Thicken
350
D8E
  0
XRECORD
  5
DF1
102
{ACAD_REACTORS
330
C
102
}
330
C
100
AcDbXrecord
280
     1
 90
        1
330
D93
  0
DICTIONARY
  5
1B29
102
{ACAD_REACTORS
330
C
102
}
330
C
100
AcDbDictionary
281
     1
  0
DICTIONARY
  5
94
102
{ACAD_REACTORS
330
C
102
}
330
C
100
AcDbDictionary
281
     1
  3
CANNOSCALE
350
E0F
  3
CMLEADERSTYLE
350
E0E
  3
CTABLESTYLE
350
E0D
  3
DIMASSOC
350
96
  3
INDEXCTL
350
95
  3
PROJECTNAME
350
1B26
  0
DICTIONARY
  5
5B
102
{ACAD_REACTORS
330
C
102
}
330
C
100
AcDbDictionary
281
     1
  3
AcmStdDictionary
350
61
  3
AMDTSECTSYM_ARROWCOLOR
350
DC8
  0
DICTIONARY
  5
41
102
{ACAD_REACTORS
330
C
102
}
330
C
100
AcDbDictionary
281
     1
  0
DICTIONARY
  5
220
102
{ACAD_REACTORS
330
C
102
}
330
C
100
AcDbDictionary
281
     1
  0
XRECORD
  5
1B28
102
{ACAD_REACTORS
330
C
102
}
330
C
100
AcDbXrecord
280
     1
  1
DWGPROPS COOKIE
  2

  3

  4

  6

  7

  8
Administrator
  9

300
AmdtFileType=84
301
=
302
=
303
=
304
=
305
=
306
=
307
=
308
=
309
=
 40
0.0480718287037037
 41
2454594.835300868
 42
2456049.609941215
  1

 90
        1
  0
XRECORD
  5
F85
102
{ACAD_REACTORS
330
DF2
102
}
330
DF2
100
AcDbXrecord
280
     1
102
VTR_0.000_0.000_1.000_1.000_VISUALSTYLE
340
D87
102
VTR_0.000_0.000_1.000_1.000_GRIDDISPLAY
 70
     3
102
VTR_0.000_0.000_1.000_1.000_GRIDMAJOR
 70
     5
102
VTR_0.000_0.000_1.000_1.000_DEFAULTLIGHTING
280
     1
102
VTR_0.000_0.000_1.000_1.000_DEFAULTLIGHTINGTYPE
 70
     1
102
VTR_0.000_0.000_1.000_1.000_BRIGHTNESS
141
0.0
102
VTR_0.000_0.000_1.000_1.000_CONTRAST
142
0.0
  0
DICTIONARY
  5
14E0
102
{ACAD_REACTORS
330
35D
102
}
330
35D
100
AcDbDictionary
281
     1
  0
DICTIONARY
  5
35E
102
{ACAD_REACTORS
330
35D
102
}
330
35D
100
AcDbDictionary
281
     1
  3
takachi1
350
35F
  0
DICTIONARY
  5
14DF
102
{ACAD_REACTORS
330
35D
102
}
330
35D
100
AcDbDictionary
281
     1
1001
ACAD
1000
<All
  0
DICTIONARY
  5
4A4
102
{ACAD_REACTORS
330
35D
102
}
330
35D
100
AcDbDictionary
280
     1
281
     1
  0
XRECORD
  5
F5E
102
{ACAD_REACTORS
330
F5D
102
}
330
F5D
100
AcDbXrecord
280
     1
290
     1
  0
XRECORD
  5
F60
102
{ACAD_REACTORS
330
F5F
102
}
330
F5F
100
AcDbXrecord
280
     1
290
     1
  0
XRECORD
  5
F62
102
{ACAD_REACTORS
330
F61
102
}
330
F61
100
AcDbXrecord
280
     1
290
     1
  0
XRECORD
  5
F64
102
{ACAD_REACTORS
330
F63
102
}
330
F63
100
AcDbXrecord
280
     1
290
     1
  0
XRECORD
  5
F66
102
{ACAD_REACTORS
330
F65
102
}
330
F65
100
AcDbXrecord
280
     1
290
     1
  0
XRECORD
  5
F68
102
{ACAD_REACTORS
330
F67
102
}
330
F67
100
AcDbXrecord
280
     1
290
     1
  0
XRECORD
  5
F6A
102
{ACAD_REACTORS
330
F69
102
}
330
F69
100
AcDbXrecord
280
     1
290
     1
  0
XRECORD
  5
F6C
102
{ACAD_REACTORS
330
F6B
102
}
330
F6B
100
AcDbXrecord
280
     1
290
     1
  0
XRECORD
  5
F6E
102
{ACAD_REACTORS
330
F6D
102
}
330
F6D
100
AcDbXrecord
280
     1
290
     1
  0
XRECORD
  5
F70
102
{ACAD_REACTORS
330
F6F
102
}
330
F6F
100
AcDbXrecord
280
     1
290
     1
  0
XRECORD
  5
F72
102
{ACAD_REACTORS
330
F71
102
}
330
F71
100
AcDbXrecord
280
     1
290
     1
  0
XRECORD
  5
F74
102
{ACAD_REACTORS
330
F73
102
}
330
F73
100
AcDbXrecord
280
     1
290
     1
  0
XRECORD
  5
F76
102
{ACAD_REACTORS
330
F75
102
}
330
F75
100
AcDbXrecord
280
     1
290
     1
  0
XRECORD
  5
F78
102
{ACAD_REACTORS
330
F77
102
}
330
F77
100
AcDbXrecord
280
     1
290
     1
  0
XRECORD
  5
F7A
102
{ACAD_REACTORS
330
F79
102
}
330
F79
100
AcDbXrecord
280
     1
290
     1
  0
XRECORD
  5
F8B
102
{ACAD_REACTORS
330
F8A
102
}
330
F8A
100
AcDbXrecord
280
     1
102
CAMERAPLOTTABLE
 70
     0
102
VISUALSTYLE
340
D87
  0
XRECORD
  5
F8D
102
{ACAD_REACTORS
330
F8C
102
}
330
F8C
100
AcDbXrecord
280
     1
102
CAMERAPLOTTABLE
 70
     0
102
VISUALSTYLE
340
D87
  0
XRECORD
  5
F8F
102
{ACAD_REACTORS
330
F8E
102
}
330
F8E
100
AcDbXrecord
280
     1
102
CAMERAPLOTTABLE
 70
     0
102
VISUALSTYLE
340
D87
  0
XRECORD
  5
F91
102
{ACAD_REACTORS
330
F90
102
}
330
F90
100
AcDbXrecord
280
     1
102
CAMERAPLOTTABLE
 70
     0
102
VISUALSTYLE
340
D87
  0
XRECORD
  5
F93
102
{ACAD_REACTORS
330
F92
102
}
330
F92
100
AcDbXrecord
280
     1
102
CAMERAPLOTTABLE
 70
     0
102
VISUALSTYLE
340
D87
  0
XRECORD
  5
F95
102
{ACAD_REACTORS
330
F94
102
}
330
F94
100
AcDbXrecord
280
     1
102
CAMERAPLOTTABLE
 70
     0
102
VISUALSTYLE
340
D87
  0
SORTENTSTABLE
  5
DDD
102
{ACAD_REACTORS
330
8F
102
}
330
8F
100
AcDbSortentsTable
330
1F
331
A3A
  5
A3A
331
A79
  5
A79
331
A81
  5
A81
331
A42
  5
A42
331
A89
  5
A89
331
A4A
  5
A4A
331
A52
  5
A52
331
9E6
  5
9E6
331
970
  5
970
331
9A7
  5
9A7
331
9EE
  5
9EE
331
9B7
  5
9B7
331
980
  5
980
331
9F6
  5
9F6
331
9BF
  5
9BF
331
9FE
  5
9FE
331
A1B
  5
A1B
331
A5A
  5
A5A
331
A91
  5
A91
331
A62
  5
A62
331
A23
  5
A23
331
A99
  5
A99
331
A6A
  5
A6A
331
A2B
  5
A2B
331
AA1
  5
AA1
331
A72
  5
A72
331
A33
  5
A33
331
A06
  5
A06
331
9C7
  5
9C7
331
A0E
  5
A0E
331
998
  5
998
331
959
  5
959
331
9CF
  5
9CF
331
A16
  5
A16
331
9D7
  5
9D7
331
961
  5
961
331
9DF
  5
9DF
331
A7A
  5
A7A
331
A3B
  5
A3B
331
A82
  5
A82
331
A43
  5
A43
331
A8A
  5
A8A
331
A4B
  5
A4B
331
A53
  5
A53
331
EC4
  5
EC4
331
9A0
  5
9A0
331
9A8
  5
9A8
331
971
  5
971
331
9E7
  5
9E7
331
9EF
  5
9EF
331
979
  5
979
331
9F7
  5
9F7
331
9B8
  5
9B8
331
981
  5
981
331
9FF
  5
9FF
331
A5B
  5
A5B
331
A1C
  5
A1C
331
A92
  5
A92
331
A63
  5
A63
331
A24
  5
A24
331
A9A
  5
A9A
331
A2C
  5
A2C
331
A6B
  5
A6B
331
AA2
  5
AA2
331
A73
  5
A73
331
A34
  5
A34
331
989
  5
989
331
9C0
  5
9C0
331
A07
  5
A07
331
9C8
  5
9C8
331
A0F
  5
A0F
331
999
  5
999
331
95A
  5
95A
331
9D0
  5
9D0
331
A17
  5
A17
331
962
  5
962
331
9D8
  5
9D8
331
A7B
  5
A7B
331
A3C
  5
A3C
331
A83
  5
A83
331
A44
  5
A44
331
DE6
  5
DE5
331
A8B
  5
A8B
331
A4C
  5
A4C
331
DEE
  5
DED
331
A54
  5
A54
331
9A1
  5
9A1
331
9E0
  5
9E0
331
9E8
  5
9E8
331
9A9
  5
9A9
331
972
  5
972
331
9F0
  5
9F0
331
97A
  5
97A
331
982
  5
982
331
9B9
  5
9B9
331
9F8
  5
9F8
331
A1D
  5
A1D
331
A5C
  5
A5C
331
A93
  5
A93
331
A64
  5
A64
331
A25
  5
A25
331
A9B
  5
A9B
331
A6C
  5
A6C
331
A2D
  5
A2D
331
AA3
  5
AA3
331
A74
  5
A74
331
A35
  5
A35
331
A00
  5
A00
331
98A
  5
98A
331
933
  5
933
331
9C1
  5
9C1
331
A08
  5
A08
331
9C9
  5
9C9
331
A10
  5
A10
331
99A
  5
99A
331
95B
  5
95B
331
9D1
  5
9D1
331
963
  5
963
331
9D9
  5
9D9
331
A7C
  5
A7C
331
A3D
  5
A3D
331
A84
  5
A84
331
A45
  5
A45
331
A8C
  5
A8C
331
A4D
  5
A4D
331
A55
  5
A55
331
9E1
  5
9E1
331
9A2
  5
9A2
331
9E9
  5
9E9
331
973
  5
973
331
9F1
  5
9F1
331
97B
  5
97B
331
9F9
  5
9F9
331
9BA
  5
9BA
331
A5D
  5
A5D
331
A1E
  5
A1E
331
A94
  5
A94
331
A26
  5
A26
331
A65
  5
A65
331
A9C
  5
A9C
331
A2E
  5
A2E
331
A6D
  5
A6D
331
AA4
  5
AA4
331
A75
  5
A75
331
A36
  5
A36
331
A01
  5
A01
331
98B
  5
98B
331
9C2
  5
9C2
331
A09
  5
A09
331
993
  5
993
331
9CA
  5
9CA
331
A11
  5
A11
331
99B
  5
99B
331
95C
  5
95C
331
9D2
  5
9D2
331
964
  5
964
331
9DA
  5
9DA
331
A7D
  5
A7D
331
A3E
  5
A3E
331
A85
  5
A85
331
A46
  5
A46
331
DE8
  5
DE7
331
EBF
  5
EBF
331
A8D
  5
A8D
331
A4E
  5
A4E
331
A56
  5
A56
331
9E2
  5
9E2
331
9A3
  5
9A3
331
9EA
  5
9EA
331
974
  5
974
331
9F2
  5
9F2
331
9B3
  5
9B3
331
97C
  5
97C
331
9BB
  5
9BB
331
9FA
  5
9FA
331
A95
  5
A95
331
A1F
  5
A1F
331
A5E
  5
A5E
331
A66
  5
A66
331
A27
  5
A27
331
A9D
  5
A9D
331
A6E
  5
A6E
331
A2F
  5
A2F
331
AA5
  5
AA5
331
A37
  5
A37
331
A76
  5
A76
331
A02
  5
A02
331
98C
  5
98C
331
9C3
  5
9C3
331
A0A
  5
A0A
331
994
  5
994
331
9CB
  5
9CB
331
A12
  5
A12
331
99C
  5
99C
331
95D
  5
95D
331
9D3
  5
9D3
331
9DB
  5
9DB
331
A7E
  5
A7E
331
A3F
  5
A3F
331
A86
  5
A86
331
A47
  5
A47
331
A8E
  5
A8E
331
A4F
  5
A4F
331
A57
  5
A57
331
9E3
  5
9E3
331
9A4
  5
9A4
331
9EB
  5
9EB
331
9F3
  5
9F3
331
9B4
  5
9B4
331
97D
  5
97D
331
9FB
  5
9FB
331
9BC
  5
9BC
331
A18
  5
A18
331
A20
  5
A20
331
A5F
  5
A5F
331
A96
  5
A96
331
E79
  5
E79
331
A28
  5
A28
331
A67
  5
A67
331
A9E
  5
A9E
331
A6F
  5
A6F
331
A30
  5
A30
331
A77
  5
A77
331
9C4
  5
9C4
331
A03
  5
A03
331
995
  5
995
331
9CC
  5
9CC
331
A0B
  5
A0B
331
99D
  5
99D
331
95E
  5
95E
331
9D4
  5
9D4
331
A13
  5
A13
331
9DC
  5
9DC
331
A38
  5
A38
331
A7F
  5
A7F
331
A40
  5
A40
331
DEA
  5
DE9
331
A87
  5
A87
331
A48
  5
A48
331
EC1
  5
EC1
331
A8F
  5
A8F
331
A50
  5
A50
331
C06
  5
C06
331
9E4
  5
9E4
331
9A5
  5
9A5
331
9EC
  5
9EC
331
9F4
  5
9F4
331
9B5
  5
9B5
331
97E
  5
97E
331
9BD
  5
9BD
331
9FC
  5
9FC
331
A19
  5
A19
331
A58
  5
A58
331
A97
  5
A97
331
A21
  5
A21
331
A60
  5
A60
331
A68
  5
A68
331
A29
  5
A29
331
A9F
  5
A9F
331
A70
  5
A70
331
A31
  5
A31
331
9C5
  5
9C5
331
A04
  5
A04
331
996
  5
996
331
957
  5
957
331
9CD
  5
9CD
331
A0C
  5
A0C
331
99E
  5
99E
331
95F
  5
95F
331
9D5
  5
9D5
331
A14
  5
A14
331
9DD
  5
9DD
331
A78
  5
A78
331
A39
  5
A39
331
A80
  5
A80
331
A41
  5
A41
331
C65
  5
C65
331
A88
  5
A88
331
A49
  5
A49
331
A51
  5
A51
331
EC2
  5
EC2
331
9A6
  5
9A6
331
96F
  5
96F
331
9E5
  5
9E5
331
9ED
  5
9ED
331
9F5
  5
9F5
331
9B6
  5
9B6
331
97F
  5
97F
331
9FD
  5
9FD
331
9BE
  5
9BE
331
A59
  5
A59
331
A1A
  5
A1A
331
A90
  5
A90
331
A98
  5
A98
331
A61
  5
A61
331
A22
  5
A22
331
AA0
  5
AA0
331
A2A
  5
A2A
331
A69
  5
A69
331
A32
  5
A32
331
A71
  5
A71
331
9C6
  5
9C6
331
A05
  5
A05
331
A0D
  5
A0D
331
997
  5
997
331
958
  5
958
331
9CE
  5
9CE
331
A15
  5
A15
331
99F
  5
99F
331
960
  5
960
331
9D6
  5
9D6
331
9DE
  5
9DE
  0
XRECORD
  5
F87
102
{ACAD_REACTORS
330
F86
102
}
330
F86
100
AcDbXrecord
280
     1
102
VISUALSTYLE
340
D87
102
GRIDDISPLAY
 70
     0
102
GRIDMAJOR
 70
     5
102
DEFAULTLIGHTING
280
     1
102
DEFAULTLIGHTINGTYPE
 70
     1
102
BRIGHTNESS
141
0.0
102
CONTRAST
142
0.0
102
SHADEPLOT
 70
     0
  0
DIMASSOC
  5
E85
102
{ACAD_REACTORS
330
E84
102
}
330
E84
100
AcDbDimAssoc
330
E79
 90
        3
 70
     0
 71
     0
  1
AcDbOsnapPointRef
 72
    13
331
A97
 73
     0
 91
        0
 40
0.0
 10
0.0
 20
0.0
 30
2.000000000000000E+50
 75
     0
  1
AcDbOsnapPointRef
 72
     1
331
A93
 73
     0
 91
        0
 40
0.0
 10
0.0
 20
0.0
 30
2.000000000000000E+50
 75
     0
  0
DIMASSOC
  5
17A1
102
{ACAD_REACTORS
330
17A0
102
}
330
17A0
100
AcDbDimAssoc
330
1795
 90
        3
 70
     0
 71
     0
  1
AcDbOsnapPointRef
 72
     1
331
A6F
 73
     0
 91
        0
 40
0.0
 10
0.0
 20
0.0
 30
2.000000000000000E+50
 75
     0
  1
AcDbOsnapPointRef
 72
    10
331
A7E
 73
     0
 91
        0
 40
0.0765332774043513
 10
0.0
 20
0.0
 30
0.0
 75
     0
  0
DIMASSOC
  5
17E0
102
{ACAD_REACTORS
330
17DF
102
}
330
17DF
100
AcDbDimAssoc
330
17D4
 90
        3
 70
     0
 71
     0
  1
AcDbOsnapPointRef
 72
    13
331
98B
 73
     0
 91
        0
 40
0.0
 10
0.0
 20
0.0
 30
2.000000000000000E+50
 75
     0
  1
AcDbOsnapPointRef
 72
    13
331
A27
 73
     0
 91
        0
 40
0.0
 10
0.0
 20
0.0
 30
2.000000000000000E+50
 75
     0
  0
DIMASSOC
  5
1827
102
{ACAD_REACTORS
330
1826
102
}
330
1826
100
AcDbDimAssoc
330
181B
 90
        2
 70
     0
 71
     0
  1
AcDbOsnapPointRef
 72
     1
331
AA1
 73
     0
 91
        0
 40
0.0
 10
0.0
 20
0.0
 30
2.000000000000000E+50
 75
     0
  0
DIMASSOC
  5
185C
102
{ACAD_REACTORS
330
185B
102
}
330
185B
100
AcDbDimAssoc
330
1850
 90
        3
 70
     0
 71
     0
  1
AcDbOsnapPointRef
 72
     1
331
9A4
 73
     0
 91
        0
 40
0.0
 10
0.0
 20
0.0
 30
2.000000000000000E+50
 75
     0
  1
AcDbOsnapPointRef
 72
     1
331
99F
 73
     0
 91
        0
 40
0.0
 10
0.0
 20
0.0
 30
2.000000000000000E+50
 75
     0
  0
DIMASSOC
  5
189A
102
{ACAD_REACTORS
330
1899
102
}
330
1899
100
AcDbDimAssoc
330
188E
 90
        3
 70
     0
 71
     0
  1
AcDbOsnapPointRef
 72
     1
331
9A9
331
9AF
 73
     0
 91
        0
 40
0.0
 10
0.0
 20
0.0
 30
2.000000000000000E+50
 75
     0
  1
AcDbOsnapPointRef
 72
     1
331
9A9
331
9AC
 73
     0
 91
        0
 40
0.0
 10
0.0
 20
0.0
 30
2.000000000000000E+50
 75
     0
  0
DIMASSOC
  5
18C8
102
{ACAD_REACTORS
330
18C7
102
}
330
18C7
100
AcDbDimAssoc
330
18C0
 90
        2
 70
     0
 71
     0
  1
AcDbOsnapPointRef
 72
    60
331
9A9
331
9AD
 73
     0
 91
        0
 40
0.0
 10
0.0
 20
0.0
 30
0.0
 75
     0
  0
DIMASSOC
  5
18F0
102
{ACAD_REACTORS
330
18EF
102
}
330
18EF
100
AcDbDimAssoc
330
18E8
 90
        2
 70
     0
 71
     0
  1
AcDbOsnapPointRef
 72
     3
331
99D
 73
     2
 91
        0
 40
0.0
 10
0.0
 20
0.0
 30
0.0
 75
     0
  0
DIMASSOC
  5
1921
102
{ACAD_REACTORS
330
1920
102
}
330
1920
100
AcDbDimAssoc
330
1915
 90
        3
 70
     0
 71
     0
  1
AcDbOsnapPointRef
 72
     1
331
9A9
331
9AD
 73
     0
 91
        0
 40
0.0
 10
0.0
 20
0.0
 30
2.000000000000000E+50
 75
     0
  1
AcDbOsnapPointRef
 72
    13
331
9A9
331
9AB
 73
     0
 91
        0
 40
0.0
 10
0.0
 20
0.0
 30
2.000000000000000E+50
 75
     0
  0
DIMASSOC
  5
1945
102
{ACAD_REACTORS
330
1944
102
}
330
1944
100
AcDbDimAssoc
330
1939
 90
        3
 70
     0
 71
     0
  1
AcDbOsnapPointRef
 72
     1
331
99E
 73
     0
 91
        0
 40
0.0
 10
0.0
 20
0.0
 30
2.000000000000000E+50
 75
     0
  1
AcDbOsnapPointRef
 72
     1
331
994
 73
     0
 91
        0
 40
0.0
 10
0.0
 20
0.0
 30
2.000000000000000E+50
 75
     0
  0
DIMASSOC
  5
19F0
102
{ACAD_REACTORS
330
19EF
102
}
330
19EF
100
AcDbDimAssoc
330
19E2
 90
        3
 70
     0
 71
     0
  1
AcDbOsnapPointRef
 72
    13
331
16F9
 73
     2
 91
        2
 40
0.0
 10
0.0
 20
0.0
 30
2.000000000000000E+50
 75
     0
  1
AcDbOsnapPointRef
 72
     8
331
16F9
 73
     2
 91
        5
 40
0.0000000000000213
 10
0.0
 20
0.0
 30
0.0
 75
     1
  1
AcDbOsnapPointRef
 72
    13
331
16F9
 73
     2
 91
        2
 40
0.0
 10
0.0
 20
0.0
 30
2.000000000000000E+50
 75
     0
  0
DIMASSOC
  5
1A16
102
{ACAD_REACTORS
330
1A15
102
}
330
1A15
100
AcDbDimAssoc
330
1A0A
 90
        3
 70
     0
 71
     0
  1
AcDbOsnapPointRef
 72
     1
331
16F7
 73
     0
 91
        0
 40
0.0
 10
0.0
 20
0.0
 30
2.000000000000000E+50
 75
     0
  1
AcDbOsnapPointRef
 72
     8
331
16F4
 73
     0
 91
        0
 40
1.0
 10
0.0
 20
0.0
 30
0.0
 75
     1
  1
AcDbOsnapPointRef
 72
     1
331
16F7
 73
     0
 91
        0
 40
0.0
 10
0.0
 20
0.0
 30
2.000000000000000E+50
 75
     0
  0
DIMASSOC
  5
1A4E
102
{ACAD_REACTORS
330
1A4D
102
}
330
1A4D
100
AcDbDimAssoc
330
1A40
 90
        3
 70
     0
 71
     0
  1
AcDbOsnapPointRef
 72
     1
331
16F9
 73
     2
 91
        3
 40
0.0
 10
0.0
 20
0.0
 30
2.000000000000000E+50
 75
     0
  1
AcDbOsnapPointRef
 72
     8
331
16F9
 73
     2
 91
        6
 40
-0.0000000000000142
 10
0.0
 20
0.0
 30
0.0
 75
     1
  1
AcDbOsnapPointRef
 72
     1
331
16F9
 73
     2
 91
        3
 40
0.0
 10
0.0
 20
0.0
 30
2.000000000000000E+50
 75
     0
  0
DIMASSOC
  5
1A7A
102
{ACAD_REACTORS
330
1A79
102
}
330
1A79
100
AcDbDimAssoc
330
1A6E
 90
        3
 70
     0
 71
     0
  1
AcDbOsnapPointRef
 72
     1
331
16F8
 73
     0
 91
        0
 40
0.0
 10
0.0
 20
0.0
 30
2.000000000000000E+50
 75
     0
  1
AcDbOsnapPointRef
 72
    13
331
1615
 73
     0
 91
        0
 40
0.0
 10
0.0
 20
0.0
 30
2.000000000000000E+50
 75
     0
  0
DIMASSOC
  5
1ADD
102
{ACAD_REACTORS
330
1ADC
102
}
330
1ADC
100
AcDbDimAssoc
330
1ACF
 90
        3
 70
     0
 71
     0
  1
AcDbOsnapPointRef
 72
     1
331
160F
 73
     0
 91
        0
 40
0.0
 10
0.0
 20
0.0
 30
2.000000000000000E+50
 75
     0
  1
AcDbOsnapPointRef
 72
     1
331
160D
 73
     0
 91
        0
 40
0.0
 10
0.0
 20
0.0
 30
2.000000000000000E+50
 75
     0
  0
XRECORD
  5
F89
102
{ACAD_REACTORS
330
F88
102
}
330
F88
100
AcDbXrecord
280
     1
102
VISUALSTYLE
340
D87
102
GRIDDISPLAY
 70
     0
102
GRIDMAJOR
 70
     5
102
DEFAULTLIGHTING
280
     1
102
DEFAULTLIGHTINGTYPE
 70
     1
102
BRIGHTNESS
141
0.0
102
CONTRAST
142
0.0
102
SHADEPLOT
 70
     0
  0
LAYOUT
  5
22
102
{ACAD_XDICTIONARY
360
1B2C
102
}
102
{ACAD_REACTORS
330
1A
102
}
330
1A
100
AcDbPlotSettings
  1

  2
RICOH IPSiO CX7200 RPCS
  4
A3
  6
AM_VIEW1
 40
5.873749732971191
 41
5.873747825622558
 42
5.873748779296875
 43
5.873748779296875
 44
296.9259948730469
 45
419.9466552734374
 46
2.589999999999999
 47
4.099999999999999
 48
10.0
 49
0.0
140
410.0
141
280.0
142
1.0
143
1.0
 70
 11956
 72
     1
 73
     1
 74
     4
  7
takachi-2.ctb
 75
    16
147
1.0
148
-10.0
149
0.0
100
AcDbLayout
  1
Model
 70
     1
 71
     0
 10
0.0
 20
0.0
 11
12.0
 21
9.0
 12
0.0
 22
0.0
 32
0.0
 14
0.0
 24
0.0
 34
0.0
 15
0.0
 25
0.0
 35
0.0
146
0.0
 13
0.0
 23
0.0
 33
0.0
 16
1.0
 26
0.0
 36
0.0
 17
0.0
 27
1.0
 37
0.0
 76
     0
330
1F
  0
LAYOUT
  5
1E
102
{ACAD_XDICTIONARY
360
1B2A
102
}
102
{ACAD_REACTORS
330
1A
102
}
330
1A
100
AcDbPlotSettings
  1

  2
none_device
  4
Letter_(8.50_x_11.00_Inches)
  6

 40
6.349999904632568
 41
6.349999904632568
 42
6.350006103515625
 43
6.350006103515625
 44
215.8999938964844
 45
279.3999938964844
 46
0.0
 47
0.0
 48
0.0
 49
0.0
140
0.0
141
0.0
142
1.0
143
1.0
 70
   688
 72
     1
 73
     1
 74
     5
  7
takachi-2.ctb
 75
    16
147
1.0
148
0.0
149
0.0
100
AcDbLayout
  1
レイアウト1
 70
     1
 71
     1
 10
-6.350006103515625
 20
-6.349999904632568
 11
273.0499877929688
 21
209.5499939918518
 12
0.0
 22
0.0
 32
0.0
 14
1.000000000000000E+20
 24
1.000000000000000E+20
 34
1.000000000000000E+20
 15
-1.000000000000000E+20
 25
-1.000000000000000E+20
 35
-1.000000000000000E+20
146
0.0
 13
0.0
 23
0.0
 33
0.0
 16
1.0
 26
0.0
 36
0.0
 17
0.0
 27
1.0
 37
0.0
 76
     0
330
1B
331
178
  0
LAYOUT
  5
26
102
{ACAD_XDICTIONARY
360
1B2E
102
}
102
{ACAD_REACTORS
330
1A
102
}
330
1A
100
AcDbPlotSettings
  1

  2
none_device
  4
Letter_(8.50_x_11.00_Inches)
  6

 40
6.349999904632568
 41
6.349999904632568
 42
6.350006103515625
 43
6.350006103515625
 44
215.8999938964844
 45
279.3999938964844
 46
0.0
 47
0.0
 48
0.0
 49
0.0
140
0.0
141
0.0
142
1.0
143
1.0
 70
   688
 72
     1
 73
     1
 74
     5
  7
takachi-2.ctb
 75
    16
147
1.0
148
0.0
149
0.0
100
AcDbLayout
  1
レイアウト2
 70
     1
 71
     2
 10
-6.350006103515625
 20
-6.349999904632568
 11
273.0499877929688
 21
209.5499939918518
 12
0.0
 22
0.0
 32
0.0
 14
1.000000000000000E+20
 24
1.000000000000000E+20
 34
1.000000000000000E+20
 15
-1.000000000000000E+20
 25
-1.000000000000000E+20
 35
-1.000000000000000E+20
146
0.0
 13
0.0
 23
0.0
 33
0.0
 16
1.0
 26
0.0
 36
0.0
 17
0.0
 27
1.0
 37
0.0
 76
     0
330
23
331
17C
  0
MATERIAL
  5
D71
102
{ACAD_XDICTIONARY
360
D72
102
}
102
{ACAD_REACTORS
330
BD
102
}
330
BD
100
AcDbMaterial
  1
ByBlock
 72
     0
 73
     2
 43
0.0008202099737533
 43
0.0
 43
0.0
 43
0.0
 43
0.0
 43
0.0008202099737533
 43
0.0
 43
0.0
 43
0.0
 43
0.0
 43
1.0
 43
0.0
 43
0.0
 43
0.0
 43
0.0
 43
1.0
 77
     0
 78
     2
 47
0.0008202099737533
 47
0.0
 47
0.0
 47
0.0
 47
0.0
 47
0.0008202099737533
 47
0.0
 47
0.0
 47
0.0
 47
0.0
 47
1.0
 47
0.0
 47
0.0
 47
0.0
 47
0.0
 47
1.0
171
     0
172
     2
 49
0.0008202099737533
 49
0.0
 49
0.0
 49
0.0
 49
0.0
 49
0.0008202099737533
 49
0.0
 49
0.0
 49
0.0
 49
0.0
 49
1.0
 49
0.0
 49
0.0
 49
0.0
 49
0.0
 49
1.0
175
     0
176
     2
142
0.0008202099737533
142
0.0
142
0.0
142
0.0
142
0.0
142
0.0008202099737533
142
0.0
142
0.0
142
0.0
142
0.0
142
1.0
142
0.0
142
0.0
142
0.0
142
0.0
142
1.0
179
     0
270
     2
144
0.0008202099737533
144
0.0
144
0.0
144
0.0
144
0.0
144
0.0008202099737533
144
0.0
144
0.0
144
0.0
144
0.0
144
1.0
144
0.0
144
0.0
144
0.0
144
0.0
144
1.0
274
     2
147
0.0008202099737533
147
0.0
147
0.0
147
0.0
147
0.0
147
0.0008202099737533
147
0.0
147
0.0
147
0.0
147
0.0
147
1.0
147
0.0
147
0.0
147
0.0
147
0.0
147
1.0
  0
MATERIAL
  5
D69
102
{ACAD_XDICTIONARY
360
D6A
102
}
102
{ACAD_REACTORS
330
BD
102
}
330
BD
100
AcDbMaterial
  1
ByLayer
 72
     0
 73
     2
 43
0.0008202099737533
 43
0.0
 43
0.0
 43
0.0
 43
0.0
 43
0.0008202099737533
 43
0.0
 43
0.0
 43
0.0
 43
0.0
 43
1.0
 43
0.0
 43
0.0
 43
0.0
 43
0.0
 43
1.0
 77
     0
 78
     2
 47
0.0008202099737533
 47
0.0
 47
0.0
 47
0.0
 47
0.0
 47
0.0008202099737533
 47
0.0
 47
0.0
 47
0.0
 47
0.0
 47
1.0
 47
0.0
 47
0.0
 47
0.0
 47
0.0
 47
1.0
171
     0
172
     2
 49
0.0008202099737533
 49
0.0
 49
0.0
 49
0.0
 49
0.0
 49
0.0008202099737533
 49
0.0
 49
0.0
 49
0.0
 49
0.0
 49
1.0
 49
0.0
 49
0.0
 49
0.0
 49
0.0
 49
1.0
175
     0
176
     2
142
0.0008202099737533
142
0.0
142
0.0
142
0.0
142
0.0
142
0.0008202099737533
142
0.0
142
0.0
142
0.0
142
0.0
142
1.0
142
0.0
142
0.0
142
0.0
142
0.0
142
1.0
179
     0
270
     2
144
0.0008202099737533
144
0.0
144
0.0
144
0.0
144
0.0
144
0.0008202099737533
144
0.0
144
0.0
144
0.0
144
0.0
144
1.0
144
0.0
144
0.0
144
0.0
144
0.0
144
1.0
274
     2
147
0.0008202099737533
147
0.0
147
0.0
147
0.0
147
0.0
147
0.0008202099737533
147
0.0
147
0.0
147
0.0
147
0.0
147
1.0
147
0.0
147
0.0
147
0.0
147
0.0
147
1.0
  0
MATERIAL
  5
D79
102
{ACAD_XDICTIONARY
360
D7A
102
}
102
{ACAD_REACTORS
330
BD
102
}
330
BD
100
AcDbMaterial
  1
Global
 72
     0
 73
     2
 43
0.0008202099737533
 43
0.0
 43
0.0
 43
0.0
 43
0.0
 43
0.0008202099737533
 43
0.0
 43
0.0
 43
0.0
 43
0.0
 43
1.0
 43
0.0
 43
0.0
 43
0.0
 43
0.0
 43
1.0
 77
     0
 78
     2
 47
0.0008202099737533
 47
0.0
 47
0.0
 47
0.0
 47
0.0
 47
0.0008202099737533
 47
0.0
 47
0.0
 47
0.0
 47
0.0
 47
1.0
 47
0.0
 47
0.0
 47
0.0
 47
0.0
 47
1.0
171
     0
172
     2
 49
0.0008202099737533
 49
0.0
 49
0.0
 49
0.0
 49
0.0
 49
0.0008202099737533
 49
0.0
 49
0.0
 49
0.0
 49
0.0
 49
1.0
 49
0.0
 49
0.0
 49
0.0
 49
0.0
 49
1.0
175
     0
176
     2
142
0.0008202099737533
142
0.0
142
0.0
142
0.0
142
0.0
142
0.0008202099737533
142
0.0
142
0.0
142
0.0
142
0.0
142
1.0
142
0.0
142
0.0
142
0.0
142
0.0
142
1.0
179
     0
270
     2
144
0.0008202099737533
144
0.0
144
0.0
144
0.0
144
0.0
144
0.0008202099737533
144
0.0
144
0.0
144
0.0
144
0.0
144
1.0
144
0.0
144
0.0
144
0.0
144
0.0
144
1.0
274
     2
147
0.0008202099737533
147
0.0
147
0.0
147
0.0
147
0.0
147
0.0008202099737533
147
0.0
147
0.0
147
0.0
147
0.0
147
1.0
147
0.0
147
0.0
147
0.0
147
0.0
147
1.0
  0
ACAD_PROXY_OBJECT
  5
DA7
102
{ACAD_REACTORS
330
DA6
102
}
330
DA6
100
AcDbProxyObject
 90
      499
 91
      586
 95
  2555929
 70
     0
 93
      744
310
40901902A40600000030400FEFFFFFF8000000000000008102B5E8DC0F42B5CFD095374616E646172640000000000000004102405064068000000C1000000000000000410000000000000004102000000304015D90000000000000C03F00
340
14
340
0
340
11
340
0
 94
        0
1001
ACAD_MLEADERVER
1070
     2
1001
ACAD
1000
AcRTDxfName
1000
MLEADERSTYLE
  0
MLINESTYLE
  5
18
102
{ACAD_REACTORS
330
17
102
}
330
17
100
AcDbMlineStyle
  2
STANDARD
 70
     0
  3

 62
   256
 51
90.0
 52
90.0
 71
     2
 49
0.5
 62
   256
  6
BYLAYER
 49
-0.5
 62
   256
  6
BYLAYER
  0
ACDBPLACEHOLDER
  5
F
102
{ACAD_REACTORS
330
E
102
}
330
E
  0
ACAD_PROXY_OBJECT
  5
D95
102
{ACAD_REACTORS
330
D94
102
}
330
D94
100
AcDbProxyObject
 90
      499
 91
      585
 95
  2555929
 70
     0
 93
       49
310
904313A3100598
 94
        0
1001
ACAD
1000
AcRTDxfName
1000
SCALE
  0
ACAD_PROXY_OBJECT
  5
D96
102
{ACAD_REACTORS
330
D94
102
}
330
D94
100
AcDbProxyObject
 90
      499
 91
      585
 95
  2555929
 70
     0
 93
      113
310
904313A32004000000000000004004
 94
        0
1001
ACAD
1000
AcRTDxfName
1000
SCALE
  0
ACAD_PROXY_OBJECT
  5
D97
102
{ACAD_REACTORS
330
D94
102
}
330
D94
100
AcDbProxyObject
 90
      499
 91
      585
 95
  2555929
 70
     0
 93
      113
310
904313A34004000000000000104074
 94
        0
1001
ACAD
1000
AcRTDxfName
1000
SCALE
  0
ACAD_PROXY_OBJECT
  5
D98
102
{ACAD_REACTORS
330
D94
102
}
330
D94
100
AcDbProxyObject
 90
      499
 91
      585
 95
  2555929
 70
     0
 93
      113
310
904313A35004000000000000144004
 94
        0
1001
ACAD
1000
AcRTDxfName
1000
SCALE
  0
ACAD_PROXY_OBJECT
  5
D99
102
{ACAD_REACTORS
330
D94
102
}
330
D94
100
AcDbProxyObject
 90
      499
 91
      585
 95
  2555929
 70
     0
 93
      113
310
904313A38004000000000000204074
 94
        0
1001
ACAD
1000
AcRTDxfName
1000
SCALE
  0
ACAD_PROXY_OBJECT
  5
D9A
102
{ACAD_REACTORS
330
D94
102
}
330
D94
100
AcDbProxyObject
 90
      499
 91
      585
 95
  2555929
 70
     0
 93
      121
310
905313A3130004000000000000244009
 94
        0
1001
ACAD
1000
AcRTDxfName
1000
SCALE
  0
ACAD_PROXY_OBJECT
  5
D9B
102
{ACAD_REACTORS
330
D94
102
}
330
D94
100
AcDbProxyObject
 90
      499
 91
      585
 95
  2555929
 70
     0
 93
      121
310
905313A3136004000000000000304009
 94
        0
1001
ACAD
1000
AcRTDxfName
1000
SCALE
  0
ACAD_PROXY_OBJECT
  5
D9C
102
{ACAD_REACTORS
330
D94
102
}
330
D94
100
AcDbProxyObject
 90
      499
 91
      585
 95
  2555929
 70
     0
 93
      121
310
905313A3230004000000000000344009
 94
        0
1001
ACAD
1000
AcRTDxfName
1000
SCALE
  0
ACAD_PROXY_OBJECT
  5
D9D
102
{ACAD_REACTORS
330
D94
102
}
330
D94
100
AcDbProxyObject
 90
      499
 91
      585
 95
  2555929
 70
     0
 93
      121
310
905313A33300040000000000003E4009
 94
        0
1001
ACAD
1000
AcRTDxfName
1000
SCALE
  0
ACAD_PROXY_OBJECT
  5
D9E
102
{ACAD_REACTORS
330
D94
102
}
330
D94
100
AcDbProxyObject
 90
      499
 91
      585
 95
  2555929
 70
     0
 93
      121
310
905313A3430004000000000000444009
 94
        0
1001
ACAD
1000
AcRTDxfName
1000
SCALE
  0
ACAD_PROXY_OBJECT
  5
D9F
102
{ACAD_REACTORS
330
D94
102
}
330
D94
100
AcDbProxyObject
 90
      499
 91
      585
 95
  2555929
 70
     0
 93
      121
310
905313A3530004000000000000494009
 94
        0
1001
ACAD
1000
AcRTDxfName
1000
SCALE
  0
ACAD_PROXY_OBJECT
  5
DA0
102
{ACAD_REACTORS
330
D94
102
}
330
D94
100
AcDbProxyObject
 90
      499
 91
      585
 95
  2555929
 70
     0
 93
      129
310
906313A313030004000000000000594002
 94
        0
1001
ACAD
1000
AcRTDxfName
1000
SCALE
  0
ACAD_PROXY_OBJECT
  5
DA1
102
{ACAD_REACTORS
330
D94
102
}
330
D94
100
AcDbProxyObject
 90
      499
 91
      585
 95
  2555929
 70
     0
 93
      113
310
904323A31000000000000000010140
 94
        0
1001
ACAD
1000
AcRTDxfName
1000
SCALE
  0
ACAD_PROXY_OBJECT
  5
DA2
102
{ACAD_REACTORS
330
D94
102
}
330
D94
100
AcDbProxyObject
 90
      499
 91
      585
 95
  2555929
 70
     0
 93
      113
310
904343A31000000000000000410159
 94
        0
1001
ACAD
1000
AcRTDxfName
1000
SCALE
  0
ACAD_PROXY_OBJECT
  5
DA3
102
{ACAD_REACTORS
330
D94
102
}
330
D94
100
AcDbProxyObject
 90
      499
 91
      585
 95
  2555929
 70
     0
 93
      113
310
904383A31000000000000000810140
 94
        0
1001
ACAD
1000
AcRTDxfName
1000
SCALE
  0
ACAD_PROXY_OBJECT
  5
DA4
102
{ACAD_REACTORS
330
D94
102
}
330
D94
100
AcDbProxyObject
 90
      499
 91
      585
 95
  2555929
 70
     0
 93
      121
310
90531303A31000000000000000910140
 94
        0
1001
ACAD
1000
AcRTDxfName
1000
SCALE
  0
ACAD_PROXY_OBJECT
  5
DA5
102
{ACAD_REACTORS
330
D94
102
}
330
D94
100
AcDbProxyObject
 90
      499
 91
      585
 95
  2555929
 70
     0
 93
      129
310
9063130303A31000000000000001650102
 94
        0
1001
ACAD
1000
AcRTDxfName
1000
SCALE
  0
TABLESTYLE
  5
D93
102
{ACAD_XDICTIONARY
360
DEF
102
}
102
{ACAD_REACTORS
330
D92
102
}
330
D92
100
AcDbTableStyle
  3
Standard
 70
     0
 71
     0
 40
1.5
 41
1.5
280
     0
281
     0
  7
STANDARD
140
4.5
170
     2
 62
     0
 63
     7
283
     0
274
    -2
284
     1
 64
     0
275
    -2
285
     1
 65
     0
276
    -2
286
     1
 66
     0
277
    -2
287
     1
 67
     0
278
    -2
288
     1
 68
     0
279
    -2
289
     1
 69
     0
  7
STANDARD
140
6.0
170
     5
 62
     0
 63
     7
283
     0
274
    -2
284
     1
 64
     0
275
    -2
285
     1
 65
     0
276
    -2
286
     1
 66
     0
277
    -2
287
     1
 67
     0
278
    -2
288
     1
 68
     0
279
    -2
289
     1
 69
     0
  7
STANDARD
140
4.5
170
     5
 62
     0
 63
     7
283
     0
274
    -2
284
     1
 64
     0
275
    -2
285
     1
 65
     0
276
    -2
286
     1
 66
     0
277
    -2
287
     1
 67
     0
278
    -2
288
     1
 68
     0
279
    -2
289
     1
 69
     0
  0
ACAD_PROXY_OBJECT
  5
D87
102
{ACAD_REACTORS
330
D81
102
}
330
D81
100
AcDbProxyObject
 90
      499
 91
      583
 95
  2555929
 70
     0
 93
      598
310
430C9915DA5C99599C985B59401049028333333333333E3BF0000000000000FB023FFFFFF0802405048070000C3008000000C800405A000000320014050640A01C00030C010500920280D3
 94
        0
1001
ACAD
1000
AcDbSavedByObjectVersion
1070
     0
1000
AcRTDxfName
1000
VISUALSTYLE
  0
ACAD_PROXY_OBJECT
  5
D89
102
{ACAD_REACTORS
330
D81
102
}
330
D81
100
AcDbProxyObject
 90
      499
 91
      583
 95
  2555929
 70
     0
 93
      662
310
428CD108121A5919195B8010640502408333333333333E3BF0000000000000FB023FFFFFF0802409028070000C3008000000C8004080000000000004440A000000320014050640A01C00030C010300920280D0
 94
        0
1001
ACAD
1000
AcDbSavedByObjectVersion
1070
     0
1000
AcRTDxfName
1000
VISUALSTYLE
  0
ACAD_PROXY_OBJECT
  5
D88
102
{ACAD_REACTORS
330
D81
102
}
330
D81
100
AcDbProxyObject
 90
      499
 91
      583
 95
  2555929
 70
     0
 93
      598
310
430CD915DA5C99599C985B59401059028333333333333E3BF0000000000000FB023FFFFFF0802405048070000C3008000000C800405A000000320014050640A01C00030C010500920280D2
 94
        0
1001
ACAD
1000
AcDbSavedByObjectVersion
1070
     0
1000
AcRTDxfName
1000
VISUALSTYLE
  0
ACAD_PROXY_OBJECT
  5
D86
102
{ACAD_REACTORS
330
D81
102
}
330
D81
100
AcDbProxyObject
 90
      499
 91
      583
 95
  2555929
 70
     0
 93
      558
310
4190985CDA58C0107406404333333333333E3BF0000000000000FB023FFFFFF08029048070000C3008000000C80040542201C00030C014050640A01C00030C010500920280D6
 94
        0
1001
ACAD
1000
AcDbSavedByObjectVersion
1070
     0
1000
AcRTDxfName
1000
VISUALSTYLE
  0
ACAD_PROXY_OBJECT
  5
D8D
102
{ACAD_REACTORS
330
D81
102
}
330
D81
100
AcDbProxyObject
 90
      499
 91
      583
 95
  2555929
 70
     0
 93
      598
310
42509C9A59DA1D195B8010C409028333333333333E3BF0000000000000FB023FFFFFF0802405048070000C3008000000C80040542201C00030C014050640A01C00030C010500920280A657
 94
        0
1001
ACAD
1000
AcDbSavedByObjectVersion
1070
     0
1000
AcRTDxfName
1000
VISUALSTYLE
  0
ACAD_PROXY_OBJECT
  5
D91
102
{ACAD_REACTORS
330
D81
102
}
330
D81
100
AcDbProxyObject
 90
      499
 91
      583
 95
  2555929
 70
     0
 93
      622
310
4310DBDB1BDC90DA185B99D9401104090240C333333333333E3BF0000000000000FB0220202030802405048070000C3008000000C800405422202020308014050640A01C00030C010500920280D7
 94
        0
1001
ACAD
1000
AcDbSavedByObjectVersion
1070
     0
1000
AcRTDxfName
1000
VISUALSTYLE
  0
ACAD_PROXY_OBJECT
  5
D8A
102
{ACAD_REACTORS
330
D81
102
}
330
D81
100
AcDbProxyObject
 90
      499
 91
      583
 95
  2555929
 70
     0
 93
      670
310
42D0DBDB98D95C1D1D585B0010940D028333333333333E3BF0000000000000FB023FFFFFF0802409028070000C3008000000C800404000000000000444042201C00030C014050640A01C00030C010300920280D0
 94
        0
1001
ACAD
1000
AcDbSavedByObjectVersion
1070
     0
1000
AcRTDxfName
1000
VISUALSTYLE
  0
ACAD_PROXY_OBJECT
  5
D8C
102
{ACAD_REACTORS
330
D81
102
}
330
D81
100
AcDbProxyObject
 90
      499
 91
      583
 95
  2555929
 70
     0
 93
      582
310
41111A5B4010B409028333333333333E3BF0000000000000FB023FFFFFF0802405048070000C3008000000C80040542201C00030C014050640A01C00030C01050092028099DFFFFFF4
 94
        0
1001
ACAD
1000
AcDbSavedByObjectVersion
1070
     0
1000
AcRTDxfName
1000
VISUALSTYLE
  0
ACAD_PROXY_OBJECT
  5
D90
102
{ACAD_REACTORS
330
D81
102
}
330
D81
100
AcDbProxyObject
 90
      499
 91
      583
 95
  2555929
 70
     0
 93
      614
310
43119858D95C185D1D195C9B8010F409028333333333333E3BF0000000000000FB023FFFFFF0802405048070000C3008000000C80040542201C00030C014050640A01C00030C010500920280D4
 94
        0
1001
ACAD
1000
AcDbSavedByObjectVersion
1070
     0
1000
AcRTDxfName
1000
VISUALSTYLE
  0
ACAD_PROXY_OBJECT
  5
D82
102
{ACAD_REACTORS
330
D81
102
}
330
D81
100
AcDbProxyObject
 90
      499
 91
      583
 95
  2555929
 70
     0
 93
      558
310
41519B185D00240901404333333333333E3BF0000000000000F9023FFFFFF0801029048070000C3008000000C80040542201C00030C014050640A01C00030C010500920286D6
 94
        0
1001
ACAD
1000
AcDbSavedByObjectVersion
1070
     0
1000
AcRTDxfName
1000
VISUALSTYLE
  0
ACAD_PROXY_OBJECT
  5
D83
102
{ACAD_REACTORS
330
D81
102
}
330
D81
100
AcDbProxyObject
 90
      499
 91
      583
 95
  2555929
 70
     0
 93
      638
310
43919B185D15DA5D1A115919D95CC010140901404333333333333E3BF0000000000000F9023FFFFFF080102405048070000C3008000000C800405A000000320014050640A01C00030C010500920286D4
 94
        0
1001
ACAD
1000
AcDbSavedByObjectVersion
1070
     0
1000
AcRTDxfName
1000
VISUALSTYLE
  0
ACAD_PROXY_OBJECT
  5
D84
102
{ACAD_REACTORS
330
D81
102
}
330
D81
100
AcDbProxyObject
 90
      499
 91
      583
 95
  2555929
 70
     0
 93
      582
310
4211DBDD5C985D590010240902404333333333333E3BF0000000000000F9023FFFFFF0801029048070000C3008000000C800405A01C00030C014050640A01C00030C010500920286D6
 94
        0
1001
ACAD
1000
AcDbSavedByObjectVersion
1070
     0
1000
AcRTDxfName
1000
VISUALSTYLE
  0
ACAD_PROXY_OBJECT
  5
D85
102
{ACAD_REACTORS
330
D81
102
}
330
D81
100
AcDbProxyObject
 90
      499
 91
      583
 95
  2555929
 70
     0
 93
      662
310
4451DBDD5C985D5915DA5D1A115919D95CC010340902404333333333333E3BF0000000000000F9023FFFFFF080102405048070000C3008000000C800405A000000320014050640A01C00030C010500920286D4
 94
        0
1001
ACAD
1000
AcDbSavedByObjectVersion
1070
     0
1000
AcRTDxfName
1000
VISUALSTYLE
  0
ACAD_PROXY_OBJECT
  5
D8F
102
{ACAD_REACTORS
330
D81
102
}
330
D81
100
AcDbProxyObject
 90
      499
 91
      583
 95
  2555929
 70
     0
 93
      614
310
43131A5B995C185D1D195C9B8010E409028333333333333E3BF0000000000000FB023FFFFFF0802405048070000C3008000000C80041D42201C00030C014050640A01C00030C010500920E80D5
 94
        0
1001
ACAD
1000
AcDbSavedByObjectVersion
1070
     0
1000
AcRTDxfName
1000
VISUALSTYLE
  0
ACAD_PROXY_OBJECT
  5
D8B
102
{ACAD_REACTORS
330
D81
102
}
330
D81
100
AcDbProxyObject
 90
      499
 91
      583
 95
  2555929
 70
     0
 93
      590
310
429499585B1A5CDD1A58C0108409028333333333333E3BF0000000000000FB023FFFFFF08024068070000C3008000000C8004054221E1E1E308014050640A01C00030C010500920286D0
 94
        0
1001
ACAD
1000
AcDbSavedByObjectVersion
1070
     0
1000
AcRTDxfName
1000
VISUALSTYLE
  0
ACAD_PROXY_OBJECT
  5
D8E
102
{ACAD_REACTORS
330
D81
102
}
330
D81
100
AcDbProxyObject
 90
      499
 91
      583
 95
  2555929
 70
     0
 93
      582
310
42151A1A58DAD95B8010D409028333333333333E3BF0000000000000FB023FFFFFF0802405048070000C3008000000C80040543201C00030C014050640A01C00030C010500920280D4
 94
        0
1001
ACAD
1000
AcDbSavedByObjectVersion
1070
     0
1000
AcRTDxfName
1000
VISUALSTYLE
  0
DICTIONARYVAR
  5
E0F
102
{ACAD_REACTORS
330
94
102
}
330
94
100
DictionaryVariables
280
     0
  1
1:1
  0
DICTIONARYVAR
  5
E0E
102
{ACAD_REACTORS
330
94
102
}
330
94
100
DictionaryVariables
280
     0
  1
STANDARD
  0
DICTIONARYVAR
  5
E0D
102
{ACAD_REACTORS
330
94
102
}
330
94
100
DictionaryVariables
280
     0
  1
STANDARD
  0
DICTIONARYVAR
  5
96
102
{ACAD_REACTORS
330
94
102
}
330
94
100
DictionaryVariables
280
     0
  1
2
  0
DICTIONARYVAR
  5
95
102
{ACAD_REACTORS
330
94
102
}
330
94
100
DictionaryVariables
280
     0
  1
0
  0
DICTIONARYVAR
  5
1B26
102
{ACAD_REACTORS
330
94
102
}
330
94
100
DictionaryVariables
280
     0
  1

  0
DICTIONARY
  5
61
102
{ACAD_REACTORS
330
5B
102
}
330
5B
100
AcDbDictionary
281
     1
  0
XRECORD
  5
DC8
102
{ACAD_REACTORS
330
5B
102
}
330
5B
100
AcDbXrecord
280
     1
 90
-1023410169
  0
XRECORD
  5
35F
102
{ACAD_REACTORS
330
35E
102
}
330
35E
100
AcDbXrecord
280
     1
 91
       16
330
1E1
 90
        0
 62
     7
370
    -3
331
16
  1
色_7
330
10
 90
        8
 62
     7
370
    -3
331
16
  1
色_7
  0
DICTIONARY
  5
1B2C
330
22
100
AcDbDictionary
280
     1
281
     1
  3
ACAD_XREC_ROUNDTRIP
360
1B2D
  0
DICTIONARY
  5
1B2A
330
1E
100
AcDbDictionary
280
     1
281
     1
  3
ACAD_XREC_ROUNDTRIP
360
1B2B
  0
DICTIONARY
  5
1B2E
330
26
100
AcDbDictionary
280
     1
281
     1
  3
ACAD_XREC_ROUNDTRIP
360
1B2F
  0
DICTIONARY
  5
D72
330
D71
100
AcDbDictionary
280
     1
281
     1
  3
ACAD_XREC_ROUNDTRIP
360
F99
  3
BUMPTILE
360
D74
  3
DIFFUSETILE
360
D73
  3
OPACITYTILE
360
D77
  3
REFLECTIONTILE
360
D76
  3
REFRACTIONTILE
360
D78
  3
SPECULARTILE
360
D75
  0
DICTIONARY
  5
D6A
330
D69
100
AcDbDictionary
280
     1
281
     1
  3
ACAD_XREC_ROUNDTRIP
360
F98
  3
BUMPTILE
360
D6C
  3
DIFFUSETILE
360
D6B
  3
OPACITYTILE
360
D6F
  3
REFLECTIONTILE
360
D6E
  3
REFRACTIONTILE
360
D70
  3
SPECULARTILE
360
D6D
  0
DICTIONARY
  5
D7A
330
D79
100
AcDbDictionary
280
     1
281
     1
  3
ACAD_XREC_ROUNDTRIP
360
F9A
  3
BUMPTILE
360
D7C
  3
DIFFUSETILE
360
D7B
  3
OPACITYTILE
360
D7F
  3
REFLECTIONTILE
360
D7E
  3
REFRACTIONTILE
360
D80
  3
SPECULARTILE
360
D7D
  0
DICTIONARY
  5
DEF
330
D93
100
AcDbDictionary
280
     1
281
     1
  3
ACAD_ROUNDTRIP_2008_TABLESTYLE_CELLSTYLEMAP
360
F84
  3
ACAD_XREC_ROUNDTRIP
360
F9B
  0
XRECORD
  5
1B2D
102
{ACAD_REACTORS
330
1B2C
102
}
330
1B2C
100
AcDbXrecord
280
     1
102
SHADEPLOT
 70
     0
102
SHADEPLOTRESLEVEL
 70
     2
102
SHADEPLOTCUSTOMDPI
 70
   300
  0
XRECORD
  5
1B2B
102
{ACAD_REACTORS
330
1B2A
102
}
330
1B2A
100
AcDbXrecord
280
     1
102
SHADEPLOT
 70
     1
102
SHADEPLOTRESLEVEL
 70
     2
102
SHADEPLOTCUSTOMDPI
 70
   300
  0
XRECORD
  5
1B2F
102
{ACAD_REACTORS
330
1B2E
102
}
330
1B2E
100
AcDbXrecord
280
     1
102
SHADEPLOT
 70
     1
102
SHADEPLOTRESLEVEL
 70
     2
102
SHADEPLOTCUSTOMDPI
 70
   300
  0
XRECORD
  5
F99
102
{ACAD_REACTORS
330
D72
102
}
330
D72
100
AcDbXrecord
280
     1
102
MATERIAL
148
0.0
149
0.0
149
0.0
 93
        0
 94
      127
282
     0
 72
     0
 77
     0
171
     0
175
     0
179
     0
273
     0
  0
XRECORD
  5
D74
102
{ACAD_REACTORS
330
D72
102
}
330
D72
100
AcDbXrecord
280
     1
270
     1
271
     1
  0
XRECORD
  5
D73
102
{ACAD_REACTORS
330
D72
102
}
330
D72
100
AcDbXrecord
280
     1
270
     1
271
     1
  0
XRECORD
  5
D77
102
{ACAD_REACTORS
330
D72
102
}
330
D72
100
AcDbXrecord
280
     1
270
     1
271
     1
  0
XRECORD
  5
D76
102
{ACAD_REACTORS
330
D72
102
}
330
D72
100
AcDbXrecord
280
     1
270
     1
271
     1
  0
XRECORD
  5
D78
102
{ACAD_REACTORS
330
D72
102
}
330
D72
100
AcDbXrecord
280
     1
270
     1
271
     1
  0
XRECORD
  5
D75
102
{ACAD_REACTORS
330
D72
102
}
330
D72
100
AcDbXrecord
280
     1
270
     1
271
     1
  0
XRECORD
  5
F98
102
{ACAD_REACTORS
330
D6A
102
}
330
D6A
100
AcDbXrecord
280
     1
102
MATERIAL
148
0.0
149
0.0
149
0.0
 93
        0
 94
      127
282
     0
 72
     0
 77
     0
171
     0
175
     0
179
     0
273
     0
  0
XRECORD
  5
D6C
102
{ACAD_REACTORS
330
D6A
102
}
330
D6A
100
AcDbXrecord
280
     1
270
     1
271
     1
  0
XRECORD
  5
D6B
102
{ACAD_REACTORS
330
D6A
102
}
330
D6A
100
AcDbXrecord
280
     1
270
     1
271
     1
  0
XRECORD
  5
D6F
102
{ACAD_REACTORS
330
D6A
102
}
330
D6A
100
AcDbXrecord
280
     1
270
     1
271
     1
  0
XRECORD
  5
D6E
102
{ACAD_REACTORS
330
D6A
102
}
330
D6A
100
AcDbXrecord
280
     1
270
     1
271
     1
  0
XRECORD
  5
D70
102
{ACAD_REACTORS
330
D6A
102
}
330
D6A
100
AcDbXrecord
280
     1
270
     1
271
     1
  0
XRECORD
  5
D6D
102
{ACAD_REACTORS
330
D6A
102
}
330
D6A
100
AcDbXrecord
280
     1
270
     1
271
     1
  0
XRECORD
  5
F9A
102
{ACAD_REACTORS
330
D7A
102
}
330
D7A
100
AcDbXrecord
280
     1
102
MATERIAL
148
0.0
149
0.0
149
0.0
 93
        0
 94
      127
282
     0
 72
     0
 77
     0
171
     0
175
     0
179
     0
273
     0
  0
XRECORD
  5
D7C
102
{ACAD_REACTORS
330
D7A
102
}
330
D7A
100
AcDbXrecord
280
     1
270
     1
271
     1
  0
XRECORD
  5
D7B
102
{ACAD_REACTORS
330
D7A
102
}
330
D7A
100
AcDbXrecord
280
     1
270
     1
271
     1
  0
XRECORD
  5
D7F
102
{ACAD_REACTORS
330
D7A
102
}
330
D7A
100
AcDbXrecord
280
     1
270
     1
271
     1
  0
XRECORD
  5
D7E
102
{ACAD_REACTORS
330
D7A
102
}
330
D7A
100
AcDbXrecord
280
     1
270
     1
271
     1
  0
XRECORD
  5
D80
102
{ACAD_REACTORS
330
D7A
102
}
330
D7A
100
AcDbXrecord
280
     1
270
     1
271
     1
  0
XRECORD
  5
D7D
102
{ACAD_REACTORS
330
D7A
102
}
330
D7A
100
AcDbXrecord
280
     1
270
     1
271
     1
  0
ACAD_PROXY_OBJECT
  5
F84
102
{ACAD_REACTORS
330
DEF
102
}
330
DEF
100
AcDbProxyObject
 90
      499
 91
      596
 95
  2555929
 70
     0
 93
     5304
310
40D054060020000020000003200101A000080002A5058000000C10000000000000006101010000000000003E0FC000000000000F83F0000000000003E0FC000000000000F83F02B5E8DC0F42B1CFC0AD7A3703D0AC73F419019018000000C1003FBFFFFFE0000000000003C8FD029018000000C1003FBFFFFFE00000000000
310
03C8FD049018000000C1003FBFFFFFE0000000000003C8FD089018000000C1003FBFFFFFE0000000000003C8FD109018000000C1003FBFFFFFE0000000000003C8FD209018000000C1003FBFFFFFE0000000000003C8FD01405075F5449544C450041501A8000000C800406800020000A94160000003040000000000000012
310
40404000000000000F83F0000000000003E0FC000000000000F83F0000000000003E0FC0AD7A3703D0AC73F02B5E8DC0F42B1CFD0640640600000030400FEFFFFFF8000000000000F23F40A40600000030400FEFFFFFF8000000000000F23F41240600000030400FEFFFFFF8000000000000F23F42240600000030400FEFFF
310
FFF8000000000000F23F44240600000030400FEFFFFFF8000000000000F23F48240600000030400FEFFFFFF8000000000000F23F409014217D2115051115480105406A0000003200101A000080002A5028000000C10000000000000004901010000000000003E0FC000000000000F83F0000000000003E0FC000000000000F
310
83F02B5E8DC0F42B1CFC0AD7A3703D0AC73F419019018000000C1003FBFFFFFE0000000000003C8FD029018000000C1003FBFFFFFE0000000000003C8FD049018000000C1003FBFFFFFE0000000000003C8FD089018000000C1003FBFFFFFE0000000000003C8FD109018000000C1003FBFFFFFE0000000000003C8FD20901
310
8000000C1003FBFFFFFE0000000000003C8FD03409065F444154410000
340
11
340
0
340
0
340
0
340
0
340
0
340
0
340
11
340
0
340
0
340
0
340
0
340
0
340
0
340
11
340
0
340
0
340
0
340
0
340
0
340
0
 94
        0
1001
ACAD
1000
AcRTDxfName
1000
CELLSTYLEMAP
  0
XRECORD
  5
F9B
102
{ACAD_REACTORS
330
DEF
102
}
330
DEF
100
AcDbXrecord
280
     1
102
ACAD_ROUNDTRIP_PRE2007_TABLESTYLE
 90
      512
 91
        0
  1

 92
      512
 93
        0
  2

 94
      512
 95
        0
  3

  0
ENDSEC
  0
EOF
