  0
SECTION
  2
HEADER
  9
$ACADVER
  1
AC1015
  9
$ACADMAINTVER
 70
    20
  9
$DWGCODEPAGE
  3
ANSI_932
  9
$INSBASE
 10
0.0
 20
0.0
 30
0.0
  9
$EXTMIN
 10
0.0
 20
-0.0000000000000533
 30
0.0
  9
$EXTMAX
 10
403.0000000000001
 20
280.0000000000001
 30
0.0
  9
$LIMMIN
 10
0.0
 20
0.0
  9
$LIMMAX
 10
403.0
 20
280.0000000000001
  9
$ORTHOMODE
 70
     0
  9
$REGENMODE
 70
     1
  9
$FILLMODE
 70
     1
  9
$QTEXTMODE
 70
     0
  9
$MIRRTEXT
 70
     1
  9
$LTSCALE
 40
1.0
  9
$ATTMODE
 70
     1
  9
$TEXTSIZE
 40
0.2
  9
$TRACEWID
 40
0.05
  9
$TEXTSTYLE
  7
STANDARD
  9
$CLAYER
  8
0
  9
$CELTYPE
  6
ByLayer
  9
$CECOLOR
 62
   256
  9
$CELTSCALE
 40
1.0
  9
$DISPSILH
 70
     0
  9
$DIMSCALE
 40
1.0
  9
$DIMASZ
 40
2.5
  9
$DIMEXO
 40
1.0
  9
$DIMDLI
 40
10.0
  9
$DIMRND
 40
0.0
  9
$DIMDLE
 40
0.0
  9
$DIMEXE
 40
1.0
  9
$DIMTP
 40
0.1
  9
$DIMTM
 40
0.1
  9
$DIMTXT
 40
3.5
  9
$DIMCEN
 40
0.0
  9
$DIMTSZ
 40
0.0
  9
$DIMTOL
 70
     0
  9
$DIMLIM
 70
     0
  9
$DIMTIH
 70
     0
  9
$DIMTOH
 70
     0
  9
$DIMSE1
 70
     0
  9
$DIMSE2
 70
     0
  9
$DIMTAD
 70
     1
  9
$DIMZIN
 70
     8
  9
$DIMBLK
  1
Open30
  9
$DIMASO
 70
     1
  9
$DIMSHO
 70
     1
  9
$DIMPOST
  1

  9
$DIMAPOST
  1
"
  9
$DIMALT
 70
     0
  9
$DIMALTD
 70
     2
  9
$DIMALTF
 40
0.0393701
  9
$DIMLFAC
 40
1.0
  9
$DIMTOFL
 70
     1
  9
$DIMTVP
 40
0.0
  9
$DIMTIX
 70
     0
  9
$DIMSOXD
 70
     0
  9
$DIMSAH
 70
     0
  9
$DIMBLK1
  1

  9
$DIMBLK2
  1

  9
$DIMSTYLE
  2
AM_ISO
  9
$DIMCLRD
 70
     3
  9
$DIMCLRE
 70
     3
  9
$DIMCLRT
 70
     2
  9
$DIMTFAC
 40
0.71
  9
$DIMGAP
 40
1.5
  9
$DIMJUST
 70
     0
  9
$DIMSD1
 70
     0
  9
$DIMSD2
 70
     0
  9
$DIMTOLJ
 70
     0
  9
$DIMTZIN
 70
     8
  9
$DIMALTZ
 70
     0
  9
$DIMALTTZ
 70
     0
  9
$DIMUPT
 70
     0
  9
$DIMDEC
 70
     2
  9
$DIMTDEC
 70
     2
  9
$DIMALTU
 70
     2
  9
$DIMALTTD
 70
     2
  9
$DIMTXSTY
  7
STANDARD
  9
$DIMAUNIT
 70
     0
  9
$DIMADEC
 70
     0
  9
$DIMALTRND
 40
0.0
  9
$DIMAZIN
 70
     2
  9
$DIMDSEP
 70
    46
  9
$DIMATFIT
 70
     3
  9
$DIMFRAC
 70
     0
  9
$DIMLDRBLK
  1
Open30
  9
$DIMLUNIT
 70
     2
  9
$DIMLWD
 70
    -1
  9
$DIMLWE
 70
    -1
  9
$DIMTMOVE
 70
     0
  9
$LUNITS
 70
     2
  9
$LUPREC
 70
     2
  9
$SKETCHINC
 40
0.1
  9
$FILLETRAD
 40
1.0
  9
$AUNITS
 70
     0
  9
$AUPREC
 70
     0
  9
$MENU
  1
.
  9
$ELEVATION
 40
0.0
  9
$PELEVATION
 40
0.0
  9
$THICKNESS
 40
0.0
  9
$LIMCHECK
 70
     0
  9
$CHAMFERA
 40
2.5
  9
$CHAMFERB
 40
2.5
  9
$CHAMFERC
 40
1.0
  9
$CHAMFERD
 40
0.0
  9
$SKPOLY
 70
     0
  9
$TDCREATE
 40
2455141.414473195
  9
$TDUCREATE
 40
2455141.039473195
  9
$TDUPDATE
 40
2455966.709558738
  9
$TDUUPDATE
 40
2455966.334558739
  9
$TDINDWG
 40
0.4706333333
  9
$TDUSRTIMER
 40
0.4706333333
  9
$USRTIMER
 70
     1
  9
$ANGBASE
 50
0.0
  9
$ANGDIR
 70
     0
  9
$PDMODE
 70
     0
  9
$PDSIZE
 40
0.0
  9
$PLINEWID
 40
0.0
  9
$SPLFRAME
 70
     0
  9
$SPLINETYPE
 70
     6
  9
$SPLINESEGS
 70
     8
  9
$HANDSEED
  5
34CE
  9
$SURFTAB1
 70
     6
  9
$SURFTAB2
 70
     6
  9
$SURFTYPE
 70
     6
  9
$SURFU
 70
     6
  9
$SURFV
 70
     6
  9
$UCSBASE
  2

  9
$UCSNAME
  2

  9
$UCSORG
 10
0.0
 20
0.0
 30
0.0
  9
$UCSXDIR
 10
1.0
 20
0.0
 30
0.0
  9
$UCSYDIR
 10
0.0
 20
1.0
 30
0.0
  9
$UCSORTHOREF
  2

  9
$UCSORTHOVIEW
 70
     0
  9
$UCSORGTOP
 10
0.0
 20
0.0
 30
0.0
  9
$UCSORGBOTTOM
 10
0.0
 20
0.0
 30
0.0
  9
$UCSORGLEFT
 10
0.0
 20
0.0
 30
0.0
  9
$UCSORGRIGHT
 10
0.0
 20
0.0
 30
0.0
  9
$UCSORGFRONT
 10
0.0
 20
0.0
 30
0.0
  9
$UCSORGBACK
 10
0.0
 20
0.0
 30
0.0
  9
$PUCSBASE
  2

  9
$PUCSNAME
  2

  9
$PUCSORG
 10
0.0
 20
0.0
 30
0.0
  9
$PUCSXDIR
 10
1.0
 20
0.0
 30
0.0
  9
$PUCSYDIR
 10
0.0
 20
1.0
 30
0.0
  9
$PUCSORTHOREF
  2

  9
$PUCSORTHOVIEW
 70
     0
  9
$PUCSORGTOP
 10
0.0
 20
0.0
 30
0.0
  9
$PUCSORGBOTTOM
 10
0.0
 20
0.0
 30
0.0
  9
$PUCSORGLEFT
 10
0.0
 20
0.0
 30
0.0
  9
$PUCSORGRIGHT
 10
0.0
 20
0.0
 30
0.0
  9
$PUCSORGFRONT
 10
0.0
 20
0.0
 30
0.0
  9
$PUCSORGBACK
 10
0.0
 20
0.0
 30
0.0
  9
$USERI1
 70
     0
  9
$USERI2
 70
     0
  9
$USERI3
 70
     0
  9
$USERI4
 70
     0
  9
$USERI5
 70
     0
  9
$USERR1
 40
0.0
  9
$USERR2
 40
0.0
  9
$USERR3
 40
0.0
  9
$USERR4
 40
0.0
  9
$USERR5
 40
0.0
  9
$WORLDVIEW
 70
     1
  9
$SHADEDGE
 70
     3
  9
$SHADEDIF
 70
    70
  9
$TILEMODE
 70
     1
  9
$MAXACTVP
 70
    64
  9
$PINSBASE
 10
0.0
 20
0.0
 30
0.0
  9
$PLIMCHECK
 70
     0
  9
$PEXTMIN
 10
1.000000000000000E+20
 20
1.000000000000000E+20
 30
1.000000000000000E+20
  9
$PEXTMAX
 10
-1.000000000000000E+20
 20
-1.000000000000000E+20
 30
-1.000000000000000E+20
  9
$PLIMMIN
 10
-0.2500002402958907
 20
-0.2499999962453767
  9
$PLIMMAX
 10
10.74999951940821
 20
8.249999763458731
  9
$UNITMODE
 70
     0
  9
$VISRETAIN
 70
     1
  9
$PLINEGEN
 70
     0
  9
$PSLTSCALE
 70
     1
  9
$TREEDEPTH
 70
  3020
  9
$CMLSTYLE
  2
Standard
  9
$CMLJUST
 70
     0
  9
$CMLSCALE
 40
1.0
  9
$PROXYGRAPHICS
 70
     1
  9
$MEASUREMENT
 70
     1
  9
$CELWEIGHT
370
    -1
  9
$ENDCAPS
280
     0
  9
$JOINSTYLE
280
     0
  9
$LWDISPLAY
290
     0
  9
$INSUNITS
 70
     4
  9
$HYPERLINKBASE
  1

  9
$STYLESHEET
  1
takachi-2.ctb
  9
$XEDIT
290
     1
  9
$CEPSNTYPE
380
     0
  9
$PSTYLEMODE
290
     1
  9
$FINGERPRINTGUID
  2
{DFEA28E8-798D-4CB3-A478-B73CABC1F885}
  9
$VERSIONGUID
  2
{887E8562-F806-47D8-BDD8-15E355BCB7BC}
  9
$EXTNAMES
290
     1
  9
$PSVPSCALE
 40
0.0
  9
$OLESTARTUP
290
     0
  0
ENDSEC
  0
SECTION
  2
CLASSES
  0
CLASS
  1
ACDBDICTIONARYWDFLT
  2
AcDbDictionaryWithDefault
  3
ObjectDBX Classes
 90
        0
280
     0
281
     0
  0
CLASS
  1
ACDBPLACEHOLDER
  2
AcDbPlaceHolder
  3
ObjectDBX Classes
 90
        0
280
     0
281
     0
  0
CLASS
  1
LAYOUT
  2
AcDbLayout
  3
ObjectDBX Classes
 90
        0
280
     0
281
     0
  0
CLASS
  1
ACME_DOCUMENT
  2
AcMeDbDoc
  3
AcMeServices
 90
     1024
280
     0
281
     0
  0
CLASS
  1
AMGSETTINGSOBJ
  2
AmgSettingsObj
  3
"AcadM|Product Description: AutoCAD Mechanical|Company: Autodesk, Inc."
 90
     1024
280
     0
281
     0
  0
CLASS
  1
ACMESCOPE
  2
AcMeScope
  3
AcMeServices
 90
     1024
280
     0
281
     0
  0
CLASS
  1
ACMECOMMANDHISTORY
  2
AcMeCommandHistory
  3
AcMeServices
 90
     1024
280
     0
281
     0
  0
CLASS
  1
ACIMSYSVARMAN
  2
AcImSysVarManager
  3
AcMeServices
 90
     1024
280
     0
281
     0
  0
CLASS
  1
ACIMREALSYSVAR
  2
AcImRealSysVar
  3
AcMeServices
 90
     1024
280
     0
281
     0
  0
CLASS
  1
ACIMINTSYSVAR
  2
AcImIntSysVar
  3
AcMeServices
 90
     1024
280
     0
281
     0
  0
CLASS
  1
ACMEDRAWINGMAN
  2
AcMeDrawingMan
  3
AcMeServices
 90
     1024
280
     0
281
     0
  0
CLASS
  1
ACMEVIEW
  2
AcMeView
  3
AcMeServices
 90
     1024
280
     0
281
     0
  0
CLASS
  1
ACDBENTITYCACHE
  2
AcMeEntityCache
  3
AcMeServices
 90
     1024
280
     0
281
     0
  0
CLASS
  1
GSMANAGER
  2
AcMeGSManager
  3
AcMeServices
 90
     1024
280
     0
281
     0
  0
CLASS
  1
AMDTINTERNALREACTOR
  2
AmdtInternalReactor
  3
AcMeServices
 90
     1024
280
     0
281
     0
  0
CLASS
  1
ACMESTATEMGR
  2
AcMeStateMgr
  3
AcMeServices
 90
     1024
280
     0
281
     0
  0
CLASS
  1
ACGREFMASTER
  2
AcGrefMaster
  3
AcAttribServices
 90
     1024
280
     0
281
     0
  0
CLASS
  1
ACME_DATABASE
  2
AcMeDbDatabase
  3
AcMeServices
 90
     1024
280
     0
281
     0
  0
CLASS
  1
ACRFINSADJUSTERMGR
  2
AcRfInsAdjusterMgr
  3
AcMeServices
 90
     1024
280
     0
281
     0
  0
CLASS
  1
ACGREFACADMASTER
  2
AcGrefacadMaster
  3
AcGrefServices
 90
     1024
280
     0
281
     0
  0
CLASS
  1
AMIMASTER
  2
AmiMaster
  3
AmiServices
 90
     1024
280
     0
281
     0
  0
CLASS
  1
ACMDATADICTIONARY
  2
AcmDataDictionary
  3
"AcmSymBB|Product Description: AutoCAD Mechanical|Company: Autodesk, Inc."
 90
     1024
280
     0
281
     0
  0
CLASS
  1
ACMDATAENTRYBLOCK
  2
AcmDataEntryBlock
  3
AcmSymBB|Product Description: AutoCAD Mechanical|Company: Autodesk, Inc.
 90
     1024
280
     0
281
     0
  0
CLASS
  1
ACIMSTRSYSVAR
  2
AcImStrSysVar
  3
AcMeServices
 90
     1024
280
     0
281
     0
  0
CLASS
  1
ACMSTANDARDANSI
  2
AcmStandardANSI
  3
"Amdt_StdImp|Product Description: AutoCAD Mechanical|Company: Autodesk, Inc."
 90
     1024
280
     0
281
     0
  0
CLASS
  1
AMGOBJPROPCFG
  2
AmgObjPropCfg
  3
"AmgLay|Product Description: AutoCAD Mechanical|Company: Autodesk, Inc."
 90
     1025
280
     0
281
     0
  0
CLASS
  1
ACMSURFSTANDARDANSI
  2
AcmSurfTextStdANSI
  3
"Amdt_StdImp|Product Description: AutoCAD Mechanical|Company: Autodesk, Inc."
 90
     1024
280
     0
281
     0
  0
CLASS
  1
ACMFCFSTANDARDANSI
  2
AcmFCFStdANSI
  3
"Amdt_StdImp|Product Description: AutoCAD Mechanical|Company: Autodesk, Inc."
 90
     1024
280
     0
281
     0
  0
CLASS
  1
ACMWELDSTANDARDANSI
  2
AcmWeldingStdANSI
  3
"Amdt_StdImp|Product Description: AutoCAD Mechanical|Company: Autodesk, Inc."
 90
     1024
280
     0
281
     0
  0
CLASS
  1
ACMIDSTANDARDANSI
  2
AcmIdStdANSI
  3
"Amdt_StdImp|Product Description: AutoCAD Mechanical|Company: Autodesk, Inc."
 90
     1024
280
     0
281
     0
  0
CLASS
  1
ACMDATUMSTANDARDANSI
  2
AcmDatumStdANSI
  3
"Amdt_StdImp|Product Description: AutoCAD Mechanical|Company: Autodesk, Inc."
 90
     1024
280
     0
281
     0
  0
CLASS
  1
ACMBOMSTANDARDANSI
  2
AcmBOMStdANSI
  3
"Amdt_StdImp|Product Description: AutoCAD Mechanical|Company: Autodesk, Inc."
 90
     1024
280
     0
281
     0
  0
CLASS
  1
ACMDETAILSTANDARDANSI
  2
AmdtDetailSymStdANSI
  3
"Amdt_StdImp|Product Description: AutoCAD Mechanical|Company: Autodesk, Inc."
 90
     1024
280
     0
281
     0
  0
CLASS
  1
ACMSECTIONSTANDARDANSI
  2
AmdtSectionSymStdANSI
  3
"Amdt_StdImp|Product Description: AutoCAD Mechanical|Company: Autodesk, Inc."
 90
     1024
280
     0
281
     0
  0
CLASS
  1
ACMCENTERLINESTANDARDANSI
  2
AmdtCenterLineStdANSI
  3
"Amdt_StdImp|Product Description: AutoCAD Mechanical|Company: Autodesk, Inc."
 90
     1024
280
     0
281
     0
  0
CLASS
  1
ACMNOTESTANDARDANSI
  2
AmdtNoteStdANSI
  3
"Amdt_StdImp|Product Description: AutoCAD Mechanical|Company: Autodesk, Inc."
 90
     1024
280
     0
281
     0
  0
CLASS
  1
ACAMGLAYSTD
  2
AcAmgLayStd
  3
"AmgLay|Product Description: AutoCAD Mechanical|Company: Autodesk, Inc."
 90
     1024
280
     0
281
     0
  0
CLASS
  1
ACAMGDIMSTD
  2
AcAmgDimStd
  3
"AmgDim|Product Description: AutoCAD Mechanical|Company: Autodesk, Inc."
 90
     1024
280
     0
281
     0
  0
CLASS
  1
ACAMGHOLECHARTSTDANSI
  2
AcAmgHoleChartStdANSI
  3
AmgDim|Product Description: AutoCAD Mechanical|Company: Autodesk, Inc.
 90
     1024
280
     0
281
     0
  0
CLASS
  1
ACAMGTITLESTD
  2
AcAmgTitleStd
  3
"AmgTitle|Product Description: AutoCAD Mechanical|Company: Autodesk, Inc."
 90
     4095
280
     0
281
     0
  0
CLASS
  1
LAYER_INDEX
  2
AcDbLayerIndex
  3
ObjectDBX Classes
 90
    32768
280
     0
281
     0
  0
CLASS
  1
IDBUFFER
  2
AcDbIdBuffer
  3
ObjectDBX Classes
 90
    32768
280
     0
281
     0
  0
CLASS
  1
DICTIONARYVAR
  2
AcDbDictionaryVar
  3
ObjectDBX Classes
 90
        0
280
     0
281
     0
  0
CLASS
  1
AM_DRAWING_MGR
  2
AcDmDwgMgr
  3
AcMechDwgViewMgmt
 90
     1024
280
     0
281
     0
  0
CLASS
  1
AM_DWG_DOCUMENT
  2
AcDmDwgDocument
  3
AcMechDwgViewMgmt
 90
     1024
280
     0
281
     0
  0
CLASS
  1
AM_DWG_SHEET
  2
AcDmSheet
  3
AcMechDwgViewMgmt
 90
     1024
280
     0
281
     0
  0
CLASS
  1
AM_VIEWDIMPARMAP
  2
AcDmViewDimParMap
  3
AcMechDwgViewMgmt
 90
     1024
280
     0
281
     0
  0
CLASS
  1
AM_DWGMGR_NAME
  2
AcDmDwgMgrName
  3
AcMechDwgViewMgmt
 90
     1024
280
     0
281
     0
  0
CLASS
  1
AMDTMENUSTATEMGR
  2
AmdtMenuStateMgr
  3
McadcomServices
 90
     1024
280
     0
281
     0
  0
CLASS
  1
AMDTMCOMMENUSTATE
  2
AmdtMcomMenuState
  3
McadcomServices
 90
     1024
280
     0
281
     0
  0
CLASS
  1
MAPIAMMOUDLE
  2
MApiAmModule
  3
MApiAmServices
 90
     1024
280
     0
281
     0
  0
CLASS
  1
AMDTADMENUSTATE
  2
AmdtAdMenuState
  3
DesignerServices
 90
     1024
280
     0
281
     0
  0
CLASS
  1
ADAPPL
  2
AcAdAppl
  3
DesignerServices
 90
     1024
280
     0
281
     0
  0
CLASS
  1
DEPMGR
  2
AcAdDepMgr
  3
DesignerServices
 90
     1024
280
     0
281
     0
  0
CLASS
  1
PARAMMGR
  2
AcAdParamMgr
  3
DesignerServices
 90
     1024
280
     0
281
     0
  0
CLASS
  1
PARAMSCOPE
  2
AcAdParamScope
  3
DesignerServices
 90
     1024
280
     0
281
     0
  0
CLASS
  1
NAMEDAPPL
  2
AcAdNamedAppl
  3
DesignerServices
 90
     1024
280
     0
281
     0
  0
CLASS
  1
AMDTDMMENUSTATE
  2
AmdtDmMenuState
  3
AcMechDwgViewMgmt
 90
     1024
280
     0
281
     0
  0
CLASS
  1
AMDTAMMENUSTATE
  2
AmdtAmMenuState
  3
DesignerAssemblies
 90
     1024
280
     0
281
     0
  0
CLASS
  1
ACAMPROJECT
  2
AcAmProject
  3
DesignerAssemblies
 90
     1024
280
     0
281
     0
  0
CLASS
  1
ACAMGRCOMPDEF
  2
AcAmGrCompDef
  3
DesignerAssemblies
 90
     1024
280
     0
281
     0
  0
CLASS
  1
ACCMCONTEXT
  2
AcCmContext
  3
DesignerAssemblies
 90
     1024
280
     0
281
     0
  0
CLASS
  1
ACAMCOMPDEF
  2
AcAmCompDef
  3
DesignerAssemblies
 90
     1024
280
     0
281
     0
  0
CLASS
  1
ACAMCOMPDEFMGR
  2
AcAmCompDefMgr
  3
DesignerAssemblies
 90
     1024
280
     0
281
     0
  0
CLASS
  1
AMCONTEXTMGR
  2
AcAmContextMgr
  3
DesignerAssemblies
 90
     1024
280
     0
281
     0
  0
CLASS
  1
ACAMCONTEXTMODELER
  2
AcAmContextModeler
  3
DesignerAssemblies
 90
     1024
280
     0
281
     0
  0
CLASS
  1
ACMTHREADLINESTANDARDANSI
  2
AmdtThreadLineStdANSI
  3
"Amdt_StdImp|Product Description: AutoCAD Mechanical|Company: Autodesk, Inc."
 90
     1024
280
     0
281
     0
  0
CLASS
  1
CATALOGSTATE
  2
AcAmCatalogState
  3
DesignerAssemblies
 90
     1024
280
     0
281
     0
  0
CLASS
  1
ACAMGRCOMPDEFSET
  2
AcAmGrCompDefSet
  3
DesignerAssemblies
 90
     1024
280
     0
281
     0
  0
CLASS
  1
AMDTBROWSERDBTAB
  2
AmdtBrowserDbTab
  3
McadcomServices
 90
     1024
280
     0
281
     0
  0
CLASS
  1
CBROWSERAPPOBJECT
  2
CBrowserAppObject
  3
McadcomServices
 90
     1024
280
     0
281
     0
  0
CLASS
  1
DM_PLACEHOLDER
  2
AcDmSelsetPlaceholder
  3
AcMechDwgViewMgmt
 90
     1024
280
     0
281
     0
  0
CLASS
  1
AMDTNOTETEMPLATEDB
  2
AmdtNoteTemplateDB
  3
AcmSymBB|Product Description: AutoCAD Mechanical|Company: Autodesk, Inc.
 90
     1024
280
     0
281
     0
  0
CLASS
  1
ACMSTANDARDISO
  2
AcmStandardISO
  3
"Amdt_StdImp|Product Description: AutoCAD Mechanical|Company: Autodesk, Inc."
 90
     1024
280
     0
281
     0
  0
CLASS
  1
AMDTEDGESTANDARDISO
  2
AmdtEdgeStdISO
  3
"Amdt_StdImp|Product Description: AutoCAD Mechanical|Company: Autodesk, Inc."
 90
     1024
280
     0
281
     0
  0
CLASS
  1
ACMSURFSTANDARDISO
  2
AcmSurfTextStdISO
  3
"Amdt_StdImp|Product Description: AutoCAD Mechanical|Company: Autodesk, Inc."
 90
     1024
280
     0
281
     0
  0
CLASS
  1
ACMFCFSTANDARDISO
  2
AcmFCFStdISO
  3
"Amdt_StdImp|Product Description: AutoCAD Mechanical|Company: Autodesk, Inc."
 90
     1024
280
     0
281
     0
  0
CLASS
  1
ACMWELDSTANDARDISO
  2
AcmWeldingStdISO
  3
"Amdt_StdImp|Product Description: AutoCAD Mechanical|Company: Autodesk, Inc."
 90
     1024
280
     0
281
     0
  0
CLASS
  1
ACMIDSTANDARDISO
  2
AcmIdStdISO
  3
"Amdt_StdImp|Product Description: AutoCAD Mechanical|Company: Autodesk, Inc."
 90
     1024
280
     0
281
     0
  0
CLASS
  1
ACMDATUMSTANDARDISO
  2
AcmDatumStdISO
  3
"Amdt_StdImp|Product Description: AutoCAD Mechanical|Company: Autodesk, Inc."
 90
     1024
280
     0
281
     0
  0
CLASS
  1
ACMBOMSTANDARDISO
  2
AcmBOMStdISO
  3
"Amdt_StdImp|Product Description: AutoCAD Mechanical|Company: Autodesk, Inc."
 90
     1024
280
     0
281
     0
  0
CLASS
  1
ACMDETAILSTANDARDISO
  2
AmdtDetailSymStdISO
  3
"Amdt_StdImp|Product Description: AutoCAD Mechanical|Company: Autodesk, Inc."
 90
     1024
280
     0
281
     0
  0
CLASS
  1
ACMSECTIONSTANDARDISO
  2
AmdtSectionSymStdISO
  3
"Amdt_StdImp|Product Description: AutoCAD Mechanical|Company: Autodesk, Inc."
 90
     1024
280
     0
281
     0
  0
CLASS
  1
ACMCENTERLINESTANDARDISO
  2
AmdtCenterLineStdISO
  3
"Amdt_StdImp|Product Description: AutoCAD Mechanical|Company: Autodesk, Inc."
 90
     1024
280
     0
281
     0
  0
CLASS
  1
ACMTHREADLINESTANDARDISO
  2
AmdtThreadLineStdISO
  3
"Amdt_StdImp|Product Description: AutoCAD Mechanical|Company: Autodesk, Inc."
 90
     1024
280
     0
281
     0
  0
CLASS
  1
ACMNOTESTANDARDISO
  2
AmdtNoteStdISO
  3
"Amdt_StdImp|Product Description: AutoCAD Mechanical|Company: Autodesk, Inc."
 90
     1024
280
     0
281
     0
  0
CLASS
  1
ACAMGHOLECHARTSTDISO
  2
AcAmgHoleChartStdISO
  3
AmgDim|Product Description: AutoCAD Mechanical|Company: Autodesk, Inc.
 90
     1024
280
     0
281
     0
  0
CLASS
  1
ACAMGFILTERDAT
  2
AcAmgFilterDat
  3
"AcadM|Product Description: AutoCAD Mechanical|Company: Autodesk, Inc."
 90
     1024
280
     0
281
     0
  0
CLASS
  1
ACMBOM
  2
AcmBom
  3
"AcmSymBB|Product Description: AutoCAD Mechanical|Company: Autodesk, Inc."
 90
     1024
280
     0
281
     0
  0
CLASS
  1
AMDTFORMULAUPDATEDISPATCHER
  2
AmdtFormulaUpdateDispatcher
  3
AcMeServices
 90
     1024
280
     0
281
     0
  0
CLASS
  1
ACMPARTLIST
  2
AcmPartList
  3
"AcmSymBB|Product Description: AutoCAD Mechanical|Company: Autodesk, Inc."
 90
    36863
280
     0
281
     1
  0
CLASS
  1
ACDBOPPOLYLINERES
  2
AcDbOpPolylineRes
  3
AcGrefServices
 90
    33792
280
     0
281
     0
  0
CLASS
  1
ACRFINSADJ
  2
AcRfInsAdjuster
  3
AcMeServices
 90
    33792
280
     0
281
     0
  0
CLASS
  1
MATERIAL
  2
AcDbMaterial
  3
ObjectDBX Classes
 90
     1153
280
     0
281
     0
  0
CLASS
  1
VISUALSTYLE
  2
AcDbVisualStyle
  3
ObjectDBX Classes
 90
     4095
280
     0
281
     0
  0
CLASS
  1
TABLESTYLE
  2
AcDbTableStyle
  3
ObjectDBX Classes
 90
     4095
280
     0
281
     0
  0
CLASS
  1
SCALE
  2
AcDbScale
  3
ObjectDBX Classes
 90
     1153
280
     0
281
     0
  0
CLASS
  1
MLEADERSTYLE
  2
AcDbMLeaderStyle
  3
ACDB_MLEADERSTYLE_CLASS
 90
     4095
280
     0
281
     0
  0
CLASS
  1
ACRFATTGENMGR
  2
AcRfAttGeneralMgr
  3
AcAttribServices
 90
     1024
280
     0
281
     0
  0
CLASS
  1
ACRFOBJATTMGR
  2
AcRfObjAttGroupMgr
  3
AcAttribServices
 90
     1024
280
     0
281
     0
  0
CLASS
  1
ACRFMCADAPIATTHOLDER
  2
AcRfMCADAPIAttHolder
  3
AcAttribServices
 90
     1024
280
     0
281
     0
  0
CLASS
  1
AMDTSYSATTR
  2
AmdtSystemAttribute
  3
AcAttribServices
 90
     1024
280
     0
281
     0
  0
CLASS
  1
ACMTAPERSTANDARDANSI
  2
AcmTaperStdANSI
  3
"Amdt_StdImp|Product Description: AutoCAD Mechanical|Company: Autodesk, Inc."
 90
     1024
280
     0
281
     0
  0
CLASS
  1
ACMANOOTATIONVIEWSTANDARDANSI
  2
AmdtAnViewStdANSI
  3
"Amdt_StdImp|Product Description: AutoCAD Mechanical|Company: Autodesk, Inc."
 90
     1024
280
     0
281
     0
  0
CLASS
  1
ACMTAPERSTANDARDISO
  2
AcmTaperStdISO
  3
"Amdt_StdImp|Product Description: AutoCAD Mechanical|Company: Autodesk, Inc."
 90
     1024
280
     0
281
     0
  0
CLASS
  1
ACMANOOTATIONVIEWSTANDARDISO
  2
AmdtAnViewStdISO
  3
"Amdt_StdImp|Product Description: AutoCAD Mechanical|Company: Autodesk, Inc."
 90
     1024
280
     0
281
     0
  0
CLASS
  1
EXACXREFPANELOBJECT
  2
ExAcXREFPanelObject
  3
EXAC_ESW
 90
     1025
280
     0
281
     0
  0
CLASS
  1
NPOCOLLECTION
  2
AcDbImpNonPersistentObjectsCollection
  3
ObjectDBX Classes
 90
     1153
280
     0
281
     0
  0
CLASS
  1
DIMASSOC
  2
AcDbDimAssoc
  3
"AcDbDimAssoc|Product Desc:     AcDim ARX App For Dimension|Company:          Autodesk, Inc.|WEB Address:      www.autodesk.com"
 90
    32768
280
     0
281
     0
  0
CLASS
  1
SORTENTSTABLE
  2
AcDbSortentsTable
  3
ObjectDBX Classes
 90
        0
280
     0
281
     0
  0
CLASS
  1
CAMSSTRUCTBTNSTATE
  2
StructBtnState
  3
DesignerAssemblies
 90
    33792
280
     0
281
     0
  0
CLASS
  1
CELLSTYLEMAP
  2
AcDbCellStyleMap
  3
ObjectDBX Classes
 90
     1152
280
     0
281
     0
  0
CLASS
  1
VAACXREFPANELOBJECT
  2
VaAcXREFPanelObject
  3
VAAC_ADDIN
 90
    32768
280
     0
281
     0
  0
CLASS
  1
VAACIMAGEINVENTORY
  2
VaAcImageInventory
  3
VAAC_ADDIN
 90
    32768
280
     0
281
     0
  0
ENDSEC
  0
SECTION
  2
TABLES
  0
TABLE
  2
VPORT
  5
8
102
{ACAD_XDICTIONARY
360
29EE
102
}
330
0
100
AcDbSymbolTable
 70
     1
  0
VPORT
  5
348F
330
8
100
AcDbSymbolTableRecord
100
AcDbViewportTableRecord
  2
*Active
 70
     0
 10
0.0
 20
0.0
 11
1.0
 21
1.0
 12
206.0588483627195
 22
140.0000013038913
 13
0.0
 23
0.0
 14
2.5
 24
2.5
 15
10.0
 25
10.0
 16
0.0
 26
0.0
 36
1.0
 17
0.0
 27
0.0
 37
0.0
 40
264.0729637852087
 41
1.614727854855923
 42
50.0
 43
0.0
 44
0.0
 50
0.0
 51
0.0
 71
     0
 72
   100
 73
     1
 74
     3
 75
     0
 76
     0
 77
     0
 78
     0
281
     0
 65
     1
110
0.0
120
0.0
130
0.0
111
1.0
121
0.0
131
0.0
112
0.0
122
1.0
132
0.0
 79
     0
146
0.0
  0
ENDTAB
  0
TABLE
  2
LTYPE
  5
5
330
0
100
AcDbSymbolTable
 70
    25
  0
LTYPE
  5
14
330
5
100
AcDbSymbolTableRecord
100
AcDbLinetypeTableRecord
  2
ByBlock
 70
     0
  3

 72
    65
 73
     0
 40
0.0
  0
LTYPE
  5
15
330
5
100
AcDbSymbolTableRecord
100
AcDbLinetypeTableRecord
  2
ByLayer
 70
     0
  3

 72
    65
 73
     0
 40
0.0
  0
LTYPE
  5
16
330
5
100
AcDbSymbolTableRecord
100
AcDbLinetypeTableRecord
  2
Continuous
 70
     0
  3
Solid line
 72
    65
 73
     0
 40
0.0
  0
LTYPE
  5
6C
330
5
100
AcDbSymbolTableRecord
100
AcDbLinetypeTableRecord
  2
AM_ISO02W050
 70
     0
  3
__ __ __ __ __ __ __ __ __ __ __ __ __ __ __
 72
    65
 73
     2
 40
7.5
 49
6.0
 74
     0
 49
-1.5
 74
     0
  0
LTYPE
  5
6D
330
5
100
AcDbSymbolTableRecord
100
AcDbLinetypeTableRecord
  2
AM_ISO08W050
 70
     0
  3
____ . ____ . ____ . ____ . ____ . ____ . ____
 72
    65
 73
     4
 40
18.0
 49
12.0
 74
     0
 49
-1.5
 74
     0
 49
3.0
 74
     0
 49
-1.5
 74
     0
  0
LTYPE
  5
6E
330
5
100
AcDbSymbolTableRecord
100
AcDbLinetypeTableRecord
  2
AM_ISO09W050
 70
     0
  3
_____ . . _____ . . _____ . . ____ .. ____
 72
    65
 73
     6
 40
22.5
 49
12.0
 74
     0
 49
-1.5
 74
     0
 49
3.0
 74
     0
 49
-1.5
 74
     0
 49
3.0
 74
     0
 49
-1.5
 74
     0
  0
LTYPE
  5
6F
330
5
100
AcDbSymbolTableRecord
100
AcDbLinetypeTableRecord
  2
Amconstr
 70
     0
  3
_______________________
 72
    65
 73
     2
 40
9999.0
 49
9999.0
 74
     0
 49
0.0
 74
     0
  0
LTYPE
  5
70
330
5
100
AcDbSymbolTableRecord
100
AcDbLinetypeTableRecord
  2
AM_ISO08W050x2
 70
     0
  3
__ . __ . __ . __ . __ . __
 72
    65
 73
     4
 40
9.0
 49
6.0
 74
     0
 49
-0.75
 74
     0
 49
1.5
 74
     0
 49
-0.75
 74
     0
  0
LTYPE
  5
71
330
5
100
AcDbSymbolTableRecord
100
AcDbLinetypeTableRecord
  2
AM_ISO02W050x2
 70
     0
  3
 _ _ _ _ _ _ _ _ _ _ _ _
 72
    65
 73
     2
 40
3.75
 49
3.0
 74
     0
 49
-0.75
 74
     0
  0
LTYPE
  5
74
330
5
100
AcDbSymbolTableRecord
100
AcDbLinetypeTableRecord
  2
Amzigzag
 70
     0
  3
/\/-/\/-/\/-/\/-/\/-/\/
 72
    65
 73
     2
 40
11.0001
 49
0.0001
 74
     4
 75
   135
340
73
 46
0.04
 50
0.0
 44
0.0
 45
0.0
 49
-11.0
 74
     0
  0
LTYPE
  5
75
330
5
100
AcDbSymbolTableRecord
100
AcDbLinetypeTableRecord
  2
HIDDEN
 70
     0
  3
Hidden __ __ __ __ __ __ __ __ __ __ __ __ __ _
 72
    65
 73
     2
 40
0.375
 49
0.25
 74
     0
 49
-0.125
 74
     0
  0
LTYPE
  5
76
330
5
100
AcDbSymbolTableRecord
100
AcDbLinetypeTableRecord
  2
CENTER
 70
     0
  3
Center ____ _ ____ _ ____ _ ____ _ ____ _ ____
 72
    65
 73
     4
 40
2.0
 49
1.25
 74
     0
 49
-0.25
 74
     0
 49
0.25
 74
     0
 49
-0.25
 74
     0
  0
LTYPE
  5
77
330
5
100
AcDbSymbolTableRecord
100
AcDbLinetypeTableRecord
  2
PHANTOM2
 70
     0
  3
Phantom (.5x) ___ _ _ ___ _ _ ___ _ _ ___ _ _
 72
    65
 73
     6
 40
1.25
 49
0.625
 74
     0
 49
-0.125
 74
     0
 49
0.125
 74
     0
 49
-0.125
 74
     0
 49
0.125
 74
     0
 49
-0.125
 74
     0
  0
LTYPE
  5
78
330
5
100
AcDbSymbolTableRecord
100
AcDbLinetypeTableRecord
  2
CENTER2
 70
     0
  3
Center (.5x) ___ _ ___ _ ___ _ ___ _ ___ _ ___
 72
    65
 73
     4
 40
1.125
 49
0.75
 74
     0
 49
-0.125
 74
     0
 49
0.125
 74
     0
 49
-0.125
 74
     0
  0
LTYPE
  5
79
330
5
100
AcDbSymbolTableRecord
100
AcDbLinetypeTableRecord
  2
HIDDEN2
 70
     0
  3
Hidden (.5x) _ _ _ _ _ _ _ _ _ _ _ _ _ _ _ _ _
 72
    65
 73
     2
 40
0.1875
 49
0.125
 74
     0
 49
-0.0625
 74
     0
  0
LTYPE
  5
7A
330
5
100
AcDbSymbolTableRecord
100
AcDbLinetypeTableRecord
  2
Amzigzag2
 70
     0
  3
/\/-/\/-/\/-/\/-/\/-/\/
 72
    65
 73
     2
 40
0.4401
 49
0.0001
 74
     4
 75
   135
340
73
 46
0.0016
 50
0.0
 44
0.0
 45
0.0
 49
-0.4400000000000001
 74
     0
  0
LTYPE
  5
87
330
5
100
AcDbSymbolTableRecord
100
AcDbLinetypeTableRecord
  2
ACANSTGB
 70
     0
  3
__ . . __ . .
 72
    65
 73
     6
 40
0.35433070866
 49
0.15748031496
 74
     0
 49
-0.03937007874
 74
     0
 49
0.03937007874
 74
     0
 49
-0.03937007874
 74
     0
 49
0.03937007874
 74
     0
 49
-0.03937007874
 74
     0
  0
LTYPE
  5
88
330
5
100
AcDbSymbolTableRecord
100
AcDbLinetypeTableRecord
  2
ACANSTGL
 70
     0
  3
_ _ _ _ _
 72
    65
 73
     2
 40
0.11811023622
 49
0.07874015748
 74
     0
 49
-0.03937007874
 74
     0
  0
LTYPE
  5
1DE
330
5
100
AcDbSymbolTableRecord
100
AcDbLinetypeTableRecord
  2
ACISOWELD
 70
     0
  3
_ _ _ _ _
 72
    65
 73
     2
 40
2.0
 49
2.0
 74
     0
 49
-1.0
 74
     0
  0
LTYPE
  5
1DF
330
5
100
AcDbSymbolTableRecord
100
AcDbLinetypeTableRecord
  2
ACISOTGB
 70
     0
  3
__ . . __ . .
 72
    65
 73
     6
 40
9.0
 49
4.0
 74
     0
 49
-1.0
 74
     0
 49
1.0
 74
     0
 49
-1.0
 74
     0
 49
1.0
 74
     0
 49
-1.0
 74
     0
  0
LTYPE
  5
1E0
330
5
100
AcDbSymbolTableRecord
100
AcDbLinetypeTableRecord
  2
ACISOTGL
 70
     0
  3
_ _ _ _ _
 72
    65
 73
     2
 40
3.0
 49
2.0
 74
     0
 49
-1.0
 74
     0
  0
LTYPE
  5
1FE
330
5
100
AcDbSymbolTableRecord
100
AcDbLinetypeTableRecord
  2
gen3
 70
     0
  3
-- -- -- -- -- -- -- -- -- -- -- -- -- -- --
 72
    65
 73
     2
 40
6.25
 49
4.75
 74
     0
 49
-1.5
 74
     0
  0
LTYPE
  5
1FF
330
5
100
AcDbSymbolTableRecord
100
AcDbLinetypeTableRecord
  2
gen7
 70
     0
  3
____ . ____ . ____ . ____ . ____ . ____ . ____
 72
    65
 73
     4
 40
13.75
 49
9.75
 74
     0
 49
-1.5
 74
     0
 49
1.0
 74
     0
 49
-1.5
 74
     0
  0
LTYPE
  5
200
330
5
100
AcDbSymbolTableRecord
100
AcDbLinetypeTableRecord
  2
gen3a
 70
     0
  3
 - - - - -
 72
    65
 73
     2
 40
3.125
 49
2.25
 74
     0
 49
-0.875
 74
     0
  0
LTYPE
  5
201
330
5
100
AcDbSymbolTableRecord
100
AcDbLinetypeTableRecord
  2
gen7a
 70
     0
  3
__ . __ . __
 72
    65
 73
     4
 40
6.875
 49
4.75
 74
     0
 49
-0.875
 74
     0
 49
0.375
 74
     0
 49
-0.875
 74
     0
  0
LTYPE
  5
202
330
5
100
AcDbSymbolTableRecord
100
AcDbLinetypeTableRecord
  2
gen4a
 70
     0
  3
_____ . . _____ . . _____ . . ____ .. ____
 72
    65
 73
     6
 40
16.25
 49
9.75
 74
     0
 49
-1.5
 74
     0
 49
1.0
 74
     0
 49
-1.5
 74
     0
 49
1.0
 74
     0
 49
-1.5
 74
     0
  0
LTYPE
  5
203
330
5
100
AcDbSymbolTableRecord
100
AcDbLinetypeTableRecord
  2
genzigzag
 70
     0
  3
/\/-/\/-/\/-/\/-/\/-/\/
 72
    65
 73
     2
 40
12.0001
 49
0.0001
 74
     4
 75
   135
340
73
 46
2.0
 50
0.0
 44
0.0
 45
0.0
 49
-12.0
 74
     0
  0
ENDTAB
  0
TABLE
  2
LAYER
  5
2
102
{ACAD_XDICTIONARY
360
2C1
102
}
330
0
100
AcDbSymbolTable
 70
    26
  0
LAYER
  5
10
102
{ACAD_XDICTIONARY
360
1C00
102
}
330
2
100
AcDbSymbolTableRecord
100
AcDbLayerTableRecord
  2
0
 70
     0
 62
     7
  6
Continuous
370
    -3
390
F
  0
LAYER
  5
1F0
102
{ACAD_XDICTIONARY
360
1C02
102
}
330
2
100
AcDbSymbolTableRecord
100
AcDbLayerTableRecord
  2
AM_5
 70
     0
 62
     3
  6
Continuous
370
    25
390
F
  0
LAYER
  5
204
330
2
100
AcDbSymbolTableRecord
100
AcDbLayerTableRecord
  2
Defpoints
 70
     0
 62
     7
  6
Continuous
290
     0
370
    -3
390
F
  0
LAYER
  5
23E
102
{ACAD_XDICTIONARY
360
1C04
102
}
330
2
100
AcDbSymbolTableRecord
100
AcDbLayerTableRecord
  2
7A
 70
     0
 62
     4
  6
gen7a
370
    -3
390
F
  0
LAYER
  5
23F
102
{ACAD_XDICTIONARY
360
1C06
102
}
330
2
100
AcDbSymbolTableRecord
100
AcDbLayerTableRecord
  2
RAHM2
 70
     0
 62
     1
  6
Continuous
370
    -3
390
F
  0
LAYER
  5
240
102
{ACAD_XDICTIONARY
360
1C08
102
}
330
2
100
AcDbSymbolTableRecord
100
AcDbLayerTableRecord
  2
KLIN
 70
     0
 62
     1
  6
Continuous
370
    -3
390
F
  0
LAYER
  5
2AD
102
{ACAD_XDICTIONARY
360
1C0A
102
}
330
2
100
AcDbSymbolTableRecord
100
AcDbLayerTableRecord
  2
上側
 70
     0
 62
     7
  6
Continuous
370
    25
390
F
  0
LAYER
  5
2AE
102
{ACAD_XDICTIONARY
360
1C0C
102
}
330
2
100
AcDbSymbolTableRecord
100
AcDbLayerTableRecord
  2
下側
 70
     0
 62
     2
  6
Continuous
370
    25
390
F
  0
LAYER
  5
2AF
102
{ACAD_XDICTIONARY
360
1C0E
102
}
330
2
100
AcDbSymbolTableRecord
100
AcDbLayerTableRecord
  2
ｶﾞｽｹｯﾄ
 70
     0
 62
     5
  6
Continuous
370
    25
390
F
  0
LAYER
  5
2B1
102
{ACAD_XDICTIONARY
360
1C12
102
}
330
2
100
AcDbSymbolTableRecord
100
AcDbLayerTableRecord
  2
下側0
 70
     0
 62
     2
  6
AM_ISO02W050x2
370
    13
390
F
  0
LAYER
  5
2B2
102
{ACAD_XDICTIONARY
360
1C14
102
}
330
2
100
AcDbSymbolTableRecord
100
AcDbLayerTableRecord
  2
上側0
 70
     0
 62
     7
  6
AM_ISO02W050x2
370
    13
390
F
  0
LAYER
  5
C52
102
{ACAD_XDICTIONARY
360
1C2A
102
}
330
2
100
AcDbSymbolTableRecord
100
AcDbLayerTableRecord
  2
AM_CL
 70
     0
 62
     1
  6
Amconstr
370
    25
390
F
1001
AcAecLayerStandard
1000

1000

  0
LAYER
  5
CCB
102
{ACAD_XDICTIONARY
360
1C2C
102
}
330
2
100
AcDbSymbolTableRecord
100
AcDbLayerTableRecord
  2
AM_7
 70
     0
 62
     4
  6
AM_ISO08W050
370
    13
390
F
  0
LAYER
  5
10A6
102
{ACAD_XDICTIONARY
360
1C2E
102
}
330
2
100
AcDbSymbolTableRecord
100
AcDbLayerTableRecord
  2
AM_6
 70
     0
 62
     2
  6
Continuous
370
    35
390
F
  0
LAYER
  5
293C
330
2
100
AcDbSymbolTableRecord
100
AcDbLayerTableRecord
  2
AM_0
 70
     0
 62
     7
  6
Continuous
370
    50
390
F
1001
AcAecLayerStandard
1000

1000

  0
LAYER
  5
2976
330
2
100
AcDbSymbolTableRecord
100
AcDbLayerTableRecord
  2
AM_4
 70
     0
 62
     3
  6
Continuous
370
    25
390
F
1001
AcAecLayerStandard
1000

1000

  0
LAYER
  5
2978
330
2
100
AcDbSymbolTableRecord
100
AcDbLayerTableRecord
  2
AM_8
 70
     0
 62
     1
  6
Continuous
370
    25
390
F
1001
AcAecLayerStandard
1000

1000

  0
LAYER
  5
2C0B
330
2
100
AcDbSymbolTableRecord
100
AcDbLayerTableRecord
  2
TK1
 70
     0
 62
     7
  6
Continuous
370
    25
390
F
  0
LAYER
  5
2C0C
330
2
100
AcDbSymbolTableRecord
100
AcDbLayerTableRecord
  2
TK10
 70
     0
 62
     7
  6
AM_ISO02W050x2
370
    13
390
F
  0
LAYER
  5
2C0D
330
2
100
AcDbSymbolTableRecord
100
AcDbLayerTableRecord
  2
TK2
 70
     0
 62
     2
  6
Continuous
370
    25
390
F
  0
LAYER
  5
2C0E
330
2
100
AcDbSymbolTableRecord
100
AcDbLayerTableRecord
  2
TK3
 70
     0
 62
     5
  6
Continuous
370
    25
390
F
  0
LAYER
  5
2C0F
330
2
100
AcDbSymbolTableRecord
100
AcDbLayerTableRecord
  2
TK20
 70
     0
 62
     2
  6
AM_ISO02W050x2
370
    13
390
F
  0
LAYER
  5
2C10
330
2
100
AcDbSymbolTableRecord
100
AcDbLayerTableRecord
  2
TK4
 70
     0
 62
     3
  6
Continuous
370
    25
390
F
  0
LAYER
  5
2C11
330
2
100
AcDbSymbolTableRecord
100
AcDbLayerTableRecord
  2
TK6
 70
     0
 62
     6
  6
Continuous
370
    25
390
F
  0
LAYER
  5
2C12
330
2
100
AcDbSymbolTableRecord
100
AcDbLayerTableRecord
  2
TK40
 70
     0
 62
     3
  6
AM_ISO02W050x2
370
    13
390
F
  0
LAYER
  5
2C13
330
2
100
AcDbSymbolTableRecord
100
AcDbLayerTableRecord
  2
TK60
 70
     0
 62
     6
  6
AM_ISO02W050x2
370
    13
390
F
  0
ENDTAB
  0
TABLE
  2
STYLE
  5
3
330
0
100
AcDbSymbolTable
 70
    11
  0
STYLE
  5
11
330
3
100
AcDbSymbolTableRecord
100
AcDbTextStyleTableRecord
  2
STANDARD
 70
     0
 40
0.0
 41
1.0
 50
0.0
 71
     0
 42
0.2
  3
ISOCP.SHX
  4
EXTFONT.SHX
  0
STYLE
  5
73
330
3
100
AcDbSymbolTableRecord
100
AcDbTextStyleTableRecord
  2

 70
     1
 40
0.0
 41
1.0
 50
0.0
 71
     0
 42
0.2
  3
ltypeshp.shx
  4

  0
STYLE
  5
7B
330
3
100
AcDbSymbolTableRecord
100
AcDbTextStyleTableRecord
  2
ACANSTS
 70
     0
 40
1.0
 41
1.0
 50
0.0
 71
     0
 42
0.2
  3
isoct.shx
  4
extfont.shx
  0
STYLE
  5
86
330
3
100
AcDbSymbolTableRecord
100
AcDbTextStyleTableRecord
  2
ACANSGDT
 70
     0
 40
0.0
 41
1.0
 50
0.0
 71
     0
 42
0.2
  3
amgdtans.shx
  4

  0
STYLE
  5
13C
330
3
100
AcDbSymbolTableRecord
100
AcDbTextStyleTableRecord
  2
USER1
 70
     0
 40
0.0
 41
1.0
 50
0.0
 71
     0
 42
0.2
  3
TXT.SHX
  4

  0
STYLE
  5
13D
330
3
100
AcDbSymbolTableRecord
100
AcDbTextStyleTableRecord
  2
USER2
 70
     0
 40
0.0
 41
1.0
 50
0.0
 71
     0
 42
0.2
  3
SIMPLEX.SHX
  4

  0
STYLE
  5
13E
330
3
100
AcDbSymbolTableRecord
100
AcDbTextStyleTableRecord
  2
USER3
 70
     0
 40
0.0
 41
1.0
 50
0.0
 71
     0
 42
0.2
  3
ITALIC.SHX
  4

  0
STYLE
  5
1D0
330
3
100
AcDbSymbolTableRecord
100
AcDbTextStyleTableRecord
  2
ACISOTS
 70
     0
 40
1.0
 41
1.0
 50
0.0
 71
     0
 42
0.2
  3
isocp.shx
  4
extfont.shx
  0
STYLE
  5
1DD
330
3
100
AcDbSymbolTableRecord
100
AcDbTextStyleTableRecord
  2
ACISOGDT
 70
     0
 40
0.0
 41
1.0
 50
0.0
 71
     0
 42
0.2
  3
amgdt.shx
  4

  0
STYLE
  5
241
330
3
100
AcDbSymbolTableRecord
100
AcDbTextStyleTableRecord
  2

 70
     1
 40
0.0
 41
1.0
 50
0.0
 71
     0
 42
3.0
  3
genltshp.shx
  4

  0
STYLE
  5
94C
330
3
100
AcDbSymbolTableRecord
100
AcDbTextStyleTableRecord
  2
takachi1
 70
     0
 40
2.5
 41
1.0
 50
0.0
 71
     0
 42
2.5
  3
MS PGothic.ttf
  4

1001
ACAD
1000
MS PGothic
1071
    32818
  0
ENDTAB
  0
TABLE
  2
VIEW
  5
6
330
0
100
AcDbSymbolTable
 70
     6
  0
VIEW
  5
2A6
330
6
100
AcDbSymbolTableRecord
100
AcDbViewTableRecord
  2
AM_VIEW1
 70
     0
 40
140.0
 10
112.3860021208908
 20
210.0
 41
224.7720042417816
 11
0.0
 21
0.0
 31
1.0
 12
0.0
 22
0.0
 32
0.0
 42
50.0
 43
0.0
 44
0.0
 50
0.0
 71
     0
281
     0
 72
     0
  0
VIEW
  5
2A7
330
6
100
AcDbSymbolTableRecord
100
AcDbViewTableRecord
  2
AM_VIEW2
 70
     0
 40
140.0
 10
290.6139978791092
 20
210.0
 41
224.7720042417816
 11
0.0
 21
0.0
 31
1.0
 12
0.0
 22
0.0
 32
0.0
 42
50.0
 43
0.0
 44
0.0
 50
0.0
 71
     0
281
     0
 72
     0
  0
VIEW
  5
2A8
330
6
100
AcDbSymbolTableRecord
100
AcDbViewTableRecord
  2
AM_VIEW3
 70
     0
 40
140.0
 10
112.3860021208908
 20
70.00000000000001
 41
224.7720042417816
 11
0.0
 21
0.0
 31
1.0
 12
0.0
 22
0.0
 32
0.0
 42
50.0
 43
0.0
 44
0.0
 50
0.0
 71
     0
281
     0
 72
     0
  0
VIEW
  5
2A9
330
6
100
AcDbSymbolTableRecord
100
AcDbViewTableRecord
  2
AM_VIEW4
 70
     0
 40
140.0
 10
290.6139978791092
 20
70.00000000000001
 41
224.7720042417816
 11
0.0
 21
0.0
 31
1.0
 12
0.0
 22
0.0
 32
0.0
 42
50.0
 43
0.0
 44
0.0
 50
0.0
 71
     0
281
     0
 72
     0
  0
VIEW
  5
2AA
330
6
100
AcDbSymbolTableRecord
100
AcDbViewTableRecord
  2
AM_VIEW5
 70
     0
 40
140.0
 10
201.5
 20
140.0
 41
224.7720042417816
 11
0.0
 21
0.0
 31
1.0
 12
0.0
 22
0.0
 32
0.0
 42
50.0
 43
0.0
 44
0.0
 50
0.0
 71
     0
281
     0
 72
     0
  0
VIEW
  5
2AB
330
6
100
AcDbSymbolTableRecord
100
AcDbViewTableRecord
  2
AM_VIEW6
 70
     0
 40
279.9972000000001
 10
201.5
 20
140.0
 41
449.5395130434783
 11
0.0
 21
0.0
 31
1.0
 12
0.0
 22
0.0
 32
0.0
 42
50.0
 43
0.0
 44
0.0
 50
0.0
 71
     0
281
     0
 72
     0
  0
ENDTAB
  0
TABLE
  2
UCS
  5
7
330
0
100
AcDbSymbolTable
 70
     0
  0
ENDTAB
  0
TABLE
  2
APPID
  5
9
330
0
100
AcDbSymbolTable
 70
    41
  0
APPID
  5
12
330
9
100
AcDbSymbolTableRecord
100
AcDbRegAppTableRecord
  2
ACAD
 70
     0
  0
APPID
  5
4E
330
9
100
AcDbSymbolTableRecord
100
AcDbRegAppTableRecord
  2
MCAD_NO_VIS
 70
     0
  0
APPID
  5
4F
330
9
100
AcDbSymbolTableRecord
100
AcDbRegAppTableRecord
  2
ACAD_TEMP_GRAPHIC
 70
     0
  0
APPID
  5
60
330
9
100
AcDbSymbolTableRecord
100
AcDbRegAppTableRecord
  2
ACATTRIBSERVICES
 70
     0
  0
APPID
  5
F7
330
9
100
AcDbSymbolTableRecord
100
AcDbRegAppTableRecord
  2
AD_DRAW
 70
     0
  0
APPID
  5
115
330
9
100
AcDbSymbolTableRecord
100
AcDbRegAppTableRecord
  2
DESIGNERASSEMBLIES
 70
     0
  0
APPID
  5
11A
330
9
100
AcDbSymbolTableRecord
100
AcDbRegAppTableRecord
  2
ACADM_DIM_EDIT
 70
     0
  0
APPID
  5
11B
330
9
100
AcDbSymbolTableRecord
100
AcDbRegAppTableRecord
  2
AMDT_DM_ADJ
 70
     0
  0
APPID
  5
20C
330
9
100
AcDbSymbolTableRecord
100
AcDbRegAppTableRecord
  2
GENIUS_GENREC_14
 70
     0
  0
APPID
  5
20D
330
9
100
AcDbSymbolTableRecord
100
AcDbRegAppTableRecord
  2
GENIUS_GENODEF_13
 70
     0
  0
APPID
  5
20E
330
9
100
AcDbSymbolTableRecord
100
AcDbRegAppTableRecord
  2
GENIUS_GENOBJ-N-REC_13
 70
     0
  0
APPID
  5
20F
330
9
100
AcDbSymbolTableRecord
100
AcDbRegAppTableRecord
  2
GENIUS_GENCFG_13
 70
     0
  0
APPID
  5
210
330
9
100
AcDbSymbolTableRecord
100
AcDbRegAppTableRecord
  2
GENIUS_GENCFG0_13
 70
     0
  0
APPID
  5
211
330
9
100
AcDbSymbolTableRecord
100
AcDbRegAppTableRecord
  2
GENIUS_GENCFG1_13
 70
     0
  0
APPID
  5
212
330
9
100
AcDbSymbolTableRecord
100
AcDbRegAppTableRecord
  2
GENIUS_GENCFG2_13
 70
     0
  0
APPID
  5
213
330
9
100
AcDbSymbolTableRecord
100
AcDbRegAppTableRecord
  2
GENIUS_GENCFG3_13
 70
     0
  0
APPID
  5
214
330
9
100
AcDbSymbolTableRecord
100
AcDbRegAppTableRecord
  2
GENIUS_GENCFG4_13
 70
     0
  0
APPID
  5
215
330
9
100
AcDbSymbolTableRecord
100
AcDbRegAppTableRecord
  2
GENIUS_GEVCFG0_13
 70
     0
  0
APPID
  5
216
330
9
100
AcDbSymbolTableRecord
100
AcDbRegAppTableRecord
  2
GENIUS_GENOENT_13
 70
     0
  0
APPID
  5
217
330
9
100
AcDbSymbolTableRecord
100
AcDbRegAppTableRecord
  2
GENIUS_GENDIMSH_14
 70
     0
  0
APPID
  5
218
330
9
100
AcDbSymbolTableRecord
100
AcDbRegAppTableRecord
  2
GENIUS_GENOBJ-N-CRS_13
 70
     0
  0
APPID
  5
219
330
9
100
AcDbSymbolTableRecord
100
AcDbRegAppTableRecord
  2
GENIUS_GENOREF_13
 70
     0
  0
APPID
  5
21A
330
9
100
AcDbSymbolTableRecord
100
AcDbRegAppTableRecord
  2
GENIUS_GENOLIS_13
 70
     0
  0
APPID
  5
21B
330
9
100
AcDbSymbolTableRecord
100
AcDbRegAppTableRecord
  2
GENIUS_GENOBJ-N-TIT_13
 70
     0
  0
APPID
  5
21C
330
9
100
AcDbSymbolTableRecord
100
AcDbRegAppTableRecord
  2
GENIUS_GENTITLE_13
 70
     0
  0
APPID
  5
21D
330
9
100
AcDbSymbolTableRecord
100
AcDbRegAppTableRecord
  2
GENIUS_GENSCREG_15
 70
     0
  0
APPID
  5
21E
330
9
100
AcDbSymbolTableRecord
100
AcDbRegAppTableRecord
  2
GENIUS_GENOBJ-N-SDF_13
 70
     0
  0
APPID
  5
21F
330
9
100
AcDbSymbolTableRecord
100
AcDbRegAppTableRecord
  2
GENIUS_GENOBJ-N-CEN_13
 70
     0
  0
APPID
  5
220
330
9
100
AcDbSymbolTableRecord
100
AcDbRegAppTableRecord
  2
GENIUS_GENOBJ-N-HTC_13
 70
     0
  0
APPID
  5
221
330
9
100
AcDbSymbolTableRecord
100
AcDbRegAppTableRecord
  2
GENIUS_GENHATCH_13
 70
     0
  0
APPID
  5
222
330
9
100
AcDbSymbolTableRecord
100
AcDbRegAppTableRecord
  2
GENIUS_GENOBJ-N-ZOO_13
 70
     0
  0
APPID
  5
223
330
9
100
AcDbSymbolTableRecord
100
AcDbRegAppTableRecord
  2
GENIUS_GENZOO_17
 70
     0
  0
APPID
  5
C15
330
9
100
AcDbSymbolTableRecord
100
AcDbRegAppTableRecord
  2
ACAD_MLEADERVER
 70
     0
  0
APPID
  5
C53
330
9
100
AcDbSymbolTableRecord
100
AcDbRegAppTableRecord
  2
AcAecLayerStandard
 70
     0
  0
APPID
  5
CCC
330
9
100
AcDbSymbolTableRecord
100
AcDbRegAppTableRecord
  2
GENIUS_GENOBJ-N-FIL_13
 70
     0
  0
APPID
  5
10A8
330
9
100
AcDbSymbolTableRecord
100
AcDbRegAppTableRecord
  2
GENIUS_GENCEN_19
 70
     0
  0
APPID
  5
10A9
330
9
100
AcDbSymbolTableRecord
100
AcDbRegAppTableRecord
  2
GENIUS_AMGTXT_16
 70
     0
  0
APPID
  5
2186
330
9
100
AcDbSymbolTableRecord
100
AcDbRegAppTableRecord
  2
ACAD_EXEMPT_FROM_CAD_STANDARDS
 70
     0
  0
APPID
  5
22F5
330
9
100
AcDbSymbolTableRecord
100
AcDbRegAppTableRecord
  2
ACAD_DSTYLE_DIMINSPECT
 70
     0
  0
APPID
  5
2895
330
9
100
AcDbSymbolTableRecord
100
AcDbRegAppTableRecord
  2
ACAD_DSTYLE_DIMRADIAL_EXTENSION
 70
     0
  0
APPID
  5
2B23
330
9
100
AcDbSymbolTableRecord
100
AcDbRegAppTableRecord
  2
GENIUS_GENDTOL_13
 70
     0
  0
ENDTAB
  0
TABLE
  2
DIMSTYLE
  5
A
330
0
100
AcDbSymbolTable
 70
    26
100
AcDbDimStyleTable
 71
     2
340
1E7
340
8C
  0
DIMSTYLE
105
27
330
A
100
AcDbSymbolTableRecord
100
AcDbDimStyleTableRecord
  2
Standard
 70
     0
340
11
  0
DIMSTYLE
105
8C
330
A
100
AcDbSymbolTableRecord
100
AcDbDimStyleTableRecord
  2
AM_ANSI
 70
     0
  4
mm
 41
0.1
 42
0.05
 43
0.5
 44
0.1
 47
0.1
 48
0.1
 78
     7
 79
     2
140
0.12
141
0.0
146
0.71
147
0.06
176
   256
177
   256
178
     2
274
     4
284
     7
340
11
371
    -1
372
    -1
  0
DIMSTYLE
105
8D
330
A
100
AcDbSymbolTableRecord
100
AcDbDimStyleTableRecord
  2
AM_ANSI$3
 70
     0
  4
mm
 41
0.1
 42
0.05
 43
0.5
 44
0.1
 47
0.1
 48
0.1
 78
     7
 79
     2
140
0.12
141
0.0
146
0.71
147
0.06
176
   256
177
   256
178
     2
274
     4
284
     7
288
     1
289
     0
340
11
371
    -1
372
    -1
  0
DIMSTYLE
105
8E
330
A
100
AcDbSymbolTableRecord
100
AcDbDimStyleTableRecord
  2
AM_ANSI$4
 70
     0
  4
mm
 41
0.1
 42
0.05
 43
0.5
 44
0.1
 47
0.1
 48
0.1
 78
     7
 79
     2
140
0.12
141
0.0
146
0.71
147
0.06
176
   256
177
   256
178
     2
274
     4
284
     7
288
     1
289
     0
340
11
371
    -1
372
    -1
  0
DIMSTYLE
105
8F
330
A
100
AcDbSymbolTableRecord
100
AcDbDimStyleTableRecord
  2
AM_ANSI$7
 70
     0
  4
mm
 41
0.1
 42
0.05
 43
0.5
 44
0.1
 47
0.1
 48
0.1
 78
     7
 79
     2
140
0.24
141
0.0
146
0.71
147
0.06
176
   256
177
   256
178
     2
274
     4
284
     7
340
11
371
    -1
372
    -1
  0
DIMSTYLE
105
90
330
A
100
AcDbSymbolTableRecord
100
AcDbDimStyleTableRecord
  2
AM_ANSI$SF
 70
     0
  4
mm
 41
0.1
 42
0.05
 43
0.5
 44
0.1
 47
0.1
 48
0.1
 75
     1
 76
     1
 78
     7
 79
     2
140
0.12
141
0.0
146
0.71
147
0.06
176
   256
177
   256
178
     2
274
     4
284
     7
340
11
371
    -1
372
    -1
  0
DIMSTYLE
105
95
330
A
100
AcDbSymbolTableRecord
100
AcDbDimStyleTableRecord
  2
AM_ANSI$SH
 70
     0
  4
mm
 41
0.1
 42
0.05
 43
0.5
 44
0.1
 47
0.1
 48
0.1
 75
     1
 76
     1
 78
     7
 79
     2
140
0.12
141
0.0
146
0.71
147
0.06
173
     1
176
   256
177
   256
178
     2
274
     4
284
     7
340
11
343
91
371
    -1
372
    -1
  0
DIMSTYLE
105
1E7
330
A
100
AcDbSymbolTableRecord
100
AcDbDimStyleTableRecord
  2
AM_ISO
 70
     0
  4
"
 41
2.5
 42
1.0
 43
10.0
 44
1.0
 47
0.1
 48
0.1
 73
     0
 74
     0
 77
     1
 78
     8
 79
     2
140
3.5
141
0.0
143
0.0393701
146
0.71
147
1.5
172
     1
176
     3
177
     3
178
     2
271
     2
272
     2
283
     0
284
     8
340
11
341
1F8
342
1F8
371
    -1
372
    -1
  0
DIMSTYLE
105
1E8
102
{ACAD_REACTORS
330
28C8
102
}
330
A
100
AcDbSymbolTableRecord
100
AcDbDimStyleTableRecord
  2
AM_ISO$3
 70
     0
  4
"
 41
2.5
 42
1.0
 43
10.0
 44
1.0
 47
0.1
 48
0.1
 73
     0
 77
     1
 78
     8
 79
     2
140
3.5
141
0.0
143
0.0393701
146
0.71
147
1.5
176
     3
177
     3
178
     2
271
     2
272
     2
283
     0
284
     8
288
     1
289
     0
340
11
341
1F8
342
1F8
371
    -1
372
    -1
  0
DIMSTYLE
105
1E9
102
{ACAD_REACTORS
330
293E
102
}
330
A
100
AcDbSymbolTableRecord
100
AcDbDimStyleTableRecord
  2
AM_ISO$4
 70
     0
  4
"
 41
2.5
 42
1.0
 43
10.0
 44
1.0
 47
0.1
 48
0.1
 73
     0
 77
     1
 78
     8
 79
     2
140
3.5
141
0.0
143
0.0393701
146
0.71
147
1.5
176
     3
177
     3
178
     2
271
     2
272
     2
283
     0
284
     8
288
     1
289
     0
340
11
341
1F8
342
1F8
371
    -1
372
    -1
  0
DIMSTYLE
105
1EA
330
A
100
AcDbSymbolTableRecord
100
AcDbDimStyleTableRecord
  2
AM_ISO$6
 70
     0
  4
"
 41
2.5
 42
1.0
 43
10.0
 44
1.0
 47
0.1
 48
0.1
 73
     0
 74
     0
 78
     8
 79
     2
140
3.5
141
0.0
143
0.0393701
146
0.71
147
1.5
172
     1
176
     3
177
     3
178
     2
271
     2
272
     2
283
     0
284
     8
340
11
341
1F8
342
1F8
371
    -1
372
    -1
  0
DIMSTYLE
105
1EB
330
A
100
AcDbSymbolTableRecord
100
AcDbDimStyleTableRecord
  2
AM_ISO$7
 70
     0
  4
"
 41
2.5
 42
1.0
 43
10.0
 44
1.0
 47
0.1
 48
0.1
 73
     0
 74
     0
 77
     1
 78
     8
 79
     2
140
5.0
141
0.0
143
0.0393701
146
0.71
147
1.5
172
     1
176
     3
177
     3
178
     2
271
     2
272
     2
283
     0
284
     8
340
11
341
1F8
342
1F8
371
    -1
372
    -1
  0
DIMSTYLE
105
1EC
330
A
100
AcDbSymbolTableRecord
100
AcDbDimStyleTableRecord
  2
AM_ISO$SF
 70
     0
  4
"
 41
2.5
 42
1.0
 43
10.0
 44
1.0
 47
0.1
 48
0.1
 73
     0
 74
     0
 75
     1
 76
     1
 77
     1
 78
     8
 79
     2
140
3.5
141
0.0
143
0.0393701
146
0.71
147
1.5
172
     1
176
   256
177
   256
178
     2
271
     2
272
     3
274
     4
283
     0
284
     8
340
11
371
    -1
372
    -1
  0
DIMSTYLE
105
1ED
330
A
100
AcDbSymbolTableRecord
100
AcDbDimStyleTableRecord
  2
AM_ISO$SH
 70
     0
  4
"
 41
2.5
 42
1.0
 43
10.0
 44
1.0
 47
0.1
 48
0.1
 73
     0
 74
     0
 75
     1
 76
     1
 77
     1
 78
     8
 79
     2
140
3.5
141
0.0
143
0.0393701
144
2.0
146
0.71
147
1.5
172
     1
173
     1
176
   256
177
   256
178
     2
271
     2
272
     3
274
     4
283
     0
284
     8
340
11
343
91
371
    -1
372
    -1
  0
DIMSTYLE
105
205
330
A
100
AcDbSymbolTableRecord
100
AcDbDimStyleTableRecord
  2
GEN-ISO
 70
     0
  4
"
 41
2.5
 42
1.0
 43
10.0
 44
1.0
 47
0.1
 48
0.1
 73
     0
 74
     0
 77
     1
 78
     8
140
3.5
141
0.0
143
0.0393701
146
0.71
147
1.5
172
     1
176
   256
177
   256
178
     2
271
     2
272
     3
274
     4
283
     0
340
11
  0
DIMSTYLE
105
206
330
A
100
AcDbSymbolTableRecord
100
AcDbDimStyleTableRecord
  2
GEN-ISO$3
 70
     0
  4
"
 41
2.5
 42
1.0
 43
10.0
 44
1.0
 47
0.1
 48
0.1
 73
     0
 77
     1
 78
     8
140
3.5
141
0.0
143
0.0393701
146
0.71
147
1.5
176
   256
177
   256
178
     2
271
     2
272
     3
274
     4
283
     0
288
     1
289
     0
340
11
  0
DIMSTYLE
105
207
330
A
100
AcDbSymbolTableRecord
100
AcDbDimStyleTableRecord
  2
GEN-ISO$4
 70
     0
  4
"
 41
2.5
 42
1.0
 43
10.0
 44
1.0
 47
0.1
 48
0.1
 73
     0
 77
     1
 78
     8
140
3.5
141
0.0
143
0.0393701
146
0.71
147
1.5
176
   256
177
   256
178
     2
271
     2
272
     3
274
     4
283
     0
288
     1
289
     0
340
11
  0
DIMSTYLE
105
208
330
A
100
AcDbSymbolTableRecord
100
AcDbDimStyleTableRecord
  2
GEN-ISO$6
 70
     0
  4
"
 41
2.5
 42
1.0
 43
10.0
 44
1.0
 47
0.1
 48
0.1
 73
     0
 74
     0
 78
     8
140
3.5
141
0.0
143
0.0393701
146
0.71
147
1.5
176
   256
177
   256
178
     2
271
     2
272
     3
274
     4
283
     0
340
11
  0
DIMSTYLE
105
209
330
A
100
AcDbSymbolTableRecord
100
AcDbDimStyleTableRecord
  2
GEN-ISO-POS
 70
     0
  4
"
 41
2.5
 42
1.0
 43
10.0
 44
1.0
 47
0.1
 48
0.1
 73
     0
 74
     0
 78
     8
140
5.0
141
0.0
143
0.0393701
146
0.71
147
1.5
176
   256
177
   256
178
     2
271
     2
272
     3
274
     4
283
     0
340
11
  0
DIMSTYLE
105
20A
330
A
100
AcDbSymbolTableRecord
100
AcDbDimStyleTableRecord
  2
GEN-ISO-AXE-F
 70
     0
  4
"
 41
2.5
 42
1.0
 43
10.0
 44
1.0
 47
0.1
 48
0.1
 73
     0
 74
     0
 75
     1
 76
     1
 77
     1
 78
     8
140
3.5
141
0.0
143
0.0393701
146
0.71
147
1.5
172
     1
176
   256
177
   256
178
     2
271
     2
272
     3
274
     4
283
     0
340
11
  0
DIMSTYLE
105
20B
330
A
100
AcDbSymbolTableRecord
100
AcDbDimStyleTableRecord
  2
GEN-ISO-AXE-H
 70
     0
  4
"
 41
2.5
 42
1.0
 43
10.0
 44
1.0
 47
0.1
 48
0.1
 73
     0
 74
     0
 75
     1
 76
     1
 77
     1
 78
     8
140
3.5
141
0.0
143
0.0393701
144
2.0
146
0.71
147
1.5
172
     1
173
     1
176
   256
177
   256
178
     2
271
     2
272
     3
274
     4
283
     0
340
11
  0
DIMSTYLE
105
2BD
330
A
100
AcDbSymbolTableRecord
100
AcDbDimStyleTableRecord
  2
ISO-35
 70
     0
 41
3.5
 42
0.875
 43
5.25
 44
1.75
 73
     0
 74
     0
 77
     1
 78
     8
140
3.5
141
3.5
143
0.0394
147
0.875
171
     4
172
     1
273
     8
274
     4
277
     6
340
11
341
1F8
342
1F8
  0
DIMSTYLE
105
2BE
330
A
100
AcDbSymbolTableRecord
100
AcDbDimStyleTableRecord
  2
ISO-5
 70
     0
 41
5.0
 42
1.25
 43
7.5
 44
2.5
 73
     0
 74
     0
 77
     1
 78
     8
140
5.0
141
5.0
143
0.0394
147
1.25
171
     4
172
     1
273
     8
274
     4
277
     6
340
11
341
1F8
342
1F8
  0
DIMSTYLE
105
2BF
330
A
100
AcDbSymbolTableRecord
100
AcDbDimStyleTableRecord
  2
ISO-7
 70
     0
 41
7.0
 42
1.75
 43
10.5
 44
3.5
 73
     0
 74
     0
 77
     1
 78
     8
140
7.0
141
7.0
143
0.0394
147
1.75
171
     4
172
     1
273
     8
274
     4
277
     6
340
11
341
1F8
342
1F8
  0
DIMSTYLE
105
2C0
330
A
100
AcDbSymbolTableRecord
100
AcDbDimStyleTableRecord
  2
ISO-4
 70
     0
 41
14.0
 42
3.5
 43
21.0
 44
7.0
 73
     0
 74
     0
 77
     1
 78
     8
140
14.0
141
14.0
143
0.0394
147
3.5
171
     4
172
     1
273
     8
274
     4
277
     6
340
11
341
1F8
342
1F8
  0
DIMSTYLE
105
10A7
102
{ACAD_REACTORS
330
2745
330
276D
330
278C
330
27DB
330
27FA
330
2819
330
2838
330
2AC4
330
3331
330
3368
330
3399
330
33D0
330
33F8
330
342A
102
}
330
A
100
AcDbSymbolTableRecord
100
AcDbDimStyleTableRecord
  2
AM_ISO$0
 70
     0
  4
"
 41
2.5
 42
1.0
 43
10.0
 44
1.0
 47
0.1
 48
0.1
 73
     0
 74
     0
 77
     1
 78
     8
 79
     2
140
3.5
141
0.0
143
0.0393701
146
0.71
147
1.5
172
     1
176
   256
177
   256
178
     2
271
     2
272
     2
283
     0
284
     8
340
11
341
1F8
342
1F8
371
    -1
372
    -1
  0
ENDTAB
  0
TABLE
  2
BLOCK_RECORD
  5
1
330
0
100
AcDbSymbolTable
 70
    27
  0
BLOCK_RECORD
  5
1F
102
{ACAD_XDICTIONARY
360
99
102
}
330
1
100
AcDbSymbolTableRecord
100
AcDbBlockTableRecord
  2
*Model_Space
340
22
  0
BLOCK_RECORD
  5
23
330
1
100
AcDbSymbolTableRecord
100
AcDbBlockTableRecord
  2
*Paper_Space
340
26
  0
BLOCK_RECORD
  5
1B
330
1
100
AcDbSymbolTableRecord
100
AcDbBlockTableRecord
  2
*Paper_Space0
340
1E
  0
BLOCK_RECORD
  5
91
330
1
100
AcDbSymbolTableRecord
100
AcDbBlockTableRecord
  2
GENAXEH
340
0
  0
BLOCK_RECORD
  5
1F8
330
1
100
AcDbSymbolTableRecord
100
AcDbBlockTableRecord
  2
_Open30
340
0
102
{BLKREFS
331
27F4
331
27F5
331
2832
331
2833
331
2851
331
2852
331
28EE
331
2964
331
2AA6
331
2AA7
331
2B1C
331
2B27
331
2B28
331
31AA
331
31AB
331
3303
331
3304
331
330C
331
330D
331
3458
331
3459
331
3461
331
3462
331
346C
331
346D
331
3475
331
3476
331
347E
331
347F
331
3489
331
348A
102
}
  0
BLOCK_RECORD
  5
224
102
{ACAD_XDICTIONARY
360
22D
102
}
330
1
100
AcDbSymbolTableRecord
100
AcDbBlockTableRecord
  2
TAKACHI-A3
340
0
  0
BLOCK_RECORD
  5
242
102
{ACAD_XDICTIONARY
360
297
102
}
330
1
100
AcDbSymbolTableRecord
100
AcDbBlockTableRecord
  2
TAKACHI-TITLE
340
0
  0
BLOCK_RECORD
  5
A0D
102
{ACAD_XDICTIONARY
360
A15
102
}
330
1
100
AcDbSymbolTableRecord
100
AcDbBlockTableRecord
  2
TAKACHI-A3-2
340
0
  0
BLOCK_RECORD
  5
A20
102
{ACAD_XDICTIONARY
360
A79
102
}
330
1
100
AcDbSymbolTableRecord
100
AcDbBlockTableRecord
  2
TAKACHI-TITLEA3
340
0
  0
BLOCK_RECORD
  5
AA1
102
{ACAD_XDICTIONARY
360
AA9
102
}
330
1
100
AcDbSymbolTableRecord
100
AcDbBlockTableRecord
  2
TAKACHI-A4-2
340
0
  0
BLOCK_RECORD
  5
AE9
102
{ACAD_XDICTIONARY
360
AF1
102
}
330
1
100
AcDbSymbolTableRecord
100
AcDbBlockTableRecord
  2
TK-A3
340
0
102
{BLKREFS
331
C44
102
}
  0
BLOCK_RECORD
  5
AFC
102
{ACAD_XDICTIONARY
360
B55
102
}
330
1
100
AcDbSymbolTableRecord
100
AcDbBlockTableRecord
  2
TK-TITLE
340
0
102
{BLKREFS
331
C46
102
}
  0
BLOCK_RECORD
  5
2746
330
1
100
AcDbSymbolTableRecord
100
AcDbBlockTableRecord
  2
*D11
340
0
  0
BLOCK_RECORD
  5
276E
330
1
100
AcDbSymbolTableRecord
100
AcDbBlockTableRecord
  2
*D12
340
0
  0
BLOCK_RECORD
  5
278D
330
1
100
AcDbSymbolTableRecord
100
AcDbBlockTableRecord
  2
*D13
340
0
  0
BLOCK_RECORD
  5
27DC
330
1
100
AcDbSymbolTableRecord
100
AcDbBlockTableRecord
  2
*D14
340
0
  0
BLOCK_RECORD
  5
27FB
330
1
100
AcDbSymbolTableRecord
100
AcDbBlockTableRecord
  2
*D15
340
0
  0
BLOCK_RECORD
  5
281A
330
1
100
AcDbSymbolTableRecord
100
AcDbBlockTableRecord
  2
*D16
340
0
  0
BLOCK_RECORD
  5
2839
330
1
100
AcDbSymbolTableRecord
100
AcDbBlockTableRecord
  2
*D17
340
0
  0
BLOCK_RECORD
  5
28C9
330
1
100
AcDbSymbolTableRecord
100
AcDbBlockTableRecord
  2
*D18
340
0
  0
BLOCK_RECORD
  5
293F
330
1
100
AcDbSymbolTableRecord
100
AcDbBlockTableRecord
  2
*D19
340
0
  0
BLOCK_RECORD
  5
2AC5
330
1
100
AcDbSymbolTableRecord
100
AcDbBlockTableRecord
  2
*D20
340
0
  0
BLOCK_RECORD
  5
3332
330
1
100
AcDbSymbolTableRecord
100
AcDbBlockTableRecord
  2
*D21
340
0
  0
BLOCK_RECORD
  5
3369
330
1
100
AcDbSymbolTableRecord
100
AcDbBlockTableRecord
  2
*D22
340
0
  0
BLOCK_RECORD
  5
339A
330
1
100
AcDbSymbolTableRecord
100
AcDbBlockTableRecord
  2
*D23
340
0
  0
BLOCK_RECORD
  5
33D1
330
1
100
AcDbSymbolTableRecord
100
AcDbBlockTableRecord
  2
*D24
340
0
  0
BLOCK_RECORD
  5
33F9
330
1
100
AcDbSymbolTableRecord
100
AcDbBlockTableRecord
  2
*D25
340
0
  0
BLOCK_RECORD
  5
342B
330
1
100
AcDbSymbolTableRecord
100
AcDbBlockTableRecord
  2
*D26
340
0
  0
ENDTAB
  0
ENDSEC
  0
SECTION
  2
BLOCKS
  0
BLOCK
  5
20
330
1F
100
AcDbEntity
  8
0
100
AcDbBlockBegin
  2
*Model_Space
 70
     0
 10
0.0
 20
0.0
 30
0.0
  3
*Model_Space
  1

  0
ENDBLK
  5
21
330
1F
100
AcDbEntity
  8
0
100
AcDbBlockEnd
  0
BLOCK
  5
24
330
23
100
AcDbEntity
 67
     1
  8
0
100
AcDbBlockBegin
  2
*Paper_Space
 70
     0
 10
0.0
 20
0.0
 30
0.0
  3
*Paper_Space
  1

  0
ENDBLK
  5
25
330
23
100
AcDbEntity
 67
     1
  8
0
100
AcDbBlockEnd
  0
BLOCK
  5
1C
330
1B
100
AcDbEntity
 67
     1
  8
0
100
AcDbBlockBegin
  2
*Paper_Space0
 70
     0
 10
0.0
 20
0.0
 30
0.0
  3
*Paper_Space0
  1

  0
VIEWPORT
  5
182
102
{ACAD_XDICTIONARY
360
34C4
102
}
330
1B
100
AcDbEntity
 67
     1
  8
0
100
AcDbViewport
 10
5.249999639556163
 20
3.999999883606677
 30
0.0
 40
14.57585398793907
 41
8.992999745766947
 68
     0
 69
     0
 12
5.249999639556163
 22
3.999999883606677
 13
0.0
 23
0.0
 14
10.0
 24
10.0
 15
10.0
 25
10.0
 16
0.0
 26
0.0
 36
1.0
 17
0.0
 27
0.0
 37
0.0
 42
50.0
 43
0.0
 44
0.0
 45
8.992999745766947
 50
0.0
 51
0.0
 72
   100
 90
    32800
  1

281
     0
 71
     1
 74
     0
110
0.0
120
0.0
130
0.0
111
1.0
121
0.0
131
0.0
112
0.0
122
1.0
132
0.0
 79
     0
146
0.0
  0
ENDBLK
  5
1D
330
1B
100
AcDbEntity
 67
     1
  8
0
100
AcDbBlockEnd
  0
BLOCK
  5
93
330
91
100
AcDbEntity
  8
0
100
AcDbBlockBegin
  2
GENAXEH
 70
     0
 10
0.0
 20
0.0
 30
0.0
  3
GENAXEH
  1

  0
LINE
  5
92
330
91
100
AcDbEntity
  8
0
100
AcDbLine
 10
-1.0
 20
0.0
 30
0.0
 11
1.0
 21
0.0
 31
0.0
  0
ENDBLK
  5
94
330
91
100
AcDbEntity
  8
0
100
AcDbBlockEnd
  0
BLOCK
  5
1F9
330
1F8
100
AcDbEntity
  8
0
100
AcDbBlockBegin
  2
_Open30
 70
     0
 10
0.0
 20
0.0
 30
0.0
  3
_Open30
  1

  0
LINE
  5
1FA
330
1F8
100
AcDbEntity
  8
0
  6
ByBlock
 62
     0
370
    -2
100
AcDbLine
 10
-1.0
 20
0.26794919
 30
0.0
 11
0.0
 21
0.0
 31
0.0
  0
LINE
  5
1FB
330
1F8
100
AcDbEntity
  8
0
  6
ByBlock
 62
     0
370
    -2
100
AcDbLine
 10
0.0
 20
0.0
 30
0.0
 11
-1.0
 21
-0.26794919
 31
0.0
  0
LINE
  5
1FC
330
1F8
100
AcDbEntity
  8
0
  6
ByBlock
 62
     0
370
    -2
100
AcDbLine
 10
0.0
 20
0.0
 30
0.0
 11
-1.0
 21
0.0
 31
0.0
  0
ENDBLK
  5
1FD
330
1F8
100
AcDbEntity
  8
0
100
AcDbBlockEnd
  0
BLOCK
  5
22E
330
224
100
AcDbEntity
  8
0
100
AcDbBlockBegin
  2
TAKACHI-A3
 70
     0
 10
0.0
 20
0.0
 30
0.0
  3
TAKACHI-A3
  1

  0
LWPOLYLINE
  5
225
330
224
100
AcDbEntity
  8
0
100
AcDbPolyline
 90
        4
 70
     1
 43
0.0
 10
10.0
 20
0.0
 10
410.0
 20
0.0
 10
410.0
 20
280.0
 10
10.00000000000003
 20
280.0
1001
GENIUS_GENREC_14
1002
{
1000
PYDIR
1011
10.00000000000001
1021
280.0
1031
0.0
1002
}
1002
{
1000
PXDIR
1011
410.0
1021
0.0
1031
0.0
1002
}
1002
{
1000
PORI
1011
10.0
1021
0.0
1031
0.0
1002
}
1002
{
1000
PINS
1011
210.0
1021
139.9999999999999
1031
0.0
1002
}
1002
{
1000
HVAL
1000
280
1002
}
1002
{
1000
H
1070
     2
1002
}
1002
{
1000
WVAL
1000
400
1002
}
1002
{
1000
W
1070
     2
1002
}
1002
{
1000
C
1070
     4
1002
}
1001
GENIUS_GENODEF_13
1002
{
1000
HIER
1070
     0
1002
}
1002
{
1000
MANEDIT
1070
     0
1002
}
1002
{
1000
NOSEL
1070
     0
1002
}
1002
{
1000
BEHIND
1070
     0
1002
}
1002
{
1000
REACTOR
1002
}
1001
GENIUS_GENOBJ-N-REC_13
1002
{
1000
OWNER
1000
GEN
1002
}
  0
TEXT
  5
226
330
224
100
AcDbEntity
  8
0
 60
     1
100
AcDbText
 10
15.00000000000003
 20
50.0
 30
0.0
 40
2.5
  1
!GENTITLE-LL
100
AcDbText
  0
TEXT
  5
227
330
224
100
AcDbEntity
  8
0
 60
     1
100
AcDbText
 10
410.0
 20
0.0
 30
0.0
 40
2.5
  1
!GENTITLE-INSERT
100
AcDbText
  0
TEXT
  5
228
330
224
100
AcDbEntity
  8
0
 60
     1
100
AcDbText
 10
405.0
 20
275.0
 30
0.0
 40
2.5
  1
!GENTITLE-RU
100
AcDbText
  0
TEXT
  5
229
330
224
100
AcDbEntity
  8
0
 60
     1
100
AcDbText
 10
410.0
 20
280.0
 30
0.0
 40
2.5
  1
!GENTITLE-MAX
100
AcDbText
  0
LINE
  5
22A
330
224
100
AcDbEntity
  8
0
100
AcDbLine
 10
366.0
 20
275.0
 30
0.0
 11
410.0
 21
275.0
 31
0.0
  0
MTEXT
  5
22B
330
224
100
AcDbEntity
  8
0
100
AcDbMText
 10
409.3592953827348
 20
276.108542987227
 30
0.0
 40
2.5
 41
43.07840397728298
 71
     9
 72
     5
  1
(文書番号：TY-34)2004.10.29
 73
     1
 44
1.0
1001
ACAD
1000
MTEXTBEGIN
1070
    73
1070
     1
1070
    44
1040
1.0
1070
    74
1070
     0
1000
MTEXTEND
  0
LINE
  5
22C
330
224
100
AcDbEntity
  8
0
100
AcDbLine
 10
366.0
 20
280.0
 30
0.0
 11
366.0
 21
275.0
 31
0.0
  0
ENDBLK
  5
22F
330
224
100
AcDbEntity
  8
0
100
AcDbBlockEnd
  0
BLOCK
  5
298
330
242
100
AcDbEntity
  8
0
100
AcDbBlockBegin
  2
TAKACHI-TITLE
 70
     2
 10
0.0
 20
0.0
 30
0.0
  3
TAKACHI-TITLE
  1

  0
LINE
  5
243
330
242
100
AcDbEntity
  8
RAHM2
100
AcDbLine
 10
-195.0
 20
30.00000000000003
 30
0.0
 11
-94.0
 21
30.00000000000003
 31
0.0
  0
LINE
  5
244
330
242
100
AcDbEntity
  8
RAHM2
100
AcDbLine
 10
-195.0
 20
35.00000000000003
 30
0.0
 11
-94.0
 21
35.00000000000003
 31
0.0
  0
LINE
  5
245
330
242
100
AcDbEntity
  8
RAHM2
100
AcDbLine
 10
-195.0
 20
40.00000000000002
 30
0.0
 11
-94.0
 21
40.00000000000002
 31
0.0
  0
LINE
  5
246
330
242
100
AcDbEntity
  8
RAHM2
100
AcDbLine
 10
-195.0
 20
45.00000000000002
 30
0.0
 11
-94.0
 21
45.00000000000002
 31
0.0
  0
LINE
  5
247
330
242
100
AcDbEntity
  8
0
100
AcDbLine
 10
-195.0
 20
7.0
 30
0.0
 11
-94.0
 21
7.0
 31
0.0
  0
LINE
  5
248
330
242
100
AcDbEntity
  8
0
100
AcDbLine
 10
-195.0
 20
19.99999999999997
 30
0.0
 11
-94.0
 21
19.99999999999997
 31
0.0
  0
ATTDEF
  5
249
330
242
100
AcDbEntity
  8
0
100
AcDbText
 10
-183.2438527145607
 20
8.617517191094748
 30
0.0
 40
2.5
  1

 11
-183.2438527145607
 21
8.617517191094748
 31
0.0
100
AcDbAttributeDefinition
  3
サブタイトル
  2
GEN-TITLE-DES2
 70
     0
 74
     1
  0
ATTDEF
  5
24A
330
242
100
AcDbEntity
  8
0
100
AcDbText
 10
-183.2438527145607
 20
1.617517191094748
 30
0.0
 40
3.0
  1

 11
-183.2438527145607
 21
1.617517191094748
 31
0.0
100
AcDbAttributeDefinition
  3
図番
  2
GEN-TITLE-NR
 70
     0
 74
     1
  0
MTEXT
  5
24B
330
242
100
AcDbEntity
  8
RAHM2
100
AcDbMText
 10
-193.8002551371314
 20
5.801035407279641
 30
0.0
 40
2.5
 41
90.0
 71
     1
 72
     5
  1
図番
 73
     1
 44
1.0
1001
ACAD
1000
MTEXTBEGIN
1070
    73
1070
     1
1070
    44
1040
1.0
1070
    74
1070
     0
1000
MTEXTEND
  0
ATTDEF
  5
24C
330
242
100
AcDbEntity
  8
0
100
AcDbText
 10
-183.2438527145607
 20
13.87395286168501
 30
0.0
 40
4.0
  1

 11
-183.2438527145607
 21
13.87395286168501
 31
0.0
100
AcDbAttributeDefinition
  3
品名
  2
GEN-TITLE-DES1
 70
     0
 74
     1
  0
LINE
  5
24D
330
242
100
AcDbEntity
  8
RAHM2
100
AcDbLine
 10
-187.5751288694036
 20
30.40000000000004
 30
0.0
 11
-190.0
 21
34.60000000000003
 31
0.0
  0
LINE
  5
24E
330
242
100
AcDbEntity
  8
RAHM2
100
AcDbLine
 10
-190.0
 20
34.60000000000003
 30
0.0
 11
-192.4248711305964
 21
30.40000000000004
 31
0.0
  0
LINE
  5
24F
330
242
100
AcDbEntity
  8
RAHM2
100
AcDbLine
 10
-185.0
 20
50.00000000000003
 30
0.0
 11
-185.0
 21
19.99999999999994
 31
0.0
  0
LINE
  5
250
330
242
100
AcDbEntity
  8
RAHM2
100
AcDbLine
 10
-192.4248711305964
 20
30.40000000000004
 30
0.0
 11
-187.5751288694036
 21
30.40000000000004
 31
0.0
  0
MTEXT
  5
251
330
242
100
AcDbEntity
  8
RAHM2
100
AcDbMText
 10
-190.0
 20
22.49999999999997
 30
0.0
 40
2.5
 41
10.0
 71
     5
 72
     5
  1
符号
 73
     1
 44
1.0
1001
ACAD
1000
MTEXTBEGIN
1070
    73
1070
     1
1070
    44
1040
1.0
1070
    74
1070
     0
1000
MTEXTEND
  0
MTEXT
  5
252
330
242
100
AcDbEntity
  8
RAHM2
100
AcDbMText
 10
-193.8002551371314
 20
18.80103540727961
 30
0.0
 40
2.5
 41
90.0
 71
     1
 72
     5
  1
品名
 73
     1
 44
1.0
1001
ACAD
1000
MTEXTBEGIN
1070
    73
1070
     1
1070
    44
1040
1.0
1070
    74
1070
     0
1000
MTEXTEND
  0
LINE
  5
253
330
242
100
AcDbEntity
  8
RAHM2
100
AcDbLine
 10
-192.4248711305964
 20
45.40000000000003
 30
0.0
 11
-187.5751288694036
 21
45.40000000000003
 31
0.0
  0
LINE
  5
254
330
242
100
AcDbEntity
  8
RAHM2
100
AcDbLine
 10
-187.5751288694036
 20
45.40000000000003
 30
0.0
 11
-190.0
 21
49.60000000000002
 31
0.0
  0
LINE
  5
255
330
242
100
AcDbEntity
  8
RAHM2
100
AcDbLine
 10
-192.4248711305964
 20
40.40000000000003
 30
0.0
 11
-187.5751288694036
 21
40.40000000000003
 31
0.0
  0
LINE
  5
256
330
242
100
AcDbEntity
  8
RAHM2
100
AcDbLine
 10
-187.5751288694036
 20
40.40000000000003
 30
0.0
 11
-190.0
 21
44.60000000000002
 31
0.0
  0
LINE
  5
257
330
242
100
AcDbEntity
  8
RAHM2
100
AcDbLine
 10
-192.4248711305964
 20
35.40000000000004
 30
0.0
 11
-187.5751288694036
 21
35.40000000000004
 31
0.0
  0
LINE
  5
258
330
242
100
AcDbEntity
  8
RAHM2
100
AcDbLine
 10
-187.5751288694036
 20
35.40000000000004
 30
0.0
 11
-190.0
 21
39.60000000000002
 31
0.0
  0
LINE
  5
259
330
242
100
AcDbEntity
  8
RAHM2
100
AcDbLine
 10
-190.0
 20
39.60000000000002
 30
0.0
 11
-192.4248711305964
 21
35.40000000000004
 31
0.0
  0
LINE
  5
25A
330
242
100
AcDbEntity
  8
RAHM2
100
AcDbLine
 10
-190.0
 20
44.60000000000002
 30
0.0
 11
-192.4248711305964
 21
40.40000000000003
 31
0.0
  0
LINE
  5
25B
330
242
100
AcDbEntity
  8
RAHM2
100
AcDbLine
 10
-190.0
 20
49.60000000000002
 30
0.0
 11
-192.4248711305964
 21
45.40000000000003
 31
0.0
  0
LINE
  5
25C
330
242
100
AcDbEntity
  8
RAHM2
100
AcDbLine
 10
-129.0
 20
50.00000000000003
 30
0.0
 11
-129.0
 21
19.99999999999994
 31
0.0
  0
MTEXT
  5
25D
330
242
100
AcDbEntity
  8
RAHM2
100
AcDbMText
 10
-157.1448171868856
 20
22.49999999999997
 30
0.0
 40
2.5
 41
45.0
 71
     5
 72
     5
  1
変更記事
 73
     1
 44
1.0
1001
ACAD
1000
MTEXTBEGIN
1070
    73
1070
     1
1070
    44
1040
1.0
1070
    74
1070
     0
1000
MTEXTEND
  0
LINE
  5
25E
330
242
100
AcDbEntity
  8
0
100
AcDbLine
 10
-34.0
 20
50.0
 30
0.0
 11
-34.0
 21
0.0
 31
0.0
  0
LINE
  5
25F
330
242
100
AcDbEntity
  8
0
100
AcDbLine
 10
-94.0
 20
50.0
 30
0.0
 11
-94.0
 21
0.0
 31
0.0
  0
MTEXT
  5
260
330
242
100
AcDbEntity
  8
0
100
AcDbMText
 10
-64.0
 20
5.0
 30
0.0
 40
3.5
 41
60.0
 71
     5
 72
     5
  1
\fＭＳ ゴシック|b0|i0|c128|p49;株式会社タカチ電機工業
 73
     1
 44
1.0
1001
ACAD
1000
MTEXTBEGIN
1070
    73
1070
     1
1070
    44
1040
1.0
1070
    74
1070
     0
1000
MTEXTEND
  0
LINE
  5
261
330
242
100
AcDbEntity
  8
0
100
AcDbLine
 10
-94.0
 20
10.0
 30
0.0
 11
-34.0
 21
10.0
 31
0.0
  0
ATTDEF
  5
262
330
242
100
AcDbEntity
  8
0
100
AcDbText
 10
-58.01405119799745
 20
39.25500556178349
 30
0.0
 40
3.0
  1

 72
     2
 11
-58.01405119799745
 21
39.25500556178349
 31
0.0
100
AcDbAttributeDefinition
  3
尺度
  2
GEN-TITLE-SCA
 70
     0
  0
ATTDEF
  5
263
330
242
100
AcDbEntity
  8
0
100
AcDbText
 10
-77.00284966649007
 20
30.62180787943475
 30
0.0
 40
3.0
  1

 11
-77.00284966649007
 21
30.62180787943475
 31
0.0
100
AcDbAttributeDefinition
  3
材質
  2
GEN-TITLE-MAT1
 70
     0
 74
     1
  0
ATTDEF
  5
264
330
242
100
AcDbEntity
  8
0
100
AcDbText
 10
-77.00284966649007
 20
20.62180787943475
 30
0.0
 40
3.0
  1

 11
-77.00284966649007
 21
20.62180787943475
 31
0.0
100
AcDbAttributeDefinition
  3
表面処理
  2
GEN-TITLE-MAT2
 70
     0
 74
     1
  0
ATTDEF
  5
265
330
242
100
AcDbEntity
  8
0
100
AcDbText
 10
-77.00284966649007
 20
11.61751719109475
 30
0.0
 40
3.0
  1

 11
-77.00284966649007
 21
11.61751719109475
 31
0.0
100
AcDbAttributeDefinition
  3
日付
  2
GEN-TITLE-DAT
 70
     0
 74
     1
  0
LINE
  5
266
330
242
100
AcDbEntity
  8
0
100
AcDbLine
 10
-94.0
 20
37.5
 30
0.0
 11
-34.0
 21
37.5
 31
0.0
  0
LINE
  5
267
330
242
100
AcDbEntity
  8
0
100
AcDbLine
 10
-94.0
 20
27.5
 30
0.0
 11
-34.0
 21
27.5
 31
0.0
  0
LINE
  5
268
330
242
100
AcDbEntity
  8
0
100
AcDbLine
 10
-94.0
 20
17.5
 30
0.0
 11
-34.0
 21
17.5
 31
0.0
  0
LINE
  5
269
330
242
100
AcDbEntity
  8
RAHM2
100
AcDbLine
 10
-109.0
 20
50.00000000000003
 30
0.0
 11
-109.0
 21
19.99999999999994
 31
0.0
  0
MTEXT
  5
26A
330
242
100
AcDbEntity
  8
RAHM2
100
AcDbMText
 10
-119.4582894723942
 20
32.50000000000003
 30
0.0
 40
2.5
 41
20.0
 71
     5
 72
     5
  1
・  ・   
 73
     1
 44
1.0
1001
ACAD
1000
MTEXTBEGIN
1070
    73
1070
     1
1070
    44
1040
1.0
1070
    74
1070
     0
1000
MTEXTEND
  0
MTEXT
  5
26B
330
242
100
AcDbEntity
  8
RAHM2
100
AcDbMText
 10
-118.738119805002
 20
22.49999999999997
 30
0.0
 40
2.5
 41
20.0
 71
     5
 72
     5
  1
年・月・日
 73
     1
 44
1.0
1001
ACAD
1000
MTEXTBEGIN
1070
    73
1070
     1
1070
    44
1040
1.0
1070
    74
1070
     0
1000
MTEXTEND
  0
MTEXT
  5
26C
330
242
100
AcDbEntity
  8
RAHM2
100
AcDbMText
 10
-101.5
 20
22.49999999999997
 30
0.0
 40
2.5
 41
15.0
 71
     5
 72
     5
  1
担当
 73
     1
 44
1.0
1001
ACAD
1000
MTEXTBEGIN
1070
    73
1070
     1
1070
    44
1040
1.0
1070
    74
1070
     0
1000
MTEXTEND
  0
MTEXT
  5
26D
330
242
100
AcDbEntity
  8
RAHM2
100
AcDbMText
 10
-119.4582894723942
 20
42.50000000000002
 30
0.0
 40
2.5
 41
20.0
 71
     5
 72
     5
  1
・  ・   
 73
     1
 44
1.0
1001
ACAD
1000
MTEXTBEGIN
1070
    73
1070
     1
1070
    44
1040
1.0
1070
    74
1070
     0
1000
MTEXTEND
  0
MTEXT
  5
26E
330
242
100
AcDbEntity
  8
RAHM2
100
AcDbMText
 10
-119.4582894723942
 20
37.50000000000003
 30
0.0
 40
2.5
 41
20.0
 71
     5
 72
     5
  1
・  ・   
 73
     1
 44
1.0
1001
ACAD
1000
MTEXTBEGIN
1070
    73
1070
     1
1070
    44
1040
1.0
1070
    74
1070
     0
1000
MTEXTEND
  0
MTEXT
  5
26F
330
242
100
AcDbEntity
  8
RAHM2
100
AcDbMText
 10
-119.4582894723942
 20
47.50000000000002
 30
0.0
 40
2.5
 41
20.0
 71
     5
 72
     5
  1
・  ・   
 73
     1
 44
1.0
1001
ACAD
1000
MTEXTBEGIN
1070
    73
1070
     1
1070
    44
1040
1.0
1070
    74
1070
     0
1000
MTEXTEND
  0
MTEXT
  5
270
330
242
100
AcDbEntity
  8
RAHM2
100
AcDbMText
 10
-92.80025513713145
 20
16.30103540727964
 30
0.0
 40
2.5
 41
60.0
 71
     1
 72
     5
  1
日付
 73
     1
 44
1.0
1001
ACAD
1000
MTEXTBEGIN
1070
    73
1070
     1
1070
    44
1040
1.0
1070
    74
1070
     0
1000
MTEXTEND
  0
MTEXT
  5
271
330
242
100
AcDbEntity
  8
RAHM2
100
AcDbMText
 10
-92.80025513713145
 20
26.30103540727964
 30
0.0
 40
2.5
 41
60.0
 71
     1
 72
     5
  1
表面処理
 73
     1
 44
1.0
1001
ACAD
1000
MTEXTBEGIN
1070
    73
1070
     1
1070
    44
1040
1.0
1070
    74
1070
     0
1000
MTEXTEND
  0
LINE
  5
272
330
242
100
AcDbEntity
  8
7A
100
AcDbLine
 10
-89.0
 20
43.75
 30
0.0
 11
-75.2186915997147
 21
43.75
 31
0.0
1001
GENIUS_GENOREF_13
1005
285
  0
LINE
  5
273
330
242
100
AcDbEntity
  8
0
100
AcDbLine
 10
-84.0
 20
45.75
 30
0.0
 11
-76.0
 21
46.74999999999999
 31
0.0
  0
LINE
  5
274
330
242
100
AcDbEntity
  8
0
100
AcDbLine
 10
-76.0
 20
40.75
 30
0.0
 11
-84.0
 21
41.74999999999999
 31
0.0
  0
LINE
  5
275
330
242
100
AcDbEntity
  8
7A
100
AcDbLine
 10
-89.0
 20
43.75
 30
0.0
 11
-89.0
 21
47.32478664473148
 31
0.0
1001
GENIUS_GENOREF_13
1005
285
  0
CIRCLE
  5
276
330
242
100
AcDbEntity
  8
0
100
AcDbCircle
 10
-89.0
 20
43.75
 30
0.0
 40
2.0
  0
CIRCLE
  5
277
330
242
100
AcDbEntity
  8
0
100
AcDbCircle
 10
-89.0
 20
43.75
 30
0.0
 40
3.0
  0
LINE
  5
278
330
242
100
AcDbEntity
  8
0
100
AcDbLine
 10
-84.0
 20
41.74999999999999
 30
0.0
 11
-84.0
 21
45.75
 31
0.0
  0
MTEXT
  5
279
330
242
100
AcDbEntity
  8
RAHM2
100
AcDbMText
 10
-92.80025513713145
 20
36.30103540727964
 30
0.0
 40
2.5
 41
60.0
 71
     1
 72
     5
  1
材質
 73
     1
 44
1.0
1001
ACAD
1000
MTEXTBEGIN
1070
    73
1070
     1
1070
    44
1040
1.0
1070
    74
1070
     0
1000
MTEXTEND
  0
LINE
  5
27A
330
242
100
AcDbEntity
  8
7A
100
AcDbLine
 10
-89.0
 20
43.75
 30
0.0
 11
-92.72303737125117
 21
43.75
 31
0.0
1001
GENIUS_GENOREF_13
1005
285
  0
LINE
  5
27B
330
242
100
AcDbEntity
  8
7A
100
AcDbLine
 10
-89.0
 20
43.75
 30
0.0
 11
-89.0
 21
40.03991724228479
 31
0.0
1001
GENIUS_GENOREF_13
1005
285
  0
LINE
  5
27C
330
242
100
AcDbEntity
  8
0
100
AcDbLine
 10
-76.0
 20
46.74999999999999
 30
0.0
 11
-76.0
 21
40.75
 31
0.0
  0
LINE
  5
27D
330
242
100
AcDbEntity
  8
0
100
AcDbLine
 10
-74.0
 20
50.0
 30
0.0
 11
-74.0
 21
37.5
 31
0.0
  0
MTEXT
  5
27E
330
242
100
AcDbEntity
  8
RAHM2
100
AcDbMText
 10
-72.80025513713145
 20
48.80103540727964
 30
0.0
 40
2.5
 41
20.0
 71
     1
 72
     5
  1
尺度
 73
     1
 44
1.0
1001
ACAD
1000
MTEXTBEGIN
1070
    73
1070
     1
1070
    44
1040
1.0
1070
    74
1070
     0
1000
MTEXTEND
  0
ATTDEF
  5
27F
330
242
100
AcDbEntity
  8
0
100
AcDbText
 10
-37.76317379391503
 20
39.25500556178349
 30
0.0
 40
3.0
  1

 72
     2
 11
-37.76317379391503
 21
39.25500556178349
 31
0.0
100
AcDbAttributeDefinition
  3
数量
  2
GEN-TITLE-QTY
 70
     0
  0
LINE
  5
280
330
242
100
AcDbEntity
  8
0
100
AcDbLine
 10
-34.0
 20
25.0
 30
0.0
 11
0.0
 21
25.0
 31
0.0
  0
LINE
  5
281
330
242
100
AcDbEntity
  8
0
100
AcDbLine
 10
-54.0
 20
50.0
 30
0.0
 11
-54.0
 21
37.5
 31
0.0
  0
MTEXT
  5
282
330
242
100
AcDbEntity
  8
RAHM2
100
AcDbMText
 10
-52.80025513713145
 20
48.80103540727964
 30
0.0
 40
2.5
 41
20.0
 71
     1
 72
     5
  1
数量
 73
     1
 44
1.0
1001
ACAD
1000
MTEXTBEGIN
1070
    73
1070
     1
1070
    44
1040
1.0
1070
    74
1070
     0
1000
MTEXTEND
  0
MTEXT
  5
283
330
242
100
AcDbEntity
  8
RAHM2
100
AcDbMText
 10
-25.5
 20
23.80103540727964
 30
0.0
 40
2.5
 41
17.0
 71
     2
 72
     5
  1
承認
 73
     1
 44
1.0
1001
ACAD
1000
MTEXTBEGIN
1070
    73
1070
     1
1070
    44
1040
1.0
1070
    74
1070
     0
1000
MTEXTEND
  0
MTEXT
  5
284
330
242
100
AcDbEntity
  8
RAHM2
100
AcDbMText
 10
-25.5
 20
48.80103540727964
 30
0.0
 40
2.5
 41
17.0
 71
     2
 72
     5
  1
承認
 73
     1
 44
1.0
1001
ACAD
1000
MTEXTBEGIN
1070
    73
1070
     1
1070
    44
1040
1.0
1070
    74
1070
     0
1000
MTEXTEND
  0
POINT
  5
285
330
242
100
AcDbEntity
  8
0
 60
     1
100
AcDbPoint
 10
-320.5355579819676
 20
-138.1104841268254
 30
0.0
1001
GENIUS_GENODEF_13
1002
{
1000
HIER
1070
    10
1002
}
1002
{
1000
MANEDIT
1070
     0
1002
}
1002
{
1000
NOSEL
1070
     0
1002
}
1002
{
1000
BEHIND
1070
     0
1002
}
1002
{
1000
REACTOR
1002
}
1001
GENIUS_GENOBJ-N-CRS_13
1002
{
1000
OWNER
1000
GEN
1002
}
1001
GENIUS_GENOENT_13
1002
{
1000
MYREF
1005
285
1002
}
1002
{
1000
GRP
1005
0
1002
}
1001
GENIUS_GENOLIS_13
1002
{
1000
ENT
1005
27B
1005
27A
1005
275
1005
272
1002
}
  0
LINE
  5
286
330
242
100
AcDbEntity
  8
RAHM2
100
AcDbLine
 10
-190.0
 20
29.60000000000002
 30
0.0
 11
-192.4248711305964
 21
25.40000000000004
 31
0.0
  0
LINE
  5
287
330
242
100
AcDbEntity
  8
RAHM2
100
AcDbLine
 10
-187.5751288694036
 20
25.40000000000004
 30
0.0
 11
-190.0
 21
29.60000000000002
 31
0.0
  0
LINE
  5
288
330
242
100
AcDbEntity
  8
RAHM2
100
AcDbLine
 10
-192.4248711305964
 20
25.40000000000004
 30
0.0
 11
-187.5751288694036
 21
25.40000000000004
 31
0.0
  0
LINE
  5
289
330
242
100
AcDbEntity
  8
RAHM2
100
AcDbLine
 10
-195.0
 20
25.00000000000003
 30
0.0
 11
-94.0
 21
25.00000000000003
 31
0.0
  0
MTEXT
  5
28A
330
242
100
AcDbEntity
  8
RAHM2
100
AcDbMText
 10
-119.4582894723942
 20
27.50000000000003
 30
0.0
 40
2.5
 41
20.0
 71
     5
 72
     5
  1
・  ・   
 73
     1
 44
1.0
1001
ACAD
1000
MTEXTBEGIN
1070
    73
1070
     1
1070
    44
1040
1.0
1070
    74
1070
     0
1000
MTEXTEND
  0
TEXT
  5
28B
330
242
100
AcDbEntity
  8
RAHM2
100
AcDbText
 10
-190.8155863565801
 20
25.65000000000003
 30
0.0
 40
2.5
  1
1
 72
     1
 11
-190.1905863565802
 21
25.65000000000003
 31
0.0
100
AcDbText
 73
     1
  0
TEXT
  5
28C
330
242
100
AcDbEntity
  8
RAHM2
100
AcDbText
 10
-190.9183316929134
 20
30.65000000000003
 30
0.0
 40
2.5
  1
2
 72
     1
 11
-190.0
 21
30.65000000000003
 31
0.0
100
AcDbText
 73
     1
  0
TEXT
  5
28D
330
242
100
AcDbEntity
  8
RAHM2
100
AcDbText
 10
-190.9267766952966
 20
35.65000000000001
 30
0.0
 40
2.5
  1
3
 72
     1
 11
-190.0
 21
35.65000000000001
 31
0.0
100
AcDbText
 73
     1
  0
TEXT
  5
28E
330
242
100
AcDbEntity
  8
RAHM2
100
AcDbText
 10
-191.0
 20
40.65000000000003
 30
0.0
 40
2.5
  1
4
 72
     1
 11
-190.0
 21
40.65000000000003
 31
0.0
100
AcDbText
 73
     1
  0
TEXT
  5
28F
330
242
100
AcDbEntity
  8
RAHM2
100
AcDbText
 10
-190.9267766952966
 20
45.65000000000003
 30
0.0
 40
2.5
  1
5
 72
     1
 11
-190.0
 21
45.65000000000003
 31
0.0
100
AcDbText
 73
     1
  0
LINE
  5
290
330
242
100
AcDbEntity
  8
0
100
AcDbLine
 10
-17.0
 20
50.0
 30
0.0
 11
-17.0
 21
0.0
 31
0.0
  0
LINE
  5
291
330
242
100
AcDbEntity
  8
0
100
AcDbLine
 10
-195.0
 20
0.0
 30
0.0
 11
0.0
 21
0.0
 31
0.0
1001
GENIUS_GENREC_14
1002
{
1000
PYDIR
1011
-184.0
1021
50.0
1031
0.0
1002
}
1002
{
1000
PXDIR
1011
0.0
1021
0.0
1031
0.0
1002
}
1002
{
1000
PORI
1011
-184.0
1021
0.0
1031
0.0
1002
}
1002
{
1000
PINS
1011
-100.5
1021
25.0
1031
0.0
1002
}
1002
{
1000
HVAL
1000
50
1002
}
1002
{
1000
H
1070
     2
1002
}
1002
{
1000
WVAL
1000
167
1002
}
1002
{
1000
W
1070
     2
1002
}
1002
{
1000
C
1070
     4
1002
}
1001
GENIUS_GENODEF_13
1002
{
1000
HIER
1070
     0
1002
}
1002
{
1000
MANEDIT
1070
     0
1002
}
1002
{
1000
NOSEL
1070
     0
1002
}
1002
{
1000
BEHIND
1070
     0
1002
}
1002
{
1000
REACTOR
1002
}
1001
GENIUS_GENOBJ-N-REC_13
1002
{
1000
OWNER
1000
GEN
1002
}
  0
LINE
  5
292
330
242
100
AcDbEntity
  8
0
100
AcDbLine
 10
0.0
 20
0.0
 30
0.0
 11
0.0
 21
50.0
 31
0.0
1001
GENIUS_GENREC_14
1002
{
1000
PYDIR
1011
-184.0
1021
50.0
1031
0.0
1002
}
1002
{
1000
PXDIR
1011
0.0
1021
0.0
1031
0.0
1002
}
1002
{
1000
PORI
1011
-184.0
1021
0.0
1031
0.0
1002
}
1002
{
1000
PINS
1011
-100.5
1021
25.0
1031
0.0
1002
}
1002
{
1000
HVAL
1000
50
1002
}
1002
{
1000
H
1070
     2
1002
}
1002
{
1000
WVAL
1000
167
1002
}
1002
{
1000
W
1070
     2
1002
}
1002
{
1000
C
1070
     4
1002
}
1001
GENIUS_GENODEF_13
1002
{
1000
HIER
1070
     0
1002
}
1002
{
1000
MANEDIT
1070
     0
1002
}
1002
{
1000
NOSEL
1070
     0
1002
}
1002
{
1000
BEHIND
1070
     0
1002
}
1002
{
1000
REACTOR
1002
}
1001
GENIUS_GENOBJ-N-REC_13
1002
{
1000
OWNER
1000
GEN
1002
}
  0
LINE
  5
293
330
242
100
AcDbEntity
  8
0
100
AcDbLine
 10
0.0
 20
50.0
 30
0.0
 11
-195.0
 21
50.00000000000003
 31
0.0
1001
GENIUS_GENREC_14
1002
{
1000
PYDIR
1011
-184.0
1021
50.0
1031
0.0
1002
}
1002
{
1000
PXDIR
1011
0.0
1021
0.0
1031
0.0
1002
}
1002
{
1000
PORI
1011
-184.0
1021
0.0
1031
0.0
1002
}
1002
{
1000
PINS
1011
-100.5
1021
25.0
1031
0.0
1002
}
1002
{
1000
HVAL
1000
50
1002
}
1002
{
1000
H
1070
     2
1002
}
1002
{
1000
WVAL
1000
167
1002
}
1002
{
1000
W
1070
     2
1002
}
1002
{
1000
C
1070
     4
1002
}
1001
GENIUS_GENODEF_13
1002
{
1000
HIER
1070
     0
1002
}
1002
{
1000
MANEDIT
1070
     0
1002
}
1002
{
1000
NOSEL
1070
     0
1002
}
1002
{
1000
BEHIND
1070
     0
1002
}
1002
{
1000
REACTOR
1002
}
1001
GENIUS_GENOBJ-N-REC_13
1002
{
1000
OWNER
1000
GEN
1002
}
  0
LINE
  5
294
330
242
100
AcDbEntity
  8
0
100
AcDbLine
 10
-195.0
 20
50.00000000000003
 30
0.0
 11
-195.0
 21
0.0
 31
0.0
1001
GENIUS_GENREC_14
1002
{
1000
PYDIR
1011
-195.0
1021
50.0
1031
0.0
1002
}
1002
{
1000
PXDIR
1011
-11.0
1021
0.0
1031
0.0
1002
}
1002
{
1000
PORI
1011
-195.0
1021
0.0
1031
0.0
1002
}
1002
{
1000
PINS
1011
-111.5
1021
25.0
1031
0.0
1002
}
1002
{
1000
HVAL
1000
50
1002
}
1002
{
1000
H
1070
     2
1002
}
1002
{
1000
WVAL
1000
167
1002
}
1002
{
1000
W
1070
     2
1002
}
1002
{
1000
C
1070
     4
1002
}
1001
GENIUS_GENODEF_13
1002
{
1000
HIER
1070
     0
1002
}
1002
{
1000
MANEDIT
1070
     0
1002
}
1002
{
1000
NOSEL
1070
     0
1002
}
1002
{
1000
BEHIND
1070
     0
1002
}
1002
{
1000
REACTOR
1002
}
1001
GENIUS_GENOBJ-N-REC_13
1002
{
1000
OWNER
1000
GEN
1002
}
  0
MTEXT
  5
295
330
242
100
AcDbEntity
  8
RAHM2
100
AcDbMText
 10
-8.5
 20
48.80103540727964
 30
0.0
 40
2.5
 41
17.0
 71
     2
 72
     5
  1
検図
 73
     1
 44
1.0
1001
ACAD
1000
MTEXTBEGIN
1070
    73
1070
     1
1070
    44
1040
1.0
1070
    74
1070
     0
1000
MTEXTEND
  0
MTEXT
  5
296
330
242
100
AcDbEntity
  8
RAHM2
100
AcDbMText
 10
-8.5
 20
23.80103540727964
 30
0.0
 40
2.5
 41
17.0
 71
     2
 72
     5
  1
製図
 73
     1
 44
1.0
1001
ACAD
1000
MTEXTBEGIN
1070
    73
1070
     1
1070
    44
1040
1.0
1070
    74
1070
     0
1000
MTEXTEND
  0
ENDBLK
  5
299
330
242
100
AcDbEntity
  8
0
100
AcDbBlockEnd
  0
BLOCK
  5
A16
330
A0D
100
AcDbEntity
  8
0
100
AcDbBlockBegin
  2
TAKACHI-A3-2
 70
     0
 10
0.0
 20
0.0
 30
0.0
  3
TAKACHI-A3-2
  1

  0
LINE
  5
A0E
330
A0D
100
AcDbEntity
  8
0
100
AcDbLine
 10
359.0
 20
280.0
 30
0.0
 11
359.0
 21
275.0
 31
0.0
  0
MTEXT
  5
A0F
330
A0D
100
AcDbEntity
  8
0
100
AcDbMText
 10
402.3592953827349
 20
276.108542987227
 30
0.0
 40
2.5
 41
43.07840397728298
 71
     9
 72
     5
  1
(文書番号：TY-34)2008.02.08
 73
     1
 44
1.0
1001
ACAD
1000
MTEXTBEGIN
1070
    73
1070
     1
1070
    44
1040
1.0
1070
    74
1070
     0
1000
MTEXTEND
  0
LINE
  5
A10
330
A0D
100
AcDbEntity
  8
0
100
AcDbLine
 10
359.0
 20
275.0
 30
0.0
 11
403.0
 21
275.0
 31
0.0
  0
TEXT
  5
A11
330
A0D
100
AcDbEntity
  8
0
 60
     1
100
AcDbText
 10
403.0
 20
0.0
 30
0.0
 40
2.5
  1
!GENTITLE-INSERT
100
AcDbText
  0
TEXT
  5
A12
330
A0D
100
AcDbEntity
  8
0
 60
     1
100
AcDbText
 10
0.0
 20
0.0
 30
0.0
 40
2.5
  1
!GENTITLE-LL
100
AcDbText
  0
TEXT
  5
A13
330
A0D
100
AcDbEntity
  8
0
 60
     1
100
AcDbText
 10
403.0
 20
280.0
 30
0.0
 40
2.5
  1
!GENTITLE-MAX
100
AcDbText
  0
LWPOLYLINE
  5
A14
330
A0D
100
AcDbEntity
  8
0
100
AcDbPolyline
 90
        4
 70
     1
 43
0.0
 10
0.0
 20
0.0
 10
403.0
 20
0.0
 10
403.0
 20
280.0
 10
0.0
 20
280.0000000000001
1001
GENIUS_GENREC_14
1002
{
1000
PYDIR
1011
0.0000000000000178
1021
280.0
1031
0.0
1002
}
1002
{
1000
PXDIR
1011
403.0
1021
0.0
1031
0.0
1002
}
1002
{
1000
PORI
1011
0.0
1021
0.0
1031
0.0
1002
}
1002
{
1000
PINS
1011
0.0
1021
0.0
1031
0.0
1002
}
1002
{
1000
PINS2
1011
403.0
1021
280.0
1031
0.0
1002
}
1002
{
1000
C
1070
     1
1002
}
1001
GENIUS_GENODEF_13
1002
{
1000
HIER
1070
     0
1002
}
1002
{
1000
MANEDIT
1070
     0
1002
}
1002
{
1000
NOSEL
1070
     0
1002
}
1002
{
1000
BEHIND
1070
     0
1002
}
1002
{
1000
OTHER
1070
     0
1002
}
1002
{
1000
REACTOR
1002
}
1001
GENIUS_GENOBJ-N-REC_13
1002
{
1000
OWNER
1000
GEN
1002
}
  0
ENDBLK
  5
A17
330
A0D
100
AcDbEntity
  8
0
100
AcDbBlockEnd
  0
BLOCK
  5
A7A
330
A20
100
AcDbEntity
  8
0
100
AcDbBlockBegin
  2
TAKACHI-TITLEA3
 70
     2
 10
0.0
 20
0.0
 30
0.0
  3
TAKACHI-TITLEA3
  1

  0
LINE
  5
A21
330
A20
100
AcDbEntity
  8
0
100
AcDbLine
 10
-167.0
 20
12.49999999999996
 30
0.0
 11
-193.0000000000001
 21
12.49999999999996
 31
0.0
  0
LINE
  5
A22
330
A20
100
AcDbEntity
  8
0
100
AcDbLine
 10
-167.0
 20
37.49999999999998
 30
0.0
 11
-193.0000000000001
 21
37.49999999999998
 31
0.0
  0
ATTDEF
  5
A23
330
A20
100
AcDbEntity
  8
0
100
AcDbText
 10
-180.2171951662138
 20
3.588342537610664
 30
0.0
 40
3.0
  1

 72
     1
 11
-180.2171951662138
 21
3.588342537610664
 31
0.0
100
AcDbAttributeDefinition
  3
日付
  2
GEN-TITLE-DAT
 70
     0
 74
     1
  0
MTEXT
  5
A24
330
A20
100
AcDbEntity
  8
RAHM2
100
AcDbMText
 10
-191.8002551371315
 20
11.3010354072796
 30
0.0
 40
2.5
 41
60.0
 71
     1
 72
     5
  1
日付
 73
     1
 44
1.0
1001
ACAD
1000
MTEXTBEGIN
1070
    73
1070
     1
1070
    44
1040
1.0
1070
    74
1070
     0
1000
MTEXTEND
  0
ATTDEF
  5
A25
330
A20
100
AcDbEntity
  8
0
100
AcDbText
 10
-177.824739614424
 20
28.29999999999998
 30
0.0
 40
3.0
  1

 72
     2
 11
-177.824739614424
 21
28.29999999999998
 31
0.0
100
AcDbAttributeDefinition
  3
尺度
  2
GEN-TITLE-SCA
 70
     0
 74
     1
  0
MTEXT
  5
A26
330
A20
100
AcDbEntity
  8
RAHM2
100
AcDbMText
 10
-191.8002551371315
 20
36.30103540727966
 30
0.0
 40
2.5
 41
20.0
 71
     1
 72
     5
  1
尺度
 73
     1
 44
1.0
1001
ACAD
1000
MTEXTBEGIN
1070
    73
1070
     1
1070
    44
1040
1.0
1070
    74
1070
     0
1000
MTEXTEND
  0
MTEXT
  5
A27
330
A20
100
AcDbEntity
  8
RAHM2
100
AcDbMText
 10
-191.8002551371315
 20
23.80103540727963
 30
0.0
 40
2.5
 41
20.0
 71
     1
 72
     5
  1
数量
 73
     1
 44
1.0
1001
ACAD
1000
MTEXTBEGIN
1070
    73
1070
     1
1070
    44
1040
1.0
1070
    74
1070
     0
1000
MTEXTEND
  0
ATTDEF
  5
A28
330
A20
100
AcDbEntity
  8
0
100
AcDbText
 10
-175.6127409126095
 20
15.79999999999994
 30
0.0
 40
3.0
  1

 72
     2
 11
-175.6127409126095
 21
15.79999999999994
 31
0.0
100
AcDbAttributeDefinition
  3
数量
  2
GEN-TITLE-QTY
 70
     0
 74
     1
  0
LINE
  5
A29
330
A20
100
AcDbEntity
  8
0
100
AcDbLine
 10
-193.0000000000001
 20
49.99999999999999
 30
0.0
 11
-193.0000000000001
 21
-0.0000000000000142
 31
0.0
  0
LINE
  5
A2A
330
A20
100
AcDbEntity
  8
7A
100
AcDbLine
 10
-184.7167418745796
 20
43.74999999999995
 30
0.0
 11
-170.9354334742943
 21
43.74999999999995
 31
0.0
1001
GENIUS_GENOREF_13
1005
A78
  0
LINE
  5
A2B
330
A20
100
AcDbEntity
  8
0
100
AcDbLine
 10
-179.7167418745796
 20
45.74999999999994
 30
0.0
 11
-171.7167418745796
 21
46.74999999999995
 31
0.0
  0
LINE
  5
A2C
330
A20
100
AcDbEntity
  8
0
100
AcDbLine
 10
-171.7167418745796
 20
40.74999999999994
 30
0.0
 11
-179.7167418745796
 21
41.74999999999995
 31
0.0
  0
LINE
  5
A2D
330
A20
100
AcDbEntity
  8
7A
100
AcDbLine
 10
-184.7167418745796
 20
43.74999999999995
 30
0.0
 11
-184.7167418745796
 21
47.32478664473144
 31
0.0
1001
GENIUS_GENOREF_13
1005
A78
  0
CIRCLE
  5
A2E
330
A20
100
AcDbEntity
  8
0
100
AcDbCircle
 10
-184.7167418745796
 20
43.74999999999995
 30
0.0
 40
2.0
  0
CIRCLE
  5
A2F
330
A20
100
AcDbEntity
  8
0
100
AcDbCircle
 10
-184.7167418745796
 20
43.74999999999995
 30
0.0
 40
3.0
  0
LINE
  5
A30
330
A20
100
AcDbEntity
  8
0
100
AcDbLine
 10
-179.7167418745796
 20
41.74999999999995
 30
0.0
 11
-179.7167418745796
 21
45.74999999999994
 31
0.0
  0
LINE
  5
A31
330
A20
100
AcDbEntity
  8
7A
100
AcDbLine
 10
-184.7167418745796
 20
43.74999999999995
 30
0.0
 11
-188.4397792458307
 21
43.74999999999995
 31
0.0
1001
GENIUS_GENOREF_13
1005
A78
  0
LINE
  5
A32
330
A20
100
AcDbEntity
  8
7A
100
AcDbLine
 10
-184.7167418745796
 20
43.74999999999995
 30
0.0
 11
-184.7167418745796
 21
40.03991724228473
 31
0.0
1001
GENIUS_GENOREF_13
1005
A78
  0
LINE
  5
A33
330
A20
100
AcDbEntity
  8
0
100
AcDbLine
 10
-171.7167418745796
 20
46.74999999999995
 30
0.0
 11
-171.7167418745796
 21
40.74999999999994
 31
0.0
  0
LINE
  5
A34
330
A20
100
AcDbEntity
  8
0
100
AcDbLine
 10
-167.0
 20
24.99999999999997
 30
0.0
 11
-193.0000000000001
 21
24.99999999999997
 31
0.0
  0
LINE
  5
A35
330
A20
100
AcDbEntity
  8
0
100
AcDbLine
 10
-167.0
 20
39.99999999999991
 30
0.0
 11
-96.0
 21
39.99999999999992
 31
0.0
  0
MTEXT
  5
A36
330
A20
100
AcDbEntity
  8
RAHM2
100
AcDbMText
 10
-165.8002551371314
 20
38.80103540727956
 30
0.0
 40
2.5
 41
60.0
 71
     1
 72
     5
  1
表面処理
 73
     1
 44
1.0
1001
ACAD
1000
MTEXTBEGIN
1070
    73
1070
     1
1070
    44
1040
1.0
1070
    74
1070
     0
1000
MTEXTEND
  0
MTEXT
  5
A37
330
A20
100
AcDbEntity
  8
RAHM2
100
AcDbMText
 10
-165.8002551371314
 20
48.80103540727955
 30
0.0
 40
2.5
 41
60.0
 71
     1
 72
     5
  1
材質
 73
     1
 44
1.0
1001
ACAD
1000
MTEXTBEGIN
1070
    73
1070
     1
1070
    44
1040
1.0
1070
    74
1070
     0
1000
MTEXTEND
  0
ATTDEF
  5
A38
330
A20
100
AcDbEntity
  8
0
100
AcDbText
 10
-148.9618675835291
 20
33.29999999999991
 30
0.0
 40
3.0
  1

100
AcDbAttributeDefinition
  3
表面処理
  2
GEN-TITLE-MAT2
 70
     0
  0
ATTDEF
  5
A39
330
A20
100
AcDbEntity
  8
0
100
AcDbText
 10
-148.9618675835291
 20
43.29999999999991
 30
0.0
 40
3.0
  1

100
AcDbAttributeDefinition
  3
材質
  2
GEN-TITLE-MAT1
 70
     0
  0
MTEXT
  5
A3A
330
A20
100
AcDbEntity
  8
0
100
AcDbMText
 10
-131.5000000000001
 20
24.99999999999992
 30
0.0
 40
3.5
 41
60.0
 71
     5
 72
     5
  1
\fＭＳ ゴシック|b0|i0|c128|p49;株式会社タカチ電機工業
 73
     1
 44
1.0
1001
ACAD
1000
MTEXTBEGIN
1070
    73
1070
     1
1070
    44
1040
1.0
1070
    74
1070
     0
1000
MTEXTEND
  0
LINE
  5
A3B
330
A20
100
AcDbEntity
  8
0
100
AcDbLine
 10
-167.0
 20
29.99999999999992
 30
0.0
 11
-96.0
 21
29.99999999999992
 31
0.0
  0
MTEXT
  5
A3C
330
A20
100
AcDbEntity
  8
RAHM2
100
AcDbMText
 10
-158.1250000000001
 20
18.80103540727956
 30
0.0
 40
2.5
 41
17.0
 71
     2
 72
     5
  1
承認
 73
     1
 44
1.0
1001
ACAD
1000
MTEXTBEGIN
1070
    73
1070
     1
1070
    44
1040
1.0
1070
    74
1070
     0
1000
MTEXTEND
  0
MTEXT
  5
A3D
330
A20
100
AcDbEntity
  8
RAHM2
100
AcDbMText
 10
-140.3750000000001
 20
18.80103540727958
 30
0.0
 40
2.5
 41
17.0
 71
     2
 72
     5
  1
承認
 73
     1
 44
1.0
1001
ACAD
1000
MTEXTBEGIN
1070
    73
1070
     1
1070
    44
1040
1.0
1070
    74
1070
     0
1000
MTEXTEND
  0
LINE
  5
A3E
330
A20
100
AcDbEntity
  8
0
100
AcDbLine
 10
-149.2500000000001
 20
19.99999999999993
 30
0.0
 11
-149.2500000000001
 21
-0.0000000000000462
 31
0.0
  0
LINE
  5
A3F
330
A20
100
AcDbEntity
  8
0
100
AcDbLine
 10
-167.0
 20
49.99999999999995
 30
0.0
 11
-167.0
 21
-0.0000000000000497
 31
0.0
  0
MTEXT
  5
A40
330
A20
100
AcDbEntity
  8
RAHM2
100
AcDbMText
 10
-122.6250000000001
 20
18.80103540727958
 30
0.0
 40
2.5
 41
17.0
 71
     2
 72
     5
  1
検図
 73
     1
 44
1.0
1001
ACAD
1000
MTEXTBEGIN
1070
    73
1070
     1
1070
    44
1040
1.0
1070
    74
1070
     0
1000
MTEXTEND
  0
LINE
  5
A41
330
A20
100
AcDbEntity
  8
0
100
AcDbLine
 10
-131.5000000000001
 20
19.99999999999993
 30
0.0
 11
-131.5000000000001
 21
-0.0000000000000533
 31
0.0
  0
LINE
  5
A42
330
A20
100
AcDbEntity
  8
0
100
AcDbLine
 10
-113.75
 20
19.99999999999993
 30
0.0
 11
-113.75
 21
-0.0000000000000533
 31
0.0
  0
LINE
  5
A43
330
A20
100
AcDbEntity
  8
0
100
AcDbLine
 10
-167.0
 20
19.99999999999993
 30
0.0
 11
-96.0
 21
19.99999999999993
 31
0.0
  0
MTEXT
  5
A44
330
A20
100
AcDbEntity
  8
RAHM2
100
AcDbMText
 10
-104.875
 20
18.80103540727957
 30
0.0
 40
2.5
 41
17.0
 71
     2
 72
     5
  1
製図
 73
     1
 44
1.0
1001
ACAD
1000
MTEXTBEGIN
1070
    73
1070
     1
1070
    44
1040
1.0
1070
    74
1070
     0
1000
MTEXTEND
  0
MTEXT
  5
A45
330
A20
100
AcDbEntity
  8
RAHM2
100
AcDbMText
 10
-16.85742592933491
 20
3.434762466565985
 30
0.0
 40
2.5
 41
7.936478436748416
 71
     5
 72
     5
  1
Rev.
 73
     1
 44
1.0
1001
ACAD
1000
MTEXTBEGIN
1070
    73
1070
     1
1070
    44
1040
1.0
1070
    74
1070
     0
1000
MTEXTEND
  0
LINE
  5
A46
330
A20
100
AcDbEntity
  8
0
100
AcDbLine
 10
-21.17541926625711
 20
0.0
 30
0.0
 11
-21.17541926625734
 21
7.0
 31
0.0
  0
LINE
  5
A47
330
A20
100
AcDbEntity
  8
RAHM2
100
AcDbLine
 10
-96.0
 20
29.99999999999992
 30
0.0
 11
0.0000000000001137
 21
30.00000000000003
 31
0.0
  0
LINE
  5
A48
330
A20
100
AcDbEntity
  8
RAHM2
100
AcDbLine
 10
-96.0
 20
35.00000000000003
 30
0.0
 11
0.0000000000001137
 21
35.00000000000003
 31
0.0
  0
LINE
  5
A49
330
A20
100
AcDbEntity
  8
RAHM2
100
AcDbLine
 10
-96.0
 20
39.99999999999993
 30
0.0
 11
0.0000000000001137
 21
40.00000000000002
 31
0.0
  0
LINE
  5
A4A
330
A20
100
AcDbEntity
  8
RAHM2
100
AcDbLine
 10
-96.0
 20
45.00000000000002
 30
0.0
 11
0.0000000000001137
 21
45.00000000000002
 31
0.0
  0
LINE
  5
A4B
330
A20
100
AcDbEntity
  8
0
100
AcDbLine
 10
-96.0
 20
7.0
 30
0.0
 11
0.0000000000001137
 21
7.0
 31
0.0
  0
LINE
  5
A4C
330
A20
100
AcDbEntity
  8
0
100
AcDbLine
 10
-96.0
 20
19.99999999999997
 30
0.0
 11
0.0000000000001137
 21
19.99999999999997
 31
0.0
  0
MTEXT
  5
A4D
330
A20
100
AcDbEntity
  8
RAHM2
100
AcDbMText
 10
-94.80025513713144
 20
5.801035407279627
 30
0.0
 40
2.5
 41
90.0
 71
     1
 72
     5
  1
図番
 73
     1
 44
1.0
1001
ACAD
1000
MTEXTBEGIN
1070
    73
1070
     1
1070
    44
1040
1.0
1070
    74
1070
     0
1000
MTEXTEND
  0
LINE
  5
A4E
330
A20
100
AcDbEntity
  8
RAHM2
100
AcDbLine
 10
-88.57512886940355
 20
30.40000000000002
 30
0.0
 11
-91.0
 21
34.60000000000001
 31
0.0
  0
LINE
  5
A4F
330
A20
100
AcDbEntity
  8
RAHM2
100
AcDbLine
 10
-91.0
 20
34.60000000000001
 30
0.0
 11
-93.42487113059645
 21
30.40000000000002
 31
0.0
  0
LINE
  5
A50
330
A20
100
AcDbEntity
  8
RAHM2
100
AcDbLine
 10
-86.0
 20
50.00000000000001
 30
0.0
 11
-86.0
 21
19.99999999999993
 31
0.0
  0
LINE
  5
A51
330
A20
100
AcDbEntity
  8
RAHM2
100
AcDbLine
 10
-93.42487113059645
 20
30.40000000000002
 30
0.0
 11
-88.57512886940355
 21
30.40000000000002
 31
0.0
  0
MTEXT
  5
A52
330
A20
100
AcDbEntity
  8
RAHM2
100
AcDbMText
 10
-91.0
 20
22.49999999999996
 30
0.0
 40
2.5
 41
10.0
 71
     5
 72
     5
  1
符号
 73
     1
 44
1.0
1001
ACAD
1000
MTEXTBEGIN
1070
    73
1070
     1
1070
    44
1040
1.0
1070
    74
1070
     0
1000
MTEXTEND
  0
MTEXT
  5
A53
330
A20
100
AcDbEntity
  8
RAHM2
100
AcDbMText
 10
-94.80025513713144
 20
18.8010354072796
 30
0.0
 40
2.5
 41
90.0
 71
     1
 72
     5
  1
品名
 73
     1
 44
1.0
1001
ACAD
1000
MTEXTBEGIN
1070
    73
1070
     1
1070
    44
1040
1.0
1070
    74
1070
     0
1000
MTEXTEND
  0
LINE
  5
A54
330
A20
100
AcDbEntity
  8
RAHM2
100
AcDbLine
 10
-93.42487113059645
 20
45.40000000000001
 30
0.0
 11
-88.57512886940355
 21
45.40000000000001
 31
0.0
  0
LINE
  5
A55
330
A20
100
AcDbEntity
  8
RAHM2
100
AcDbLine
 10
-88.57512886940355
 20
45.40000000000001
 30
0.0
 11
-91.0
 21
49.6
 31
0.0
  0
LINE
  5
A56
330
A20
100
AcDbEntity
  8
RAHM2
100
AcDbLine
 10
-93.42487113059645
 20
40.40000000000001
 30
0.0
 11
-88.57512886940355
 21
40.40000000000001
 31
0.0
  0
LINE
  5
A57
330
A20
100
AcDbEntity
  8
RAHM2
100
AcDbLine
 10
-88.57512886940355
 20
40.40000000000001
 30
0.0
 11
-91.0
 21
44.6
 31
0.0
  0
LINE
  5
A58
330
A20
100
AcDbEntity
  8
RAHM2
100
AcDbLine
 10
-93.42487113059645
 20
35.40000000000002
 30
0.0
 11
-88.57512886940355
 21
35.40000000000002
 31
0.0
  0
LINE
  5
A59
330
A20
100
AcDbEntity
  8
RAHM2
100
AcDbLine
 10
-88.57512886940355
 20
35.40000000000002
 30
0.0
 11
-91.0
 21
39.60000000000001
 31
0.0
  0
LINE
  5
A5A
330
A20
100
AcDbEntity
  8
RAHM2
100
AcDbLine
 10
-91.0
 20
39.60000000000001
 30
0.0
 11
-93.42487113059645
 21
35.40000000000002
 31
0.0
  0
LINE
  5
A5B
330
A20
100
AcDbEntity
  8
RAHM2
100
AcDbLine
 10
-91.0
 20
44.6
 30
0.0
 11
-93.42487113059645
 21
40.40000000000001
 31
0.0
  0
LINE
  5
A5C
330
A20
100
AcDbEntity
  8
RAHM2
100
AcDbLine
 10
-91.0
 20
49.6
 30
0.0
 11
-93.42487113059645
 21
45.40000000000001
 31
0.0
  0
LINE
  5
A5D
330
A20
100
AcDbEntity
  8
RAHM2
100
AcDbLine
 10
-31.82081941068907
 20
50.00000000000003
 30
0.0
 11
-31.82081941068918
 21
19.99999999999994
 31
0.0
  0
MTEXT
  5
A5E
330
A20
100
AcDbEntity
  8
RAHM2
100
AcDbMText
 10
-59.0
 20
22.49999999999996
 30
0.0
 40
2.5
 41
45.0
 71
     5
 72
     5
  1
変更記事
 73
     1
 44
1.0
1001
ACAD
1000
MTEXTBEGIN
1070
    73
1070
     1
1070
    44
1040
1.0
1070
    74
1070
     0
1000
MTEXTEND
  0
LINE
  5
A5F
330
A20
100
AcDbEntity
  8
RAHM2
100
AcDbLine
 10
-11.82081941068907
 20
50.00000000000003
 30
0.0
 11
-11.82081941068907
 21
19.99999999999994
 31
0.0
  0
MTEXT
  5
A60
330
A20
100
AcDbEntity
  8
RAHM2
100
AcDbMText
 10
-22.27910888308327
 20
32.50000000000003
 30
0.0
 40
2.5
 41
20.0
 71
     5
 72
     5
  1
・  ・   
 73
     1
 44
1.0
1001
ACAD
1000
MTEXTBEGIN
1070
    73
1070
     1
1070
    44
1040
1.0
1070
    74
1070
     0
1000
MTEXTEND
  0
MTEXT
  5
A61
330
A20
100
AcDbEntity
  8
RAHM2
100
AcDbMText
 10
-21.55893921569111
 20
22.49999999999997
 30
0.0
 40
2.5
 41
20.0
 71
     5
 72
     5
  1
年・月・日
 73
     1
 44
1.0
1001
ACAD
1000
MTEXTBEGIN
1070
    73
1070
     1
1070
    44
1040
1.0
1070
    74
1070
     0
1000
MTEXTEND
  0
MTEXT
  5
A62
330
A20
100
AcDbEntity
  8
RAHM2
100
AcDbMText
 10
-5.910409705344477
 20
22.49999999999997
 30
0.0
 40
2.5
 41
15.0
 71
     5
 72
     5
  1
担当
 73
     1
 44
1.0
1001
ACAD
1000
MTEXTBEGIN
1070
    73
1070
     1
1070
    44
1040
1.0
1070
    74
1070
     0
1000
MTEXTEND
  0
MTEXT
  5
A63
330
A20
100
AcDbEntity
  8
RAHM2
100
AcDbMText
 10
-22.27910888308327
 20
42.50000000000002
 30
0.0
 40
2.5
 41
20.0
 71
     5
 72
     5
  1
・  ・   
 73
     1
 44
1.0
1001
ACAD
1000
MTEXTBEGIN
1070
    73
1070
     1
1070
    44
1040
1.0
1070
    74
1070
     0
1000
MTEXTEND
  0
MTEXT
  5
A64
330
A20
100
AcDbEntity
  8
RAHM2
100
AcDbMText
 10
-22.27910888308327
 20
37.50000000000003
 30
0.0
 40
2.5
 41
20.0
 71
     5
 72
     5
  1
・  ・   
 73
     1
 44
1.0
1001
ACAD
1000
MTEXTBEGIN
1070
    73
1070
     1
1070
    44
1040
1.0
1070
    74
1070
     0
1000
MTEXTEND
  0
MTEXT
  5
A65
330
A20
100
AcDbEntity
  8
RAHM2
100
AcDbMText
 10
-22.27910888308327
 20
47.50000000000002
 30
0.0
 40
2.5
 41
20.0
 71
     5
 72
     5
  1
・  ・   
 73
     1
 44
1.0
1001
ACAD
1000
MTEXTBEGIN
1070
    73
1070
     1
1070
    44
1040
1.0
1070
    74
1070
     0
1000
MTEXTEND
  0
LINE
  5
A66
330
A20
100
AcDbEntity
  8
RAHM2
100
AcDbLine
 10
-91.0
 20
29.60000000000001
 30
0.0
 11
-93.42487113059645
 21
25.40000000000002
 31
0.0
  0
LINE
  5
A67
330
A20
100
AcDbEntity
  8
RAHM2
100
AcDbLine
 10
-88.57512886940355
 20
25.40000000000002
 30
0.0
 11
-91.0
 21
29.60000000000001
 31
0.0
  0
LINE
  5
A68
330
A20
100
AcDbEntity
  8
RAHM2
100
AcDbLine
 10
-93.42487113059645
 20
25.40000000000002
 30
0.0
 11
-88.57512886940355
 21
25.40000000000002
 31
0.0
  0
LINE
  5
A69
330
A20
100
AcDbEntity
  8
RAHM2
100
AcDbLine
 10
-96.0
 20
25.0
 30
0.0
 11
0.0000000000001137
 21
25.00000000000003
 31
0.0
  0
MTEXT
  5
A6A
330
A20
100
AcDbEntity
  8
RAHM2
100
AcDbMText
 10
-22.27910888308327
 20
27.50000000000003
 30
0.0
 40
2.5
 41
20.0
 71
     5
 72
     5
  1
・  ・   
 73
     1
 44
1.0
1001
ACAD
1000
MTEXTBEGIN
1070
    73
1070
     1
1070
    44
1040
1.0
1070
    74
1070
     0
1000
MTEXTEND
  0
TEXT
  5
A6B
330
A20
100
AcDbEntity
  8
RAHM2
100
AcDbText
 10
-91.81558635658019
 20
25.65000000000002
 30
0.0
 40
2.5
  1
1
 72
     1
 11
-91.19058635658019
 21
25.65000000000002
 31
0.0
100
AcDbText
 73
     1
  0
TEXT
  5
A6C
330
A20
100
AcDbEntity
  8
RAHM2
100
AcDbText
 10
-91.91833169291339
 20
30.65000000000002
 30
0.0
 40
2.5
  1
2
 72
     1
 11
-91.0
 21
30.65000000000002
 31
0.0
100
AcDbText
 73
     1
  0
TEXT
  5
A6D
330
A20
100
AcDbEntity
  8
RAHM2
100
AcDbText
 10
-91.92677669529663
 20
35.64999999999999
 30
0.0
 40
2.5
  1
3
 72
     1
 11
-91.0
 21
35.64999999999999
 31
0.0
100
AcDbText
 73
     1
  0
TEXT
  5
A6E
330
A20
100
AcDbEntity
  8
RAHM2
100
AcDbText
 10
-92.0
 20
40.65000000000002
 30
0.0
 40
2.5
  1
4
 72
     1
 11
-91.0
 21
40.65000000000002
 31
0.0
100
AcDbText
 73
     1
  0
TEXT
  5
A6F
330
A20
100
AcDbEntity
  8
RAHM2
100
AcDbText
 10
-91.92677669529663
 20
45.65000000000002
 30
0.0
 40
2.5
  1
5
 72
     1
 11
-91.0
 21
45.65000000000002
 31
0.0
100
AcDbText
 73
     1
  0
LINE
  5
A70
330
A20
100
AcDbEntity
  8
0
100
AcDbLine
 10
-193.0000000000001
 20
0.0
 30
0.0
 11
0.0
 21
0.0
 31
0.0
1001
GENIUS_GENREC_14
1002
{
1000
PYDIR
1011
-184.0
1021
50.0
1031
0.0
1002
}
1002
{
1000
PXDIR
1011
0.0
1021
0.0
1031
0.0
1002
}
1002
{
1000
PORI
1011
-184.0
1021
0.0
1031
0.0
1002
}
1002
{
1000
PINS
1011
-100.5
1021
25.0
1031
0.0
1002
}
1002
{
1000
HVAL
1000
50
1002
}
1002
{
1000
H
1070
     2
1002
}
1002
{
1000
WVAL
1000
167
1002
}
1002
{
1000
W
1070
     2
1002
}
1002
{
1000
C
1070
     4
1002
}
1001
GENIUS_GENODEF_13
1002
{
1000
HIER
1070
     0
1002
}
1002
{
1000
MANEDIT
1070
     0
1002
}
1002
{
1000
NOSEL
1070
     0
1002
}
1002
{
1000
BEHIND
1070
     0
1002
}
1002
{
1000
REACTOR
1002
}
1001
GENIUS_GENOBJ-N-REC_13
1002
{
1000
OWNER
1000
GEN
1002
}
  0
LINE
  5
A71
330
A20
100
AcDbEntity
  8
0
100
AcDbLine
 10
0.0
 20
50.0
 30
0.0
 11
-193.0000000000001
 21
50.00000000000002
 31
0.0
1001
GENIUS_GENREC_14
1002
{
1000
PYDIR
1011
-184.0
1021
50.0
1031
0.0
1002
}
1002
{
1000
PXDIR
1011
0.0
1021
0.0
1031
0.0
1002
}
1002
{
1000
PORI
1011
-184.0
1021
0.0
1031
0.0
1002
}
1002
{
1000
PINS
1011
-100.5
1021
25.0
1031
0.0
1002
}
1002
{
1000
HVAL
1000
50
1002
}
1002
{
1000
H
1070
     2
1002
}
1002
{
1000
WVAL
1000
167
1002
}
1002
{
1000
W
1070
     2
1002
}
1002
{
1000
C
1070
     4
1002
}
1001
GENIUS_GENODEF_13
1002
{
1000
HIER
1070
     0
1002
}
1002
{
1000
MANEDIT
1070
     0
1002
}
1002
{
1000
NOSEL
1070
     0
1002
}
1002
{
1000
BEHIND
1070
     0
1002
}
1002
{
1000
REACTOR
1002
}
1001
GENIUS_GENOBJ-N-REC_13
1002
{
1000
OWNER
1000
GEN
1002
}
  0
LINE
  5
A72
330
A20
100
AcDbEntity
  8
0
100
AcDbLine
 10
-96.0
 20
50.00000000000001
 30
0.0
 11
-96.0
 21
-0.0000000000000142
 31
0.0
1001
GENIUS_GENREC_14
1002
{
1000
PYDIR
1011
-96.0
1021
49.99999999999999
1031
0.0
1002
}
1002
{
1000
PXDIR
1011
88.0
1021
-0.0000000000000142
1031
0.0
1002
}
1002
{
1000
PORI
1011
-96.0
1021
-0.0000000000000142
1031
0.0
1002
}
1002
{
1000
PINS
1011
-12.5
1021
24.99999999999999
1031
0.0
1002
}
1002
{
1000
HVAL
1000
50
1002
}
1002
{
1000
H
1070
     2
1002
}
1002
{
1000
WVAL
1000
167
1002
}
1002
{
1000
W
1070
     2
1002
}
1002
{
1000
C
1070
     4
1002
}
1001
GENIUS_GENODEF_13
1002
{
1000
HIER
1070
     0
1002
}
1002
{
1000
MANEDIT
1070
     0
1002
}
1002
{
1000
NOSEL
1070
     0
1002
}
1002
{
1000
BEHIND
1070
     0
1002
}
1002
{
1000
REACTOR
1002
}
1001
GENIUS_GENOBJ-N-REC_13
1002
{
1000
OWNER
1000
GEN
1002
}
  0
ATTDEF
  5
A73
330
A20
100
AcDbEntity
  8
0
100
AcDbText
 10
-84.0
 20
1.999999999999957
 30
0.0
 40
3.0
  1

100
AcDbAttributeDefinition
  3
図番
  2
GEN-TITLE-NR1
 70
     0
  0
ATTDEF
  5
A74
330
A20
100
AcDbEntity
  8
0
100
AcDbText
 10
-84.0
 20
9.149999999999948
 30
0.0
 40
2.5
  1

100
AcDbAttributeDefinition
  3
サブタイトル
  2
GEN-TITLE-DES2
 70
     0
  0
LINE
  5
A75
330
A20
100
AcDbEntity
  8
0
100
AcDbLine
 10
0.0
 20
0.0
 30
0.0
 11
0.0
 21
50.0
 31
0.0
1001
GENIUS_GENREC_14
1002
{
1000
PYDIR
1011
-414.0
1021
291.0
1031
0.0
1002
}
1002
{
1000
PXDIR
1011
6.0
1021
-6.0
1031
0.0
1002
}
1002
{
1000
PORI
1011
-414.0
1021
-6.0
1031
0.0
1002
}
1002
{
1000
PINS
1011
-414.0
1021
-6.0
1031
0.0
1002
}
1002
{
1000
HVAL
1000
297
1002
}
1002
{
1000
H
1070
     2
1002
}
1002
{
1000
WVAL
1000
420
1002
}
1002
{
1000
W
1070
     2
1002
}
1002
{
1000
C
1070
     1
1002
}
1001
GENIUS_GENODEF_13
1002
{
1000
HIER
1070
     0
1002
}
1002
{
1000
MANEDIT
1070
     0
1002
}
1002
{
1000
NOSEL
1070
     0
1002
}
1002
{
1000
BEHIND
1070
     0
1002
}
1002
{
1000
OTHER
1070
     0
1002
}
1002
{
1000
REACTOR
1002
}
1001
GENIUS_GENOBJ-N-REC_13
1002
{
1000
OWNER
1000
GEN
1002
}
  0
ATTDEF
  5
A76
330
A20
100
AcDbEntity
  8
0
100
AcDbText
 10
-84.14251901585329
 20
12.82790432564377
 30
0.0
 40
3.5
  1

100
AcDbAttributeDefinition
  3
品名
  2
GEN-TITLE-DES1
 70
     0
  0
ATTDEF
  5
A77
330
A20
100
AcDbEntity
  8
0
100
AcDbText
 10
-8.002309189545826
 20
1.705189434395036
 30
0.0
 40
2.5
  1

100
AcDbAttributeDefinition
  3
Rev.
  2
GEN-TITLE-NR2
 70
     0
  0
POINT
  5
A78
330
A20
100
AcDbEntity
  8
0
 60
     1
100
AcDbPoint
 10
-418.5355579819675
 20
-138.1104841268254
 30
0.0
1001
GENIUS_GENODEF_13
1002
{
1000
HIER
1070
    10
1002
}
1002
{
1000
MANEDIT
1070
     0
1002
}
1002
{
1000
NOSEL
1070
     0
1002
}
1002
{
1000
BEHIND
1070
     0
1002
}
1002
{
1000
REACTOR
1002
}
1001
GENIUS_GENOBJ-N-CRS_13
1002
{
1000
OWNER
1000
GEN
1002
}
1001
GENIUS_GENOENT_13
1002
{
1000
MYREF
1005
A78
1002
}
1002
{
1000
GRP
1005
0
1002
}
1001
GENIUS_GENOLIS_13
1002
{
1000
ENT
1005
A32
1005
A31
1005
A2D
1005
A2A
1002
}
  0
ENDBLK
  5
A7B
330
A20
100
AcDbEntity
  8
0
100
AcDbBlockEnd
  0
BLOCK
  5
AAA
330
AA1
100
AcDbEntity
  8
0
100
AcDbBlockBegin
  2
TAKACHI-A4-2
 70
     0
 10
0.0
 20
0.0
 30
0.0
  3
TAKACHI-A4-2
  1

  0
LINE
  5
AA2
330
AA1
100
AcDbEntity
  8
0
100
AcDbLine
 10
149.0
 20
275.0
 30
0.0
 11
193.0
 21
275.0
 31
0.0
  0
MTEXT
  5
AA3
330
AA1
100
AcDbEntity
  8
0
100
AcDbMText
 10
192.3592953827349
 20
276.1085429872271
 30
0.0
 40
2.5
 41
43.07840397728298
 71
     9
 72
     5
  1
(文書番号：TY-34)2008.02.08
 73
     1
 44
1.0
1001
ACAD
1000
MTEXTBEGIN
1070
    73
1070
     1
1070
    44
1040
1.0
1070
    74
1070
     0
1000
MTEXTEND
  0
LINE
  5
AA4
330
AA1
100
AcDbEntity
  8
0
100
AcDbLine
 10
149.0
 20
280.0000000000001
 30
0.0
 11
149.0
 21
275.0
 31
0.0
  0
LWPOLYLINE
  5
AA5
330
AA1
100
AcDbEntity
  8
0
100
AcDbPolyline
 90
        4
 70
     1
 43
0.0
 10
0.0
 20
0.0
 10
193.0
 20
0.0
 10
193.0
 20
280.0
 10
0.0
 20
280.0
1001
GENIUS_GENREC_14
1002
{
1000
PYDIR
1011
-8.5
1021
288.5
1031
0.0
1002
}
1002
{
1000
PXDIR
1011
201.5
1021
-8.5
1031
0.0
1002
}
1002
{
1000
PORI
1011
-8.5
1021
-8.5
1031
0.0
1002
}
1002
{
1000
PINS
1011
-8.5
1021
-8.5
1031
0.0
1002
}
1002
{
1000
HVAL
1000
297
1002
}
1002
{
1000
H
1070
     2
1002
}
1002
{
1000
WVAL
1000
210
1002
}
1002
{
1000
W
1070
     2
1002
}
1002
{
1000
C
1070
     1
1002
}
1001
GENIUS_GENOBJ-N-REC_13
1002
{
1000
OWNER
1000
GEN
1002
}
1001
GENIUS_GENODEF_13
1002
{
1000
HIER
1070
     0
1002
}
1002
{
1000
MANEDIT
1070
     0
1002
}
1002
{
1000
NOSEL
1070
     0
1002
}
1002
{
1000
BEHIND
1070
     0
1002
}
1002
{
1000
OTHER
1070
     0
1002
}
1002
{
1000
REACTOR
1002
}
  0
TEXT
  5
AA6
330
AA1
100
AcDbEntity
  8
0
 60
     1
100
AcDbText
 10
193.0
 20
0.0
 30
0.0
 40
2.5
  1
!GENTITLE-INSERT
100
AcDbText
  0
TEXT
  5
AA7
330
AA1
100
AcDbEntity
  8
0
 60
     1
100
AcDbText
 10
193.0
 20
280.0
 30
0.0
 40
2.5
  1
!GENTITLE-MAX
100
AcDbText
  0
TEXT
  5
AA8
330
AA1
100
AcDbEntity
  8
0
 60
     1
100
AcDbText
 10
0.0
 20
0.0
 30
0.0
 40
2.5
  1
!GENTITLE-LL
100
AcDbText
  0
ENDBLK
  5
AAB
330
AA1
100
AcDbEntity
  8
0
100
AcDbBlockEnd
  0
BLOCK
  5
AF2
330
AE9
100
AcDbEntity
  8
0
100
AcDbBlockBegin
  2
TK-A3
 70
     0
 10
0.0
 20
0.0
 30
0.0
  3
TK-A3
  1

  0
LINE
  5
AEA
330
AE9
100
AcDbEntity
  8
0
100
AcDbLine
 10
359.0
 20
280.0
 30
0.0
 11
359.0
 21
275.0
 31
0.0
  0
MTEXT
  5
AEB
330
AE9
100
AcDbEntity
  8
0
100
AcDbMText
 10
402.3592953827349
 20
276.108542987227
 30
0.0
 40
2.5
 41
43.07840397728298
 71
     9
 72
     5
  1
(文書番号：TY-34)2008.02.08
 73
     1
 44
1.0
1001
ACAD
1000
MTEXTBEGIN
1070
    73
1070
     1
1070
    44
1040
1.0
1070
    74
1070
     0
1000
MTEXTEND
  0
LINE
  5
AEC
330
AE9
100
AcDbEntity
  8
0
100
AcDbLine
 10
359.0
 20
275.0
 30
0.0
 11
403.0
 21
275.0
 31
0.0
  0
TEXT
  5
AED
330
AE9
100
AcDbEntity
  8
0
 60
     1
100
AcDbText
 10
403.0
 20
0.0
 30
0.0
 40
2.5
  1
!GENTITLE-INSERT
100
AcDbText
  0
TEXT
  5
AEE
330
AE9
100
AcDbEntity
  8
0
 60
     1
100
AcDbText
 10
0.0
 20
0.0
 30
0.0
 40
2.5
  1
!GENTITLE-LL
100
AcDbText
  0
TEXT
  5
AEF
330
AE9
100
AcDbEntity
  8
0
 60
     1
100
AcDbText
 10
403.0
 20
280.0
 30
0.0
 40
2.5
  1
!GENTITLE-MAX
100
AcDbText
  0
LWPOLYLINE
  5
AF0
330
AE9
100
AcDbEntity
  8
0
100
AcDbPolyline
 90
        4
 70
     1
 43
0.0
 10
0.0
 20
0.0
 10
403.0
 20
0.0
 10
403.0
 20
280.0
 10
0.0
 20
280.0000000000001
1001
GENIUS_GENREC_14
1002
{
1000
PYDIR
1011
0.0000000000000178
1021
280.0
1031
0.0
1002
}
1002
{
1000
PXDIR
1011
403.0
1021
0.0
1031
0.0
1002
}
1002
{
1000
PORI
1011
0.0
1021
0.0
1031
0.0
1002
}
1002
{
1000
PINS
1011
0.0
1021
0.0
1031
0.0
1002
}
1002
{
1000
PINS2
1011
403.0
1021
280.0
1031
0.0
1002
}
1002
{
1000
C
1070
     1
1002
}
1001
GENIUS_GENODEF_13
1002
{
1000
HIER
1070
     0
1002
}
1002
{
1000
MANEDIT
1070
     0
1002
}
1002
{
1000
NOSEL
1070
     0
1002
}
1002
{
1000
BEHIND
1070
     0
1002
}
1002
{
1000
OTHER
1070
     0
1002
}
1002
{
1000
REACTOR
1002
}
1001
GENIUS_GENOBJ-N-REC_13
1002
{
1000
OWNER
1000
GEN
1002
}
  0
ENDBLK
  5
AF3
330
AE9
100
AcDbEntity
  8
0
100
AcDbBlockEnd
  0
BLOCK
  5
B56
330
AFC
100
AcDbEntity
  8
0
100
AcDbBlockBegin
  2
TK-TITLE
 70
     2
 10
0.0
 20
0.0
 30
0.0
  3
TK-TITLE
  1

  0
LINE
  5
AFD
330
AFC
100
AcDbEntity
  8
0
100
AcDbLine
 10
-167.0
 20
12.49999999999996
 30
0.0
 11
-193.0000000000001
 21
12.49999999999996
 31
0.0
  0
LINE
  5
AFE
330
AFC
100
AcDbEntity
  8
0
100
AcDbLine
 10
-167.0
 20
37.49999999999998
 30
0.0
 11
-193.0000000000001
 21
37.49999999999998
 31
0.0
  0
ATTDEF
  5
AFF
330
AFC
100
AcDbEntity
  8
0
100
AcDbText
 10
-180.2171951662138
 20
3.588342537610664
 30
0.0
 40
3.0
  1

 72
     1
 11
-180.2171951662138
 21
3.588342537610664
 31
0.0
100
AcDbAttributeDefinition
  3
日付
  2
GEN-TITLE-DAT
 70
     0
 74
     1
  0
MTEXT
  5
B00
330
AFC
100
AcDbEntity
  8
RAHM2
100
AcDbMText
 10
-191.8002551371315
 20
11.3010354072796
 30
0.0
 40
2.5
 41
60.0
 71
     1
 72
     5
  1
日付
 73
     1
 44
1.0
1001
ACAD
1000
MTEXTBEGIN
1070
    73
1070
     1
1070
    44
1040
1.0
1070
    74
1070
     0
1000
MTEXTEND
  0
ATTDEF
  5
B01
330
AFC
100
AcDbEntity
  8
0
100
AcDbText
 10
-177.824739614424
 20
28.29999999999998
 30
0.0
 40
3.0
  1

 72
     2
 11
-177.824739614424
 21
28.29999999999998
 31
0.0
100
AcDbAttributeDefinition
  3
尺度
  2
GEN-TITLE-SCA
 70
     0
 74
     1
  0
MTEXT
  5
B02
330
AFC
100
AcDbEntity
  8
RAHM2
100
AcDbMText
 10
-191.8002551371315
 20
36.30103540727966
 30
0.0
 40
2.5
 41
20.0
 71
     1
 72
     5
  1
尺度
 73
     1
 44
1.0
1001
ACAD
1000
MTEXTBEGIN
1070
    73
1070
     1
1070
    44
1040
1.0
1070
    74
1070
     0
1000
MTEXTEND
  0
MTEXT
  5
B03
330
AFC
100
AcDbEntity
  8
RAHM2
100
AcDbMText
 10
-191.8002551371315
 20
23.80103540727963
 30
0.0
 40
2.5
 41
20.0
 71
     1
 72
     5
  1
数量
 73
     1
 44
1.0
1001
ACAD
1000
MTEXTBEGIN
1070
    73
1070
     1
1070
    44
1040
1.0
1070
    74
1070
     0
1000
MTEXTEND
  0
ATTDEF
  5
B04
330
AFC
100
AcDbEntity
  8
0
100
AcDbText
 10
-175.6127409126095
 20
15.79999999999994
 30
0.0
 40
3.0
  1

 72
     2
 11
-175.6127409126095
 21
15.79999999999994
 31
0.0
100
AcDbAttributeDefinition
  3
数量
  2
GEN-TITLE-QTY
 70
     0
 74
     1
  0
LINE
  5
B05
330
AFC
100
AcDbEntity
  8
0
100
AcDbLine
 10
-193.0000000000001
 20
49.99999999999999
 30
0.0
 11
-193.0000000000001
 21
-0.0000000000000142
 31
0.0
  0
LINE
  5
B06
330
AFC
100
AcDbEntity
  8
7A
100
AcDbLine
 10
-184.7167418745796
 20
43.74999999999995
 30
0.0
 11
-170.9354334742943
 21
43.74999999999995
 31
0.0
1001
GENIUS_GENOREF_13
1005
B54
  0
LINE
  5
B07
330
AFC
100
AcDbEntity
  8
0
100
AcDbLine
 10
-179.7167418745796
 20
45.74999999999994
 30
0.0
 11
-171.7167418745796
 21
46.74999999999995
 31
0.0
  0
LINE
  5
B08
330
AFC
100
AcDbEntity
  8
0
100
AcDbLine
 10
-171.7167418745796
 20
40.74999999999994
 30
0.0
 11
-179.7167418745796
 21
41.74999999999995
 31
0.0
  0
LINE
  5
B09
330
AFC
100
AcDbEntity
  8
7A
100
AcDbLine
 10
-184.7167418745796
 20
43.74999999999995
 30
0.0
 11
-184.7167418745796
 21
47.32478664473144
 31
0.0
1001
GENIUS_GENOREF_13
1005
B54
  0
CIRCLE
  5
B0A
330
AFC
100
AcDbEntity
  8
0
100
AcDbCircle
 10
-184.7167418745796
 20
43.74999999999995
 30
0.0
 40
2.0
  0
CIRCLE
  5
B0B
330
AFC
100
AcDbEntity
  8
0
100
AcDbCircle
 10
-184.7167418745796
 20
43.74999999999995
 30
0.0
 40
3.0
  0
LINE
  5
B0C
330
AFC
100
AcDbEntity
  8
0
100
AcDbLine
 10
-179.7167418745796
 20
41.74999999999995
 30
0.0
 11
-179.7167418745796
 21
45.74999999999994
 31
0.0
  0
LINE
  5
B0D
330
AFC
100
AcDbEntity
  8
7A
100
AcDbLine
 10
-184.7167418745796
 20
43.74999999999995
 30
0.0
 11
-188.4397792458307
 21
43.74999999999995
 31
0.0
1001
GENIUS_GENOREF_13
1005
B54
  0
LINE
  5
B0E
330
AFC
100
AcDbEntity
  8
7A
100
AcDbLine
 10
-184.7167418745796
 20
43.74999999999995
 30
0.0
 11
-184.7167418745796
 21
40.03991724228473
 31
0.0
1001
GENIUS_GENOREF_13
1005
B54
  0
LINE
  5
B0F
330
AFC
100
AcDbEntity
  8
0
100
AcDbLine
 10
-171.7167418745796
 20
46.74999999999995
 30
0.0
 11
-171.7167418745796
 21
40.74999999999994
 31
0.0
  0
LINE
  5
B10
330
AFC
100
AcDbEntity
  8
0
100
AcDbLine
 10
-167.0
 20
24.99999999999997
 30
0.0
 11
-193.0000000000001
 21
24.99999999999997
 31
0.0
  0
LINE
  5
B11
330
AFC
100
AcDbEntity
  8
0
100
AcDbLine
 10
-167.0
 20
39.99999999999991
 30
0.0
 11
-96.0
 21
39.99999999999992
 31
0.0
  0
MTEXT
  5
B12
330
AFC
100
AcDbEntity
  8
RAHM2
100
AcDbMText
 10
-165.8002551371314
 20
38.80103540727956
 30
0.0
 40
2.5
 41
60.0
 71
     1
 72
     5
  1
表面処理
 73
     1
 44
1.0
1001
ACAD
1000
MTEXTBEGIN
1070
    73
1070
     1
1070
    44
1040
1.0
1070
    74
1070
     0
1000
MTEXTEND
  0
MTEXT
  5
B13
330
AFC
100
AcDbEntity
  8
RAHM2
100
AcDbMText
 10
-165.8002551371314
 20
48.80103540727955
 30
0.0
 40
2.5
 41
60.0
 71
     1
 72
     5
  1
材質
 73
     1
 44
1.0
1001
ACAD
1000
MTEXTBEGIN
1070
    73
1070
     1
1070
    44
1040
1.0
1070
    74
1070
     0
1000
MTEXTEND
  0
ATTDEF
  5
B14
330
AFC
100
AcDbEntity
  8
0
100
AcDbText
 10
-148.9618675835291
 20
33.29999999999991
 30
0.0
 40
3.0
  1

100
AcDbAttributeDefinition
  3
表面処理
  2
GEN-TITLE-MAT2
 70
     0
  0
ATTDEF
  5
B15
330
AFC
100
AcDbEntity
  8
0
100
AcDbText
 10
-148.9618675835291
 20
43.29999999999991
 30
0.0
 40
3.0
  1

100
AcDbAttributeDefinition
  3
材質
  2
GEN-TITLE-MAT1
 70
     0
  0
MTEXT
  5
B16
330
AFC
100
AcDbEntity
  8
0
100
AcDbMText
 10
-131.5000000000001
 20
24.99999999999992
 30
0.0
 40
3.5
 41
60.0
 71
     5
 72
     5
  1
\fＭＳ ゴシック|b0|i0|c128|p49;株式会社タカチ電機工業
 73
     1
 44
1.0
1001
ACAD
1000
MTEXTBEGIN
1070
    73
1070
     1
1070
    44
1040
1.0
1070
    74
1070
     0
1000
MTEXTEND
  0
LINE
  5
B17
330
AFC
100
AcDbEntity
  8
0
100
AcDbLine
 10
-167.0
 20
29.99999999999992
 30
0.0
 11
-96.0
 21
29.99999999999992
 31
0.0
  0
MTEXT
  5
B18
330
AFC
100
AcDbEntity
  8
RAHM2
100
AcDbMText
 10
-158.1250000000001
 20
18.80103540727956
 30
0.0
 40
2.5
 41
17.0
 71
     2
 72
     5
  1
承認
 73
     1
 44
1.0
1001
ACAD
1000
MTEXTBEGIN
1070
    73
1070
     1
1070
    44
1040
1.0
1070
    74
1070
     0
1000
MTEXTEND
  0
MTEXT
  5
B19
330
AFC
100
AcDbEntity
  8
RAHM2
100
AcDbMText
 10
-140.3750000000001
 20
18.80103540727958
 30
0.0
 40
2.5
 41
17.0
 71
     2
 72
     5
  1
承認
 73
     1
 44
1.0
1001
ACAD
1000
MTEXTBEGIN
1070
    73
1070
     1
1070
    44
1040
1.0
1070
    74
1070
     0
1000
MTEXTEND
  0
LINE
  5
B1A
330
AFC
100
AcDbEntity
  8
0
100
AcDbLine
 10
-149.2500000000001
 20
19.99999999999993
 30
0.0
 11
-149.2500000000001
 21
-0.0000000000000462
 31
0.0
  0
LINE
  5
B1B
330
AFC
100
AcDbEntity
  8
0
100
AcDbLine
 10
-167.0
 20
49.99999999999995
 30
0.0
 11
-167.0
 21
-0.0000000000000497
 31
0.0
  0
MTEXT
  5
B1C
330
AFC
100
AcDbEntity
  8
RAHM2
100
AcDbMText
 10
-122.6250000000001
 20
18.80103540727958
 30
0.0
 40
2.5
 41
17.0
 71
     2
 72
     5
  1
検図
 73
     1
 44
1.0
1001
ACAD
1000
MTEXTBEGIN
1070
    73
1070
     1
1070
    44
1040
1.0
1070
    74
1070
     0
1000
MTEXTEND
  0
LINE
  5
B1D
330
AFC
100
AcDbEntity
  8
0
100
AcDbLine
 10
-131.5000000000001
 20
19.99999999999993
 30
0.0
 11
-131.5000000000001
 21
-0.0000000000000533
 31
0.0
  0
LINE
  5
B1E
330
AFC
100
AcDbEntity
  8
0
100
AcDbLine
 10
-113.75
 20
19.99999999999993
 30
0.0
 11
-113.75
 21
-0.0000000000000533
 31
0.0
  0
LINE
  5
B1F
330
AFC
100
AcDbEntity
  8
0
100
AcDbLine
 10
-167.0
 20
19.99999999999993
 30
0.0
 11
-96.0
 21
19.99999999999993
 31
0.0
  0
MTEXT
  5
B20
330
AFC
100
AcDbEntity
  8
RAHM2
100
AcDbMText
 10
-104.875
 20
18.80103540727957
 30
0.0
 40
2.5
 41
17.0
 71
     2
 72
     5
  1
製図
 73
     1
 44
1.0
1001
ACAD
1000
MTEXTBEGIN
1070
    73
1070
     1
1070
    44
1040
1.0
1070
    74
1070
     0
1000
MTEXTEND
  0
MTEXT
  5
B21
330
AFC
100
AcDbEntity
  8
RAHM2
100
AcDbMText
 10
-16.85742592933491
 20
3.434762466565985
 30
0.0
 40
2.5
 41
7.936478436748416
 71
     5
 72
     5
  1
Rev.
 73
     1
 44
1.0
1001
ACAD
1000
MTEXTBEGIN
1070
    73
1070
     1
1070
    44
1040
1.0
1070
    74
1070
     0
1000
MTEXTEND
  0
LINE
  5
B22
330
AFC
100
AcDbEntity
  8
0
100
AcDbLine
 10
-21.17541926625711
 20
0.0
 30
0.0
 11
-21.17541926625734
 21
7.0
 31
0.0
  0
LINE
  5
B23
330
AFC
100
AcDbEntity
  8
RAHM2
100
AcDbLine
 10
-96.0
 20
29.99999999999992
 30
0.0
 11
0.0000000000001137
 21
30.00000000000003
 31
0.0
  0
LINE
  5
B24
330
AFC
100
AcDbEntity
  8
RAHM2
100
AcDbLine
 10
-96.0
 20
35.00000000000003
 30
0.0
 11
0.0000000000001137
 21
35.00000000000003
 31
0.0
  0
LINE
  5
B25
330
AFC
100
AcDbEntity
  8
RAHM2
100
AcDbLine
 10
-96.0
 20
39.99999999999993
 30
0.0
 11
0.0000000000001137
 21
40.00000000000002
 31
0.0
  0
LINE
  5
B26
330
AFC
100
AcDbEntity
  8
RAHM2
100
AcDbLine
 10
-96.0
 20
45.00000000000002
 30
0.0
 11
0.0000000000001137
 21
45.00000000000002
 31
0.0
  0
LINE
  5
B27
330
AFC
100
AcDbEntity
  8
0
100
AcDbLine
 10
-96.0
 20
7.0
 30
0.0
 11
0.0000000000001137
 21
7.0
 31
0.0
  0
LINE
  5
B28
330
AFC
100
AcDbEntity
  8
0
100
AcDbLine
 10
-96.0
 20
19.99999999999997
 30
0.0
 11
0.0000000000001137
 21
19.99999999999997
 31
0.0
  0
MTEXT
  5
B29
330
AFC
100
AcDbEntity
  8
RAHM2
100
AcDbMText
 10
-94.80025513713144
 20
5.801035407279627
 30
0.0
 40
2.5
 41
90.0
 71
     1
 72
     5
  1
図番
 73
     1
 44
1.0
1001
ACAD
1000
MTEXTBEGIN
1070
    73
1070
     1
1070
    44
1040
1.0
1070
    74
1070
     0
1000
MTEXTEND
  0
LINE
  5
B2A
330
AFC
100
AcDbEntity
  8
RAHM2
100
AcDbLine
 10
-88.57512886940355
 20
30.40000000000002
 30
0.0
 11
-91.0
 21
34.60000000000001
 31
0.0
  0
LINE
  5
B2B
330
AFC
100
AcDbEntity
  8
RAHM2
100
AcDbLine
 10
-91.0
 20
34.60000000000001
 30
0.0
 11
-93.42487113059645
 21
30.40000000000002
 31
0.0
  0
LINE
  5
B2C
330
AFC
100
AcDbEntity
  8
RAHM2
100
AcDbLine
 10
-86.0
 20
50.00000000000001
 30
0.0
 11
-86.0
 21
19.99999999999993
 31
0.0
  0
LINE
  5
B2D
330
AFC
100
AcDbEntity
  8
RAHM2
100
AcDbLine
 10
-93.42487113059645
 20
30.40000000000002
 30
0.0
 11
-88.57512886940355
 21
30.40000000000002
 31
0.0
  0
MTEXT
  5
B2E
330
AFC
100
AcDbEntity
  8
RAHM2
100
AcDbMText
 10
-91.0
 20
22.49999999999996
 30
0.0
 40
2.5
 41
10.0
 71
     5
 72
     5
  1
符号
 73
     1
 44
1.0
1001
ACAD
1000
MTEXTBEGIN
1070
    73
1070
     1
1070
    44
1040
1.0
1070
    74
1070
     0
1000
MTEXTEND
  0
MTEXT
  5
B2F
330
AFC
100
AcDbEntity
  8
RAHM2
100
AcDbMText
 10
-94.80025513713144
 20
18.8010354072796
 30
0.0
 40
2.5
 41
90.0
 71
     1
 72
     5
  1
品名
 73
     1
 44
1.0
1001
ACAD
1000
MTEXTBEGIN
1070
    73
1070
     1
1070
    44
1040
1.0
1070
    74
1070
     0
1000
MTEXTEND
  0
LINE
  5
B30
330
AFC
100
AcDbEntity
  8
RAHM2
100
AcDbLine
 10
-93.42487113059645
 20
45.40000000000001
 30
0.0
 11
-88.57512886940355
 21
45.40000000000001
 31
0.0
  0
LINE
  5
B31
330
AFC
100
AcDbEntity
  8
RAHM2
100
AcDbLine
 10
-88.57512886940355
 20
45.40000000000001
 30
0.0
 11
-91.0
 21
49.6
 31
0.0
  0
LINE
  5
B32
330
AFC
100
AcDbEntity
  8
RAHM2
100
AcDbLine
 10
-93.42487113059645
 20
40.40000000000001
 30
0.0
 11
-88.57512886940355
 21
40.40000000000001
 31
0.0
  0
LINE
  5
B33
330
AFC
100
AcDbEntity
  8
RAHM2
100
AcDbLine
 10
-88.57512886940355
 20
40.40000000000001
 30
0.0
 11
-91.0
 21
44.6
 31
0.0
  0
LINE
  5
B34
330
AFC
100
AcDbEntity
  8
RAHM2
100
AcDbLine
 10
-93.42487113059645
 20
35.40000000000002
 30
0.0
 11
-88.57512886940355
 21
35.40000000000002
 31
0.0
  0
LINE
  5
B35
330
AFC
100
AcDbEntity
  8
RAHM2
100
AcDbLine
 10
-88.57512886940355
 20
35.40000000000002
 30
0.0
 11
-91.0
 21
39.60000000000001
 31
0.0
  0
LINE
  5
B36
330
AFC
100
AcDbEntity
  8
RAHM2
100
AcDbLine
 10
-91.0
 20
39.60000000000001
 30
0.0
 11
-93.42487113059645
 21
35.40000000000002
 31
0.0
  0
LINE
  5
B37
330
AFC
100
AcDbEntity
  8
RAHM2
100
AcDbLine
 10
-91.0
 20
44.6
 30
0.0
 11
-93.42487113059645
 21
40.40000000000001
 31
0.0
  0
LINE
  5
B38
330
AFC
100
AcDbEntity
  8
RAHM2
100
AcDbLine
 10
-91.0
 20
49.6
 30
0.0
 11
-93.42487113059645
 21
45.40000000000001
 31
0.0
  0
LINE
  5
B39
330
AFC
100
AcDbEntity
  8
RAHM2
100
AcDbLine
 10
-31.82081941068907
 20
50.00000000000003
 30
0.0
 11
-31.82081941068918
 21
19.99999999999994
 31
0.0
  0
MTEXT
  5
B3A
330
AFC
100
AcDbEntity
  8
RAHM2
100
AcDbMText
 10
-59.0
 20
22.49999999999996
 30
0.0
 40
2.5
 41
45.0
 71
     5
 72
     5
  1
変更記事
 73
     1
 44
1.0
1001
ACAD
1000
MTEXTBEGIN
1070
    73
1070
     1
1070
    44
1040
1.0
1070
    74
1070
     0
1000
MTEXTEND
  0
LINE
  5
B3B
330
AFC
100
AcDbEntity
  8
RAHM2
100
AcDbLine
 10
-11.82081941068907
 20
50.00000000000003
 30
0.0
 11
-11.82081941068907
 21
19.99999999999994
 31
0.0
  0
MTEXT
  5
B3C
330
AFC
100
AcDbEntity
  8
RAHM2
100
AcDbMText
 10
-22.27910888308327
 20
32.50000000000003
 30
0.0
 40
2.5
 41
20.0
 71
     5
 72
     5
  1
・  ・   
 73
     1
 44
1.0
1001
ACAD
1000
MTEXTBEGIN
1070
    73
1070
     1
1070
    44
1040
1.0
1070
    74
1070
     0
1000
MTEXTEND
  0
MTEXT
  5
B3D
330
AFC
100
AcDbEntity
  8
RAHM2
100
AcDbMText
 10
-21.55893921569111
 20
22.49999999999997
 30
0.0
 40
2.5
 41
20.0
 71
     5
 72
     5
  1
年・月・日
 73
     1
 44
1.0
1001
ACAD
1000
MTEXTBEGIN
1070
    73
1070
     1
1070
    44
1040
1.0
1070
    74
1070
     0
1000
MTEXTEND
  0
MTEXT
  5
B3E
330
AFC
100
AcDbEntity
  8
RAHM2
100
AcDbMText
 10
-5.910409705344477
 20
22.49999999999997
 30
0.0
 40
2.5
 41
15.0
 71
     5
 72
     5
  1
担当
 73
     1
 44
1.0
1001
ACAD
1000
MTEXTBEGIN
1070
    73
1070
     1
1070
    44
1040
1.0
1070
    74
1070
     0
1000
MTEXTEND
  0
MTEXT
  5
B3F
330
AFC
100
AcDbEntity
  8
RAHM2
100
AcDbMText
 10
-22.27910888308327
 20
42.50000000000002
 30
0.0
 40
2.5
 41
20.0
 71
     5
 72
     5
  1
・  ・   
 73
     1
 44
1.0
1001
ACAD
1000
MTEXTBEGIN
1070
    73
1070
     1
1070
    44
1040
1.0
1070
    74
1070
     0
1000
MTEXTEND
  0
MTEXT
  5
B40
330
AFC
100
AcDbEntity
  8
RAHM2
100
AcDbMText
 10
-22.27910888308327
 20
37.50000000000003
 30
0.0
 40
2.5
 41
20.0
 71
     5
 72
     5
  1
・  ・   
 73
     1
 44
1.0
1001
ACAD
1000
MTEXTBEGIN
1070
    73
1070
     1
1070
    44
1040
1.0
1070
    74
1070
     0
1000
MTEXTEND
  0
MTEXT
  5
B41
330
AFC
100
AcDbEntity
  8
RAHM2
100
AcDbMText
 10
-22.27910888308327
 20
47.50000000000002
 30
0.0
 40
2.5
 41
20.0
 71
     5
 72
     5
  1
・  ・   
 73
     1
 44
1.0
1001
ACAD
1000
MTEXTBEGIN
1070
    73
1070
     1
1070
    44
1040
1.0
1070
    74
1070
     0
1000
MTEXTEND
  0
LINE
  5
B42
330
AFC
100
AcDbEntity
  8
RAHM2
100
AcDbLine
 10
-91.0
 20
29.60000000000001
 30
0.0
 11
-93.42487113059645
 21
25.40000000000002
 31
0.0
  0
LINE
  5
B43
330
AFC
100
AcDbEntity
  8
RAHM2
100
AcDbLine
 10
-88.57512886940355
 20
25.40000000000002
 30
0.0
 11
-91.0
 21
29.60000000000001
 31
0.0
  0
LINE
  5
B44
330
AFC
100
AcDbEntity
  8
RAHM2
100
AcDbLine
 10
-93.42487113059645
 20
25.40000000000002
 30
0.0
 11
-88.57512886940355
 21
25.40000000000002
 31
0.0
  0
LINE
  5
B45
330
AFC
100
AcDbEntity
  8
RAHM2
100
AcDbLine
 10
-96.0
 20
25.0
 30
0.0
 11
0.0000000000001137
 21
25.00000000000003
 31
0.0
  0
MTEXT
  5
B46
330
AFC
100
AcDbEntity
  8
RAHM2
100
AcDbMText
 10
-22.27910888308327
 20
27.50000000000003
 30
0.0
 40
2.5
 41
20.0
 71
     5
 72
     5
  1
・  ・   
 73
     1
 44
1.0
1001
ACAD
1000
MTEXTBEGIN
1070
    73
1070
     1
1070
    44
1040
1.0
1070
    74
1070
     0
1000
MTEXTEND
  0
TEXT
  5
B47
330
AFC
100
AcDbEntity
  8
RAHM2
100
AcDbText
 10
-91.81558635658019
 20
25.65000000000002
 30
0.0
 40
2.5
  1
1
 72
     1
 11
-91.19058635658019
 21
25.65000000000002
 31
0.0
100
AcDbText
 73
     1
  0
TEXT
  5
B48
330
AFC
100
AcDbEntity
  8
RAHM2
100
AcDbText
 10
-91.91833169291339
 20
30.65000000000002
 30
0.0
 40
2.5
  1
2
 72
     1
 11
-91.0
 21
30.65000000000002
 31
0.0
100
AcDbText
 73
     1
  0
TEXT
  5
B49
330
AFC
100
AcDbEntity
  8
RAHM2
100
AcDbText
 10
-91.92677669529663
 20
35.64999999999999
 30
0.0
 40
2.5
  1
3
 72
     1
 11
-91.0
 21
35.64999999999999
 31
0.0
100
AcDbText
 73
     1
  0
TEXT
  5
B4A
330
AFC
100
AcDbEntity
  8
RAHM2
100
AcDbText
 10
-92.0
 20
40.65000000000002
 30
0.0
 40
2.5
  1
4
 72
     1
 11
-91.0
 21
40.65000000000002
 31
0.0
100
AcDbText
 73
     1
  0
TEXT
  5
B4B
330
AFC
100
AcDbEntity
  8
RAHM2
100
AcDbText
 10
-91.92677669529663
 20
45.65000000000002
 30
0.0
 40
2.5
  1
5
 72
     1
 11
-91.0
 21
45.65000000000002
 31
0.0
100
AcDbText
 73
     1
  0
LINE
  5
B4C
330
AFC
100
AcDbEntity
  8
0
100
AcDbLine
 10
-193.0000000000001
 20
0.0
 30
0.0
 11
0.0
 21
0.0
 31
0.0
1001
GENIUS_GENREC_14
1002
{
1000
PYDIR
1011
-184.0
1021
50.0
1031
0.0
1002
}
1002
{
1000
PXDIR
1011
0.0
1021
0.0
1031
0.0
1002
}
1002
{
1000
PORI
1011
-184.0
1021
0.0
1031
0.0
1002
}
1002
{
1000
PINS
1011
-100.5
1021
25.0
1031
0.0
1002
}
1002
{
1000
HVAL
1000
50
1002
}
1002
{
1000
H
1070
     2
1002
}
1002
{
1000
WVAL
1000
167
1002
}
1002
{
1000
W
1070
     2
1002
}
1002
{
1000
C
1070
     4
1002
}
1001
GENIUS_GENODEF_13
1002
{
1000
HIER
1070
     0
1002
}
1002
{
1000
MANEDIT
1070
     0
1002
}
1002
{
1000
NOSEL
1070
     0
1002
}
1002
{
1000
BEHIND
1070
     0
1002
}
1002
{
1000
REACTOR
1002
}
1001
GENIUS_GENOBJ-N-REC_13
1002
{
1000
OWNER
1000
GEN
1002
}
  0
LINE
  5
B4D
330
AFC
100
AcDbEntity
  8
0
100
AcDbLine
 10
0.0
 20
50.0
 30
0.0
 11
-193.0000000000001
 21
50.00000000000002
 31
0.0
1001
GENIUS_GENREC_14
1002
{
1000
PYDIR
1011
-184.0
1021
50.0
1031
0.0
1002
}
1002
{
1000
PXDIR
1011
0.0
1021
0.0
1031
0.0
1002
}
1002
{
1000
PORI
1011
-184.0
1021
0.0
1031
0.0
1002
}
1002
{
1000
PINS
1011
-100.5
1021
25.0
1031
0.0
1002
}
1002
{
1000
HVAL
1000
50
1002
}
1002
{
1000
H
1070
     2
1002
}
1002
{
1000
WVAL
1000
167
1002
}
1002
{
1000
W
1070
     2
1002
}
1002
{
1000
C
1070
     4
1002
}
1001
GENIUS_GENODEF_13
1002
{
1000
HIER
1070
     0
1002
}
1002
{
1000
MANEDIT
1070
     0
1002
}
1002
{
1000
NOSEL
1070
     0
1002
}
1002
{
1000
BEHIND
1070
     0
1002
}
1002
{
1000
REACTOR
1002
}
1001
GENIUS_GENOBJ-N-REC_13
1002
{
1000
OWNER
1000
GEN
1002
}
  0
LINE
  5
B4E
330
AFC
100
AcDbEntity
  8
0
100
AcDbLine
 10
-96.0
 20
50.00000000000001
 30
0.0
 11
-96.0
 21
-0.0000000000000142
 31
0.0
1001
GENIUS_GENREC_14
1002
{
1000
PYDIR
1011
-96.0
1021
49.99999999999999
1031
0.0
1002
}
1002
{
1000
PXDIR
1011
88.0
1021
-0.0000000000000142
1031
0.0
1002
}
1002
{
1000
PORI
1011
-96.0
1021
-0.0000000000000142
1031
0.0
1002
}
1002
{
1000
PINS
1011
-12.5
1021
24.99999999999999
1031
0.0
1002
}
1002
{
1000
HVAL
1000
50
1002
}
1002
{
1000
H
1070
     2
1002
}
1002
{
1000
WVAL
1000
167
1002
}
1002
{
1000
W
1070
     2
1002
}
1002
{
1000
C
1070
     4
1002
}
1001
GENIUS_GENODEF_13
1002
{
1000
HIER
1070
     0
1002
}
1002
{
1000
MANEDIT
1070
     0
1002
}
1002
{
1000
NOSEL
1070
     0
1002
}
1002
{
1000
BEHIND
1070
     0
1002
}
1002
{
1000
REACTOR
1002
}
1001
GENIUS_GENOBJ-N-REC_13
1002
{
1000
OWNER
1000
GEN
1002
}
  0
ATTDEF
  5
B4F
330
AFC
100
AcDbEntity
  8
0
100
AcDbText
 10
-84.0
 20
1.999999999999957
 30
0.0
 40
3.0
  1

100
AcDbAttributeDefinition
  3
図番
  2
GEN-TITLE-NR1
 70
     0
  0
ATTDEF
  5
B50
330
AFC
100
AcDbEntity
  8
0
100
AcDbText
 10
-84.0
 20
9.149999999999948
 30
0.0
 40
2.5
  1

100
AcDbAttributeDefinition
  3
サブタイトル
  2
GEN-TITLE-DES2
 70
     0
  0
LINE
  5
B51
330
AFC
100
AcDbEntity
  8
0
100
AcDbLine
 10
0.0
 20
0.0
 30
0.0
 11
0.0
 21
50.0
 31
0.0
1001
GENIUS_GENREC_14
1002
{
1000
PYDIR
1011
-414.0
1021
291.0
1031
0.0
1002
}
1002
{
1000
PXDIR
1011
6.0
1021
-6.0
1031
0.0
1002
}
1002
{
1000
PORI
1011
-414.0
1021
-6.0
1031
0.0
1002
}
1002
{
1000
PINS
1011
-414.0
1021
-6.0
1031
0.0
1002
}
1002
{
1000
HVAL
1000
297
1002
}
1002
{
1000
H
1070
     2
1002
}
1002
{
1000
WVAL
1000
420
1002
}
1002
{
1000
W
1070
     2
1002
}
1002
{
1000
C
1070
     1
1002
}
1001
GENIUS_GENODEF_13
1002
{
1000
HIER
1070
     0
1002
}
1002
{
1000
MANEDIT
1070
     0
1002
}
1002
{
1000
NOSEL
1070
     0
1002
}
1002
{
1000
BEHIND
1070
     0
1002
}
1002
{
1000
OTHER
1070
     0
1002
}
1002
{
1000
REACTOR
1002
}
1001
GENIUS_GENOBJ-N-REC_13
1002
{
1000
OWNER
1000
GEN
1002
}
  0
ATTDEF
  5
B52
330
AFC
100
AcDbEntity
  8
0
100
AcDbText
 10
-84.14251901585329
 20
12.82790432564377
 30
0.0
 40
3.5
  1

100
AcDbAttributeDefinition
  3
品名
  2
GEN-TITLE-DES1
 70
     0
  0
ATTDEF
  5
B53
330
AFC
100
AcDbEntity
  8
0
100
AcDbText
 10
-8.002309189545826
 20
1.705189434395036
 30
0.0
 40
2.5
  1

100
AcDbAttributeDefinition
  3
Rev.
  2
GEN-TITLE-NR2
 70
     0
  0
POINT
  5
B54
330
AFC
100
AcDbEntity
  8
0
 60
     1
100
AcDbPoint
 10
-418.5355579819675
 20
-138.1104841268254
 30
0.0
1001
GENIUS_GENODEF_13
1002
{
1000
HIER
1070
    10
1002
}
1002
{
1000
MANEDIT
1070
     0
1002
}
1002
{
1000
NOSEL
1070
     0
1002
}
1002
{
1000
BEHIND
1070
     0
1002
}
1002
{
1000
REACTOR
1002
}
1001
GENIUS_GENOBJ-N-CRS_13
1002
{
1000
OWNER
1000
GEN
1002
}
1001
GENIUS_GENOENT_13
1002
{
1000
MYREF
1005
B54
1002
}
1002
{
1000
GRP
1005
0
1002
}
1001
GENIUS_GENOLIS_13
1002
{
1000
ENT
1005
B0E
1005
B0D
1005
B09
1005
B06
1002
}
  0
ENDBLK
  5
B57
330
AFC
100
AcDbEntity
  8
0
100
AcDbBlockEnd
  0
BLOCK
  5
2747
330
2746
100
AcDbEntity
  8
0
100
AcDbBlockBegin
  2
*D11
 70
     1
 10
0.0
 20
0.0
 30
0.0
  3
*D11
  1

  0
LINE
  5
2AA3
330
2746
100
AcDbEntity
  8
AM_5
100
AcDbLine
 10
50.20970065199719
 20
252.2948264663932
 30
0.0
 11
50.20970065199719
 21
269.8513808491482
 31
0.0
  0
LINE
  5
2AA4
330
2746
100
AcDbEntity
  8
AM_5
100
AcDbLine
 10
180.2097006519972
 20
252.2948264663932
 30
0.0
 11
180.2097006519972
 21
269.8513808491482
 31
0.0
  0
LINE
  5
2AA5
330
2746
100
AcDbEntity
  8
AM_5
100
AcDbLine
 10
52.70970065199719
 20
268.8513808491482
 30
0.0
 11
177.7097006519972
 21
268.8513808491482
 31
0.0
  0
INSERT
  5
2AA6
330
2746
100
AcDbEntity
  8
AM_5
100
AcDbBlockReference
  2
_Open30
 10
50.20970065199719
 20
268.8513808491482
 30
0.0
 41
2.5
 42
2.5
 43
2.5
 50
180.0
  0
INSERT
  5
2AA7
330
2746
100
AcDbEntity
  8
AM_5
100
AcDbBlockReference
  2
_Open30
 10
180.2097006519972
 20
268.8513808491482
 30
0.0
 41
2.5
 42
2.5
 43
2.5
  0
MTEXT
  5
2AA8
330
2746
100
AcDbEntity
  8
AM_5
 62
     2
100
AcDbMText
 10
115.2097006519972
 20
272.1013808491482
 30
0.0
 40
3.5
 41
0.0
 71
     5
 72
     1
  1
130
 73
     1
 44
1.0
1001
ACAD
1000
MTEXTBEGIN
1070
    73
1070
     1
1070
    44
1040
1.0
1070
    74
1070
     0
1000
MTEXTEND
  0
POINT
  5
2AA9
330
2746
100
AcDbEntity
  8
Defpoints
 62
     0
100
AcDbPoint
 10
50.20970065199719
 20
251.2948264663932
 30
0.0
  0
POINT
  5
2AAA
330
2746
100
AcDbEntity
  8
Defpoints
 62
     0
100
AcDbPoint
 10
180.2097006519972
 20
251.2948264663931
 30
0.0
  0
POINT
  5
2AAB
330
2746
100
AcDbEntity
  8
Defpoints
 62
     0
100
AcDbPoint
 10
180.2097006519972
 20
268.8513808491482
 30
0.0
  0
ENDBLK
  5
2748
330
2746
100
AcDbEntity
  8
0
100
AcDbBlockEnd
  0
BLOCK
  5
276F
330
276E
100
AcDbEntity
  8
0
100
AcDbBlockBegin
  2
*D12
 70
     1
 10
0.0
 20
0.0
 30
0.0
  3
*D12
  1

  0
LINE
  5
3300
330
276E
100
AcDbEntity
  8
AM_5
100
AcDbLine
 10
50.20970065199719
 20
252.2948264663932
 30
0.0
 11
22.7758381823143
 21
252.2948264663932
 31
0.0
  0
LINE
  5
3301
330
276E
100
AcDbEntity
  8
AM_5
100
AcDbLine
 10
59.20970065199718
 20
175.7948264663931
 30
0.0
 11
22.77583818231429
 21
175.7948264663931
 31
0.0
  0
LINE
  5
3302
330
276E
100
AcDbEntity
  8
AM_5
100
AcDbLine
 10
23.77583818231431
 20
249.7948264663932
 30
0.0
 11
23.77583818231429
 21
178.2948264663931
 31
0.0
  0
INSERT
  5
3303
330
276E
100
AcDbEntity
  8
AM_5
100
AcDbBlockReference
  2
_Open30
 10
23.77583818231431
 20
252.2948264663932
 30
0.0
 41
2.5
 42
2.5
 43
2.5
 50
90.0
  0
INSERT
  5
3304
330
276E
100
AcDbEntity
  8
AM_5
100
AcDbBlockReference
  2
_Open30
 10
23.77583818231429
 20
175.7948264663931
 30
0.0
 41
2.5
 42
2.5
 43
2.5
 50
270.0
  0
MTEXT
  5
3305
330
276E
100
AcDbEntity
  8
AM_5
 62
     2
100
AcDbMText
 10
20.52583818231426
 20
214.0448264663931
 30
0.0
 40
3.5
 41
0.0
 71
     5
 72
     1
  1
76.5
 11
0.0000000000000001
 21
1.0
 31
0.0
 73
     1
 44
1.0
1001
ACAD
1000
MTEXTBEGIN
1070
    73
1070
     1
1070
    44
1040
1.0
1070
    74
1070
     0
1000
MTEXTEND
  0
POINT
  5
3306
330
276E
100
AcDbEntity
  8
Defpoints
 62
     0
100
AcDbPoint
 10
51.2097006519972
 20
252.2948264663932
 30
0.0
  0
POINT
  5
3307
330
276E
100
AcDbEntity
  8
Defpoints
 62
     0
100
AcDbPoint
 10
60.20970065199718
 20
175.7948264663931
 30
0.0
  0
POINT
  5
3308
330
276E
100
AcDbEntity
  8
Defpoints
 62
     0
100
AcDbPoint
 10
23.77583818231429
 20
175.7948264663931
 30
0.0
  0
ENDBLK
  5
2770
330
276E
100
AcDbEntity
  8
0
100
AcDbBlockEnd
  0
BLOCK
  5
278E
330
278D
100
AcDbEntity
  8
0
100
AcDbBlockBegin
  2
*D13
 70
     1
 10
0.0
 20
0.0
 30
0.0
  3
*D13
  1

  0
LINE
  5
2B24
330
278D
100
AcDbEntity
  8
AM_5
100
AcDbLine
 10
304.2369782585088
 20
253.2948264663932
 30
0.0
 11
304.2369782585088
 21
264.2948264663932
 31
0.0
  0
LINE
  5
2B25
330
278D
100
AcDbEntity
  8
AM_5
100
AcDbLine
 10
279.0369782585088
 20
236.2959478132815
 30
0.0
 11
279.0369782585088
 21
264.2948264663932
 31
0.0
  0
LINE
  5
2B26
330
278D
100
AcDbEntity
  8
AM_5
100
AcDbLine
 10
301.7369782585088
 20
263.2948264663931
 30
0.0
 11
281.5369782585088
 21
263.2948264663931
 31
0.0
  0
INSERT
  5
2B27
330
278D
100
AcDbEntity
  8
AM_5
100
AcDbBlockReference
  2
_Open30
 10
304.2369782585088
 20
263.2948264663931
 30
0.0
 41
2.5
 42
2.5
 43
2.5
  0
INSERT
  5
2B28
330
278D
100
AcDbEntity
  8
AM_5
100
AcDbBlockReference
  2
_Open30
 10
279.0369782585088
 20
263.2948264663931
 30
0.0
 41
2.5
 42
2.5
 43
2.5
 50
180.0
  0
MTEXT
  5
2B29
330
278D
100
AcDbEntity
  8
AM_5
 62
     2
100
AcDbMText
 10
291.6369782585087
 20
266.5451709545822
 30
0.0
 40
3.5
 41
0.0
 71
     5
 72
     1
  1
25
 73
     1
 44
1.0
1001
ACAD
1000
MTEXTBEGIN
1070
    73
1070
     1
1070
    44
1040
1.0
1070
    74
1070
     0
1000
MTEXTEND
  0
POINT
  5
2B2A
330
278D
100
AcDbEntity
  8
Defpoints
 62
     0
100
AcDbPoint
 10
304.2369782585088
 20
252.2948264663932
 30
0.0
  0
POINT
  5
2B2B
330
278D
100
AcDbEntity
  8
Defpoints
 62
     0
100
AcDbPoint
 10
279.0369782585088
 20
235.2959478132815
 30
0.0
  0
POINT
  5
2B2C
330
278D
100
AcDbEntity
  8
Defpoints
 62
     0
100
AcDbPoint
 10
279.0369782585088
 20
263.2948264663931
 30
0.0
  0
ENDBLK
  5
278F
330
278D
100
AcDbEntity
  8
0
100
AcDbBlockEnd
  0
BLOCK
  5
27DD
330
27DC
100
AcDbEntity
  8
0
100
AcDbBlockBegin
  2
*D14
 70
     1
 10
0.0
 20
0.0
 30
0.0
  3
*D14
  1

  0
LINE
  5
27F1
330
27DC
100
AcDbEntity
  8
AM_5
100
AcDbLine
 10
236.1811782357432
 20
120.8718501931569
 30
0.0
 11
236.1811782357432
 21
148.3184743288152
 31
0.0
  0
LINE
  5
27F2
330
27DC
100
AcDbEntity
  8
AM_5
100
AcDbLine
 10
357.1811782357432
 20
120.8718501931569
 30
0.0
 11
357.1811782357432
 21
148.3184743288152
 31
0.0
  0
LINE
  5
27F3
330
27DC
100
AcDbEntity
  8
AM_5
100
AcDbLine
 10
238.6811782357431
 20
147.3184743288152
 30
0.0
 11
354.6811782357432
 21
147.3184743288152
 31
0.0
  0
INSERT
  5
27F4
330
27DC
100
AcDbEntity
  8
AM_5
100
AcDbBlockReference
  2
_Open30
 10
236.1811782357432
 20
147.3184743288152
 30
0.0
 41
2.5
 42
2.5
 43
2.5
 50
180.0
  0
INSERT
  5
27F5
330
27DC
100
AcDbEntity
  8
AM_5
100
AcDbBlockReference
  2
_Open30
 10
357.1811782357432
 20
147.3184743288152
 30
0.0
 41
2.5
 42
2.5
 43
2.5
  0
MTEXT
  5
27F6
330
27DC
100
AcDbEntity
  8
AM_5
 62
     2
100
AcDbMText
 10
296.6811782357432
 20
150.5688188170042
 30
0.0
 40
3.5
 41
0.0
 71
     5
 72
     1
  1
121
 73
     1
 44
1.0
1001
ACAD
1000
MTEXTBEGIN
1070
    73
1070
     1
1070
    44
1040
1.0
1070
    74
1070
     0
1000
MTEXTEND
  0
POINT
  5
27F7
330
27DC
100
AcDbEntity
  8
Defpoints
 62
     0
100
AcDbPoint
 10
236.1811782357432
 20
119.8718501931569
 30
0.0
  0
POINT
  5
27F8
330
27DC
100
AcDbEntity
  8
Defpoints
 62
     0
100
AcDbPoint
 10
357.1811782357432
 20
119.8718501931569
 30
0.0
  0
POINT
  5
27F9
330
27DC
100
AcDbEntity
  8
Defpoints
 62
     0
100
AcDbPoint
 10
357.1811782357432
 20
147.3184743288152
 30
0.0
  0
ENDBLK
  5
27DE
330
27DC
100
AcDbEntity
  8
0
100
AcDbBlockEnd
  0
BLOCK
  5
27FC
330
27FB
100
AcDbEntity
  8
0
100
AcDbBlockBegin
  2
*D15
 70
     1
 10
0.0
 20
0.0
 30
0.0
  3
*D15
  1

  0
LINE
  5
31A7
330
27FB
100
AcDbEntity
  8
AM_5
100
AcDbLine
 10
239.6811782357431
 20
133.8141181662099
 30
0.0
 11
239.6811782357431
 21
140.0728949883548
 31
0.0
  0
LINE
  5
31A8
330
27FB
100
AcDbEntity
  8
AM_5
100
AcDbLine
 10
353.6811782357431
 20
133.8141181662099
 30
0.0
 11
353.6811782357431
 21
140.0728949883548
 31
0.0
  0
LINE
  5
31A9
330
27FB
100
AcDbEntity
  8
AM_5
100
AcDbLine
 10
242.1811782357431
 20
139.0728949883548
 30
0.0
 11
351.1811782357431
 21
139.0728949883548
 31
0.0
  0
INSERT
  5
31AA
330
27FB
100
AcDbEntity
  8
AM_5
100
AcDbBlockReference
  2
_Open30
 10
239.6811782357431
 20
139.0728949883548
 30
0.0
 41
2.5
 42
2.5
 43
2.5
 50
180.0
  0
INSERT
  5
31AB
330
27FB
100
AcDbEntity
  8
AM_5
100
AcDbBlockReference
  2
_Open30
 10
353.6811782357431
 20
139.0728949883548
 30
0.0
 41
2.5
 42
2.5
 43
2.5
  0
MTEXT
  5
31AC
330
27FB
100
AcDbEntity
  8
AM_5
 62
     2
100
AcDbMText
 10
296.6811782357431
 20
142.3228949883548
 30
0.0
 40
3.5
 41
0.0
 71
     5
 72
     1
  1
114
 73
     1
 44
1.0
1001
ACAD
1000
MTEXTBEGIN
1070
    73
1070
     1
1070
    44
1040
1.0
1070
    74
1070
     0
1000
MTEXTEND
  0
POINT
  5
31AD
330
27FB
100
AcDbEntity
  8
Defpoints
 62
     0
100
AcDbPoint
 10
239.6811782357431
 20
132.8141181662099
 30
0.0
  0
POINT
  5
31AE
330
27FB
100
AcDbEntity
  8
Defpoints
 62
     0
100
AcDbPoint
 10
353.6811782357431
 20
132.8141181662099
 30
0.0
  0
POINT
  5
31AF
330
27FB
100
AcDbEntity
  8
Defpoints
 62
     0
100
AcDbPoint
 10
353.6811782357431
 20
139.0728949883548
 30
0.0
  0
ENDBLK
  5
27FD
330
27FB
100
AcDbEntity
  8
0
100
AcDbBlockEnd
  0
BLOCK
  5
281B
330
281A
100
AcDbEntity
  8
0
100
AcDbBlockBegin
  2
*D16
 70
     1
 10
0.0
 20
0.0
 30
0.0
  3
*D16
  1

  0
LINE
  5
282F
330
281A
100
AcDbEntity
  8
AM_5
100
AcDbLine
 10
358.6234462087962
 20
128.8718501931569
 30
0.0
 11
382.625093528819
 21
128.8718501931569
 31
0.0
  0
LINE
  5
2830
330
281A
100
AcDbEntity
  8
AM_5
100
AcDbLine
 10
358.6234462087962
 20
61.87185019315688
 30
0.0
 11
382.625093528819
 21
61.87185019315688
 31
0.0
  0
LINE
  5
2831
330
281A
100
AcDbEntity
  8
AM_5
100
AcDbLine
 10
381.625093528819
 20
126.3718501931569
 30
0.0
 11
381.625093528819
 21
64.37185019315688
 31
0.0
  0
INSERT
  5
2832
330
281A
100
AcDbEntity
  8
AM_5
100
AcDbBlockReference
  2
_Open30
 10
381.6250935288191
 20
128.8718501931569
 30
0.0
 41
2.5
 42
2.5
 43
2.5
 50
90.0
  0
INSERT
  5
2833
330
281A
100
AcDbEntity
  8
AM_5
100
AcDbBlockReference
  2
_Open30
 10
381.625093528819
 20
61.87185019315688
 30
0.0
 41
2.5
 42
2.5
 43
2.5
 50
270.0
  0
MTEXT
  5
2834
330
281A
100
AcDbEntity
  8
AM_5
 62
     2
100
AcDbMText
 10
378.375093528819
 20
95.37185019315694
 30
0.0
 40
3.5
 41
0.0
 71
     5
 72
     1
  1
67
 11
0.0000000000000001
 21
1.0
 31
0.0
 73
     1
 44
1.0
1001
ACAD
1000
MTEXTBEGIN
1070
    73
1070
     1
1070
    44
1040
1.0
1070
    74
1070
     0
1000
MTEXTEND
  0
POINT
  5
2835
330
281A
100
AcDbEntity
  8
Defpoints
 62
     0
100
AcDbPoint
 10
357.6234462087962
 20
128.8718501931569
 30
0.0
  0
POINT
  5
2836
330
281A
100
AcDbEntity
  8
Defpoints
 62
     0
100
AcDbPoint
 10
357.6234462087962
 20
61.87185019315688
 30
0.0
  0
POINT
  5
2837
330
281A
100
AcDbEntity
  8
Defpoints
 62
     0
100
AcDbPoint
 10
381.625093528819
 20
61.87185019315688
 30
0.0
  0
ENDBLK
  5
281C
330
281A
100
AcDbEntity
  8
0
100
AcDbBlockEnd
  0
BLOCK
  5
283A
330
2839
100
AcDbEntity
  8
0
100
AcDbBlockBegin
  2
*D17
 70
     1
 10
0.0
 20
0.0
 30
0.0
  3
*D17
  1

  0
LINE
  5
284E
330
2839
100
AcDbEntity
  8
AM_5
100
AcDbLine
 10
355.1811782357432
 20
122.8718501931569
 30
0.0
 11
370.1811792457432
 21
122.8718501931569
 31
0.0
  0
LINE
  5
284F
330
2839
100
AcDbEntity
  8
AM_5
100
AcDbLine
 10
355.1811782357432
 20
67.87185019315692
 30
0.0
 11
370.1811792457432
 21
67.87185019315692
 31
0.0
  0
LINE
  5
2850
330
2839
100
AcDbEntity
  8
AM_5
100
AcDbLine
 10
369.1811792457432
 20
120.3718501931569
 30
0.0
 11
369.1811792457432
 21
70.37185019315692
 31
0.0
  0
INSERT
  5
2851
330
2839
100
AcDbEntity
  8
AM_5
100
AcDbBlockReference
  2
_Open30
 10
369.1811792457432
 20
122.8718501931569
 30
0.0
 41
2.5
 42
2.5
 43
2.5
 50
90.0
  0
INSERT
  5
2852
330
2839
100
AcDbEntity
  8
AM_5
100
AcDbBlockReference
  2
_Open30
 10
369.1811792457432
 20
67.87185019315692
 30
0.0
 41
2.5
 42
2.5
 43
2.5
 50
270.0
  0
MTEXT
  5
2853
330
2839
100
AcDbEntity
  8
AM_5
 62
     2
100
AcDbMText
 10
365.9311792457432
 20
95.37185019315698
 30
0.0
 40
3.5
 41
0.0
 71
     5
 72
     1
  1
55
 11
0.0000000000000001
 21
1.0
 31
0.0
 73
     1
 44
1.0
1001
ACAD
1000
MTEXTBEGIN
1070
    73
1070
     1
1070
    44
1040
1.0
1070
    74
1070
     0
1000
MTEXTEND
  0
POINT
  5
2854
330
2839
100
AcDbEntity
  8
Defpoints
 62
     0
100
AcDbPoint
 10
354.1811782357432
 20
122.8718501931569
 30
0.0
  0
POINT
  5
2855
330
2839
100
AcDbEntity
  8
Defpoints
 62
     0
100
AcDbPoint
 10
354.1811782357432
 20
67.87185019315692
 30
0.0
  0
POINT
  5
2856
330
2839
100
AcDbEntity
  8
Defpoints
 62
     0
100
AcDbPoint
 10
369.1811792457432
 20
67.87185019315692
 30
0.0
  0
ENDBLK
  5
283B
330
2839
100
AcDbEntity
  8
0
100
AcDbBlockEnd
  0
BLOCK
  5
28CA
330
28C9
100
AcDbEntity
  8
0
100
AcDbBlockBegin
  2
*D18
 70
     1
 10
0.0
 20
0.0
 30
0.0
  3
*D18
  1

  0
LINE
  5
28EC
330
28C9
100
AcDbEntity
  8
AM_5
 62
     3
100
AcDbLine
 10
355.1253943691006
 20
132.8689416056905
 30
0.0
 11
360.4980528706014
 21
147.7386045756644
 31
0.0
  0
LINE
  5
28ED
330
28C9
100
AcDbEntity
  8
AM_5
 62
     3
100
AcDbLine
 10
360.4980528706014
 20
147.7386045756644
 30
0.0
 11
375.443027617432
 21
147.7386045756643
 31
0.0
  0
INSERT
  5
28EE
330
28C9
100
AcDbEntity
  8
AM_5
 62
     3
100
AcDbBlockReference
  2
_Open30
 10
354.2758554671256
 20
130.5177113630236
 30
0.0
 41
2.5
 42
2.5
 43
2.5
 50
250.1343625610784
  0
MTEXT
  5
28EF
102
{ACAD_XDICTIONARY
360
34CC
102
}
330
28C9
100
AcDbEntity
  8
AM_5
 62
     2
100
AcDbMText
 10
368.7205402440169
 20
150.9886045756642
 30
0.0
 40
3.5
 41
0.0
 71
     5
 72
     1
  1
4-\U+22053.5
 73
     1
 44
1.0
1001
ACAD
1000
MTEXTBEGIN
1070
    73
1070
     1
1070
    44
1040
1.0
1070
    74
1070
     0
1000
MTEXTEND
  0
POINT
  5
28F0
330
28C9
100
AcDbEntity
  8
Defpoints
 62
     0
100
AcDbPoint
 10
354.2758554671256
 20
130.5177113630236
 30
0.0
  0
POINT
  5
28F1
330
28C9
100
AcDbEntity
  8
Defpoints
 62
     0
100
AcDbPoint
 10
353.0865010043607
 20
127.2259890232901
 30
0.0
  0
ENDBLK
  5
28CB
330
28C9
100
AcDbEntity
  8
0
100
AcDbBlockEnd
  0
BLOCK
  5
2940
330
293F
100
AcDbEntity
  8
0
100
AcDbBlockBegin
  2
*D19
 70
     1
 10
0.0
 20
0.0
 30
0.0
  3
*D19
  1

  0
LINE
  5
2963
330
293F
100
AcDbEntity
  8
AM_5
 62
     3
100
AcDbLine
 10
357.8074654101982
 20
124.0070698159076
 30
0.0
 11
372.5584867974658
 21
140.8283280786136
 31
0.0
  0
INSERT
  5
2964
330
293F
100
AcDbEntity
  8
AM_5
 62
     3
100
AcDbBlockReference
  2
_Open30
 10
356.1591530581733
 20
122.1274245328391
 30
0.0
 41
2.5
 42
2.5
 43
2.5
 50
228.7515907566339
  0
MTEXT
  5
2965
330
293F
100
AcDbEntity
  8
AM_5
 62
     2
100
AcDbMText
 10
365.9628574397479
 20
138.2363171615967
 30
0.0
 40
3.5
 41
0.0
 71
     5
 72
     1
  1
4-R3
 11
0.6593249408099967
 21
0.751858113227419
 31
0.0
 73
     1
 44
1.0
1001
ACAD
1000
MTEXTBEGIN
1070
    73
1070
     1
1070
    44
1040
1.0
1070
    74
1070
     0
1000
MTEXTEND
  0
POINT
  5
2966
330
293F
100
AcDbEntity
  8
Defpoints
 62
     0
100
AcDbPoint
 10
356.1591530581733
 20
122.1274245328391
 30
0.0
  0
POINT
  5
2967
330
293F
100
AcDbEntity
  8
Defpoints
 62
     0
100
AcDbPoint
 10
354.1811782357433
 20
119.8718501931569
 30
0.0
  0
ENDBLK
  5
2941
330
293F
100
AcDbEntity
  8
0
100
AcDbBlockEnd
  0
BLOCK
  5
2ADB
330
2AC5
100
AcDbEntity
  8
0
100
AcDbBlockBegin
  2
*D20
 70
     1
 10
0.0
 20
0.0
 30
0.0
  3
*D20
  1

  0
LINE
  5
3309
330
2AC5
100
AcDbEntity
  8
AM_5
100
AcDbLine
 10
58.95970065199719
 20
239.7948264663931
 30
0.0
 11
34.82425429453809
 21
239.7948264663931
 31
0.0
  0
LINE
  5
330A
330
2AC5
100
AcDbEntity
  8
AM_5
100
AcDbLine
 10
58.95970065199719
 20
189.7948264663931
 30
0.0
 11
34.82425429453809
 21
189.7948264663931
 31
0.0
  0
LINE
  5
330B
330
2AC5
100
AcDbEntity
  8
AM_5
100
AcDbLine
 10
35.8242542945381
 20
237.2948264663931
 30
0.0
 11
35.82425429453809
 21
192.2948264663931
 31
0.0
  0
INSERT
  5
330C
330
2AC5
100
AcDbEntity
  8
AM_5
100
AcDbBlockReference
  2
_Open30
 10
35.8242542945381
 20
239.7948264663931
 30
0.0
 41
2.5
 42
2.5
 43
2.5
 50
90.0
  0
INSERT
  5
330D
330
2AC5
100
AcDbEntity
  8
AM_5
100
AcDbBlockReference
  2
_Open30
 10
35.82425429453809
 20
189.7948264663931
 30
0.0
 41
2.5
 42
2.5
 43
2.5
 50
270.0
  0
MTEXT
  5
330E
330
2AC5
100
AcDbEntity
  8
AM_5
 62
     2
100
AcDbMText
 10
32.57425429453806
 20
214.7948264663932
 30
0.0
 40
3.5
 41
0.0
 71
     5
 72
     1
  1
50
 11
0.0000000000000001
 21
1.0
 31
0.0
 73
     1
 44
1.0
1001
ACAD
1000
MTEXTBEGIN
1070
    73
1070
     1
1070
    44
1040
1.0
1070
    74
1070
     0
1000
MTEXTEND
  0
POINT
  5
330F
330
2AC5
100
AcDbEntity
  8
Defpoints
 62
     0
100
AcDbPoint
 10
59.95970065199719
 20
239.7948264663931
 30
0.0
  0
POINT
  5
3310
330
2AC5
100
AcDbEntity
  8
Defpoints
 62
     0
100
AcDbPoint
 10
59.95970065199719
 20
189.7948264663931
 30
0.0
  0
POINT
  5
3311
330
2AC5
100
AcDbEntity
  8
Defpoints
 62
     0
100
AcDbPoint
 10
35.82425429453809
 20
189.7948264663931
 30
0.0
  0
ENDBLK
  5
2ADC
330
2AC5
100
AcDbEntity
  8
0
100
AcDbBlockEnd
  0
BLOCK
  5
334C
330
3332
100
AcDbEntity
  8
0
100
AcDbBlockBegin
  2
*D21
 70
     1
 10
0.0
 20
0.0
 30
0.0
  3
*D21
  1

  0
LINE
  5
3453
330
3332
100
AcDbEntity
  8
AM_5
100
AcDbLine
 10
55.95970065199718
 20
105.4759919228163
 30
0.0
 11
34.8242542945381
 21
105.4759919228163
 31
0.0
  0
LINE
  5
3454
330
3332
100
AcDbEntity
  8
AM_5
100
AcDbLine
 10
55.95970065199726
 20
108.4759919228163
 30
0.0
 11
34.8242542945381
 21
108.4759919228163
 31
0.0
  0
LINE
  5
3455
330
3332
100
AcDbEntity
  8
AM_5
100
AcDbLine
 10
35.8242542945381
 20
102.9759919228163
 30
0.0
 11
35.8242542945381
 21
100.4759919228163
 31
0.0
  0
LINE
  5
3456
330
3332
100
AcDbEntity
  8
AM_5
100
AcDbLine
 10
35.8242542945381
 20
110.9759919228163
 30
0.0
 11
35.82425429453811
 21
118.0209666696468
 31
0.0
  0
LINE
  5
3457
330
3332
100
AcDbEntity
  8
AM_5
100
AcDbLine
 10
35.8242542945381
 20
105.4759919228163
 30
0.0
 11
35.8242542945381
 21
108.4759919228163
 31
0.0
  0
INSERT
  5
3458
330
3332
100
AcDbEntity
  8
AM_5
100
AcDbBlockReference
  2
_Open30
 10
35.8242542945381
 20
105.4759919228163
 30
0.0
 41
2.5
 42
2.5
 43
2.5
 50
90.0
  0
INSERT
  5
3459
330
3332
100
AcDbEntity
  8
AM_5
100
AcDbBlockReference
  2
_Open30
 10
35.8242542945381
 20
108.4759919228163
 30
0.0
 41
2.5
 42
2.5
 43
2.5
 50
270.0
  0
MTEXT
  5
345A
330
3332
100
AcDbEntity
  8
AM_5
 62
     2
100
AcDbMText
 10
32.57425429453809
 20
115.7484792962316
 30
0.0
 40
3.5
 41
0.0
 71
     5
 72
     1
  1
3
 11
0.0000000000000001
 21
1.0
 31
0.0
 73
     1
 44
1.0
1001
ACAD
1000
MTEXTBEGIN
1070
    73
1070
     1
1070
    44
1040
1.0
1070
    74
1070
     0
1000
MTEXTEND
  0
POINT
  5
345B
330
3332
100
AcDbEntity
  8
Defpoints
 62
     0
100
AcDbPoint
 10
56.95970065199719
 20
105.4759919228163
 30
0.0
  0
POINT
  5
345C
330
3332
100
AcDbEntity
  8
Defpoints
 62
     0
100
AcDbPoint
 10
56.95970065199727
 20
108.4759919228163
 30
0.0
  0
POINT
  5
345D
330
3332
100
AcDbEntity
  8
Defpoints
 62
     0
100
AcDbPoint
 10
35.8242542945381
 20
108.4759919228163
 30
0.0
  0
ENDBLK
  5
334D
330
3332
100
AcDbEntity
  8
0
100
AcDbBlockEnd
  0
BLOCK
  5
337F
330
3369
100
AcDbEntity
  8
0
100
AcDbBlockBegin
  2
*D22
 70
     1
 10
0.0
 20
0.0
 30
0.0
  3
*D22
  1

  0
LINE
  5
345E
330
3369
100
AcDbEntity
  8
AM_5
100
AcDbLine
 10
52.20970065199721
 20
101.3759919228163
 30
0.0
 11
22.7758381823143
 21
101.3759919228163
 31
0.0
  0
LINE
  5
345F
330
3369
100
AcDbEntity
  8
AM_5
100
AcDbLine
 10
52.20970065199721
 20
112.5759919228162
 30
0.0
 11
22.7758381823143
 21
112.5759919228162
 31
0.0
  0
LINE
  5
3460
330
3369
100
AcDbEntity
  8
AM_5
100
AcDbLine
 10
23.7758381823143
 20
103.8759919228163
 30
0.0
 11
23.77583818231431
 21
110.0759919228162
 31
0.0
  0
INSERT
  5
3461
330
3369
100
AcDbEntity
  8
AM_5
100
AcDbBlockReference
  2
_Open30
 10
23.7758381823143
 20
101.3759919228163
 30
0.0
 41
2.5
 42
2.5
 43
2.5
 50
270.0
  0
INSERT
  5
3462
330
3369
100
AcDbEntity
  8
AM_5
100
AcDbBlockReference
  2
_Open30
 10
23.77583818231431
 20
112.5759919228162
 30
0.0
 41
2.5
 42
2.5
 43
2.5
 50
90.0
  0
MTEXT
  5
3463
330
3369
100
AcDbEntity
  8
AM_5
 62
     2
100
AcDbMText
 10
20.52549369412531
 20
106.9759919228163
 30
0.0
 40
3.5
 41
0.0
 71
     5
 72
     1
  1
11.2
 11
0.0000000000000001
 21
1.0
 31
0.0
 73
     1
 44
1.0
1001
ACAD
1000
MTEXTBEGIN
1070
    73
1070
     1
1070
    44
1040
1.0
1070
    74
1070
     0
1000
MTEXTEND
  0
POINT
  5
3464
330
3369
100
AcDbEntity
  8
Defpoints
 62
     0
100
AcDbPoint
 10
53.20970065199721
 20
101.3759919228163
 30
0.0
  0
POINT
  5
3465
330
3369
100
AcDbEntity
  8
Defpoints
 62
     0
100
AcDbPoint
 10
53.20970065199721
 20
112.5759919228162
 30
0.0
  0
POINT
  5
3466
330
3369
100
AcDbEntity
  8
Defpoints
 62
     0
100
AcDbPoint
 10
23.77583818231431
 20
112.5759919228162
 30
0.0
  0
ENDBLK
  5
3380
330
3369
100
AcDbEntity
  8
0
100
AcDbBlockEnd
  0
BLOCK
  5
33B4
330
339A
100
AcDbEntity
  8
0
100
AcDbBlockBegin
  2
*D23
 70
     1
 10
0.0
 20
0.0
 30
0.0
  3
*D23
  1

  0
LINE
  5
3467
330
339A
100
AcDbEntity
  8
AM_5
100
AcDbLine
 10
60.45970065199723
 20
108.4759919228163
 30
0.0
 11
60.45970065199723
 21
127.3492036758667
 31
0.0
  0
LINE
  5
3468
330
339A
100
AcDbEntity
  8
AM_5
100
AcDbLine
 10
55.95970065199724
 20
108.4759919228163
 30
0.0
 11
55.95970065199724
 21
127.3492036758667
 31
0.0
  0
LINE
  5
3469
330
339A
100
AcDbEntity
  8
AM_5
100
AcDbLine
 10
62.95970065199723
 20
126.3492036758667
 30
0.0
 11
65.45970065199722
 21
126.3492036758667
 31
0.0
  0
LINE
  5
346A
330
339A
100
AcDbEntity
  8
AM_5
100
AcDbLine
 10
53.45970065199724
 20
126.3492036758667
 30
0.0
 11
50.95970065199724
 21
126.3492036758667
 31
0.0
  0
LINE
  5
346B
330
339A
100
AcDbEntity
  8
AM_5
100
AcDbLine
 10
60.45970065199723
 20
126.3492036758667
 30
0.0
 11
55.95970065199724
 21
126.3492036758667
 31
0.0
  0
INSERT
  5
346C
330
339A
100
AcDbEntity
  8
AM_5
100
AcDbBlockReference
  2
_Open30
 10
60.45970065199723
 20
126.3492036758667
 30
0.0
 41
2.5
 42
2.5
 43
2.5
 50
180.0
  0
INSERT
  5
346D
330
339A
100
AcDbEntity
  8
AM_5
100
AcDbBlockReference
  2
_Open30
 10
55.95970065199724
 20
126.3492036758667
 30
0.0
 41
2.5
 42
2.5
 43
2.5
  0
MTEXT
  5
346E
330
339A
100
AcDbEntity
  8
AM_5
 62
     2
100
AcDbMText
 10
58.20970065199723
 20
129.5992036758667
 30
0.0
 40
3.5
 41
0.0
 71
     5
 72
     1
  1
4.5
 73
     1
 44
1.0
1001
ACAD
1000
MTEXTBEGIN
1070
    73
1070
     1
1070
    44
1040
1.0
1070
    74
1070
     0
1000
MTEXTEND
  0
POINT
  5
346F
330
339A
100
AcDbEntity
  8
Defpoints
 62
     0
100
AcDbPoint
 10
60.45970065199723
 20
107.4759919228163
 30
0.0
  0
POINT
  5
3470
330
339A
100
AcDbEntity
  8
Defpoints
 62
     0
100
AcDbPoint
 10
55.95970065199724
 20
107.4759919228163
 30
0.0
  0
POINT
  5
3471
330
339A
100
AcDbEntity
  8
Defpoints
 62
     0
100
AcDbPoint
 10
55.95970065199724
 20
126.3492036758667
 30
0.0
  0
ENDBLK
  5
33B5
330
339A
100
AcDbEntity
  8
0
100
AcDbBlockEnd
  0
BLOCK
  5
33E7
330
33D1
100
AcDbEntity
  8
0
100
AcDbBlockBegin
  2
*D24
 70
     1
 10
0.0
 20
0.0
 30
0.0
  3
*D24
  1

  0
LINE
  5
3472
330
33D1
100
AcDbEntity
  8
AM_5
100
AcDbLine
 10
50.20970065199721
 20
110.5759919228162
 30
0.0
 11
50.20970065199721
 21
135.7412076195404
 31
0.0
  0
LINE
  5
3473
330
33D1
100
AcDbEntity
  8
AM_5
100
AcDbLine
 10
180.2097006519972
 20
110.5759919228162
 30
0.0
 11
180.2097006519972
 21
135.7412076195404
 31
0.0
  0
LINE
  5
3474
330
33D1
100
AcDbEntity
  8
AM_5
100
AcDbLine
 10
52.70970065199721
 20
134.7412076195404
 30
0.0
 11
177.7097006519972
 21
134.7412076195404
 31
0.0
  0
INSERT
  5
3475
330
33D1
100
AcDbEntity
  8
AM_5
100
AcDbBlockReference
  2
_Open30
 10
50.20970065199721
 20
134.7412076195404
 30
0.0
 41
2.5
 42
2.5
 43
2.5
 50
180.0
  0
INSERT
  5
3476
330
33D1
100
AcDbEntity
  8
AM_5
100
AcDbBlockReference
  2
_Open30
 10
180.2097006519972
 20
134.7412076195404
 30
0.0
 41
2.5
 42
2.5
 43
2.5
  0
MTEXT
  5
3477
330
33D1
100
AcDbEntity
  8
AM_5
 62
     2
100
AcDbMText
 10
115.2097006519972
 20
137.9912076195404
 30
0.0
 40
3.5
 41
0.0
 71
     5
 72
     1
  1
130
 73
     1
 44
1.0
1001
ACAD
1000
MTEXTBEGIN
1070
    73
1070
     1
1070
    44
1040
1.0
1070
    74
1070
     0
1000
MTEXTEND
  0
POINT
  5
3478
330
33D1
100
AcDbEntity
  8
Defpoints
 62
     0
100
AcDbPoint
 10
50.20970065199721
 20
109.5759919228162
 30
0.0
  0
POINT
  5
3479
330
33D1
100
AcDbEntity
  8
Defpoints
 62
     0
100
AcDbPoint
 10
180.2097006519972
 20
109.5759919228162
 30
0.0
  0
POINT
  5
347A
330
33D1
100
AcDbEntity
  8
Defpoints
 62
     0
100
AcDbPoint
 10
180.2097006519972
 20
134.7412076195404
 30
0.0
  0
ENDBLK
  5
33E8
330
33D1
100
AcDbEntity
  8
0
100
AcDbBlockEnd
  0
BLOCK
  5
340F
330
33F9
100
AcDbEntity
  8
0
100
AcDbBlockBegin
  2
*D25
 70
     1
 10
0.0
 20
0.0
 30
0.0
  3
*D25
  1

  0
LINE
  5
347B
330
33F9
100
AcDbEntity
  8
AM_5
100
AcDbLine
 10
58.20970065199722
 20
104.4759919228162
 30
0.0
 11
58.20970065199722
 21
88.37599092281619
 31
0.0
  0
LINE
  5
347C
330
33F9
100
AcDbEntity
  8
AM_5
100
AcDbLine
 10
172.2097006519972
 20
104.4759919228162
 30
0.0
 11
172.2097006519972
 21
88.37599092281619
 31
0.0
  0
LINE
  5
347D
330
33F9
100
AcDbEntity
  8
AM_5
100
AcDbLine
 10
60.70970065199722
 20
89.37599092281621
 30
0.0
 11
169.7097006519972
 21
89.37599092281621
 31
0.0
  0
INSERT
  5
347E
330
33F9
100
AcDbEntity
  8
AM_5
100
AcDbBlockReference
  2
_Open30
 10
58.20970065199722
 20
89.37599092281621
 30
0.0
 41
2.5
 42
2.5
 43
2.5
 50
180.0
  0
INSERT
  5
347F
330
33F9
100
AcDbEntity
  8
AM_5
100
AcDbBlockReference
  2
_Open30
 10
172.2097006519972
 20
89.37599092281621
 30
0.0
 41
2.5
 42
2.5
 43
2.5
  0
MTEXT
  5
3480
330
33F9
100
AcDbEntity
  8
AM_5
 62
     2
100
AcDbMText
 10
115.2097006519972
 20
92.6259909228162
 30
0.0
 40
3.5
 41
0.0
 71
     5
 72
     1
  1
114
 73
     1
 44
1.0
1001
ACAD
1000
MTEXTBEGIN
1070
    73
1070
     1
1070
    44
1040
1.0
1070
    74
1070
     0
1000
MTEXTEND
  0
POINT
  5
3481
330
33F9
100
AcDbEntity
  8
Defpoints
 62
     0
100
AcDbPoint
 10
58.20970065199722
 20
105.4759919228162
 30
0.0
  0
POINT
  5
3482
330
33F9
100
AcDbEntity
  8
Defpoints
 62
     0
100
AcDbPoint
 10
172.2097006519972
 20
105.4759919228162
 30
0.0
  0
POINT
  5
3483
330
33F9
100
AcDbEntity
  8
Defpoints
 62
     0
100
AcDbPoint
 10
172.2097006519972
 20
89.37599092281621
 30
0.0
  0
ENDBLK
  5
3410
330
33F9
100
AcDbEntity
  8
0
100
AcDbBlockEnd
  0
BLOCK
  5
3445
330
342B
100
AcDbEntity
  8
0
100
AcDbBlockBegin
  2
*D26
 70
     1
 10
0.0
 20
0.0
 30
0.0
  3
*D26
  1

  0
LINE
  5
3484
330
342B
100
AcDbEntity
  8
AM_5
100
AcDbLine
 10
197.9387288867503
 20
112.2547237153973
 30
0.0
 11
197.9387288867503
 21
135.7412076195404
 31
0.0
  0
LINE
  5
3485
330
342B
100
AcDbEntity
  8
AM_5
100
AcDbLine
 10
202.2387288867504
 20
113.5759919228163
 30
0.0
 11
202.2387288867504
 21
135.7412076195404
 31
0.0
  0
LINE
  5
3486
330
342B
100
AcDbEntity
  8
AM_5
100
AcDbLine
 10
195.4387288867503
 20
134.7412076195404
 30
0.0
 11
192.9387288867503
 21
134.7412076195404
 31
0.0
  0
LINE
  5
3487
330
342B
100
AcDbEntity
  8
AM_5
100
AcDbLine
 10
204.7387288867504
 20
134.7412076195404
 30
0.0
 11
215.633703633581
 21
134.7412076195404
 31
0.0
  0
LINE
  5
3488
330
342B
100
AcDbEntity
  8
AM_5
100
AcDbLine
 10
197.9387288867503
 20
134.7412076195404
 30
0.0
 11
202.2387288867504
 21
134.7412076195404
 31
0.0
  0
INSERT
  5
3489
330
342B
100
AcDbEntity
  8
AM_5
100
AcDbBlockReference
  2
_Open30
 10
197.9387288867503
 20
134.7412076195404
 30
0.0
 41
2.5
 42
2.5
 43
2.5
  0
INSERT
  5
348A
330
342B
100
AcDbEntity
  8
AM_5
100
AcDbBlockReference
  2
_Open30
 10
202.2387288867504
 20
134.7412076195404
 30
0.0
 41
2.5
 42
2.5
 43
2.5
 50
180.0
  0
MTEXT
  5
348B
330
342B
100
AcDbEntity
  8
AM_5
 62
     2
100
AcDbMText
 10
211.4362162601657
 20
137.9912076195404
 30
0.0
 40
3.5
 41
0.0
 71
     5
 72
     1
  1
4.3
 73
     1
 44
1.0
1001
ACAD
1000
MTEXTBEGIN
1070
    73
1070
     1
1070
    44
1040
1.0
1070
    74
1070
     0
1000
MTEXTEND
  0
POINT
  5
348C
330
342B
100
AcDbEntity
  8
Defpoints
 62
     0
100
AcDbPoint
 10
197.9387288867503
 20
111.2547237153973
 30
0.0
  0
POINT
  5
348D
330
342B
100
AcDbEntity
  8
Defpoints
 62
     0
100
AcDbPoint
 10
202.2387288867504
 20
112.5759919228163
 30
0.0
  0
POINT
  5
348E
330
342B
100
AcDbEntity
  8
Defpoints
 62
     0
100
AcDbPoint
 10
202.2387288867504
 20
134.7412076195404
 30
0.0
  0
ENDBLK
  5
3446
330
342B
100
AcDbEntity
  8
0
100
AcDbBlockEnd
  0
ENDSEC
  0
SECTION
  2
ENTITIES
  0
INSERT
  5
C44
330
1F
100
AcDbEntity
  8
0
370
     0
100
AcDbBlockReference
  2
TK-A3
 10
0.0
 20
0.0
 30
0.0
1001
GENIUS_GENOREF_13
1005
C51
1001
GENIUS_GENOBJ-N-SDF_13
1002
{
1000
OWNER
1000
GEN
1002
}
1001
GENIUS_GENODEF_13
1002
{
1000
HIER
1070
     0
1002
}
1002
{
1000
MANEDIT
1070
     0
1002
}
1002
{
1000
NOSEL
1070
     0
1002
}
1002
{
1000
BEHIND
1070
     0
1002
}
1002
{
1000
OTHER
1070
     0
1002
}
1002
{
1000
REACTOR
1002
}
1001
GENIUS_GENSCREG_15
1040
1.0
1040
1.0
1011
0.0
1021
0.0
1031
0.0
1011
403.0
1021
280.0000000000001
1031
0.0
1070
     3
  0
INSERT
  5
C46
330
1F
100
AcDbEntity
  8
0
370
     0
100
AcDbBlockReference
 66
     1
  2
TK-TITLE
 10
403.0
 20
0.0
 30
0.0
1001
GENIUS_GENOREF_13
1005
C51
  0
ATTRIB
  5
C48
330
C46
100
AcDbEntity
  8
0
100
AcDbText
 10
212.8535218548699
 20
3.588342537610664
 30
0.0
 40
3.0
  1
2009/11/05
 72
     1
 11
222.7828048337861
 21
3.588342537610664
 31
0.0
100
AcDbAttribute
  2
GEN-TITLE-DAT
 70
     0
 74
     1
  0
ATTRIB
  5
C49
330
C46
100
AcDbEntity
  8
0
100
AcDbText
 10
221.7252603855759
 20
28.29999999999998
 30
0.0
 40
3.0
  1
1:1
 72
     2
 11
225.1752603855759
 21
28.29999999999998
 31
0.0
100
AcDbAttribute
  2
GEN-TITLE-SCA
 70
     0
 74
     1
  0
ATTRIB
  5
C4A
330
C46
100
AcDbEntity
  8
0
100
AcDbText
 10
227.3872590873905
 20
15.79999999999994
 30
0.0
 40
3.0
  1

 72
     2
 11
227.3872590873905
 21
15.79999999999994
 31
0.0
100
AcDbAttribute
  2
GEN-TITLE-QTY
 70
     0
 74
     1
  0
ATTRIB
  5
C4B
330
C46
100
AcDbEntity
  8
0
100
AcDbText
 10
254.0381324164708
 20
33.29999999999991
 30
0.0
 40
3.0
  1
透明
100
AcDbAttribute
  2
GEN-TITLE-MAT2
 70
     0
  0
ATTRIB
  5
C4C
330
C46
100
AcDbEntity
  8
0
100
AcDbText
 10
254.0381324164708
 20
43.29999999999991
 30
0.0
 40
3.0
  1
ポリカーボネート
100
AcDbAttribute
  2
GEN-TITLE-MAT1
 70
     0
  0
ATTRIB
  5
C4D
330
C46
100
AcDbEntity
  8
0
100
AcDbText
 10
319.0
 20
1.999999999999957
 30
0.0
 40
3.0
  1

100
AcDbAttribute
  2
GEN-TITLE-NR1
 70
     0
  0
ATTRIB
  5
C4E
330
C46
100
AcDbEntity
  8
0
100
AcDbText
 10
319.0
 20
9.149999999999948
 30
0.0
 40
2.5
  1
VMA型ポリカーボネート開閉式ウィンドウ
100
AcDbAttribute
  2
GEN-TITLE-DES2
 70
     0
  0
ATTRIB
  5
C4F
330
C46
100
AcDbEntity
  8
0
100
AcDbText
 10
318.8574809841467
 20
12.82790432564377
 30
0.0
 40
3.5
  1
VMA-6
100
AcDbAttribute
  2
GEN-TITLE-DES1
 70
     0
  0
ATTRIB
  5
C50
330
C46
100
AcDbEntity
  8
0
100
AcDbText
 10
394.9976908104542
 20
1.705189434395036
 30
0.0
 40
2.5
  1

100
AcDbAttribute
  2
GEN-TITLE-NR2
 70
     0
  0
SEQEND
  5
C47
330
C46
100
AcDbEntity
  8
0
370
     0
  0
POINT
  5
C51
330
1F
100
AcDbEntity
  8
0
 60
     1
100
AcDbPoint
 10
0.0
 20
0.0
 30
0.0
1001
GENIUS_GENODEF_13
1002
{
1000
HIER
1070
     1
1002
}
1002
{
1000
MANEDIT
1070
     0
1002
}
1002
{
1000
NOSEL
1070
     0
1002
}
1002
{
1000
BEHIND
1070
     0
1002
}
1002
{
1000
OTHER
1070
     0
1002
}
1002
{
1000
REACTOR
1002
}
1001
GENIUS_GENOBJ-N-TIT_13
1002
{
1000
OWNER
1000
GEN
1002
}
1001
GENIUS_GENOENT_13
1002
{
1000
MYREF
1005
C51
1002
}
1002
{
1000
GRP
1005
0
1002
}
1001
GENIUS_GENOLIS_13
1002
{
1000
ENT
1005
C46
1005
C44
1002
}
1001
GENIUS_GENTITLE_13
1002
{
1000
BORDER
1000
TK-A3
1002
}
1002
{
1000
TITLE
1000
TK-TITLE
1002
}
1002
{
1000
ADDITIONAL1
1000

1002
}
1002
{
1000
ADDITIONAL2
1000

1002
}
1002
{
1000
SCALE
1000
1:1
1002
}
1002
{
1000
TITLESTD
1000
ISO
1002
}
1002
{
1000
HRA
1005
C44
1002
}
1002
{
1000
HTIT
1005
C46
1002
}
1002
{
1000
GENIUSID
1005
C51
1002
}
1002
{
1000
INVTXTID
1005
0
1002
}
1002
{
1000
UNCHG
1002
{
1000
GEN-TITLE-SIZ
1000
GEN-TITLE-SCA
1002
}
1002
}
  0
LINE
  5
14A5
330
1F
100
AcDbEntity
  8
AM_7
100
AcDbLine
 10
115.2097006519972
 20
255.2948264663931
 30
0.0
 11
115.2097006519972
 21
172.7948264663931
 31
0.0
1001
GENIUS_GENODEF_13
1002
{
1000
HIER
1070
     0
1002
}
1002
{
1000
MANEDIT
1070
     0
1002
}
1002
{
1000
NOSEL
1070
     0
1002
}
1002
{
1000
BEHIND
1070
     0
1002
}
1002
{
1000
OTHER
1070
     0
1002
}
1002
{
1000
REACTOR
1002
}
1001
GENIUS_GENOBJ-N-CEN_13
1002
{
1000
OWNER
1000
GEN
1002
}
1001
GENIUS_GENCEN_19
1002
{
1040
3.0
1002
}
  0
LINE
  5
14E8
330
1F
100
AcDbEntity
  8
上側
100
AcDbLine
 10
174.7097006519972
 20
250.7948264663932
 30
0.0
 11
165.7097006519972
 21
250.7948264663932
 31
0.0
  0
LINE
  5
154D
330
1F
100
AcDbEntity
  8
上側
100
AcDbLine
 10
139.2097006519972
 20
175.7948264663931
 30
0.0
 11
140.4597006519972
 21
174.2948264663932
 31
0.0
  0
LINE
  5
154E
330
1F
100
AcDbEntity
  8
上側
100
AcDbLine
 10
140.4597006519972
 20
174.2948264663932
 30
0.0
 11
161.4597006519972
 21
174.2948264663932
 31
0.0
  0
LINE
  5
154F
330
1F
100
AcDbEntity
  8
上側
100
AcDbLine
 10
161.4597006519972
 20
174.2948264663932
 30
0.0
 11
162.7097006519972
 21
175.7948264663931
 31
0.0
  0
LINE
  5
1552
330
1F
100
AcDbEntity
  8
下側
100
AcDbLine
 10
175.7097006519972
 20
251.2948264663931
 30
0.0
 11
175.7097006519972
 21
246.7948264663931
 31
0.0
  0
LINE
  5
161D
330
1F
100
AcDbEntity
  8
上側
100
AcDbLine
 10
180.2097006519972
 20
245.5948264663931
 30
0.0
 11
174.7097006519972
 21
245.5948264663931
 31
0.0
  0
LINE
  5
1683
330
1F
100
AcDbEntity
  8
下側
100
AcDbLine
 10
176.7097006519972
 20
245.7948264663932
 30
0.0
 11
179.2097006519972
 21
245.7948264663932
 31
0.0
  0
LINE
  5
1685
330
1F
100
AcDbEntity
  8
上側
100
AcDbLine
 10
162.7097006519972
 20
175.7948264663931
 30
0.0
 11
170.2097006519972
 21
175.7948264663931
 31
0.0
1001
GENIUS_GENREC_14
1002
{
1000
PYDIR
1011
50.20970065199719
1021
252.2948264663932
1031
0.0
1002
}
1002
{
1000
PXDIR
1011
180.2097006519972
1021
175.7948264663931
1031
0.0
1002
}
1002
{
1000
PORI
1011
50.20970065199719
1021
175.7948264663931
1031
0.0
1002
}
1002
{
1000
PINS
1011
115.2097006519972
1021
214.0448264663931
1031
0.0
1002
}
1002
{
1000
HVAL
1000
76.5
1002
}
1002
{
1000
H
1070
     2
1002
}
1002
{
1000
WVAL
1000
130
1002
}
1002
{
1000
W
1070
     2
1002
}
1002
{
1000
C
1070
     4
1002
}
1001
GENIUS_GENODEF_13
1002
{
1000
HIER
1070
     0
1002
}
1002
{
1000
MANEDIT
1070
     0
1002
}
1002
{
1000
NOSEL
1070
     0
1002
}
1002
{
1000
BEHIND
1070
     0
1002
}
1002
{
1000
OTHER
1070
     0
1002
}
1002
{
1000
REACTOR
1002
}
1001
GENIUS_GENOBJ-N-REC_13
1002
{
1000
OWNER
1000
GEN
1002
}
  0
ARC
  5
1686
330
1F
100
AcDbEntity
  8
上側
100
AcDbCircle
 10
170.2097006519972
 20
185.7948264663932
 30
0.0
 40
10.0
100
AcDbArc
 50
270.0
 51
0.0
1001
GENIUS_GENREC_14
1002
{
1000
PYDIR
1011
50.20970065199719
1021
252.2948264663932
1031
0.0
1002
}
1002
{
1000
PXDIR
1011
180.2097006519972
1021
175.7948264663931
1031
0.0
1002
}
1002
{
1000
PORI
1011
50.20970065199719
1021
175.7948264663931
1031
0.0
1002
}
1002
{
1000
PINS
1011
115.2097006519972
1021
214.0448264663931
1031
0.0
1002
}
1002
{
1000
HVAL
1000
76.5
1002
}
1002
{
1000
H
1070
     2
1002
}
1002
{
1000
WVAL
1000
130
1002
}
1002
{
1000
W
1070
     2
1002
}
1002
{
1000
C
1070
     4
1002
}
1001
GENIUS_GENODEF_13
1002
{
1000
HIER
1070
     0
1002
}
1002
{
1000
MANEDIT
1070
     0
1002
}
1002
{
1000
NOSEL
1070
     0
1002
}
1002
{
1000
BEHIND
1070
     0
1002
}
1002
{
1000
OTHER
1070
     0
1002
}
1002
{
1000
REACTOR
1002
}
1001
GENIUS_GENOBJ-N-REC_13
1002
{
1000
OWNER
1000
GEN
1002
}
  0
LINE
  5
1687
330
1F
100
AcDbEntity
  8
上側
100
AcDbLine
 10
180.2097006519972
 20
185.7948264663932
 30
0.0
 11
180.2097006519972
 21
246.7948264663931
 31
0.0
1001
GENIUS_GENREC_14
1002
{
1000
PYDIR
1011
50.20970065199719
1021
252.2948264663932
1031
0.0
1002
}
1002
{
1000
PXDIR
1011
180.2097006519972
1021
175.7948264663931
1031
0.0
1002
}
1002
{
1000
PORI
1011
50.20970065199719
1021
175.7948264663931
1031
0.0
1002
}
1002
{
1000
PINS
1011
115.2097006519972
1021
214.0448264663931
1031
0.0
1002
}
1002
{
1000
HVAL
1000
76.5
1002
}
1002
{
1000
H
1070
     2
1002
}
1002
{
1000
WVAL
1000
130
1002
}
1002
{
1000
W
1070
     2
1002
}
1002
{
1000
C
1070
     4
1002
}
1001
GENIUS_GENODEF_13
1002
{
1000
HIER
1070
     0
1002
}
1002
{
1000
MANEDIT
1070
     0
1002
}
1002
{
1000
NOSEL
1070
     0
1002
}
1002
{
1000
BEHIND
1070
     0
1002
}
1002
{
1000
OTHER
1070
     0
1002
}
1002
{
1000
REACTOR
1002
}
1001
GENIUS_GENOBJ-N-REC_13
1002
{
1000
OWNER
1000
GEN
1002
}
  0
ARC
  5
1688
330
1F
100
AcDbEntity
  8
下側
100
AcDbCircle
 10
179.2097006519972
 20
251.2948264663931
 30
0.0
 40
1.0
100
AcDbArc
 50
0.0
 51
90.0
1001
GENIUS_GENREC_14
1002
{
1000
PYDIR
1011
50.20970065199719
1021
252.2948264663932
1031
0.0
1002
}
1002
{
1000
PXDIR
1011
180.2097006519972
1021
175.7948264663931
1031
0.0
1002
}
1002
{
1000
PORI
1011
50.20970065199719
1021
175.7948264663931
1031
0.0
1002
}
1002
{
1000
PINS
1011
115.2097006519972
1021
214.0448264663931
1031
0.0
1002
}
1002
{
1000
HVAL
1000
76.5
1002
}
1002
{
1000
H
1070
     2
1002
}
1002
{
1000
WVAL
1000
130
1002
}
1002
{
1000
W
1070
     2
1002
}
1002
{
1000
C
1070
     4
1002
}
1001
GENIUS_GENODEF_13
1002
{
1000
HIER
1070
     0
1002
}
1002
{
1000
MANEDIT
1070
     0
1002
}
1002
{
1000
NOSEL
1070
     0
1002
}
1002
{
1000
BEHIND
1070
     0
1002
}
1002
{
1000
OTHER
1070
     0
1002
}
1002
{
1000
REACTOR
1002
}
1001
GENIUS_GENOBJ-N-REC_13
1002
{
1000
OWNER
1000
GEN
1002
}
  0
LINE
  5
1689
330
1F
100
AcDbEntity
  8
下側
100
AcDbLine
 10
179.2097006519972
 20
252.2948264663932
 30
0.0
 11
51.2097006519972
 21
252.2948264663932
 31
0.0
1001
GENIUS_GENREC_14
1002
{
1000
PYDIR
1011
50.20970065199719
1021
252.2948264663932
1031
0.0
1002
}
1002
{
1000
PXDIR
1011
180.2097006519972
1021
175.7948264663931
1031
0.0
1002
}
1002
{
1000
PORI
1011
50.20970065199719
1021
175.7948264663931
1031
0.0
1002
}
1002
{
1000
PINS
1011
115.2097006519972
1021
214.0448264663931
1031
0.0
1002
}
1002
{
1000
HVAL
1000
76.5
1002
}
1002
{
1000
H
1070
     2
1002
}
1002
{
1000
WVAL
1000
130
1002
}
1002
{
1000
W
1070
     2
1002
}
1002
{
1000
C
1070
     4
1002
}
1001
GENIUS_GENODEF_13
1002
{
1000
HIER
1070
     0
1002
}
1002
{
1000
MANEDIT
1070
     0
1002
}
1002
{
1000
NOSEL
1070
     0
1002
}
1002
{
1000
BEHIND
1070
     0
1002
}
1002
{
1000
OTHER
1070
     0
1002
}
1002
{
1000
REACTOR
1002
}
1001
GENIUS_GENOBJ-N-REC_13
1002
{
1000
OWNER
1000
GEN
1002
}
  0
ARC
  5
168A
330
1F
100
AcDbEntity
  8
下側
100
AcDbCircle
 10
51.2097006519972
 20
251.2948264663932
 30
0.0
 40
1.0
100
AcDbArc
 50
90.0
 51
180.0
1001
GENIUS_GENREC_14
1002
{
1000
PYDIR
1011
50.20970065199719
1021
252.2948264663932
1031
0.0
1002
}
1002
{
1000
PXDIR
1011
180.2097006519972
1021
175.7948264663931
1031
0.0
1002
}
1002
{
1000
PORI
1011
50.20970065199719
1021
175.7948264663931
1031
0.0
1002
}
1002
{
1000
PINS
1011
115.2097006519972
1021
214.0448264663931
1031
0.0
1002
}
1002
{
1000
HVAL
1000
76.5
1002
}
1002
{
1000
H
1070
     2
1002
}
1002
{
1000
WVAL
1000
130
1002
}
1002
{
1000
W
1070
     2
1002
}
1002
{
1000
C
1070
     4
1002
}
1001
GENIUS_GENODEF_13
1002
{
1000
HIER
1070
     0
1002
}
1002
{
1000
MANEDIT
1070
     0
1002
}
1002
{
1000
NOSEL
1070
     0
1002
}
1002
{
1000
BEHIND
1070
     0
1002
}
1002
{
1000
OTHER
1070
     0
1002
}
1002
{
1000
REACTOR
1002
}
1001
GENIUS_GENOBJ-N-REC_13
1002
{
1000
OWNER
1000
GEN
1002
}
  0
LINE
  5
168B
330
1F
100
AcDbEntity
  8
下側
100
AcDbLine
 10
50.20970065199719
 20
251.2948264663932
 30
0.0
 11
50.20970065199718
 21
185.7948264663931
 31
0.0
1001
GENIUS_GENREC_14
1002
{
1000
PYDIR
1011
50.20970065199719
1021
252.2948264663932
1031
0.0
1002
}
1002
{
1000
PXDIR
1011
180.2097006519972
1021
175.7948264663931
1031
0.0
1002
}
1002
{
1000
PORI
1011
50.20970065199719
1021
175.7948264663931
1031
0.0
1002
}
1002
{
1000
PINS
1011
115.2097006519972
1021
214.0448264663931
1031
0.0
1002
}
1002
{
1000
HVAL
1000
76.5
1002
}
1002
{
1000
H
1070
     2
1002
}
1002
{
1000
WVAL
1000
130
1002
}
1002
{
1000
W
1070
     2
1002
}
1002
{
1000
C
1070
     4
1002
}
1001
GENIUS_GENODEF_13
1002
{
1000
HIER
1070
     0
1002
}
1002
{
1000
MANEDIT
1070
     0
1002
}
1002
{
1000
NOSEL
1070
     0
1002
}
1002
{
1000
BEHIND
1070
     0
1002
}
1002
{
1000
OTHER
1070
     0
1002
}
1002
{
1000
REACTOR
1002
}
1001
GENIUS_GENOBJ-N-REC_13
1002
{
1000
OWNER
1000
GEN
1002
}
  0
ARC
  5
168C
330
1F
100
AcDbEntity
  8
下側
100
AcDbCircle
 10
60.20970065199718
 20
185.7948264663931
 30
0.0
 40
10.0
100
AcDbArc
 50
180.0
 51
270.0
1001
GENIUS_GENREC_14
1002
{
1000
PYDIR
1011
50.20970065199719
1021
252.2948264663932
1031
0.0
1002
}
1002
{
1000
PXDIR
1011
180.2097006519972
1021
175.7948264663931
1031
0.0
1002
}
1002
{
1000
PORI
1011
50.20970065199719
1021
175.7948264663931
1031
0.0
1002
}
1002
{
1000
PINS
1011
115.2097006519972
1021
214.0448264663931
1031
0.0
1002
}
1002
{
1000
HVAL
1000
76.5
1002
}
1002
{
1000
H
1070
     2
1002
}
1002
{
1000
WVAL
1000
130
1002
}
1002
{
1000
W
1070
     2
1002
}
1002
{
1000
C
1070
     4
1002
}
1001
GENIUS_GENODEF_13
1002
{
1000
HIER
1070
     0
1002
}
1002
{
1000
MANEDIT
1070
     0
1002
}
1002
{
1000
NOSEL
1070
     0
1002
}
1002
{
1000
BEHIND
1070
     0
1002
}
1002
{
1000
OTHER
1070
     0
1002
}
1002
{
1000
REACTOR
1002
}
1001
GENIUS_GENOBJ-N-REC_13
1002
{
1000
OWNER
1000
GEN
1002
}
  0
LINE
  5
168D
330
1F
100
AcDbEntity
  8
下側
100
AcDbLine
 10
60.20970065199718
 20
175.7948264663931
 30
0.0
 11
115.2097006519972
 21
175.7948264663931
 31
0.0
1001
GENIUS_GENREC_14
1002
{
1000
PYDIR
1011
50.20970065199719
1021
252.2948264663932
1031
0.0
1002
}
1002
{
1000
PXDIR
1011
180.2097006519972
1021
175.7948264663931
1031
0.0
1002
}
1002
{
1000
PORI
1011
50.20970065199719
1021
175.7948264663931
1031
0.0
1002
}
1002
{
1000
PINS
1011
115.2097006519972
1021
214.0448264663931
1031
0.0
1002
}
1002
{
1000
HVAL
1000
76.5
1002
}
1002
{
1000
H
1070
     2
1002
}
1002
{
1000
WVAL
1000
130
1002
}
1002
{
1000
W
1070
     2
1002
}
1002
{
1000
C
1070
     4
1002
}
1001
GENIUS_GENODEF_13
1002
{
1000
HIER
1070
     0
1002
}
1002
{
1000
MANEDIT
1070
     0
1002
}
1002
{
1000
NOSEL
1070
     0
1002
}
1002
{
1000
BEHIND
1070
     0
1002
}
1002
{
1000
OTHER
1070
     0
1002
}
1002
{
1000
REACTOR
1002
}
1001
GENIUS_GENOBJ-N-REC_13
1002
{
1000
OWNER
1000
GEN
1002
}
  0
ARC
  5
168E
330
1F
100
AcDbEntity
  8
下側
100
AcDbCircle
 10
176.7097006519972
 20
251.2948264663932
 30
0.0
 40
1.0
100
AcDbArc
 50
90.00000000000161
 51
180.0000000000032
1001
GENIUS_GENODEF_13
1002
{
1000
HIER
1070
     0
1002
}
1002
{
1000
MANEDIT
1070
     0
1002
}
1002
{
1000
NOSEL
1070
     0
1002
}
1002
{
1000
BEHIND
1070
     0
1002
}
1002
{
1000
OTHER
1070
     0
1002
}
1002
{
1000
REACTOR
1002
}
1001
GENIUS_GENOBJ-N-FIL_13
1002
{
1000
OWNER
1000
GEN
1002
}
  0
ARC
  5
168F
330
1F
100
AcDbEntity
  8
下側
100
AcDbCircle
 10
176.7097006519971
 20
246.7948264663931
 30
0.0
 40
1.0
100
AcDbArc
 50
180.0
 51
270.0000000000017
1001
GENIUS_GENOBJ-N-FIL_13
1002
{
1000
OWNER
1000
GEN
1002
}
1001
GENIUS_GENODEF_13
1002
{
1000
HIER
1070
     0
1002
}
1002
{
1000
MANEDIT
1070
     0
1002
}
1002
{
1000
NOSEL
1070
     0
1002
}
1002
{
1000
BEHIND
1070
     0
1002
}
1002
{
1000
OTHER
1070
     0
1002
}
1002
{
1000
REACTOR
1002
}
  0
ARC
  5
1690
330
1F
100
AcDbEntity
  8
下側
100
AcDbCircle
 10
179.2097006519972
 20
246.7948264663931
 30
0.0
 40
1.0
100
AcDbArc
 50
269.9999999999984
 51
0.0000000000048853
1001
GENIUS_GENODEF_13
1002
{
1000
HIER
1070
     0
1002
}
1002
{
1000
MANEDIT
1070
     0
1002
}
1002
{
1000
NOSEL
1070
     0
1002
}
1002
{
1000
BEHIND
1070
     0
1002
}
1002
{
1000
OTHER
1070
     0
1002
}
1002
{
1000
REACTOR
1002
}
1001
GENIUS_GENOBJ-N-FIL_13
1002
{
1000
OWNER
1000
GEN
1002
}
  0
LINE
  5
1692
330
1F
100
AcDbEntity
  8
下側
100
AcDbLine
 10
180.2097006519972
 20
246.7948264663931
 30
0.0
 11
180.2097006519972
 21
251.2948264663931
 31
0.0
  0
LINE
  5
16C5
330
1F
100
AcDbEntity
  8
上側
100
AcDbLine
 10
165.7097006519972
 20
250.7948264663932
 30
0.0
 11
165.7097006519972
 21
245.5948264663931
 31
0.0
  0
LINE
  5
16C7
330
1F
100
AcDbEntity
  8
上側
100
AcDbLine
 10
174.7097006519972
 20
250.7948264663932
 30
0.0
 11
174.7097006519972
 21
245.5948264663931
 31
0.0
  0
LINE
  5
16DA
330
1F
100
AcDbEntity
  8
上側
100
AcDbLine
 10
121.7097006519972
 20
245.5948264663931
 30
0.0
 11
121.7097006519972
 21
250.7948264663931
 31
0.0
  0
LINE
  5
16DB
330
1F
100
AcDbEntity
  8
上側
100
AcDbLine
 10
121.7097006519972
 20
245.5948264663931
 30
0.0
 11
115.2097006519972
 21
245.5948264663931
 31
0.0
  0
LINE
  5
16DC
330
1F
100
AcDbEntity
  8
上側
100
AcDbLine
 10
156.7097006519972
 20
245.5948264663931
 30
0.0
 11
156.7097006519972
 21
250.7948264663932
 31
0.0
  0
LINE
  5
16E0
330
1F
100
AcDbEntity
  8
上側
100
AcDbLine
 10
156.7097006519972
 20
250.7948264663932
 30
0.0
 11
121.7097006519972
 21
250.7948264663931
 31
0.0
  0
LINE
  5
16E2
330
1F
100
AcDbEntity
  8
上側
100
AcDbLine
 10
165.7097006519972
 20
245.5948264663931
 30
0.0
 11
156.7097006519972
 21
245.5948264663931
 31
0.0
  0
LINE
  5
16EE
330
1F
100
AcDbEntity
  8
上側
100
AcDbLine
 10
160.2097006519972
 20
247.2948264663932
 30
0.0
 11
156.7097006519972
 21
247.2948264663932
 31
0.0
  0
LINE
  5
16F0
330
1F
100
AcDbEntity
  8
上側
100
AcDbLine
 10
174.7097006519972
 20
250.2948264663932
 30
0.0
 11
175.7097006519972
 21
250.2948264663932
 31
0.0
  0
LINE
  5
16F2
330
1F
100
AcDbEntity
  8
上側
100
AcDbLine
 10
160.2097006519972
 20
250.2948264663932
 30
0.0
 11
156.7097006519972
 21
250.2948264663932
 31
0.0
  0
LINE
  5
16F4
330
1F
100
AcDbEntity
  8
上側
100
AcDbLine
 10
161.7097006519972
 20
248.7948264663932
 30
0.0
 11
161.7097006519972
 21
248.7948264663932
 31
0.0
  0
LINE
  5
16F6
330
1F
100
AcDbEntity
  8
上側
100
AcDbLine
 10
121.7097006519972
 20
250.2948264663932
 30
0.0
 11
120.0097006519972
 21
250.2948264663932
 31
0.0
  0
LINE
  5
16F7
330
1F
100
AcDbEntity
  8
上側
100
AcDbLine
 10
121.7097006519972
 20
247.2948264663932
 30
0.0
 11
120.0097006519972
 21
247.2948264663932
 31
0.0
  0
LINE
  5
16F8
330
1F
100
AcDbEntity
  8
下側
100
AcDbLine
 10
120.0097006519972
 20
246.2948264663932
 30
0.0
 11
120.0097006519972
 21
252.2948264663932
 31
0.0
  0
LINE
  5
16FD
330
1F
100
AcDbEntity
  8
下側
100
AcDbLine
 10
120.0097006519972
 20
246.2948264663932
 30
0.0
 11
110.4097006519972
 21
246.2948264663932
 31
0.0
  0
ARC
  5
1731
330
1F
100
AcDbEntity
  8
上側
100
AcDbCircle
 10
160.2097006519972
 20
248.7948264663932
 30
0.0
 40
1.5
100
AcDbArc
 50
0.0
 51
90.0
1001
GENIUS_GENOBJ-N-FIL_13
1002
{
1000
OWNER
1000
GEN
1002
}
1001
GENIUS_GENODEF_13
1002
{
1000
HIER
1070
     0
1002
}
1002
{
1000
MANEDIT
1070
     0
1002
}
1002
{
1000
NOSEL
1070
     0
1002
}
1002
{
1000
BEHIND
1070
     0
1002
}
1002
{
1000
OTHER
1070
     0
1002
}
1002
{
1000
REACTOR
1002
}
  0
ARC
  5
1732
330
1F
100
AcDbEntity
  8
上側
100
AcDbCircle
 10
160.2097006519972
 20
248.7948264663932
 30
0.0
 40
1.5
100
AcDbArc
 50
270.0
 51
0.0
1001
GENIUS_GENODEF_13
1002
{
1000
HIER
1070
     0
1002
}
1002
{
1000
MANEDIT
1070
     0
1002
}
1002
{
1000
NOSEL
1070
     0
1002
}
1002
{
1000
BEHIND
1070
     0
1002
}
1002
{
1000
OTHER
1070
     0
1002
}
1002
{
1000
REACTOR
1002
}
1001
GENIUS_GENOBJ-N-FIL_13
1002
{
1000
OWNER
1000
GEN
1002
}
  0
LINE
  5
1735
330
1F
100
AcDbEntity
  8
上側
100
AcDbLine
 10
175.7097006519972
 20
247.7948264663932
 30
0.0
 11
174.7097006519972
 21
247.7948264663932
 31
0.0
  0
LINE
  5
1738
330
1F
100
AcDbEntity
  8
上側
100
AcDbLine
 10
172.2097006519972
 20
233.2948264663932
 30
0.0
 11
172.2097006519972
 21
197.7948264663931
 31
0.0
  0
LINE
  5
1739
330
1F
100
AcDbEntity
  8
上側
100
AcDbLine
 10
169.2097006519972
 20
233.5448264663932
 30
0.0
 11
169.2097006519972
 21
197.5448264663931
 31
0.0
  0
LINE
  5
173D
330
1F
100
AcDbEntity
  8
上側
100
AcDbLine
 10
165.7097006519972
 20
191.2948264663931
 30
0.0
 11
115.2097006519972
 21
191.2948264663931
 31
0.0
  0
LINE
  5
1741
330
1F
100
AcDbEntity
  8
上側
100
AcDbLine
 10
165.7097006519972
 20
237.0448264663932
 30
0.0
 11
115.2097006519972
 21
237.0448264663932
 31
0.0
  0
LINE
  5
1742
330
1F
100
AcDbEntity
  8
上側
100
AcDbLine
 10
165.7097006519972
 20
239.7948264663932
 30
0.0
 11
115.2097006519972
 21
239.7948264663932
 31
0.0
  0
LINE
  5
1746
330
1F
100
AcDbEntity
  8
上側
100
AcDbLine
 10
165.7097006519972
 20
194.0448264663931
 30
0.0
 11
115.2097006519972
 21
194.0448264663931
 31
0.0
  0
ARC
  5
174F
330
1F
100
AcDbEntity
  8
上側
100
AcDbCircle
 10
165.7097006519972
 20
233.5448264663932
 30
0.0
 40
3.5
100
AcDbArc
 50
0.0
 51
90.0
1001
GENIUS_GENOBJ-N-FIL_13
1002
{
1000
OWNER
1000
GEN
1002
}
1001
GENIUS_GENODEF_13
1002
{
1000
HIER
1070
     0
1002
}
1002
{
1000
MANEDIT
1070
     0
1002
}
1002
{
1000
NOSEL
1070
     0
1002
}
1002
{
1000
BEHIND
1070
     0
1002
}
1002
{
1000
OTHER
1070
     0
1002
}
1002
{
1000
REACTOR
1002
}
  0
ARC
  5
1750
330
1F
100
AcDbEntity
  8
上側
100
AcDbCircle
 10
165.7097006519972
 20
197.5448264663931
 30
0.0
 40
3.5
100
AcDbArc
 50
270.0
 51
359.9999999999999
1001
GENIUS_GENOBJ-N-FIL_13
1002
{
1000
OWNER
1000
GEN
1002
}
1001
GENIUS_GENODEF_13
1002
{
1000
HIER
1070
     0
1002
}
1002
{
1000
MANEDIT
1070
     0
1002
}
1002
{
1000
NOSEL
1070
     0
1002
}
1002
{
1000
BEHIND
1070
     0
1002
}
1002
{
1000
OTHER
1070
     0
1002
}
1002
{
1000
REACTOR
1002
}
  0
ARC
  5
1751
330
1F
100
AcDbEntity
  8
上側
100
AcDbCircle
 10
165.7097006519972
 20
233.2948264663932
 30
0.0
 40
6.5
100
AcDbArc
 50
0.0
 51
90.0
1001
GENIUS_GENODEF_13
1002
{
1000
HIER
1070
     0
1002
}
1002
{
1000
MANEDIT
1070
     0
1002
}
1002
{
1000
NOSEL
1070
     0
1002
}
1002
{
1000
BEHIND
1070
     0
1002
}
1002
{
1000
OTHER
1070
     0
1002
}
1002
{
1000
REACTOR
1002
}
1001
GENIUS_GENOBJ-N-FIL_13
1002
{
1000
OWNER
1000
GEN
1002
}
  0
ARC
  5
1752
330
1F
100
AcDbEntity
  8
上側
100
AcDbCircle
 10
165.7097006519972
 20
197.7948264663931
 30
0.0
 40
6.5
100
AcDbArc
 50
270.0
 51
359.9999999999999
1001
GENIUS_GENODEF_13
1002
{
1000
HIER
1070
     0
1002
}
1002
{
1000
MANEDIT
1070
     0
1002
}
1002
{
1000
NOSEL
1070
     0
1002
}
1002
{
1000
BEHIND
1070
     0
1002
}
1002
{
1000
OTHER
1070
     0
1002
}
1002
{
1000
REACTOR
1002
}
1001
GENIUS_GENOBJ-N-FIL_13
1002
{
1000
OWNER
1000
GEN
1002
}
  0
LINE
  5
1818
330
1F
100
AcDbEntity
  8
上側
100
AcDbLine
 10
155.7097006519972
 20
182.2948264663932
 30
0.0
 11
155.7097006519972
 21
177.0948264663932
 31
0.0
  0
LINE
  5
181C
330
1F
100
AcDbEntity
  8
上側
100
AcDbLine
 10
149.7097006519972
 20
176.1948264663932
 30
0.0
 11
143.7097006519972
 21
176.1948264663932
 31
0.0
  0
LINE
  5
1853
330
1F
100
AcDbEntity
  8
上側
100
AcDbLine
 10
143.7097006519972
 20
183.1948264663932
 30
0.0
 11
149.7097006519972
 21
183.1948264663932
 31
0.0
  0
ARC
  5
1854
330
1F
100
AcDbEntity
  8
上側
100
AcDbCircle
 10
143.7097006519972
 20
179.6948264663931
 30
0.0
 40
3.5
100
AcDbArc
 50
90.0000000000009
 51
179.999999999999
1001
GENIUS_GENODEF_13
1002
{
1000
HIER
1070
     0
1002
}
1002
{
1000
MANEDIT
1070
     0
1002
}
1002
{
1000
NOSEL
1070
     0
1002
}
1002
{
1000
BEHIND
1070
     0
1002
}
1002
{
1000
OTHER
1070
     0
1002
}
1002
{
1000
REACTOR
1002
}
1001
GENIUS_GENOBJ-N-FIL_13
1002
{
1000
OWNER
1000
GEN
1002
}
  0
ARC
  5
1856
330
1F
100
AcDbEntity
  8
上側
100
AcDbCircle
 10
143.7097006519972
 20
179.6948264663932
 30
0.0
 40
3.5
100
AcDbArc
 50
180.0
 51
269.9999999999991
1001
GENIUS_GENODEF_13
1002
{
1000
HIER
1070
     0
1002
}
1002
{
1000
MANEDIT
1070
     0
1002
}
1002
{
1000
NOSEL
1070
     0
1002
}
1002
{
1000
BEHIND
1070
     0
1002
}
1002
{
1000
OTHER
1070
     0
1002
}
1002
{
1000
REACTOR
1002
}
1001
GENIUS_GENOBJ-N-FIL_13
1002
{
1000
OWNER
1000
GEN
1002
}
  0
LINE
  5
185C
330
1F
100
AcDbEntity
  8
上側
100
AcDbLine
 10
155.7097006519972
 20
182.2948264663932
 30
0.0
 11
150.2097006519972
 21
182.2948264663932
 31
0.0
  0
LINE
  5
185D
330
1F
100
AcDbEntity
  8
上側
100
AcDbLine
 10
155.7097006519972
 20
177.0948264663932
 30
0.0
 11
150.2097006519972
 21
177.0948264663932
 31
0.0
  0
LINE
  5
1864
330
1F
100
AcDbEntity
  8
上側
100
AcDbLine
 10
150.2097006519972
 20
183.2948264663931
 30
0.0
 11
146.7097006519972
 21
183.2948264663931
 31
0.0
  0
LINE
  5
1865
330
1F
100
AcDbEntity
  8
上側
100
AcDbLine
 10
146.7097006519972
 20
176.0948264663932
 30
0.0
 11
150.2097006519972
 21
176.0948264663932
 31
0.0
  0
LINE
  5
186E
330
1F
100
AcDbEntity
  8
上側
100
AcDbLine
 10
146.7097006519972
 20
183.2948264663931
 30
0.0
 11
146.7097006519972
 21
183.1948264663932
 31
0.0
  0
LINE
  5
1872
330
1F
100
AcDbEntity
  8
上側
100
AcDbLine
 10
146.7097006519972
 20
176.1948264663932
 30
0.0
 11
146.7097006519972
 21
176.0948264663932
 31
0.0
  0
LINE
  5
187D
330
1F
100
AcDbEntity
  8
上側
100
AcDbLine
 10
151.7097006519972
 20
180.9448264663932
 30
0.0
 11
149.7097006519972
 21
180.9448264663931
 31
0.0
  0
LINE
  5
187E
330
1F
100
AcDbEntity
  8
上側
100
AcDbLine
 10
151.7097006519972
 20
178.4448264663932
 30
0.0
 11
149.7097006519972
 21
178.4448264663932
 31
0.0
  0
LINE
  5
18BA
330
1F
100
AcDbEntity
  8
上側
100
AcDbLine
 10
151.7097006519972
 20
180.9448264663932
 30
0.0
 11
151.7097006519972
 21
178.4448264663932
 31
0.0
  0
LINE
  5
193D
330
1F
100
AcDbEntity
  8
上側
100
AcDbLine
 10
150.2097006519972
 20
183.2948264663931
 30
0.0
 11
150.2097006519972
 21
182.2948264663932
 31
0.0
  0
LINE
  5
193E
330
1F
100
AcDbEntity
  8
上側
100
AcDbLine
 10
149.7097006519972
 20
183.1948264663932
 30
0.0
 11
149.7097006519972
 21
176.1948264663932
 31
0.0
  0
LINE
  5
1942
330
1F
100
AcDbEntity
  8
上側
100
AcDbLine
 10
150.2097006519972
 20
177.0948264663932
 30
0.0
 11
150.2097006519972
 21
176.0948264663932
 31
0.0
  0
LINE
  5
196E
330
1F
100
AcDbEntity
  8
下側
100
AcDbLine
 10
150.4597006519972
 20
182.2948264663932
 30
0.0
 11
150.4597006519972
 21
177.0948264663932
 31
0.0
  0
LINE
  5
1972
330
1F
100
AcDbEntity
  8
下側
100
AcDbLine
 10
150.9597006519972
 20
182.2948264663932
 30
0.0
 11
150.9597006519972
 21
177.0948264663932
 31
0.0
  0
LINE
  5
19B4
330
1F
100
AcDbEntity
  8
上側
100
AcDbLine
 10
119.7121641560308
 20
183.4948264663931
 30
0.0
 11
119.7121641560308
 21
177.7948264663931
 31
0.0
  0
LINE
  5
19BA
330
1F
100
AcDbEntity
  8
上側
100
AcDbLine
 10
127.2121641560308
 20
183.4948264663931
 30
0.0
 11
119.7121641560308
 21
183.4948264663931
 31
0.0
  0
LINE
  5
19BB
330
1F
100
AcDbEntity
  8
上側
100
AcDbLine
 10
127.2121641560308
 20
177.7948264663931
 30
0.0
 11
119.7121641560308
 21
177.7948264663931
 31
0.0
  0
LINE
  5
19BE
330
1F
100
AcDbEntity
  8
上側
100
AcDbLine
 10
127.2121641560308
 20
183.4948264663931
 30
0.0
 11
127.2121641560308
 21
177.7948264663931
 31
0.0
  0
CIRCLE
  5
19C9
330
1F
100
AcDbEntity
  8
下側
100
AcDbCircle
 10
107.5097006519972
 20
179.7948264663931
 30
0.0
 40
2.5
  0
LINE
  5
19CE
330
1F
100
AcDbEntity
  8
下側
100
AcDbLine
 10
126.7097006519972
 20
178.7948264663931
 30
0.0
 11
120.9121641560307
 21
178.7948264663931
 31
0.0
  0
LINE
  5
19D4
330
1F
100
AcDbEntity
  8
下側
100
AcDbLine
 10
126.5121641560307
 20
182.7948264663931
 30
0.0
 11
119.7121641560308
 21
182.7948264663931
 31
0.0
  0
LINE
  5
19DA
330
1F
100
AcDbEntity
  8
下側
100
AcDbLine
 10
120.9121641560307
 20
178.2948264663931
 30
0.0
 11
125.1121641560307
 21
178.2948264663931
 31
0.0
  0
LINE
  5
19DD
330
1F
100
AcDbEntity
  8
下側
100
AcDbLine
 10
120.9121641560307
 20
178.2948264663931
 30
0.0
 11
120.9121641560307
 21
178.7948264663931
 31
0.0
  0
LINE
  5
19DE
330
1F
100
AcDbEntity
  8
下側
100
AcDbLine
 10
125.1121641560307
 20
178.7948264663931
 30
0.0
 11
125.1121641560307
 21
178.2948264663931
 31
0.0
  0
LINE
  5
19DF
330
1F
100
AcDbEntity
  8
下側
100
AcDbLine
 10
120.9121641560307
 20
178.7948264663931
 30
0.0
 11
119.7121641560308
 21
178.7948264663931
 31
0.0
  0
LINE
  5
19E8
330
1F
100
AcDbEntity
  8
下側
100
AcDbLine
 10
59.95970065199719
 20
189.7948264663931
 30
0.0
 11
115.2097006519972
 21
189.7948264663931
 31
0.0
  0
LINE
  5
19EA
330
1F
100
AcDbEntity
  8
下側
100
AcDbLine
 10
126.7097006519972
 20
182.7948264663931
 30
0.0
 11
119.7121641560308
 21
182.7948264663931
 31
0.0
  0
LINE
  5
19EC
330
1F
100
AcDbEntity
  8
下側
100
AcDbLine
 10
115.2097006519972
 20
239.7948264663932
 30
0.0
 11
59.95970065199719
 21
239.7948264663931
 31
0.0
  0
LINE
  5
1A23
330
1F
100
AcDbEntity
  8
下側
100
AcDbLine
 10
57.70970065199719
 20
237.5448264663931
 30
0.0
 11
57.70970065199719
 21
192.0448264663931
 31
0.0
  0
ARC
  5
1A2B
330
1F
100
AcDbEntity
  8
下側
100
AcDbCircle
 10
59.95970065199719
 20
237.5448264663931
 30
0.0
 40
2.25
100
AcDbArc
 50
90.0
 51
180.0
1001
GENIUS_GENOBJ-N-FIL_13
1002
{
1000
OWNER
1000
GEN
1002
}
1001
GENIUS_GENODEF_13
1002
{
1000
HIER
1070
     0
1002
}
1002
{
1000
MANEDIT
1070
     0
1002
}
1002
{
1000
NOSEL
1070
     0
1002
}
1002
{
1000
BEHIND
1070
     0
1002
}
1002
{
1000
OTHER
1070
     0
1002
}
1002
{
1000
REACTOR
1002
}
  0
ARC
  5
1A2C
330
1F
100
AcDbEntity
  8
下側
100
AcDbCircle
 10
59.95970065199719
 20
192.0448264663931
 30
0.0
 40
2.25
100
AcDbArc
 50
180.0
 51
270.0
1001
GENIUS_GENODEF_13
1002
{
1000
HIER
1070
     0
1002
}
1002
{
1000
MANEDIT
1070
     0
1002
}
1002
{
1000
NOSEL
1070
     0
1002
}
1002
{
1000
BEHIND
1070
     0
1002
}
1002
{
1000
OTHER
1070
     0
1002
}
1002
{
1000
REACTOR
1002
}
1001
GENIUS_GENOBJ-N-FIL_13
1002
{
1000
OWNER
1000
GEN
1002
}
  0
LINE
  5
1A2D
330
1F
100
AcDbEntity
  8
下側
100
AcDbLine
 10
115.2097006519972
 20
241.7948264663932
 30
0.0
 11
59.20970065199719
 21
241.7948264663931
 31
0.0
  0
ARC
  5
1A2E
330
1F
100
AcDbEntity
  8
下側
100
AcDbCircle
 10
59.20970065199719
 20
238.2948264663931
 30
0.0
 40
3.5
100
AcDbArc
 50
90.00000000000003
 51
180.0
1001
GENIUS_GENOBJ-N-FIL_13
1002
{
1000
OWNER
1000
GEN
1002
}
1001
GENIUS_GENODEF_13
1002
{
1000
HIER
1070
     0
1002
}
1002
{
1000
MANEDIT
1070
     0
1002
}
1002
{
1000
NOSEL
1070
     0
1002
}
1002
{
1000
BEHIND
1070
     0
1002
}
1002
{
1000
OTHER
1070
     0
1002
}
1002
{
1000
REACTOR
1002
}
  0
LINE
  5
1A2F
330
1F
100
AcDbEntity
  8
下側
100
AcDbLine
 10
55.70970065199719
 20
238.2948264663931
 30
0.0
 11
55.7097006519972
 21
191.2948264663931
 31
0.0
  0
ARC
  5
1A30
330
1F
100
AcDbEntity
  8
下側
100
AcDbCircle
 10
59.2097006519972
 20
191.2948264663931
 30
0.0
 40
3.5
100
AcDbArc
 50
180.0
 51
270.0
1001
GENIUS_GENOBJ-N-FIL_13
1002
{
1000
OWNER
1000
GEN
1002
}
1001
GENIUS_GENODEF_13
1002
{
1000
HIER
1070
     0
1002
}
1002
{
1000
MANEDIT
1070
     0
1002
}
1002
{
1000
NOSEL
1070
     0
1002
}
1002
{
1000
BEHIND
1070
     0
1002
}
1002
{
1000
OTHER
1070
     0
1002
}
1002
{
1000
REACTOR
1002
}
  0
LINE
  5
1A31
330
1F
100
AcDbEntity
  8
下側
100
AcDbLine
 10
59.2097006519972
 20
187.7948264663931
 30
0.0
 11
115.2097006519972
 21
187.7948264663931
 31
0.0
  0
LINE
  5
1A37
330
1F
100
AcDbEntity
  8
下側
100
AcDbLine
 10
115.2097006519972
 20
245.5948264663931
 30
0.0
 11
59.40970065199718
 21
245.5948264663931
 31
0.0
  0
ARC
  5
1A38
330
1F
100
AcDbEntity
  8
下側
100
AcDbCircle
 10
59.40970065199718
 20
238.0948264663931
 30
0.0
 40
7.5
100
AcDbArc
 50
90.0
 51
180.0
1001
GENIUS_GENOBJ-N-FIL_13
1002
{
1000
OWNER
1000
GEN
1002
}
1001
GENIUS_GENODEF_13
1002
{
1000
HIER
1070
     0
1002
}
1002
{
1000
MANEDIT
1070
     0
1002
}
1002
{
1000
NOSEL
1070
     0
1002
}
1002
{
1000
BEHIND
1070
     0
1002
}
1002
{
1000
OTHER
1070
     0
1002
}
1002
{
1000
REACTOR
1002
}
  0
LINE
  5
1A39
330
1F
100
AcDbEntity
  8
下側
100
AcDbLine
 10
51.90970065199718
 20
238.0948264663931
 30
0.0
 11
51.90970065199721
 21
191.4948264663931
 31
0.0
  0
ARC
  5
1A3A
330
1F
100
AcDbEntity
  8
下側
100
AcDbCircle
 10
59.40970065199721
 20
191.4948264663931
 30
0.0
 40
7.5
100
AcDbArc
 50
180.0
 51
270.0
1001
GENIUS_GENOBJ-N-FIL_13
1002
{
1000
OWNER
1000
GEN
1002
}
1001
GENIUS_GENODEF_13
1002
{
1000
HIER
1070
     0
1002
}
1002
{
1000
MANEDIT
1070
     0
1002
}
1002
{
1000
NOSEL
1070
     0
1002
}
1002
{
1000
BEHIND
1070
     0
1002
}
1002
{
1000
OTHER
1070
     0
1002
}
1002
{
1000
REACTOR
1002
}
  0
LINE
  5
1A3B
330
1F
100
AcDbEntity
  8
下側
100
AcDbLine
 10
59.40970065199721
 20
183.9948264663931
 30
0.0
 11
115.2097006519972
 21
183.9948264663931
 31
0.0
  0
LINE
  5
1A3C
330
1F
100
AcDbEntity
  8
上側
100
AcDbLine
 10
115.2097006519972
 20
175.7948264663931
 30
0.0
 11
139.2097006519972
 21
175.7948264663931
 31
0.0
1001
GENIUS_GENREC_14
1002
{
1000
PYDIR
1011
50.20970065199719
1021
252.2948264663932
1031
0.0
1002
}
1002
{
1000
PXDIR
1011
180.2097006519972
1021
175.7948264663931
1031
0.0
1002
}
1002
{
1000
PORI
1011
50.20970065199719
1021
175.7948264663931
1031
0.0
1002
}
1002
{
1000
PINS
1011
115.2097006519972
1021
214.0448264663931
1031
0.0
1002
}
1002
{
1000
HVAL
1000
76.5
1002
}
1002
{
1000
H
1070
     2
1002
}
1002
{
1000
WVAL
1000
130
1002
}
1002
{
1000
W
1070
     2
1002
}
1002
{
1000
C
1070
     4
1002
}
1001
GENIUS_GENODEF_13
1002
{
1000
HIER
1070
     0
1002
}
1002
{
1000
MANEDIT
1070
     0
1002
}
1002
{
1000
NOSEL
1070
     0
1002
}
1002
{
1000
BEHIND
1070
     0
1002
}
1002
{
1000
OTHER
1070
     0
1002
}
1002
{
1000
REACTOR
1002
}
1001
GENIUS_GENOBJ-N-REC_13
1002
{
1000
OWNER
1000
GEN
1002
}
  0
LINE
  5
1A49
330
1F
100
AcDbEntity
  8
下側
100
AcDbLine
 10
79.9597006519972
 20
182.7948264663931
 30
0.0
 11
79.9597006519972
 21
177.0948264663931
 31
0.0
  0
LINE
  5
1A4A
330
1F
100
AcDbEntity
  8
下側
100
AcDbLine
 10
79.4597006519972
 20
182.7948264663931
 30
0.0
 11
79.4597006519972
 21
177.0948264663931
 31
0.0
  0
LINE
  5
1A7E
330
1F
100
AcDbEntity
  8
下側
100
AcDbLine
 10
90.2597006519972
 20
177.0948264663931
 30
0.0
 11
79.4597006519972
 21
177.0948264663931
 31
0.0
  0
LINE
  5
1B2E
330
1F
100
AcDbEntity
  8
下側
100
AcDbLine
 10
90.2597006519972
 20
177.0948264663931
 30
0.0
 11
79.4597006519972
 21
177.0948264663931
 31
0.0
  0
LINE
  5
1B30
330
1F
100
AcDbEntity
  8
下側
100
AcDbLine
 10
90.2597006519972
 20
182.7948264663931
 30
0.0
 11
90.2597006519972
 21
177.0948264663931
 31
0.0
  0
LINE
  5
1B35
330
1F
100
AcDbEntity
  8
下側
100
AcDbLine
 10
90.2597006519972
 20
182.7948264663931
 30
0.0
 11
79.4597006519972
 21
182.7948264663931
 31
0.0
  0
CIRCLE
  5
1C64
330
1F
100
AcDbEntity
  8
下側
100
AcDbCircle
 10
98.25970065199719
 20
179.7948264663931
 30
0.0
 40
1.5
  0
ARC
  5
1C91
330
1F
100
AcDbEntity
  8
下側
100
AcDbCircle
 10
114.2597006519972
 20
179.7948264663931
 30
0.0
 40
2.0
100
AcDbArc
 50
61.64064997184254
 51
298.3593500281575
  0
CIRCLE
  5
1C96
330
1F
100
AcDbEntity
  8
下側0
100
AcDbCircle
 10
58.30970065199719
 20
181.2948264663931
 30
0.0
 40
1.199999999999999
  0
CIRCLE
  5
1C97
330
1F
100
AcDbEntity
  8
下側0
100
AcDbCircle
 10
58.30970065199719
 20
181.2948264663931
 30
0.0
 40
2.399999999999999
  0
LINE
  5
1C99
330
1F
100
AcDbEntity
  8
下側
100
AcDbLine
 10
58.70970065199719
 20
236.7948264663931
 30
0.0
 11
58.70970065199719
 21
192.7948264663931
 31
0.0
  0
LINE
  5
1CA0
330
1F
100
AcDbEntity
  8
下側
100
AcDbLine
 10
65.20970065199719
 20
238.2948264663931
 30
0.0
 11
64.70970065199719
 21
238.2948264663931
 31
0.0
  0
LINE
  5
1CA1
330
1F
100
AcDbEntity
  8
下側
100
AcDbLine
 10
65.20970065199719
 20
191.2948264663931
 30
0.0
 11
64.70970065199719
 21
191.2948264663931
 31
0.0
  0
LINE
  5
1CA2
330
1F
100
AcDbEntity
  8
下側
100
AcDbLine
 10
66.70970065199719
 20
236.7948264663931
 30
0.0
 11
66.70970065199719
 21
192.7948264663931
 31
0.0
  0
LINE
  5
1CA3
330
1F
100
AcDbEntity
  8
下側
100
AcDbLine
 10
64.70970065199719
 20
239.7948264663932
 30
0.0
 11
64.70970065199719
 21
238.2948264663931
 31
0.0
  0
LINE
  5
1CA5
330
1F
100
AcDbEntity
  8
下側
100
AcDbLine
 10
60.7097006519972
 20
239.7948264663932
 30
0.0
 11
60.7097006519972
 21
238.2948264663931
 31
0.0
  0
LINE
  5
1CA7
330
1F
100
AcDbEntity
  8
下側
100
AcDbLine
 10
64.70970065199719
 20
191.2948264663931
 30
0.0
 11
64.70970065199719
 21
189.7948264663931
 31
0.0
  0
LINE
  5
1CA8
330
1F
100
AcDbEntity
  8
下側
100
AcDbLine
 10
60.7097006519972
 20
191.2948264663931
 30
0.0
 11
60.7097006519972
 21
189.7948264663931
 31
0.0
  0
LINE
  5
1CAA
330
1F
100
AcDbEntity
  8
下側
100
AcDbLine
 10
60.7097006519972
 20
238.2948264663931
 30
0.0
 11
60.20970065199719
 21
238.2948264663931
 31
0.0
  0
LINE
  5
1CB1
330
1F
100
AcDbEntity
  8
下側
100
AcDbLine
 10
60.70970065199719
 20
191.2948264663931
 30
0.0
 11
60.20970065199719
 21
191.2948264663931
 31
0.0
  0
ARC
  5
1CB3
330
1F
100
AcDbEntity
  8
下側
100
AcDbCircle
 10
65.20970065199719
 20
236.7948264663931
 30
0.0
 40
1.5
100
AcDbArc
 50
0.0
 51
90.0
1001
GENIUS_GENODEF_13
1002
{
1000
HIER
1070
     0
1002
}
1002
{
1000
MANEDIT
1070
     0
1002
}
1002
{
1000
NOSEL
1070
     0
1002
}
1002
{
1000
BEHIND
1070
     0
1002
}
1002
{
1000
OTHER
1070
     0
1002
}
1002
{
1000
REACTOR
1002
}
1001
GENIUS_GENOBJ-N-FIL_13
1002
{
1000
OWNER
1000
GEN
1002
}
  0
ARC
  5
1CB4
330
1F
100
AcDbEntity
  8
下側
100
AcDbCircle
 10
60.20970065199719
 20
236.7948264663931
 30
0.0
 40
1.5
100
AcDbArc
 50
90.0
 51
180.0
1001
GENIUS_GENODEF_13
1002
{
1000
HIER
1070
     0
1002
}
1002
{
1000
MANEDIT
1070
     0
1002
}
1002
{
1000
NOSEL
1070
     0
1002
}
1002
{
1000
BEHIND
1070
     0
1002
}
1002
{
1000
OTHER
1070
     0
1002
}
1002
{
1000
REACTOR
1002
}
1001
GENIUS_GENOBJ-N-FIL_13
1002
{
1000
OWNER
1000
GEN
1002
}
  0
ARC
  5
1CB5
330
1F
100
AcDbEntity
  8
下側
100
AcDbCircle
 10
65.20970065199719
 20
192.7948264663931
 30
0.0
 40
1.5
100
AcDbArc
 50
270.0
 51
0.0
1001
GENIUS_GENODEF_13
1002
{
1000
HIER
1070
     0
1002
}
1002
{
1000
MANEDIT
1070
     0
1002
}
1002
{
1000
NOSEL
1070
     0
1002
}
1002
{
1000
BEHIND
1070
     0
1002
}
1002
{
1000
OTHER
1070
     0
1002
}
1002
{
1000
REACTOR
1002
}
1001
GENIUS_GENOBJ-N-FIL_13
1002
{
1000
OWNER
1000
GEN
1002
}
  0
ARC
  5
1CB6
330
1F
100
AcDbEntity
  8
下側
100
AcDbCircle
 10
60.20970065199719
 20
192.7948264663931
 30
0.0
 40
1.5
100
AcDbArc
 50
180.0
 51
270.0
1001
GENIUS_GENODEF_13
1002
{
1000
HIER
1070
     0
1002
}
1002
{
1000
MANEDIT
1070
     0
1002
}
1002
{
1000
NOSEL
1070
     0
1002
}
1002
{
1000
BEHIND
1070
     0
1002
}
1002
{
1000
OTHER
1070
     0
1002
}
1002
{
1000
REACTOR
1002
}
1001
GENIUS_GENOBJ-N-FIL_13
1002
{
1000
OWNER
1000
GEN
1002
}
  0
LINE
  5
1CBB
330
1F
100
AcDbEntity
  8
下側
100
AcDbLine
 10
67.4597006519972
 20
236.7948264663931
 30
0.0
 11
67.4597006519972
 21
192.7948264663931
 31
0.0
  0
ARC
  5
1CBC
330
1F
100
AcDbEntity
  8
下側
100
AcDbCircle
 10
68.95970065199719
 20
192.7948264663931
 30
0.0
 40
1.5
100
AcDbArc
 50
180.0
 51
270.0
1001
GENIUS_GENODEF_13
1002
{
1000
HIER
1070
     0
1002
}
1002
{
1000
MANEDIT
1070
     0
1002
}
1002
{
1000
NOSEL
1070
     0
1002
}
1002
{
1000
BEHIND
1070
     0
1002
}
1002
{
1000
OTHER
1070
     0
1002
}
1002
{
1000
REACTOR
1002
}
1001
GENIUS_GENOBJ-N-FIL_13
1002
{
1000
OWNER
1000
GEN
1002
}
  0
ARC
  5
1CBD
330
1F
100
AcDbEntity
  8
下側
100
AcDbCircle
 10
68.95970065199719
 20
236.7948264663931
 30
0.0
 40
1.5
100
AcDbArc
 50
90.0
 51
180.0
1001
GENIUS_GENODEF_13
1002
{
1000
HIER
1070
     0
1002
}
1002
{
1000
MANEDIT
1070
     0
1002
}
1002
{
1000
NOSEL
1070
     0
1002
}
1002
{
1000
BEHIND
1070
     0
1002
}
1002
{
1000
OTHER
1070
     0
1002
}
1002
{
1000
REACTOR
1002
}
1001
GENIUS_GENOBJ-N-FIL_13
1002
{
1000
OWNER
1000
GEN
1002
}
  0
LINE
  5
1CBE
330
1F
100
AcDbEntity
  8
下側
100
AcDbLine
 10
75.45970065199719
 20
236.7948264663931
 30
0.0
 11
75.45970065199719
 21
192.7948264663931
 31
0.0
  0
ARC
  5
1CBF
330
1F
100
AcDbEntity
  8
下側
100
AcDbCircle
 10
73.95970065199719
 20
236.7948264663931
 30
0.0
 40
1.5
100
AcDbArc
 50
0.0
 51
90.0
1001
GENIUS_GENODEF_13
1002
{
1000
HIER
1070
     0
1002
}
1002
{
1000
MANEDIT
1070
     0
1002
}
1002
{
1000
NOSEL
1070
     0
1002
}
1002
{
1000
BEHIND
1070
     0
1002
}
1002
{
1000
OTHER
1070
     0
1002
}
1002
{
1000
REACTOR
1002
}
1001
GENIUS_GENOBJ-N-FIL_13
1002
{
1000
OWNER
1000
GEN
1002
}
  0
LINE
  5
1CC0
330
1F
100
AcDbEntity
  8
下側
100
AcDbLine
 10
69.4597006519972
 20
239.7948264663932
 30
0.0
 11
69.4597006519972
 21
238.2948264663931
 31
0.0
  0
LINE
  5
1CC1
330
1F
100
AcDbEntity
  8
下側
100
AcDbLine
 10
69.4597006519972
 20
191.2948264663931
 30
0.0
 11
69.4597006519972
 21
189.7948264663931
 31
0.0
  0
LINE
  5
1CC2
330
1F
100
AcDbEntity
  8
下側
100
AcDbLine
 10
73.45970065199719
 20
239.7948264663932
 30
0.0
 11
73.45970065199719
 21
238.2948264663931
 31
0.0
  0
LINE
  5
1CC3
330
1F
100
AcDbEntity
  8
下側
100
AcDbLine
 10
73.45970065199719
 20
191.2948264663931
 30
0.0
 11
73.45970065199719
 21
189.7948264663931
 31
0.0
  0
LINE
  5
1CC4
330
1F
100
AcDbEntity
  8
下側
100
AcDbLine
 10
73.95970065199719
 20
238.2948264663931
 30
0.0
 11
73.45970065199719
 21
238.2948264663931
 31
0.0
  0
LINE
  5
1CC5
330
1F
100
AcDbEntity
  8
下側
100
AcDbLine
 10
69.4597006519972
 20
238.2948264663931
 30
0.0
 11
68.95970065199719
 21
238.2948264663931
 31
0.0
  0
LINE
  5
1CC6
330
1F
100
AcDbEntity
  8
下側
100
AcDbLine
 10
73.95970065199719
 20
191.2948264663931
 30
0.0
 11
73.45970065199719
 21
191.2948264663931
 31
0.0
  0
ARC
  5
1CC7
330
1F
100
AcDbEntity
  8
下側
100
AcDbCircle
 10
73.95970065199719
 20
192.7948264663931
 30
0.0
 40
1.5
100
AcDbArc
 50
270.0
 51
0.0
1001
GENIUS_GENODEF_13
1002
{
1000
HIER
1070
     0
1002
}
1002
{
1000
MANEDIT
1070
     0
1002
}
1002
{
1000
NOSEL
1070
     0
1002
}
1002
{
1000
BEHIND
1070
     0
1002
}
1002
{
1000
OTHER
1070
     0
1002
}
1002
{
1000
REACTOR
1002
}
1001
GENIUS_GENOBJ-N-FIL_13
1002
{
1000
OWNER
1000
GEN
1002
}
  0
LINE
  5
1CC8
330
1F
100
AcDbEntity
  8
下側
100
AcDbLine
 10
69.4597006519972
 20
191.2948264663931
 30
0.0
 11
68.95970065199719
 21
191.2948264663931
 31
0.0
  0
LINE
  5
1CC9
330
1F
100
AcDbEntity
  8
下側
100
AcDbLine
 10
110.4097006519972
 20
246.2948264663932
 30
0.0
 11
110.4097006519972
 21
252.2948264663932
 31
0.0
  0
LINE
  5
1CCA
330
1F
100
AcDbEntity
  8
下側
100
AcDbLine
 10
54.70970065199719
 20
251.2948264663931
 30
0.0
 11
54.70970065199719
 21
246.7948264663931
 31
0.0
  0
LINE
  5
1CCB
330
1F
100
AcDbEntity
  8
下側
100
AcDbLine
 10
53.7097006519972
 20
245.7948264663932
 30
0.0
 11
51.2097006519972
 21
245.7948264663932
 31
0.0
  0
ARC
  5
1CCC
330
1F
100
AcDbEntity
  8
下側
100
AcDbCircle
 10
53.70970065199717
 20
251.2948264663932
 30
0.0
 40
1.0
100
AcDbArc
 50
359.9999999999968
 51
89.99999999999836
1001
GENIUS_GENODEF_13
1002
{
1000
HIER
1070
     0
1002
}
1002
{
1000
MANEDIT
1070
     0
1002
}
1002
{
1000
NOSEL
1070
     0
1002
}
1002
{
1000
BEHIND
1070
     0
1002
}
1002
{
1000
OTHER
1070
     0
1002
}
1002
{
1000
REACTOR
1002
}
1001
GENIUS_GENOBJ-N-FIL_13
1002
{
1000
OWNER
1000
GEN
1002
}
  0
ARC
  5
1CCD
330
1F
100
AcDbEntity
  8
下側
100
AcDbCircle
 10
53.70970065199722
 20
246.7948264663931
 30
0.0
 40
1.0
100
AcDbArc
 50
269.9999999999984
 51
0.0
1001
GENIUS_GENOBJ-N-FIL_13
1002
{
1000
OWNER
1000
GEN
1002
}
1001
GENIUS_GENODEF_13
1002
{
1000
HIER
1070
     0
1002
}
1002
{
1000
MANEDIT
1070
     0
1002
}
1002
{
1000
NOSEL
1070
     0
1002
}
1002
{
1000
BEHIND
1070
     0
1002
}
1002
{
1000
OTHER
1070
     0
1002
}
1002
{
1000
REACTOR
1002
}
  0
ARC
  5
1CCE
330
1F
100
AcDbEntity
  8
下側
100
AcDbCircle
 10
51.20970065199717
 20
246.7948264663931
 30
0.0
 40
1.0
100
AcDbArc
 50
179.9999999999951
 51
270.0000000000017
1001
GENIUS_GENODEF_13
1002
{
1000
HIER
1070
     0
1002
}
1002
{
1000
MANEDIT
1070
     0
1002
}
1002
{
1000
NOSEL
1070
     0
1002
}
1002
{
1000
BEHIND
1070
     0
1002
}
1002
{
1000
OTHER
1070
     0
1002
}
1002
{
1000
REACTOR
1002
}
1001
GENIUS_GENOBJ-N-FIL_13
1002
{
1000
OWNER
1000
GEN
1002
}
  0
LINE
  5
1CD7
330
1F
100
AcDbEntity
  8
下側
100
AcDbLine
 10
115.2097006519972
 20
245.7948264663932
 30
0.0
 11
109.7097006519972
 21
245.7948264663932
 31
0.0
  0
LINE
  5
1CD9
330
1F
100
AcDbEntity
  8
下側
100
AcDbLine
 10
109.7097006519972
 20
245.7948264663932
 30
0.0
 11
109.7097006519972
 21
250.8948264663931
 31
0.0
  0
LINE
  5
1CDB
330
1F
100
AcDbEntity
  8
下側
100
AcDbLine
 10
110.4097006519972
 20
250.8948264663931
 30
0.0
 11
109.7097006519972
 21
250.8948264663931
 31
0.0
  0
LINE
  5
1CDD
330
1F
100
AcDbEntity
  8
下側
100
AcDbLine
 10
291.0369782585088
 20
252.2948264663932
 30
0.0
 11
304.2369782585088
 21
252.2948264663932
 31
0.0
  0
LINE
  5
1D0C
330
1F
100
AcDbEntity
  8
下側
100
AcDbLine
 10
310.2369782585088
 20
241.7948264663932
 30
0.0
 11
310.2369782585088
 21
187.7948264663931
 31
0.0
  0
LINE
  5
1ED7
330
1F
100
AcDbEntity
  8
上側
100
AcDbLine
 10
289.8369782585088
 20
239.7948264663932
 30
0.0
 11
280.7317775097524
 21
237.4763725720339
 31
0.0
  0
LINE
  5
1ED8
330
1F
100
AcDbEntity
  8
上側
100
AcDbLine
 10
279.0369782585088
 20
235.2959478132815
 30
0.0
 11
279.0369782585088
 21
195.7937051195048
 31
0.0
  0
LINE
  5
1ED9
330
1F
100
AcDbEntity
  8
上側
100
AcDbLine
 10
280.7317775097524
 20
193.6132803607524
 30
0.0
 11
289.8369782585088
 21
191.2948264663931
 31
0.0
  0
ARC
  5
1EE5
330
1F
100
AcDbEntity
  8
上側
100
AcDbCircle
 10
281.2869782585088
 20
235.2959478132815
 30
0.0
 40
2.25
100
AcDbArc
 50
104.2856250465948
 51
180.0
1001
GENIUS_GENODEF_13
1002
{
1000
HIER
1070
     0
1002
}
1002
{
1000
MANEDIT
1070
     0
1002
}
1002
{
1000
NOSEL
1070
     0
1002
}
1002
{
1000
BEHIND
1070
     0
1002
}
1002
{
1000
OTHER
1070
     0
1002
}
1002
{
1000
REACTOR
1002
}
1001
GENIUS_GENOBJ-N-FIL_13
1002
{
1000
OWNER
1000
GEN
1002
}
  0
ARC
  5
1EE6
330
1F
100
AcDbEntity
  8
上側
100
AcDbCircle
 10
281.2869782585088
 20
195.7937051195048
 30
0.0
 40
2.25
100
AcDbArc
 50
180.0
 51
255.7143749534051
1001
GENIUS_GENODEF_13
1002
{
1000
HIER
1070
     0
1002
}
1002
{
1000
MANEDIT
1070
     0
1002
}
1002
{
1000
NOSEL
1070
     0
1002
}
1002
{
1000
BEHIND
1070
     0
1002
}
1002
{
1000
OTHER
1070
     0
1002
}
1002
{
1000
REACTOR
1002
}
1001
GENIUS_GENOBJ-N-FIL_13
1002
{
1000
OWNER
1000
GEN
1002
}
  0
LINE
  5
1EE8
330
1F
100
AcDbEntity
  8
上側
100
AcDbLine
 10
289.8369782585088
 20
246.0452810494196
 30
0.0
 11
289.8369782585088
 21
174.2948264663932
 31
0.0
  0
LINE
  5
1EE9
330
1F
100
AcDbEntity
  8
上側
100
AcDbLine
 10
289.8369782585088
 20
174.2948264663932
 30
0.0
 11
293.3369782585088
 21
174.2948264663932
 31
0.0
  0
LINE
  5
1EEA
330
1F
100
AcDbEntity
  8
上側
100
AcDbLine
 10
293.3369782585088
 20
174.2948264663932
 30
0.0
 11
293.3369782585088
 21
245.7948264663932
 31
0.0
  0
LINE
  5
1EEC
330
1F
100
AcDbEntity
  8
上側
100
AcDbLine
 10
289.8369782585088
 20
175.7948264663931
 30
0.0
 11
293.3369782585088
 21
175.7948264663931
 31
0.0
  0
LINE
  5
1EED
330
1F
100
AcDbEntity
  8
下側
100
AcDbLine
 10
291.0369782585088
 20
245.7948264663932
 30
0.0
 11
304.2369782585088
 21
245.7948264663932
 31
0.0
  0
LINE
  5
1EEF
330
1F
100
AcDbEntity
  8
下側
100
AcDbLine
 10
288.0369782585088
 20
249.2948264663932
 30
0.0
 11
288.0369782585088
 21
248.7948264663931
 31
0.0
  0
ARC
  5
1F23
330
1F
100
AcDbEntity
  8
下側
100
AcDbCircle
 10
291.0369782585089
 20
249.2948264663932
 30
0.0
 40
3.0
100
AcDbArc
 50
90.00000000000104
 51
180.0000000000005
1001
GENIUS_GENODEF_13
1002
{
1000
HIER
1070
     0
1002
}
1002
{
1000
MANEDIT
1070
     0
1002
}
1002
{
1000
NOSEL
1070
     0
1002
}
1002
{
1000
BEHIND
1070
     0
1002
}
1002
{
1000
OTHER
1070
     0
1002
}
1002
{
1000
REACTOR
1002
}
1001
GENIUS_GENOBJ-N-FIL_13
1002
{
1000
OWNER
1000
GEN
1002
}
  0
ARC
  5
1F24
330
1F
100
AcDbEntity
  8
下側
100
AcDbCircle
 10
291.0369782585088
 20
248.7948264663931
 30
0.0
 40
3.0
100
AcDbArc
 50
180.0
 51
270.0
1001
GENIUS_GENODEF_13
1002
{
1000
HIER
1070
     0
1002
}
1002
{
1000
MANEDIT
1070
     0
1002
}
1002
{
1000
NOSEL
1070
     0
1002
}
1002
{
1000
BEHIND
1070
     0
1002
}
1002
{
1000
OTHER
1070
     0
1002
}
1002
{
1000
REACTOR
1002
}
1001
GENIUS_GENOBJ-N-FIL_13
1002
{
1000
OWNER
1000
GEN
1002
}
  0
LINE
  5
1F50
330
1F
100
AcDbEntity
  8
下側
100
AcDbLine
 10
294.1369782585088
 20
245.7948264663932
 30
0.0
 11
294.1369782585088
 21
174.2948264663932
 31
0.0
  0
LINE
  5
1F52
330
1F
100
AcDbEntity
  8
下側
100
AcDbLine
 10
304.2369782585088
 20
252.2948264663932
 30
0.0
 11
304.2369782585088
 21
174.2948264663932
 31
0.0
  0
LINE
  5
1F5B
330
1F
100
AcDbEntity
  8
下側
100
AcDbLine
 10
294.1369782585088
 20
174.2948264663932
 30
0.0
 11
304.2369782585088
 21
174.2948264663932
 31
0.0
  0
LINE
  5
1F60
330
1F
100
AcDbEntity
  8
下側
100
AcDbLine
 10
310.2369782585088
 20
241.7948264663932
 30
0.0
 11
304.2369782585088
 21
241.7948264663932
 31
0.0
  0
LINE
  5
1F61
330
1F
100
AcDbEntity
  8
下側0
100
AcDbLine
 10
310.2369782585088
 20
239.7948264663932
 30
0.0
 11
294.1369782585088
 21
239.7948264663932
 31
0.0
  0
LINE
  5
1F62
330
1F
100
AcDbEntity
  8
下側0
100
AcDbLine
 10
310.2369782585088
 20
189.7948264663931
 30
0.0
 11
294.1369782585088
 21
189.7948264663931
 31
0.0
  0
LINE
  5
1F63
330
1F
100
AcDbEntity
  8
下側
100
AcDbLine
 10
310.2369782585088
 20
187.7948264663931
 30
0.0
 11
304.2369782585088
 21
187.7948264663931
 31
0.0
  0
LINE
  5
1F7A
330
1F
100
AcDbEntity
  8
上側
100
AcDbLine
 10
293.3369782585088
 20
244.8948264663932
 30
0.0
 11
294.1369782585088
 21
244.4348264663932
 31
0.0
  0
LINE
  5
1F7B
330
1F
100
AcDbEntity
  8
上側
100
AcDbLine
 10
294.1369782585088
 20
243.0548264663932
 30
0.0
 11
293.3369782585088
 21
242.5948264663932
 31
0.0
  0
LINE
  5
1F7C
330
1F
100
AcDbEntity
  8
上側
100
AcDbLine
 10
293.3369782585088
 20
187.5948264663931
 30
0.0
 11
294.1369782585088
 21
187.1348264663931
 31
0.0
  0
LINE
  5
1F7D
330
1F
100
AcDbEntity
  8
上側
100
AcDbLine
 10
294.1369782585088
 20
185.7548264663931
 30
0.0
 11
293.3369782585088
 21
185.2948264663931
 31
0.0
  0
LINE
  5
2038
330
1F
100
AcDbEntity
  8
ｶﾞｽｹｯﾄ
100
AcDbLine
 10
304.6369782585088
 20
245.5948264663931
 30
0.0
 11
304.2369782585088
 21
245.5948264663931
 31
0.0
  0
LINE
  5
2039
330
1F
100
AcDbEntity
  8
ｶﾞｽｹｯﾄ
100
AcDbLine
 10
304.6369782585088
 20
184.5948264663931
 30
0.0
 11
304.2369782585088
 21
184.5948264663931
 31
0.0
  0
LINE
  5
203B
330
1F
100
AcDbEntity
  8
ｶﾞｽｹｯﾄ
100
AcDbLine
 10
306.6369782585088
 20
186.5948264663931
 30
0.0
 11
306.6369782585088
 21
187.7948264663931
 31
0.0
  0
ARC
  5
203C
330
1F
100
AcDbEntity
  8
ｶﾞｽｹｯﾄ
100
AcDbCircle
 10
304.6369782585089
 20
186.594826466393
 30
0.0
 40
2.0
100
AcDbArc
 50
269.9999999999968
 51
0.0000000000032569
1001
GENIUS_GENODEF_13
1002
{
1000
HIER
1070
     0
1002
}
1002
{
1000
MANEDIT
1070
     0
1002
}
1002
{
1000
NOSEL
1070
     0
1002
}
1002
{
1000
BEHIND
1070
     0
1002
}
1002
{
1000
OTHER
1070
     0
1002
}
1002
{
1000
REACTOR
1002
}
1001
GENIUS_GENOBJ-N-FIL_13
1002
{
1000
OWNER
1000
GEN
1002
}
  0
ARC
  5
203D
330
1F
100
AcDbEntity
  8
ｶﾞｽｹｯﾄ
100
AcDbCircle
 10
304.6369782585088
 20
243.5948264663932
 30
0.0
 40
2.0
100
AcDbArc
 50
359.9999999999984
 51
90.00000000000161
1001
GENIUS_GENOBJ-N-FIL_13
1002
{
1000
OWNER
1000
GEN
1002
}
1001
GENIUS_GENODEF_13
1002
{
1000
HIER
1070
     0
1002
}
1002
{
1000
MANEDIT
1070
     0
1002
}
1002
{
1000
NOSEL
1070
     0
1002
}
1002
{
1000
BEHIND
1070
     0
1002
}
1002
{
1000
OTHER
1070
     0
1002
}
1002
{
1000
REACTOR
1002
}
  0
LINE
  5
203F
330
1F
100
AcDbEntity
  8
ｶﾞｽｹｯﾄ
100
AcDbLine
 10
306.6369782585088
 20
241.7948264663932
 30
0.0
 11
306.6369782585088
 21
243.5948264663931
 31
0.0
  0
LINE
  5
2073
330
1F
100
AcDbEntity
  8
上側
100
AcDbLine
 10
289.8369782585088
 20
183.1948264663932
 30
0.0
 11
280.0472256488509
 21
182.883334337904
 31
0.0
  0
LINE
  5
2074
330
1F
100
AcDbEntity
  8
上側
100
AcDbLine
 10
278.8369782585088
 20
181.633966605799
 30
0.0
 11
278.8369782585088
 21
177.7556863269873
 31
0.0
  0
LINE
  5
2075
330
1F
100
AcDbEntity
  8
上側
100
AcDbLine
 10
280.0472256488509
 20
176.5063185948823
 30
0.0
 11
289.8369782585088
 21
176.1948264663932
 31
0.0
  0
ARC
  5
2077
330
1F
100
AcDbEntity
  8
上側
100
AcDbCircle
 10
280.0869782585088
 20
181.633966605799
 30
0.0
 40
1.25
100
AcDbArc
 50
91.82243268763283
 51
180.0
1001
GENIUS_GENOBJ-N-FIL_13
1002
{
1000
OWNER
1000
GEN
1002
}
1001
GENIUS_GENODEF_13
1002
{
1000
HIER
1070
     0
1002
}
1002
{
1000
MANEDIT
1070
     0
1002
}
1002
{
1000
NOSEL
1070
     0
1002
}
1002
{
1000
BEHIND
1070
     0
1002
}
1002
{
1000
OTHER
1070
     0
1002
}
1002
{
1000
REACTOR
1002
}
  0
ARC
  5
2078
330
1F
100
AcDbEntity
  8
上側
100
AcDbCircle
 10
280.0869782585088
 20
177.7556863269873
 30
0.0
 40
1.25
100
AcDbArc
 50
180.0
 51
268.1775673123671
1001
GENIUS_GENODEF_13
1002
{
1000
HIER
1070
     0
1002
}
1002
{
1000
MANEDIT
1070
     0
1002
}
1002
{
1000
NOSEL
1070
     0
1002
}
1002
{
1000
BEHIND
1070
     0
1002
}
1002
{
1000
OTHER
1070
     0
1002
}
1002
{
1000
REACTOR
1002
}
1001
GENIUS_GENOBJ-N-FIL_13
1002
{
1000
OWNER
1000
GEN
1002
}
  0
LINE
  5
20AE
330
1F
100
AcDbEntity
  8
TK3
100
AcDbLine
 10
324.4905178488132
 20
252.2948264663932
 30
0.0
 11
321.4114559391273
 21
252.2232203754703
 31
0.0
  0
LINE
  5
20AF
330
1F
100
AcDbEntity
  8
TK3
100
AcDbLine
 10
320.1905178488132
 20
250.9735582589742
 30
0.0
 11
320.1905178488132
 21
242.4160946738122
 31
0.0
  0
LINE
  5
20B0
330
1F
100
AcDbEntity
  8
TK3
100
AcDbLine
 10
321.4114559391273
 20
241.1664325573161
 30
0.0
 11
324.4905178488132
 21
241.0948264663932
 31
0.0
  0
LINE
  5
20B1
330
1F
100
AcDbEntity
  8
TK3
100
AcDbLine
 10
324.4905178488132
 20
241.0948264663932
 30
0.0
 11
324.4905178488132
 21
252.2948264663932
 31
0.0
  0
ARC
  5
20B2
330
1F
100
AcDbEntity
  8
TK3
100
AcDbCircle
 10
321.4405178488132
 20
250.9735582589742
 30
0.0
 40
1.25
100
AcDbArc
 50
91.33221985386954
 51
180.0
1001
GENIUS_GENODEF_13
1002
{
1000
HIER
1070
     0
1002
}
1002
{
1000
MANEDIT
1070
     0
1002
}
1002
{
1000
NOSEL
1070
     0
1002
}
1002
{
1000
BEHIND
1070
     0
1002
}
1002
{
1000
OTHER
1070
     0
1002
}
1002
{
1000
REACTOR
1002
}
1001
GENIUS_GENOBJ-N-FIL_13
1002
{
1000
OWNER
1000
GEN
1002
}
  0
ARC
  5
20B3
330
1F
100
AcDbEntity
  8
TK3
100
AcDbCircle
 10
321.4405178488132
 20
242.4160946738122
 30
0.0
 40
1.25
100
AcDbArc
 50
180.0
 51
268.6677801461304
1001
GENIUS_GENODEF_13
1002
{
1000
HIER
1070
     0
1002
}
1002
{
1000
MANEDIT
1070
     0
1002
}
1002
{
1000
NOSEL
1070
     0
1002
}
1002
{
1000
BEHIND
1070
     0
1002
}
1002
{
1000
OTHER
1070
     0
1002
}
1002
{
1000
REACTOR
1002
}
1001
GENIUS_GENOBJ-N-FIL_13
1002
{
1000
OWNER
1000
GEN
1002
}
  0
LINE
  5
20B4
330
1F
100
AcDbEntity
  8
TK3
100
AcDbLine
 10
324.4905178488132
 20
185.4948264663931
 30
0.0
 11
321.4114559391273
 21
185.4232203754703
 31
0.0
  0
LINE
  5
20B5
330
1F
100
AcDbEntity
  8
TK3
100
AcDbLine
 10
320.1905178488132
 20
184.1735582589742
 30
0.0
 11
320.1905178488132
 21
175.6160946738121
 31
0.0
  0
ARC
  5
20B6
330
1F
100
AcDbEntity
  8
TK3
100
AcDbCircle
 10
321.4405178488132
 20
184.1735582589742
 30
0.0
 40
1.25
100
AcDbArc
 50
91.33221985386954
 51
180.0
1001
GENIUS_GENODEF_13
1002
{
1000
HIER
1070
     0
1002
}
1002
{
1000
MANEDIT
1070
     0
1002
}
1002
{
1000
NOSEL
1070
     0
1002
}
1002
{
1000
BEHIND
1070
     0
1002
}
1002
{
1000
OTHER
1070
     0
1002
}
1002
{
1000
REACTOR
1002
}
1001
GENIUS_GENOBJ-N-FIL_13
1002
{
1000
OWNER
1000
GEN
1002
}
  0
LINE
  5
20B7
330
1F
100
AcDbEntity
  8
TK3
100
AcDbLine
 10
321.4114559391273
 20
174.366432557316
 30
0.0
 11
324.4905178488132
 21
174.2948264663932
 31
0.0
  0
ARC
  5
20B8
330
1F
100
AcDbEntity
  8
TK3
100
AcDbCircle
 10
321.4405178488132
 20
175.6160946738121
 30
0.0
 40
1.25
100
AcDbArc
 50
180.0
 51
268.6677801461304
1001
GENIUS_GENODEF_13
1002
{
1000
HIER
1070
     0
1002
}
1002
{
1000
MANEDIT
1070
     0
1002
}
1002
{
1000
NOSEL
1070
     0
1002
}
1002
{
1000
BEHIND
1070
     0
1002
}
1002
{
1000
OTHER
1070
     0
1002
}
1002
{
1000
REACTOR
1002
}
1001
GENIUS_GENOBJ-N-FIL_13
1002
{
1000
OWNER
1000
GEN
1002
}
  0
LINE
  5
20B9
330
1F
100
AcDbEntity
  8
TK3
100
AcDbLine
 10
324.4905178488132
 20
174.2948264663932
 30
0.0
 11
324.4905178488132
 21
185.4948264663931
 31
0.0
  0
LINE
  5
20BA
330
1F
100
AcDbEntity
  8
AM_7
  6
AM_ISO08W050x2
100
AcDbLine
 10
317.1905178488132
 20
246.6948264663932
 30
0.0
 11
327.4905178488132
 21
246.6948264663932
 31
0.0
1001
GENIUS_GENODEF_13
1002
{
1000
HIER
1070
     0
1002
}
1002
{
1000
MANEDIT
1070
     0
1002
}
1002
{
1000
NOSEL
1070
     0
1002
}
1002
{
1000
BEHIND
1070
     0
1002
}
1002
{
1000
OTHER
1070
     0
1002
}
1002
{
1000
REACTOR
1002
}
1001
GENIUS_GENOBJ-N-CEN_13
1002
{
1000
OWNER
1000
GEN
1002
}
1001
GENIUS_GENCEN_19
1002
{
1040
3.0
1002
}
  0
LINE
  5
20BB
330
1F
100
AcDbEntity
  8
AM_7
  6
AM_ISO08W050x2
100
AcDbLine
 10
317.1905178488132
 20
179.8948264663931
 30
0.0
 11
327.4905178488132
 21
179.8948264663931
 31
0.0
1001
GENIUS_GENODEF_13
1002
{
1000
HIER
1070
     0
1002
}
1002
{
1000
MANEDIT
1070
     0
1002
}
1002
{
1000
NOSEL
1070
     0
1002
}
1002
{
1000
BEHIND
1070
     0
1002
}
1002
{
1000
OTHER
1070
     0
1002
}
1002
{
1000
REACTOR
1002
}
1001
GENIUS_GENOBJ-N-CEN_13
1002
{
1000
OWNER
1000
GEN
1002
}
1001
GENIUS_GENCEN_19
1002
{
1040
3.0
1002
}
  0
LINE
  5
20FB
330
1F
100
AcDbEntity
  8
下側
100
AcDbLine
 10
180.2097006519972
 20
43.10073723431926
 30
0.0
 11
180.2097006519972
 21
33.00073723431925
 31
0.0
  0
LINE
  5
20FC
330
1F
100
AcDbEntity
  8
下側
100
AcDbLine
 10
180.2097006519972
 20
33.00073723431925
 30
0.0
 11
50.20970065199718
 21
33.00073723431925
 31
0.0
  0
LINE
  5
20FD
330
1F
100
AcDbEntity
  8
下側
100
AcDbLine
 10
50.20970065199718
 20
33.00073723431925
 30
0.0
 11
50.20970065199718
 21
43.10073723431926
 31
0.0
  0
LINE
  5
20FE
330
1F
100
AcDbEntity
  8
下側
100
AcDbLine
 10
50.20970065199718
 20
43.10073723431926
 30
0.0
 11
180.2097006519972
 21
43.10073723431926
 31
0.0
  0
LINE
  5
20FF
330
1F
100
AcDbEntity
  8
上側
100
AcDbLine
 10
180.2097006519972
 20
43.90073723431922
 30
0.0
 11
180.2097006519972
 21
47.40073723431922
 31
0.0
  0
LINE
  5
2100
330
1F
100
AcDbEntity
  8
上側
100
AcDbLine
 10
180.2097006519972
 20
47.40073723431922
 30
0.0
 11
50.20970065199718
 21
47.40073723431922
 31
0.0
  0
LINE
  5
2101
330
1F
100
AcDbEntity
  8
上側
100
AcDbLine
 10
50.20970065199718
 20
47.40073723431922
 30
0.0
 11
50.20970065199718
 21
43.90073723431922
 31
0.0
  0
LINE
  5
2102
330
1F
100
AcDbEntity
  8
上側
100
AcDbLine
 10
50.20970065199718
 20
43.90073723431922
 30
0.0
 11
180.2097006519972
 21
43.90073723431922
 31
0.0
  0
LINE
  5
2108
330
1F
100
AcDbEntity
  8
上側
100
AcDbLine
 10
58.2097006519972
 20
47.40073723431922
 30
0.0
 11
60.75197806686347
 21
56.55293592783791
 31
0.0
  0
LINE
  5
2109
330
1F
100
AcDbEntity
  8
上側
100
AcDbLine
 10
62.91989336353084
 20
58.20073723431921
 30
0.0
 11
81.90970065199735
 21
58.20073723431922
 31
0.0
  0
LINE
  5
210A
330
1F
100
AcDbEntity
  8
上側
100
AcDbLine
 10
169.6674232371308
 20
56.55293592783793
 30
0.0
 11
172.2097006519972
 21
47.40073723431922
 31
0.0
  0
ARC
  5
210E
330
1F
100
AcDbEntity
  8
上側
100
AcDbCircle
 10
167.4995079404635
 20
55.95073723431922
 30
0.0
 40
2.25
100
AcDbArc
 50
15.52411099675426
 51
90.0
1001
GENIUS_GENOBJ-N-FIL_13
1002
{
1000
OWNER
1000
GEN
1002
}
1001
GENIUS_GENODEF_13
1002
{
1000
HIER
1070
     0
1002
}
1002
{
1000
MANEDIT
1070
     0
1002
}
1002
{
1000
NOSEL
1070
     0
1002
}
1002
{
1000
BEHIND
1070
     0
1002
}
1002
{
1000
OTHER
1070
     0
1002
}
1002
{
1000
REACTOR
1002
}
  0
ARC
  5
210F
330
1F
100
AcDbEntity
  8
上側
100
AcDbCircle
 10
62.91989336353084
 20
55.9507372343192
 30
0.0
 40
2.25
100
AcDbArc
 50
90.00000000000003
 51
164.4758890032458
1001
GENIUS_GENODEF_13
1002
{
1000
HIER
1070
     0
1002
}
1002
{
1000
MANEDIT
1070
     0
1002
}
1002
{
1000
NOSEL
1070
     0
1002
}
1002
{
1000
BEHIND
1070
     0
1002
}
1002
{
1000
OTHER
1070
     0
1002
}
1002
{
1000
REACTOR
1002
}
1001
GENIUS_GENOBJ-N-FIL_13
1002
{
1000
OWNER
1000
GEN
1002
}
  0
LINE
  5
2110
330
1F
100
AcDbEntity
  8
下側
100
AcDbLine
 10
56.10970065199719
 20
27.00073723431922
 30
0.0
 11
56.10970065199719
 21
33.00073723431925
 31
0.0
  0
LINE
  5
2111
330
1F
100
AcDbEntity
  8
下側
100
AcDbLine
 10
174.3097006519972
 20
27.00073723431923
 30
0.0
 11
174.3097006519972
 21
33.00073723431925
 31
0.0
  0
LINE
  5
2115
330
1F
100
AcDbEntity
  8
下側0
100
AcDbLine
 10
172.7097006519972
 20
27.00073723431923
 30
0.0
 11
172.7097006519972
 21
43.10073723431926
 31
0.0
  0
LINE
  5
2117
330
1F
100
AcDbEntity
  8
下側0
100
AcDbLine
 10
57.70970065199719
 20
27.00073723431922
 30
0.0
 11
57.70970065199719
 21
43.10073723431926
 31
0.0
  0
LINE
  5
2119
330
1F
100
AcDbEntity
  8
下側
100
AcDbLine
 10
56.1097006519972
 20
27.00073723431922
 30
0.0
 11
174.3097006519972
 21
27.00073723431922
 31
0.0
  0
LINE
  5
211F
330
1F
100
AcDbEntity
  8
ｶﾞｽｹｯﾄ
100
AcDbLine
 10
52.10970065199719
 20
32.60073723431919
 30
0.0
 11
52.10970065199719
 21
33.00073723431925
 31
0.0
  0
LINE
  5
2120
330
1F
100
AcDbEntity
  8
ｶﾞｽｹｯﾄ
100
AcDbLine
 10
178.3097006519972
 20
32.60073723431939
 30
0.0
 11
178.3097006519972
 21
33.00073723431925
 31
0.0
  0
LINE
  5
2121
330
1F
100
AcDbEntity
  8
ｶﾞｽｹｯﾄ
100
AcDbLine
 10
176.3097006519972
 20
30.60073723431918
 30
0.0
 11
174.3097006519972
 21
30.60073723431918
 31
0.0
  0
ARC
  5
2123
330
1F
100
AcDbEntity
  8
ｶﾞｽｹｯﾄ
100
AcDbCircle
 10
176.3097006519972
 20
32.60073723431941
 30
0.0
 40
2.0
100
AcDbArc
 50
269.9999999999992
 51
359.9999999999992
1001
GENIUS_GENOBJ-N-FIL_13
1002
{
1000
OWNER
1000
GEN
1002
}
1001
GENIUS_GENODEF_13
1002
{
1000
HIER
1070
     0
1002
}
1002
{
1000
MANEDIT
1070
     0
1002
}
1002
{
1000
NOSEL
1070
     0
1002
}
1002
{
1000
BEHIND
1070
     0
1002
}
1002
{
1000
OTHER
1070
     0
1002
}
1002
{
1000
REACTOR
1002
}
  0
ARC
  5
2124
330
1F
100
AcDbEntity
  8
ｶﾞｽｹｯﾄ
100
AcDbCircle
 10
54.10970065199721
 20
32.60073723431919
 30
0.0
 40
2.0
100
AcDbArc
 50
180.0
 51
269.9999999999996
1001
GENIUS_GENOBJ-N-FIL_13
1002
{
1000
OWNER
1000
GEN
1002
}
1001
GENIUS_GENODEF_13
1002
{
1000
HIER
1070
     0
1002
}
1002
{
1000
MANEDIT
1070
     0
1002
}
1002
{
1000
NOSEL
1070
     0
1002
}
1002
{
1000
BEHIND
1070
     0
1002
}
1002
{
1000
OTHER
1070
     0
1002
}
1002
{
1000
REACTOR
1002
}
  0
LINE
  5
2125
330
1F
100
AcDbEntity
  8
ｶﾞｽｹｯﾄ
100
AcDbLine
 10
56.10970065199719
 20
30.60073723431917
 30
0.0
 11
54.1097006519972
 21
30.60073723431918
 31
0.0
  0
LINE
  5
2129
330
1F
100
AcDbEntity
  8
上側
100
AcDbLine
 10
142.2097006519972
 20
58.40073723431922
 30
0.0
 11
148.487478429775
 21
58.40073723431922
 31
0.0
  0
LINE
  5
212A
330
1F
100
AcDbEntity
  8
上側
100
AcDbLine
 10
140.2097006519972
 20
56.40073723431922
 30
0.0
 11
140.2097006519972
 21
47.40073723431923
 31
0.0
  0
ARC
  5
212F
330
1F
100
AcDbEntity
  8
上側
100
AcDbCircle
 10
142.2097006519972
 20
56.40073723431925
 30
0.0
 40
2.0
100
AcDbArc
 50
90.00000000000079
 51
180.0000000000007
1001
GENIUS_GENODEF_13
1002
{
1000
HIER
1070
     0
1002
}
1002
{
1000
MANEDIT
1070
     0
1002
}
1002
{
1000
NOSEL
1070
     0
1002
}
1002
{
1000
BEHIND
1070
     0
1002
}
1002
{
1000
OTHER
1070
     0
1002
}
1002
{
1000
REACTOR
1002
}
1001
GENIUS_GENOBJ-N-FIL_13
1002
{
1000
OWNER
1000
GEN
1002
}
  0
LINE
  5
2131
330
1F
100
AcDbEntity
  8
上側
100
AcDbLine
 10
146.2097006519972
 20
56.40073723431922
 30
0.0
 11
147.2097006519972
 21
56.40073723431921
 31
0.0
  0
LINE
  5
213D
330
1F
100
AcDbEntity
  8
上側
100
AcDbLine
 10
148.487478429775
 20
58.40073723431922
 30
0.0
 11
149.7097006519972
 21
47.40073723431922
 31
0.0
  0
LINE
  5
213F
330
1F
100
AcDbEntity
  8
上側
100
AcDbLine
 10
147.2004697956409
 20
56.40073723431922
 30
0.0
 11
148.2097006519972
 21
47.31765952711252
 31
0.0
  0
LINE
  5
214A
330
1F
100
AcDbEntity
  8
上側
100
AcDbLine
 10
146.2097006519972
 20
47.40073723431923
 30
0.0
 11
146.2097006519972
 21
56.40073723431922
 31
0.0
  0
LINE
  5
214C
330
1F
100
AcDbEntity
  8
上側
100
AcDbLine
 10
148.5097006519972
 20
58.20073723431923
 30
0.0
 11
167.4995079404635
 21
58.20073723431922
 31
0.0
  0
LINE
  5
2158
330
1F
100
AcDbEntity
  8
下側
100
AcDbLine
 10
126.7097006519972
 20
43.10073723431926
 30
0.0
 11
126.6706029076362
 21
43.90073723431924
 31
0.0
  0
LINE
  5
2159
330
1F
100
AcDbEntity
  8
下側
100
AcDbLine
 10
123.678897271248
 20
56.40073723431928
 30
0.0
 11
122.7405040327464
 21
56.40073723431926
 31
0.0
  0
LINE
  5
215A
330
1F
100
AcDbEntity
  8
下側
100
AcDbLine
 10
120.2434843075678
 20
54.02277203291823
 30
0.0
 11
119.919851027937
 21
47.40073723431923
 31
0.0
  0
ARC
  5
215B
330
1F
100
AcDbEntity
  8
下側
100
AcDbCircle
 10
122.7405040327464
 20
53.90073723431926
 30
0.0
 40
2.5
100
AcDbArc
 50
90.0
 51
177.2020565275035
1001
GENIUS_GENOBJ-N-FIL_13
1002
{
1000
OWNER
1000
GEN
1002
}
1001
GENIUS_GENODEF_13
1002
{
1000
HIER
1070
     0
1002
}
1002
{
1000
MANEDIT
1070
     0
1002
}
1002
{
1000
NOSEL
1070
     0
1002
}
1002
{
1000
BEHIND
1070
     0
1002
}
1002
{
1000
OTHER
1070
     0
1002
}
1002
{
1000
REACTOR
1002
}
  0
ARC
  5
215C
330
1F
100
AcDbEntity
  8
下側
100
AcDbCircle
 10
123.678897271248
 20
53.90073723431928
 30
0.0
 40
2.5
100
AcDbArc
 50
2.797943472496426
 51
90.0
1001
GENIUS_GENODEF_13
1002
{
1000
HIER
1070
     0
1002
}
1002
{
1000
MANEDIT
1070
     0
1002
}
1002
{
1000
NOSEL
1070
     0
1002
}
1002
{
1000
BEHIND
1070
     0
1002
}
1002
{
1000
OTHER
1070
     0
1002
}
1002
{
1000
REACTOR
1002
}
1001
GENIUS_GENOBJ-N-FIL_13
1002
{
1000
OWNER
1000
GEN
1002
}
  0
LINE
  5
215E
330
1F
100
AcDbEntity
  8
下側
100
AcDbLine
 10
125.4112503949043
 20
43.03727913904781
 30
0.0
 11
125.3690513150602
 21
43.90073723431924
 31
0.0
  0
ARC
  5
215F
330
1F
100
AcDbEntity
  8
下側
100
AcDbCircle
 10
123.678897271248
 20
53.90073723431928
 30
0.0
 40
1.199999999999999
100
AcDbArc
 50
2.797943472496426
 51
90.0
1001
GENIUS_GENODEF_13
1002
{
1000
HIER
1070
     0
1002
}
1002
{
1000
MANEDIT
1070
     0
1002
}
1002
{
1000
NOSEL
1070
     0
1002
}
1002
{
1000
BEHIND
1070
     0
1002
}
1002
{
1000
OTHER
1070
     0
1002
}
1002
{
1000
REACTOR
1002
}
1001
GENIUS_GENOBJ-N-FIL_13
1002
{
1000
OWNER
1000
GEN
1002
}
  0
LINE
  5
2160
330
1F
100
AcDbEntity
  8
下側
100
AcDbLine
 10
123.678897271248
 20
55.10073723431928
 30
0.0
 11
122.7405040327464
 21
55.10073723431927
 31
0.0
  0
ARC
  5
2161
330
1F
100
AcDbEntity
  8
下側
100
AcDbCircle
 10
122.7405040327464
 20
53.90073723431926
 30
0.0
 40
1.199999999999999
100
AcDbArc
 50
90.0
 51
177.2020565275035
1001
GENIUS_GENOBJ-N-FIL_13
1002
{
1000
OWNER
1000
GEN
1002
}
1001
GENIUS_GENODEF_13
1002
{
1000
HIER
1070
     0
1002
}
1002
{
1000
MANEDIT
1070
     0
1002
}
1002
{
1000
NOSEL
1070
     0
1002
}
1002
{
1000
BEHIND
1070
     0
1002
}
1002
{
1000
OTHER
1070
     0
1002
}
1002
{
1000
REACTOR
1002
}
  0
LINE
  5
2162
330
1F
100
AcDbEntity
  8
下側
100
AcDbLine
 10
121.5419345646607
 20
53.95931393764676
 30
0.0
 11
121.2214026205131
 21
47.40073723431923
 31
0.0
  0
LINE
  5
2164
330
1F
100
AcDbEntity
  8
下側
100
AcDbLine
 10
126.7097006519972
 20
182.7948264663931
 30
0.0
 11
126.7097006519972
 21
178.7948264663931
 31
0.0
  0
LINE
  5
2168
330
1F
100
AcDbEntity
  8
下側
100
AcDbLine
 10
126.4995502760573
 20
47.40073723431923
 30
0.0
 11
126.1759169964265
 21
54.02277203291824
 31
0.0
  0
LINE
  5
2169
330
1F
100
AcDbEntity
  8
下側
100
AcDbLine
 10
125.1979986834812
 20
47.40073723431923
 30
0.0
 11
124.8774667393337
 21
53.95931393764678
 31
0.0
  0
LINE
  5
216A
330
1F
100
AcDbEntity
  8
下側
100
AcDbLine
 10
121.0503499889341
 20
43.90073723431922
 30
0.0
 11
121.00815090909
 21
43.03727913904781
 31
0.0
  0
LINE
  5
216B
330
1F
100
AcDbEntity
  8
下側
100
AcDbLine
 10
119.7487983963581
 20
43.90073723431922
 30
0.0
 11
119.7097006519971
 21
43.10073723431926
 31
0.0
  0
LINE
  5
216C
330
1F
100
AcDbEntity
  8
上側
100
AcDbLine
 10
88.2097006519973
 20
58.40073723431912
 30
0.0
 11
81.93192287421956
 21
58.40073723431911
 31
0.0
  0
LINE
  5
216D
330
1F
100
AcDbEntity
  8
上側
100
AcDbLine
 10
90.20970065199731
 20
56.40073723431914
 30
0.0
 11
90.20970065199733
 21
47.40073723431915
 31
0.0
  0
LINE
  5
216E
330
1F
100
AcDbEntity
  8
上側
100
AcDbLine
 10
84.20970065199734
 20
47.40073723431912
 30
0.0
 11
84.2097006519973
 21
56.4007372343191
 31
0.0
  0
ARC
  5
216F
330
1F
100
AcDbEntity
  8
上側
100
AcDbCircle
 10
88.20970065199729
 20
56.40073723431915
 30
0.0
 40
2.0
100
AcDbArc
 50
359.9999999999994
 51
90.0
1001
GENIUS_GENODEF_13
1002
{
1000
HIER
1070
     0
1002
}
1002
{
1000
MANEDIT
1070
     0
1002
}
1002
{
1000
NOSEL
1070
     0
1002
}
1002
{
1000
BEHIND
1070
     0
1002
}
1002
{
1000
OTHER
1070
     0
1002
}
1002
{
1000
REACTOR
1002
}
1001
GENIUS_GENOBJ-N-FIL_13
1002
{
1000
OWNER
1000
GEN
1002
}
  0
LINE
  5
2170
330
1F
100
AcDbEntity
  8
上側
100
AcDbLine
 10
84.2097006519973
 20
56.4007372343191
 30
0.0
 11
83.20970065199734
 21
56.4007372343191
 31
0.0
  0
LINE
  5
2173
330
1F
100
AcDbEntity
  8
上側
100
AcDbLine
 10
81.93192287421956
 20
58.40073723431911
 30
0.0
 11
80.70970065199736
 21
47.40073723431909
 31
0.0
  0
LINE
  5
2174
330
1F
100
AcDbEntity
  8
上側
100
AcDbLine
 10
83.21893150835364
 20
56.4007372343191
 30
0.0
 11
82.20970065199736
 21
47.31765952711241
 31
0.0
  0
LINE
  5
2175
330
1F
100
AcDbEntity
  8
上側
100
AcDbLine
 10
89.08148044070527
 20
58.20073723431922
 30
0.0
 11
141.3379208632891
 21
58.20073723431924
 31
0.0
  0
LWPOLYLINE
  5
21E8
330
1F
100
AcDbEntity
  8
上側
100
AcDbPolyline
 90
        8
 70
     1
 43
0.0
 10
239.181178235743
 20
67.87185019315692
 10
354.1811782357431
 20
67.87185019315692
 42
0.4142135623730948
 10
357.1811782357431
 20
70.87185019315692
 10
357.1811782357432
 20
119.8718501931569
 42
0.4142135623730953
 10
354.1811782357432
 20
122.8718501931569
 10
239.1811782357431
 20
122.8718501931569
 42
0.414213562373095
 10
236.1811782357432
 20
119.8718501931569
 10
236.1811782357431
 20
70.87185019315692
 42
0.4142135623730953
1001
GENIUS_GENREC_14
1002
{
1000
PYDIR
1011
236.1811782357431
1021
122.8718501931569
1031
0.0
1002
}
1002
{
1000
PXDIR
1011
357.1811782357431
1021
67.87185019315692
1031
0.0
1002
}
1002
{
1000
PORI
1011
236.1811782357431
1021
67.87185019315692
1031
0.0
1002
}
1002
{
1000
PINS
1011
296.6811782357431
1021
95.37185019315689
1031
0.0
1002
}
1002
{
1000
HVAL
1000
54
1002
}
1002
{
1000
H
1070
     2
1002
}
1002
{
1000
WVAL
1000
119
1002
}
1002
{
1000
W
1070
     2
1002
}
1002
{
1000
C
1070
     4
1002
}
1001
GENIUS_GENODEF_13
1002
{
1000
HIER
1070
     0
1002
}
1002
{
1000
MANEDIT
1070
     0
1002
}
1002
{
1000
NOSEL
1070
     0
1002
}
1002
{
1000
BEHIND
1070
     0
1002
}
1002
{
1000
OTHER
1070
     0
1002
}
1002
{
1000
REACTOR
1002
}
1001
GENIUS_GENOBJ-N-REC_13
1002
{
1000
OWNER
1000
GEN
1002
}
  0
CIRCLE
  5
21F7
330
1F
100
AcDbEntity
  8
上側
100
AcDbCircle
 10
353.6811782357431
 20
128.8718501931569
 30
0.0
 40
1.75
  0
LINE
  5
21F9
330
1F
100
AcDbEntity
  8
AM_7
  6
AM_ISO08W050x2
100
AcDbLine
 10
353.6811782357431
 20
128.8718501931569
 30
0.0
 11
357.6234462087962
 21
128.8718501931569
 31
0.0
1001
GENIUS_GENOREF_13
1005
21FD
  0
LINE
  5
21FA
330
1F
100
AcDbEntity
  8
AM_7
  6
AM_ISO08W050x2
100
AcDbLine
 10
353.6811782357431
 20
128.8718501931569
 30
0.0
 11
353.6811782357431
 21
132.8141181662099
 31
0.0
1001
GENIUS_GENOREF_13
1005
21FD
  0
LINE
  5
21FB
330
1F
100
AcDbEntity
  8
AM_7
  6
AM_ISO08W050x2
100
AcDbLine
 10
353.6811782357431
 20
128.8718501931569
 30
0.0
 11
349.7389102626901
 21
128.8718501931569
 31
0.0
1001
GENIUS_GENOREF_13
1005
21FD
  0
LINE
  5
21FC
330
1F
100
AcDbEntity
  8
AM_7
  6
AM_ISO08W050x2
100
AcDbLine
 10
353.6811782357431
 20
128.8718501931569
 30
0.0
 11
353.6811782357431
 21
124.9295822201038
 31
0.0
1001
GENIUS_GENOREF_13
1005
21FD
  0
POINT
  5
21FD
330
1F
100
AcDbEntity
  8
0
 60
     1
100
AcDbPoint
 10
0.0
 20
0.0
 30
0.0
1001
GENIUS_GENODEF_13
1002
{
1000
HIER
1070
    10
1002
}
1002
{
1000
MANEDIT
1070
     0
1002
}
1002
{
1000
NOSEL
1070
     0
1002
}
1002
{
1000
BEHIND
1070
     0
1002
}
1002
{
1000
OTHER
1070
     0
1002
}
1002
{
1000
REACTOR
1002
}
1001
GENIUS_GENOBJ-N-CRS_13
1002
{
1000
OWNER
1000
GEN
1002
}
1001
GENIUS_GENOLIS_13
1002
{
1000
ENT
1005
21FC
1005
21FB
1005
21FA
1005
21F9
1002
}
1001
GENIUS_GENOENT_13
1002
{
1000
MYREF
1005
21FD
1002
}
1002
{
1000
GRP
1005
0
1002
}
  0
CIRCLE
  5
2200
330
1F
100
AcDbEntity
  8
上側
100
AcDbCircle
 10
239.6811782357431
 20
128.8718501931569
 30
0.0
 40
1.75
  0
LINE
  5
2201
330
1F
100
AcDbEntity
  8
AM_7
  6
AM_ISO08W050x2
100
AcDbLine
 10
239.6811782357431
 20
128.8718501931569
 30
0.0
 11
235.7389102626901
 21
128.8718501931569
 31
0.0
1001
GENIUS_GENOREF_13
1005
2205
  0
LINE
  5
2202
330
1F
100
AcDbEntity
  8
AM_7
  6
AM_ISO08W050x2
100
AcDbLine
 10
239.6811782357431
 20
128.8718501931569
 30
0.0
 11
239.6811782357431
 21
132.8141181662099
 31
0.0
1001
GENIUS_GENOREF_13
1005
2205
  0
LINE
  5
2203
330
1F
100
AcDbEntity
  8
AM_7
  6
AM_ISO08W050x2
100
AcDbLine
 10
239.6811782357431
 20
128.8718501931569
 30
0.0
 11
243.6234462087962
 21
128.8718501931569
 31
0.0
1001
GENIUS_GENOREF_13
1005
2205
  0
LINE
  5
2204
330
1F
100
AcDbEntity
  8
AM_7
  6
AM_ISO08W050x2
100
AcDbLine
 10
239.6811782357431
 20
128.8718501931569
 30
0.0
 11
239.6811782357431
 21
124.9295822201038
 31
0.0
1001
GENIUS_GENOREF_13
1005
2205
  0
POINT
  5
2205
330
1F
100
AcDbEntity
  8
0
 60
     1
100
AcDbPoint
 10
593.3623564714862
 20
0.0
 30
0.0
 50
180.0
1001
GENIUS_GENODEF_13
1002
{
1000
HIER
1070
    10
1002
}
1002
{
1000
MANEDIT
1070
     0
1002
}
1002
{
1000
NOSEL
1070
     0
1002
}
1002
{
1000
BEHIND
1070
     0
1002
}
1002
{
1000
OTHER
1070
     0
1002
}
1002
{
1000
REACTOR
1002
}
1001
GENIUS_GENOBJ-N-CRS_13
1002
{
1000
OWNER
1000
GEN
1002
}
1001
GENIUS_GENOLIS_13
1002
{
1000
ENT
1005
2204
1005
2203
1005
2202
1005
2201
1002
}
1001
GENIUS_GENOENT_13
1002
{
1000
MYREF
1005
2205
1002
}
1002
{
1000
GRP
1005
0
1002
}
  0
CIRCLE
  5
2208
330
1F
100
AcDbEntity
  8
上側
100
AcDbCircle
 10
353.6811782357431
 20
61.87185019315688
 30
0.0
 40
1.75
  0
LINE
  5
2209
330
1F
100
AcDbEntity
  8
AM_7
  6
AM_ISO08W050x2
100
AcDbLine
 10
353.6811782357431
 20
61.87185019315688
 30
0.0
 11
357.6234462087962
 21
61.87185019315688
 31
0.0
1001
GENIUS_GENOREF_13
1005
2215
  0
LINE
  5
220A
330
1F
100
AcDbEntity
  8
AM_7
  6
AM_ISO08W050x2
100
AcDbLine
 10
353.6811782357431
 20
61.87185019315688
 30
0.0
 11
353.6811782357431
 21
57.92958222010383
 31
0.0
1001
GENIUS_GENOREF_13
1005
2215
  0
LINE
  5
220B
330
1F
100
AcDbEntity
  8
AM_7
  6
AM_ISO08W050x2
100
AcDbLine
 10
353.6811782357431
 20
61.87185019315688
 30
0.0
 11
349.7389102626901
 21
61.87185019315688
 31
0.0
1001
GENIUS_GENOREF_13
1005
2215
  0
LINE
  5
220C
330
1F
100
AcDbEntity
  8
AM_7
  6
AM_ISO08W050x2
100
AcDbLine
 10
353.6811782357431
 20
61.87185019315688
 30
0.0
 11
353.6811782357431
 21
65.81411816620994
 31
0.0
1001
GENIUS_GENOREF_13
1005
2215
  0
CIRCLE
  5
220F
330
1F
100
AcDbEntity
  8
上側
100
AcDbCircle
 10
239.6811782357431
 20
61.87185019315688
 30
0.0
 40
1.75
  0
LINE
  5
2210
330
1F
100
AcDbEntity
  8
AM_7
  6
AM_ISO08W050x2
100
AcDbLine
 10
239.6811782357431
 20
61.87185019315688
 30
0.0
 11
235.7389102626901
 21
61.87185019315688
 31
0.0
1001
GENIUS_GENOREF_13
1005
2214
  0
LINE
  5
2211
330
1F
100
AcDbEntity
  8
AM_7
  6
AM_ISO08W050x2
100
AcDbLine
 10
239.6811782357431
 20
61.87185019315688
 30
0.0
 11
239.6811782357431
 21
57.92958222010383
 31
0.0
1001
GENIUS_GENOREF_13
1005
2214
  0
LINE
  5
2212
330
1F
100
AcDbEntity
  8
AM_7
  6
AM_ISO08W050x2
100
AcDbLine
 10
239.6811782357431
 20
61.87185019315688
 30
0.0
 11
243.6234462087962
 21
61.87185019315688
 31
0.0
1001
GENIUS_GENOREF_13
1005
2214
  0
LINE
  5
2213
330
1F
100
AcDbEntity
  8
AM_7
  6
AM_ISO08W050x2
100
AcDbLine
 10
239.6811782357431
 20
61.87185019315688
 30
0.0
 11
239.6811782357431
 21
65.81411816620994
 31
0.0
1001
GENIUS_GENOREF_13
1005
2214
  0
POINT
  5
2214
330
1F
100
AcDbEntity
  8
0
 60
     1
100
AcDbPoint
 10
593.3623564714862
 20
208.8022110194424
 30
0.0
 50
180.0
1001
GENIUS_GENODEF_13
1002
{
1000
HIER
1070
    10
1002
}
1002
{
1000
MANEDIT
1070
     0
1002
}
1002
{
1000
NOSEL
1070
     0
1002
}
1002
{
1000
BEHIND
1070
     0
1002
}
1002
{
1000
OTHER
1070
     0
1002
}
1002
{
1000
REACTOR
1002
}
1001
GENIUS_GENOBJ-N-CRS_13
1002
{
1000
OWNER
1000
GEN
1002
}
1001
GENIUS_GENOLIS_13
1002
{
1000
ENT
1005
2213
1005
2212
1005
2211
1005
2210
1002
}
1001
GENIUS_GENOENT_13
1002
{
1000
MYREF
1005
2214
1002
}
1002
{
1000
GRP
1005
0
1002
}
  0
POINT
  5
2215
330
1F
100
AcDbEntity
  8
0
 60
     1
100
AcDbPoint
 10
0.0
 20
208.8022110194424
 30
0.0
1001
GENIUS_GENODEF_13
1002
{
1000
HIER
1070
    10
1002
}
1002
{
1000
MANEDIT
1070
     0
1002
}
1002
{
1000
NOSEL
1070
     0
1002
}
1002
{
1000
BEHIND
1070
     0
1002
}
1002
{
1000
OTHER
1070
     0
1002
}
1002
{
1000
REACTOR
1002
}
1001
GENIUS_GENOBJ-N-CRS_13
1002
{
1000
OWNER
1000
GEN
1002
}
1001
GENIUS_GENOLIS_13
1002
{
1000
ENT
1005
220C
1005
220B
1005
220A
1005
2209
1002
}
1001
GENIUS_GENOENT_13
1002
{
1000
MYREF
1005
2215
1002
}
1002
{
1000
GRP
1005
0
1002
}
  0
MTEXT
  5
2216
330
1F
100
AcDbEntity
  8
上側
100
AcDbMText
 10
235.502717628292
 20
159.5130855620584
 30
0.0
 40
5.0
 41
50.76902505786438
 71
     1
 72
     5
  1
取付穴寸法
 73
     1
 44
1.0
1001
ACAD
1000
MTEXTBEGIN
1070
    73
1070
     1
1070
    44
1040
1.0
1070
    74
1070
     0
1000
MTEXTEND
  0
LINE
  5
2217
330
1F
100
AcDbEntity
  8
AM_7
100
AcDbLine
 10
296.6811782357431
 20
125.3718501931569
 30
0.0
 11
296.6811782357431
 21
65.3718501931569
 31
0.0
1001
GENIUS_GENODEF_13
1002
{
1000
HIER
1070
     0
1002
}
1002
{
1000
MANEDIT
1070
     0
1002
}
1002
{
1000
NOSEL
1070
     0
1002
}
1002
{
1000
BEHIND
1070
     0
1002
}
1002
{
1000
OTHER
1070
     0
1002
}
1002
{
1000
REACTOR
1002
}
1001
GENIUS_GENOBJ-N-CEN_13
1002
{
1000
OWNER
1000
GEN
1002
}
1001
GENIUS_GENCEN_19
1002
{
1040
3.0
1002
}
  0
LINE
  5
2218
330
1F
100
AcDbEntity
  8
AM_7
100
AcDbLine
 10
233.1811782357431
 20
95.37185019315691
 30
0.0
 11
360.1811782357431
 21
95.37185019315693
 31
0.0
1001
GENIUS_GENOBJ-N-CEN_13
1002
{
1000
OWNER
1000
GEN
1002
}
1001
GENIUS_GENODEF_13
1002
{
1000
HIER
1070
     0
1002
}
1002
{
1000
MANEDIT
1070
     0
1002
}
1002
{
1000
NOSEL
1070
     0
1002
}
1002
{
1000
BEHIND
1070
     0
1002
}
1002
{
1000
OTHER
1070
     0
1002
}
1002
{
1000
REACTOR
1002
}
1001
GENIUS_GENCEN_19
1002
{
1040
3.0
1002
}
  0
LINE
  5
22B0
330
1F
100
AcDbEntity
  8
AM_7
100
AcDbLine
 10
115.2097006519972
 20
244.7948264663931
 30
0.0
 11
115.2097006519972
 21
184.7948264663931
 31
0.0
1001
GENIUS_GENODEF_13
1002
{
1000
HIER
1070
     0
1002
}
1002
{
1000
MANEDIT
1070
     0
1002
}
1002
{
1000
NOSEL
1070
     0
1002
}
1002
{
1000
BEHIND
1070
     0
1002
}
1002
{
1000
OTHER
1070
     0
1002
}
1002
{
1000
REACTOR
1002
}
1001
GENIUS_GENOBJ-N-CEN_13
1002
{
1000
OWNER
1000
GEN
1002
}
1001
GENIUS_GENCEN_19
1002
{
1040
3.0
1002
}
  0
CIRCLE
  5
2715
330
1F
100
AcDbEntity
  8
下側0
100
AcDbCircle
 10
58.30970065199719
 20
248.2948264663932
 30
0.0
 40
1.199999999999999
  0
CIRCLE
  5
2716
330
1F
100
AcDbEntity
  8
下側0
100
AcDbCircle
 10
58.30970065199719
 20
248.2948264663932
 30
0.0
 40
2.399999999999999
  0
DIMENSION
  5
2745
330
1F
100
AcDbEntity
  8
AM_5
100
AcDbDimension
  2
*D11
 10
180.2097006519972
 20
268.8513808491482
 30
0.0
 11
115.2097006519972
 21
272.1013808491482
 31
0.0
 70
    32
 71
     5
 42
130.0
  3
AM_ISO$0
100
AcDbAlignedDimension
 13
50.20970065199719
 23
251.2948264663932
 33
0.0
 14
180.2097006519972
 24
251.2948264663931
 34
0.0
100
AcDbRotatedDimension
1001
ACAD_DSTYLE_DIMINSPECT
1070
   396
1000
100%
1070
   395
1000

1070
   394
1070
    33
1070
   393
1070
     0
  0
DIMENSION
  5
276D
330
1F
100
AcDbEntity
  8
AM_5
100
AcDbDimension
  2
*D12
 10
23.77583818231429
 20
175.7948264663931
 30
0.0
 11
20.52583818231426
 21
214.0448264663931
 31
0.0
 70
    32
 71
     5
 42
76.50000000000003
  3
AM_ISO$0
100
AcDbAlignedDimension
 13
51.2097006519972
 23
252.2948264663932
 33
0.0
 14
60.20970065199718
 24
175.7948264663931
 34
0.0
 50
90.00000000000003
100
AcDbRotatedDimension
1001
ACAD_DSTYLE_DIMINSPECT
1070
   396
1000
100%
1070
   395
1000

1070
   394
1070
    33
1070
   393
1070
     0
  0
DIMENSION
  5
278C
330
1F
100
AcDbEntity
  8
AM_5
100
AcDbDimension
  2
*D13
 10
279.0369782585088
 20
263.2948264663931
 30
0.0
 11
291.6369782585087
 21
266.5451709545822
 31
0.0
 70
    32
  1
25
 71
     5
 42
25.19999999999999
  3
AM_ISO$0
100
AcDbAlignedDimension
 13
304.2369782585088
 23
252.2948264663932
 33
0.0
 14
279.0369782585088
 24
235.2959478132815
 34
0.0
100
AcDbRotatedDimension
1001
ACAD_DSTYLE_DIMINSPECT
1070
   396
1000
100%
1070
   395
1000

1070
   394
1070
    33
1070
   393
1070
     0
  0
DIMENSION
  5
27DB
330
1F
100
AcDbEntity
  8
AM_5
100
AcDbDimension
  2
*D14
 10
357.1811782357432
 20
147.3184743288152
 30
0.0
 11
296.6811782357432
 21
150.5688188170042
 31
0.0
 70
    32
 71
     5
 42
121.0
  3
AM_ISO$0
100
AcDbAlignedDimension
 13
236.1811782357432
 23
119.8718501931569
 33
0.0
 14
357.1811782357432
 24
119.8718501931569
 34
0.0
100
AcDbRotatedDimension
1001
ACAD_DSTYLE_DIMINSPECT
1070
   396
1000
100%
1070
   395
1000

1070
   394
1070
    33
1070
   393
1070
     0
  0
DIMENSION
  5
27FA
330
1F
100
AcDbEntity
  8
AM_5
100
AcDbDimension
  2
*D15
 10
353.6811782357431
 20
139.0728949883548
 30
0.0
 11
296.6811782357431
 21
142.3228949883548
 31
0.0
 70
    32
 71
     5
 42
114.0
  3
AM_ISO$0
100
AcDbAlignedDimension
 13
239.6811782357431
 23
132.8141181662099
 33
0.0
 14
353.6811782357431
 24
132.8141181662099
 34
0.0
100
AcDbRotatedDimension
1001
ACAD_DSTYLE_DIMINSPECT
1070
   396
1000
100%
1070
   395
1000

1070
   394
1070
    33
1070
   393
1070
     0
  0
DIMENSION
  5
2819
330
1F
100
AcDbEntity
  8
AM_5
100
AcDbDimension
  2
*D16
 10
381.625093528819
 20
61.87185019315688
 30
0.0
 11
378.375093528819
 21
95.37185019315694
 31
0.0
 70
    32
 71
     5
 42
67.0
  3
AM_ISO$0
100
AcDbAlignedDimension
 13
357.6234462087962
 23
128.8718501931569
 33
0.0
 14
357.6234462087962
 24
61.87185019315688
 34
0.0
 50
90.00000000000003
100
AcDbRotatedDimension
1001
ACAD_DSTYLE_DIMINSPECT
1070
   396
1000
100%
1070
   395
1000

1070
   394
1070
    33
1070
   393
1070
     0
  0
DIMENSION
  5
2838
330
1F
100
AcDbEntity
  8
AM_5
100
AcDbDimension
  2
*D17
 10
369.1811792457432
 20
67.87185019315692
 30
0.0
 11
365.9311792457432
 21
95.37185019315698
 31
0.0
 70
    32
 71
     5
 42
55.00000000000001
  3
AM_ISO$0
100
AcDbAlignedDimension
 13
354.1811782357432
 23
122.8718501931569
 33
0.0
 14
354.1811782357432
 24
67.87185019315692
 34
0.0
 50
90.00000000000003
100
AcDbRotatedDimension
1001
ACAD_DSTYLE_DIMINSPECT
1070
   396
1000
100%
1070
   395
1000

1070
   394
1070
    33
1070
   393
1070
     0
  0
DIMENSION
  5
28C8
330
1F
100
AcDbEntity
  8
AM_5
100
AcDbDimension
  2
*D18
 10
353.0865010043607
 20
127.2259890232901
 30
0.0
 11
368.7205402440169
 21
147.7386045756643
 31
0.0
 70
   163
  1
4-<>
 71
     5
 42
3.5
  3
AM_ISO$3
100
AcDbDiametricDimension
 15
354.2758554671256
 25
130.5177113630236
 35
0.0
 40
0.0
1001
ACAD_DSTYLE_DIMRADIAL_EXTENSION
1070
   387
1070
     1
1070
   388
1040
0.0
1070
   390
1040
0.0
1001
ACAD_DSTYLE_DIMINSPECT
1070
   396
1000
100%
1070
   395
1000

1070
   394
1070
    33
1070
   393
1070
     0
  0
DIMENSION
  5
293E
330
1F
100
AcDbEntity
  8
AM_5
100
AcDbDimension
  2
*D19
 10
354.1811782357433
 20
119.8718501931569
 30
0.0
 11
368.4063963077369
 21
136.0935111039641
 31
0.0
 70
   164
  1
4-<>
 71
     5
 42
2.999999999999886
  3
AM_ISO$4
100
AcDbRadialDimension
 15
356.1591530581733
 25
122.1274245328391
 35
0.0
 40
0.0
1001
ACAD
1000
DSTYLE
1002
{
1070
    74
1070
     0
1002
}
1001
ACAD_DSTYLE_DIMRADIAL_EXTENSION
1070
   387
1070
     1
1070
   388
1040
6.283185307179576
1070
   390
1040
1.570796326794915
1001
ACAD_DSTYLE_DIMINSPECT
1070
   396
1000
100%
1070
   395
1000

1070
   394
1070
    33
1070
   393
1070
     0
  0
HATCH
  5
2996
330
1F
100
AcDbEntity
  8
ｶﾞｽｹｯﾄ
100
AcDbHatch
 10
0.0
 20
0.0
 30
0.0
210
0.0
220
0.0
230
1.0
  2
SOLID
 70
     1
 71
     0
 91
        1
 92
        1
 93
        5
 72
     1
 10
174.3097006519972
 20
30.60073723431918
 11
176.3097006519972
 21
30.60073723431918
 72
     2
 10
176.3097006519971
 20
32.6007372343193
 40
2.000000000000113
 50
270.0000000000025
 51
360.0000000000024
 73
     1
 72
     1
 10
178.3097006519972
 20
32.60073723431939
 11
178.3097006519972
 21
33.00073723431925
 72
     1
 10
178.3097006519972
 20
33.00073723431925
 11
174.3097006519972
 21
33.00073723431925
 72
     1
 10
174.3097006519972
 20
33.00073723431925
 11
174.3097006519972
 21
30.60073723431918
 97
        0
 75
     0
 76
     1
 98
        1
 10
0.0
 20
-53.97525468849707
1001
GENIUS_GENOBJ-N-HTC_13
1002
{
1000
OWNER
1000
GEN
1002
}
1001
GENIUS_GENODEF_13
1002
{
1000
HIER
1070
     0
1002
}
1002
{
1000
MANEDIT
1070
     0
1002
}
1002
{
1000
NOSEL
1070
     0
1002
}
1002
{
1000
BEHIND
1070
     0
1002
}
1002
{
1000
OTHER
1070
     0
1002
}
1002
{
1000
REACTOR
1002
}
1001
GENIUS_GENHATCH_13
1002
{
1000
DATA
1040
45.0
1042
2.5
1000
SOLID
1070
     0
1011
175.4452767613675
1021
32.00676930166642
1031
0.0
1002
}
1002
{
1000
UCS
1010
0.0
1020
0.0
1030
0.0
1010
1.0
1020
0.0
1030
0.0
1010
0.0
1020
1.0
1030
0.0
1002
}
  0
HATCH
  5
2998
330
1F
100
AcDbEntity
  8
ｶﾞｽｹｯﾄ
100
AcDbHatch
 10
0.0
 20
0.0
 30
0.0
210
0.0
220
0.0
230
1.0
  2
SOLID
 70
     1
 71
     0
 91
        1
 92
        1
 93
        5
 72
     2
 10
54.1097006519972
 20
32.60073723431919
 40
2.000000000000007
 50
180.0
 51
269.9999999999998
 73
     1
 72
     1
 10
54.1097006519972
 20
30.60073723431918
 11
56.10970065199719
 21
30.60073723431917
 72
     1
 10
56.10970065199719
 20
30.60073723431917
 11
56.10970065199717
 21
33.00073723431925
 72
     1
 10
56.10970065199717
 20
33.00073723431925
 11
52.1097006519972
 21
33.00073723431925
 72
     1
 10
52.1097006519972
 20
33.00073723431925
 11
52.10970065199719
 21
32.60073723431919
 97
        0
 75
     0
 76
     1
 98
        1
 10
0.0
 20
-53.97525468849707
1001
GENIUS_GENOBJ-N-HTC_13
1002
{
1000
OWNER
1000
GEN
1002
}
1001
GENIUS_GENODEF_13
1002
{
1000
HIER
1070
     0
1002
}
1002
{
1000
MANEDIT
1070
     0
1002
}
1002
{
1000
NOSEL
1070
     0
1002
}
1002
{
1000
BEHIND
1070
     0
1002
}
1002
{
1000
OTHER
1070
     0
1002
}
1002
{
1000
REACTOR
1002
}
1001
GENIUS_GENHATCH_13
1002
{
1000
DATA
1040
45.0
1042
2.5
1000
SOLID
1070
     0
1011
54.4555912110302
1021
32.0866334360916
1031
0.0
1002
}
1002
{
1000
UCS
1010
0.0
1020
0.0
1030
0.0
1010
1.0
1020
0.0
1030
0.0
1010
0.0
1020
1.0
1030
0.0
1002
}
  0
HATCH
  5
299A
330
1F
100
AcDbEntity
  8
ｶﾞｽｹｯﾄ
100
AcDbHatch
 10
0.0
 20
0.0
 30
0.0
210
0.0
220
0.0
230
1.0
  2
SOLID
 70
     1
 71
     0
 91
        1
 92
        1
 93
        5
 72
     1
 10
306.6369782585088
 20
241.7948264663932
 11
306.6369782585088
 21
243.5948264663931
 72
     2
 10
304.6369782585088
 20
243.5948264663932
 40
2.0
 50
359.9999999999976
 51
450.0
 73
     1
 72
     1
 10
304.6369782585088
 20
245.5948264663932
 11
304.2369782585088
 21
245.5948264663931
 72
     1
 10
304.2369782585088
 20
245.5948264663931
 11
304.2369782585088
 21
241.7948264663932
 72
     1
 10
304.2369782585088
 20
241.7948264663932
 11
306.6369782585088
 21
241.7948264663932
 97
        0
 75
     0
 76
     1
 98
        1
 10
0.0
 20
0.0
1001
GENIUS_GENOBJ-N-HTC_13
1002
{
1000
OWNER
1000
GEN
1002
}
1001
GENIUS_GENODEF_13
1002
{
1000
HIER
1070
     0
1002
}
1002
{
1000
MANEDIT
1070
     0
1002
}
1002
{
1000
NOSEL
1070
     0
1002
}
1002
{
1000
BEHIND
1070
     0
1002
}
1002
{
1000
OTHER
1070
     0
1002
}
1002
{
1000
REACTOR
1002
}
1001
GENIUS_GENHATCH_13
1002
{
1000
DATA
1040
45.0
1042
2.5
1000
SOLID
1070
     0
1011
305.180269517642
1021
243.3607535468577
1031
0.0
1002
}
1002
{
1000
UCS
1010
0.0
1020
0.0
1030
0.0
1010
1.0
1020
0.0
1030
0.0
1010
0.0
1020
1.0
1030
0.0
1002
}
  0
HATCH
  5
299C
330
1F
100
AcDbEntity
  8
ｶﾞｽｹｯﾄ
100
AcDbHatch
 10
0.0
 20
0.0
 30
0.0
210
0.0
220
0.0
230
1.0
  2
SOLID
 70
     1
 71
     0
 91
        1
 92
        1
 93
        5
 72
     1
 10
304.2369782585088
 20
184.5948264663931
 11
304.6369782585088
 21
184.5948264663931
 72
     2
 10
304.6369782585089
 20
186.5948264663931
 40
1.999999999999943
 50
269.9999999999951
 51
360.0000000000016
 73
     1
 72
     1
 10
306.6369782585089
 20
186.5948264663931
 11
306.6369782585088
 21
187.7948264663931
 72
     1
 10
306.6369782585088
 20
187.7948264663931
 11
304.2369782585088
 21
187.7948264663931
 72
     1
 10
304.2369782585088
 20
187.7948264663931
 11
304.2369782585088
 21
184.5948264663931
 97
        0
 75
     0
 76
     1
 98
        1
 10
0.0
 20
0.0
1001
GENIUS_GENODEF_13
1002
{
1000
HIER
1070
     0
1002
}
1002
{
1000
MANEDIT
1070
     0
1002
}
1002
{
1000
NOSEL
1070
     0
1002
}
1002
{
1000
BEHIND
1070
     0
1002
}
1002
{
1000
OTHER
1070
     0
1002
}
1002
{
1000
REACTOR
1002
}
1001
GENIUS_GENOBJ-N-HTC_13
1002
{
1000
OWNER
1000
GEN
1002
}
1001
GENIUS_GENHATCH_13
1002
{
1000
DATA
1040
45.0
1042
2.5
1000
SOLID
1070
     0
1011
305.550931235407
1021
186.8523283301729
1031
0.0
1002
}
1002
{
1000
UCS
1010
0.0
1020
0.0
1030
0.0
1010
1.0
1020
0.0
1030
0.0
1010
0.0
1020
1.0
1030
0.0
1002
}
  0
LINE
  5
2A58
330
1F
100
AcDbEntity
  8
下側0
100
AcDbLine
 10
171.7097006519972
 20
236.7948264663931
 30
0.0
 11
171.7097006519972
 21
192.7948264663931
 31
0.0
  0
ARC
  5
2A59
330
1F
100
AcDbEntity
  8
下側0
100
AcDbCircle
 10
170.2097006519972
 20
192.7948264663931
 30
0.0
 40
1.5
100
AcDbArc
 50
270.0
 51
0.000000000000007
1001
GENIUS_GENODEF_13
1002
{
1000
HIER
1070
     0
1002
}
1002
{
1000
MANEDIT
1070
     0
1002
}
1002
{
1000
NOSEL
1070
     0
1002
}
1002
{
1000
BEHIND
1070
     0
1002
}
1002
{
1000
OTHER
1070
     0
1002
}
1002
{
1000
REACTOR
1002
}
1001
GENIUS_GENOBJ-N-FIL_13
1002
{
1000
OWNER
1000
GEN
1002
}
  0
ARC
  5
2A5A
330
1F
100
AcDbEntity
  8
下側0
100
AcDbCircle
 10
170.2097006519972
 20
236.7948264663931
 30
0.0
 40
1.5
100
AcDbArc
 50
0.000000000000007
 51
90.0
1001
GENIUS_GENODEF_13
1002
{
1000
HIER
1070
     0
1002
}
1002
{
1000
MANEDIT
1070
     0
1002
}
1002
{
1000
NOSEL
1070
     0
1002
}
1002
{
1000
BEHIND
1070
     0
1002
}
1002
{
1000
OTHER
1070
     0
1002
}
1002
{
1000
REACTOR
1002
}
1001
GENIUS_GENOBJ-N-FIL_13
1002
{
1000
OWNER
1000
GEN
1002
}
  0
LINE
  5
2A5B
330
1F
100
AcDbEntity
  8
下側0
100
AcDbLine
 10
163.7097006519972
 20
236.7948264663931
 30
0.0
 11
163.7097006519972
 21
192.7948264663931
 31
0.0
  0
ARC
  5
2A5C
330
1F
100
AcDbEntity
  8
下側0
100
AcDbCircle
 10
165.2097006519972
 20
236.7948264663931
 30
0.0
 40
1.5
100
AcDbArc
 50
90.0
 51
180.0
1001
GENIUS_GENODEF_13
1002
{
1000
HIER
1070
     0
1002
}
1002
{
1000
MANEDIT
1070
     0
1002
}
1002
{
1000
NOSEL
1070
     0
1002
}
1002
{
1000
BEHIND
1070
     0
1002
}
1002
{
1000
OTHER
1070
     0
1002
}
1002
{
1000
REACTOR
1002
}
1001
GENIUS_GENOBJ-N-FIL_13
1002
{
1000
OWNER
1000
GEN
1002
}
  0
LINE
  5
2A5D
330
1F
100
AcDbEntity
  8
下側0
100
AcDbLine
 10
169.7097006519972
 20
239.7948264663932
 30
0.0
 11
169.7097006519972
 21
238.2948264663931
 31
0.0
  0
LINE
  5
2A5E
330
1F
100
AcDbEntity
  8
下側0
100
AcDbLine
 10
169.7097006519972
 20
191.2948264663931
 30
0.0
 11
169.7097006519972
 21
189.7948264663931
 31
0.0
  0
LINE
  5
2A5F
330
1F
100
AcDbEntity
  8
下側0
100
AcDbLine
 10
165.7097006519972
 20
239.7948264663932
 30
0.0
 11
165.7097006519972
 21
238.2948264663931
 31
0.0
  0
LINE
  5
2A60
330
1F
100
AcDbEntity
  8
下側0
100
AcDbLine
 10
165.7097006519972
 20
191.2948264663931
 30
0.0
 11
165.7097006519972
 21
189.7948264663931
 31
0.0
  0
LINE
  5
2A61
330
1F
100
AcDbEntity
  8
下側0
100
AcDbLine
 10
165.2097006519972
 20
238.2948264663931
 30
0.0
 11
165.7097006519972
 21
238.2948264663931
 31
0.0
  0
LINE
  5
2A62
330
1F
100
AcDbEntity
  8
下側0
100
AcDbLine
 10
169.7097006519972
 20
238.2948264663931
 30
0.0
 11
170.2097006519972
 21
238.2948264663931
 31
0.0
  0
LINE
  5
2A63
330
1F
100
AcDbEntity
  8
下側0
100
AcDbLine
 10
165.2097006519972
 20
191.2948264663931
 30
0.0
 11
165.7097006519972
 21
191.2948264663931
 31
0.0
  0
ARC
  5
2A64
330
1F
100
AcDbEntity
  8
下側0
100
AcDbCircle
 10
165.2097006519972
 20
192.7948264663931
 30
0.0
 40
1.5
100
AcDbArc
 50
180.0
 51
270.0
1001
GENIUS_GENODEF_13
1002
{
1000
HIER
1070
     0
1002
}
1002
{
1000
MANEDIT
1070
     0
1002
}
1002
{
1000
NOSEL
1070
     0
1002
}
1002
{
1000
BEHIND
1070
     0
1002
}
1002
{
1000
OTHER
1070
     0
1002
}
1002
{
1000
REACTOR
1002
}
1001
GENIUS_GENOBJ-N-FIL_13
1002
{
1000
OWNER
1000
GEN
1002
}
  0
LINE
  5
2A65
330
1F
100
AcDbEntity
  8
下側0
100
AcDbLine
 10
169.7097006519972
 20
191.2948264663931
 30
0.0
 11
170.2097006519972
 21
191.2948264663931
 31
0.0
  0
LINE
  5
2A66
330
1F
100
AcDbEntity
  8
下側0
100
AcDbLine
 10
162.9597006519972
 20
236.7948264663931
 30
0.0
 11
162.9597006519972
 21
192.7948264663931
 31
0.0
  0
ARC
  5
2A67
330
1F
100
AcDbEntity
  8
下側0
100
AcDbCircle
 10
161.4597006519972
 20
192.7948264663931
 30
0.0
 40
1.5
100
AcDbArc
 50
270.0
 51
0.000000000000007
1001
GENIUS_GENODEF_13
1002
{
1000
HIER
1070
     0
1002
}
1002
{
1000
MANEDIT
1070
     0
1002
}
1002
{
1000
NOSEL
1070
     0
1002
}
1002
{
1000
BEHIND
1070
     0
1002
}
1002
{
1000
OTHER
1070
     0
1002
}
1002
{
1000
REACTOR
1002
}
1001
GENIUS_GENOBJ-N-FIL_13
1002
{
1000
OWNER
1000
GEN
1002
}
  0
ARC
  5
2A68
330
1F
100
AcDbEntity
  8
下側0
100
AcDbCircle
 10
161.4597006519972
 20
236.7948264663931
 30
0.0
 40
1.5
100
AcDbArc
 50
0.000000000000007
 51
90.0
1001
GENIUS_GENODEF_13
1002
{
1000
HIER
1070
     0
1002
}
1002
{
1000
MANEDIT
1070
     0
1002
}
1002
{
1000
NOSEL
1070
     0
1002
}
1002
{
1000
BEHIND
1070
     0
1002
}
1002
{
1000
OTHER
1070
     0
1002
}
1002
{
1000
REACTOR
1002
}
1001
GENIUS_GENOBJ-N-FIL_13
1002
{
1000
OWNER
1000
GEN
1002
}
  0
LINE
  5
2A69
330
1F
100
AcDbEntity
  8
下側0
100
AcDbLine
 10
154.9597006519972
 20
236.7948264663931
 30
0.0
 11
154.9597006519972
 21
192.7948264663931
 31
0.0
  0
ARC
  5
2A6A
330
1F
100
AcDbEntity
  8
下側0
100
AcDbCircle
 10
156.4597006519972
 20
236.7948264663931
 30
0.0
 40
1.5
100
AcDbArc
 50
90.0
 51
180.0
1001
GENIUS_GENODEF_13
1002
{
1000
HIER
1070
     0
1002
}
1002
{
1000
MANEDIT
1070
     0
1002
}
1002
{
1000
NOSEL
1070
     0
1002
}
1002
{
1000
BEHIND
1070
     0
1002
}
1002
{
1000
OTHER
1070
     0
1002
}
1002
{
1000
REACTOR
1002
}
1001
GENIUS_GENOBJ-N-FIL_13
1002
{
1000
OWNER
1000
GEN
1002
}
  0
LINE
  5
2A6B
330
1F
100
AcDbEntity
  8
下側0
100
AcDbLine
 10
160.9597006519972
 20
239.7948264663932
 30
0.0
 11
160.9597006519972
 21
238.2948264663931
 31
0.0
  0
LINE
  5
2A6C
330
1F
100
AcDbEntity
  8
下側0
100
AcDbLine
 10
160.9597006519972
 20
191.2948264663931
 30
0.0
 11
160.9597006519972
 21
189.7948264663931
 31
0.0
  0
LINE
  5
2A6D
330
1F
100
AcDbEntity
  8
下側0
100
AcDbLine
 10
156.9597006519972
 20
239.7948264663932
 30
0.0
 11
156.9597006519972
 21
238.2948264663931
 31
0.0
  0
LINE
  5
2A6E
330
1F
100
AcDbEntity
  8
下側0
100
AcDbLine
 10
156.9597006519972
 20
191.2948264663931
 30
0.0
 11
156.9597006519972
 21
189.7948264663931
 31
0.0
  0
LINE
  5
2A6F
330
1F
100
AcDbEntity
  8
下側0
100
AcDbLine
 10
156.4597006519972
 20
238.2948264663931
 30
0.0
 11
156.9597006519972
 21
238.2948264663931
 31
0.0
  0
LINE
  5
2A70
330
1F
100
AcDbEntity
  8
下側0
100
AcDbLine
 10
160.9597006519972
 20
238.2948264663931
 30
0.0
 11
161.4597006519972
 21
238.2948264663931
 31
0.0
  0
LINE
  5
2A71
330
1F
100
AcDbEntity
  8
下側0
100
AcDbLine
 10
156.4597006519972
 20
191.2948264663931
 30
0.0
 11
156.9597006519972
 21
191.2948264663931
 31
0.0
  0
ARC
  5
2A72
330
1F
100
AcDbEntity
  8
下側0
100
AcDbCircle
 10
156.4597006519972
 20
192.7948264663931
 30
0.0
 40
1.5
100
AcDbArc
 50
180.0
 51
270.0
1001
GENIUS_GENODEF_13
1002
{
1000
HIER
1070
     0
1002
}
1002
{
1000
MANEDIT
1070
     0
1002
}
1002
{
1000
NOSEL
1070
     0
1002
}
1002
{
1000
BEHIND
1070
     0
1002
}
1002
{
1000
OTHER
1070
     0
1002
}
1002
{
1000
REACTOR
1002
}
1001
GENIUS_GENOBJ-N-FIL_13
1002
{
1000
OWNER
1000
GEN
1002
}
  0
LINE
  5
2A73
330
1F
100
AcDbEntity
  8
下側0
100
AcDbLine
 10
160.9597006519972
 20
191.2948264663931
 30
0.0
 11
161.4597006519972
 21
191.2948264663931
 31
0.0
  0
DIMENSION
  5
2AC4
330
1F
100
AcDbEntity
  8
AM_5
100
AcDbDimension
  2
*D20
 10
35.82425429453809
 20
189.7948264663931
 30
0.0
 11
32.57425429453806
 21
214.7948264663932
 31
0.0
 70
    32
 71
     5
 42
49.99999999999997
  3
AM_ISO$0
100
AcDbAlignedDimension
 13
59.95970065199719
 23
239.7948264663931
 33
0.0
 14
59.95970065199719
 24
189.7948264663931
 34
0.0
 50
90.00000000000005
100
AcDbRotatedDimension
  0
LINE
  5
2B19
330
1F
100
AcDbEntity
  8
AM_5
100
AcDbLine
 10
57.70970065199719
 20
238.5448264663931
 30
0.0
 11
57.70970065199719
 21
261.79460924955
 31
0.0
  0
LINE
  5
2B1B
330
1F
100
AcDbEntity
  8
AM_5
100
AcDbLine
 10
60.20970065199719
 20
260.79460924955
 30
0.0
 11
115.2097006519972
 21
260.79460924955
 31
0.0
  0
INSERT
  5
2B1C
330
1F
100
AcDbEntity
  8
AM_5
100
AcDbBlockReference
  2
_Open30
 10
57.70970065199719
 20
260.79460924955
 30
0.0
 41
2.5
 42
2.5
 43
2.5
 50
180.0
  0
MTEXT
  5
2B1E
330
1F
100
AcDbEntity
  8
AM_5
 62
     2
100
AcDbMText
 10
115.2097006519972
 20
264.04460924955
 30
0.0
 40
3.5
 41
0.0
 71
     5
 72
     1
  1
115
 73
     1
 44
1.0
1001
ACAD
1000
MTEXTBEGIN
1070
    73
1070
     1
1070
    44
1040
1.0
1070
    74
1070
     0
1000
MTEXTEND
  0
LINE
  5
3027
330
1F
100
AcDbEntity
  8
TK6
100
AcDbLine
 10
338.3138091893282
 20
248.1948264663931
 30
0.0
 11
349.3138091893282
 21
248.1948264663931
 31
0.0
  0
LINE
  5
3028
330
1F
100
AcDbEntity
  8
TK6
100
AcDbLine
 10
338.3138091893282
 20
245.1948264663931
 30
0.0
 11
349.3138091893282
 21
245.1948264663931
 31
0.0
  0
LINE
  5
3029
330
1F
100
AcDbEntity
  8
TK60
100
AcDbLine
 10
338.3138091893282
 20
247.9448264663931
 30
0.0
 11
349.3138091893282
 21
247.9448264663931
 31
0.0
  0
LINE
  5
302A
330
1F
100
AcDbEntity
  8
TK60
100
AcDbLine
 10
338.3138091893282
 20
245.4448264663931
 30
0.0
 11
349.3138091893282
 21
245.4448264663931
 31
0.0
  0
LINE
  5
302B
330
1F
100
AcDbEntity
  8
TK6
100
AcDbLine
 10
349.3138091893282
 20
249.9448264663931
 30
0.0
 11
350.1138091893283
 21
249.9448264663931
 31
0.0
  0
LINE
  5
302C
330
1F
100
AcDbEntity
  8
TK6
100
AcDbLine
 10
350.1138091893283
 20
249.1948264663931
 30
0.0
 11
351.8138091893283
 21
249.1948264663931
 31
0.0
  0
LINE
  5
302D
330
1F
100
AcDbEntity
  8
TK6
100
AcDbLine
 10
350.1138091893283
 20
249.9448264663931
 30
0.0
 11
350.1138091893283
 21
246.6948264663931
 31
0.0
  0
LINE
  5
302E
330
1F
100
AcDbEntity
  8
TK6
100
AcDbLine
 10
349.3138091893282
 20
249.9448264663931
 30
0.0
 11
349.3138091893282
 21
246.6948264663931
 31
0.0
  0
LINE
  5
302F
330
1F
100
AcDbEntity
  8
TK6
100
AcDbLine
 10
351.8138091893283
 20
249.1948264663931
 30
0.0
 11
351.8138091893283
 21
246.6948264663931
 31
0.0
  0
LINE
  5
3030
330
1F
100
AcDbEntity
  8
TK6
100
AcDbLine
 10
349.3138091893282
 20
243.4448264663931
 30
0.0
 11
350.1138091893283
 21
243.4448264663931
 31
0.0
  0
LINE
  5
3031
330
1F
100
AcDbEntity
  8
TK6
100
AcDbLine
 10
350.1138091893283
 20
244.1948264663931
 30
0.0
 11
351.8138091893283
 21
244.1948264663931
 31
0.0
  0
LINE
  5
3032
330
1F
100
AcDbEntity
  8
TK6
100
AcDbLine
 10
350.1138091893283
 20
243.4448264663931
 30
0.0
 11
350.1138091893283
 21
246.6948264663931
 31
0.0
  0
LINE
  5
3033
330
1F
100
AcDbEntity
  8
TK6
100
AcDbLine
 10
349.3138091893282
 20
243.4448264663931
 30
0.0
 11
349.3138091893282
 21
246.6948264663931
 31
0.0
  0
LINE
  5
3034
330
1F
100
AcDbEntity
  8
TK6
100
AcDbLine
 10
351.8138091893283
 20
244.1948264663931
 30
0.0
 11
351.8138091893283
 21
246.6948264663931
 31
0.0
  0
CIRCLE
  5
3035
330
1F
100
AcDbEntity
  8
TK6
100
AcDbCircle
 10
362.2372568350642
 20
246.6948264663931
 30
0.0
 40
3.25
  0
LWPOLYLINE
  5
3036
330
1F
100
AcDbEntity
  8
TK6
100
AcDbPolyline
 90
        6
 70
     1
 43
0.0
 10
360.9872568350642
 20
248.8598899758542
 10
359.7372568350642
 20
246.6948264663931
 10
360.9872568350642
 20
244.529762956932
 10
363.4872568350642
 20
244.529762956932
 10
364.7372568350641
 20
246.6948264663931
 10
363.4872568350642
 20
248.8598899758542
  0
LINE
  5
3037
330
1F
100
AcDbEntity
  8
TK6
100
AcDbLine
 10
359.9970644561995
 20
247.1448264663932
 30
0.0
 11
364.4774492139288
 21
247.1448264663932
 31
0.0
  0
LINE
  5
3038
330
1F
100
AcDbEntity
  8
TK6
100
AcDbLine
 10
359.9970644561995
 20
246.2448264663932
 30
0.0
 11
364.4774492139288
 21
246.2448264663932
 31
0.0
  0
LINE
  5
3039
330
1F
100
AcDbEntity
  8
TK6
100
AcDbLine
 10
351.8138091893283
 20
247.1448264663932
 30
0.0
 11
350.4138091893283
 21
247.1448264663932
 31
0.0
  0
LINE
  5
303A
330
1F
100
AcDbEntity
  8
TK6
100
AcDbLine
 10
351.8138091893283
 20
246.2448264663932
 30
0.0
 11
350.4138091893283
 21
246.2448264663932
 31
0.0
  0
LINE
  5
303B
330
1F
100
AcDbEntity
  8
TK6
100
AcDbLine
 10
350.4138091893283
 20
247.1448264663932
 30
0.0
 11
350.4138091893283
 21
246.2448264663932
 31
0.0
  0
LINE
  5
303C
330
1F
100
AcDbEntity
  8
TK6
100
AcDbLine
 10
338.3138091893282
 20
248.1948264663931
 30
0.0
 11
338.3138091893282
 21
245.1948264663931
 31
0.0
  0
LINE
  5
303D
330
1F
100
AcDbEntity
  8
TK6
100
AcDbLine
 10
338.3138091893282
 20
181.3948264663931
 30
0.0
 11
349.3138091893282
 21
181.3948264663931
 31
0.0
  0
LINE
  5
303E
330
1F
100
AcDbEntity
  8
TK6
100
AcDbLine
 10
338.3138091893282
 20
178.3948264663932
 30
0.0
 11
349.3138091893282
 21
178.3948264663932
 31
0.0
  0
LINE
  5
303F
330
1F
100
AcDbEntity
  8
TK60
100
AcDbLine
 10
338.3138091893282
 20
181.1448264663932
 30
0.0
 11
349.3138091893282
 21
181.1448264663932
 31
0.0
  0
LINE
  5
3040
330
1F
100
AcDbEntity
  8
TK60
100
AcDbLine
 10
338.3138091893282
 20
178.6448264663931
 30
0.0
 11
349.3138091893282
 21
178.6448264663931
 31
0.0
  0
LINE
  5
3041
330
1F
100
AcDbEntity
  8
TK6
100
AcDbLine
 10
349.3138091893282
 20
183.1448264663931
 30
0.0
 11
350.1138091893283
 21
183.1448264663931
 31
0.0
  0
LINE
  5
3042
330
1F
100
AcDbEntity
  8
TK6
100
AcDbLine
 10
350.1138091893283
 20
182.3948264663932
 30
0.0
 11
351.8138091893283
 21
182.3948264663932
 31
0.0
  0
LINE
  5
3043
330
1F
100
AcDbEntity
  8
TK6
100
AcDbLine
 10
350.1138091893283
 20
183.1448264663931
 30
0.0
 11
350.1138091893283
 21
179.8948264663931
 31
0.0
  0
LINE
  5
3044
330
1F
100
AcDbEntity
  8
TK6
100
AcDbLine
 10
349.3138091893282
 20
183.1448264663931
 30
0.0
 11
349.3138091893282
 21
179.8948264663931
 31
0.0
  0
LINE
  5
3045
330
1F
100
AcDbEntity
  8
TK6
100
AcDbLine
 10
351.8138091893283
 20
182.3948264663932
 30
0.0
 11
351.8138091893283
 21
179.8948264663931
 31
0.0
  0
LINE
  5
3046
330
1F
100
AcDbEntity
  8
TK6
100
AcDbLine
 10
349.3138091893282
 20
176.6448264663931
 30
0.0
 11
350.1138091893283
 21
176.6448264663931
 31
0.0
  0
LINE
  5
3047
330
1F
100
AcDbEntity
  8
TK6
100
AcDbLine
 10
350.1138091893283
 20
177.3948264663931
 30
0.0
 11
351.8138091893283
 21
177.3948264663931
 31
0.0
  0
LINE
  5
3048
330
1F
100
AcDbEntity
  8
TK6
100
AcDbLine
 10
350.1138091893283
 20
176.6448264663931
 30
0.0
 11
350.1138091893283
 21
179.8948264663931
 31
0.0
  0
LINE
  5
3049
330
1F
100
AcDbEntity
  8
TK6
100
AcDbLine
 10
349.3138091893282
 20
176.6448264663931
 30
0.0
 11
349.3138091893282
 21
179.8948264663931
 31
0.0
  0
LINE
  5
304A
330
1F
100
AcDbEntity
  8
TK6
100
AcDbLine
 10
351.8138091893283
 20
177.3948264663931
 30
0.0
 11
351.8138091893283
 21
179.8948264663931
 31
0.0
  0
CIRCLE
  5
304B
330
1F
100
AcDbEntity
  8
TK6
100
AcDbCircle
 10
362.2372568350642
 20
179.8948264663931
 30
0.0
 40
3.25
  0
LWPOLYLINE
  5
304C
330
1F
100
AcDbEntity
  8
TK6
100
AcDbPolyline
 90
        6
 70
     1
 43
0.0
 10
360.9872568350642
 20
182.0598899758542
 10
359.7372568350642
 20
179.8948264663931
 10
360.9872568350642
 20
177.729762956932
 10
363.4872568350642
 20
177.729762956932
 10
364.7372568350641
 20
179.8948264663931
 10
363.4872568350642
 20
182.0598899758542
  0
LINE
  5
304D
330
1F
100
AcDbEntity
  8
TK6
100
AcDbLine
 10
359.9970644561995
 20
180.3448264663932
 30
0.0
 11
364.4774492139288
 21
180.3448264663932
 31
0.0
  0
LINE
  5
304E
330
1F
100
AcDbEntity
  8
TK6
100
AcDbLine
 10
359.9970644561995
 20
179.4448264663932
 30
0.0
 11
364.4774492139288
 21
179.4448264663932
 31
0.0
  0
LINE
  5
304F
330
1F
100
AcDbEntity
  8
TK6
100
AcDbLine
 10
351.8138091893283
 20
180.3448264663932
 30
0.0
 11
350.4138091893283
 21
180.3448264663932
 31
0.0
  0
LINE
  5
3050
330
1F
100
AcDbEntity
  8
TK6
100
AcDbLine
 10
351.8138091893283
 20
179.4448264663932
 30
0.0
 11
350.4138091893283
 21
179.4448264663932
 31
0.0
  0
LINE
  5
3051
330
1F
100
AcDbEntity
  8
TK6
100
AcDbLine
 10
350.4138091893283
 20
180.3448264663932
 30
0.0
 11
350.4138091893283
 21
179.4448264663932
 31
0.0
  0
LINE
  5
3052
330
1F
100
AcDbEntity
  8
TK6
100
AcDbLine
 10
338.3138091893282
 20
181.3948264663931
 30
0.0
 11
338.3138091893282
 21
178.3948264663932
 31
0.0
  0
LINE
  5
3084
330
1F
100
AcDbEntity
  8
TK3
100
AcDbLine
 10
180.2097006519972
 20
109.5759919228162
 30
0.0
 11
180.2097006519972
 21
104.3759919228163
 31
0.0
  0
LINE
  5
30C7
330
1F
100
AcDbEntity
  8
TK3
100
AcDbLine
 10
115.2097006519972
 20
112.5759919228163
 30
0.0
 11
177.2097006519972
 21
112.5759919228162
 31
0.0
  0
LINE
  5
30D0
330
1F
100
AcDbEntity
  8
TK3
100
AcDbLine
 10
115.2097006519972
 20
101.3759919228163
 30
0.0
 11
177.2097006519972
 21
101.3759919228163
 31
0.0
  0
ARC
  5
30F7
330
1F
100
AcDbEntity
  8
TK3
100
AcDbCircle
 10
177.2097006519972
 20
109.5759919228162
 30
0.0
 40
3.0
100
AcDbArc
 50
0.0
 51
90.0
1001
GENIUS_GENODEF_13
1002
{
1000
HIER
1070
     0
1002
}
1002
{
1000
MANEDIT
1070
     0
1002
}
1002
{
1000
NOSEL
1070
     0
1002
}
1002
{
1000
BEHIND
1070
     0
1002
}
1002
{
1000
OTHER
1070
     0
1002
}
1002
{
1000
REACTOR
1002
}
1001
GENIUS_GENOBJ-N-FIL_13
1002
{
1000
OWNER
1000
GEN
1002
}
  0
ARC
  5
30F9
330
1F
100
AcDbEntity
  8
TK3
100
AcDbCircle
 10
177.2097006519972
 20
104.3759919228163
 30
0.0
 40
3.0
100
AcDbArc
 50
270.0
 51
0.0
1001
GENIUS_GENODEF_13
1002
{
1000
HIER
1070
     0
1002
}
1002
{
1000
MANEDIT
1070
     0
1002
}
1002
{
1000
NOSEL
1070
     0
1002
}
1002
{
1000
BEHIND
1070
     0
1002
}
1002
{
1000
OTHER
1070
     0
1002
}
1002
{
1000
REACTOR
1002
}
1001
GENIUS_GENOBJ-N-FIL_13
1002
{
1000
OWNER
1000
GEN
1002
}
  0
LINE
  5
3106
330
1F
100
AcDbEntity
  8
AM_7
  6
AM_ISO08W050x2
100
AcDbLine
 10
115.2097006519972
 20
115.5759919228163
 30
0.0
 11
115.2097006519972
 21
98.37599192281629
 31
0.0
1001
GENIUS_GENODEF_13
1002
{
1000
HIER
1070
     0
1002
}
1002
{
1000
MANEDIT
1070
     0
1002
}
1002
{
1000
NOSEL
1070
     0
1002
}
1002
{
1000
BEHIND
1070
     0
1002
}
1002
{
1000
OTHER
1070
     0
1002
}
1002
{
1000
REACTOR
1002
}
1001
GENIUS_GENOBJ-N-CEN_13
1002
{
1000
OWNER
1000
GEN
1002
}
1001
GENIUS_GENCEN_19
1002
{
1040
3.0
1002
}
  0
CIRCLE
  5
3111
330
1F
100
AcDbEntity
  8
下側0
100
AcDbCircle
 10
172.1097006519972
 20
181.2948264663931
 30
0.0
 40
1.199999999999999
  0
CIRCLE
  5
3112
330
1F
100
AcDbEntity
  8
下側0
100
AcDbCircle
 10
172.1097006519972
 20
248.2948264663932
 30
0.0
 40
1.199999999999999
  0
LWPOLYLINE
  5
31F4
330
1F
100
AcDbEntity
  8
TK3
100
AcDbPolyline
 90
        8
 70
     1
 43
0.0
 10
170.9597006519972
 20
105.4759919228162
 10
173.4597006519972
 20
105.4759919228163
 42
0.4142135623730992
 10
174.4597006519972
 20
106.4759919228163
 10
174.4597006519972
 20
107.4759919228163
 42
0.4142135623730951
 10
173.4597006519972
 20
108.4759919228163
 10
170.9597006519972
 20
108.4759919228163
 42
0.4142135623730909
 10
169.9597006519972
 20
107.4759919228163
 10
169.9597006519972
 20
106.4759919228162
 42
0.4142135623730951
1001
GENIUS_GENREC_14
1002
{
1000
PYDIR
1011
169.9597006519972
1021
108.4759919228163
1031
0.0
1002
}
1002
{
1000
PXDIR
1011
174.4597006519972
1021
105.4759919228163
1031
0.0
1002
}
1002
{
1000
PORI
1011
169.9597006519972
1021
105.4759919228163
1031
0.0
1002
}
1002
{
1000
PINS
1011
172.2097006519972
1021
106.9759919228163
1031
0.0
1002
}
1002
{
1000
HVAL
1000
3
1002
}
1002
{
1000
H
1070
     2
1002
}
1002
{
1000
WVAL
1000
4.5
1002
}
1002
{
1000
W
1070
     2
1002
}
1002
{
1000
C
1070
     4
1002
}
1001
GENIUS_GENOBJ-N-REC_13
1002
{
1000
OWNER
1000
GEN
1002
}
1001
GENIUS_GENODEF_13
1002
{
1000
HIER
1070
     0
1002
}
1002
{
1000
MANEDIT
1070
     0
1002
}
1002
{
1000
NOSEL
1070
     0
1002
}
1002
{
1000
BEHIND
1070
     0
1002
}
1002
{
1000
OTHER
1070
     0
1002
}
1002
{
1000
REACTOR
1002
}
  0
LINE
  5
326A
330
1F
100
AcDbEntity
  8
TK3
100
AcDbLine
 10
50.20970065199721
 20
109.5759919228162
 30
0.0
 11
50.20970065199721
 21
104.3759919228163
 31
0.0
  0
ARC
  5
326B
330
1F
100
AcDbEntity
  8
TK3
100
AcDbCircle
 10
53.20970065199721
 20
104.3759919228163
 30
0.0
 40
3.0
100
AcDbArc
 50
180.0
 51
270.0
1001
GENIUS_GENODEF_13
1002
{
1000
HIER
1070
     0
1002
}
1002
{
1000
MANEDIT
1070
     0
1002
}
1002
{
1000
NOSEL
1070
     0
1002
}
1002
{
1000
BEHIND
1070
     0
1002
}
1002
{
1000
OTHER
1070
     0
1002
}
1002
{
1000
REACTOR
1002
}
1001
GENIUS_GENOBJ-N-FIL_13
1002
{
1000
OWNER
1000
GEN
1002
}
  0
ARC
  5
326C
330
1F
100
AcDbEntity
  8
TK3
100
AcDbCircle
 10
53.20970065199721
 20
109.5759919228162
 30
0.0
 40
3.0
100
AcDbArc
 50
90.0
 51
180.0
1001
GENIUS_GENODEF_13
1002
{
1000
HIER
1070
     0
1002
}
1002
{
1000
MANEDIT
1070
     0
1002
}
1002
{
1000
NOSEL
1070
     0
1002
}
1002
{
1000
BEHIND
1070
     0
1002
}
1002
{
1000
OTHER
1070
     0
1002
}
1002
{
1000
REACTOR
1002
}
1001
GENIUS_GENOBJ-N-FIL_13
1002
{
1000
OWNER
1000
GEN
1002
}
  0
LINE
  5
326D
330
1F
100
AcDbEntity
  8
TK3
100
AcDbLine
 10
115.2097006519972
 20
112.5759919228163
 30
0.0
 11
53.20970065199721
 21
112.5759919228162
 31
0.0
  0
LINE
  5
326E
330
1F
100
AcDbEntity
  8
TK3
100
AcDbLine
 10
115.2097006519972
 20
101.3759919228163
 30
0.0
 11
53.20970065199721
 21
101.3759919228163
 31
0.0
  0
LWPOLYLINE
  5
326F
330
1F
100
AcDbEntity
  8
TK3
100
AcDbPolyline
 90
        8
 70
     1
 43
0.0
 10
59.45970065199723
 20
105.4759919228162
 10
56.95970065199721
 20
105.4759919228163
 42
-0.4142135623730992
 10
55.95970065199721
 20
106.4759919228163
 10
55.95970065199724
 20
107.4759919228163
 42
-0.4142135623730951
 10
56.95970065199723
 20
108.4759919228163
 10
59.45970065199723
 20
108.4759919228163
 42
-0.4142135623730909
 10
60.45970065199724
 20
107.4759919228163
 10
60.45970065199724
 20
106.4759919228162
 42
-0.4142135623730951
1001
GENIUS_GENREC_14
1002
{
1000
PYDIR
1011
60.45970065199721
1021
108.4759919228163
1031
0.0
1002
}
1002
{
1000
PXDIR
1011
55.95970065199721
1021
105.4759919228163
1031
0.0
1002
}
1002
{
1000
PORI
1011
60.45970065199721
1021
105.4759919228163
1031
0.0
1002
}
1002
{
1000
PINS
1011
58.20970065199721
1021
106.9759919228163
1031
0.0
1002
}
1002
{
1000
HVAL
1000
3
1002
}
1002
{
1000
H
1070
     2
1002
}
1002
{
1000
WVAL
1000
4.5
1002
}
1002
{
1000
W
1070
     2
1002
}
1002
{
1000
C
1070
     4
1002
}
1001
GENIUS_GENOBJ-N-REC_13
1002
{
1000
OWNER
1000
GEN
1002
}
1001
GENIUS_GENODEF_13
1002
{
1000
HIER
1070
     0
1002
}
1002
{
1000
MANEDIT
1070
     0
1002
}
1002
{
1000
NOSEL
1070
     0
1002
}
1002
{
1000
BEHIND
1070
     0
1002
}
1002
{
1000
OTHER
1070
     0
1002
}
1002
{
1000
REACTOR
1002
}
  0
LINE
  5
327A
330
1F
100
AcDbEntity
  8
TK3
100
AcDbLine
 10
202.2387288867504
 20
112.5759919228163
 30
0.0
 11
199.1596669770644
 21
112.5043858318934
 31
0.0
  0
LINE
  5
327B
330
1F
100
AcDbEntity
  8
TK3
100
AcDbLine
 10
197.9387288867503
 20
111.2547237153973
 30
0.0
 11
197.9387288867503
 21
102.6972601302352
 31
0.0
  0
ARC
  5
327C
330
1F
100
AcDbEntity
  8
TK3
100
AcDbCircle
 10
199.1887288867503
 20
111.2547237153973
 30
0.0
 40
1.25
100
AcDbArc
 50
91.33221985386954
 51
180.0
1001
GENIUS_GENODEF_13
1002
{
1000
HIER
1070
     0
1002
}
1002
{
1000
MANEDIT
1070
     0
1002
}
1002
{
1000
NOSEL
1070
     0
1002
}
1002
{
1000
BEHIND
1070
     0
1002
}
1002
{
1000
OTHER
1070
     0
1002
}
1002
{
1000
REACTOR
1002
}
1001
GENIUS_GENOBJ-N-FIL_13
1002
{
1000
OWNER
1000
GEN
1002
}
  0
LINE
  5
327D
330
1F
100
AcDbEntity
  8
TK3
100
AcDbLine
 10
199.1596669770644
 20
101.4475980137391
 30
0.0
 11
202.2387288867504
 21
101.3759919228163
 31
0.0
  0
ARC
  5
327E
330
1F
100
AcDbEntity
  8
TK3
100
AcDbCircle
 10
199.1887288867503
 20
102.6972601302352
 30
0.0
 40
1.25
100
AcDbArc
 50
180.0
 51
268.6677801461304
1001
GENIUS_GENODEF_13
1002
{
1000
HIER
1070
     0
1002
}
1002
{
1000
MANEDIT
1070
     0
1002
}
1002
{
1000
NOSEL
1070
     0
1002
}
1002
{
1000
BEHIND
1070
     0
1002
}
1002
{
1000
OTHER
1070
     0
1002
}
1002
{
1000
REACTOR
1002
}
1001
GENIUS_GENOBJ-N-FIL_13
1002
{
1000
OWNER
1000
GEN
1002
}
  0
LINE
  5
327F
330
1F
100
AcDbEntity
  8
TK3
100
AcDbLine
 10
202.2387288867504
 20
101.3759919228163
 30
0.0
 11
202.2387288867504
 21
112.5759919228163
 31
0.0
  0
LINE
  5
3280
330
1F
100
AcDbEntity
  8
AM_7
  6
AM_ISO08W050x2
100
AcDbLine
 10
194.9387288867503
 20
106.9759919228163
 30
0.0
 11
205.2387288867504
 21
106.9759919228163
 31
0.0
1001
GENIUS_GENODEF_13
1002
{
1000
HIER
1070
     0
1002
}
1002
{
1000
MANEDIT
1070
     0
1002
}
1002
{
1000
NOSEL
1070
     0
1002
}
1002
{
1000
BEHIND
1070
     0
1002
}
1002
{
1000
OTHER
1070
     0
1002
}
1002
{
1000
REACTOR
1002
}
1001
GENIUS_GENOBJ-N-CEN_13
1002
{
1000
OWNER
1000
GEN
1002
}
1001
GENIUS_GENCEN_19
1002
{
1040
3.0
1002
}
  0
LINE
  5
329D
330
1F
100
AcDbEntity
  8
AM_7
100
AcDbLine
 10
115.2097006519972
 20
61.20073723431923
 30
0.0
 11
115.2097006519972
 21
24.00073723431922
 31
0.0
1001
GENIUS_GENODEF_13
1002
{
1000
HIER
1070
     0
1002
}
1002
{
1000
MANEDIT
1070
     0
1002
}
1002
{
1000
NOSEL
1070
     0
1002
}
1002
{
1000
BEHIND
1070
     0
1002
}
1002
{
1000
OTHER
1070
     0
1002
}
1002
{
1000
REACTOR
1002
}
1001
GENIUS_GENOBJ-N-CEN_13
1002
{
1000
OWNER
1000
GEN
1002
}
1001
GENIUS_GENCEN_19
1002
{
1040
3.0
1002
}
  0
DIMENSION
  5
3331
330
1F
100
AcDbEntity
  8
AM_5
100
AcDbDimension
  2
*D21
 10
35.8242542945381
 20
108.4759919228163
 30
0.0
 11
32.57425429453809
 21
115.7484792962316
 31
0.0
 70
    32
 71
     5
 42
3.0
  3
AM_ISO$0
100
AcDbAlignedDimension
 13
56.95970065199719
 23
105.4759919228163
 33
0.0
 14
56.95970065199727
 24
108.4759919228163
 34
0.0
 50
89.99999999999934
100
AcDbRotatedDimension
  0
DIMENSION
  5
3368
330
1F
100
AcDbEntity
  8
AM_5
100
AcDbDimension
  2
*D22
 10
23.77583818231431
 20
112.5759919228162
 30
0.0
 11
20.52549369412531
 21
106.9759919228163
 31
0.0
 70
    32
 71
     5
 42
11.19999999999996
  3
AM_ISO$0
100
AcDbAlignedDimension
 13
53.20970065199721
 23
101.3759919228163
 33
0.0
 14
53.20970065199721
 24
112.5759919228162
 34
0.0
 50
90.00000000000003
100
AcDbRotatedDimension
  0
DIMENSION
  5
3399
330
1F
100
AcDbEntity
  8
AM_5
100
AcDbDimension
  2
*D23
 10
55.95970065199724
 20
126.3492036758667
 30
0.0
 11
58.20970065199723
 21
126.3492036758667
 31
0.0
 70
   160
 71
     5
 42
4.499999999999992
  3
AM_ISO$0
100
AcDbAlignedDimension
 13
60.45970065199723
 23
107.4759919228163
 33
0.0
 14
55.95970065199724
 24
107.4759919228163
 34
0.0
100
AcDbRotatedDimension
  0
DIMENSION
  5
33D0
330
1F
100
AcDbEntity
  8
AM_5
100
AcDbDimension
  2
*D24
 10
180.2097006519972
 20
134.7412076195404
 30
0.0
 11
115.2097006519972
 21
137.9912076195404
 31
0.0
 70
    32
 71
     5
 42
130.0
  3
AM_ISO$0
100
AcDbAlignedDimension
 13
50.20970065199721
 23
109.5759919228162
 33
0.0
 14
180.2097006519972
 24
109.5759919228162
 34
0.0
100
AcDbRotatedDimension
  0
DIMENSION
  5
33F8
330
1F
100
AcDbEntity
  8
AM_5
100
AcDbDimension
  2
*D25
 10
172.2097006519972
 20
89.37599092281621
 30
0.0
 11
115.2097006519972
 21
92.6259909228162
 31
0.0
 70
    32
 71
     5
 42
113.9999999999999
  3
AM_ISO$0
100
AcDbAlignedDimension
 13
58.20970065199722
 23
105.4759919228162
 33
0.0
 14
172.2097006519972
 24
105.4759919228162
 34
0.0
 50
0.0000000000001018
100
AcDbRotatedDimension
  0
DIMENSION
  5
342A
330
1F
100
AcDbEntity
  8
AM_5
100
AcDbDimension
  2
*D26
 10
202.2387288867504
 20
134.7412076195404
 30
0.0
 11
211.4362162601657
 21
137.9912076195404
 31
0.0
 70
    32
 71
     5
 42
4.300000000000011
  3
AM_ISO$0
100
AcDbAlignedDimension
 13
197.9387288867503
 23
111.2547237153973
 33
0.0
 14
202.2387288867504
 24
112.5759919228163
 34
0.0
100
AcDbRotatedDimension
  0
VIEWPORT
  5
186
102
{ACAD_XDICTIONARY
360
34C6
102
}
330
23
100
AcDbEntity
 67
     1
  8
0
100
AcDbViewport
 10
5.249999639556163
 20
3.999999883606677
 30
0.0
 40
14.57585398793907
 41
8.992999745766947
 68
     1
 69
     1
 12
5.249999639556163
 22
3.999999883606677
 13
0.0
 23
0.0
 14
10.0
 24
10.0
 15
10.0
 25
10.0
 16
0.0
 26
0.0
 36
1.0
 17
0.0
 27
0.0
 37
0.0
 42
50.0
 43
0.0
 44
0.0
 45
8.992999745766947
 50
0.0
 51
0.0
 72
   100
 90
    32800
  1

281
     0
 71
     1
 74
     0
110
0.0
120
0.0
130
0.0
111
1.0
121
0.0
131
0.0
112
0.0
122
1.0
132
0.0
 79
     0
146
0.0
  0
ENDSEC
  0
SECTION
  2
OBJECTS
  0
DICTIONARY
  5
C
330
0
100
AcDbDictionary
281
     1
  3
ACAD_COLOR
350
C9
  3
ACAD_GROUP
350
D
  3
ACAD_LAYOUT
350
1A
  3
ACAD_MATERIAL
350
C8
  3
ACAD_MLEADERSTYLE
350
C13
  3
ACAD_MLINESTYLE
350
17
  3
ACAD_PLOTSETTINGS
350
19
  3
ACAD_PLOTSTYLENAME
350
E
  3
ACAD_SCALELIST
350
C01
  3
ACAD_TABLESTYLE
350
BFF
  3
ACAD_VISUALSTYLE
350
BEE
  3
ACDB_RECOMPOSE_DATA
350
1C32
  3
AcDbVariableDictionary
350
9E
  3
AcmDictionary
350
63
  3
AMG
350
49
  3
AMGSNAPSETTINGS
350
234
  3
DWGPROPS
350
34BD
  0
DICTIONARY
  5
29EE
330
8
100
AcDbDictionary
280
     1
281
     1
  0
DICTIONARY
  5
2C1
330
2
100
AcDbDictionary
280
     1
281
     1
  3
ACAD_LAYERFILTERS
360
782
  3
ACAD_LAYERSTATES
360
2C2
  3
AMLAYER_GROUPCOLORS
360
293D
  0
DICTIONARY
  5
1C00
330
10
100
AcDbDictionary
280
     1
281
     1
  3
ADSK_XREC_LAYER_RECONCILED
360
1C01
  0
DICTIONARY
  5
1C02
330
1F0
100
AcDbDictionary
280
     1
281
     1
  3
ADSK_XREC_LAYER_RECONCILED
360
1C03
  0
DICTIONARY
  5
1C04
330
23E
100
AcDbDictionary
280
     1
281
     1
  3
ADSK_XREC_LAYER_RECONCILED
360
1C05
  0
DICTIONARY
  5
1C06
330
23F
100
AcDbDictionary
280
     1
281
     1
  3
ADSK_XREC_LAYER_RECONCILED
360
1C07
  0
DICTIONARY
  5
1C08
330
240
100
AcDbDictionary
280
     1
281
     1
  3
ADSK_XREC_LAYER_RECONCILED
360
1C09
  0
DICTIONARY
  5
1C0A
330
2AD
100
AcDbDictionary
280
     1
281
     1
  3
ADSK_XREC_LAYER_RECONCILED
360
1C0B
  0
DICTIONARY
  5
1C0C
330
2AE
100
AcDbDictionary
280
     1
281
     1
  3
ADSK_XREC_LAYER_RECONCILED
360
1C0D
  0
DICTIONARY
  5
1C0E
330
2AF
100
AcDbDictionary
280
     1
281
     1
  3
ADSK_XREC_LAYER_RECONCILED
360
1C0F
  0
DICTIONARY
  5
1C12
330
2B1
100
AcDbDictionary
280
     1
281
     1
  3
ADSK_XREC_LAYER_RECONCILED
360
1C13
  0
DICTIONARY
  5
1C14
330
2B2
100
AcDbDictionary
280
     1
281
     1
  3
ADSK_XREC_LAYER_RECONCILED
360
1C15
  0
DICTIONARY
  5
1C2A
330
C52
100
AcDbDictionary
280
     1
281
     1
  3
ADSK_XREC_LAYER_RECONCILED
360
1C2B
  0
DICTIONARY
  5
1C2C
330
CCB
100
AcDbDictionary
280
     1
281
     1
  3
ADSK_XREC_LAYER_RECONCILED
360
1C2D
  0
DICTIONARY
  5
1C2E
330
10A6
100
AcDbDictionary
280
     1
281
     1
  3
ADSK_XREC_LAYER_RECONCILED
360
1C2F
  0
DICTIONARY
  5
99
330
1F
100
AcDbDictionary
280
     1
281
     1
  3
ACAD_SORTENTS
360
14A7
  0
DICTIONARY
  5
22D
330
224
100
AcDbDictionary
280
     1
281
     1
  0
DICTIONARY
  5
297
330
242
100
AcDbDictionary
280
     1
281
     1
  0
DICTIONARY
  5
A15
330
A0D
100
AcDbDictionary
280
     1
281
     1
  0
DICTIONARY
  5
A79
330
A20
100
AcDbDictionary
280
     1
281
     1
  0
DICTIONARY
  5
AA9
330
AA1
100
AcDbDictionary
280
     1
281
     1
  0
DICTIONARY
  5
AF1
330
AE9
100
AcDbDictionary
280
     1
281
     1
  0
DICTIONARY
  5
B55
330
AFC
100
AcDbDictionary
280
     1
281
     1
  0
DICTIONARY
  5
34C4
330
182
100
AcDbDictionary
280
     1
281
     1
  3
ACAD_XREC_ROUNDTRIP
360
34C5
  0
DICTIONARY
  5
34CC
330
28EF
100
AcDbDictionary
280
     1
281
     1
  3
ACAD_MTEXT_RT
360
34CD
  0
DICTIONARY
  5
34C6
330
186
100
AcDbDictionary
280
     1
281
     1
  3
ACAD_XREC_ROUNDTRIP
360
34C7
  0
DICTIONARY
  5
C9
102
{ACAD_REACTORS
330
C
102
}
330
C
100
AcDbDictionary
281
     1
  0
DICTIONARY
  5
D
102
{ACAD_REACTORS
330
C
102
}
330
C
100
AcDbDictionary
281
     1
  0
DICTIONARY
  5
1A
102
{ACAD_REACTORS
330
C
102
}
330
C
100
AcDbDictionary
281
     1
  3
Model
350
22
  3
レイアウト1
350
1E
  3
レイアウト2
350
26
  0
DICTIONARY
  5
C8
102
{ACAD_REACTORS
330
C
102
}
330
C
100
AcDbDictionary
281
     1
  3
ByBlock
350
BDE
  3
ByLayer
350
BD6
  3
Global
350
BE6
  0
DICTIONARY
  5
C13
102
{ACAD_REACTORS
330
C
102
}
330
C
100
AcDbDictionary
281
     1
  3
Standard
350
C14
  0
DICTIONARY
  5
17
102
{ACAD_REACTORS
330
C
102
}
330
C
100
AcDbDictionary
281
     1
  3
Standard
350
18
  0
DICTIONARY
  5
19
102
{ACAD_REACTORS
330
C
102
}
330
C
100
AcDbDictionary
281
     1
  0
ACDBDICTIONARYWDFLT
  5
E
102
{ACAD_REACTORS
330
C
102
}
330
C
100
AcDbDictionary
281
     1
  3
Normal
350
F
100
AcDbDictionaryWithDefault
340
F
  0
DICTIONARY
  5
C01
102
{ACAD_REACTORS
330
C
102
}
330
C
100
AcDbDictionary
281
     1
  3
A0
350
C02
  3
A1
350
C03
  3
A2
350
C04
  3
A3
350
C05
  3
A4
350
C06
  3
A5
350
C07
  3
A6
350
C08
  3
A7
350
C09
  3
A8
350
C0A
  3
A9
350
C0B
  3
B0
350
C0C
  3
B1
350
C0D
  3
B2
350
C0E
  3
B3
350
C0F
  3
B4
350
C10
  3
B5
350
C11
  3
B6
350
C12
  0
DICTIONARY
  5
BFF
102
{ACAD_REACTORS
330
C
102
}
330
C
100
AcDbDictionary
281
     1
  3
Standard
350
C00
  0
DICTIONARY
  5
BEE
102
{ACAD_REACTORS
330
C
102
}
330
C
100
AcDbDictionary
281
     1
  3
2dWireframe
350
BF4
  3
3D Hidden
350
BF6
  3
3dWireframe
350
BF5
  3
Basic
350
BF3
  3
Brighten
350
BFA
  3
ColorChange
350
BFE
  3
Conceptual
350
BF7
  3
Dim
350
BF9
  3
Facepattern
350
BFD
  3
Flat
350
BEF
  3
FlatWithEdges
350
BF0
  3
Gouraud
350
BF1
  3
GouraudWithEdges
350
BF2
  3
Linepattern
350
BFC
  3
Realistic
350
BF8
  3
Thicken
350
BFB
  0
XRECORD
  5
1C32
102
{ACAD_REACTORS
330
C
102
}
330
C
100
AcDbXrecord
280
     1
 90
        1
330
C00
  0
DICTIONARY
  5
9E
102
{ACAD_REACTORS
330
C
102
}
330
C
100
AcDbDictionary
281
     1
  3
CANNOSCALE
350
1C36
  3
CMLEADERSTYLE
350
1C34
  3
CTABLESTYLE
350
1C33
  3
DIMASSOC
350
A0
  3
INDEXCTL
350
9F
  3
LAYEREVAL
350
1C38
  3
LAYERNOTIFY
350
1C39
  3
LIGHTINGUNITS
350
1C37
  3
MSLTSCALE
350
1C35
  3
SORTENTS
350
34BB
  0
DICTIONARY
  5
63
102
{ACAD_REACTORS
330
C
102
}
330
C
100
AcDbDictionary
281
     1
  3
AcmBOM
350
9A7
  3
AcmStdDictionary
350
69
  3
AMDTSECTSYM_ARROWCOLOR
350
C38
  0
DICTIONARY
  5
49
102
{ACAD_REACTORS
330
C
102
}
330
C
100
AcDbDictionary
281
     1
  0
DICTIONARY
  5
234
102
{ACAD_REACTORS
330
C
102
}
330
C
100
AcDbDictionary
281
     1
  0
XRECORD
  5
34BD
102
{ACAD_REACTORS
330
C
102
}
330
C
100
AcDbXrecord
280
     1
  1
DWGPROPS COOKIE
  2

  3

  4

  6

  7

  8
Administrator
  9

300
AmdtFileType=84
301
=
302
=
303
=
304
=
305
=
306
=
307
=
308
=
309
=
 40
0.4706324305555556
 41
2455141.414473195
 42
2455966.709558738
  1

 90
        1
  0
DICTIONARY
  5
782
102
{ACAD_REACTORS
330
2C1
102
}
330
2C1
100
AcDbDictionary
281
     1
  0
DICTIONARY
  5
2C2
102
{ACAD_REACTORS
330
2C1
102
}
330
2C1
100
AcDbDictionary
281
     1
  0
DICTIONARY
  5
293D
102
{ACAD_REACTORS
330
2C1
102
}
330
2C1
100
AcDbDictionary
280
     1
281
     1
  0
XRECORD
  5
1C01
102
{ACAD_REACTORS
330
1C00
102
}
330
1C00
100
AcDbXrecord
280
     1
290
     1
  0
XRECORD
  5
1C03
102
{ACAD_REACTORS
330
1C02
102
}
330
1C02
100
AcDbXrecord
280
     1
290
     1
  0
XRECORD
  5
1C05
102
{ACAD_REACTORS
330
1C04
102
}
330
1C04
100
AcDbXrecord
280
     1
290
     1
  0
XRECORD
  5
1C07
102
{ACAD_REACTORS
330
1C06
102
}
330
1C06
100
AcDbXrecord
280
     1
290
     1
  0
XRECORD
  5
1C09
102
{ACAD_REACTORS
330
1C08
102
}
330
1C08
100
AcDbXrecord
280
     1
290
     1
  0
XRECORD
  5
1C0B
102
{ACAD_REACTORS
330
1C0A
102
}
330
1C0A
100
AcDbXrecord
280
     1
290
     1
  0
XRECORD
  5
1C0D
102
{ACAD_REACTORS
330
1C0C
102
}
330
1C0C
100
AcDbXrecord
280
     1
290
     1
  0
XRECORD
  5
1C0F
102
{ACAD_REACTORS
330
1C0E
102
}
330
1C0E
100
AcDbXrecord
280
     1
290
     1
  0
XRECORD
  5
1C13
102
{ACAD_REACTORS
330
1C12
102
}
330
1C12
100
AcDbXrecord
280
     1
290
     1
  0
XRECORD
  5
1C15
102
{ACAD_REACTORS
330
1C14
102
}
330
1C14
100
AcDbXrecord
280
     1
290
     1
  0
XRECORD
  5
1C2B
102
{ACAD_REACTORS
330
1C2A
102
}
330
1C2A
100
AcDbXrecord
280
     1
290
     1
  0
XRECORD
  5
1C2D
102
{ACAD_REACTORS
330
1C2C
102
}
330
1C2C
100
AcDbXrecord
280
     1
290
     1
  0
XRECORD
  5
1C2F
102
{ACAD_REACTORS
330
1C2E
102
}
330
1C2E
100
AcDbXrecord
280
     1
290
     1
  0
SORTENTSTABLE
  5
14A7
102
{ACAD_REACTORS
330
99
102
}
330
99
100
AcDbSortentsTable
330
1F
331
168D
  5
168F
331
1B30
  5
1CAD
331
1EED
  5
1F7B
331
1CCE
  5
1EED
331
1972
  5
19D3
331
2162
  5
2172
331
2201
  5
2201
331
16C5
  5
16F9
331
1C97
  5
1CB4
331
216A
  5
2175
331
2209
  5
2209
331
2A73
  5
2A73
331
1A31
  5
1A30
331
154E
  5
16CC
331
19BA
  5
19E0
331
20B4
  5
2104
331
2123
  5
215A
331
2211
  5
2211
331
30D0
  5
30F9
331
3029
  5
3029
331
1CA7
  5
1CC2
331
3031
  5
3031
331
293E
  5
293E
331
3039
  5
3039
331
1A39
  5
1C91
331
20FC
  5
2112
331
181C
  5
1870
331
1A49
  5
1CA1
331
1F7D
  5
2078
331
1686
  5
1685
331
1854
  5
187D
331
19DA
  5
1A25
331
2A5C
  5
2A5C
331
3041
  5
3041
331
1EE6
  5
1F61
331
16FD
  5
1744
331
1CBF
  5
1CCC
331
203D
  5
20B3
331
21FA
  5
21FA
331
2A64
  5
2A64
331
3049
  5
3049
331
2075
  5
20B7
331
1CC7
  5
1CDD
331
215B
  5
2176
331
2A6C
  5
2A6C
331
3051
  5
3051
331
2B1B
  5
2B1A
331
19EA
  5
1A39
331
168E
  5
16F0
331
1735
  5
174A
331
185C
  5
18BA
331
173D
  5
1859
331
1864
  5
1941
331
2202
  5
2202
331
1CD7
  5
1F50
331
216B
  5
2171
331
220A
  5
220A
331
1CA0
  5
1CC3
331
154F
  5
16CE
331
19BB
  5
19DC
331
20B5
  5
2105
331
2124
  5
215B
331
2173
  5
218C
331
2212
  5
2212
331
2996
  5
2995
331
302A
  5
302A
331
3032
  5
3032
331
30F9
  5
30D1
331
303A
  5
303A
331
1CA8
  5
1CC0
331
1A3A
  5
1C99
331
1ED7
  5
1F56
331
16EE
  5
1736
331
1A4A
  5
1CA2
331
20FD
  5
2113
331
2838
  5
2838
331
1687
  5
1687
331
16F6
  5
173D
331
2A5D
  5
2A5D
331
2AC4
  5
2AC4
331
1CC0
  5
1CCD
331
214C
  5
2128
331
21FB
  5
21FB
331
2A65
  5
2A65
331
3042
  5
3042
331
215C
  5
216B
331
2A6D
  5
2A6D
331
304A
  5
304A
331
2B1C
  5
2B1B
331
3052
  5
3052
331
168F
  5
16F1
331
185D
  5
193D
331
1CC8
  5
1CE0
331
1EEF
  5
1F7C
331
1C91
  5
1CB1
331
1A23
  5
1B31
331
14E8
  5
16C5
331
1865
  5
196E
331
2115
  5
2138
331
2164
  5
217E
331
2203
  5
2203
331
28C8
  5
28C8
331
1C99
  5
1CB5
331
1A2B
  5
1C9B
331
16C7
  5
16FB
331
1746
  5
1863
331
19B4
  5
19D5
331
20AE
  5
20B9
331
216C
  5
217F
331
220B
  5
220B
331
2819
  5
2819
331
1CA1
  5
1CC5
331
20B6
  5
2106
331
2125
  5
2159
331
2174
  5
218D
331
2213
  5
2213
331
302B
  5
302B
331
3033
  5
3033
331
303B
  5
303B
331
1A3B
  5
1A38
331
187D
  5
1973
331
20FE
  5
2115
331
1ED8
  5
1F5B
331
1CB1
  5
1CC7
331
19D4
  5
19EA
331
1856
  5
1882
331
16F7
  5
1738
331
193D
  5
19BC
331
213D
  5
2162
331
2A5E
  5
2A5E
331
210E
  5
2129
331
203F
  5
20B1
331
1CC1
  5
1CCE
331
21FC
  5
21FC
331
2A66
  5
2A66
331
3043
  5
3043
331
2077
  5
20B6
331
2A6E
  5
2A6E
331
304B
  5
304B
331
1688
  5
1688
331
1EE8
  5
1F64
331
1690
  5
16F3
331
19EC
  5
1A3A
331
1CC9
  5
1D99
331
27FA
  5
27FA
331
2204
  5
2204
331
1F50
  5
203B
331
1A2C
  5
1C96
331
186E
  5
196F
331
1CD9
  5
1F23
331
20AF
  5
20BA
331
216D
  5
2180
331
220C
  5
220C
331
174F
  5
1853
331
1CA2
  5
1CBD
331
20B7
  5
210B
331
2175
  5
2127
331
2998
  5
2997
331
302C
  5
302C
331
3034
  5
3034
331
303C
  5
303C
331
16E0
  5
16C7
331
1CAA
  5
1CC4
331
187E
  5
1975
331
1A3C
  5
1690
331
1F60
  5
203F
331
20FF
  5
2116
331
16F0
  5
1739
331
1ED9
  5
1F60
331
2038
  5
20AE
331
19DD
  5
1A2C
331
16F8
  5
1743
331
193E
  5
19CC
331
27DB
  5
27DB
331
2A5F
  5
2A5F
331
210F
  5
2123
331
1CC2
  5
1CD2
331
2A67
  5
2A67
331
3044
  5
3044
331
215E
  5
2169
331
2A6F
  5
2A6F
331
304C
  5
304C
331
2B1E
  5
2B1D
331
3084
  5
3084
331
1689
  5
1689
331
1EE9
  5
1F67
331
1CCA
  5
1D9D
331
1738
  5
174B
331
196E
  5
19CE
331
2078
  5
20B8
331
2117
  5
2133
331
1A2D
  5
1A49
331
20B0
  5
20BC
331
211F
  5
2143
331
216E
  5
2181
331
1CA3
  5
1CC1
331
19BE
  5
19D6
331
20B8
  5
210C
331
212F
  5
2160
331
302D
  5
302D
331
3035
  5
3035
331
303D
  5
303D
331
1552
  5
16DD
331
1750
  5
1865
331
1F61
  5
2040
331
1818
  5
186F
331
19CE
  5
19EC
331
2100
  5
2118
331
1CB3
  5
1CBE
331
278C
  5
278C
331
2A58
  5
2A58
331
2108
  5
2120
331
2039
  5
20AF
331
1CBB
  5
1CC8
331
19DE
  5
1A2B
331
213F
  5
2164
331
2A60
  5
2A60
331
1CC3
  5
1CD3
331
2A68
  5
2A68
331
3045
  5
3045
331
215F
  5
216C
331
2715
  5
2715
331
304D
  5
304D
331
168A
  5
168B
331
1731
  5
1740
331
1EEA
  5
1F6A
331
1C64
  5
1CB0
331
1692
  5
16F7
331
1739
  5
1751
331
1B35
  5
1CA9
331
1CCB
  5
1EE8
331
2110
  5
2131
331
1741
  5
1860
331
2745
  5
2745
331
2A70
  5
2A70
331
1F52
  5
1F55
331
C44
  5
C44
331
16DA
  5
1732
331
1A2E
  5
1C9C
331
1CDB
  5
1F51
331
20B1
  5
2101
331
2120
  5
2146
331
216F
  5
2182
331
276D
  5
276D
331
20B9
  5
210D
331
2216
  5
2216
331
299A
  5
2999
331
302E
  5
302E
331
3036
  5
3036
331
303E
  5
303E
331
16E2
  5
16DF
331
1751
  5
174C
331
1F62
  5
2041
331
2A59
  5
2A59
331
2101
  5
2119
331
1683
  5
16E2
331
16F2
  5
173B
331
1CB4
  5
1CBC
331
1F7A
  5
2074
331
2A61
  5
2A61
331
21F7
  5
21F7
331
2109
  5
2124
331
1CBC
  5
1CC9
331
19DF
  5
1A24
331
1A7E
  5
1CA8
331
2A69
  5
2A69
331
2158
  5
2166
331
3046
  5
3046
331
1CC4
  5
1CD7
331
1B2E
  5
1CAC
331
2716
  5
2716
331
304E
  5
304E
331
1732
  5
173F
331
168B
  5
168C
331
2160
  5
216F
331
2111
  5
2132
331
1CCC
  5
1EEB
331
2119
  5
2110
331
2168
  5
2168
331
1742
  5
1856
331
1F23
  5
1F7D
331
2121
  5
2152
331
2170
  5
2184
331
220F
  5
220F
331
2A71
  5
2A71
331
16DB
  5
16E1
331
1A2F
  5
1C64
331
20B2
  5
20BB
331
2129
  5
215C
331
2217
  5
2217
331
3027
  5
3027
331
1F5B
  5
203D
331
1CA5
  5
1CBF
331
1A37
  5
1A7E
331
1D0C
  5
1F54
331
20BA
  5
210E
331
302F
  5
302F
331
3037
  5
3037
331
303F
  5
303F
331
1752
  5
185E
331
2131
  5
2161
331
21E8
  5
21F0
331
1F63
  5
2073
331
2A5A
  5
2A5A
331
2102
  5
211C
331
1CB5
  5
1CC6
331
1F7B
  5
2075
331
2A62
  5
2A62
331
210A
  5
212A
331
203B
  5
20B0
331
1CBD
  5
1CCA
331
2A6A
  5
2A6A
331
2159
  5
216E
331
3047
  5
3047
331
2073
  5
20B4
331
1CC5
  5
1CD8
331
304F
  5
304F
331
2B19
  5
2B15
331
168C
  5
168D
331
19E8
  5
1A2D
331
2161
  5
217D
331
2200
  5
2200
331
1EEC
  5
1F7A
331
14A5
  5
1691
331
1CCD
  5
1EEC
331
2169
  5
216A
331
2208
  5
2208
331
1F24
  5
2038
331
1C96
  5
1CB3
331
2210
  5
2210
331
2A72
  5
2A72
331
1A30
  5
1C97
331
16DC
  5
16FE
331
154D
  5
16C8
331
C46
  5
C46
331
1872
  5
1972
331
1CDD
  5
1F52
331
20B3
  5
20BD
331
30C7
  5
30F7
331
212A
  5
215E
331
2218
  5
2218
331
299C
  5
299B
331
3028
  5
3028
331
20BB
  5
210F
331
3030
  5
3030
331
3038
  5
3038
331
30F7
  5
30D4
331
1A38
  5
1C9D
331
19C9
  5
19E8
331
20FB
  5
2111
331
161D
  5
16DE
331
18BA
  5
19BB
331
22B0
  5
22B0
331
1F7C
  5
2077
331
1853
  5
1871
331
1685
  5
1684
331
16F4
  5
173E
331
1CB6
  5
1CBB
331
2A5B
  5
2A5B
331
3040
  5
3040
331
21F9
  5
21F9
331
1EE5
  5
1F5C
331
1CBE
  5
1CCB
331
1942
  5
19C9
331
203C
  5
20B2
331
214A
  5
215F
331
2A63
  5
2A63
331
3048
  5
3048
331
2A6B
  5
2A6B
331
2074
  5
20B5
331
1CC6
  5
1CDB
331
215A
  5
2170
331
3050
  5
3050
  0
XRECORD
  5
34C5
102
{ACAD_REACTORS
330
34C4
102
}
330
34C4
100
AcDbXrecord
280
     1
102
SHADEPLOT
 70
     0
  0
XRECORD
  5
34CD
102
{ACAD_REACTORS
330
34CC
102
}
330
34CC
100
AcDbXrecord
280
     1
 40
4136.0
  1
4-\U+22053.5
  0
XRECORD
  5
34C7
102
{ACAD_REACTORS
330
34C6
102
}
330
34C6
100
AcDbXrecord
280
     1
102
SHADEPLOT
 70
     0
  0
LAYOUT
  5
22
102
{ACAD_XDICTIONARY
360
34C0
102
}
102
{ACAD_REACTORS
330
1A
102
}
330
1A
100
AcDbPlotSettings
  1

  2
RICOH IPSiO CX7200 RPCS
  4
A3
  6
AM_VIEW1
 40
5.873749732971191
 41
5.873747825622558
 42
5.873748779296875
 43
5.873748779296875
 44
296.9259948730469
 45
419.9466552734374
 46
2.589999999999999
 47
4.099999999999999
 48
10.00000000000003
 49
0.0
140
410.0
141
280.0
142
1.0
143
1.0
 70
 11956
 72
     1
 73
     1
 74
     4
  7
takachi-2.ctb
 75
    16
147
1.0
148
-10.00000000000003
149
0.0
100
AcDbLayout
  1
Model
 70
     1
 71
     0
 10
0.0
 20
0.0
 11
12.0
 21
9.0
 12
0.0
 22
0.0
 32
0.0
 14
0.0
 24
0.0
 34
0.0
 15
0.0
 25
0.0
 35
0.0
146
0.0
 13
0.0
 23
0.0
 33
0.0
 16
1.0
 26
0.0
 36
0.0
 17
0.0
 27
1.0
 37
0.0
 76
     0
330
1F
331
348F
  0
LAYOUT
  5
1E
102
{ACAD_XDICTIONARY
360
34BE
102
}
102
{ACAD_REACTORS
330
1A
102
}
330
1A
100
AcDbPlotSettings
  1

  2
none_device
  4
Letter_(8.50_x_11.00_Inches)
  6

 40
6.349999904632568
 41
6.349999904632568
 42
6.350006103515625
 43
6.350006103515625
 44
215.8999938964844
 45
279.3999938964844
 46
0.0
 47
0.0
 48
0.0
 49
0.0
140
0.0
141
0.0
142
1.0
143
1.0
 70
   688
 72
     0
 73
     1
 74
     5
  7
takachi-2.ctb
 75
    16
147
1.0
148
0.0
149
0.0
100
AcDbLayout
  1
レイアウト1
 70
     1
 71
     1
 10
-0.2500002402958907
 20
-0.2499999962453767
 11
10.74999951940821
 21
8.249999763458731
 12
0.0
 22
0.0
 32
0.0
 14
1.000000000000000E+20
 24
1.000000000000000E+20
 34
1.000000000000000E+20
 15
-1.000000000000000E+20
 25
-1.000000000000000E+20
 35
-1.000000000000000E+20
146
0.0
 13
0.0
 23
0.0
 33
0.0
 16
1.0
 26
0.0
 36
0.0
 17
0.0
 27
1.0
 37
0.0
 76
     0
330
1B
331
182
  0
LAYOUT
  5
26
102
{ACAD_XDICTIONARY
360
34C2
102
}
102
{ACAD_REACTORS
330
1A
102
}
330
1A
100
AcDbPlotSettings
  1

  2
none_device
  4
Letter_(8.50_x_11.00_Inches)
  6

 40
6.349999904632568
 41
6.349999904632568
 42
6.350006103515625
 43
6.350006103515625
 44
215.8999938964844
 45
279.3999938964844
 46
0.0
 47
0.0
 48
0.0
 49
0.0
140
0.0
141
0.0
142
1.0
143
1.0
 70
   688
 72
     0
 73
     1
 74
     5
  7
takachi-2.ctb
 75
    16
147
1.0
148
0.0
149
0.0
100
AcDbLayout
  1
レイアウト2
 70
     1
 71
     2
 10
-0.2500002402958907
 20
-0.2499999962453767
 11
10.74999951940821
 21
8.249999763458731
 12
0.0
 22
0.0
 32
0.0
 14
1.000000000000000E+20
 24
1.000000000000000E+20
 34
1.000000000000000E+20
 15
-1.000000000000000E+20
 25
-1.000000000000000E+20
 35
-1.000000000000000E+20
146
0.0
 13
0.0
 23
0.0
 33
0.0
 16
1.0
 26
0.0
 36
0.0
 17
0.0
 27
1.0
 37
0.0
 76
     0
330
23
331
186
  0
MATERIAL
  5
BDE
102
{ACAD_XDICTIONARY
360
BDF
102
}
102
{ACAD_REACTORS
330
C8
102
}
330
C8
100
AcDbMaterial
  1
ByBlock
 72
     0
 43
0.0008202099737533
 43
0.0
 43
0.0
 43
0.0
 43
0.0
 43
0.0008202099737533
 43
0.0
 43
0.0
 43
0.0
 43
0.0
 43
1.0
 43
0.0
 43
0.0
 43
0.0
 43
0.0
 43
1.0
 77
     0
 47
0.0008202099737533
 47
0.0
 47
0.0
 47
0.0
 47
0.0
 47
0.0008202099737533
 47
0.0
 47
0.0
 47
0.0
 47
0.0
 47
1.0
 47
0.0
 47
0.0
 47
0.0
 47
0.0
 47
1.0
171
     0
 49
0.0008202099737533
 49
0.0
 49
0.0
 49
0.0
 49
0.0
 49
0.0008202099737533
 49
0.0
 49
0.0
 49
0.0
 49
0.0
 49
1.0
 49
0.0
 49
0.0
 49
0.0
 49
0.0
 49
1.0
175
     0
142
0.0008202099737533
142
0.0
142
0.0
142
0.0
142
0.0
142
0.0008202099737533
142
0.0
142
0.0
142
0.0
142
0.0
142
1.0
142
0.0
142
0.0
142
0.0
142
0.0
142
1.0
179
     0
144
0.0008202099737533
144
0.0
144
0.0
144
0.0
144
0.0
144
0.0008202099737533
144
0.0
144
0.0
144
0.0
144
0.0
144
1.0
144
0.0
144
0.0
144
0.0
144
0.0
144
1.0
147
0.0008202099737533
147
0.0
147
0.0
147
0.0
147
0.0
147
0.0008202099737533
147
0.0
147
0.0
147
0.0
147
0.0
147
1.0
147
0.0
147
0.0
147
0.0
147
0.0
147
1.0
  0
MATERIAL
  5
BD6
102
{ACAD_XDICTIONARY
360
BD7
102
}
102
{ACAD_REACTORS
330
C8
102
}
330
C8
100
AcDbMaterial
  1
ByLayer
 72
     0
 43
0.0008202099737533
 43
0.0
 43
0.0
 43
0.0
 43
0.0
 43
0.0008202099737533
 43
0.0
 43
0.0
 43
0.0
 43
0.0
 43
1.0
 43
0.0
 43
0.0
 43
0.0
 43
0.0
 43
1.0
 77
     0
 47
0.0008202099737533
 47
0.0
 47
0.0
 47
0.0
 47
0.0
 47
0.0008202099737533
 47
0.0
 47
0.0
 47
0.0
 47
0.0
 47
1.0
 47
0.0
 47
0.0
 47
0.0
 47
0.0
 47
1.0
171
     0
 49
0.0008202099737533
 49
0.0
 49
0.0
 49
0.0
 49
0.0
 49
0.0008202099737533
 49
0.0
 49
0.0
 49
0.0
 49
0.0
 49
1.0
 49
0.0
 49
0.0
 49
0.0
 49
0.0
 49
1.0
175
     0
142
0.0008202099737533
142
0.0
142
0.0
142
0.0
142
0.0
142
0.0008202099737533
142
0.0
142
0.0
142
0.0
142
0.0
142
1.0
142
0.0
142
0.0
142
0.0
142
0.0
142
1.0
179
     0
144
0.0008202099737533
144
0.0
144
0.0
144
0.0
144
0.0
144
0.0008202099737533
144
0.0
144
0.0
144
0.0
144
0.0
144
1.0
144
0.0
144
0.0
144
0.0
144
0.0
144
1.0
147
0.0008202099737533
147
0.0
147
0.0
147
0.0
147
0.0
147
0.0008202099737533
147
0.0
147
0.0
147
0.0
147
0.0
147
1.0
147
0.0
147
0.0
147
0.0
147
0.0
147
1.0
  0
MATERIAL
  5
BE6
102
{ACAD_XDICTIONARY
360
BE7
102
}
102
{ACAD_REACTORS
330
C8
102
}
330
C8
100
AcDbMaterial
  1
Global
 72
     0
 43
0.0008202099737533
 43
0.0
 43
0.0
 43
0.0
 43
0.0
 43
0.0008202099737533
 43
0.0
 43
0.0
 43
0.0
 43
0.0
 43
1.0
 43
0.0
 43
0.0
 43
0.0
 43
0.0
 43
1.0
 77
     0
 47
0.0008202099737533
 47
0.0
 47
0.0
 47
0.0
 47
0.0
 47
0.0008202099737533
 47
0.0
 47
0.0
 47
0.0
 47
0.0
 47
1.0
 47
0.0
 47
0.0
 47
0.0
 47
0.0
 47
1.0
171
     0
 49
0.0008202099737533
 49
0.0
 49
0.0
 49
0.0
 49
0.0
 49
0.0008202099737533
 49
0.0
 49
0.0
 49
0.0
 49
0.0
 49
1.0
 49
0.0
 49
0.0
 49
0.0
 49
0.0
 49
1.0
175
     0
142
0.0008202099737533
142
0.0
142
0.0
142
0.0
142
0.0
142
0.0008202099737533
142
0.0
142
0.0
142
0.0
142
0.0
142
1.0
142
0.0
142
0.0
142
0.0
142
0.0
142
1.0
179
     0
144
0.0008202099737533
144
0.0
144
0.0
144
0.0
144
0.0
144
0.0008202099737533
144
0.0
144
0.0
144
0.0
144
0.0
144
1.0
144
0.0
144
0.0
144
0.0
144
0.0
144
1.0
147
0.0008202099737533
147
0.0
147
0.0
147
0.0
147
0.0
147
0.0008202099737533
147
0.0
147
0.0
147
0.0
147
0.0
147
1.0
147
0.0
147
0.0
147
0.0
147
0.0
147
1.0
  0
MLEADERSTYLE
  5
C14
102
{ACAD_REACTORS
330
C13
102
}
330
C13
100
AcDbMLeaderStyle
170
     2
171
     1
172
     0
 90
        2
 40
0.0
 41
0.0
173
     1
 91
-1056964608
340
14
 92
       -2
290
     1
 42
2.0
291
     1
 43
0.36
  3
Standard
 44
4.0
300

342
11
174
     1
178
     6
175
     1
176
     0
 93
-1056964608
 45
4.0
292
     0
297
     0
 46
4.0
 94
-1056964608
 47
1.0
 49
1.0
140
1.0
293
     1
141
0.0
294
     1
177
     0
142
1.0
295
     0
296
     0
143
0.125
1001
ACAD_MLEADERVER
1070
     2
  0
MLINESTYLE
  5
18
102
{ACAD_REACTORS
330
17
102
}
330
17
100
AcDbMlineStyle
  2
STANDARD
 70
     0
  3

 62
   256
 51
90.0
 52
90.0
 71
     2
 49
0.5
 62
   256
  6
BYLAYER
 49
-0.5
 62
   256
  6
BYLAYER
  0
ACDBPLACEHOLDER
  5
F
102
{ACAD_REACTORS
330
E
102
}
330
E
  0
SCALE
  5
C02
102
{ACAD_REACTORS
330
C01
102
}
330
C01
100
AcDbScale
 70
     0
300
1:1
140
1.0
141
1.0
290
     1
  0
SCALE
  5
C03
102
{ACAD_REACTORS
330
C01
102
}
330
C01
100
AcDbScale
 70
     0
300
1:2
140
1.0
141
2.0
290
     0
  0
SCALE
  5
C04
102
{ACAD_REACTORS
330
C01
102
}
330
C01
100
AcDbScale
 70
     0
300
1:4
140
1.0
141
4.0
290
     0
  0
SCALE
  5
C05
102
{ACAD_REACTORS
330
C01
102
}
330
C01
100
AcDbScale
 70
     0
300
1:5
140
1.0
141
5.0
290
     0
  0
SCALE
  5
C06
102
{ACAD_REACTORS
330
C01
102
}
330
C01
100
AcDbScale
 70
     0
300
1:8
140
1.0
141
8.0
290
     0
  0
SCALE
  5
C07
102
{ACAD_REACTORS
330
C01
102
}
330
C01
100
AcDbScale
 70
     0
300
1:10
140
1.0
141
10.0
290
     0
  0
SCALE
  5
C08
102
{ACAD_REACTORS
330
C01
102
}
330
C01
100
AcDbScale
 70
     0
300
1:16
140
1.0
141
16.0
290
     0
  0
SCALE
  5
C09
102
{ACAD_REACTORS
330
C01
102
}
330
C01
100
AcDbScale
 70
     0
300
1:20
140
1.0
141
20.0
290
     0
  0
SCALE
  5
C0A
102
{ACAD_REACTORS
330
C01
102
}
330
C01
100
AcDbScale
 70
     0
300
1:30
140
1.0
141
30.0
290
     0
  0
SCALE
  5
C0B
102
{ACAD_REACTORS
330
C01
102
}
330
C01
100
AcDbScale
 70
     0
300
1:40
140
1.0
141
40.0
290
     0
  0
SCALE
  5
C0C
102
{ACAD_REACTORS
330
C01
102
}
330
C01
100
AcDbScale
 70
     0
300
1:50
140
1.0
141
50.0
290
     0
  0
SCALE
  5
C0D
102
{ACAD_REACTORS
330
C01
102
}
330
C01
100
AcDbScale
 70
     0
300
1:100
140
1.0
141
100.0
290
     0
  0
SCALE
  5
C0E
102
{ACAD_REACTORS
330
C01
102
}
330
C01
100
AcDbScale
 70
     0
300
2:1
140
2.0
141
1.0
290
     0
  0
SCALE
  5
C0F
102
{ACAD_REACTORS
330
C01
102
}
330
C01
100
AcDbScale
 70
     0
300
4:1
140
4.0
141
1.0
290
     0
  0
SCALE
  5
C10
102
{ACAD_REACTORS
330
C01
102
}
330
C01
100
AcDbScale
 70
     0
300
8:1
140
8.0
141
1.0
290
     0
  0
SCALE
  5
C11
102
{ACAD_REACTORS
330
C01
102
}
330
C01
100
AcDbScale
 70
     0
300
10:1
140
10.0
141
1.0
290
     0
  0
SCALE
  5
C12
102
{ACAD_REACTORS
330
C01
102
}
330
C01
100
AcDbScale
 70
     0
300
100:1
140
100.0
141
1.0
290
     0
  0
TABLESTYLE
  5
C00
102
{ACAD_XDICTIONARY
360
1C30
102
}
102
{ACAD_REACTORS
330
BFF
102
}
330
BFF
100
AcDbTableStyle
  3
Standard
 70
     0
 71
     0
 40
1.5
 41
1.5
280
     0
281
     0
  7
STANDARD
140
4.5
170
     2
 62
     0
 63
     7
283
     0
274
    -2
284
     1
 64
     0
275
    -2
285
     1
 65
     0
276
    -2
286
     1
 66
     0
277
    -2
287
     1
 67
     0
278
    -2
288
     1
 68
     0
279
    -2
289
     1
 69
     0
  7
STANDARD
140
6.0
170
     5
 62
     0
 63
     7
283
     0
274
    -2
284
     1
 64
     0
275
    -2
285
     1
 65
     0
276
    -2
286
     1
 66
     0
277
    -2
287
     1
 67
     0
278
    -2
288
     1
 68
     0
279
    -2
289
     1
 69
     0
  7
STANDARD
140
4.5
170
     5
 62
     0
 63
     7
283
     0
274
    -2
284
     1
 64
     0
275
    -2
285
     1
 65
     0
276
    -2
286
     1
 66
     0
277
    -2
287
     1
 67
     0
278
    -2
288
     1
 68
     0
279
    -2
289
     1
 69
     0
  0
VISUALSTYLE
  5
BF4
102
{ACAD_REACTORS
330
BEE
102
}
330
BEE
100
AcDbVisualStyle
  2
2dWireframe
 70
     4
 71
     0
 72
     2
 73
     0
 90
        0
 40
-0.6
 41
-30.0
 62
     5
 63
     7
 74
     1
 91
        4
 64
     7
 65
   257
 75
     1
175
     1
 42
1.0
 92
        0
 66
   257
 43
1.0
 76
     1
 77
     6
 78
     2
 67
     7
 79
     5
170
     0
171
     0
290
     0
174
     0
 93
        1
 44
0.0
173
     0
291
     0
 45
0.0
1001
ACAD
1000
AcDbSavedByObjectVersion
1070
     0
  0
VISUALSTYLE
  5
BF6
102
{ACAD_REACTORS
330
BEE
102
}
330
BEE
100
AcDbVisualStyle
  2
3D Hidden
 70
     6
 71
     1
 72
     2
 73
     2
 90
        0
 40
-0.6
 41
-30.0
 62
     5
 63
     7
 74
     2
 91
        2
 64
     7
 65
   257
 75
     2
175
     1
 42
40.0
 92
        0
 66
   257
 43
1.0
 76
     1
 77
     6
 78
     2
 67
     7
 79
     3
170
     0
171
     0
290
     0
174
     0
 93
        1
 44
0.0
173
     0
291
     0
 45
0.0
1001
ACAD
1000
AcDbSavedByObjectVersion
1070
     0
  0
VISUALSTYLE
  5
BF5
102
{ACAD_REACTORS
330
BEE
102
}
330
BEE
100
AcDbVisualStyle
  2
3dWireframe
 70
     5
 71
     0
 72
     2
 73
     0
 90
        0
 40
-0.6
 41
-30.0
 62
     5
 63
     7
 74
     1
 91
        4
 64
     7
 65
   257
 75
     1
175
     1
 42
1.0
 92
        0
 66
   257
 43
1.0
 76
     1
 77
     6
 78
     2
 67
     7
 79
     5
170
     0
171
     0
290
     0
174
     0
 93
        1
 44
0.0
173
     0
291
     0
 45
0.0
1001
ACAD
1000
AcDbSavedByObjectVersion
1070
     0
  0
VISUALSTYLE
  5
BF3
102
{ACAD_REACTORS
330
BEE
102
}
330
BEE
100
AcDbVisualStyle
  2
Basic
 70
     7
 71
     1
 72
     0
 73
     1
 90
        0
 40
-0.6
 41
-30.0
 62
     5
 63
     7
 74
     0
 91
        4
 64
     7
 65
   257
 75
     1
175
     1
 42
1.0
 92
        8
 66
     7
 43
1.0
 76
     1
 77
     6
 78
     2
 67
     7
 79
     5
170
     0
171
     0
290
     0
174
     0
 93
        1
 44
0.0
173
     0
291
     1
 45
0.0
1001
ACAD
1000
AcDbSavedByObjectVersion
1070
     0
  0
VISUALSTYLE
  5
BFA
102
{ACAD_REACTORS
330
BEE
102
}
330
BEE
100
AcDbVisualStyle
  2
Brighten
 70
    12
 71
     2
 72
     2
 73
     0
 90
        0
 40
-0.6
 41
-30.0
 62
     5
 63
     7
 74
     1
 91
        4
 64
     7
 65
   257
 75
     1
175
     1
 42
1.0
 92
        8
 66
     7
 43
1.0
 76
     1
 77
     6
 78
     2
 67
     7
 79
     5
170
     0
171
     0
290
     0
174
     0
 93
        1
 44
50.0
173
     0
291
     1
 45
0.0
1001
ACAD
1000
AcDbSavedByObjectVersion
1070
     0
  0
VISUALSTYLE
  5
BFE
102
{ACAD_REACTORS
330
BEE
102
}
330
BEE
100
AcDbVisualStyle
  2
ColorChange
 70
    16
 71
     2
 72
     2
 73
     3
 90
        0
 40
-0.6
 41
-30.0
 62
     5
 63
     8
 74
     1
 91
        4
 64
     7
 65
   257
 75
     1
175
     1
 42
1.0
 92
        8
 66
     8
 43
1.0
 76
     1
 77
     6
 78
     2
 67
     7
 79
     5
170
     0
171
     0
290
     0
174
     0
 93
        1
 44
0.0
173
     0
291
     1
 45
0.0
1001
ACAD
1000
AcDbSavedByObjectVersion
1070
     0
  0
VISUALSTYLE
  5
BF7
102
{ACAD_REACTORS
330
BEE
102
}
330
BEE
100
AcDbVisualStyle
  2
Conceptual
 70
     9
 71
     3
 72
     2
 73
     0
 90
        0
 40
-0.6
 41
-30.0
 62
     5
 63
     7
 74
     2
 91
        2
 64
     7
 65
   257
 75
     1
175
     1
 42
40.0
 92
        8
 66
     7
 43
1.0
 76
     1
 77
     6
 78
     2
 67
     7
 79
     3
170
     0
171
     0
290
     0
174
     0
 93
        1
 44
0.0
173
     0
291
     0
 45
0.0
1001
ACAD
1000
AcDbSavedByObjectVersion
1070
     0
  0
VISUALSTYLE
  5
BF9
102
{ACAD_REACTORS
330
BEE
102
}
330
BEE
100
AcDbVisualStyle
  2
Dim
 70
    11
 71
     2
 72
     2
 73
     0
 90
        0
 40
-0.6
 41
-30.0
 62
     5
 63
     7
 74
     1
 91
        4
 64
     7
 65
   257
 75
     1
175
     1
 42
1.0
 92
        8
 66
     7
 43
1.0
 76
     1
 77
     6
 78
     2
 67
     7
 79
     5
170
     0
171
     0
290
     0
174
     0
 93
        1
 44
-50.0
173
     0
291
     1
 45
0.0
1001
ACAD
1000
AcDbSavedByObjectVersion
1070
     0
  0
VISUALSTYLE
  5
BFD
102
{ACAD_REACTORS
330
BEE
102
}
330
BEE
100
AcDbVisualStyle
  2
Facepattern
 70
    15
 71
     2
 72
     2
 73
     0
 90
        0
 40
-0.6
 41
-30.0
 62
     5
 63
     7
 74
     1
 91
        4
 64
     7
 65
   257
 75
     1
175
     1
 42
1.0
 92
        8
 66
     7
 43
1.0
 76
     1
 77
     6
 78
     2
 67
     7
 79
     5
170
     0
171
     0
290
     0
174
     0
 93
        1
 44
0.0
173
     0
291
     1
 45
0.0
1001
ACAD
1000
AcDbSavedByObjectVersion
1070
     0
  0
VISUALSTYLE
  5
BEF
102
{ACAD_REACTORS
330
BEE
102
}
330
BEE
100
AcDbVisualStyle
  2
Flat
 70
     0
 71
     2
 72
     1
 73
     1
 90
        2
 40
-0.6
 41
30.0
 62
     5
 63
     7
 74
     0
 91
        4
 64
     7
 65
   257
 75
     1
175
     1
 42
1.0
 92
        8
 66
     7
 43
1.0
 76
     1
 77
     6
 78
     2
 67
     7
 79
     5
170
     0
171
     0
290
     0
174
     0
 93
       13
 44
0.0
173
     0
291
     1
 45
0.0
1001
ACAD
1000
AcDbSavedByObjectVersion
1070
     0
  0
VISUALSTYLE
  5
BF0
102
{ACAD_REACTORS
330
BEE
102
}
330
BEE
100
AcDbVisualStyle
  2
FlatWithEdges
 70
     1
 71
     2
 72
     1
 73
     1
 90
        2
 40
-0.6
 41
30.0
 62
     5
 63
     7
 74
     1
 91
        4
 64
     7
 65
   257
 75
     1
175
     1
 42
1.0
 92
        0
 66
   257
 43
1.0
 76
     1
 77
     6
 78
     2
 67
     7
 79
     5
170
     0
171
     0
290
     0
174
     0
 93
       13
 44
0.0
173
     0
291
     1
 45
0.0
1001
ACAD
1000
AcDbSavedByObjectVersion
1070
     0
  0
VISUALSTYLE
  5
BF1
102
{ACAD_REACTORS
330
BEE
102
}
330
BEE
100
AcDbVisualStyle
  2
Gouraud
 70
     2
 71
     2
 72
     2
 73
     1
 90
        2
 40
-0.6
 41
30.0
 62
     5
 63
     7
 74
     0
 91
        4
 64
     7
 65
   257
 75
     1
175
     1
 42
1.0
 92
        0
 66
     7
 43
1.0
 76
     1
 77
     6
 78
     2
 67
     7
 79
     5
170
     0
171
     0
290
     0
174
     0
 93
       13
 44
0.0
173
     0
291
     1
 45
0.0
1001
ACAD
1000
AcDbSavedByObjectVersion
1070
     0
  0
VISUALSTYLE
  5
BF2
102
{ACAD_REACTORS
330
BEE
102
}
330
BEE
100
AcDbVisualStyle
  2
GouraudWithEdges
 70
     3
 71
     2
 72
     2
 73
     1
 90
        2
 40
-0.6
 41
30.0
 62
     5
 63
     7
 74
     1
 91
        4
 64
     7
 65
   257
 75
     1
175
     1
 42
1.0
 92
        0
 66
   257
 43
1.0
 76
     1
 77
     6
 78
     2
 67
     7
 79
     5
170
     0
171
     0
290
     0
174
     0
 93
       13
 44
0.0
173
     0
291
     1
 45
0.0
1001
ACAD
1000
AcDbSavedByObjectVersion
1070
     0
  0
VISUALSTYLE
  5
BFC
102
{ACAD_REACTORS
330
BEE
102
}
330
BEE
100
AcDbVisualStyle
  2
Linepattern
 70
    14
 71
     2
 72
     2
 73
     0
 90
        0
 40
-0.6
 41
-30.0
 62
     5
 63
     7
 74
     1
 91
        4
 64
     7
 65
   257
 75
     7
175
     7
 42
1.0
 92
        8
 66
     7
 43
1.0
 76
     1
 77
     6
 78
     2
 67
     7
 79
     5
170
     0
171
     0
290
     0
174
     0
 93
        1
 44
0.0
173
     0
291
     1
 45
0.0
1001
ACAD
1000
AcDbSavedByObjectVersion
1070
     0
  0
VISUALSTYLE
  5
BF8
102
{ACAD_REACTORS
330
BEE
102
}
330
BEE
100
AcDbVisualStyle
  2
Realistic
 70
     8
 71
     2
 72
     2
 73
     0
 90
        0
 40
-0.6
 41
-30.0
 62
     5
 63
     7
 74
     1
 91
        0
 64
     7
 65
   257
 75
     1
175
     1
 42
1.0
 92
        8
 66
     8
 43
1.0
 76
     1
 77
     6
 78
     2
 67
     7
 79
     5
170
     0
171
     0
290
     0
174
     0
 93
       13
 44
0.0
173
     0
291
     0
 45
0.0
1001
ACAD
1000
AcDbSavedByObjectVersion
1070
     0
  0
VISUALSTYLE
  5
BFB
102
{ACAD_REACTORS
330
BEE
102
}
330
BEE
100
AcDbVisualStyle
  2
Thicken
 70
    13
 71
     2
 72
     2
 73
     0
 90
        0
 40
-0.6
 41
-30.0
 62
     5
 63
     7
 74
     1
 91
        4
 64
     7
 65
   257
 75
     1
175
     1
 42
1.0
 92
       12
 66
     7
 43
1.0
 76
     1
 77
     6
 78
     2
 67
     7
 79
     5
170
     0
171
     0
290
     0
174
     0
 93
        1
 44
0.0
173
     0
291
     1
 45
0.0
1001
ACAD
1000
AcDbSavedByObjectVersion
1070
     0
  0
DICTIONARYVAR
  5
1C36
102
{ACAD_REACTORS
330
9E
102
}
330
9E
100
DictionaryVariables
280
     0
  1
1:1
  0
DICTIONARYVAR
  5
1C34
102
{ACAD_REACTORS
330
9E
102
}
330
9E
100
DictionaryVariables
280
     0
  1
STANDARD
  0
DICTIONARYVAR
  5
1C33
102
{ACAD_REACTORS
330
9E
102
}
330
9E
100
DictionaryVariables
280
     0
  1
STANDARD
  0
DICTIONARYVAR
  5
A0
102
{ACAD_REACTORS
330
9E
102
}
330
9E
100
DictionaryVariables
280
     0
  1
1
  0
DICTIONARYVAR
  5
9F
102
{ACAD_REACTORS
330
9E
102
}
330
9E
100
DictionaryVariables
280
     0
  1
0
  0
DICTIONARYVAR
  5
1C38
102
{ACAD_REACTORS
330
9E
102
}
330
9E
100
DictionaryVariables
280
     0
  1
1
  0
DICTIONARYVAR
  5
1C39
102
{ACAD_REACTORS
330
9E
102
}
330
9E
100
DictionaryVariables
280
     0
  1
15
  0
DICTIONARYVAR
  5
1C37
102
{ACAD_REACTORS
330
9E
102
}
330
9E
100
DictionaryVariables
280
     0
  1
0
  0
DICTIONARYVAR
  5
1C35
102
{ACAD_REACTORS
330
9E
102
}
330
9E
100
DictionaryVariables
280
     0
  1
0
  0
DICTIONARYVAR
  5
34BB
102
{ACAD_REACTORS
330
9E
102
}
330
9E
100
DictionaryVariables
280
     0
  1
127
  0
DICTIONARY
  5
9A7
102
{ACAD_REACTORS
330
63
102
}
330
63
100
AcDbDictionary
281
     1
  0
DICTIONARY
  5
69
102
{ACAD_REACTORS
330
63
102
}
330
63
100
AcDbDictionary
281
     1
  0
XRECORD
  5
C38
102
{ACAD_REACTORS
330
63
102
}
330
63
100
AcDbXrecord
280
     1
 90
-1023410169
  0
DICTIONARY
  5
34C0
330
22
100
AcDbDictionary
280
     1
281
     1
  3
ACAD_XREC_ROUNDTRIP
360
34C1
  0
DICTIONARY
  5
34BE
330
1E
100
AcDbDictionary
280
     1
281
     1
  3
ACAD_XREC_ROUNDTRIP
360
34BF
  0
DICTIONARY
  5
34C2
330
26
100
AcDbDictionary
280
     1
281
     1
  3
ACAD_XREC_ROUNDTRIP
360
34C3
  0
DICTIONARY
  5
BDF
330
BDE
100
AcDbDictionary
280
     1
281
     1
  3
ACAD_XREC_ROUNDTRIP
360
34C9
  3
BUMPTILE
360
BE1
  3
DIFFUSETILE
360
BE0
  3
OPACITYTILE
360
BE4
  3
REFLECTIONTILE
360
BE3
  3
REFRACTIONTILE
360
BE5
  3
SPECULARTILE
360
BE2
  0
DICTIONARY
  5
BD7
330
BD6
100
AcDbDictionary
280
     1
281
     1
  3
ACAD_XREC_ROUNDTRIP
360
34C8
  3
BUMPTILE
360
BD9
  3
DIFFUSETILE
360
BD8
  3
OPACITYTILE
360
BDC
  3
REFLECTIONTILE
360
BDB
  3
REFRACTIONTILE
360
BDD
  3
SPECULARTILE
360
BDA
  0
DICTIONARY
  5
BE7
330
BE6
100
AcDbDictionary
280
     1
281
     1
  3
ACAD_XREC_ROUNDTRIP
360
34CA
  3
BUMPTILE
360
BE9
  3
DIFFUSETILE
360
BE8
  3
OPACITYTILE
360
BEC
  3
REFLECTIONTILE
360
BEB
  3
REFRACTIONTILE
360
BED
  3
SPECULARTILE
360
BEA
  0
DICTIONARY
  5
1C30
330
C00
100
AcDbDictionary
280
     1
281
     1
  3
ACAD_ROUNDTRIP_2008_TABLESTYLE_CELLSTYLEMAP
360
34BC
  3
ACAD_XREC_ROUNDTRIP
360
34CB
  0
XRECORD
  5
34C1
102
{ACAD_REACTORS
330
34C0
102
}
330
34C0
100
AcDbXrecord
280
     1
102
SHADEPLOT
 70
     0
102
SHADEPLOTRESLEVEL
 70
     2
102
SHADEPLOTCUSTOMDPI
 70
   300
  0
XRECORD
  5
34BF
102
{ACAD_REACTORS
330
34BE
102
}
330
34BE
100
AcDbXrecord
280
     1
102
SHADEPLOT
 70
     1
102
SHADEPLOTRESLEVEL
 70
     2
102
SHADEPLOTCUSTOMDPI
 70
   300
  0
XRECORD
  5
34C3
102
{ACAD_REACTORS
330
34C2
102
}
330
34C2
100
AcDbXrecord
280
     1
102
SHADEPLOT
 70
     1
102
SHADEPLOTRESLEVEL
 70
     2
102
SHADEPLOTCUSTOMDPI
 70
   300
  0
XRECORD
  5
34C9
102
{ACAD_REACTORS
330
BDF
102
}
330
BDF
100
AcDbXrecord
280
     1
102
MATERIAL
148
0.0
149
0.0
149
0.0
 93
        0
 94
      127
282
     0
 72
     0
 77
     0
171
     0
175
     0
179
     0
273
     0
  0
XRECORD
  5
BE1
102
{ACAD_REACTORS
330
BDF
102
}
330
BDF
100
AcDbXrecord
280
     1
270
     1
271
     1
  0
XRECORD
  5
BE0
102
{ACAD_REACTORS
330
BDF
102
}
330
BDF
100
AcDbXrecord
280
     1
270
     1
271
     1
  0
XRECORD
  5
BE4
102
{ACAD_REACTORS
330
BDF
102
}
330
BDF
100
AcDbXrecord
280
     1
270
     1
271
     1
  0
XRECORD
  5
BE3
102
{ACAD_REACTORS
330
BDF
102
}
330
BDF
100
AcDbXrecord
280
     1
270
     1
271
     1
  0
XRECORD
  5
BE5
102
{ACAD_REACTORS
330
BDF
102
}
330
BDF
100
AcDbXrecord
280
     1
270
     1
271
     1
  0
XRECORD
  5
BE2
102
{ACAD_REACTORS
330
BDF
102
}
330
BDF
100
AcDbXrecord
280
     1
270
     1
271
     1
  0
XRECORD
  5
34C8
102
{ACAD_REACTORS
330
BD7
102
}
330
BD7
100
AcDbXrecord
280
     1
102
MATERIAL
148
0.0
149
0.0
149
0.0
 93
        0
 94
      127
282
     0
 72
     0
 77
     0
171
     0
175
     0
179
     0
273
     0
  0
XRECORD
  5
BD9
102
{ACAD_REACTORS
330
BD7
102
}
330
BD7
100
AcDbXrecord
280
     1
270
     1
271
     1
  0
XRECORD
  5
BD8
102
{ACAD_REACTORS
330
BD7
102
}
330
BD7
100
AcDbXrecord
280
     1
270
     1
271
     1
  0
XRECORD
  5
BDC
102
{ACAD_REACTORS
330
BD7
102
}
330
BD7
100
AcDbXrecord
280
     1
270
     1
271
     1
  0
XRECORD
  5
BDB
102
{ACAD_REACTORS
330
BD7
102
}
330
BD7
100
AcDbXrecord
280
     1
270
     1
271
     1
  0
XRECORD
  5
BDD
102
{ACAD_REACTORS
330
BD7
102
}
330
BD7
100
AcDbXrecord
280
     1
270
     1
271
     1
  0
XRECORD
  5
BDA
102
{ACAD_REACTORS
330
BD7
102
}
330
BD7
100
AcDbXrecord
280
     1
270
     1
271
     1
  0
XRECORD
  5
34CA
102
{ACAD_REACTORS
330
BE7
102
}
330
BE7
100
AcDbXrecord
280
     1
102
MATERIAL
148
0.0
149
0.0
149
0.0
 93
        0
 94
      127
282
     0
 72
     0
 77
     0
171
     0
175
     0
179
     0
273
     0
  0
XRECORD
  5
BE9
102
{ACAD_REACTORS
330
BE7
102
}
330
BE7
100
AcDbXrecord
280
     1
270
     1
271
     1
  0
XRECORD
  5
BE8
102
{ACAD_REACTORS
330
BE7
102
}
330
BE7
100
AcDbXrecord
280
     1
270
     1
271
     1
  0
XRECORD
  5
BEC
102
{ACAD_REACTORS
330
BE7
102
}
330
BE7
100
AcDbXrecord
280
     1
270
     1
271
     1
  0
XRECORD
  5
BEB
102
{ACAD_REACTORS
330
BE7
102
}
330
BE7
100
AcDbXrecord
280
     1
270
     1
271
     1
  0
XRECORD
  5
BED
102
{ACAD_REACTORS
330
BE7
102
}
330
BE7
100
AcDbXrecord
280
     1
270
     1
271
     1
  0
XRECORD
  5
BEA
102
{ACAD_REACTORS
330
BE7
102
}
330
BE7
100
AcDbXrecord
280
     1
270
     1
271
     1
  0
CELLSTYLEMAP
  5
34BC
102
{ACAD_REACTORS
330
1C30
102
}
330
1C30
100
AcDbCellStyleMap
 90
        3
300
CELLSTYLE
  1
TABLEFORMAT_BEGIN
 90
        5
170
     1
 91
        0
 92
    32768
 62
   257
 93
        1
300
CONTENTFORMAT
  1
CONTENTFORMAT_BEGIN
 90
        0
 91
        0
 92
      512
 93
        0
300

 40
0.0
140
1.0
 94
        5
 62
     0
340
11
144
6.0
309
CONTENTFORMAT_END
171
     1
301
MARGIN
  1
CELLMARGIN_BEGIN
 40
1.5
 40
1.5
 40
1.5
 40
1.5
 40
0.18
 40
0.18
309
CELLMARGIN_END
 94
        6
 95
        1
302
GRIDFORMAT
  1
GRIDFORMAT_BEGIN
 90
        0
 91
        1
 62
     0
 92
       -2
340
0
 93
        0
 40
1.125
309
GRIDFORMAT_END
 95
        2
302
GRIDFORMAT
  1
GRIDFORMAT_BEGIN
 90
        0
 91
        1
 62
     0
 92
       -2
340
0
 93
        0
 40
1.125
309
GRIDFORMAT_END
 95
        4
302
GRIDFORMAT
  1
GRIDFORMAT_BEGIN
 90
        0
 91
        1
 62
     0
 92
       -2
340
0
 93
        0
 40
1.125
309
GRIDFORMAT_END
 95
        8
302
GRIDFORMAT
  1
GRIDFORMAT_BEGIN
 90
        0
 91
        1
 62
     0
 92
       -2
340
0
 93
        0
 40
1.125
309
GRIDFORMAT_END
 95
       16
302
GRIDFORMAT
  1
GRIDFORMAT_BEGIN
 90
        0
 91
        1
 62
     0
 92
       -2
340
0
 93
        0
 40
1.125
309
GRIDFORMAT_END
 95
       32
302
GRIDFORMAT
  1
GRIDFORMAT_BEGIN
 90
        0
 91
        1
 62
     0
 92
       -2
340
0
 93
        0
 40
1.125
309
GRIDFORMAT_END
309
TABLEFORMAT_END
  1
CELLSTYLE_BEGIN
 90
        1
 91
        1
300
_TITLE
309
CELLSTYLE_END
300
CELLSTYLE
  1
TABLEFORMAT_BEGIN
 90
        5
170
     1
 91
        0
 92
        0
 62
   257
 93
        1
300
CONTENTFORMAT
  1
CONTENTFORMAT_BEGIN
 90
        0
 91
        0
 92
      512
 93
        0
300

 40
0.0
140
1.0
 94
        5
 62
     0
340
11
144
4.5
309
CONTENTFORMAT_END
171
     1
301
MARGIN
  1
CELLMARGIN_BEGIN
 40
1.5
 40
1.5
 40
1.5
 40
1.5
 40
0.18
 40
0.18
309
CELLMARGIN_END
 94
        6
 95
        1
302
GRIDFORMAT
  1
GRIDFORMAT_BEGIN
 90
        0
 91
        1
 62
     0
 92
       -2
340
0
 93
        0
 40
1.125
309
GRIDFORMAT_END
 95
        2
302
GRIDFORMAT
  1
GRIDFORMAT_BEGIN
 90
        0
 91
        1
 62
     0
 92
       -2
340
0
 93
        0
 40
1.125
309
GRIDFORMAT_END
 95
        4
302
GRIDFORMAT
  1
GRIDFORMAT_BEGIN
 90
        0
 91
        1
 62
     0
 92
       -2
340
0
 93
        0
 40
1.125
309
GRIDFORMAT_END
 95
        8
302
GRIDFORMAT
  1
GRIDFORMAT_BEGIN
 90
        0
 91
        1
 62
     0
 92
       -2
340
0
 93
        0
 40
1.125
309
GRIDFORMAT_END
 95
       16
302
GRIDFORMAT
  1
GRIDFORMAT_BEGIN
 90
        0
 91
        1
 62
     0
 92
       -2
340
0
 93
        0
 40
1.125
309
GRIDFORMAT_END
 95
       32
302
GRIDFORMAT
  1
GRIDFORMAT_BEGIN
 90
        0
 91
        1
 62
     0
 92
       -2
340
0
 93
        0
 40
1.125
309
GRIDFORMAT_END
309
TABLEFORMAT_END
  1
CELLSTYLE_BEGIN
 90
        2
 91
        1
300
_HEADER
309
CELLSTYLE_END
300
CELLSTYLE
  1
TABLEFORMAT_BEGIN
 90
        5
170
     1
 91
        0
 92
        0
 62
   257
 93
        1
300
CONTENTFORMAT
  1
CONTENTFORMAT_BEGIN
 90
        0
 91
        0
 92
      512
 93
        0
300

 40
0.0
140
1.0
 94
        2
 62
     0
340
11
144
4.5
309
CONTENTFORMAT_END
171
     1
301
MARGIN
  1
CELLMARGIN_BEGIN
 40
1.5
 40
1.5
 40
1.5
 40
1.5
 40
0.18
 40
0.18
309
CELLMARGIN_END
 94
        6
 95
        1
302
GRIDFORMAT
  1
GRIDFORMAT_BEGIN
 90
        0
 91
        1
 62
     0
 92
       -2
340
0
 93
        0
 40
1.125
309
GRIDFORMAT_END
 95
        2
302
GRIDFORMAT
  1
GRIDFORMAT_BEGIN
 90
        0
 91
        1
 62
     0
 92
       -2
340
0
 93
        0
 40
1.125
309
GRIDFORMAT_END
 95
        4
302
GRIDFORMAT
  1
GRIDFORMAT_BEGIN
 90
        0
 91
        1
 62
     0
 92
       -2
340
0
 93
        0
 40
1.125
309
GRIDFORMAT_END
 95
        8
302
GRIDFORMAT
  1
GRIDFORMAT_BEGIN
 90
        0
 91
        1
 62
     0
 92
       -2
340
0
 93
        0
 40
1.125
309
GRIDFORMAT_END
 95
       16
302
GRIDFORMAT
  1
GRIDFORMAT_BEGIN
 90
        0
 91
        1
 62
     0
 92
       -2
340
0
 93
        0
 40
1.125
309
GRIDFORMAT_END
 95
       32
302
GRIDFORMAT
  1
GRIDFORMAT_BEGIN
 90
        0
 91
        1
 62
     0
 92
       -2
340
0
 93
        0
 40
1.125
309
GRIDFORMAT_END
309
TABLEFORMAT_END
  1
CELLSTYLE_BEGIN
 90
        3
 91
        2
300
_DATA
309
CELLSTYLE_END
  0
XRECORD
  5
34CB
102
{ACAD_REACTORS
330
1C30
102
}
330
1C30
100
AcDbXrecord
280
     1
102
ACAD_ROUNDTRIP_PRE2007_TABLESTYLE
 90
      512
 91
        0
  1

 92
      512
 93
        0
  2

 94
      512
 95
        0
  3

  0
ENDSEC
  0
EOF
