  0
SECTION
  2
HEADER
  9
$ACADVER
  1
AC1015
  9
$ACADMAINTVER
 70
    20
  9
$DWGCODEPAGE
  3
ANSI_932
  9
$INSBASE
 10
0.0
 20
0.0
 30
0.0
  9
$EXTMIN
 10
-0.0061449755443164
 20
-0.004269461916806
 30
-0.0000000000112498
  9
$EXTMAX
 10
403.0061506057331
 20
280.0042733737102
 30
0.0000000000002956
  9
$LIMMIN
 10
0.0
 20
0.0
  9
$LIMMAX
 10
403.0
 20
280.0000000000001
  9
$ORTHOMODE
 70
     0
  9
$REGENMODE
 70
     1
  9
$FILLMODE
 70
     1
  9
$QTEXTMODE
 70
     0
  9
$MIRRTEXT
 70
     1
  9
$LTSCALE
 40
1.0
  9
$ATTMODE
 70
     1
  9
$TEXTSIZE
 40
73.98571745357912
  9
$TRACEWID
 40
1.0
  9
$TEXTSTYLE
  7
STANDARD
  9
$CLAYER
  8
0
  9
$CELTYPE
  6
ByLayer
  9
$CECOLOR
 62
   256
  9
$CELTSCALE
 40
1.0
  9
$DISPSILH
 70
     0
  9
$DIMSCALE
 40
1.0
  9
$DIMASZ
 40
2.5
  9
$DIMEXO
 40
1.0
  9
$DIMDLI
 40
10.0
  9
$DIMRND
 40
0.0
  9
$DIMDLE
 40
0.0
  9
$DIMEXE
 40
1.0
  9
$DIMTP
 40
0.1
  9
$DIMTM
 40
0.1
  9
$DIMTXT
 40
3.5
  9
$DIMCEN
 40
0.0
  9
$DIMTSZ
 40
0.0
  9
$DIMTOL
 70
     0
  9
$DIMLIM
 70
     0
  9
$DIMTIH
 70
     0
  9
$DIMTOH
 70
     0
  9
$DIMSE1
 70
     0
  9
$DIMSE2
 70
     0
  9
$DIMTAD
 70
     1
  9
$DIMZIN
 70
     8
  9
$DIMBLK
  1
Open30
  9
$DIMASO
 70
     1
  9
$DIMSHO
 70
     1
  9
$DIMPOST
  1

  9
$DIMAPOST
  1
"
  9
$DIMALT
 70
     0
  9
$DIMALTD
 70
     2
  9
$DIMALTF
 40
0.0393701
  9
$DIMLFAC
 40
1.0
  9
$DIMTOFL
 70
     1
  9
$DIMTVP
 40
0.0
  9
$DIMTIX
 70
     0
  9
$DIMSOXD
 70
     0
  9
$DIMSAH
 70
     0
  9
$DIMBLK1
  1

  9
$DIMBLK2
  1

  9
$DIMSTYLE
  2
AM_ISO
  9
$DIMCLRD
 70
   256
  9
$DIMCLRE
 70
   256
  9
$DIMCLRT
 70
     2
  9
$DIMTFAC
 40
0.71
  9
$DIMGAP
 40
1.5
  9
$DIMJUST
 70
     0
  9
$DIMSD1
 70
     0
  9
$DIMSD2
 70
     0
  9
$DIMTOLJ
 70
     0
  9
$DIMTZIN
 70
     8
  9
$DIMALTZ
 70
     0
  9
$DIMALTTZ
 70
     0
  9
$DIMUPT
 70
     0
  9
$DIMDEC
 70
     2
  9
$DIMTDEC
 70
     2
  9
$DIMALTU
 70
     2
  9
$DIMALTTD
 70
     2
  9
$DIMTXSTY
  7
STANDARD
  9
$DIMAUNIT
 70
     0
  9
$DIMADEC
 70
     0
  9
$DIMALTRND
 40
0.0
  9
$DIMAZIN
 70
     2
  9
$DIMDSEP
 70
    46
  9
$DIMATFIT
 70
     3
  9
$DIMFRAC
 70
     0
  9
$DIMLDRBLK
  1
Open30
  9
$DIMLUNIT
 70
     2
  9
$DIMLWD
 70
    -1
  9
$DIMLWE
 70
    -1
  9
$DIMTMOVE
 70
     0
  9
$LUNITS
 70
     2
  9
$LUPREC
 70
     2
  9
$SKETCHINC
 40
1.0
  9
$FILLETRAD
 40
3.0
  9
$AUNITS
 70
     0
  9
$AUPREC
 70
     0
  9
$MENU
  1
.
  9
$ELEVATION
 40
0.0
  9
$PELEVATION
 40
0.0
  9
$THICKNESS
 40
0.0
  9
$LIMCHECK
 70
     0
  9
$CHAMFERA
 40
2.5
  9
$CHAMFERB
 40
2.5
  9
$CHAMFERC
 40
20.0
  9
$CHAMFERD
 40
0.0
  9
$SKPOLY
 70
     0
  9
$TDCREATE
 40
2454594.835300868
  9
$TDUCREATE
 40
2454594.460300868
  9
$TDUPDATE
 40
2456049.609777558
  9
$TDUUPDATE
 40
2456049.234777558
  9
$TDINDWG
 40
0.1599045255
  9
$TDUSRTIMER
 40
0.1599045255
  9
$USRTIMER
 70
     1
  9
$ANGBASE
 50
0.0
  9
$ANGDIR
 70
     0
  9
$PDMODE
 70
     0
  9
$PDSIZE
 40
0.0
  9
$PLINEWID
 40
0.0
  9
$SPLFRAME
 70
     0
  9
$SPLINETYPE
 70
     6
  9
$SPLINESEGS
 70
     8
  9
$HANDSEED
  5
3473
  9
$SURFTAB1
 70
     6
  9
$SURFTAB2
 70
     6
  9
$SURFTYPE
 70
     6
  9
$SURFU
 70
     6
  9
$SURFV
 70
     6
  9
$UCSBASE
  2

  9
$UCSNAME
  2

  9
$UCSORG
 10
0.0
 20
0.0
 30
0.0
  9
$UCSXDIR
 10
1.0
 20
0.0
 30
0.0
  9
$UCSYDIR
 10
0.0
 20
1.0
 30
0.0
  9
$UCSORTHOREF
  2

  9
$UCSORTHOVIEW
 70
     0
  9
$UCSORGTOP
 10
0.0
 20
0.0
 30
0.0
  9
$UCSORGBOTTOM
 10
0.0
 20
0.0
 30
0.0
  9
$UCSORGLEFT
 10
0.0
 20
0.0
 30
0.0
  9
$UCSORGRIGHT
 10
0.0
 20
0.0
 30
0.0
  9
$UCSORGFRONT
 10
0.0
 20
0.0
 30
0.0
  9
$UCSORGBACK
 10
0.0
 20
0.0
 30
0.0
  9
$PUCSBASE
  2

  9
$PUCSNAME
  2

  9
$PUCSORG
 10
0.0
 20
0.0
 30
0.0
  9
$PUCSXDIR
 10
1.0
 20
0.0
 30
0.0
  9
$PUCSYDIR
 10
0.0
 20
1.0
 30
0.0
  9
$PUCSORTHOREF
  2

  9
$PUCSORTHOVIEW
 70
     0
  9
$PUCSORGTOP
 10
0.0
 20
0.0
 30
0.0
  9
$PUCSORGBOTTOM
 10
0.0
 20
0.0
 30
0.0
  9
$PUCSORGLEFT
 10
0.0
 20
0.0
 30
0.0
  9
$PUCSORGRIGHT
 10
0.0
 20
0.0
 30
0.0
  9
$PUCSORGFRONT
 10
0.0
 20
0.0
 30
0.0
  9
$PUCSORGBACK
 10
0.0
 20
0.0
 30
0.0
  9
$USERI1
 70
     0
  9
$USERI2
 70
     0
  9
$USERI3
 70
     0
  9
$USERI4
 70
     0
  9
$USERI5
 70
     0
  9
$USERR1
 40
0.0
  9
$USERR2
 40
0.0
  9
$USERR3
 40
0.0
  9
$USERR4
 40
0.0
  9
$USERR5
 40
0.0
  9
$WORLDVIEW
 70
     1
  9
$SHADEDGE
 70
     3
  9
$SHADEDIF
 70
    70
  9
$TILEMODE
 70
     1
  9
$MAXACTVP
 70
    64
  9
$PINSBASE
 10
0.0
 20
0.0
 30
0.0
  9
$PLIMCHECK
 70
     0
  9
$PEXTMIN
 10
1.000000000000000E+20
 20
1.000000000000000E+20
 30
1.000000000000000E+20
  9
$PEXTMAX
 10
-1.000000000000000E+20
 20
-1.000000000000000E+20
 30
-1.000000000000000E+20
  9
$PLIMMIN
 10
-6.350006103515625
 20
-6.349999904632568
  9
$PLIMMAX
 10
273.0499877929688
 20
209.5499939918518
  9
$UNITMODE
 70
     0
  9
$VISRETAIN
 70
     1
  9
$PLINEGEN
 70
     0
  9
$PSLTSCALE
 70
     1
  9
$TREEDEPTH
 70
  3020
  9
$CMLSTYLE
  2
Standard
  9
$CMLJUST
 70
     0
  9
$CMLSCALE
 40
20.0
  9
$PROXYGRAPHICS
 70
     1
  9
$MEASUREMENT
 70
     1
  9
$CELWEIGHT
370
    -1
  9
$ENDCAPS
280
     0
  9
$JOINSTYLE
280
     0
  9
$LWDISPLAY
290
     0
  9
$INSUNITS
 70
     4
  9
$HYPERLINKBASE
  1

  9
$STYLESHEET
  1
takachi-1.ctb
  9
$XEDIT
290
     1
  9
$CEPSNTYPE
380
     0
  9
$PSTYLEMODE
290
     1
  9
$FINGERPRINTGUID
  2
{FDEAD578-A652-11D2-9A35-0060089B3A3F}
  9
$VERSIONGUID
  2
{56006AF0-09B7-425C-9978-D3C327CD29B0}
  9
$EXTNAMES
290
     1
  9
$PSVPSCALE
 40
0.0
  9
$OLESTARTUP
290
     0
  0
ENDSEC
  0
SECTION
  2
CLASSES
  0
CLASS
  1
ACDBDICTIONARYWDFLT
  2
AcDbDictionaryWithDefault
  3
ObjectDBX Classes
 90
        0
280
     0
281
     0
  0
CLASS
  1
ACDBPLACEHOLDER
  2
AcDbPlaceHolder
  3
ObjectDBX Classes
 90
        0
280
     0
281
     0
  0
CLASS
  1
LAYOUT
  2
AcDbLayout
  3
ObjectDBX Classes
 90
        0
280
     0
281
     0
  0
CLASS
  1
ACME_DOCUMENT
  2
AcMeDbDoc
  3
AcMeServices
 90
        0
280
     0
281
     0
  0
CLASS
  1
AMGSETTINGSOBJ
  2
AmgSettingsObj
  3
"AcadM|Product Description: AutoCAD Mechanical 2000|Company: Autodesk"
 90
        0
280
     0
281
     0
  0
CLASS
  1
ACMESCOPE
  2
AcMeScope
  3
AcMeServices
 90
        0
280
     0
281
     0
  0
CLASS
  1
ACMECOMMANDHISTORY
  2
AcMeCommandHistory
  3
AcMeServices
 90
        0
280
     0
281
     0
  0
CLASS
  1
ACIMSYSVARMAN
  2
AcImSysVarManager
  3
AcMeServices
 90
        0
280
     0
281
     0
  0
CLASS
  1
ACIMREALSYSVAR
  2
AcImRealSysVar
  3
AcMeServices
 90
        0
280
     0
281
     0
  0
CLASS
  1
ACIMINTSYSVAR
  2
AcImIntSysVar
  3
AcMeServices
 90
        0
280
     0
281
     0
  0
CLASS
  1
ACMEDRAWINGMAN
  2
AcMeDrawingMan
  3
AcMeServices
 90
        0
280
     0
281
     0
  0
CLASS
  1
ACMEVIEW
  2
AcMeView
  3
AcMeServices
 90
        0
280
     0
281
     0
  0
CLASS
  1
ACDBENTITYCACHE
  2
AcMeEntityCache
  3
AcMeServices
 90
        0
280
     0
281
     0
  0
CLASS
  1
GSMANAGER
  2
AcMeGSManager
  3
AcMeServices
 90
        0
280
     0
281
     0
  0
CLASS
  1
AMDTINTERNALREACTOR
  2
AmdtInternalReactor
  3
AcMeServices
 90
        0
280
     0
281
     0
  0
CLASS
  1
ACMESTATEMGR
  2
AcMeStateMgr
  3
AcMeServices
 90
        0
280
     0
281
     0
  0
CLASS
  1
ACGREFMASTER
  2
AcGrefMaster
  3
AcAttribServices
 90
        0
280
     0
281
     0
  0
CLASS
  1
ACME_DATABASE
  2
AcMeDbDatabase
  3
AcMeServices
 90
        0
280
     0
281
     0
  0
CLASS
  1
ACRFINSADJUSTERMGR
  2
AcRfInsAdjusterMgr
  3
AcMeServices
 90
        0
280
     0
281
     0
  0
CLASS
  1
ACGREFACADMASTER
  2
AcGrefacadMaster
  3
AcGrefServices
 90
        0
280
     0
281
     0
  0
CLASS
  1
AMIMASTER
  2
AmiMaster
  3
AmiServices
 90
        0
280
     0
281
     0
  0
CLASS
  1
ACMDATADICTIONARY
  2
AcmDataDictionary
  3
"AcmSymBB|Product Description: AutoCAD Mechanical 2004 DX|Company: Autodesk"
 90
        0
280
     0
281
     0
  0
CLASS
  1
ACMDATAENTRYBLOCK
  2
AcmDataEntryBlock
  3
"AcmSymBB|Product Description: AutoCAD Mechanical 2004 DX|Company: Autodesk"
 90
        0
280
     0
281
     0
  0
CLASS
  1
ACIMSTRSYSVAR
  2
AcImStrSysVar
  3
AcMeServices
 90
        0
280
     0
281
     0
  0
CLASS
  1
ACMSTANDARDISO
  2
AcmStandardISO
  3
"Amdt_StdImp|Product Description: AutoCAD Mechanical 2004 DX|Company: Autodesk"
 90
        0
280
     0
281
     0
  0
CLASS
  1
AMGOBJPROPCFG
  2
AmgObjPropCfg
  3
"AmgLay|Product Description: AutoCAD Mechanical 2000|Company: Autodesk"
 90
        1
280
     0
281
     0
  0
CLASS
  1
AMDTEDGESTANDARDISO
  2
AmdtEdgeStdISO
  3
"Amdt_StdImp|Product Description: AutoCAD Mechanical 2004 DX|Company: Autodesk"
 90
        0
280
     0
281
     0
  0
CLASS
  1
ACMSURFSTANDARDISO
  2
AcmSurfTextStdISO
  3
"Amdt_StdImp|Product Description: AutoCAD Mechanical 2004 DX|Company: Autodesk"
 90
        0
280
     0
281
     0
  0
CLASS
  1
ACMFCFSTANDARDISO
  2
AcmFCFStdISO
  3
"Amdt_StdImp|Product Description: AutoCAD Mechanical 2004 DX|Company: Autodesk"
 90
        0
280
     0
281
     0
  0
CLASS
  1
ACMWELDSTANDARDISO
  2
AcmWeldingStdISO
  3
"Amdt_StdImp|Product Description: AutoCAD Mechanical 2004 DX|Company: Autodesk"
 90
        0
280
     0
281
     0
  0
CLASS
  1
ACMIDSTANDARDISO
  2
AcmIdStdISO
  3
"Amdt_StdImp|Product Description: AutoCAD Mechanical 2004 DX|Company: Autodesk"
 90
        0
280
     0
281
     0
  0
CLASS
  1
ACMDATUMSTANDARDISO
  2
AcmDatumStdISO
  3
"Amdt_StdImp|Product Description: AutoCAD Mechanical 2004 DX|Company: Autodesk"
 90
        0
280
     0
281
     0
  0
CLASS
  1
ACMBOMSTANDARDISO
  2
AcmBOMStdISO
  3
"Amdt_StdImp|Product Description: AutoCAD Mechanical 2004 DX|Company: Autodesk"
 90
        0
280
     0
281
     0
  0
CLASS
  1
ACMDETAILSTANDARDISO
  2
AmdtDetailSymStdISO
  3
"Amdt_StdImp|Product Description: AutoCAD Mechanical 2004 DX|Company: Autodesk"
 90
        0
280
     0
281
     0
  0
CLASS
  1
ACMSECTIONSTANDARDISO
  2
AmdtSectionSymStdISO
  3
"Amdt_StdImp|Product Description: AutoCAD Mechanical 2004 DX|Company: Autodesk"
 90
        0
280
     0
281
     0
  0
CLASS
  1
ACMCENTERLINESTANDARDISO
  2
AmdtCenterLineStdISO
  3
"Amdt_StdImp|Product Description: AutoCAD Mechanical 2004 DX|Company: Autodesk"
 90
        0
280
     0
281
     0
  0
CLASS
  1
ACMNOTESTANDARDISO
  2
AmdtNoteStdISO
  3
"Amdt_StdImp|Product Description: AutoCAD Mechanical 2004 DX|Company: Autodesk"
 90
        0
280
     0
281
     0
  0
CLASS
  1
ACAMGLAYSTD
  2
AcAmgLayStd
  3
"AcAmgLayStd|Product Description: AutoCAD Mechanical 2000|Company: Autodesk"
 90
        0
280
     0
281
     0
  0
CLASS
  1
ACAMGDIMSTD
  2
AcAmgDimStd
  3
"AcAmgDimStd|Product Description: AutoCAD Mechanical 2000|Company: Autodesk"
 90
        0
280
     0
281
     0
  0
CLASS
  1
ACAMGHOLECHARTSTDISO
  2
AcAmgHoleChartStdISO
  3
ACMSYMBB_MODULE_NAME
 90
        0
280
     0
281
     0
  0
CLASS
  1
ACAMGTITLESTD
  2
AcAmgTitleStd
  3
"TITLEAPP"
 90
        0
280
     0
281
     0
  0
CLASS
  1
LAYER_INDEX
  2
AcDbLayerIndex
  3
ObjectDBX Classes
 90
    32768
280
     0
281
     0
  0
CLASS
  1
IDBUFFER
  2
AcDbIdBuffer
  3
ObjectDBX Classes
 90
    32768
280
     0
281
     0
  0
CLASS
  1
DICTIONARYVAR
  2
AcDbDictionaryVar
  3
ObjectDBX Classes
 90
        0
280
     0
281
     0
  0
CLASS
  1
AM_DRAWING_MGR
  2
AcDmDwgMgr
  3
AcMechDwgViewMgmt
 90
        0
280
     0
281
     0
  0
CLASS
  1
AM_DWG_DOCUMENT
  2
AcDmDwgDocument
  3
AcMechDwgViewMgmt
 90
        0
280
     0
281
     0
  0
CLASS
  1
AM_DWG_SHEET
  2
AcDmSheet
  3
AcMechDwgViewMgmt
 90
        0
280
     0
281
     0
  0
CLASS
  1
AM_VIEWDIMPARMAP
  2
AcDmViewDimParMap
  3
AcMechDwgViewMgmt
 90
        0
280
     0
281
     0
  0
CLASS
  1
AM_DWGMGR_NAME
  2
AcDmDwgMgrName
  3
AcMechDwgViewMgmt
 90
        0
280
     0
281
     0
  0
CLASS
  1
AMDTMENUSTATEMGR
  2
AmdtMenuStateMgr
  3
McadcomServices
 90
        0
280
     0
281
     0
  0
CLASS
  1
AMDTMCOMMENUSTATE
  2
AmdtMcomMenuState
  3
McadcomServices
 90
        0
280
     0
281
     0
  0
CLASS
  1
MAPIAMMOUDLE
  2
MApiAmModule
  3
MApiAmServices
 90
        0
280
     0
281
     0
  0
CLASS
  1
AMDTADMENUSTATE
  2
AmdtAdMenuState
  3
DesignerServices
 90
        0
280
     0
281
     0
  0
CLASS
  1
ADAPPL
  2
AcAdAppl
  3
DesignerServices
 90
        0
280
     0
281
     0
  0
CLASS
  1
DEPMGR
  2
AcAdDepMgr
  3
DesignerServices
 90
        0
280
     0
281
     0
  0
CLASS
  1
PARAMMGR
  2
AcAdParamMgr
  3
DesignerServices
 90
        0
280
     0
281
     0
  0
CLASS
  1
PARAMSCOPE
  2
AcAdParamScope
  3
DesignerServices
 90
        0
280
     0
281
     0
  0
CLASS
  1
NAMEDAPPL
  2
AcAdNamedAppl
  3
DesignerServices
 90
        0
280
     0
281
     0
  0
CLASS
  1
AMDTDMMENUSTATE
  2
AmdtDmMenuState
  3
AcMechDwgViewMgmt
 90
        0
280
     0
281
     0
  0
CLASS
  1
AMDTAMMENUSTATE
  2
AmdtAmMenuState
  3
DesignerAssemblies
 90
        0
280
     0
281
     0
  0
CLASS
  1
ACAMPROJECT
  2
AcAmProject
  3
DesignerAssemblies
 90
        0
280
     0
281
     0
  0
CLASS
  1
ACAMGRCOMPDEF
  2
AcAmGrCompDef
  3
DesignerAssemblies
 90
        0
280
     0
281
     0
  0
CLASS
  1
ACCMCONTEXT
  2
AcCmContext
  3
DesignerAssemblies
 90
        0
280
     0
281
     0
  0
CLASS
  1
ACAMCOMPDEF
  2
AcAmCompDef
  3
DesignerAssemblies
 90
        0
280
     0
281
     0
  0
CLASS
  1
ACAMCOMPDEFMGR
  2
AcAmCompDefMgr
  3
DesignerAssemblies
 90
        0
280
     0
281
     0
  0
CLASS
  1
AMCONTEXTMGR
  2
AcAmContextMgr
  3
DesignerAssemblies
 90
        0
280
     0
281
     0
  0
CLASS
  1
ACAMCONTEXTMODELER
  2
AcAmContextModeler
  3
DesignerAssemblies
 90
        0
280
     0
281
     0
  0
CLASS
  1
ACMTHREADLINESTANDARDISO
  2
AmdtThreadLineStdISO
  3
"Amdt_StdImp|Product Description: AutoCAD Mechanical 2004 DX|Company: Autodesk"
 90
        0
280
     0
281
     0
  0
CLASS
  1
CATALOGSTATE
  2
AcAmCatalogState
  3
DesignerAssemblies
 90
        0
280
     0
281
     0
  0
CLASS
  1
ACAMGRCOMPDEFSET
  2
AcAmGrCompDefSet
  3
DesignerAssemblies
 90
        0
280
     0
281
     0
  0
CLASS
  1
AMDTBROWSERDBTAB
  2
AmdtBrowserDbTab
  3
McadcomServices
 90
        0
280
     0
281
     0
  0
CLASS
  1
CBROWSERAPPOBJECT
  2
CBrowserAppObject
  3
McadcomServices
 90
        0
280
     0
281
     0
  0
CLASS
  1
DM_PLACEHOLDER
  2
AcDmSelsetPlaceholder
  3
AcMechDwgViewMgmt
 90
        0
280
     0
281
     0
  0
CLASS
  1
AMDTNOTETEMPLATEDB
  2
AmdtNoteTemplateDB
  3
AMDT_STDIMP_MODULE_NAME
 90
        0
280
     0
281
     0
  0
CLASS
  1
ACAMGFILTERDAT
  2
AcAmgFilterDat
  3
"AcadM|Product Description: AutoCAD Mechanical 2000|Company: Autodesk"
 90
        0
280
     0
281
     0
  0
CLASS
  1
AMDTNOTE
  2
AmdtNote
  3
"AcmSymBB|Product Description: AutoCAD Mechanical 2004 DX|Company: Autodesk"
 90
    33791
280
     0
281
     1
  0
CLASS
  1
AMDTFORMULAUPDATEDISPATCHER
  2
AmdtFormulaUpdateDispatcher
  3
AcMeServices
 90
        0
280
     0
281
     0
  0
CLASS
  1
AMDTSECTIONSYM
  2
AmdtSectionSym
  3
"AcmSymBB|Product Description: AutoCAD Mechanical 2004 DX|Company: Autodesk"
 90
    33791
280
     0
281
     1
  0
CLASS
  1
AMDTSECTIONSYMLABEL
  2
AmdtSectionSymLabel
  3
"AcmSymBB|Product Description: AutoCAD Mechanical 2004 DX|Company: Autodesk"
 90
    33791
280
     0
281
     1
  0
CLASS
  1
AMDTDETAILSYM
  2
AmdtDetailSym
  3
"AcmSymBB|Product Description: AutoCAD Mechanical 2004 DX|Company: Autodesk"
 90
    33791
280
     0
281
     1
  0
CLASS
  1
AMDTDETAILSYMLABEL
  2
AmdtDetailSymLabel
  3
"AcmSymBB|Product Description: AutoCAD Mechanical 2004 DX|Company: Autodesk"
 90
    33791
280
     0
281
     1
  0
CLASS
  1
DIMASSOC
  2
AcDbDimAssoc
  3
"AcDbDimAssoc|Product Desc:     AcDim ARX App For Dimension|Company:          Autodesk, Inc.|WEB Address:      www.autodesk.com"
 90
        0
280
     0
281
     0
  0
CLASS
  1
TABLESTYLE
  2
AcDbTableStyle
  3
ObjectDBX Classes
 90
     2047
280
     0
281
     0
  0
CLASS
  1
VAACXREFPANELOBJECT
  2
VaAcXREFPanelObject
  3
VAAC_ADDIN
 90
    32768
280
     0
281
     0
  0
CLASS
  1
VAACIMAGEINVENTORY
  2
VaAcImageInventory
  3
VAAC_ADDIN
 90
    32768
280
     0
281
     0
  0
CLASS
  1
SORTENTSTABLE
  2
AcDbSortentsTable
  3
ObjectDBX Classes
 90
        0
280
     0
281
     0
  0
ENDSEC
  0
SECTION
  2
TABLES
  0
TABLE
  2
VPORT
  5
8
330
0
100
AcDbSymbolTable
 70
     3
  0
VPORT
  5
3466
330
8
100
AcDbSymbolTableRecord
100
AcDbViewportTableRecord
  2
*Active
 70
     0
 10
0.0
 20
0.0
 11
1.0
 21
1.0
 12
201.5000028150944
 22
140.0000019558967
 13
0.0
 23
0.0
 14
2.5
 24
2.5
 15
10.0
 25
10.0
 16
0.0
 26
0.0
 36
1.0
 17
0.0
 27
0.0
 37
0.0
 40
358.5731057026308
 41
1.131612903225806
 42
50.0
 43
0.0
 44
0.0
 50
0.0
 51
0.0
 71
    16
 72
   100
 73
     1
 74
     3
 75
     0
 76
     0
 77
     0
 78
     0
281
     0
 65
     1
110
0.0
120
0.0
130
0.0
111
1.0
121
0.0
131
0.0
112
0.0
122
1.0
132
0.0
 79
     0
146
0.0
  0
ENDTAB
  0
TABLE
  2
LTYPE
  5
5
330
0
100
AcDbSymbolTable
 70
    20
  0
LTYPE
  5
14
330
5
100
AcDbSymbolTableRecord
100
AcDbLinetypeTableRecord
  2
ByBlock
 70
     0
  3

 72
    65
 73
     0
 40
0.0
  0
LTYPE
  5
15
330
5
100
AcDbSymbolTableRecord
100
AcDbLinetypeTableRecord
  2
ByLayer
 70
     0
  3

 72
    65
 73
     0
 40
0.0
  0
LTYPE
  5
16
330
5
100
AcDbSymbolTableRecord
100
AcDbLinetypeTableRecord
  2
Continuous
 70
     0
  3
Solid line
 72
    65
 73
     0
 40
0.0
  0
LTYPE
  5
64
330
5
100
AcDbSymbolTableRecord
100
AcDbLinetypeTableRecord
  2
AM_ISO02W050
 70
     0
  3
__ __ __ __ __ __ __ __ __ __ __ __ __ __ __
 72
    65
 73
     2
 40
7.5
 49
6.0
 74
     0
 49
-1.5
 74
     0
  0
LTYPE
  5
65
330
5
100
AcDbSymbolTableRecord
100
AcDbLinetypeTableRecord
  2
AM_ISO08W050
 70
     0
  3
____ . ____ . ____ . ____ . ____ . ____ . ____
 72
    65
 73
     4
 40
18.0
 49
12.0
 74
     0
 49
-1.5
 74
     0
 49
3.0
 74
     0
 49
-1.5
 74
     0
  0
LTYPE
  5
66
330
5
100
AcDbSymbolTableRecord
100
AcDbLinetypeTableRecord
  2
AM_ISO09W050
 70
     0
  3
_____ . . _____ . . _____ . . ____ .. ____
 72
    65
 73
     6
 40
22.5
 49
12.0
 74
     0
 49
-1.5
 74
     0
 49
3.0
 74
     0
 49
-1.5
 74
     0
 49
3.0
 74
     0
 49
-1.5
 74
     0
  0
LTYPE
  5
67
330
5
100
AcDbSymbolTableRecord
100
AcDbLinetypeTableRecord
  2
Amconstr
 70
     0
  3
_______________________
 72
    65
 73
     2
 40
9999.0
 49
9999.0
 74
     0
 49
0.0
 74
     0
  0
LTYPE
  5
68
330
5
100
AcDbSymbolTableRecord
100
AcDbLinetypeTableRecord
  2
AM_ISO08W050x2
 70
     0
  3
__ . __ . __ . __ . __ . __
 72
    65
 73
     4
 40
9.0
 49
6.0
 74
     0
 49
-0.75
 74
     0
 49
1.5
 74
     0
 49
-0.75
 74
     0
  0
LTYPE
  5
69
330
5
100
AcDbSymbolTableRecord
100
AcDbLinetypeTableRecord
  2
AM_ISO02W050x2
 70
     0
  3
 _ _ _ _ _ _ _ _ _ _ _ _
 72
    65
 73
     2
 40
3.75
 49
3.0
 74
     0
 49
-0.75
 74
     0
  0
LTYPE
  5
6C
330
5
100
AcDbSymbolTableRecord
100
AcDbLinetypeTableRecord
  2
Amzigzag
 70
     0
  3
/\/-/\/-/\/-/\/-/\/-/\/
 72
    65
 73
     2
 40
11.0001
 49
0.0001
 74
     4
 75
   135
340
6B
 46
0.04
 50
0.0
 44
0.0
 45
0.0
 49
-11.0
 74
     0
  0
LTYPE
  5
7A
330
5
100
AcDbSymbolTableRecord
100
AcDbLinetypeTableRecord
  2
ACISOWELD
 70
     0
  3
_ _ _ _ _
 72
    65
 73
     2
 40
2.0
 49
2.0
 74
     0
 49
-1.0
 74
     0
  0
LTYPE
  5
7B
330
5
100
AcDbSymbolTableRecord
100
AcDbLinetypeTableRecord
  2
ACISOTGB
 70
     0
  3
__ . . __ . .
 72
    65
 73
     6
 40
9.0
 49
4.0
 74
     0
 49
-1.0
 74
     0
 49
1.0
 74
     0
 49
-1.0
 74
     0
 49
1.0
 74
     0
 49
-1.0
 74
     0
  0
LTYPE
  5
7C
330
5
100
AcDbSymbolTableRecord
100
AcDbLinetypeTableRecord
  2
ACISOTGL
 70
     0
  3
_ _ _ _ _
 72
    65
 73
     2
 40
3.0
 49
2.0
 74
     0
 49
-1.0
 74
     0
  0
LTYPE
  5
7E
330
5
100
AcDbSymbolTableRecord
100
AcDbLinetypeTableRecord
  2
CENTER
 70
     0
  3
__ . __
 72
    65
 73
     4
 40
7.0
 49
4.0
 74
     0
 49
-1.0
 74
     0
 49
1.0
 74
     0
 49
-1.0
 74
     0
  0
LTYPE
  5
D8
330
5
100
AcDbSymbolTableRecord
100
AcDbLinetypeTableRecord
  2
HIDDEN
 70
     0
  3
Hidden __ __ __ __ __ __ __ __ __ __ __ __ __ _
 72
    65
 73
     2
 40
9.524999999999998
 49
6.349999999999999
 74
     0
 49
-3.174999999999999
 74
     0
  0
LTYPE
  5
D9
330
5
100
AcDbSymbolTableRecord
100
AcDbLinetypeTableRecord
  2
PHANTOM2
 70
     0
  3
Phantom (.5x) ___ _ _ ___ _ _ ___ _ _ ___ _ _
 72
    65
 73
     6
 40
31.75
 49
15.875
 74
     0
 49
-3.174999999999999
 74
     0
 49
3.174999999999999
 74
     0
 49
-3.174999999999999
 74
     0
 49
3.174999999999999
 74
     0
 49
-3.174999999999999
 74
     0
  0
LTYPE
  5
5ED
330
5
100
AcDbSymbolTableRecord
100
AcDbLinetypeTableRecord
  2
gen3
 70
     0
  3
-- -- -- -- -- -- -- -- -- -- -- -- -- -- --
 72
    65
 73
     2
 40
6.25
 49
4.75
 74
     0
 49
-1.5
 74
     0
  0
LTYPE
  5
5EE
330
5
100
AcDbSymbolTableRecord
100
AcDbLinetypeTableRecord
  2
gen7
 70
     0
  3
____ . ____ . ____ . ____ . ____ . ____ . ____
 72
    65
 73
     4
 40
13.75
 49
9.75
 74
     0
 49
-1.5
 74
     0
 49
1.0
 74
     0
 49
-1.5
 74
     0
  0
LTYPE
  5
5EF
330
5
100
AcDbSymbolTableRecord
100
AcDbLinetypeTableRecord
  2
gen3a
 70
     0
  3
 - - - - -
 72
    65
 73
     2
 40
3.125
 49
2.25
 74
     0
 49
-0.875
 74
     0
  0
LTYPE
  5
5F0
330
5
100
AcDbSymbolTableRecord
100
AcDbLinetypeTableRecord
  2
gen7a
 70
     0
  3
__ . __ . __
 72
    65
 73
     4
 40
6.875
 49
4.75
 74
     0
 49
-0.875
 74
     0
 49
0.375
 74
     0
 49
-0.875
 74
     0
  0
LTYPE
  5
5F1
330
5
100
AcDbSymbolTableRecord
100
AcDbLinetypeTableRecord
  2
gen4a
 70
     0
  3
_____ . . _____ . . _____ . . ____ .. ____
 72
    65
 73
     6
 40
16.25
 49
9.75
 74
     0
 49
-1.5
 74
     0
 49
1.0
 74
     0
 49
-1.5
 74
     0
 49
1.0
 74
     0
 49
-1.5
 74
     0
  0
LTYPE
  5
5F2
330
5
100
AcDbSymbolTableRecord
100
AcDbLinetypeTableRecord
  2
genzigzag
 70
     0
  3
/\/-/\/-/\/-/\/-/\/-/\/
 72
    65
 73
     2
 40
12.0001
 49
0.0001
 74
     4
 75
   135
340
6B
 46
2.0
 50
0.0
 44
0.0
 45
0.0
 49
-12.0
 74
     0
  0
ENDTAB
  0
TABLE
  2
LAYER
  5
2
102
{ACAD_XDICTIONARY
360
35D
102
}
330
0
100
AcDbSymbolTable
 70
    25
  0
LAYER
  5
10
330
2
100
AcDbSymbolTableRecord
100
AcDbLayerTableRecord
  2
0
 70
     0
 62
     7
  6
Continuous
370
    -3
390
F
  0
LAYER
  5
1E1
330
2
100
AcDbSymbolTableRecord
100
AcDbLayerTableRecord
  2
Defpoints
 70
     0
 62
     7
  6
Continuous
290
     0
370
    -3
390
F
  0
LAYER
  5
518
330
2
100
AcDbSymbolTableRecord
100
AcDbLayerTableRecord
  2
TK1
 70
     0
 62
     7
  6
Continuous
370
    25
390
F
  0
LAYER
  5
519
330
2
100
AcDbSymbolTableRecord
100
AcDbLayerTableRecord
  2
TK10
 70
     0
 62
     7
  6
AM_ISO02W050x2
370
    13
390
F
  0
LAYER
  5
51A
330
2
100
AcDbSymbolTableRecord
100
AcDbLayerTableRecord
  2
TK2
 70
     0
 62
     2
  6
Continuous
370
    25
390
F
  0
LAYER
  5
51B
330
2
100
AcDbSymbolTableRecord
100
AcDbLayerTableRecord
  2
TK3
 70
     0
 62
     5
  6
Continuous
370
    25
390
F
  0
LAYER
  5
51C
330
2
100
AcDbSymbolTableRecord
100
AcDbLayerTableRecord
  2
TK20
 70
     0
 62
     2
  6
AM_ISO02W050x2
370
    13
390
F
  0
LAYER
  5
51D
330
2
100
AcDbSymbolTableRecord
100
AcDbLayerTableRecord
  2
TK30
 70
     0
 62
     5
  6
AM_ISO02W050x2
370
    13
390
F
  0
LAYER
  5
5AE
330
2
100
AcDbSymbolTableRecord
100
AcDbLayerTableRecord
  2
TK4
 70
     0
 62
     3
  6
Continuous
370
    25
390
F
  0
LAYER
  5
5AF
330
2
100
AcDbSymbolTableRecord
100
AcDbLayerTableRecord
  2
TK5
 70
     0
 62
     4
  6
Continuous
370
    25
390
F
  0
LAYER
  5
5B0
330
2
100
AcDbSymbolTableRecord
100
AcDbLayerTableRecord
  2
TK6
 70
     0
 62
     6
  6
Continuous
370
    25
390
F
  0
LAYER
  5
5B1
330
2
100
AcDbSymbolTableRecord
100
AcDbLayerTableRecord
  2
TK7
 70
     0
 62
     1
  6
Continuous
370
    25
390
F
  0
LAYER
  5
5B2
330
2
100
AcDbSymbolTableRecord
100
AcDbLayerTableRecord
  2
TK8
 70
     0
 62
     8
  6
Continuous
370
    25
390
F
  0
LAYER
  5
5B4
330
2
100
AcDbSymbolTableRecord
100
AcDbLayerTableRecord
  2
TK40
 70
     0
 62
     3
  6
AM_ISO02W050x2
370
    13
390
F
  0
LAYER
  5
5B5
330
2
100
AcDbSymbolTableRecord
100
AcDbLayerTableRecord
  2
TK50
 70
     0
 62
     4
  6
AM_ISO02W050x2
370
    13
390
F
  0
LAYER
  5
5B6
330
2
100
AcDbSymbolTableRecord
100
AcDbLayerTableRecord
  2
TK60
 70
     0
 62
     6
  6
AM_ISO02W050x2
370
    13
390
F
  0
LAYER
  5
5B7
330
2
100
AcDbSymbolTableRecord
100
AcDbLayerTableRecord
  2
TK70
 70
     0
 62
     1
  6
AM_ISO02W050x2
370
    13
390
F
  0
LAYER
  5
5B8
330
2
100
AcDbSymbolTableRecord
100
AcDbLayerTableRecord
  2
TK80
 70
     0
 62
     8
  6
AM_ISO02W050x2
370
    13
390
F
  0
LAYER
  5
5E3
330
2
100
AcDbSymbolTableRecord
100
AcDbLayerTableRecord
  2
AM_7
 70
     0
 62
     4
  6
AM_ISO08W050
370
    13
390
F
  0
LAYER
  5
5E4
330
2
100
AcDbSymbolTableRecord
100
AcDbLayerTableRecord
  2
AM_5
 70
     0
 62
     3
  6
Continuous
370
    13
390
F
  0
LAYER
  5
60F
330
2
100
AcDbSymbolTableRecord
100
AcDbLayerTableRecord
  2
7A
 70
     0
 62
     4
  6
gen7a
370
    -3
390
F
  0
LAYER
  5
610
330
2
100
AcDbSymbolTableRecord
100
AcDbLayerTableRecord
  2
RAHM2
 70
     0
 62
     1
  6
Continuous
370
    -3
390
F
  0
LAYER
  5
790
330
2
100
AcDbSymbolTableRecord
100
AcDbLayerTableRecord
  2
画層1
 70
     0
 62
     1
  6
AM_ISO08W050
370
    13
390
F
  0
LAYER
  5
791
330
2
100
AcDbSymbolTableRecord
100
AcDbLayerTableRecord
  2
画層2
 70
     0
 62
     1
  6
Continuous
370
    25
390
F
  0
LAYER
  5
BB6
330
2
100
AcDbSymbolTableRecord
100
AcDbLayerTableRecord
  2
AM_CL
 70
     0
 62
     1
  6
Amconstr
370
    25
390
F
  0
ENDTAB
  0
TABLE
  2
STYLE
  5
3
330
0
100
AcDbSymbolTable
 70
     5
  0
STYLE
  5
11
330
3
100
AcDbSymbolTableRecord
100
AcDbTextStyleTableRecord
  2
STANDARD
 70
     0
 40
0.0
 41
1.0
 50
0.0
 71
     0
 42
73.98571745357912
  3
ISOCP.SHX
  4
bigfont.shx
  0
STYLE
  5
6B
330
3
100
AcDbSymbolTableRecord
100
AcDbTextStyleTableRecord
  2

 70
     1
 40
0.0
 41
1.0
 50
0.0
 71
     0
 42
2.5
  3
ltypeshp.shx
  4

  0
STYLE
  5
6D
330
3
100
AcDbSymbolTableRecord
100
AcDbTextStyleTableRecord
  2
ACISOTS
 70
     0
 40
1.0
 41
1.0
 50
0.0
 71
     0
 42
2.5
  3
isocp.shx
  4
extfont.shx
  0
STYLE
  5
79
330
3
100
AcDbSymbolTableRecord
100
AcDbTextStyleTableRecord
  2
ACISOGDT
 70
     0
 40
0.0
 41
1.0
 50
0.0
 71
     0
 42
2.5
  3
amgdt.shx
  4

  0
STYLE
  5
612
330
3
100
AcDbSymbolTableRecord
100
AcDbTextStyleTableRecord
  2

 70
     1
 40
0.0
 41
1.0
 50
0.0
 71
     0
 42
3.0
  3
genltshp.shx
  4

  0
ENDTAB
  0
TABLE
  2
VIEW
  5
6
330
0
100
AcDbSymbolTable
 70
     6
  0
VIEW
  5
291
330
6
100
AcDbSymbolTableRecord
100
AcDbViewTableRecord
  2
AM_VIEW1
 70
     0
 40
140.0
 10
103.7546012269939
 20
210.0
 41
207.5092024539878
 11
0.0
 21
0.0
 31
1.0
 12
0.0
 22
0.0
 32
0.0
 42
50.0
 43
0.0
 44
0.0
 50
0.0
 71
    16
281
     0
 72
     0
  0
VIEW
  5
292
330
6
100
AcDbSymbolTableRecord
100
AcDbViewTableRecord
  2
AM_VIEW2
 70
     0
 40
140.0
 10
299.2453987730061
 20
210.0
 41
207.5092024539878
 11
0.0
 21
0.0
 31
1.0
 12
0.0
 22
0.0
 32
0.0
 42
50.0
 43
0.0
 44
0.0
 50
0.0
 71
    16
281
     0
 72
     0
  0
VIEW
  5
293
330
6
100
AcDbSymbolTableRecord
100
AcDbViewTableRecord
  2
AM_VIEW3
 70
     0
 40
140.0
 10
103.7546012269939
 20
70.00000000000001
 41
207.5092024539878
 11
0.0
 21
0.0
 31
1.0
 12
0.0
 22
0.0
 32
0.0
 42
50.0
 43
0.0
 44
0.0
 50
0.0
 71
    16
281
     0
 72
     0
  0
VIEW
  5
294
330
6
100
AcDbSymbolTableRecord
100
AcDbViewTableRecord
  2
AM_VIEW4
 70
     0
 40
140.0
 10
299.2453987730061
 20
70.00000000000001
 41
207.5092024539878
 11
0.0
 21
0.0
 31
1.0
 12
0.0
 22
0.0
 32
0.0
 42
50.0
 43
0.0
 44
0.0
 50
0.0
 71
    16
281
     0
 72
     0
  0
VIEW
  5
295
330
6
100
AcDbSymbolTableRecord
100
AcDbViewTableRecord
  2
AM_VIEW5
 70
     0
 40
140.0
 10
201.5
 20
140.0
 41
207.5092024539878
 11
0.0
 21
0.0
 31
1.0
 12
0.0
 22
0.0
 32
0.0
 42
50.0
 43
0.0
 44
0.0
 50
0.0
 71
    16
281
     0
 72
     0
  0
VIEW
  5
296
330
6
100
AcDbSymbolTableRecord
100
AcDbViewTableRecord
  2
AM_VIEW6
 70
     0
 40
279.9972000000001
 10
201.5
 20
140.0
 41
415.0142547239266
 11
0.0
 21
0.0
 31
1.0
 12
0.0
 22
0.0
 32
0.0
 42
50.0
 43
0.0
 44
0.0
 50
0.0
 71
    16
281
     0
 72
     0
  0
ENDTAB
  0
TABLE
  2
UCS
  5
7
330
0
100
AcDbSymbolTable
 70
     0
  0
ENDTAB
  0
TABLE
  2
APPID
  5
9
330
0
100
AcDbSymbolTable
 70
    35
  0
APPID
  5
12
330
9
100
AcDbSymbolTableRecord
100
AcDbRegAppTableRecord
  2
ACAD
 70
     0
  0
APPID
  5
46
330
9
100
AcDbSymbolTableRecord
100
AcDbRegAppTableRecord
  2
MCAD_NO_VIS
 70
     0
  0
APPID
  5
47
330
9
100
AcDbSymbolTableRecord
100
AcDbRegAppTableRecord
  2
ACAD_TEMP_GRAPHIC
 70
     0
  0
APPID
  5
58
330
9
100
AcDbSymbolTableRecord
100
AcDbRegAppTableRecord
  2
ACATTRIBSERVICES
 70
     0
  0
APPID
  5
EE
330
9
100
AcDbSymbolTableRecord
100
AcDbRegAppTableRecord
  2
AD_DRAW
 70
     0
  0
APPID
  5
10C
330
9
100
AcDbSymbolTableRecord
100
AcDbRegAppTableRecord
  2
DESIGNERASSEMBLIES
 70
     0
  0
APPID
  5
111
330
9
100
AcDbSymbolTableRecord
100
AcDbRegAppTableRecord
  2
ACADM_DIM_EDIT
 70
     0
  0
APPID
  5
112
330
9
100
AcDbSymbolTableRecord
100
AcDbRegAppTableRecord
  2
AMDT_DM_ADJ
 70
     0
  0
APPID
  5
1E2
330
9
100
AcDbSymbolTableRecord
100
AcDbRegAppTableRecord
  2
GENIUS_GENREC_14
 70
     0
  0
APPID
  5
1E3
330
9
100
AcDbSymbolTableRecord
100
AcDbRegAppTableRecord
  2
GENIUS_GENODEF_13
 70
     0
  0
APPID
  5
1E4
330
9
100
AcDbSymbolTableRecord
100
AcDbRegAppTableRecord
  2
GENIUS_GENOBJ-N-REC_13
 70
     0
  0
APPID
  5
1E5
330
9
100
AcDbSymbolTableRecord
100
AcDbRegAppTableRecord
  2
GENIUS_GENDIMSH_14
 70
     0
  0
APPID
  5
1E6
330
9
100
AcDbSymbolTableRecord
100
AcDbRegAppTableRecord
  2
GENIUS_GENCFG_13
 70
     0
  0
APPID
  5
1E7
330
9
100
AcDbSymbolTableRecord
100
AcDbRegAppTableRecord
  2
GENIUS_GENCFG0_13
 70
     0
  0
APPID
  5
1E8
330
9
100
AcDbSymbolTableRecord
100
AcDbRegAppTableRecord
  2
GENIUS_GENCFG1_13
 70
     0
  0
APPID
  5
1E9
330
9
100
AcDbSymbolTableRecord
100
AcDbRegAppTableRecord
  2
GENIUS_GENCFG2_13
 70
     0
  0
APPID
  5
1EA
330
9
100
AcDbSymbolTableRecord
100
AcDbRegAppTableRecord
  2
GENIUS_GENCFG3_13
 70
     0
  0
APPID
  5
1EB
330
9
100
AcDbSymbolTableRecord
100
AcDbRegAppTableRecord
  2
GENIUS_GENCFG4_13
 70
     0
  0
APPID
  5
1EC
330
9
100
AcDbSymbolTableRecord
100
AcDbRegAppTableRecord
  2
GENIUS_GEVCFG0_13
 70
     0
  0
APPID
  5
1ED
330
9
100
AcDbSymbolTableRecord
100
AcDbRegAppTableRecord
  2
GENIUS_GENOENT_13
 70
     0
  0
APPID
  5
1EE
330
9
100
AcDbSymbolTableRecord
100
AcDbRegAppTableRecord
  2
GENIUS_GENOBJ-N-CRS_13
 70
     0
  0
APPID
  5
1EF
330
9
100
AcDbSymbolTableRecord
100
AcDbRegAppTableRecord
  2
GENIUS_GENOREF_13
 70
     0
  0
APPID
  5
1F0
330
9
100
AcDbSymbolTableRecord
100
AcDbRegAppTableRecord
  2
GENIUS_GENOLIS_13
 70
     0
  0
APPID
  5
1F1
330
9
100
AcDbSymbolTableRecord
100
AcDbRegAppTableRecord
  2
GENIUS_GENOBJ-N-TIT_13
 70
     0
  0
APPID
  5
1F2
330
9
100
AcDbSymbolTableRecord
100
AcDbRegAppTableRecord
  2
GENIUS_GENTITLE_13
 70
     0
  0
APPID
  5
1F3
330
9
100
AcDbSymbolTableRecord
100
AcDbRegAppTableRecord
  2
GENIUS_GENSCREG_15
 70
     0
  0
APPID
  5
1F4
330
9
100
AcDbSymbolTableRecord
100
AcDbRegAppTableRecord
  2
GENIUS_GENOBJ-N-SDF_13
 70
     0
  0
APPID
  5
1F5
330
9
100
AcDbSymbolTableRecord
100
AcDbRegAppTableRecord
  2
GENIUS_GENOBJ-N-CEN_13
 70
     0
  0
APPID
  5
1F6
330
9
100
AcDbSymbolTableRecord
100
AcDbRegAppTableRecord
  2
GENIUS_GENOBJ-N-HTC_13
 70
     0
  0
APPID
  5
1F7
330
9
100
AcDbSymbolTableRecord
100
AcDbRegAppTableRecord
  2
GENIUS_GENHATCH_13
 70
     0
  0
APPID
  5
484
330
9
100
AcDbSymbolTableRecord
100
AcDbRegAppTableRecord
  2
GENIUS_GENOBJ-N-ZOO_13
 70
     0
  0
APPID
  5
485
330
9
100
AcDbSymbolTableRecord
100
AcDbRegAppTableRecord
  2
GENIUS_GENZOO_17
 70
     0
  0
APPID
  5
792
330
9
100
AcDbSymbolTableRecord
100
AcDbRegAppTableRecord
  2
GENIUS_GENOBJ-N-FIL_13
 70
     0
  0
APPID
  5
15BC
330
9
100
AcDbSymbolTableRecord
100
AcDbRegAppTableRecord
  2
GENIUS_GENCEN_19
 70
     0
  0
APPID
  5
315C
330
9
100
AcDbSymbolTableRecord
100
AcDbRegAppTableRecord
  2
GENIUS_GENDTOL_13
 70
     0
  0
ENDTAB
  0
TABLE
  2
DIMSTYLE
  5
A
330
0
100
AcDbSymbolTable
 70
    16
100
AcDbDimStyleTable
 71
     1
340
81
  0
DIMSTYLE
105
81
330
A
100
AcDbSymbolTableRecord
100
AcDbDimStyleTableRecord
  2
AM_ISO
 70
     0
  4
"
 41
2.5
 42
1.0
 43
10.0
 44
1.0
 47
0.1
 48
0.1
 73
     0
 74
     0
 77
     1
 78
     8
 79
     2
140
3.5
141
0.0
143
0.0393701
146
0.71
147
1.5
172
     1
176
   256
177
   256
178
     2
271
     2
272
     2
283
     0
284
     8
340
11
341
407
342
407
371
    -1
372
    -1
  0
DIMSTYLE
105
82
102
{ACAD_REACTORS
330
2FEA
102
}
330
A
100
AcDbSymbolTableRecord
100
AcDbDimStyleTableRecord
  2
AM_ISO$3
 70
     0
  4
"
 41
2.5
 42
1.0
 43
10.0
 44
1.0
 47
0.1
 48
0.1
 73
     0
 77
     1
 78
     8
 79
     2
140
3.5
141
0.0
143
0.0393701
146
0.71
147
1.5
176
   256
177
   256
178
     2
271
     2
272
     2
283
     0
284
     8
288
     1
289
     0
340
11
341
407
342
407
371
    -1
372
    -1
  0
DIMSTYLE
105
83
330
A
100
AcDbSymbolTableRecord
100
AcDbDimStyleTableRecord
  2
AM_ISO$4
 70
     0
  4
"
 41
2.5
 42
1.0
 43
10.0
 44
1.0
 47
0.1
 48
0.1
 73
     0
 77
     1
 78
     8
 79
     2
140
3.5
141
0.0
143
0.0393701
146
0.71
147
1.5
176
   256
177
   256
178
     2
271
     2
272
     2
283
     0
284
     8
288
     1
289
     0
340
11
341
407
342
407
371
    -1
372
    -1
  0
DIMSTYLE
105
84
330
A
100
AcDbSymbolTableRecord
100
AcDbDimStyleTableRecord
  2
AM_ISO$6
 70
     0
  4
"
 41
2.5
 42
1.0
 43
10.0
 44
1.0
 47
0.1
 48
0.1
 73
     0
 74
     0
 78
     8
 79
     2
140
3.5
141
0.0
143
0.0393701
146
0.71
147
1.5
172
     1
176
   256
177
   256
178
     2
271
     2
272
     2
283
     0
284
     8
340
11
341
407
342
407
371
    -1
372
    -1
  0
DIMSTYLE
105
85
330
A
100
AcDbSymbolTableRecord
100
AcDbDimStyleTableRecord
  2
AM_ISO$7
 70
     0
  4
"
 41
2.5
 42
1.0
 43
10.0
 44
1.0
 47
0.1
 48
0.1
 73
     0
 74
     0
 77
     1
 78
     8
 79
     2
140
5.0
141
0.0
143
0.0393701
146
0.71
147
1.5
172
     1
176
   256
177
   256
178
     2
271
     2
272
     2
283
     0
284
     8
340
11
341
407
342
407
371
    -1
372
    -1
  0
DIMSTYLE
105
86
330
A
100
AcDbSymbolTableRecord
100
AcDbDimStyleTableRecord
  2
AM_ISO$SF
 70
     0
  4
"
 41
2.5
 42
1.0
 43
10.0
 44
1.0
 47
0.1
 48
0.1
 73
     0
 74
     0
 75
     1
 76
     1
 77
     1
 78
     8
 79
     2
140
3.5
141
0.0
143
0.0393701
146
0.71
147
1.5
172
     1
176
   256
177
   256
178
     2
271
     2
272
     2
283
     0
284
     8
340
11
341
407
342
407
371
    -1
372
    -1
  0
DIMSTYLE
105
8B
330
A
100
AcDbSymbolTableRecord
100
AcDbDimStyleTableRecord
  2
AM_ISO$SH
 70
     0
  4
"
 41
2.5
 42
1.0
 43
10.0
 44
1.0
 47
0.1
 48
0.1
 73
     0
 74
     0
 75
     1
 76
     1
 77
     1
 78
     8
 79
     2
140
3.5
141
0.0
143
0.0393701
144
2.0
146
0.71
147
1.5
172
     1
173
     1
176
   256
177
   256
178
     2
271
     2
272
     2
283
     0
284
     8
340
11
341
407
343
87
344
407
371
    -1
372
    -1
  0
DIMSTYLE
105
5F3
330
A
100
AcDbSymbolTableRecord
100
AcDbDimStyleTableRecord
  2
GEN-ISO
 70
     0
  4
"
 41
2.5
 42
1.0
 43
10.0
 44
1.0
 47
0.1
 48
0.1
 73
     0
 74
     0
 77
     1
 78
     8
140
3.5
141
0.0
143
0.0393701
146
0.71
147
1.5
172
     1
176
   256
177
   256
178
     2
271
     2
272
     3
274
     4
283
     0
340
11
  0
DIMSTYLE
105
5F4
330
A
100
AcDbSymbolTableRecord
100
AcDbDimStyleTableRecord
  2
GEN-ISO$3
 70
     0
  4
"
 41
2.5
 42
1.0
 43
10.0
 44
1.0
 47
0.1
 48
0.1
 73
     0
 77
     1
 78
     8
140
3.5
141
0.0
143
0.0393701
146
0.71
147
1.5
176
   256
177
   256
178
     2
271
     2
272
     3
274
     4
283
     0
288
     1
289
     0
340
11
  0
DIMSTYLE
105
5F5
330
A
100
AcDbSymbolTableRecord
100
AcDbDimStyleTableRecord
  2
GEN-ISO$4
 70
     0
  4
"
 41
2.5
 42
1.0
 43
10.0
 44
1.0
 47
0.1
 48
0.1
 73
     0
 77
     1
 78
     8
140
3.5
141
0.0
143
0.0393701
146
0.71
147
1.5
176
   256
177
   256
178
     2
271
     2
272
     3
274
     4
283
     0
288
     1
289
     0
340
11
  0
DIMSTYLE
105
5F6
330
A
100
AcDbSymbolTableRecord
100
AcDbDimStyleTableRecord
  2
GEN-ISO$6
 70
     0
  4
"
 41
2.5
 42
1.0
 43
10.0
 44
1.0
 47
0.1
 48
0.1
 73
     0
 74
     0
 78
     8
140
3.5
141
0.0
143
0.0393701
146
0.71
147
1.5
176
   256
177
   256
178
     2
271
     2
272
     3
274
     4
283
     0
340
11
  0
DIMSTYLE
105
5F7
330
A
100
AcDbSymbolTableRecord
100
AcDbDimStyleTableRecord
  2
GEN-ISO-POS
 70
     0
  4
"
 41
2.5
 42
1.0
 43
10.0
 44
1.0
 47
0.1
 48
0.1
 73
     0
 74
     0
 78
     8
140
5.0
141
0.0
143
0.0393701
146
0.71
147
1.5
176
   256
177
   256
178
     2
271
     2
272
     3
274
     4
283
     0
340
11
  0
DIMSTYLE
105
5F8
330
A
100
AcDbSymbolTableRecord
100
AcDbDimStyleTableRecord
  2
GEN-ISO-AXE-F
 70
     0
  4
"
 41
2.5
 42
1.0
 43
10.0
 44
1.0
 47
0.1
 48
0.1
 73
     0
 74
     0
 75
     1
 76
     1
 77
     1
 78
     8
140
3.5
141
0.0
143
0.0393701
146
0.71
147
1.5
172
     1
176
   256
177
   256
178
     2
271
     2
272
     3
274
     4
283
     0
340
11
  0
DIMSTYLE
105
5F9
330
A
100
AcDbSymbolTableRecord
100
AcDbDimStyleTableRecord
  2
GEN-ISO-AXE-H
 70
     0
  4
"
 41
2.5
 42
1.0
 43
10.0
 44
1.0
 47
0.1
 48
0.1
 73
     0
 74
     0
 75
     1
 76
     1
 77
     1
 78
     8
140
3.5
141
0.0
143
0.0393701
144
2.0
146
0.71
147
1.5
172
     1
173
     1
176
   256
177
   256
178
     2
271
     2
272
     3
274
     4
283
     0
340
11
  0
DIMSTYLE
105
BF2
330
A
100
AcDbSymbolTableRecord
100
AcDbDimStyleTableRecord
  2
AM_ANSI
 70
     0
  4
mm
 41
0.1
 42
0.05
 43
0.5
 44
0.1
 47
0.1
 48
0.1
 78
     7
 79
     2
140
0.12
141
0.0
146
0.71
147
0.06
176
   256
177
   256
178
     2
274
     4
284
     7
340
11
371
    -1
372
    -1
  0
DIMSTYLE
105
13DF
102
{ACAD_REACTORS
330
2D94
330
2DF4
330
2F24
330
2F48
330
2F6C
330
2F90
330
3137
330
31BE
330
32F6
330
333A
330
336D
330
33B1
330
33E5
330
341F
102
}
330
A
100
AcDbSymbolTableRecord
100
AcDbDimStyleTableRecord
  2
AM_ISO$0
 70
     0
  4
"
 41
2.5
 42
1.0
 43
10.0
 44
1.0
 47
0.1
 48
0.1
 73
     0
 74
     0
 77
     1
 78
     8
 79
     2
140
3.5
141
0.0
143
0.0393701
146
0.71
147
1.5
172
     1
176
   256
177
   256
178
     2
271
     2
272
     2
283
     0
284
     8
340
11
341
407
342
407
371
    -1
372
    -1
  0
ENDTAB
  0
TABLE
  2
BLOCK_RECORD
  5
1
330
0
100
AcDbSymbolTable
 70
    23
  0
BLOCK_RECORD
  5
1F
102
{ACAD_XDICTIONARY
360
8F
102
}
330
1
100
AcDbSymbolTableRecord
100
AcDbBlockTableRecord
  2
*Model_Space
340
22
  0
BLOCK_RECORD
  5
23
330
1
100
AcDbSymbolTableRecord
100
AcDbBlockTableRecord
  2
*Paper_Space
340
26
  0
BLOCK_RECORD
  5
1B
330
1
100
AcDbSymbolTableRecord
100
AcDbBlockTableRecord
  2
*Paper_Space0
340
1E
  0
BLOCK_RECORD
  5
87
330
1
100
AcDbSymbolTableRecord
100
AcDbBlockTableRecord
  2
GENAXEH
340
0
  0
BLOCK_RECORD
  5
407
330
1
100
AcDbSymbolTableRecord
100
AcDbBlockTableRecord
  2
_Open30
340
0
102
{BLKREFS
331
2F34
331
2F35
331
2F58
331
2F59
331
2F7C
331
2F7D
331
2FA0
331
2FA1
331
3007
331
30F2
331
30F3
331
30FB
331
30FC
331
3160
331
3161
331
319E
331
31CE
331
31CF
331
3325
331
3326
331
3358
331
3359
331
339C
331
339D
331
33C1
331
33C2
331
342D
331
342E
331
343E
331
343F
102
}
  0
BLOCK_RECORD
  5
5FA
102
{ACAD_XDICTIONARY
360
603
102
}
330
1
100
AcDbSymbolTableRecord
100
AcDbBlockTableRecord
  2
TAKACHI-A3
340
0
  0
BLOCK_RECORD
  5
613
102
{ACAD_XDICTIONARY
360
668
102
}
330
1
100
AcDbSymbolTableRecord
100
AcDbBlockTableRecord
  2
TAKACHI-TITLE
340
0
  0
BLOCK_RECORD
  5
BF3
102
{ACAD_XDICTIONARY
360
BFB
102
}
330
1
100
AcDbSymbolTableRecord
100
AcDbBlockTableRecord
  2
TK-A3
340
0
102
{BLKREFS
331
C06
102
}
  0
BLOCK_RECORD
  5
C08
102
{ACAD_XDICTIONARY
360
C61
102
}
330
1
100
AcDbSymbolTableRecord
100
AcDbBlockTableRecord
  2
TK-TITLE
340
0
102
{BLKREFS
331
C65
102
}
  0
BLOCK_RECORD
  5
2D95
330
1
100
AcDbSymbolTableRecord
100
AcDbBlockTableRecord
  2
*D8
340
0
  0
BLOCK_RECORD
  5
2DF5
330
1
100
AcDbSymbolTableRecord
100
AcDbBlockTableRecord
  2
*D9
340
0
  0
BLOCK_RECORD
  5
2F25
330
1
100
AcDbSymbolTableRecord
100
AcDbBlockTableRecord
  2
*D10
340
0
  0
BLOCK_RECORD
  5
2F49
330
1
100
AcDbSymbolTableRecord
100
AcDbBlockTableRecord
  2
*D11
340
0
  0
BLOCK_RECORD
  5
2F6D
330
1
100
AcDbSymbolTableRecord
100
AcDbBlockTableRecord
  2
*D12
340
0
  0
BLOCK_RECORD
  5
2F91
330
1
100
AcDbSymbolTableRecord
100
AcDbBlockTableRecord
  2
*D13
340
0
  0
BLOCK_RECORD
  5
2FEB
330
1
100
AcDbSymbolTableRecord
100
AcDbBlockTableRecord
  2
*D14
340
0
  0
BLOCK_RECORD
  5
3138
330
1
100
AcDbSymbolTableRecord
100
AcDbBlockTableRecord
  2
*D15
340
0
  0
BLOCK_RECORD
  5
31BF
330
1
100
AcDbSymbolTableRecord
100
AcDbBlockTableRecord
  2
*D16
340
0
  0
BLOCK_RECORD
  5
32F7
330
1
100
AcDbSymbolTableRecord
100
AcDbBlockTableRecord
  2
*D17
340
0
  0
BLOCK_RECORD
  5
333B
330
1
100
AcDbSymbolTableRecord
100
AcDbBlockTableRecord
  2
*D18
340
0
  0
BLOCK_RECORD
  5
336E
330
1
100
AcDbSymbolTableRecord
100
AcDbBlockTableRecord
  2
*D19
340
0
  0
BLOCK_RECORD
  5
33B2
330
1
100
AcDbSymbolTableRecord
100
AcDbBlockTableRecord
  2
*D20
340
0
  0
BLOCK_RECORD
  5
33E6
330
1
100
AcDbSymbolTableRecord
100
AcDbBlockTableRecord
  2
*D21
340
0
  0
BLOCK_RECORD
  5
3420
330
1
100
AcDbSymbolTableRecord
100
AcDbBlockTableRecord
  2
*D22
340
0
  0
ENDTAB
  0
ENDSEC
  0
SECTION
  2
BLOCKS
  0
BLOCK
  5
20
330
1F
100
AcDbEntity
  8
0
100
AcDbBlockBegin
  2
*Model_Space
 70
     0
 10
0.0
 20
0.0
 30
0.0
  3
*Model_Space
  1

  0
ENDBLK
  5
21
330
1F
100
AcDbEntity
  8
0
100
AcDbBlockEnd
  0
BLOCK
  5
24
330
23
100
AcDbEntity
 67
     1
  8
0
100
AcDbBlockBegin
  2
*Paper_Space
 70
     0
 10
0.0
 20
0.0
 30
0.0
  3
*Paper_Space
  1

  0
ENDBLK
  5
25
330
23
100
AcDbEntity
 67
     1
  8
0
100
AcDbBlockEnd
  0
BLOCK
  5
1C
330
1B
100
AcDbEntity
  8
0
100
AcDbBlockBegin
  2
*Paper_Space0
 70
     0
 10
0.0
 20
0.0
 30
0.0
  3
*Paper_Space0
  1

  0
VIEWPORT
  5
178
102
{ACAD_XDICTIONARY
360
346F
102
}
330
1B
100
AcDbEntity
  8
0
100
AcDbViewport
 10
133.3499908447265
 20
101.5999970436096
 30
0.0
 40
370.2266912936524
 41
228.4221935424805
 69
     0
 12
133.3499908447265
 22
101.5999970436096
 13
0.0
 23
0.0
 14
10.0
 24
10.0
 15
10.0
 25
10.0
 16
0.0
 26
0.0
 36
1.0
 17
0.0
 27
0.0
 37
0.0
 42
50.0
 43
0.0
 44
0.0
 45
228.4221935424805
 50
0.0
 51
0.0
 72
   100
 90
    32800
  1

281
     0
 71
     1
 74
     0
110
0.0
120
0.0
130
0.0
111
1.0
121
0.0
131
0.0
112
0.0
122
1.0
132
0.0
 79
     0
146
0.0
  0
ENDBLK
  5
1D
330
1B
100
AcDbEntity
  8
0
100
AcDbBlockEnd
  0
BLOCK
  5
89
330
87
100
AcDbEntity
  8
0
100
AcDbBlockBegin
  2
GENAXEH
 70
     0
 10
0.0
 20
0.0
 30
0.0
  3
GENAXEH
  1

  0
LINE
  5
88
330
87
100
AcDbEntity
  8
0
100
AcDbLine
 10
-1.0
 20
0.0
 30
0.0
 11
1.0
 21
0.0
 31
0.0
  0
ENDBLK
  5
8A
330
87
100
AcDbEntity
  8
0
100
AcDbBlockEnd
  0
BLOCK
  5
40B
330
407
100
AcDbEntity
  8
0
100
AcDbBlockBegin
  2
_Open30
 70
     0
 10
0.0
 20
0.0
 30
0.0
  3
_Open30
  1

  0
LINE
  5
408
330
407
100
AcDbEntity
  8
0
  6
ByBlock
 62
     0
370
    -2
100
AcDbLine
 10
-1.0
 20
0.26794919
 30
0.0
 11
0.0
 21
0.0
 31
0.0
  0
LINE
  5
409
330
407
100
AcDbEntity
  8
0
  6
ByBlock
 62
     0
370
    -2
100
AcDbLine
 10
0.0
 20
0.0
 30
0.0
 11
-1.0
 21
-0.26794919
 31
0.0
  0
LINE
  5
40A
330
407
100
AcDbEntity
  8
0
  6
ByBlock
 62
     0
370
    -2
100
AcDbLine
 10
0.0
 20
0.0
 30
0.0
 11
-1.0
 21
0.0
 31
0.0
  0
ENDBLK
  5
40C
330
407
100
AcDbEntity
  8
0
100
AcDbBlockEnd
  0
BLOCK
  5
604
330
5FA
100
AcDbEntity
  8
0
100
AcDbBlockBegin
  2
TAKACHI-A3
 70
     0
 10
0.0
 20
0.0
 30
0.0
  3
TAKACHI-A3
  1

  0
LWPOLYLINE
  5
5FB
330
5FA
100
AcDbEntity
  8
0
100
AcDbPolyline
 90
        4
 70
     1
 43
0.0
 10
10.0
 20
0.0
 10
410.0
 20
0.0
 10
410.0
 20
280.0
 10
10.00000000000003
 20
280.0
1001
GENIUS_GENREC_14
1002
{
1000
PYDIR
1011
10.00000000000001
1021
280.0
1031
0.0
1002
}
1002
{
1000
PXDIR
1011
410.0
1021
0.0
1031
0.0
1002
}
1002
{
1000
PORI
1011
10.0
1021
0.0
1031
0.0
1002
}
1002
{
1000
PINS
1011
210.0
1021
139.9999999999999
1031
0.0
1002
}
1002
{
1000
HVAL
1000
280
1002
}
1002
{
1000
H
1070
     2
1002
}
1002
{
1000
WVAL
1000
400
1002
}
1002
{
1000
W
1070
     2
1002
}
1002
{
1000
C
1070
     4
1002
}
1001
GENIUS_GENODEF_13
1002
{
1000
HIER
1070
     0
1002
}
1002
{
1000
MANEDIT
1070
     0
1002
}
1002
{
1000
NOSEL
1070
     0
1002
}
1002
{
1000
BEHIND
1070
     0
1002
}
1002
{
1000
REACTOR
1002
}
1001
GENIUS_GENOBJ-N-REC_13
1002
{
1000
OWNER
1000
GEN
1002
}
  0
TEXT
  5
5FC
330
5FA
100
AcDbEntity
  8
0
 60
     1
100
AcDbText
 10
15.00000000000003
 20
50.0
 30
0.0
 40
2.5
  1
!GENTITLE-LL
100
AcDbText
  0
TEXT
  5
5FD
330
5FA
100
AcDbEntity
  8
0
 60
     1
100
AcDbText
 10
410.0
 20
0.0
 30
0.0
 40
2.5
  1
!GENTITLE-INSERT
100
AcDbText
  0
TEXT
  5
5FE
330
5FA
100
AcDbEntity
  8
0
 60
     1
100
AcDbText
 10
405.0
 20
275.0
 30
0.0
 40
2.5
  1
!GENTITLE-RU
100
AcDbText
  0
TEXT
  5
5FF
330
5FA
100
AcDbEntity
  8
0
 60
     1
100
AcDbText
 10
410.0
 20
280.0
 30
0.0
 40
2.5
  1
!GENTITLE-MAX
100
AcDbText
  0
LINE
  5
600
330
5FA
100
AcDbEntity
  8
0
100
AcDbLine
 10
366.0
 20
275.0
 30
0.0
 11
410.0
 21
275.0
 31
0.0
  0
MTEXT
  5
601
330
5FA
100
AcDbEntity
  8
0
100
AcDbMText
 10
409.3592953827348
 20
276.108542987227
 30
0.0
 40
2.5
 41
43.07840397728298
 71
     9
 72
     5
  1
(文書番号：TY-34)2004.10.29
 73
     1
 44
1.0
1001
ACAD
1000
MTEXTBEGIN
1070
    73
1070
     1
1070
    44
1040
1.0
1070
    74
1070
     0
1000
MTEXTEND
  0
LINE
  5
602
330
5FA
100
AcDbEntity
  8
0
100
AcDbLine
 10
366.0
 20
280.0
 30
0.0
 11
366.0
 21
275.0
 31
0.0
  0
ENDBLK
  5
605
330
5FA
100
AcDbEntity
  8
0
100
AcDbBlockEnd
  0
BLOCK
  5
669
330
613
100
AcDbEntity
  8
0
100
AcDbBlockBegin
  2
TAKACHI-TITLE
 70
     2
 10
0.0
 20
0.0
 30
0.0
  3
TAKACHI-TITLE
  1

  0
LINE
  5
614
330
613
100
AcDbEntity
  8
RAHM2
100
AcDbLine
 10
-195.0
 20
30.00000000000003
 30
0.0
 11
-94.0
 21
30.00000000000003
 31
0.0
  0
LINE
  5
615
330
613
100
AcDbEntity
  8
RAHM2
100
AcDbLine
 10
-195.0
 20
35.00000000000003
 30
0.0
 11
-94.0
 21
35.00000000000003
 31
0.0
  0
LINE
  5
616
330
613
100
AcDbEntity
  8
RAHM2
100
AcDbLine
 10
-195.0
 20
40.00000000000002
 30
0.0
 11
-94.0
 21
40.00000000000002
 31
0.0
  0
LINE
  5
617
330
613
100
AcDbEntity
  8
RAHM2
100
AcDbLine
 10
-195.0
 20
45.00000000000002
 30
0.0
 11
-94.0
 21
45.00000000000002
 31
0.0
  0
LINE
  5
618
330
613
100
AcDbEntity
  8
0
100
AcDbLine
 10
-195.0
 20
7.0
 30
0.0
 11
-94.0
 21
7.0
 31
0.0
  0
LINE
  5
619
330
613
100
AcDbEntity
  8
0
100
AcDbLine
 10
-195.0
 20
19.99999999999997
 30
0.0
 11
-94.0
 21
19.99999999999997
 31
0.0
  0
ATTDEF
  5
61A
330
613
100
AcDbEntity
  8
0
100
AcDbText
 10
-183.2438527145607
 20
8.950850524428082
 30
0.0
 40
2.5
  1

 11
-183.2438527145607
 21
8.617517191094748
 31
0.0
100
AcDbAttributeDefinition
  3
サブタイトル
  2
GEN-TITLE-DES2
 70
     0
 74
     1
  0
ATTDEF
  5
61B
330
613
100
AcDbEntity
  8
0
100
AcDbText
 10
-183.2438527145607
 20
2.017517191094748
 30
0.0
 40
3.0
  1

 11
-183.2438527145607
 21
1.617517191094748
 31
0.0
100
AcDbAttributeDefinition
  3
図番
  2
GEN-TITLE-NR
 70
     0
 74
     1
  0
MTEXT
  5
61C
330
613
100
AcDbEntity
  8
RAHM2
100
AcDbMText
 10
-193.8002551371314
 20
5.801035407279641
 30
0.0
 40
2.5
 41
90.0
 71
     1
 72
     5
  1
図番
 73
     1
 44
1.0
1001
ACAD
1000
MTEXTBEGIN
1070
    73
1070
     1
1070
    44
1040
1.0
1070
    74
1070
     0
1000
MTEXTEND
  0
ATTDEF
  5
61D
330
613
100
AcDbEntity
  8
0
100
AcDbText
 10
-183.2438527145607
 20
14.40728619501834
 30
0.0
 40
4.0
  1

 11
-183.2438527145607
 21
13.87395286168501
 31
0.0
100
AcDbAttributeDefinition
  3
品名
  2
GEN-TITLE-DES1
 70
     0
 74
     1
  0
LINE
  5
61E
330
613
100
AcDbEntity
  8
RAHM2
100
AcDbLine
 10
-187.5751288694036
 20
30.40000000000004
 30
0.0
 11
-190.0
 21
34.60000000000003
 31
0.0
  0
LINE
  5
61F
330
613
100
AcDbEntity
  8
RAHM2
100
AcDbLine
 10
-190.0
 20
34.60000000000003
 30
0.0
 11
-192.4248711305964
 21
30.40000000000004
 31
0.0
  0
LINE
  5
620
330
613
100
AcDbEntity
  8
RAHM2
100
AcDbLine
 10
-185.0
 20
50.00000000000003
 30
0.0
 11
-185.0
 21
19.99999999999994
 31
0.0
  0
LINE
  5
621
330
613
100
AcDbEntity
  8
RAHM2
100
AcDbLine
 10
-192.4248711305964
 20
30.40000000000004
 30
0.0
 11
-187.5751288694036
 21
30.40000000000004
 31
0.0
  0
MTEXT
  5
622
330
613
100
AcDbEntity
  8
RAHM2
100
AcDbMText
 10
-190.0
 20
22.49999999999997
 30
0.0
 40
2.5
 41
10.0
 71
     5
 72
     5
  1
符号
 73
     1
 44
1.0
1001
ACAD
1000
MTEXTBEGIN
1070
    73
1070
     1
1070
    44
1040
1.0
1070
    74
1070
     0
1000
MTEXTEND
  0
MTEXT
  5
623
330
613
100
AcDbEntity
  8
RAHM2
100
AcDbMText
 10
-193.8002551371314
 20
18.80103540727961
 30
0.0
 40
2.5
 41
90.0
 71
     1
 72
     5
  1
品名
 73
     1
 44
1.0
1001
ACAD
1000
MTEXTBEGIN
1070
    73
1070
     1
1070
    44
1040
1.0
1070
    74
1070
     0
1000
MTEXTEND
  0
LINE
  5
624
330
613
100
AcDbEntity
  8
RAHM2
100
AcDbLine
 10
-192.4248711305964
 20
45.40000000000003
 30
0.0
 11
-187.5751288694036
 21
45.40000000000003
 31
0.0
  0
LINE
  5
625
330
613
100
AcDbEntity
  8
RAHM2
100
AcDbLine
 10
-187.5751288694036
 20
45.40000000000003
 30
0.0
 11
-190.0
 21
49.60000000000002
 31
0.0
  0
LINE
  5
626
330
613
100
AcDbEntity
  8
RAHM2
100
AcDbLine
 10
-192.4248711305964
 20
40.40000000000003
 30
0.0
 11
-187.5751288694036
 21
40.40000000000003
 31
0.0
  0
LINE
  5
627
330
613
100
AcDbEntity
  8
RAHM2
100
AcDbLine
 10
-187.5751288694036
 20
40.40000000000003
 30
0.0
 11
-190.0
 21
44.60000000000002
 31
0.0
  0
LINE
  5
628
330
613
100
AcDbEntity
  8
RAHM2
100
AcDbLine
 10
-192.4248711305964
 20
35.40000000000004
 30
0.0
 11
-187.5751288694036
 21
35.40000000000004
 31
0.0
  0
LINE
  5
629
330
613
100
AcDbEntity
  8
RAHM2
100
AcDbLine
 10
-187.5751288694036
 20
35.40000000000004
 30
0.0
 11
-190.0
 21
39.60000000000002
 31
0.0
  0
LINE
  5
62A
330
613
100
AcDbEntity
  8
RAHM2
100
AcDbLine
 10
-190.0
 20
39.60000000000002
 30
0.0
 11
-192.4248711305964
 21
35.40000000000004
 31
0.0
  0
LINE
  5
62B
330
613
100
AcDbEntity
  8
RAHM2
100
AcDbLine
 10
-190.0
 20
44.60000000000002
 30
0.0
 11
-192.4248711305964
 21
40.40000000000003
 31
0.0
  0
LINE
  5
62C
330
613
100
AcDbEntity
  8
RAHM2
100
AcDbLine
 10
-190.0
 20
49.60000000000002
 30
0.0
 11
-192.4248711305964
 21
45.40000000000003
 31
0.0
  0
LINE
  5
62D
330
613
100
AcDbEntity
  8
RAHM2
100
AcDbLine
 10
-129.0
 20
50.00000000000003
 30
0.0
 11
-129.0
 21
19.99999999999994
 31
0.0
  0
MTEXT
  5
62E
330
613
100
AcDbEntity
  8
RAHM2
100
AcDbMText
 10
-157.1448171868856
 20
22.49999999999997
 30
0.0
 40
2.5
 41
45.0
 71
     5
 72
     5
  1
変更記事
 73
     1
 44
1.0
1001
ACAD
1000
MTEXTBEGIN
1070
    73
1070
     1
1070
    44
1040
1.0
1070
    74
1070
     0
1000
MTEXTEND
  0
LINE
  5
62F
330
613
100
AcDbEntity
  8
0
100
AcDbLine
 10
-34.0
 20
50.0
 30
0.0
 11
-34.0
 21
0.0
 31
0.0
  0
LINE
  5
630
330
613
100
AcDbEntity
  8
0
100
AcDbLine
 10
-94.0
 20
50.0
 30
0.0
 11
-94.0
 21
0.0
 31
0.0
  0
MTEXT
  5
631
330
613
100
AcDbEntity
  8
0
100
AcDbMText
 10
-64.0
 20
5.0
 30
0.0
 40
3.5
 41
60.0
 71
     5
 72
     5
  1
\fＭＳ ゴシック|b0|i0|c128|p49;株式会社タカチ電機工業
 73
     1
 44
1.0
1001
ACAD
1000
MTEXTBEGIN
1070
    73
1070
     1
1070
    44
1040
1.0
1070
    74
1070
     0
1000
MTEXTEND
  0
LINE
  5
632
330
613
100
AcDbEntity
  8
0
100
AcDbLine
 10
-94.0
 20
10.0
 30
0.0
 11
-34.0
 21
10.0
 31
0.0
  0
ATTDEF
  5
633
330
613
100
AcDbEntity
  8
0
100
AcDbText
 10
-58.01405119799745
 20
39.25500556178349
 30
0.0
 40
3.0
  1

 72
     2
 11
-58.01405119799745
 21
39.25500556178349
 31
0.0
100
AcDbAttributeDefinition
  3
尺度
  2
GEN-TITLE-SCA
 70
     0
  0
ATTDEF
  5
634
330
613
100
AcDbEntity
  8
0
100
AcDbText
 10
-77.00284966649007
 20
31.02180787943475
 30
0.0
 40
3.0
  1

 11
-77.00284966649007
 21
30.62180787943475
 31
0.0
100
AcDbAttributeDefinition
  3
材質
  2
GEN-TITLE-MAT1
 70
     0
 74
     1
  0
ATTDEF
  5
635
330
613
100
AcDbEntity
  8
0
100
AcDbText
 10
-77.00284966649007
 20
21.02180787943475
 30
0.0
 40
3.0
  1

 11
-77.00284966649007
 21
20.62180787943475
 31
0.0
100
AcDbAttributeDefinition
  3
表面処理
  2
GEN-TITLE-MAT2
 70
     0
 74
     1
  0
ATTDEF
  5
636
330
613
100
AcDbEntity
  8
0
100
AcDbText
 10
-77.00284966649007
 20
12.01751719109475
 30
0.0
 40
3.0
  1

 11
-77.00284966649007
 21
11.61751719109475
 31
0.0
100
AcDbAttributeDefinition
  3
日付
  2
GEN-TITLE-DAT
 70
     0
 74
     1
  0
LINE
  5
637
330
613
100
AcDbEntity
  8
0
100
AcDbLine
 10
-94.0
 20
37.5
 30
0.0
 11
-34.0
 21
37.5
 31
0.0
  0
LINE
  5
638
330
613
100
AcDbEntity
  8
0
100
AcDbLine
 10
-94.0
 20
27.5
 30
0.0
 11
-34.0
 21
27.5
 31
0.0
  0
LINE
  5
639
330
613
100
AcDbEntity
  8
0
100
AcDbLine
 10
-94.0
 20
17.5
 30
0.0
 11
-34.0
 21
17.5
 31
0.0
  0
LINE
  5
63A
330
613
100
AcDbEntity
  8
RAHM2
100
AcDbLine
 10
-109.0
 20
50.00000000000003
 30
0.0
 11
-109.0
 21
19.99999999999994
 31
0.0
  0
MTEXT
  5
63B
330
613
100
AcDbEntity
  8
RAHM2
100
AcDbMText
 10
-119.4582894723942
 20
32.50000000000003
 30
0.0
 40
2.5
 41
20.0
 71
     5
 72
     5
  1
・  ・   
 73
     1
 44
1.0
1001
ACAD
1000
MTEXTBEGIN
1070
    73
1070
     1
1070
    44
1040
1.0
1070
    74
1070
     0
1000
MTEXTEND
  0
MTEXT
  5
63C
330
613
100
AcDbEntity
  8
RAHM2
100
AcDbMText
 10
-118.738119805002
 20
22.49999999999997
 30
0.0
 40
2.5
 41
20.0
 71
     5
 72
     5
  1
年・月・日
 73
     1
 44
1.0
1001
ACAD
1000
MTEXTBEGIN
1070
    73
1070
     1
1070
    44
1040
1.0
1070
    74
1070
     0
1000
MTEXTEND
  0
MTEXT
  5
63D
330
613
100
AcDbEntity
  8
RAHM2
100
AcDbMText
 10
-101.5
 20
22.49999999999997
 30
0.0
 40
2.5
 41
15.0
 71
     5
 72
     5
  1
担当
 73
     1
 44
1.0
1001
ACAD
1000
MTEXTBEGIN
1070
    73
1070
     1
1070
    44
1040
1.0
1070
    74
1070
     0
1000
MTEXTEND
  0
MTEXT
  5
63E
330
613
100
AcDbEntity
  8
RAHM2
100
AcDbMText
 10
-119.4582894723942
 20
42.50000000000002
 30
0.0
 40
2.5
 41
20.0
 71
     5
 72
     5
  1
・  ・   
 73
     1
 44
1.0
1001
ACAD
1000
MTEXTBEGIN
1070
    73
1070
     1
1070
    44
1040
1.0
1070
    74
1070
     0
1000
MTEXTEND
  0
MTEXT
  5
63F
330
613
100
AcDbEntity
  8
RAHM2
100
AcDbMText
 10
-119.4582894723942
 20
37.50000000000003
 30
0.0
 40
2.5
 41
20.0
 71
     5
 72
     5
  1
・  ・   
 73
     1
 44
1.0
1001
ACAD
1000
MTEXTBEGIN
1070
    73
1070
     1
1070
    44
1040
1.0
1070
    74
1070
     0
1000
MTEXTEND
  0
MTEXT
  5
640
330
613
100
AcDbEntity
  8
RAHM2
100
AcDbMText
 10
-119.4582894723942
 20
47.50000000000002
 30
0.0
 40
2.5
 41
20.0
 71
     5
 72
     5
  1
・  ・   
 73
     1
 44
1.0
1001
ACAD
1000
MTEXTBEGIN
1070
    73
1070
     1
1070
    44
1040
1.0
1070
    74
1070
     0
1000
MTEXTEND
  0
MTEXT
  5
641
330
613
100
AcDbEntity
  8
RAHM2
100
AcDbMText
 10
-92.80025513713145
 20
16.30103540727964
 30
0.0
 40
2.5
 41
60.0
 71
     1
 72
     5
  1
日付
 73
     1
 44
1.0
1001
ACAD
1000
MTEXTBEGIN
1070
    73
1070
     1
1070
    44
1040
1.0
1070
    74
1070
     0
1000
MTEXTEND
  0
MTEXT
  5
642
330
613
100
AcDbEntity
  8
RAHM2
100
AcDbMText
 10
-92.80025513713145
 20
26.30103540727964
 30
0.0
 40
2.5
 41
60.0
 71
     1
 72
     5
  1
表面処理
 73
     1
 44
1.0
1001
ACAD
1000
MTEXTBEGIN
1070
    73
1070
     1
1070
    44
1040
1.0
1070
    74
1070
     0
1000
MTEXTEND
  0
LINE
  5
643
330
613
100
AcDbEntity
  8
7A
100
AcDbLine
 10
-89.0
 20
43.75
 30
0.0
 11
-75.2186915997147
 21
43.75
 31
0.0
1001
GENIUS_GENOREF_13
1005
656
  0
LINE
  5
644
330
613
100
AcDbEntity
  8
0
100
AcDbLine
 10
-84.0
 20
45.75
 30
0.0
 11
-76.0
 21
46.74999999999999
 31
0.0
  0
LINE
  5
645
330
613
100
AcDbEntity
  8
0
100
AcDbLine
 10
-76.0
 20
40.75
 30
0.0
 11
-84.0
 21
41.74999999999999
 31
0.0
  0
LINE
  5
646
330
613
100
AcDbEntity
  8
7A
100
AcDbLine
 10
-89.0
 20
43.75
 30
0.0
 11
-89.0
 21
47.32478664473148
 31
0.0
1001
GENIUS_GENOREF_13
1005
656
  0
CIRCLE
  5
647
330
613
100
AcDbEntity
  8
0
100
AcDbCircle
 10
-89.0
 20
43.75
 30
0.0
 40
2.0
  0
CIRCLE
  5
648
330
613
100
AcDbEntity
  8
0
100
AcDbCircle
 10
-89.0
 20
43.75
 30
0.0
 40
3.0
  0
LINE
  5
649
330
613
100
AcDbEntity
  8
0
100
AcDbLine
 10
-84.0
 20
41.74999999999999
 30
0.0
 11
-84.0
 21
45.75
 31
0.0
  0
MTEXT
  5
64A
330
613
100
AcDbEntity
  8
RAHM2
100
AcDbMText
 10
-92.80025513713145
 20
36.30103540727964
 30
0.0
 40
2.5
 41
60.0
 71
     1
 72
     5
  1
材質
 73
     1
 44
1.0
1001
ACAD
1000
MTEXTBEGIN
1070
    73
1070
     1
1070
    44
1040
1.0
1070
    74
1070
     0
1000
MTEXTEND
  0
LINE
  5
64B
330
613
100
AcDbEntity
  8
7A
100
AcDbLine
 10
-89.0
 20
43.75
 30
0.0
 11
-92.72303737125117
 21
43.75
 31
0.0
1001
GENIUS_GENOREF_13
1005
656
  0
LINE
  5
64C
330
613
100
AcDbEntity
  8
7A
100
AcDbLine
 10
-89.0
 20
43.75
 30
0.0
 11
-89.0
 21
40.03991724228479
 31
0.0
1001
GENIUS_GENOREF_13
1005
656
  0
LINE
  5
64D
330
613
100
AcDbEntity
  8
0
100
AcDbLine
 10
-76.0
 20
46.74999999999999
 30
0.0
 11
-76.0
 21
40.75
 31
0.0
  0
LINE
  5
64E
330
613
100
AcDbEntity
  8
0
100
AcDbLine
 10
-74.0
 20
50.0
 30
0.0
 11
-74.0
 21
37.5
 31
0.0
  0
MTEXT
  5
64F
330
613
100
AcDbEntity
  8
RAHM2
100
AcDbMText
 10
-72.80025513713145
 20
48.80103540727964
 30
0.0
 40
2.5
 41
20.0
 71
     1
 72
     5
  1
尺度
 73
     1
 44
1.0
1001
ACAD
1000
MTEXTBEGIN
1070
    73
1070
     1
1070
    44
1040
1.0
1070
    74
1070
     0
1000
MTEXTEND
  0
ATTDEF
  5
650
330
613
100
AcDbEntity
  8
0
100
AcDbText
 10
-37.76317379391503
 20
39.25500556178349
 30
0.0
 40
3.0
  1

 72
     2
 11
-37.76317379391503
 21
39.25500556178349
 31
0.0
100
AcDbAttributeDefinition
  3
数量
  2
GEN-TITLE-QTY
 70
     0
  0
LINE
  5
651
330
613
100
AcDbEntity
  8
0
100
AcDbLine
 10
-34.0
 20
25.0
 30
0.0
 11
0.0
 21
25.0
 31
0.0
  0
LINE
  5
652
330
613
100
AcDbEntity
  8
0
100
AcDbLine
 10
-54.0
 20
50.0
 30
0.0
 11
-54.0
 21
37.5
 31
0.0
  0
MTEXT
  5
653
330
613
100
AcDbEntity
  8
RAHM2
100
AcDbMText
 10
-52.80025513713145
 20
48.80103540727964
 30
0.0
 40
2.5
 41
20.0
 71
     1
 72
     5
  1
数量
 73
     1
 44
1.0
1001
ACAD
1000
MTEXTBEGIN
1070
    73
1070
     1
1070
    44
1040
1.0
1070
    74
1070
     0
1000
MTEXTEND
  0
MTEXT
  5
654
330
613
100
AcDbEntity
  8
RAHM2
100
AcDbMText
 10
-25.5
 20
23.80103540727964
 30
0.0
 40
2.5
 41
17.0
 71
     2
 72
     5
  1
承認
 73
     1
 44
1.0
1001
ACAD
1000
MTEXTBEGIN
1070
    73
1070
     1
1070
    44
1040
1.0
1070
    74
1070
     0
1000
MTEXTEND
  0
MTEXT
  5
655
330
613
100
AcDbEntity
  8
RAHM2
100
AcDbMText
 10
-25.5
 20
48.80103540727964
 30
0.0
 40
2.5
 41
17.0
 71
     2
 72
     5
  1
承認
 73
     1
 44
1.0
1001
ACAD
1000
MTEXTBEGIN
1070
    73
1070
     1
1070
    44
1040
1.0
1070
    74
1070
     0
1000
MTEXTEND
  0
POINT
  5
656
330
613
100
AcDbEntity
  8
0
 60
     1
100
AcDbPoint
 10
-320.5355579819676
 20
-138.1104841268254
 30
0.0
1001
GENIUS_GENODEF_13
1002
{
1000
HIER
1070
    10
1002
}
1002
{
1000
MANEDIT
1070
     0
1002
}
1002
{
1000
NOSEL
1070
     0
1002
}
1002
{
1000
BEHIND
1070
     0
1002
}
1002
{
1000
REACTOR
1002
}
1001
GENIUS_GENOBJ-N-CRS_13
1002
{
1000
OWNER
1000
GEN
1002
}
1001
GENIUS_GENOENT_13
1002
{
1000
MYREF
1005
656
1002
}
1002
{
1000
GRP
1005
0
1002
}
1001
GENIUS_GENOLIS_13
1002
{
1000
ENT
1005
64C
1005
64B
1005
646
1005
643
1002
}
  0
LINE
  5
657
330
613
100
AcDbEntity
  8
RAHM2
100
AcDbLine
 10
-190.0
 20
29.60000000000002
 30
0.0
 11
-192.4248711305964
 21
25.40000000000004
 31
0.0
  0
LINE
  5
658
330
613
100
AcDbEntity
  8
RAHM2
100
AcDbLine
 10
-187.5751288694036
 20
25.40000000000004
 30
0.0
 11
-190.0
 21
29.60000000000002
 31
0.0
  0
LINE
  5
659
330
613
100
AcDbEntity
  8
RAHM2
100
AcDbLine
 10
-192.4248711305964
 20
25.40000000000004
 30
0.0
 11
-187.5751288694036
 21
25.40000000000004
 31
0.0
  0
LINE
  5
65A
330
613
100
AcDbEntity
  8
RAHM2
100
AcDbLine
 10
-195.0
 20
25.00000000000003
 30
0.0
 11
-94.0
 21
25.00000000000003
 31
0.0
  0
MTEXT
  5
65B
330
613
100
AcDbEntity
  8
RAHM2
100
AcDbMText
 10
-119.4582894723942
 20
27.50000000000003
 30
0.0
 40
2.5
 41
20.0
 71
     5
 72
     5
  1
・  ・   
 73
     1
 44
1.0
1001
ACAD
1000
MTEXTBEGIN
1070
    73
1070
     1
1070
    44
1040
1.0
1070
    74
1070
     0
1000
MTEXTEND
  0
TEXT
  5
65C
330
613
100
AcDbEntity
  8
RAHM2
100
AcDbText
 10
-190.8155863565801
 20
25.98333333333337
 30
0.0
 40
2.5
  1
1
 72
     1
 11
-190.1905863565802
 21
25.65000000000003
 31
0.0
100
AcDbText
 73
     1
  0
TEXT
  5
65D
330
613
100
AcDbEntity
  8
RAHM2
100
AcDbText
 10
-190.9183316929134
 20
30.98333333333337
 30
0.0
 40
2.5
  1
2
 72
     1
 11
-190.0
 21
30.65000000000003
 31
0.0
100
AcDbText
 73
     1
  0
TEXT
  5
65E
330
613
100
AcDbEntity
  8
RAHM2
100
AcDbText
 10
-190.9267766952966
 20
35.98333333333334
 30
0.0
 40
2.5
  1
3
 72
     1
 11
-190.0
 21
35.65000000000001
 31
0.0
100
AcDbText
 73
     1
  0
TEXT
  5
65F
330
613
100
AcDbEntity
  8
RAHM2
100
AcDbText
 10
-191.0
 20
40.98333333333337
 30
0.0
 40
2.5
  1
4
 72
     1
 11
-190.0
 21
40.65000000000003
 31
0.0
100
AcDbText
 73
     1
  0
TEXT
  5
660
330
613
100
AcDbEntity
  8
RAHM2
100
AcDbText
 10
-190.9267766952966
 20
45.98333333333337
 30
0.0
 40
2.5
  1
5
 72
     1
 11
-190.0
 21
45.65000000000003
 31
0.0
100
AcDbText
 73
     1
  0
LINE
  5
661
330
613
100
AcDbEntity
  8
0
100
AcDbLine
 10
-17.0
 20
50.0
 30
0.0
 11
-17.0
 21
0.0
 31
0.0
  0
LINE
  5
662
330
613
100
AcDbEntity
  8
0
100
AcDbLine
 10
-195.0
 20
0.0
 30
0.0
 11
0.0
 21
0.0
 31
0.0
1001
GENIUS_GENREC_14
1002
{
1000
PYDIR
1011
-184.0
1021
50.0
1031
0.0
1002
}
1002
{
1000
PXDIR
1011
0.0
1021
0.0
1031
0.0
1002
}
1002
{
1000
PORI
1011
-184.0
1021
0.0
1031
0.0
1002
}
1002
{
1000
PINS
1011
-100.5
1021
25.0
1031
0.0
1002
}
1002
{
1000
HVAL
1000
50
1002
}
1002
{
1000
H
1070
     2
1002
}
1002
{
1000
WVAL
1000
167
1002
}
1002
{
1000
W
1070
     2
1002
}
1002
{
1000
C
1070
     4
1002
}
1001
GENIUS_GENODEF_13
1002
{
1000
HIER
1070
     0
1002
}
1002
{
1000
MANEDIT
1070
     0
1002
}
1002
{
1000
NOSEL
1070
     0
1002
}
1002
{
1000
BEHIND
1070
     0
1002
}
1002
{
1000
REACTOR
1002
}
1001
GENIUS_GENOBJ-N-REC_13
1002
{
1000
OWNER
1000
GEN
1002
}
  0
LINE
  5
663
330
613
100
AcDbEntity
  8
0
100
AcDbLine
 10
0.0
 20
0.0
 30
0.0
 11
0.0
 21
50.0
 31
0.0
1001
GENIUS_GENREC_14
1002
{
1000
PYDIR
1011
-184.0
1021
50.0
1031
0.0
1002
}
1002
{
1000
PXDIR
1011
0.0
1021
0.0
1031
0.0
1002
}
1002
{
1000
PORI
1011
-184.0
1021
0.0
1031
0.0
1002
}
1002
{
1000
PINS
1011
-100.5
1021
25.0
1031
0.0
1002
}
1002
{
1000
HVAL
1000
50
1002
}
1002
{
1000
H
1070
     2
1002
}
1002
{
1000
WVAL
1000
167
1002
}
1002
{
1000
W
1070
     2
1002
}
1002
{
1000
C
1070
     4
1002
}
1001
GENIUS_GENODEF_13
1002
{
1000
HIER
1070
     0
1002
}
1002
{
1000
MANEDIT
1070
     0
1002
}
1002
{
1000
NOSEL
1070
     0
1002
}
1002
{
1000
BEHIND
1070
     0
1002
}
1002
{
1000
REACTOR
1002
}
1001
GENIUS_GENOBJ-N-REC_13
1002
{
1000
OWNER
1000
GEN
1002
}
  0
LINE
  5
664
330
613
100
AcDbEntity
  8
0
100
AcDbLine
 10
0.0
 20
50.0
 30
0.0
 11
-195.0
 21
50.00000000000003
 31
0.0
1001
GENIUS_GENREC_14
1002
{
1000
PYDIR
1011
-184.0
1021
50.0
1031
0.0
1002
}
1002
{
1000
PXDIR
1011
0.0
1021
0.0
1031
0.0
1002
}
1002
{
1000
PORI
1011
-184.0
1021
0.0
1031
0.0
1002
}
1002
{
1000
PINS
1011
-100.5
1021
25.0
1031
0.0
1002
}
1002
{
1000
HVAL
1000
50
1002
}
1002
{
1000
H
1070
     2
1002
}
1002
{
1000
WVAL
1000
167
1002
}
1002
{
1000
W
1070
     2
1002
}
1002
{
1000
C
1070
     4
1002
}
1001
GENIUS_GENODEF_13
1002
{
1000
HIER
1070
     0
1002
}
1002
{
1000
MANEDIT
1070
     0
1002
}
1002
{
1000
NOSEL
1070
     0
1002
}
1002
{
1000
BEHIND
1070
     0
1002
}
1002
{
1000
REACTOR
1002
}
1001
GENIUS_GENOBJ-N-REC_13
1002
{
1000
OWNER
1000
GEN
1002
}
  0
LINE
  5
665
330
613
100
AcDbEntity
  8
0
100
AcDbLine
 10
-195.0
 20
50.00000000000003
 30
0.0
 11
-195.0
 21
0.0
 31
0.0
1001
GENIUS_GENREC_14
1002
{
1000
PYDIR
1011
-195.0
1021
50.0
1031
0.0
1002
}
1002
{
1000
PXDIR
1011
-11.0
1021
0.0
1031
0.0
1002
}
1002
{
1000
PORI
1011
-195.0
1021
0.0
1031
0.0
1002
}
1002
{
1000
PINS
1011
-111.5
1021
25.0
1031
0.0
1002
}
1002
{
1000
HVAL
1000
50
1002
}
1002
{
1000
H
1070
     2
1002
}
1002
{
1000
WVAL
1000
167
1002
}
1002
{
1000
W
1070
     2
1002
}
1002
{
1000
C
1070
     4
1002
}
1001
GENIUS_GENODEF_13
1002
{
1000
HIER
1070
     0
1002
}
1002
{
1000
MANEDIT
1070
     0
1002
}
1002
{
1000
NOSEL
1070
     0
1002
}
1002
{
1000
BEHIND
1070
     0
1002
}
1002
{
1000
REACTOR
1002
}
1001
GENIUS_GENOBJ-N-REC_13
1002
{
1000
OWNER
1000
GEN
1002
}
  0
MTEXT
  5
666
330
613
100
AcDbEntity
  8
RAHM2
100
AcDbMText
 10
-8.5
 20
48.80103540727964
 30
0.0
 40
2.5
 41
17.0
 71
     2
 72
     5
  1
検図
 73
     1
 44
1.0
1001
ACAD
1000
MTEXTBEGIN
1070
    73
1070
     1
1070
    44
1040
1.0
1070
    74
1070
     0
1000
MTEXTEND
  0
MTEXT
  5
667
330
613
100
AcDbEntity
  8
RAHM2
100
AcDbMText
 10
-8.5
 20
23.80103540727964
 30
0.0
 40
2.5
 41
17.0
 71
     2
 72
     5
  1
製図
 73
     1
 44
1.0
1001
ACAD
1000
MTEXTBEGIN
1070
    73
1070
     1
1070
    44
1040
1.0
1070
    74
1070
     0
1000
MTEXTEND
  0
ENDBLK
  5
66A
330
613
100
AcDbEntity
  8
0
100
AcDbBlockEnd
  0
BLOCK
  5
BFC
330
BF3
100
AcDbEntity
  8
0
100
AcDbBlockBegin
  2
TK-A3
 70
     0
 10
0.0
 20
0.0
 30
0.0
  3
TK-A3
  1

  0
LWPOLYLINE
  5
BF4
330
BF3
100
AcDbEntity
  8
0
100
AcDbPolyline
 90
        4
 70
     1
 43
0.0
 10
0.0
 20
0.0
 10
403.0
 20
0.0
 10
403.0
 20
280.0
 10
0.0
 20
280.0000000000001
1001
GENIUS_GENREC_14
1002
{
1000
PYDIR
1011
0.0000000000000178
1021
280.0
1031
0.0
1002
}
1002
{
1000
PXDIR
1011
403.0
1021
0.0
1031
0.0
1002
}
1002
{
1000
PORI
1011
0.0
1021
0.0
1031
0.0
1002
}
1002
{
1000
PINS
1011
0.0
1021
0.0
1031
0.0
1002
}
1002
{
1000
PINS2
1011
403.0
1021
280.0
1031
0.0
1002
}
1002
{
1000
C
1070
     1
1002
}
1001
GENIUS_GENODEF_13
1002
{
1000
HIER
1070
     0
1002
}
1002
{
1000
MANEDIT
1070
     0
1002
}
1002
{
1000
NOSEL
1070
     0
1002
}
1002
{
1000
BEHIND
1070
     0
1002
}
1002
{
1000
OTHER
1070
     0
1002
}
1002
{
1000
REACTOR
1002
}
1001
GENIUS_GENOBJ-N-REC_13
1002
{
1000
OWNER
1000
GEN
1002
}
  0
TEXT
  5
BF5
330
BF3
100
AcDbEntity
  8
0
 60
     1
100
AcDbText
 10
403.0
 20
280.0
 30
0.0
 40
2.5
  1
!GENTITLE-MAX
100
AcDbText
  0
TEXT
  5
BF6
330
BF3
100
AcDbEntity
  8
0
 60
     1
100
AcDbText
 10
0.0
 20
0.0
 30
0.0
 40
2.5
  1
!GENTITLE-LL
100
AcDbText
  0
TEXT
  5
BF7
330
BF3
100
AcDbEntity
  8
0
 60
     1
100
AcDbText
 10
403.0
 20
0.0
 30
0.0
 40
2.5
  1
!GENTITLE-INSERT
100
AcDbText
  0
LINE
  5
BF8
330
BF3
100
AcDbEntity
  8
0
100
AcDbLine
 10
359.0
 20
275.0
 30
0.0
 11
403.0
 21
275.0
 31
0.0
  0
MTEXT
  5
BF9
330
BF3
100
AcDbEntity
  8
0
100
AcDbMText
 10
402.3592953827349
 20
276.108542987227
 30
0.0
 40
2.5
 41
43.07840397728298
 71
     9
 72
     5
  1
(文書番号：TY-34)2008.02.08
 73
     1
 44
1.0
1001
ACAD
1000
MTEXTBEGIN
1070
    73
1070
     1
1070
    44
1040
1.0
1070
    74
1070
     0
1000
MTEXTEND
  0
LINE
  5
BFA
330
BF3
100
AcDbEntity
  8
0
100
AcDbLine
 10
359.0
 20
280.0
 30
0.0
 11
359.0
 21
275.0
 31
0.0
  0
ENDBLK
  5
BFD
330
BF3
100
AcDbEntity
  8
0
100
AcDbBlockEnd
  0
BLOCK
  5
C62
330
C08
100
AcDbEntity
  8
0
100
AcDbBlockBegin
  2
TK-TITLE
 70
     2
 10
0.0
 20
0.0
 30
0.0
  3
TK-TITLE
  1

  0
ATTDEF
  5
C09
330
C08
100
AcDbEntity
  8
0
100
AcDbText
 10
-8.002309189545826
 20
1.705189434395036
 30
0.0
 40
2.5
  1

100
AcDbAttributeDefinition
  3
Rev.
  2
GEN-TITLE-NR2
 70
     0
  0
ATTDEF
  5
C0A
330
C08
100
AcDbEntity
  8
0
100
AcDbText
 10
-84.14251901585329
 20
12.82790432564377
 30
0.0
 40
3.5
  1

100
AcDbAttributeDefinition
  3
品名
  2
GEN-TITLE-DES1
 70
     0
  0
LINE
  5
C0B
330
C08
100
AcDbEntity
  8
0
100
AcDbLine
 10
0.0
 20
0.0
 30
0.0
 11
0.0
 21
50.0
 31
0.0
1001
GENIUS_GENREC_14
1002
{
1000
PYDIR
1011
-414.0
1021
291.0
1031
0.0
1002
}
1002
{
1000
PXDIR
1011
6.0
1021
-6.0
1031
0.0
1002
}
1002
{
1000
PORI
1011
-414.0
1021
-6.0
1031
0.0
1002
}
1002
{
1000
PINS
1011
-414.0
1021
-6.0
1031
0.0
1002
}
1002
{
1000
HVAL
1000
297
1002
}
1002
{
1000
H
1070
     2
1002
}
1002
{
1000
WVAL
1000
420
1002
}
1002
{
1000
W
1070
     2
1002
}
1002
{
1000
C
1070
     1
1002
}
1001
GENIUS_GENODEF_13
1002
{
1000
HIER
1070
     0
1002
}
1002
{
1000
MANEDIT
1070
     0
1002
}
1002
{
1000
NOSEL
1070
     0
1002
}
1002
{
1000
BEHIND
1070
     0
1002
}
1002
{
1000
OTHER
1070
     0
1002
}
1002
{
1000
REACTOR
1002
}
1001
GENIUS_GENOBJ-N-REC_13
1002
{
1000
OWNER
1000
GEN
1002
}
  0
ATTDEF
  5
C0C
330
C08
100
AcDbEntity
  8
0
100
AcDbText
 10
-84.0
 20
9.149999999999948
 30
0.0
 40
2.5
  1

100
AcDbAttributeDefinition
  3
サブタイトル
  2
GEN-TITLE-DES2
 70
     0
  0
ATTDEF
  5
C0D
330
C08
100
AcDbEntity
  8
0
100
AcDbText
 10
-84.0
 20
1.999999999999957
 30
0.0
 40
3.0
  1

100
AcDbAttributeDefinition
  3
図番
  2
GEN-TITLE-NR1
 70
     0
  0
LINE
  5
C0E
330
C08
100
AcDbEntity
  8
0
100
AcDbLine
 10
-96.0
 20
50.00000000000001
 30
0.0
 11
-96.0
 21
-0.0000000000000142
 31
0.0
1001
GENIUS_GENREC_14
1002
{
1000
PYDIR
1011
-96.0
1021
49.99999999999999
1031
0.0
1002
}
1002
{
1000
PXDIR
1011
88.0
1021
-0.0000000000000142
1031
0.0
1002
}
1002
{
1000
PORI
1011
-96.0
1021
-0.0000000000000142
1031
0.0
1002
}
1002
{
1000
PINS
1011
-12.5
1021
24.99999999999999
1031
0.0
1002
}
1002
{
1000
HVAL
1000
50
1002
}
1002
{
1000
H
1070
     2
1002
}
1002
{
1000
WVAL
1000
167
1002
}
1002
{
1000
W
1070
     2
1002
}
1002
{
1000
C
1070
     4
1002
}
1001
GENIUS_GENODEF_13
1002
{
1000
HIER
1070
     0
1002
}
1002
{
1000
MANEDIT
1070
     0
1002
}
1002
{
1000
NOSEL
1070
     0
1002
}
1002
{
1000
BEHIND
1070
     0
1002
}
1002
{
1000
REACTOR
1002
}
1001
GENIUS_GENOBJ-N-REC_13
1002
{
1000
OWNER
1000
GEN
1002
}
  0
LINE
  5
C0F
330
C08
100
AcDbEntity
  8
0
100
AcDbLine
 10
0.0
 20
50.0
 30
0.0
 11
-193.0000000000001
 21
50.00000000000002
 31
0.0
1001
GENIUS_GENREC_14
1002
{
1000
PYDIR
1011
-184.0
1021
50.0
1031
0.0
1002
}
1002
{
1000
PXDIR
1011
0.0
1021
0.0
1031
0.0
1002
}
1002
{
1000
PORI
1011
-184.0
1021
0.0
1031
0.0
1002
}
1002
{
1000
PINS
1011
-100.5
1021
25.0
1031
0.0
1002
}
1002
{
1000
HVAL
1000
50
1002
}
1002
{
1000
H
1070
     2
1002
}
1002
{
1000
WVAL
1000
167
1002
}
1002
{
1000
W
1070
     2
1002
}
1002
{
1000
C
1070
     4
1002
}
1001
GENIUS_GENODEF_13
1002
{
1000
HIER
1070
     0
1002
}
1002
{
1000
MANEDIT
1070
     0
1002
}
1002
{
1000
NOSEL
1070
     0
1002
}
1002
{
1000
BEHIND
1070
     0
1002
}
1002
{
1000
REACTOR
1002
}
1001
GENIUS_GENOBJ-N-REC_13
1002
{
1000
OWNER
1000
GEN
1002
}
  0
LINE
  5
C10
330
C08
100
AcDbEntity
  8
0
100
AcDbLine
 10
-193.0000000000001
 20
0.0
 30
0.0
 11
0.0
 21
0.0
 31
0.0
1001
GENIUS_GENREC_14
1002
{
1000
PYDIR
1011
-184.0
1021
50.0
1031
0.0
1002
}
1002
{
1000
PXDIR
1011
0.0
1021
0.0
1031
0.0
1002
}
1002
{
1000
PORI
1011
-184.0
1021
0.0
1031
0.0
1002
}
1002
{
1000
PINS
1011
-100.5
1021
25.0
1031
0.0
1002
}
1002
{
1000
HVAL
1000
50
1002
}
1002
{
1000
H
1070
     2
1002
}
1002
{
1000
WVAL
1000
167
1002
}
1002
{
1000
W
1070
     2
1002
}
1002
{
1000
C
1070
     4
1002
}
1001
GENIUS_GENODEF_13
1002
{
1000
HIER
1070
     0
1002
}
1002
{
1000
MANEDIT
1070
     0
1002
}
1002
{
1000
NOSEL
1070
     0
1002
}
1002
{
1000
BEHIND
1070
     0
1002
}
1002
{
1000
REACTOR
1002
}
1001
GENIUS_GENOBJ-N-REC_13
1002
{
1000
OWNER
1000
GEN
1002
}
  0
TEXT
  5
C11
330
C08
100
AcDbEntity
  8
RAHM2
100
AcDbText
 10
-91.92677669529663
 20
45.98333333333335
 30
0.0
 40
2.5
  1
5
 72
     1
 11
-91.0
 21
45.65000000000002
 31
0.0
100
AcDbText
 73
     1
  0
TEXT
  5
C12
330
C08
100
AcDbEntity
  8
RAHM2
100
AcDbText
 10
-92.0
 20
40.98333333333335
 30
0.0
 40
2.5
  1
4
 72
     1
 11
-91.0
 21
40.65000000000002
 31
0.0
100
AcDbText
 73
     1
  0
TEXT
  5
C13
330
C08
100
AcDbEntity
  8
RAHM2
100
AcDbText
 10
-91.92677669529663
 20
35.98333333333333
 30
0.0
 40
2.5
  1
3
 72
     1
 11
-91.0
 21
35.64999999999999
 31
0.0
100
AcDbText
 73
     1
  0
TEXT
  5
C14
330
C08
100
AcDbEntity
  8
RAHM2
100
AcDbText
 10
-91.91833169291339
 20
30.98333333333335
 30
0.0
 40
2.5
  1
2
 72
     1
 11
-91.0
 21
30.65000000000002
 31
0.0
100
AcDbText
 73
     1
  0
TEXT
  5
C15
330
C08
100
AcDbEntity
  8
RAHM2
100
AcDbText
 10
-91.81558635658019
 20
25.98333333333335
 30
0.0
 40
2.5
  1
1
 72
     1
 11
-91.19058635658019
 21
25.65000000000002
 31
0.0
100
AcDbText
 73
     1
  0
MTEXT
  5
C16
330
C08
100
AcDbEntity
  8
RAHM2
100
AcDbMText
 10
-22.27910888308327
 20
27.50000000000003
 30
0.0
 40
2.5
 41
20.0
 71
     5
 72
     5
  1
・  ・   
 73
     1
 44
1.0
1001
ACAD
1000
MTEXTBEGIN
1070
    73
1070
     1
1070
    44
1040
1.0
1070
    74
1070
     0
1000
MTEXTEND
  0
LINE
  5
C17
330
C08
100
AcDbEntity
  8
RAHM2
100
AcDbLine
 10
-96.0
 20
25.0
 30
0.0
 11
0.0000000000001137
 21
25.00000000000003
 31
0.0
  0
LINE
  5
C18
330
C08
100
AcDbEntity
  8
RAHM2
100
AcDbLine
 10
-93.42487113059645
 20
25.40000000000002
 30
0.0
 11
-88.57512886940355
 21
25.40000000000002
 31
0.0
  0
LINE
  5
C19
330
C08
100
AcDbEntity
  8
RAHM2
100
AcDbLine
 10
-88.57512886940355
 20
25.40000000000002
 30
0.0
 11
-91.0
 21
29.60000000000001
 31
0.0
  0
LINE
  5
C1A
330
C08
100
AcDbEntity
  8
RAHM2
100
AcDbLine
 10
-91.0
 20
29.60000000000001
 30
0.0
 11
-93.42487113059645
 21
25.40000000000002
 31
0.0
  0
MTEXT
  5
C1B
330
C08
100
AcDbEntity
  8
RAHM2
100
AcDbMText
 10
-22.27910888308327
 20
47.50000000000002
 30
0.0
 40
2.5
 41
20.0
 71
     5
 72
     5
  1
・  ・   
 73
     1
 44
1.0
1001
ACAD
1000
MTEXTBEGIN
1070
    73
1070
     1
1070
    44
1040
1.0
1070
    74
1070
     0
1000
MTEXTEND
  0
MTEXT
  5
C1C
330
C08
100
AcDbEntity
  8
RAHM2
100
AcDbMText
 10
-22.27910888308327
 20
37.50000000000003
 30
0.0
 40
2.5
 41
20.0
 71
     5
 72
     5
  1
・  ・   
 73
     1
 44
1.0
1001
ACAD
1000
MTEXTBEGIN
1070
    73
1070
     1
1070
    44
1040
1.0
1070
    74
1070
     0
1000
MTEXTEND
  0
MTEXT
  5
C1D
330
C08
100
AcDbEntity
  8
RAHM2
100
AcDbMText
 10
-22.27910888308327
 20
42.50000000000002
 30
0.0
 40
2.5
 41
20.0
 71
     5
 72
     5
  1
・  ・   
 73
     1
 44
1.0
1001
ACAD
1000
MTEXTBEGIN
1070
    73
1070
     1
1070
    44
1040
1.0
1070
    74
1070
     0
1000
MTEXTEND
  0
MTEXT
  5
C1E
330
C08
100
AcDbEntity
  8
RAHM2
100
AcDbMText
 10
-5.910409705344477
 20
22.49999999999997
 30
0.0
 40
2.5
 41
15.0
 71
     5
 72
     5
  1
担当
 73
     1
 44
1.0
1001
ACAD
1000
MTEXTBEGIN
1070
    73
1070
     1
1070
    44
1040
1.0
1070
    74
1070
     0
1000
MTEXTEND
  0
MTEXT
  5
C1F
330
C08
100
AcDbEntity
  8
RAHM2
100
AcDbMText
 10
-21.55893921569111
 20
22.49999999999997
 30
0.0
 40
2.5
 41
20.0
 71
     5
 72
     5
  1
年・月・日
 73
     1
 44
1.0
1001
ACAD
1000
MTEXTBEGIN
1070
    73
1070
     1
1070
    44
1040
1.0
1070
    74
1070
     0
1000
MTEXTEND
  0
MTEXT
  5
C20
330
C08
100
AcDbEntity
  8
RAHM2
100
AcDbMText
 10
-22.27910888308327
 20
32.50000000000003
 30
0.0
 40
2.5
 41
20.0
 71
     5
 72
     5
  1
・  ・   
 73
     1
 44
1.0
1001
ACAD
1000
MTEXTBEGIN
1070
    73
1070
     1
1070
    44
1040
1.0
1070
    74
1070
     0
1000
MTEXTEND
  0
LINE
  5
C21
330
C08
100
AcDbEntity
  8
RAHM2
100
AcDbLine
 10
-11.82081941068907
 20
50.00000000000003
 30
0.0
 11
-11.82081941068907
 21
19.99999999999994
 31
0.0
  0
MTEXT
  5
C22
330
C08
100
AcDbEntity
  8
RAHM2
100
AcDbMText
 10
-59.0
 20
22.49999999999996
 30
0.0
 40
2.5
 41
45.0
 71
     5
 72
     5
  1
変更記事
 73
     1
 44
1.0
1001
ACAD
1000
MTEXTBEGIN
1070
    73
1070
     1
1070
    44
1040
1.0
1070
    74
1070
     0
1000
MTEXTEND
  0
LINE
  5
C23
330
C08
100
AcDbEntity
  8
RAHM2
100
AcDbLine
 10
-31.82081941068907
 20
50.00000000000003
 30
0.0
 11
-31.82081941068918
 21
19.99999999999994
 31
0.0
  0
LINE
  5
C24
330
C08
100
AcDbEntity
  8
RAHM2
100
AcDbLine
 10
-91.0
 20
49.6
 30
0.0
 11
-93.42487113059645
 21
45.40000000000001
 31
0.0
  0
LINE
  5
C25
330
C08
100
AcDbEntity
  8
RAHM2
100
AcDbLine
 10
-91.0
 20
44.6
 30
0.0
 11
-93.42487113059645
 21
40.40000000000001
 31
0.0
  0
LINE
  5
C26
330
C08
100
AcDbEntity
  8
RAHM2
100
AcDbLine
 10
-91.0
 20
39.60000000000001
 30
0.0
 11
-93.42487113059645
 21
35.40000000000002
 31
0.0
  0
LINE
  5
C27
330
C08
100
AcDbEntity
  8
RAHM2
100
AcDbLine
 10
-88.57512886940355
 20
35.40000000000002
 30
0.0
 11
-91.0
 21
39.60000000000001
 31
0.0
  0
LINE
  5
C28
330
C08
100
AcDbEntity
  8
RAHM2
100
AcDbLine
 10
-93.42487113059645
 20
35.40000000000002
 30
0.0
 11
-88.57512886940355
 21
35.40000000000002
 31
0.0
  0
LINE
  5
C29
330
C08
100
AcDbEntity
  8
RAHM2
100
AcDbLine
 10
-88.57512886940355
 20
40.40000000000001
 30
0.0
 11
-91.0
 21
44.6
 31
0.0
  0
LINE
  5
C2A
330
C08
100
AcDbEntity
  8
RAHM2
100
AcDbLine
 10
-93.42487113059645
 20
40.40000000000001
 30
0.0
 11
-88.57512886940355
 21
40.40000000000001
 31
0.0
  0
LINE
  5
C2B
330
C08
100
AcDbEntity
  8
RAHM2
100
AcDbLine
 10
-88.57512886940355
 20
45.40000000000001
 30
0.0
 11
-91.0
 21
49.6
 31
0.0
  0
LINE
  5
C2C
330
C08
100
AcDbEntity
  8
RAHM2
100
AcDbLine
 10
-93.42487113059645
 20
45.40000000000001
 30
0.0
 11
-88.57512886940355
 21
45.40000000000001
 31
0.0
  0
MTEXT
  5
C2D
330
C08
100
AcDbEntity
  8
RAHM2
100
AcDbMText
 10
-94.80025513713144
 20
18.8010354072796
 30
0.0
 40
2.5
 41
90.0
 71
     1
 72
     5
  1
品名
 73
     1
 44
1.0
1001
ACAD
1000
MTEXTBEGIN
1070
    73
1070
     1
1070
    44
1040
1.0
1070
    74
1070
     0
1000
MTEXTEND
  0
MTEXT
  5
C2E
330
C08
100
AcDbEntity
  8
RAHM2
100
AcDbMText
 10
-91.0
 20
22.49999999999996
 30
0.0
 40
2.5
 41
10.0
 71
     5
 72
     5
  1
符号
 73
     1
 44
1.0
1001
ACAD
1000
MTEXTBEGIN
1070
    73
1070
     1
1070
    44
1040
1.0
1070
    74
1070
     0
1000
MTEXTEND
  0
LINE
  5
C2F
330
C08
100
AcDbEntity
  8
RAHM2
100
AcDbLine
 10
-93.42487113059645
 20
30.40000000000002
 30
0.0
 11
-88.57512886940355
 21
30.40000000000002
 31
0.0
  0
LINE
  5
C30
330
C08
100
AcDbEntity
  8
RAHM2
100
AcDbLine
 10
-86.0
 20
50.00000000000001
 30
0.0
 11
-86.0
 21
19.99999999999993
 31
0.0
  0
LINE
  5
C31
330
C08
100
AcDbEntity
  8
RAHM2
100
AcDbLine
 10
-91.0
 20
34.60000000000001
 30
0.0
 11
-93.42487113059645
 21
30.40000000000002
 31
0.0
  0
LINE
  5
C32
330
C08
100
AcDbEntity
  8
RAHM2
100
AcDbLine
 10
-88.57512886940355
 20
30.40000000000002
 30
0.0
 11
-91.0
 21
34.60000000000001
 31
0.0
  0
MTEXT
  5
C33
330
C08
100
AcDbEntity
  8
RAHM2
100
AcDbMText
 10
-94.80025513713144
 20
5.801035407279627
 30
0.0
 40
2.5
 41
90.0
 71
     1
 72
     5
  1
図番
 73
     1
 44
1.0
1001
ACAD
1000
MTEXTBEGIN
1070
    73
1070
     1
1070
    44
1040
1.0
1070
    74
1070
     0
1000
MTEXTEND
  0
LINE
  5
C34
330
C08
100
AcDbEntity
  8
0
100
AcDbLine
 10
-96.0
 20
19.99999999999997
 30
0.0
 11
0.0000000000001137
 21
19.99999999999997
 31
0.0
  0
LINE
  5
C35
330
C08
100
AcDbEntity
  8
0
100
AcDbLine
 10
-96.0
 20
7.0
 30
0.0
 11
0.0000000000001137
 21
7.0
 31
0.0
  0
LINE
  5
C36
330
C08
100
AcDbEntity
  8
RAHM2
100
AcDbLine
 10
-96.0
 20
45.00000000000002
 30
0.0
 11
0.0000000000001137
 21
45.00000000000002
 31
0.0
  0
LINE
  5
C37
330
C08
100
AcDbEntity
  8
RAHM2
100
AcDbLine
 10
-96.0
 20
39.99999999999993
 30
0.0
 11
0.0000000000001137
 21
40.00000000000002
 31
0.0
  0
LINE
  5
C38
330
C08
100
AcDbEntity
  8
RAHM2
100
AcDbLine
 10
-96.0
 20
35.00000000000003
 30
0.0
 11
0.0000000000001137
 21
35.00000000000003
 31
0.0
  0
LINE
  5
C39
330
C08
100
AcDbEntity
  8
RAHM2
100
AcDbLine
 10
-96.0
 20
29.99999999999992
 30
0.0
 11
0.0000000000001137
 21
30.00000000000003
 31
0.0
  0
LINE
  5
C3A
330
C08
100
AcDbEntity
  8
0
100
AcDbLine
 10
-21.17541926625711
 20
0.0
 30
0.0
 11
-21.17541926625734
 21
7.0
 31
0.0
  0
MTEXT
  5
C3B
330
C08
100
AcDbEntity
  8
RAHM2
100
AcDbMText
 10
-16.85742592933491
 20
3.434762466565985
 30
0.0
 40
2.5
 41
7.936478436748416
 71
     5
 72
     5
  1
Rev.
 73
     1
 44
1.0
1001
ACAD
1000
MTEXTBEGIN
1070
    73
1070
     1
1070
    44
1040
1.0
1070
    74
1070
     0
1000
MTEXTEND
  0
MTEXT
  5
C3C
330
C08
100
AcDbEntity
  8
RAHM2
100
AcDbMText
 10
-104.875
 20
18.80103540727957
 30
0.0
 40
2.5
 41
17.0
 71
     2
 72
     5
  1
製図
 73
     1
 44
1.0
1001
ACAD
1000
MTEXTBEGIN
1070
    73
1070
     1
1070
    44
1040
1.0
1070
    74
1070
     0
1000
MTEXTEND
  0
LINE
  5
C3D
330
C08
100
AcDbEntity
  8
0
100
AcDbLine
 10
-167.0
 20
19.99999999999993
 30
0.0
 11
-96.0
 21
19.99999999999993
 31
0.0
  0
LINE
  5
C3E
330
C08
100
AcDbEntity
  8
0
100
AcDbLine
 10
-113.75
 20
19.99999999999993
 30
0.0
 11
-113.75
 21
-0.0000000000000533
 31
0.0
  0
LINE
  5
C3F
330
C08
100
AcDbEntity
  8
0
100
AcDbLine
 10
-131.5000000000001
 20
19.99999999999993
 30
0.0
 11
-131.5000000000001
 21
-0.0000000000000533
 31
0.0
  0
MTEXT
  5
C40
330
C08
100
AcDbEntity
  8
RAHM2
100
AcDbMText
 10
-122.6250000000001
 20
18.80103540727958
 30
0.0
 40
2.5
 41
17.0
 71
     2
 72
     5
  1
検図
 73
     1
 44
1.0
1001
ACAD
1000
MTEXTBEGIN
1070
    73
1070
     1
1070
    44
1040
1.0
1070
    74
1070
     0
1000
MTEXTEND
  0
LINE
  5
C41
330
C08
100
AcDbEntity
  8
0
100
AcDbLine
 10
-167.0
 20
49.99999999999995
 30
0.0
 11
-167.0
 21
-0.0000000000000497
 31
0.0
  0
LINE
  5
C42
330
C08
100
AcDbEntity
  8
0
100
AcDbLine
 10
-149.2500000000001
 20
19.99999999999993
 30
0.0
 11
-149.2500000000001
 21
-0.0000000000000462
 31
0.0
  0
MTEXT
  5
C43
330
C08
100
AcDbEntity
  8
RAHM2
100
AcDbMText
 10
-140.3750000000001
 20
18.80103540727958
 30
0.0
 40
2.5
 41
17.0
 71
     2
 72
     5
  1
承認
 73
     1
 44
1.0
1001
ACAD
1000
MTEXTBEGIN
1070
    73
1070
     1
1070
    44
1040
1.0
1070
    74
1070
     0
1000
MTEXTEND
  0
MTEXT
  5
C44
330
C08
100
AcDbEntity
  8
RAHM2
100
AcDbMText
 10
-158.1250000000001
 20
18.80103540727956
 30
0.0
 40
2.5
 41
17.0
 71
     2
 72
     5
  1
承認
 73
     1
 44
1.0
1001
ACAD
1000
MTEXTBEGIN
1070
    73
1070
     1
1070
    44
1040
1.0
1070
    74
1070
     0
1000
MTEXTEND
  0
LINE
  5
C45
330
C08
100
AcDbEntity
  8
0
100
AcDbLine
 10
-167.0
 20
29.99999999999992
 30
0.0
 11
-96.0
 21
29.99999999999992
 31
0.0
  0
MTEXT
  5
C46
330
C08
100
AcDbEntity
  8
0
100
AcDbMText
 10
-131.5000000000001
 20
24.99999999999992
 30
0.0
 40
3.5
 41
60.0
 71
     5
 72
     5
  1
\fＭＳ ゴシック|b0|i0|c128|p49;株式会社タカチ電機工業
 73
     1
 44
1.0
1001
ACAD
1000
MTEXTBEGIN
1070
    73
1070
     1
1070
    44
1040
1.0
1070
    74
1070
     0
1000
MTEXTEND
  0
ATTDEF
  5
C47
330
C08
100
AcDbEntity
  8
0
100
AcDbText
 10
-148.9618675835291
 20
43.29999999999991
 30
0.0
 40
3.0
  1

100
AcDbAttributeDefinition
  3
材質
  2
GEN-TITLE-MAT1
 70
     0
  0
ATTDEF
  5
C48
330
C08
100
AcDbEntity
  8
0
100
AcDbText
 10
-148.9618675835291
 20
33.29999999999991
 30
0.0
 40
3.0
  1

100
AcDbAttributeDefinition
  3
表面処理
  2
GEN-TITLE-MAT2
 70
     0
  0
MTEXT
  5
C49
330
C08
100
AcDbEntity
  8
RAHM2
100
AcDbMText
 10
-165.8002551371314
 20
48.80103540727955
 30
0.0
 40
2.5
 41
60.0
 71
     1
 72
     5
  1
材質
 73
     1
 44
1.0
1001
ACAD
1000
MTEXTBEGIN
1070
    73
1070
     1
1070
    44
1040
1.0
1070
    74
1070
     0
1000
MTEXTEND
  0
MTEXT
  5
C4A
330
C08
100
AcDbEntity
  8
RAHM2
100
AcDbMText
 10
-165.8002551371314
 20
38.80103540727956
 30
0.0
 40
2.5
 41
60.0
 71
     1
 72
     5
  1
表面処理
 73
     1
 44
1.0
1001
ACAD
1000
MTEXTBEGIN
1070
    73
1070
     1
1070
    44
1040
1.0
1070
    74
1070
     0
1000
MTEXTEND
  0
LINE
  5
C4B
330
C08
100
AcDbEntity
  8
0
100
AcDbLine
 10
-167.0
 20
39.99999999999991
 30
0.0
 11
-96.0
 21
39.99999999999992
 31
0.0
  0
LINE
  5
C4C
330
C08
100
AcDbEntity
  8
0
100
AcDbLine
 10
-167.0
 20
24.99999999999997
 30
0.0
 11
-193.0000000000001
 21
24.99999999999997
 31
0.0
  0
LINE
  5
C4D
330
C08
100
AcDbEntity
  8
0
100
AcDbLine
 10
-171.7167418745796
 20
46.74999999999995
 30
0.0
 11
-171.7167418745796
 21
40.74999999999994
 31
0.0
  0
LINE
  5
C4E
330
C08
100
AcDbEntity
  8
7A
100
AcDbLine
 10
-184.7167418745796
 20
43.74999999999995
 30
0.0
 11
-184.7167418745796
 21
40.03991724228473
 31
0.0
1001
GENIUS_GENOREF_13
1005
C60
  0
LINE
  5
C4F
330
C08
100
AcDbEntity
  8
7A
100
AcDbLine
 10
-184.7167418745796
 20
43.74999999999995
 30
0.0
 11
-188.4397792458307
 21
43.74999999999995
 31
0.0
1001
GENIUS_GENOREF_13
1005
C60
  0
LINE
  5
C50
330
C08
100
AcDbEntity
  8
0
100
AcDbLine
 10
-179.7167418745796
 20
41.74999999999995
 30
0.0
 11
-179.7167418745796
 21
45.74999999999994
 31
0.0
  0
CIRCLE
  5
C51
330
C08
100
AcDbEntity
  8
0
100
AcDbCircle
 10
-184.7167418745796
 20
43.74999999999995
 30
0.0
 40
3.0
  0
CIRCLE
  5
C52
330
C08
100
AcDbEntity
  8
0
100
AcDbCircle
 10
-184.7167418745796
 20
43.74999999999995
 30
0.0
 40
2.0
  0
LINE
  5
C53
330
C08
100
AcDbEntity
  8
7A
100
AcDbLine
 10
-184.7167418745796
 20
43.74999999999995
 30
0.0
 11
-184.7167418745796
 21
47.32478664473144
 31
0.0
1001
GENIUS_GENOREF_13
1005
C60
  0
LINE
  5
C54
330
C08
100
AcDbEntity
  8
0
100
AcDbLine
 10
-171.7167418745796
 20
40.74999999999994
 30
0.0
 11
-179.7167418745796
 21
41.74999999999995
 31
0.0
  0
LINE
  5
C55
330
C08
100
AcDbEntity
  8
0
100
AcDbLine
 10
-179.7167418745796
 20
45.74999999999994
 30
0.0
 11
-171.7167418745796
 21
46.74999999999995
 31
0.0
  0
LINE
  5
C56
330
C08
100
AcDbEntity
  8
7A
100
AcDbLine
 10
-184.7167418745796
 20
43.74999999999995
 30
0.0
 11
-170.9354334742943
 21
43.74999999999995
 31
0.0
1001
GENIUS_GENOREF_13
1005
C60
  0
LINE
  5
C57
330
C08
100
AcDbEntity
  8
0
100
AcDbLine
 10
-193.0000000000001
 20
49.99999999999999
 30
0.0
 11
-193.0000000000001
 21
-0.0000000000000142
 31
0.0
  0
ATTDEF
  5
C58
330
C08
100
AcDbEntity
  8
0
100
AcDbText
 10
-175.6127409126095
 20
16.19999999999994
 30
0.0
 40
3.0
  1

 72
     2
 11
-175.6127409126095
 21
15.79999999999994
 31
0.0
100
AcDbAttributeDefinition
  3
数量
  2
GEN-TITLE-QTY
 70
     0
 74
     1
  0
MTEXT
  5
C59
330
C08
100
AcDbEntity
  8
RAHM2
100
AcDbMText
 10
-191.8002551371315
 20
23.80103540727963
 30
0.0
 40
2.5
 41
20.0
 71
     1
 72
     5
  1
数量
 73
     1
 44
1.0
1001
ACAD
1000
MTEXTBEGIN
1070
    73
1070
     1
1070
    44
1040
1.0
1070
    74
1070
     0
1000
MTEXTEND
  0
MTEXT
  5
C5A
330
C08
100
AcDbEntity
  8
RAHM2
100
AcDbMText
 10
-191.8002551371315
 20
36.30103540727966
 30
0.0
 40
2.5
 41
20.0
 71
     1
 72
     5
  1
尺度
 73
     1
 44
1.0
1001
ACAD
1000
MTEXTBEGIN
1070
    73
1070
     1
1070
    44
1040
1.0
1070
    74
1070
     0
1000
MTEXTEND
  0
ATTDEF
  5
C5B
330
C08
100
AcDbEntity
  8
0
100
AcDbText
 10
-177.824739614424
 20
28.69999999999997
 30
0.0
 40
3.0
  1

 72
     2
 11
-177.824739614424
 21
28.29999999999998
 31
0.0
100
AcDbAttributeDefinition
  3
尺度
  2
GEN-TITLE-SCA
 70
     0
 74
     1
  0
MTEXT
  5
C5C
330
C08
100
AcDbEntity
  8
RAHM2
100
AcDbMText
 10
-191.8002551371315
 20
11.3010354072796
 30
0.0
 40
2.5
 41
60.0
 71
     1
 72
     5
  1
日付
 73
     1
 44
1.0
1001
ACAD
1000
MTEXTBEGIN
1070
    73
1070
     1
1070
    44
1040
1.0
1070
    74
1070
     0
1000
MTEXTEND
  0
ATTDEF
  5
C5D
330
C08
100
AcDbEntity
  8
0
100
AcDbText
 10
-180.2171951662138
 20
3.988342537610664
 30
0.0
 40
3.0
  1

 72
     1
 11
-180.2171951662138
 21
3.588342537610664
 31
0.0
100
AcDbAttributeDefinition
  3
日付
  2
GEN-TITLE-DAT
 70
     0
 74
     1
  0
LINE
  5
C5E
330
C08
100
AcDbEntity
  8
0
100
AcDbLine
 10
-167.0
 20
37.49999999999998
 30
0.0
 11
-193.0000000000001
 21
37.49999999999998
 31
0.0
  0
LINE
  5
C5F
330
C08
100
AcDbEntity
  8
0
100
AcDbLine
 10
-167.0
 20
12.49999999999996
 30
0.0
 11
-193.0000000000001
 21
12.49999999999996
 31
0.0
  0
POINT
  5
C60
330
C08
100
AcDbEntity
  8
0
 60
     1
100
AcDbPoint
 10
-418.5355579819675
 20
-138.1104841268254
 30
0.0
1001
GENIUS_GENODEF_13
1002
{
1000
HIER
1070
    10
1002
}
1002
{
1000
MANEDIT
1070
     0
1002
}
1002
{
1000
NOSEL
1070
     0
1002
}
1002
{
1000
BEHIND
1070
     0
1002
}
1002
{
1000
REACTOR
1002
}
1001
GENIUS_GENOBJ-N-CRS_13
1002
{
1000
OWNER
1000
GEN
1002
}
1001
GENIUS_GENOENT_13
1002
{
1000
MYREF
1005
C60
1002
}
1002
{
1000
GRP
1005
0
1002
}
1001
GENIUS_GENOLIS_13
1002
{
1000
ENT
1005
C4E
1005
C4F
1005
C53
1005
C56
1002
}
  0
ENDBLK
  5
C63
330
C08
100
AcDbEntity
  8
0
100
AcDbBlockEnd
  0
BLOCK
  5
2DAD
330
2D95
100
AcDbEntity
  8
0
100
AcDbBlockBegin
  2
*D8
 70
     1
 10
0.0
 20
0.0
 30
0.0
  3
*D8
  1

  0
LINE
  5
30EF
330
2D95
100
AcDbEntity
  8
AM_5
100
AcDbLine
 10
27.94656568460477
 20
251.7152042489336
 30
0.0
 11
27.94656568460477
 21
268.4480562986684
 31
0.0
  0
LINE
  5
30F0
330
2D95
100
AcDbEntity
  8
AM_5
100
AcDbLine
 10
190.9465656846048
 20
251.7152042489333
 30
0.0
 11
190.9465656846048
 21
268.4480562986684
 31
0.0
  0
LINE
  5
30F1
330
2D95
100
AcDbEntity
  8
AM_5
100
AcDbLine
 10
30.44656568460477
 20
267.4480562986683
 30
0.0
 11
188.4465656846048
 21
267.4480562986683
 31
0.0
  0
INSERT
  5
30F2
330
2D95
100
AcDbEntity
  8
AM_5
100
AcDbBlockReference
  2
_Open30
 10
27.94656568460477
 20
267.4480562986683
 30
0.0
 41
2.5
 42
2.5
 43
2.5
 50
180.0
  0
INSERT
  5
30F3
330
2D95
100
AcDbEntity
  8
AM_5
100
AcDbBlockReference
  2
_Open30
 10
190.9465656846048
 20
267.4480562986683
 30
0.0
 41
2.5
 42
2.5
 43
2.5
  0
MTEXT
  5
30F4
330
2D95
100
AcDbEntity
  8
AM_5
 62
     2
100
AcDbMText
 10
109.4465656846048
 20
270.6980562986684
 30
0.0
 40
3.5
 41
0.0
 71
     5
 72
     1
  1
163
 73
     1
 44
1.0
1001
ACAD
1000
MTEXTBEGIN
1070
    73
1070
     1
1070
    44
1040
1.0
1070
    74
1070
     0
1000
MTEXTEND
  0
POINT
  5
30F5
330
2D95
100
AcDbEntity
  8
Defpoints
 62
     0
100
AcDbPoint
 10
27.94656568460477
 20
250.7152042489336
 30
0.0
  0
POINT
  5
30F6
330
2D95
100
AcDbEntity
  8
Defpoints
 62
     0
100
AcDbPoint
 10
190.9465656846048
 20
250.7152042489333
 30
0.0
  0
POINT
  5
30F7
330
2D95
100
AcDbEntity
  8
Defpoints
 62
     0
100
AcDbPoint
 10
190.9465656846048
 20
267.4480562986683
 30
0.0
  0
ENDBLK
  5
2DAE
330
2D95
100
AcDbEntity
  8
0
100
AcDbBlockEnd
  0
BLOCK
  5
2E0F
330
2DF5
100
AcDbEntity
  8
0
100
AcDbBlockBegin
  2
*D9
 70
     1
 10
0.0
 20
0.0
 30
0.0
  3
*D9
  1

  0
LINE
  5
30F8
330
2DF5
100
AcDbEntity
  8
AM_5
100
AcDbLine
 10
36.94656568460465
 20
175.7152042489334
 30
0.0
 11
11.8330563199622
 21
175.7152042489334
 31
0.0
  0
LINE
  5
30F9
330
2DF5
100
AcDbEntity
  8
AM_5
100
AcDbLine
 10
27.94656568460478
 20
251.7152042489336
 30
0.0
 11
11.83305631996222
 21
251.7152042489336
 31
0.0
  0
LINE
  5
30FA
330
2DF5
100
AcDbEntity
  8
AM_5
100
AcDbLine
 10
12.83305631996221
 20
178.2152042489334
 30
0.0
 11
12.83305631996222
 21
249.2152042489336
 31
0.0
  0
INSERT
  5
30FB
330
2DF5
100
AcDbEntity
  8
AM_5
100
AcDbBlockReference
  2
_Open30
 10
12.83305631996221
 20
175.7152042489334
 30
0.0
 41
2.5
 42
2.5
 43
2.5
 50
270.0
  0
INSERT
  5
30FC
330
2DF5
100
AcDbEntity
  8
AM_5
100
AcDbBlockReference
  2
_Open30
 10
12.83305631996222
 20
251.7152042489336
 30
0.0
 41
2.5
 42
2.5
 43
2.5
 50
90.0
  0
MTEXT
  5
30FD
330
2DF5
100
AcDbEntity
  8
AM_5
 62
     2
100
AcDbMText
 10
9.583056319962182
 20
213.7152042489335
 30
0.0
 40
3.5
 41
0.0
 71
     5
 72
     1
  1
76
 11
0.0000000000000001
 21
1.0
 31
0.0
 73
     1
 44
1.0
1001
ACAD
1000
MTEXTBEGIN
1070
    73
1070
     1
1070
    44
1040
1.0
1070
    74
1070
     0
1000
MTEXTEND
  0
POINT
  5
30FE
330
2DF5
100
AcDbEntity
  8
Defpoints
 62
     0
100
AcDbPoint
 10
37.94656568460465
 20
175.7152042489334
 30
0.0
  0
POINT
  5
30FF
330
2DF5
100
AcDbEntity
  8
Defpoints
 62
     0
100
AcDbPoint
 10
28.94656568460478
 20
251.7152042489336
 30
0.0
  0
POINT
  5
3100
330
2DF5
100
AcDbEntity
  8
Defpoints
 62
     0
100
AcDbPoint
 10
12.83305631996222
 20
251.7152042489336
 30
0.0
  0
ENDBLK
  5
2E10
330
2DF5
100
AcDbEntity
  8
0
100
AcDbBlockEnd
  0
BLOCK
  5
2FA9
330
2F25
100
AcDbEntity
  8
0
100
AcDbBlockBegin
  2
*D10
 70
     1
 10
0.0
 20
0.0
 30
0.0
  3
*D10
  1

  0
LINE
  5
2F31
330
2F25
100
AcDbEntity
  8
AM_5
100
AcDbLine
 10
243.7767073951365
 20
128.1431495980564
 30
0.0
 11
243.7767073951365
 21
132.5584021338741
 31
0.0
  0
LINE
  5
2F32
330
2F25
100
AcDbEntity
  8
AM_5
100
AcDbLine
 10
383.7767073951365
 20
128.1431495980564
 30
0.0
 11
383.7767073951365
 21
132.5584021338741
 31
0.0
  0
LINE
  5
2F33
330
2F25
100
AcDbEntity
  8
AM_5
100
AcDbLine
 10
246.2767073951365
 20
131.5584021338741
 30
0.0
 11
381.2767073951365
 21
131.5584021338741
 31
0.0
  0
INSERT
  5
2F34
330
2F25
100
AcDbEntity
  8
AM_5
100
AcDbBlockReference
  2
_Open30
 10
243.7767073951365
 20
131.5584021338741
 30
0.0
 41
2.5
 42
2.5
 43
2.5
 50
180.0
  0
INSERT
  5
2F35
330
2F25
100
AcDbEntity
  8
AM_5
100
AcDbBlockReference
  2
_Open30
 10
383.7767073951365
 20
131.5584021338741
 30
0.0
 41
2.5
 42
2.5
 43
2.5
  0
MTEXT
  5
2F36
330
2F25
100
AcDbEntity
  8
AM_5
 62
     2
100
AcDbMText
 10
313.7767073951366
 20
134.8084021338741
 30
0.0
 40
3.5
 41
0.0
 71
     5
 72
     1
  1
140
 73
     1
 44
1.0
1001
ACAD
1000
MTEXTBEGIN
1070
    73
1070
     1
1070
    44
1040
1.0
1070
    74
1070
     0
1000
MTEXTEND
  0
POINT
  5
2F37
330
2F25
100
AcDbEntity
  8
Defpoints
 62
     0
100
AcDbPoint
 10
243.7767073951365
 20
127.1431495980564
 30
0.0
  0
POINT
  5
2F38
330
2F25
100
AcDbEntity
  8
Defpoints
 62
     0
100
AcDbPoint
 10
383.7767073951365
 20
127.1431495980564
 30
0.0
  0
POINT
  5
2F39
330
2F25
100
AcDbEntity
  8
Defpoints
 62
     0
100
AcDbPoint
 10
383.7767073951365
 20
131.5584021338741
 30
0.0
  0
ENDBLK
  5
2FAA
330
2F25
100
AcDbEntity
  8
0
100
AcDbBlockEnd
  0
BLOCK
  5
2FAB
330
2F49
100
AcDbEntity
  8
0
100
AcDbBlockBegin
  2
*D11
 70
     1
 10
0.0
 20
0.0
 30
0.0
  3
*D11
  1

  0
LINE
  5
2F55
330
2F49
100
AcDbEntity
  8
AM_5
100
AcDbLine
 10
238.2767073951365
 20
115.6431495980564
 30
0.0
 11
238.2767073951365
 21
142.5584021338739
 31
0.0
  0
LINE
  5
2F56
330
2F49
100
AcDbEntity
  8
AM_5
100
AcDbLine
 10
389.2767073951366
 20
115.6431495980564
 30
0.0
 11
389.2767073951366
 21
142.5584021338739
 31
0.0
  0
LINE
  5
2F57
330
2F49
100
AcDbEntity
  8
AM_5
100
AcDbLine
 10
240.7767073951365
 20
141.5584021338739
 30
0.0
 11
386.7767073951366
 21
141.5584021338739
 31
0.0
  0
INSERT
  5
2F58
330
2F49
100
AcDbEntity
  8
AM_5
100
AcDbBlockReference
  2
_Open30
 10
238.2767073951365
 20
141.5584021338739
 30
0.0
 41
2.5
 42
2.5
 43
2.5
 50
180.0
  0
INSERT
  5
2F59
330
2F49
100
AcDbEntity
  8
AM_5
100
AcDbBlockReference
  2
_Open30
 10
389.2767073951366
 20
141.5584021338739
 30
0.0
 41
2.5
 42
2.5
 43
2.5
  0
MTEXT
  5
2F5A
330
2F49
100
AcDbEntity
  8
AM_5
 62
     2
100
AcDbMText
 10
313.7767073951366
 20
144.8084021338739
 30
0.0
 40
3.5
 41
0.0
 71
     5
 72
     1
  1
151
 73
     1
 44
1.0
1001
ACAD
1000
MTEXTBEGIN
1070
    73
1070
     1
1070
    44
1040
1.0
1070
    74
1070
     0
1000
MTEXTEND
  0
POINT
  5
2F5B
330
2F49
100
AcDbEntity
  8
Defpoints
 62
     0
100
AcDbPoint
 10
238.2767073951365
 20
114.6431495980564
 30
0.0
  0
POINT
  5
2F5C
330
2F49
100
AcDbEntity
  8
Defpoints
 62
     0
100
AcDbPoint
 10
389.2767073951366
 20
114.6431495980564
 30
0.0
  0
POINT
  5
2F5D
330
2F49
100
AcDbEntity
  8
Defpoints
 62
     0
100
AcDbPoint
 10
389.2767073951366
 20
141.5584021338739
 30
0.0
  0
ENDBLK
  5
2FAC
330
2F49
100
AcDbEntity
  8
0
100
AcDbBlockEnd
  0
BLOCK
  5
2FAD
330
2F6D
100
AcDbEntity
  8
0
100
AcDbBlockBegin
  2
*D12
 70
     1
 10
0.0
 20
0.0
 30
0.0
  3
*D12
  1

  0
LINE
  5
2F79
330
2F6D
100
AcDbEntity
  8
AM_5
100
AcDbLine
 10
240.2767073951366
 20
117.6431495980564
 30
0.0
 11
231.0698238330276
 21
117.6431495980564
 31
0.0
  0
LINE
  5
2F7A
330
2F6D
100
AcDbEntity
  8
AM_5
100
AcDbLine
 10
240.2767073951366
 20
63.64314959805644
 30
0.0
 11
231.0698238330276
 21
63.64314959805644
 31
0.0
  0
LINE
  5
2F7B
330
2F6D
100
AcDbEntity
  8
AM_5
100
AcDbLine
 10
232.0698238330276
 20
115.1431495980564
 30
0.0
 11
232.0698238330276
 21
66.14314959805644
 31
0.0
  0
INSERT
  5
2F7C
330
2F6D
100
AcDbEntity
  8
AM_5
100
AcDbBlockReference
  2
_Open30
 10
232.0698238330276
 20
117.6431495980564
 30
0.0
 41
2.5
 42
2.5
 43
2.5
 50
90.0
  0
INSERT
  5
2F7D
330
2F6D
100
AcDbEntity
  8
AM_5
100
AcDbBlockReference
  2
_Open30
 10
232.0698238330276
 20
63.64314959805644
 30
0.0
 41
2.5
 42
2.5
 43
2.5
 50
270.0
  0
MTEXT
  5
2F7E
330
2F6D
100
AcDbEntity
  8
AM_5
 62
     2
100
AcDbMText
 10
228.8198238330276
 20
90.64314959805647
 30
0.0
 40
3.5
 41
0.0
 71
     5
 72
     1
  1
54
 11
0.0000000000000001
 21
1.0
 31
0.0
 73
     1
 44
1.0
1001
ACAD
1000
MTEXTBEGIN
1070
    73
1070
     1
1070
    44
1040
1.0
1070
    74
1070
     0
1000
MTEXTEND
  0
POINT
  5
2F7F
330
2F6D
100
AcDbEntity
  8
Defpoints
 62
     0
100
AcDbPoint
 10
241.2767073951366
 20
117.6431495980564
 30
0.0
  0
POINT
  5
2F80
330
2F6D
100
AcDbEntity
  8
Defpoints
 62
     0
100
AcDbPoint
 10
241.2767073951366
 20
63.64314959805644
 30
0.0
  0
POINT
  5
2F81
330
2F6D
100
AcDbEntity
  8
Defpoints
 62
     0
100
AcDbPoint
 10
232.0698238330276
 20
63.64314959805644
 30
0.0
  0
ENDBLK
  5
2FAE
330
2F6D
100
AcDbEntity
  8
0
100
AcDbBlockEnd
  0
BLOCK
  5
2FAF
330
2F91
100
AcDbEntity
  8
0
100
AcDbBlockBegin
  2
*D13
 70
     1
 10
0.0
 20
0.0
 30
0.0
  3
*D13
  1

  0
LINE
  5
2F9D
330
2F91
100
AcDbEntity
  8
AM_5
100
AcDbLine
 10
239.7767073951365
 20
124.1431495980564
 30
0.0
 11
221.0698238330276
 21
124.1431495980564
 31
0.0
  0
LINE
  5
2F9E
330
2F91
100
AcDbEntity
  8
AM_5
100
AcDbLine
 10
239.7767073951365
 20
57.14314959805645
 30
0.0
 11
221.0698238330276
 21
57.14314959805645
 31
0.0
  0
LINE
  5
2F9F
330
2F91
100
AcDbEntity
  8
AM_5
100
AcDbLine
 10
222.0698238330276
 20
121.6431495980564
 30
0.0
 11
222.0698238330276
 21
59.64314959805645
 31
0.0
  0
INSERT
  5
2FA0
330
2F91
100
AcDbEntity
  8
AM_5
100
AcDbBlockReference
  2
_Open30
 10
222.0698238330276
 20
124.1431495980564
 30
0.0
 41
2.5
 42
2.5
 43
2.5
 50
90.0
  0
INSERT
  5
2FA1
330
2F91
100
AcDbEntity
  8
AM_5
100
AcDbBlockReference
  2
_Open30
 10
222.0698238330276
 20
57.14314959805645
 30
0.0
 41
2.5
 42
2.5
 43
2.5
 50
270.0
  0
MTEXT
  5
2FA2
330
2F91
100
AcDbEntity
  8
AM_5
 62
     2
100
AcDbMText
 10
218.8198238330276
 20
90.64314959805647
 30
0.0
 40
3.5
 41
0.0
 71
     5
 72
     1
  1
67
 11
0.0000000000000001
 21
1.0
 31
0.0
 73
     1
 44
1.0
1001
ACAD
1000
MTEXTBEGIN
1070
    73
1070
     1
1070
    44
1040
1.0
1070
    74
1070
     0
1000
MTEXTEND
  0
POINT
  5
2FA3
330
2F91
100
AcDbEntity
  8
Defpoints
 62
     0
100
AcDbPoint
 10
240.7767073951366
 20
124.1431495980564
 30
0.0
  0
POINT
  5
2FA4
330
2F91
100
AcDbEntity
  8
Defpoints
 62
     0
100
AcDbPoint
 10
240.7767073951365
 20
57.14314959805644
 30
0.0
  0
POINT
  5
2FA5
330
2F91
100
AcDbEntity
  8
Defpoints
 62
     0
100
AcDbPoint
 10
222.0698238330276
 20
57.14314959805645
 30
0.0
  0
ENDBLK
  5
2FB0
330
2F91
100
AcDbEntity
  8
0
100
AcDbBlockEnd
  0
BLOCK
  5
300E
330
2FEB
100
AcDbEntity
  8
0
100
AcDbBlockBegin
  2
*D14
 70
     1
 10
0.0
 20
0.0
 30
0.0
  3
*D14
  1

  0
LINE
  5
3005
330
2FEB
100
AcDbEntity
  8
AM_5
100
AcDbLine
 10
379.9643358346638
 20
55.26476649418817
 30
0.0
 11
373.3234166098627
 21
51.99273745185795
 31
0.0
  0
LINE
  5
3006
330
2FEB
100
AcDbEntity
  8
AM_5
100
AcDbLine
 10
373.3234166098627
 20
51.99273745185795
 30
0.0
 11
358.3784418630321
 21
51.99273745185798
 31
0.0
  0
INSERT
  5
3007
330
2FEB
100
AcDbEntity
  8
AM_5
100
AcDbBlockReference
  2
_Open30
 10
382.2069073408243
 20
56.36969773175777
 30
0.0
 41
2.5
 42
2.5
 43
2.5
 50
26.2298019552987
  0
MTEXT
  5
3008
330
2FEB
100
AcDbEntity
  8
AM_5
 62
     2
100
AcDbMText
 10
365.1009292364474
 20
55.24273745185785
 30
0.0
 40
3.5
 41
0.0
 71
     5
 72
     1
  1
4-\U+22053.5
 73
     1
 44
1.0
1001
ACAD
1000
MTEXTBEGIN
1070
    73
1070
     1
1070
    44
1040
1.0
1070
    74
1070
     0
1000
MTEXTEND
  0
POINT
  5
3009
330
2FEB
100
AcDbEntity
  8
Defpoints
 62
     0
100
AcDbPoint
 10
382.2069073408243
 20
56.36969773175777
 30
0.0
  0
POINT
  5
300A
330
2FEB
100
AcDbEntity
  8
Defpoints
 62
     0
100
AcDbPoint
 10
385.3465074494487
 20
57.91660146435515
 30
0.0
  0
ENDBLK
  5
300F
330
2FEB
100
AcDbEntity
  8
0
100
AcDbBlockEnd
  0
BLOCK
  5
3150
330
3138
100
AcDbEntity
  8
0
100
AcDbBlockBegin
  2
*D15
 70
     1
 10
0.0
 20
0.0
 30
0.0
  3
*D15
  1

  0
LINE
  5
315D
330
3138
100
AcDbEntity
  8
AM_5
100
AcDbLine
 10
37.24656568460478
 20
239.3152042489334
 30
0.0
 11
21.16093524238445
 21
239.3152042489334
 31
0.0
  0
LINE
  5
315E
330
3138
100
AcDbEntity
  8
AM_5
100
AcDbLine
 10
37.24656568460479
 20
189.5152042489333
 30
0.0
 11
21.16093524238444
 21
189.5152042489333
 31
0.0
  0
LINE
  5
315F
330
3138
100
AcDbEntity
  8
AM_5
100
AcDbLine
 10
22.16093524238445
 20
236.8152042489334
 30
0.0
 11
22.16093524238444
 21
192.0152042489333
 31
0.0
  0
INSERT
  5
3160
330
3138
100
AcDbEntity
  8
AM_5
100
AcDbBlockReference
  2
_Open30
 10
22.16093524238445
 20
239.3152042489334
 30
0.0
 41
2.5
 42
2.5
 43
2.5
 50
90.0
  0
INSERT
  5
3161
330
3138
100
AcDbEntity
  8
AM_5
100
AcDbBlockReference
  2
_Open30
 10
22.16093524238444
 20
189.5152042489333
 30
0.0
 41
2.5
 42
2.5
 43
2.5
 50
270.0
  0
MTEXT
  5
3162
330
3138
100
AcDbEntity
  8
AM_5
 62
     2
100
AcDbMText
 10
18.91093524238441
 20
214.4152042489334
 30
0.0
 40
3.5
 41
0.0
 71
     5
 72
     1
  1
50
 11
0.0000000000000001
 21
1.0
 31
0.0
 73
     1
 44
1.0
1001
ACAD
1000
MTEXTBEGIN
1070
    73
1070
     1
1070
    44
1040
1.0
1070
    74
1070
     0
1000
MTEXTEND
  0
POINT
  5
3163
330
3138
100
AcDbEntity
  8
Defpoints
 62
     0
100
AcDbPoint
 10
38.24656568460478
 20
239.3152042489334
 30
0.0
  0
POINT
  5
3164
330
3138
100
AcDbEntity
  8
Defpoints
 62
     0
100
AcDbPoint
 10
38.24656568460479
 20
189.5152042489333
 30
0.0
  0
POINT
  5
3165
330
3138
100
AcDbEntity
  8
Defpoints
 62
     0
100
AcDbPoint
 10
22.16093524238444
 20
189.5152042489333
 30
0.0
  0
ENDBLK
  5
3151
330
3138
100
AcDbEntity
  8
0
100
AcDbBlockEnd
  0
BLOCK
  5
31D7
330
31BF
100
AcDbEntity
  8
0
100
AcDbBlockBegin
  2
*D16
 70
     1
 10
0.0
 20
0.0
 30
0.0
  3
*D16
  1

  0
LINE
  5
31CB
330
31BF
100
AcDbEntity
  8
AM_5
100
AcDbLine
 10
251.4829493599525
 20
236.4675105379931
 30
0.0
 11
251.4829493599525
 21
264.7152042489334
 31
0.0
  0
LINE
  5
31CC
330
31BF
100
AcDbEntity
  8
AM_5
100
AcDbLine
 10
276.4829493599525
 20
252.7152042489333
 30
0.0
 11
276.4829493599525
 21
264.7152042489334
 31
0.0
  0
LINE
  5
31CD
330
31BF
100
AcDbEntity
  8
AM_5
100
AcDbLine
 10
253.9829493599524
 20
263.7152042489333
 30
0.0
 11
273.9829493599525
 21
263.7152042489333
 31
0.0
  0
INSERT
  5
31CE
330
31BF
100
AcDbEntity
  8
AM_5
100
AcDbBlockReference
  2
_Open30
 10
251.4829493599525
 20
263.7152042489333
 30
0.0
 41
2.5
 42
2.5
 43
2.5
 50
180.0
  0
INSERT
  5
31CF
330
31BF
100
AcDbEntity
  8
AM_5
100
AcDbBlockReference
  2
_Open30
 10
276.4829493599525
 20
263.7152042489333
 30
0.0
 41
2.5
 42
2.5
 43
2.5
  0
MTEXT
  5
31D0
330
31BF
100
AcDbEntity
  8
AM_5
 62
     2
100
AcDbMText
 10
263.9829493599525
 20
266.9655487371223
 30
0.0
 40
3.5
 41
0.0
 71
     5
 72
     1
  1
25
 73
     1
 44
1.0
1001
ACAD
1000
MTEXTBEGIN
1070
    73
1070
     1
1070
    44
1040
1.0
1070
    74
1070
     0
1000
MTEXTEND
  0
POINT
  5
31D1
330
31BF
100
AcDbEntity
  8
Defpoints
 62
     0
100
AcDbPoint
 10
251.4829493599525
 20
235.4675105379931
 30
0.0
  0
POINT
  5
31D2
330
31BF
100
AcDbEntity
  8
Defpoints
 62
     0
100
AcDbPoint
 10
276.4829493599525
 20
251.7152042489333
 30
0.0
  0
POINT
  5
31D3
330
31BF
100
AcDbEntity
  8
Defpoints
 62
     0
100
AcDbPoint
 10
276.4829493599525
 20
263.7152042489333
 30
0.0
  0
ENDBLK
  5
31D8
330
31BF
100
AcDbEntity
  8
0
100
AcDbBlockEnd
  0
BLOCK
  5
3313
330
32F7
100
AcDbEntity
  8
0
100
AcDbBlockBegin
  2
*D17
 70
     1
 10
0.0
 20
0.0
 30
0.0
  3
*D17
  1

  0
LINE
  5
3320
330
32F7
100
AcDbEntity
  8
AM_5
100
AcDbLine
 10
37.1465656846048
 20
121.0198519748588
 30
0.0
 11
21.16093524238444
 21
121.0198519748588
 31
0.0
  0
LINE
  5
3321
330
32F7
100
AcDbEntity
  8
AM_5
100
AcDbLine
 10
37.14656568460472
 20
124.2198519748588
 30
0.0
 11
21.16093524238444
 21
124.2198519748588
 31
0.0
  0
LINE
  5
3322
330
32F7
100
AcDbEntity
  8
AM_5
100
AcDbLine
 10
22.16093524238444
 20
118.5198519748588
 30
0.0
 11
22.16093524238444
 21
116.0198519748588
 31
0.0
  0
LINE
  5
3323
330
32F7
100
AcDbEntity
  8
AM_5
100
AcDbLine
 10
22.16093524238444
 20
126.7198519748588
 30
0.0
 11
22.16093524238445
 21
137.3300586677722
 31
0.0
  0
LINE
  5
3324
330
32F7
100
AcDbEntity
  8
AM_5
100
AcDbLine
 10
22.16093524238444
 20
121.0198519748588
 30
0.0
 11
22.16093524238444
 21
124.2198519748588
 31
0.0
  0
INSERT
  5
3325
330
32F7
100
AcDbEntity
  8
AM_5
100
AcDbBlockReference
  2
_Open30
 10
22.16093524238444
 20
121.0198519748588
 30
0.0
 41
2.5
 42
2.5
 43
2.5
 50
90.0
  0
INSERT
  5
3326
330
32F7
100
AcDbEntity
  8
AM_5
100
AcDbBlockReference
  2
_Open30
 10
22.16093524238444
 20
124.2198519748588
 30
0.0
 41
2.5
 42
2.5
 43
2.5
 50
270.0
  0
MTEXT
  5
3327
330
32F7
100
AcDbEntity
  8
AM_5
 62
     2
100
AcDbMText
 10
18.91059075419544
 20
133.2749553213155
 30
0.0
 40
3.5
 41
0.0
 71
     5
 72
     1
  1
3.2
 11
0.0000000000000001
 21
1.0
 31
0.0
 73
     1
 44
1.0
1001
ACAD
1000
MTEXTBEGIN
1070
    73
1070
     1
1070
    44
1040
1.0
1070
    74
1070
     0
1000
MTEXTEND
  0
POINT
  5
3328
330
32F7
100
AcDbEntity
  8
Defpoints
 62
     0
100
AcDbPoint
 10
38.1465656846048
 20
121.0198519748588
 30
0.0
  0
POINT
  5
3329
330
32F7
100
AcDbEntity
  8
Defpoints
 62
     0
100
AcDbPoint
 10
38.14656568460472
 20
124.2198519748588
 30
0.0
  0
POINT
  5
332A
330
32F7
100
AcDbEntity
  8
Defpoints
 62
     0
100
AcDbPoint
 10
22.16093524238444
 20
124.2198519748588
 30
0.0
  0
ENDBLK
  5
3314
330
32F7
100
AcDbEntity
  8
0
100
AcDbBlockEnd
  0
BLOCK
  5
3353
330
333B
100
AcDbEntity
  8
0
100
AcDbBlockBegin
  2
*D18
 70
     1
 10
0.0
 20
0.0
 30
0.0
  3
*D18
  1

  0
LINE
  5
3355
330
333B
100
AcDbEntity
  8
AM_5
100
AcDbLine
 10
29.69656568460479
 20
117.1198519748587
 30
0.0
 11
11.83305631996221
 21
117.1198519748587
 31
0.0
  0
LINE
  5
3356
330
333B
100
AcDbEntity
  8
AM_5
100
AcDbLine
 10
29.69656568460468
 20
128.1198519748587
 30
0.0
 11
11.83305631996221
 21
128.1198519748587
 31
0.0
  0
LINE
  5
3357
330
333B
100
AcDbEntity
  8
AM_5
100
AcDbLine
 10
12.83305631996221
 20
119.6198519748586
 30
0.0
 11
12.83305631996221
 21
125.6198519748587
 31
0.0
  0
INSERT
  5
3358
330
333B
100
AcDbEntity
  8
AM_5
100
AcDbBlockReference
  2
_Open30
 10
12.83305631996221
 20
117.1198519748587
 30
0.0
 41
2.5
 42
2.5
 43
2.5
 50
270.0
  0
INSERT
  5
3359
330
333B
100
AcDbEntity
  8
AM_5
100
AcDbBlockReference
  2
_Open30
 10
12.83305631996221
 20
128.1198519748587
 30
0.0
 41
2.5
 42
2.5
 43
2.5
 50
90.0
  0
MTEXT
  5
335A
330
333B
100
AcDbEntity
  8
AM_5
 62
     2
100
AcDbMText
 10
9.583056319962189
 20
122.6198519748587
 30
0.0
 40
3.5
 41
0.0
 71
     5
 72
     1
  1
11
 11
0.0000000000000001
 21
1.0
 31
0.0
 73
     1
 44
1.0
1001
ACAD
1000
MTEXTBEGIN
1070
    73
1070
     1
1070
    44
1040
1.0
1070
    74
1070
     0
1000
MTEXTEND
  0
POINT
  5
335B
330
333B
100
AcDbEntity
  8
Defpoints
 62
     0
100
AcDbPoint
 10
30.69656568460479
 20
117.1198519748587
 30
0.0
  0
POINT
  5
335C
330
333B
100
AcDbEntity
  8
Defpoints
 62
     0
100
AcDbPoint
 10
30.69656568460468
 20
128.1198519748587
 30
0.0
  0
POINT
  5
335D
330
333B
100
AcDbEntity
  8
Defpoints
 62
     0
100
AcDbPoint
 10
12.83305631996221
 20
128.1198519748587
 30
0.0
  0
ENDBLK
  5
3354
330
333B
100
AcDbEntity
  8
0
100
AcDbBlockEnd
  0
BLOCK
  5
338A
330
336E
100
AcDbEntity
  8
0
100
AcDbBlockBegin
  2
*D19
 70
     1
 10
0.0
 20
0.0
 30
0.0
  3
*D19
  1

  0
LINE
  5
3397
330
336E
100
AcDbEntity
  8
AM_5
100
AcDbLine
 10
41.74656568460472
 20
124.2198519748588
 30
0.0
 11
41.74656568460472
 21
144.2571027654979
 31
0.0
  0
LINE
  5
3398
330
336E
100
AcDbEntity
  8
AM_5
100
AcDbLine
 10
37.14656568460475
 20
124.2198519748587
 30
0.0
 11
37.14656568460475
 21
144.2571027654979
 31
0.0
  0
LINE
  5
3399
330
336E
100
AcDbEntity
  8
AM_5
100
AcDbLine
 10
44.24656568460472
 20
143.2571027654979
 30
0.0
 11
46.74656568460472
 21
143.2571027654979
 31
0.0
  0
LINE
  5
339A
330
336E
100
AcDbEntity
  8
AM_5
100
AcDbLine
 10
34.64656568460475
 20
143.2571027654979
 30
0.0
 11
32.14656568460475
 21
143.2571027654979
 31
0.0
  0
LINE
  5
339B
330
336E
100
AcDbEntity
  8
AM_5
100
AcDbLine
 10
41.74656568460472
 20
143.2571027654979
 30
0.0
 11
37.14656568460475
 21
143.2571027654979
 31
0.0
  0
INSERT
  5
339C
330
336E
100
AcDbEntity
  8
AM_5
100
AcDbBlockReference
  2
_Open30
 10
41.74656568460472
 20
143.2571027654979
 30
0.0
 41
2.5
 42
2.5
 43
2.5
 50
180.0
  0
INSERT
  5
339D
330
336E
100
AcDbEntity
  8
AM_5
100
AcDbBlockReference
  2
_Open30
 10
37.14656568460475
 20
143.2571027654979
 30
0.0
 41
2.5
 42
2.5
 43
2.5
  0
MTEXT
  5
339E
330
336E
100
AcDbEntity
  8
AM_5
 62
     2
100
AcDbMText
 10
39.44656568460473
 20
146.5071027654979
 30
0.0
 40
3.5
 41
0.0
 71
     5
 72
     1
  1
4.6
 73
     1
 44
1.0
1001
ACAD
1000
MTEXTBEGIN
1070
    73
1070
     1
1070
    44
1040
1.0
1070
    74
1070
     0
1000
MTEXTEND
  0
POINT
  5
339F
330
336E
100
AcDbEntity
  8
Defpoints
 62
     0
100
AcDbPoint
 10
41.74656568460472
 20
123.2198519748588
 30
0.0
  0
POINT
  5
33A0
330
336E
100
AcDbEntity
  8
Defpoints
 62
     0
100
AcDbPoint
 10
37.14656568460475
 20
123.2198519748587
 30
0.0
  0
POINT
  5
33A1
330
336E
100
AcDbEntity
  8
Defpoints
 62
     0
100
AcDbPoint
 10
37.14656568460475
 20
143.2571027654979
 30
0.0
  0
ENDBLK
  5
338B
330
336E
100
AcDbEntity
  8
0
100
AcDbBlockEnd
  0
BLOCK
  5
33CA
330
33B2
100
AcDbEntity
  8
0
100
AcDbBlockBegin
  2
*D20
 70
     1
 10
0.0
 20
0.0
 30
0.0
  3
*D20
  1

  0
LINE
  5
33BE
330
33B2
100
AcDbEntity
  8
AM_5
100
AcDbLine
 10
27.69656568460468
 20
126.1198519748587
 30
0.0
 11
27.69656568460468
 21
153.4695272346258
 31
0.0
  0
LINE
  5
33BF
330
33B2
100
AcDbEntity
  8
AM_5
100
AcDbLine
 10
191.1965656846046
 20
126.1198519748587
 30
0.0
 11
191.1965656846046
 21
153.4695272346258
 31
0.0
  0
LINE
  5
33C0
330
33B2
100
AcDbEntity
  8
AM_5
100
AcDbLine
 10
30.19656568460468
 20
152.4695272346258
 30
0.0
 11
188.6965656846046
 21
152.4695272346258
 31
0.0
  0
INSERT
  5
33C1
330
33B2
100
AcDbEntity
  8
AM_5
100
AcDbBlockReference
  2
_Open30
 10
27.69656568460468
 20
152.4695272346258
 30
0.0
 41
2.5
 42
2.5
 43
2.5
 50
180.0
  0
INSERT
  5
33C2
330
33B2
100
AcDbEntity
  8
AM_5
100
AcDbBlockReference
  2
_Open30
 10
191.1965656846046
 20
152.4695272346258
 30
0.0
 41
2.5
 42
2.5
 43
2.5
  0
MTEXT
  5
33C3
330
33B2
100
AcDbEntity
  8
AM_5
 62
     2
100
AcDbMText
 10
109.4465656846046
 20
155.7195272346258
 30
0.0
 40
3.5
 41
0.0
 71
     5
 72
     1
  1
163.5
 73
     1
 44
1.0
1001
ACAD
1000
MTEXTBEGIN
1070
    73
1070
     1
1070
    44
1040
1.0
1070
    74
1070
     0
1000
MTEXTEND
  0
POINT
  5
33C4
330
33B2
100
AcDbEntity
  8
Defpoints
 62
     0
100
AcDbPoint
 10
27.69656568460468
 20
125.1198519748587
 30
0.0
  0
POINT
  5
33C5
330
33B2
100
AcDbEntity
  8
Defpoints
 62
     0
100
AcDbPoint
 10
191.1965656846046
 20
125.1198519748587
 30
0.0
  0
POINT
  5
33C6
330
33B2
100
AcDbEntity
  8
Defpoints
 62
     0
100
AcDbPoint
 10
191.1965656846046
 20
152.4695272346258
 30
0.0
  0
ENDBLK
  5
33CB
330
33B2
100
AcDbEntity
  8
0
100
AcDbBlockEnd
  0
BLOCK
  5
3402
330
33E6
100
AcDbEntity
  8
0
100
AcDbBlockBegin
  2
*D21
 70
     1
 10
0.0
 20
0.0
 30
0.0
  3
*D21
  1

  0
LINE
  5
3439
330
33E6
100
AcDbEntity
  8
AM_5
100
AcDbLine
 10
204.6436328089577
 20
128.1198519748599
 30
0.0
 11
204.6436328089577
 21
153.4695272346258
 31
0.0
  0
LINE
  5
343A
330
33E6
100
AcDbEntity
  8
AM_5
100
AcDbLine
 10
208.6436328089577
 20
129.1198519748599
 30
0.0
 11
208.6436328089577
 21
153.4695272346258
 31
0.0
  0
LINE
  5
343B
330
33E6
100
AcDbEntity
  8
AM_5
100
AcDbLine
 10
202.1436328089577
 20
152.4695272346258
 30
0.0
 11
199.6436328089576
 21
152.4695272346258
 31
0.0
  0
LINE
  5
343C
330
33E6
100
AcDbEntity
  8
AM_5
100
AcDbLine
 10
211.1436328089577
 20
152.4695272346258
 30
0.0
 11
213.6436328089577
 21
152.4695272346258
 31
0.0
  0
LINE
  5
343D
330
33E6
100
AcDbEntity
  8
AM_5
100
AcDbLine
 10
204.6436328089577
 20
152.4695272346258
 30
0.0
 11
208.6436328089577
 21
152.4695272346258
 31
0.0
  0
INSERT
  5
343E
330
33E6
100
AcDbEntity
  8
AM_5
100
AcDbBlockReference
  2
_Open30
 10
204.6436328089577
 20
152.4695272346258
 30
0.0
 41
2.5
 42
2.5
 43
2.5
  0
INSERT
  5
343F
330
33E6
100
AcDbEntity
  8
AM_5
100
AcDbBlockReference
  2
_Open30
 10
208.6436328089577
 20
152.4695272346258
 30
0.0
 41
2.5
 42
2.5
 43
2.5
 50
180.0
  0
MTEXT
  5
3440
330
33E6
100
AcDbEntity
  8
AM_5
 62
     2
100
AcDbMText
 10
206.6436328089577
 20
155.7195272346258
 30
0.0
 40
3.5
 41
0.0
 71
     5
 72
     1
  1
4
 73
     1
 44
1.0
1001
ACAD
1000
MTEXTBEGIN
1070
    73
1070
     1
1070
    44
1040
1.0
1070
    74
1070
     0
1000
MTEXTEND
  0
POINT
  5
3441
330
33E6
100
AcDbEntity
  8
Defpoints
 62
     0
100
AcDbPoint
 10
204.6436328089577
 20
127.1198519748599
 30
0.0
  0
POINT
  5
3442
330
33E6
100
AcDbEntity
  8
Defpoints
 62
     0
100
AcDbPoint
 10
208.6436328089577
 20
128.1198519748599
 30
0.0
  0
POINT
  5
3443
330
33E6
100
AcDbEntity
  8
Defpoints
 62
     0
100
AcDbPoint
 10
208.6436328089577
 20
152.4695272346258
 30
0.0
  0
ENDBLK
  5
3403
330
33E6
100
AcDbEntity
  8
0
100
AcDbBlockEnd
  0
BLOCK
  5
3436
330
3420
100
AcDbEntity
  8
0
100
AcDbBlockBegin
  2
*D22
 70
     1
 10
0.0
 20
0.0
 30
0.0
  3
*D22
  1

  0
LINE
  5
342A
330
3420
100
AcDbEntity
  8
AM_5
100
AcDbLine
 10
39.44656568460478
 20
120.0198519748588
 30
0.0
 11
39.44656568460478
 21
104.1198509748598
 31
0.0
  0
LINE
  5
342B
330
3420
100
AcDbEntity
  8
AM_5
100
AcDbLine
 10
179.4465656846045
 20
120.0198519748599
 30
0.0
 11
179.4465656846045
 21
104.1198509748598
 31
0.0
  0
LINE
  5
342C
330
3420
100
AcDbEntity
  8
AM_5
100
AcDbLine
 10
41.94656568460477
 20
105.1198509748598
 30
0.0
 11
176.9465656846044
 21
105.1198509748598
 31
0.0
  0
INSERT
  5
342D
330
3420
100
AcDbEntity
  8
AM_5
100
AcDbBlockReference
  2
_Open30
 10
39.44656568460478
 20
105.1198509748598
 30
0.0
 41
2.5
 42
2.5
 43
2.5
 50
180.0
  0
INSERT
  5
342E
330
3420
100
AcDbEntity
  8
AM_5
100
AcDbBlockReference
  2
_Open30
 10
179.4465656846045
 20
105.1198509748598
 30
0.0
 41
2.5
 42
2.5
 43
2.5
  0
MTEXT
  5
342F
330
3420
100
AcDbEntity
  8
AM_5
 62
     2
100
AcDbMText
 10
109.4465656846046
 20
108.3698509748598
 30
0.0
 40
3.5
 41
0.0
 71
     5
 72
     1
  1
140
 73
     1
 44
1.0
1001
ACAD
1000
MTEXTBEGIN
1070
    73
1070
     1
1070
    44
1040
1.0
1070
    74
1070
     0
1000
MTEXTEND
  0
POINT
  5
3430
330
3420
100
AcDbEntity
  8
Defpoints
 62
     0
100
AcDbPoint
 10
39.44656568460478
 20
121.0198519748588
 30
0.0
  0
POINT
  5
3431
330
3420
100
AcDbEntity
  8
Defpoints
 62
     0
100
AcDbPoint
 10
179.4465656846045
 20
121.0198519748599
 30
0.0
  0
POINT
  5
3432
330
3420
100
AcDbEntity
  8
Defpoints
 62
     0
100
AcDbPoint
 10
179.4465656846045
 20
105.1198509748598
 30
0.0
  0
ENDBLK
  5
3437
330
3420
100
AcDbEntity
  8
0
100
AcDbBlockEnd
  0
ENDSEC
  0
SECTION
  2
ENTITIES
  0
LINE
  5
957
330
1F
100
AcDbEntity
  8
TK3
100
AcDbLine
 10
300.4064855621614
 20
252.4152042489335
 30
0.0
 11
300.4064855621614
 21
243.4152042489334
 31
0.0
  0
LINE
  5
958
330
1F
100
AcDbEntity
  8
TK3
100
AcDbLine
 10
301.4064855621614
 20
253.4152042489335
 30
0.0
 11
304.4064855621614
 21
253.4152042489334
 31
0.0
  0
LINE
  5
959
330
1F
100
AcDbEntity
  8
TK3
100
AcDbLine
 10
301.4064855621614
 20
242.4152042489335
 30
0.0
 11
304.4064855621614
 21
242.4152042489335
 31
0.0
  0
LINE
  5
95A
330
1F
100
AcDbEntity
  8
TK3
100
AcDbLine
 10
304.4064855621614
 20
253.4152042489334
 30
0.0
 11
304.4064855621614
 21
242.4152042489335
 31
0.0
  0
ARC
  5
95B
330
1F
100
AcDbEntity
  8
TK3
100
AcDbCircle
 10
301.4064855621614
 20
252.4152042489335
 30
0.0
 40
1.0
100
AcDbArc
 50
90.0
 51
180.0
1001
GENIUS_GENODEF_13
1002
{
1000
HIER
1070
     0
1002
}
1002
{
1000
MANEDIT
1070
     0
1002
}
1002
{
1000
NOSEL
1070
     0
1002
}
1002
{
1000
BEHIND
1070
     0
1002
}
1002
{
1000
OTHER
1070
     0
1002
}
1002
{
1000
REACTOR
1002
}
1001
GENIUS_GENOBJ-N-FIL_13
1002
{
1000
OWNER
1000
GEN
1002
}
  0
ARC
  5
95C
330
1F
100
AcDbEntity
  8
TK3
100
AcDbCircle
 10
301.4064855621614
 20
243.4152042489334
 30
0.0
 40
1.0
100
AcDbArc
 50
180.0
 51
270.0
1001
GENIUS_GENOBJ-N-FIL_13
1002
{
1000
OWNER
1000
GEN
1002
}
1001
GENIUS_GENODEF_13
1002
{
1000
HIER
1070
     0
1002
}
1002
{
1000
MANEDIT
1070
     0
1002
}
1002
{
1000
NOSEL
1070
     0
1002
}
1002
{
1000
BEHIND
1070
     0
1002
}
1002
{
1000
OTHER
1070
     0
1002
}
1002
{
1000
REACTOR
1002
}
  0
ARC
  5
95D
330
1F
100
AcDbEntity
  8
TK3
100
AcDbCircle
 10
301.4064855621614
 20
185.4152042489334
 30
0.0
 40
1.0
100
AcDbArc
 50
90.0
 51
180.0
1001
GENIUS_GENOBJ-N-FIL_13
1002
{
1000
OWNER
1000
GEN
1002
}
1001
GENIUS_GENODEF_13
1002
{
1000
HIER
1070
     0
1002
}
1002
{
1000
MANEDIT
1070
     0
1002
}
1002
{
1000
NOSEL
1070
     0
1002
}
1002
{
1000
BEHIND
1070
     0
1002
}
1002
{
1000
OTHER
1070
     0
1002
}
1002
{
1000
REACTOR
1002
}
  0
ARC
  5
95E
330
1F
100
AcDbEntity
  8
TK3
100
AcDbCircle
 10
301.4064855621614
 20
176.4152042489333
 30
0.0
 40
1.0
100
AcDbArc
 50
180.0
 51
270.0
1001
GENIUS_GENODEF_13
1002
{
1000
HIER
1070
     0
1002
}
1002
{
1000
MANEDIT
1070
     0
1002
}
1002
{
1000
NOSEL
1070
     0
1002
}
1002
{
1000
BEHIND
1070
     0
1002
}
1002
{
1000
OTHER
1070
     0
1002
}
1002
{
1000
REACTOR
1002
}
1001
GENIUS_GENOBJ-N-FIL_13
1002
{
1000
OWNER
1000
GEN
1002
}
  0
LINE
  5
95F
330
1F
100
AcDbEntity
  8
TK3
100
AcDbLine
 10
304.4064855621614
 20
175.4152042489334
 30
0.0
 11
304.4064855621614
 21
186.4152042489333
 31
0.0
  0
LINE
  5
960
330
1F
100
AcDbEntity
  8
TK3
100
AcDbLine
 10
301.4064855621614
 20
186.4152042489333
 30
0.0
 11
304.4064855621614
 21
186.4152042489333
 31
0.0
  0
LINE
  5
961
330
1F
100
AcDbEntity
  8
TK3
100
AcDbLine
 10
301.4064855621614
 20
175.4152042489333
 30
0.0
 11
304.4064855621614
 21
175.4152042489334
 31
0.0
  0
LINE
  5
962
330
1F
100
AcDbEntity
  8
TK3
100
AcDbLine
 10
300.4064855621614
 20
176.4152042489333
 30
0.0
 11
300.4064855621614
 21
185.4152042489334
 31
0.0
  0
LINE
  5
963
330
1F
100
AcDbEntity
  8
AM_7
  6
AM_ISO08W050x2
100
AcDbLine
 10
297.4064855621614
 20
180.9152042489333
 30
0.0
 11
307.4064855621614
 21
180.9152042489333
 31
0.0
1001
GENIUS_GENOBJ-N-CEN_13
1002
{
1000
OWNER
1000
GEN
1002
}
1001
GENIUS_GENODEF_13
1002
{
1000
HIER
1070
     0
1002
}
1002
{
1000
MANEDIT
1070
     0
1002
}
1002
{
1000
NOSEL
1070
     0
1002
}
1002
{
1000
BEHIND
1070
     0
1002
}
1002
{
1000
OTHER
1070
     0
1002
}
1002
{
1000
REACTOR
1002
}
  0
LINE
  5
964
330
1F
100
AcDbEntity
  8
AM_7
  6
AM_ISO08W050x2
100
AcDbLine
 10
297.4064855621614
 20
247.9152042489334
 30
0.0
 11
307.4064855621614
 21
247.9152042489334
 31
0.0
1001
GENIUS_GENOBJ-N-CEN_13
1002
{
1000
OWNER
1000
GEN
1002
}
1001
GENIUS_GENODEF_13
1002
{
1000
HIER
1070
     0
1002
}
1002
{
1000
MANEDIT
1070
     0
1002
}
1002
{
1000
NOSEL
1070
     0
1002
}
1002
{
1000
BEHIND
1070
     0
1002
}
1002
{
1000
OTHER
1070
     0
1002
}
1002
{
1000
REACTOR
1002
}
  0
ARC
  5
980
330
1F
100
AcDbEntity
  8
TK1
100
AcDbCircle
 10
175.9465656846048
 20
196.9152042489335
 30
0.0
 40
7.0
100
AcDbArc
 50
270.0
 51
0.0
1001
GENIUS_GENODEF_13
1002
{
1000
HIER
1070
     0
1002
}
1002
{
1000
MANEDIT
1070
     0
1002
}
1002
{
1000
NOSEL
1070
     0
1002
}
1002
{
1000
BEHIND
1070
     0
1002
}
1002
{
1000
OTHER
1070
     0
1002
}
1002
{
1000
REACTOR
1002
}
1001
GENIUS_GENOBJ-N-FIL_13
1002
{
1000
OWNER
1000
GEN
1002
}
  0
ARC
  5
981
330
1F
100
AcDbEntity
  8
TK1
100
AcDbCircle
 10
175.9465656846047
 20
231.9152042489335
 30
0.0
 40
7.0
100
AcDbArc
 50
0.0
 51
90.0
1001
GENIUS_GENOBJ-N-FIL_13
1002
{
1000
OWNER
1000
GEN
1002
}
1001
GENIUS_GENODEF_13
1002
{
1000
HIER
1070
     0
1002
}
1002
{
1000
MANEDIT
1070
     0
1002
}
1002
{
1000
NOSEL
1070
     0
1002
}
1002
{
1000
BEHIND
1070
     0
1002
}
1002
{
1000
OTHER
1070
     0
1002
}
1002
{
1000
REACTOR
1002
}
  0
LINE
  5
982
330
1F
100
AcDbEntity
  8
TK1
100
AcDbLine
 10
182.9465656846047
 20
231.9152042489335
 30
0.0
 11
182.9465656846048
 21
196.9152042489335
 31
0.0
  0
ARC
  5
9B3
330
1F
100
AcDbEntity
  8
TK2
100
AcDbCircle
 10
31.94656568460473
 20
80.49708631555265
 30
0.0
 40
1.0
100
AcDbArc
 50
0.0
 51
90.0
1001
GENIUS_GENOBJ-N-FIL_13
1002
{
1000
OWNER
1000
GEN
1002
}
1001
GENIUS_GENODEF_13
1002
{
1000
HIER
1070
     0
1002
}
1002
{
1000
MANEDIT
1070
     0
1002
}
1002
{
1000
NOSEL
1070
     0
1002
}
1002
{
1000
BEHIND
1070
     0
1002
}
1002
{
1000
OTHER
1070
     0
1002
}
1002
{
1000
REACTOR
1002
}
  0
ARC
  5
9B4
330
1F
100
AcDbEntity
  8
TK2
100
AcDbCircle
 10
28.94656568460474
 20
80.49708631555265
 30
0.0
 40
1.0
100
AcDbArc
 50
90.0
 51
180.0
1001
GENIUS_GENOBJ-N-FIL_13
1002
{
1000
OWNER
1000
GEN
1002
}
1001
GENIUS_GENODEF_13
1002
{
1000
HIER
1070
     0
1002
}
1002
{
1000
MANEDIT
1070
     0
1002
}
1002
{
1000
NOSEL
1070
     0
1002
}
1002
{
1000
BEHIND
1070
     0
1002
}
1002
{
1000
OTHER
1070
     0
1002
}
1002
{
1000
REACTOR
1002
}
  0
ARC
  5
9B5
330
1F
100
AcDbEntity
  8
TK2
100
AcDbCircle
 10
189.946565684605
 20
80.49708631555265
 30
0.0
 40
1.0
100
AcDbArc
 50
0.0
 51
90.0
1001
GENIUS_GENODEF_13
1002
{
1000
HIER
1070
     0
1002
}
1002
{
1000
MANEDIT
1070
     0
1002
}
1002
{
1000
NOSEL
1070
     0
1002
}
1002
{
1000
BEHIND
1070
     0
1002
}
1002
{
1000
OTHER
1070
     0
1002
}
1002
{
1000
REACTOR
1002
}
1001
GENIUS_GENOBJ-N-FIL_13
1002
{
1000
OWNER
1000
GEN
1002
}
  0
ARC
  5
9B6
330
1F
100
AcDbEntity
  8
TK2
100
AcDbCircle
 10
186.9465656846049
 20
80.49708631555265
 30
0.0
 40
1.0
100
AcDbArc
 50
90.0
 51
180.0
1001
GENIUS_GENODEF_13
1002
{
1000
HIER
1070
     0
1002
}
1002
{
1000
MANEDIT
1070
     0
1002
}
1002
{
1000
NOSEL
1070
     0
1002
}
1002
{
1000
BEHIND
1070
     0
1002
}
1002
{
1000
OTHER
1070
     0
1002
}
1002
{
1000
REACTOR
1002
}
1001
GENIUS_GENOBJ-N-FIL_13
1002
{
1000
OWNER
1000
GEN
1002
}
  0
LINE
  5
9B7
330
1F
100
AcDbEntity
  8
TK2
100
AcDbLine
 10
31.94656568460473
 20
81.49708631555265
 30
0.0
 11
28.94656568460474
 21
81.49708631555265
 31
0.0
  0
LINE
  5
9B8
330
1F
100
AcDbEntity
  8
TK2
100
AcDbLine
 10
32.94656568460474
 20
79.99708631555265
 30
0.0
 11
32.94656568460474
 21
80.49708631555265
 31
0.0
  0
LINE
  5
9B9
330
1F
100
AcDbEntity
  8
TK2
100
AcDbLine
 10
27.94656568460474
 20
79.99708631555265
 30
0.0
 11
27.94656568460474
 21
80.49708631555265
 31
0.0
  0
LINE
  5
9BA
330
1F
100
AcDbEntity
  8
TK2
100
AcDbLine
 10
190.946565684605
 20
79.99708631555265
 30
0.0
 11
190.946565684605
 21
80.49708631555265
 31
0.0
  0
LINE
  5
9BB
330
1F
100
AcDbEntity
  8
TK2
100
AcDbLine
 10
185.9465656846048
 20
79.99708631555265
 30
0.0
 11
185.9465656846048
 21
80.49708631555265
 31
0.0
  0
LINE
  5
9BC
330
1F
100
AcDbEntity
  8
TK2
100
AcDbLine
 10
189.946565684605
 20
81.49708631555265
 30
0.0
 11
186.9465656846049
 21
81.49708631555265
 31
0.0
  0
LINE
  5
9CA
330
1F
100
AcDbEntity
  8
TK1
100
AcDbLine
 10
142.7704501011587
 20
89.99708631555268
 30
0.0
 11
137.9465656846046
 21
89.99708631555268
 31
0.0
  0
ARC
  5
9CB
330
1F
100
AcDbEntity
  8
TK1
100
AcDbCircle
 10
137.9465656846046
 20
88.99708631555268
 30
0.0
 40
1.0
100
AcDbArc
 50
90.0
 51
180.0
1001
GENIUS_GENODEF_13
1002
{
1000
HIER
1070
     0
1002
}
1002
{
1000
MANEDIT
1070
     0
1002
}
1002
{
1000
NOSEL
1070
     0
1002
}
1002
{
1000
BEHIND
1070
     0
1002
}
1002
{
1000
OTHER
1070
     0
1002
}
1002
{
1000
REACTOR
1002
}
1001
GENIUS_GENOBJ-N-FIL_13
1002
{
1000
OWNER
1000
GEN
1002
}
  0
LINE
  5
9CF
330
1F
100
AcDbEntity
  8
TK1
100
AcDbLine
 10
143.2666833501772
 20
87.99708631555267
 30
0.0
 11
143.1465656846044
 21
87.99708631555265
 31
0.0
  0
LINE
  5
9D0
330
1F
100
AcDbEntity
  8
TK1
100
AcDbLine
 10
136.9465656846046
 20
88.99708631555268
 30
0.0
 11
136.9465656846046
 21
79.99708631555266
 31
0.0
  0
LINE
  5
9D1
330
1F
100
AcDbEntity
  8
TK1
100
AcDbLine
 10
147.3815656846045
 20
79.99708631555266
 30
0.0
 11
145.1324567247957
 21
89.23367341949058
 31
0.0
  0
LINE
  5
9D2
330
1F
100
AcDbEntity
  8
TK1
100
AcDbLine
 10
143.1465656846044
 20
87.99708631555265
 30
0.0
 11
143.1465656846044
 21
79.99708631555266
 31
0.0
  0
LINE
  5
9DB
330
1F
100
AcDbEntity
  8
TK1
100
AcDbLine
 10
190.9465656846047
 20
76.49708631555265
 30
0.0
 11
190.9465656846047
 21
79.99708631555265
 31
0.0
  0
LINE
  5
9DC
330
1F
100
AcDbEntity
  8
TK1
100
AcDbLine
 10
27.94656568460462
 20
76.49708631555265
 30
0.0
 11
27.94656568460462
 21
79.99708631555265
 31
0.0
  0
LINE
  5
9DD
330
1F
100
AcDbEntity
  8
TK1
100
AcDbLine
 10
27.94656568460462
 20
79.99708631555265
 30
0.0
 11
109.4465656846046
 21
79.99708631555265
 31
0.0
  0
LINE
  5
9DE
330
1F
100
AcDbEntity
  8
TK1
100
AcDbLine
 10
27.94656568460462
 20
76.49708631555265
 30
0.0
 11
109.4465656846046
 21
76.49708631555265
 31
0.0
  0
LINE
  5
9E3
330
1F
100
AcDbEntity
  8
TK1
100
AcDbLine
 10
261.9829493599525
 20
174.2152042489334
 30
0.0
 11
265.4829493599525
 21
174.2152042489334
 31
0.0
  0
LINE
  5
9E4
330
1F
100
AcDbEntity
  8
TK1
100
AcDbLine
 10
261.9829493599525
 20
183.0801615138904
 30
0.0
 11
253.423809573322
 21
182.8269579414295
 31
0.0
  0
LINE
  5
9E5
330
1F
100
AcDbEntity
  8
TK1
100
AcDbLine
 10
251.4829493599525
 20
180.8278325112383
 30
0.0
 11
251.4829493599525
 21
178.2985605861611
 31
0.0
  0
LINE
  5
9E6
330
1F
100
AcDbEntity
  8
TK1
100
AcDbLine
 10
253.4317325246952
 20
176.2992164847653
 30
0.0
 11
261.9829493599525
 21
176.0801615138903
 31
0.0
  0
LINE
  5
9EB
330
1F
100
AcDbEntity
  8
TK1
100
AcDbLine
 10
167.4465656846049
 20
250.2652042489334
 30
0.0
 11
171.0465656846049
 21
250.2652042489334
 31
0.0
  0
LINE
  5
9EC
330
1F
100
AcDbEntity
  8
TK1
100
AcDbLine
 10
167.4465656846049
 20
247.4652042489334
 30
0.0
 11
171.0465656846049
 21
247.4652042489334
 31
0.0
  0
ARC
  5
9EE
330
1F
100
AcDbEntity
  8
TK1
100
AcDbCircle
 10
171.0465656846049
 20
248.8652042489335
 30
0.0
 40
1.399999999999999
100
AcDbArc
 50
0.0
 51
90.0
1001
GENIUS_GENOBJ-N-FIL_13
1002
{
1000
OWNER
1000
GEN
1002
}
1001
GENIUS_GENODEF_13
1002
{
1000
HIER
1070
     0
1002
}
1002
{
1000
MANEDIT
1070
     0
1002
}
1002
{
1000
NOSEL
1070
     0
1002
}
1002
{
1000
BEHIND
1070
     0
1002
}
1002
{
1000
OTHER
1070
     0
1002
}
1002
{
1000
REACTOR
1002
}
  0
ARC
  5
9EF
330
1F
100
AcDbEntity
  8
TK1
100
AcDbCircle
 10
171.0465656846049
 20
248.8652042489335
 30
0.0
 40
1.399999999999999
100
AcDbArc
 50
270.0
 51
0.0
1001
GENIUS_GENOBJ-N-FIL_13
1002
{
1000
OWNER
1000
GEN
1002
}
1001
GENIUS_GENODEF_13
1002
{
1000
HIER
1070
     0
1002
}
1002
{
1000
MANEDIT
1070
     0
1002
}
1002
{
1000
NOSEL
1070
     0
1002
}
1002
{
1000
BEHIND
1070
     0
1002
}
1002
{
1000
OTHER
1070
     0
1002
}
1002
{
1000
REACTOR
1002
}
  0
LINE
  5
9F0
330
1F
100
AcDbEntity
  8
TK1
100
AcDbLine
 10
176.4465656846048
 20
245.2152042489334
 30
0.0
 11
176.4465656846048
 21
250.3152042489334
 31
0.0
  0
LINE
  5
9F1
330
1F
100
AcDbEntity
  8
TK1
100
AcDbLine
 10
167.4465656846049
 20
245.2152042489334
 30
0.0
 11
176.4465656846048
 21
245.2152042489334
 31
0.0
  0
LINE
  5
9F2
330
1F
100
AcDbEntity
  8
TK1
100
AcDbLine
 10
167.4465656846049
 20
250.3152042489334
 30
0.0
 11
115.9465656846047
 21
250.3152042489334
 31
0.0
  0
LINE
  5
9F3
330
1F
100
AcDbEntity
  8
TK1
100
AcDbLine
 10
167.4465656846049
 20
250.3152042489334
 30
0.0
 11
167.4465656846049
 21
245.2152042489334
 31
0.0
  0
LINE
  5
9F4
330
1F
100
AcDbEntity
  8
TK1
100
AcDbLine
 10
180.6965656846048
 20
175.7152042489334
 30
0.0
 11
180.9465656846048
 21
175.7152042489334
 31
0.0
  0
LINE
  5
9F9
330
1F
100
AcDbEntity
  8
TK1
100
AcDbLine
 10
157.6965656846047
 20
174.2152042489334
 30
0.0
 11
159.1965656846046
 21
175.7152042489334
 31
0.0
  0
LINE
  5
9FA
330
1F
100
AcDbEntity
  8
TK1
100
AcDbLine
 10
137.6965656846047
 20
174.2152042489334
 30
0.0
 11
157.6965656846047
 21
174.2152042489334
 31
0.0
  0
LINE
  5
9FB
330
1F
100
AcDbEntity
  8
TK1
100
AcDbLine
 10
136.1965656846047
 20
175.7152042489334
 30
0.0
 11
137.6965656846047
 21
174.2152042489334
 31
0.0
  0
LINE
  5
9FC
330
1F
100
AcDbEntity
  8
TK1
100
AcDbLine
 10
152.6965656846044
 20
177.0652042489333
 30
0.0
 11
152.6965656846044
 21
182.0652042489333
 31
0.0
  0
LINE
  5
9FD
330
1F
100
AcDbEntity
  8
TK1
100
AcDbLine
 10
147.3815656846044
 20
177.0652042489333
 30
0.0
 11
152.6965656846044
 21
177.0652042489333
 31
0.0
  0
LINE
  5
9FE
330
1F
100
AcDbEntity
  8
TK1
100
AcDbLine
 10
147.3815656846045
 20
182.0652042489333
 30
0.0
 11
152.6965656846044
 21
182.0652042489333
 31
0.0
  0
ARC
  5
9FF
330
1F
100
AcDbEntity
  8
TK1
100
AcDbCircle
 10
140.4465656846046
 20
179.5652042489333
 30
0.0
 40
3.5
100
AcDbArc
 50
89.99999999999674
 51
179.9999999999984
1001
GENIUS_GENOBJ-N-FIL_13
1002
{
1000
OWNER
1000
GEN
1002
}
1001
GENIUS_GENODEF_13
1002
{
1000
HIER
1070
     0
1002
}
1002
{
1000
MANEDIT
1070
     0
1002
}
1002
{
1000
NOSEL
1070
     0
1002
}
1002
{
1000
BEHIND
1070
     0
1002
}
1002
{
1000
OTHER
1070
     0
1002
}
1002
{
1000
REACTOR
1002
}
  0
ARC
  5
A00
330
1F
100
AcDbEntity
  8
TK1
100
AcDbCircle
 10
140.4465656846046
 20
179.5652042489333
 30
0.0
 40
3.5
100
AcDbArc
 50
179.9999999999984
 51
269.9999999999968
1001
GENIUS_GENOBJ-N-FIL_13
1002
{
1000
OWNER
1000
GEN
1002
}
1001
GENIUS_GENODEF_13
1002
{
1000
HIER
1070
     0
1002
}
1002
{
1000
MANEDIT
1070
     0
1002
}
1002
{
1000
NOSEL
1070
     0
1002
}
1002
{
1000
BEHIND
1070
     0
1002
}
1002
{
1000
OTHER
1070
     0
1002
}
1002
{
1000
REACTOR
1002
}
  0
LINE
  5
A01
330
1F
100
AcDbEntity
  8
TK1
100
AcDbLine
 10
147.3815656846043
 20
176.0652042489331
 30
0.0
 11
140.4465656846044
 21
176.0652042489333
 31
0.0
  0
LINE
  5
A02
330
1F
100
AcDbEntity
  8
TK1
100
AcDbLine
 10
147.3815656846045
 20
183.0652042489331
 30
0.0
 11
147.3815656846043
 21
176.0652042489331
 31
0.0
  0
LINE
  5
A03
330
1F
100
AcDbEntity
  8
TK1
100
AcDbLine
 10
147.3815656846045
 20
183.0652042489331
 30
0.0
 11
140.4465656846046
 21
183.0652042489333
 31
0.0
  0
LINE
  5
A04
330
1F
100
AcDbEntity
  8
TK1
100
AcDbLine
 10
261.9829493599525
 20
245.7171280375801
 30
0.0
 11
261.9829493599525
 21
174.2152042489334
 31
0.0
  0
LINE
  5
A05
330
1F
100
AcDbEntity
  8
TK1
100
AcDbLine
 10
261.9829493599525
 20
175.7152042489334
 30
0.0
 11
265.4829493599525
 21
175.7152042489334
 31
0.0
  0
LINE
  5
A06
330
1F
100
AcDbEntity
  8
TK1
100
AcDbLine
 10
265.4829493599525
 20
245.3152042489334
 30
0.0
 11
265.4829493599525
 21
174.2152042489334
 31
0.0
  0
LINE
  5
A07
330
1F
100
AcDbEntity
  8
TK1
100
AcDbLine
 10
175.9465656846047
 20
238.9152042489334
 30
0.0
 11
109.4465656846048
 21
238.9152042489335
 31
0.0
  0
LINE
  5
A08
330
1F
100
AcDbEntity
  8
TK1
100
AcDbLine
 10
109.4465656846046
 20
189.9152042489333
 30
0.0
 11
175.9465656846048
 21
189.9152042489335
 31
0.0
  0
LINE
  5
A09
330
1F
100
AcDbEntity
  8
TK2
100
AcDbLine
 10
116.6502988728943
 20
75.49708631555265
 30
0.0
 11
116.7233757959712
 21
76.4970863155527
 31
0.0
  0
LINE
  5
A0A
330
1F
100
AcDbEntity
  8
TK2
100
AcDbLine
 10
118.2881423745755
 20
87.09708631555256
 30
0.0
 11
118.6049889946339
 21
87.09708631555256
 31
0.0
  0
ARC
  5
A0B
330
1F
100
AcDbEntity
  8
TK2
100
AcDbCircle
 10
118.2881423745755
 20
86.24708631555254
 30
0.0
 40
0.85
100
AcDbArc
 50
90.0
 51
175.8204301265706
1001
GENIUS_GENOBJ-N-FIL_13
1002
{
1000
OWNER
1000
GEN
1002
}
1001
GENIUS_GENODEF_13
1002
{
1000
HIER
1070
     0
1002
}
1002
{
1000
MANEDIT
1070
     0
1002
}
1002
{
1000
NOSEL
1070
     0
1002
}
1002
{
1000
BEHIND
1070
     0
1002
}
1002
{
1000
OTHER
1070
     0
1002
}
1002
{
1000
REACTOR
1002
}
  0
ARC
  5
A0C
330
1F
100
AcDbEntity
  8
TK2
100
AcDbCircle
 10
118.6049889946339
 20
86.24708631555254
 30
0.0
 40
0.85
100
AcDbArc
 50
4.179569873429334
 51
90.0
1001
GENIUS_GENOBJ-N-FIL_13
1002
{
1000
OWNER
1000
GEN
1002
}
1001
GENIUS_GENODEF_13
1002
{
1000
HIER
1070
     0
1002
}
1002
{
1000
MANEDIT
1070
     0
1002
}
1002
{
1000
NOSEL
1070
     0
1002
}
1002
{
1000
BEHIND
1070
     0
1002
}
1002
{
1000
OTHER
1070
     0
1002
}
1002
{
1000
REACTOR
1002
}
  0
LINE
  5
A0D
330
1F
100
AcDbEntity
  8
TK2
100
AcDbLine
 10
119.4527284439308
 20
86.30903650607805
 30
0.0
 11
119.9139863424693
 21
79.99708631555265
 31
0.0
  0
ARC
  5
A0E
330
1F
100
AcDbEntity
  8
TK2
100
AcDbCircle
 10
118.6049889946339
 20
86.24708631555254
 30
0.0
 40
2.25
100
AcDbArc
 50
4.179569873429334
 51
90.0
1001
GENIUS_GENOBJ-N-FIL_13
1002
{
1000
OWNER
1000
GEN
1002
}
1001
GENIUS_GENODEF_13
1002
{
1000
HIER
1070
     0
1002
}
1002
{
1000
MANEDIT
1070
     0
1002
}
1002
{
1000
NOSEL
1070
     0
1002
}
1002
{
1000
BEHIND
1070
     0
1002
}
1002
{
1000
OTHER
1070
     0
1002
}
1002
{
1000
REACTOR
1002
}
  0
ARC
  5
A0F
330
1F
100
AcDbEntity
  8
TK2
100
AcDbCircle
 10
118.2881423745755
 20
86.24708631555254
 30
0.0
 40
2.25
100
AcDbArc
 50
90.0
 51
175.8204301265706
1001
GENIUS_GENOBJ-N-FIL_13
1002
{
1000
OWNER
1000
GEN
1002
}
1001
GENIUS_GENODEF_13
1002
{
1000
HIER
1070
     0
1002
}
1002
{
1000
MANEDIT
1070
     0
1002
}
1002
{
1000
NOSEL
1070
     0
1002
}
1002
{
1000
BEHIND
1070
     0
1002
}
1002
{
1000
OTHER
1070
     0
1002
}
1002
{
1000
REACTOR
1002
}
  0
LINE
  5
A10
330
1F
100
AcDbEntity
  8
TK2
100
AcDbLine
 10
120.8490051839488
 20
86.41107211400251
 30
0.0
 11
121.3177195307585
 21
79.99708631555265
 31
0.0
  0
LINE
  5
A11
330
1F
100
AcDbEntity
  8
TK2
100
AcDbLine
 10
118.2881423745755
 20
88.49708631555254
 30
0.0
 11
118.6049889946339
 21
88.49708631555254
 31
0.0
  0
LINE
  5
A12
330
1F
100
AcDbEntity
  8
TK2
100
AcDbLine
 10
115.2465656846048
 20
75.49708631555265
 30
0.0
 11
115.3196426076818
 21
76.49708631555265
 31
0.0
  0
LINE
  5
A13
330
1F
100
AcDbEntity
  8
TK2
100
AcDbLine
 10
27.94656568460462
 20
65.49708631555254
 30
0.0
 11
27.94656568460462
 21
75.49708631555265
 31
0.0
  0
LINE
  5
A18
330
1F
100
AcDbEntity
  8
TK2
100
AcDbLine
 10
184.4465656846046
 20
59.49708631555253
 30
0.0
 11
109.4465656846046
 21
59.4970863155525
 31
0.0
  0
LINE
  5
A19
330
1F
100
AcDbEntity
  8
TK2
100
AcDbLine
 10
27.94656568460462
 20
65.49708631555254
 30
0.0
 11
109.4465656846046
 21
65.49708631555254
 31
0.0
  0
LINE
  5
A1A
330
1F
100
AcDbEntity
  8
TK2
100
AcDbLine
 10
190.9465656846047
 20
75.49708631555265
 30
0.0
 11
190.9465656846047
 21
65.49708631555254
 31
0.0
  0
LINE
  5
A1B
330
1F
100
AcDbEntity
  8
TK2
100
AcDbLine
 10
27.94656568460462
 20
75.49708631555265
 30
0.0
 11
109.4465656846046
 21
75.49708631555266
 31
0.0
  0
ARC
  5
A1C
330
1F
100
AcDbEntity
  8
TK2
100
AcDbCircle
 10
263.4829493599525
 20
248.7152042489334
 30
0.0
 40
3.0
100
AcDbArc
 50
90.0
 51
179.9999999999984
1001
GENIUS_GENODEF_13
1002
{
1000
HIER
1070
     0
1002
}
1002
{
1000
MANEDIT
1070
     0
1002
}
1002
{
1000
NOSEL
1070
     0
1002
}
1002
{
1000
BEHIND
1070
     0
1002
}
1002
{
1000
OTHER
1070
     0
1002
}
1002
{
1000
REACTOR
1002
}
1001
GENIUS_GENOBJ-N-FIL_13
1002
{
1000
OWNER
1000
GEN
1002
}
  0
ARC
  5
A1D
330
1F
100
AcDbEntity
  8
TK2
100
AcDbCircle
 10
263.4829493599524
 20
248.3152042489334
 30
0.0
 40
3.0
100
AcDbArc
 50
180.0
 51
270.0
1001
GENIUS_GENODEF_13
1002
{
1000
HIER
1070
     0
1002
}
1002
{
1000
MANEDIT
1070
     0
1002
}
1002
{
1000
NOSEL
1070
     0
1002
}
1002
{
1000
BEHIND
1070
     0
1002
}
1002
{
1000
OTHER
1070
     0
1002
}
1002
{
1000
REACTOR
1002
}
1001
GENIUS_GENOBJ-N-FIL_13
1002
{
1000
OWNER
1000
GEN
1002
}
  0
LINE
  5
A1F
330
1F
100
AcDbEntity
  8
TK2
100
AcDbLine
 10
260.4829493599524
 20
248.3152042489334
 30
0.0
 11
260.4829493599525
 21
248.7152042489334
 31
0.0
  0
LINE
  5
A20
330
1F
100
AcDbEntity
  8
TK2
100
AcDbLine
 10
266.4829493599525
 20
245.3152042489334
 30
0.0
 11
263.4829493599524
 21
245.3152042489334
 31
0.0
  0
LINE
  5
A21
330
1F
100
AcDbEntity
  8
TK2
100
AcDbLine
 10
282.4829493599525
 20
240.9152042489334
 30
0.0
 11
282.4829493599525
 21
187.9152042489334
 31
0.0
  0
LINE
  5
A22
330
1F
100
AcDbEntity
  8
TK2
100
AcDbLine
 10
276.4829493599525
 20
187.9152042489334
 30
0.0
 11
282.4829493599525
 21
187.9152042489334
 31
0.0
  0
LINE
  5
A23
330
1F
100
AcDbEntity
  8
TK2
100
AcDbLine
 10
276.4829493599525
 20
240.9152042489334
 30
0.0
 11
282.4829493599525
 21
240.9152042489334
 31
0.0
  0
LINE
  5
A24
330
1F
100
AcDbEntity
  8
TK20
100
AcDbLine
 10
266.4829493599525
 20
189.5152042489334
 30
0.0
 11
282.4829493599525
 21
189.4152042489334
 31
0.0
  0
LINE
  5
A25
330
1F
100
AcDbEntity
  8
TK20
100
AcDbLine
 10
282.4829493599525
 20
239.4152042489334
 30
0.0
 11
266.4829493599524
 21
239.3152042489334
 31
0.0
  0
LINE
  5
A27
330
1F
100
AcDbEntity
  8
TK2
100
AcDbLine
 10
276.4829493599525
 20
251.7152042489333
 30
0.0
 11
276.4829493599525
 21
175.7152042489333
 31
0.0
  0
LINE
  5
A28
330
1F
100
AcDbEntity
  8
TK2
100
AcDbLine
 10
266.4829493599524
 20
245.3152042489334
 30
0.0
 11
266.4829493599525
 21
175.7152042489334
 31
0.0
  0
CIRCLE
  5
A29
330
1F
100
AcDbEntity
  8
TK20
100
AcDbCircle
 10
39.44656568460477
 20
180.9152042489333
 30
0.0
 40
1.199999999999999
  0
CIRCLE
  5
A2A
330
1F
100
AcDbEntity
  8
TK20
100
AcDbCircle
 10
39.44656568460477
 20
247.9152042489334
 30
0.0
 40
1.199999999999999
  0
LINE
  5
A4B
330
1F
100
AcDbEntity
  8
TK2
100
AcDbLine
 10
52.04656568460484
 20
237.9152042489334
 30
0.0
 11
52.54656568460496
 21
237.9152042489334
 31
0.0
  0
ARC
  5
A4C
330
1F
100
AcDbEntity
  8
TK2
100
AcDbCircle
 10
52.54656568460496
 20
236.4152042489334
 30
0.0
 40
1.5
100
AcDbArc
 50
0.0
 51
90.0
1001
GENIUS_GENODEF_13
1002
{
1000
HIER
1070
     0
1002
}
1002
{
1000
MANEDIT
1070
     0
1002
}
1002
{
1000
NOSEL
1070
     0
1002
}
1002
{
1000
BEHIND
1070
     0
1002
}
1002
{
1000
OTHER
1070
     0
1002
}
1002
{
1000
REACTOR
1002
}
1001
GENIUS_GENOBJ-N-FIL_13
1002
{
1000
OWNER
1000
GEN
1002
}
  0
ARC
  5
A4D
330
1F
100
AcDbEntity
  8
TK2
100
AcDbCircle
 10
47.54656568460484
 20
236.4152042489334
 30
0.0
 40
1.5
100
AcDbArc
 50
90.0
 51
180.0
1001
GENIUS_GENODEF_13
1002
{
1000
HIER
1070
     0
1002
}
1002
{
1000
MANEDIT
1070
     0
1002
}
1002
{
1000
NOSEL
1070
     0
1002
}
1002
{
1000
BEHIND
1070
     0
1002
}
1002
{
1000
OTHER
1070
     0
1002
}
1002
{
1000
REACTOR
1002
}
1001
GENIUS_GENOBJ-N-FIL_13
1002
{
1000
OWNER
1000
GEN
1002
}
  0
LINE
  5
A4E
330
1F
100
AcDbEntity
  8
TK2
100
AcDbLine
 10
48.04656568460484
 20
239.3152042489334
 30
0.0
 11
48.04656568460484
 21
237.9152042489334
 31
0.0
  0
LINE
  5
A4F
330
1F
100
AcDbEntity
  8
TK2
100
AcDbLine
 10
52.04656568460484
 20
237.9152042489334
 30
0.0
 11
52.04656568460484
 21
239.3152042489334
 31
0.0
  0
LINE
  5
A50
330
1F
100
AcDbEntity
  8
TK2
100
AcDbLine
 10
47.54656568460484
 20
237.9152042489334
 30
0.0
 11
48.04656568460472
 21
237.9152042489333
 31
0.0
  0
LINE
  5
A51
330
1F
100
AcDbEntity
  8
TK2
100
AcDbLine
 10
54.04656568460495
 20
236.4152042489334
 30
0.0
 11
54.04656568460495
 21
192.4152042489333
 31
0.0
  0
LINE
  5
A52
330
1F
100
AcDbEntity
  8
TK2
100
AcDbLine
 10
46.04656568460484
 20
236.4152042489334
 30
0.0
 11
46.04656568460484
 21
192.4152042489333
 31
0.0
  0
LINE
  5
A63
330
1F
100
AcDbEntity
  8
TK2
100
AcDbLine
 10
37.04656568460473
 20
236.4152042489334
 30
0.0
 11
37.04656568460473
 21
192.4152042489333
 31
0.0
  0
LINE
  5
A64
330
1F
100
AcDbEntity
  8
TK2
100
AcDbLine
 10
45.04656568460484
 20
236.4152042489334
 30
0.0
 11
45.04656568460484
 21
192.4152042489333
 31
0.0
  0
LINE
  5
A65
330
1F
100
AcDbEntity
  8
TK2
100
AcDbLine
 10
38.54656568460473
 20
237.9152042489334
 30
0.0
 11
39.04656568460462
 21
237.9152042489333
 31
0.0
  0
LINE
  5
A66
330
1F
100
AcDbEntity
  8
TK2
100
AcDbLine
 10
43.04656568460472
 20
237.9152042489334
 30
0.0
 11
43.04656568460472
 21
239.3152042489334
 31
0.0
  0
LINE
  5
A67
330
1F
100
AcDbEntity
  8
TK2
100
AcDbLine
 10
39.04656568460473
 20
239.3152042489334
 30
0.0
 11
39.04656568460473
 21
237.9152042489334
 31
0.0
  0
ARC
  5
A68
330
1F
100
AcDbEntity
  8
TK2
100
AcDbCircle
 10
38.54656568460473
 20
236.4152042489334
 30
0.0
 40
1.5
100
AcDbArc
 50
90.0
 51
180.0
1001
GENIUS_GENODEF_13
1002
{
1000
HIER
1070
     0
1002
}
1002
{
1000
MANEDIT
1070
     0
1002
}
1002
{
1000
NOSEL
1070
     0
1002
}
1002
{
1000
BEHIND
1070
     0
1002
}
1002
{
1000
OTHER
1070
     0
1002
}
1002
{
1000
REACTOR
1002
}
1001
GENIUS_GENOBJ-N-FIL_13
1002
{
1000
OWNER
1000
GEN
1002
}
  0
ARC
  5
A69
330
1F
100
AcDbEntity
  8
TK2
100
AcDbCircle
 10
43.54656568460484
 20
236.4152042489334
 30
0.0
 40
1.5
100
AcDbArc
 50
0.0
 51
90.0
1001
GENIUS_GENODEF_13
1002
{
1000
HIER
1070
     0
1002
}
1002
{
1000
MANEDIT
1070
     0
1002
}
1002
{
1000
NOSEL
1070
     0
1002
}
1002
{
1000
BEHIND
1070
     0
1002
}
1002
{
1000
OTHER
1070
     0
1002
}
1002
{
1000
REACTOR
1002
}
1001
GENIUS_GENOBJ-N-FIL_13
1002
{
1000
OWNER
1000
GEN
1002
}
  0
LINE
  5
A6A
330
1F
100
AcDbEntity
  8
TK2
100
AcDbLine
 10
43.04656568460472
 20
237.9152042489334
 30
0.0
 11
43.54656568460484
 21
237.9152042489334
 31
0.0
  0
LINE
  5
A6C
330
1F
100
AcDbEntity
  8
TK2
100
AcDbLine
 10
27.94656568460477
 20
250.7152042489336
 30
0.0
 11
27.94656568460465
 21
185.7152042489335
 31
0.0
  0
LINE
  5
A6D
102
{ACAD_REACTORS
330
2E00
102
}
330
1F
100
AcDbEntity
  8
TK2
100
AcDbLine
 10
31.44656568460476
 20
251.7152042489336
 30
0.0
 11
28.94656568460476
 21
251.7152042489336
 31
0.0
  0
ARC
  5
A6F
102
{ACAD_REACTORS
330
2DA0
330
2E00
102
}
330
1F
100
AcDbEntity
  8
TK2
100
AcDbCircle
 10
28.94656568460476
 20
250.7152042489336
 30
0.0
 40
1.0
100
AcDbArc
 50
90.0
 51
180.0
1001
GENIUS_GENODEF_13
1002
{
1000
HIER
1070
     0
1002
}
1002
{
1000
MANEDIT
1070
     0
1002
}
1002
{
1000
NOSEL
1070
     0
1002
}
1002
{
1000
BEHIND
1070
     0
1002
}
1002
{
1000
OTHER
1070
     0
1002
}
1002
{
1000
REACTOR
1002
}
1001
GENIUS_GENOBJ-N-FIL_13
1002
{
1000
OWNER
1000
GEN
1002
}
  0
LINE
  5
A71
330
1F
100
AcDbEntity
  8
TK2
100
AcDbLine
 10
31.44656568460476
 20
245.3152042489335
 30
0.0
 11
28.94656568460465
 21
245.3152042489335
 31
0.0
  0
ARC
  5
A73
330
1F
100
AcDbEntity
  8
TK2
100
AcDbCircle
 10
28.94656568460465
 20
246.3152042489335
 30
0.0
 40
1.0
100
AcDbArc
 50
180.0
 51
270.0
1001
GENIUS_GENODEF_13
1002
{
1000
HIER
1070
     0
1002
}
1002
{
1000
MANEDIT
1070
     0
1002
}
1002
{
1000
NOSEL
1070
     0
1002
}
1002
{
1000
BEHIND
1070
     0
1002
}
1002
{
1000
OTHER
1070
     0
1002
}
1002
{
1000
REACTOR
1002
}
1001
GENIUS_GENOBJ-N-FIL_13
1002
{
1000
OWNER
1000
GEN
1002
}
  0
ARC
  5
A74
330
1F
100
AcDbEntity
  8
TK1
100
AcDbCircle
 10
180.9465656846048
 20
185.7152042489334
 30
0.0
 40
10.0
100
AcDbArc
 50
270.0
 51
0.0
1001
GENIUS_GENOBJ-N-FIL_13
1002
{
1000
OWNER
1000
GEN
1002
}
1001
GENIUS_GENODEF_13
1002
{
1000
HIER
1070
     0
1002
}
1002
{
1000
MANEDIT
1070
     0
1002
}
1002
{
1000
NOSEL
1070
     0
1002
}
1002
{
1000
BEHIND
1070
     0
1002
}
1002
{
1000
OTHER
1070
     0
1002
}
1002
{
1000
REACTOR
1002
}
  0
LINE
  5
A75
330
1F
100
AcDbEntity
  8
TK1
100
AcDbLine
 10
109.4465656846046
 20
175.7152042489334
 30
0.0
 11
136.1965656846047
 21
175.7152042489333
 31
0.0
  0
LINE
  5
A76
330
1F
100
AcDbEntity
  8
TK1
100
AcDbLine
 10
184.9465656846048
 20
245.2152042489334
 30
0.0
 11
190.9465656846049
 21
245.2152042489334
 31
0.0
  0
LINE
  5
A77
330
1F
100
AcDbEntity
  8
TK1
100
AcDbLine
 10
184.9465656846048
 20
250.3152042489334
 30
0.0
 11
176.4465656846048
 21
250.3152042489334
 31
0.0
  0
LINE
  5
A78
330
1F
100
AcDbEntity
  8
TK1
100
AcDbLine
 10
184.9465656846048
 20
250.3152042489334
 30
0.0
 11
184.9465656846048
 21
245.2152042489334
 31
0.0
  0
LINE
  5
A79
330
1F
100
AcDbEntity
  8
TK1
100
AcDbLine
 10
190.9465656846048
 20
245.2152042489334
 30
0.0
 11
190.9465656846048
 21
185.7152042489334
 31
0.0
  0
LINE
  5
A84
330
1F
100
AcDbEntity
  8
AM_7
100
AcDbLine
 10
109.4465656846048
 20
254.7152042489334
 30
0.0
 11
109.4465656846046
 21
172.7152042489334
 31
0.0
1001
GENIUS_GENOBJ-N-CEN_13
1002
{
1000
OWNER
1000
GEN
1002
}
1001
GENIUS_GENODEF_13
1002
{
1000
HIER
1070
     0
1002
}
1002
{
1000
MANEDIT
1070
     0
1002
}
1002
{
1000
NOSEL
1070
     0
1002
}
1002
{
1000
BEHIND
1070
     0
1002
}
1002
{
1000
OTHER
1070
     0
1002
}
1002
{
1000
REACTOR
1002
}
  0
LINE
  5
A88
330
1F
100
AcDbEntity
  8
TK2
100
AcDbLine
 10
81.44656568460471
 20
182.4152042489333
 30
0.0
 11
81.44656568460471
 21
176.7152042489333
 31
0.0
  0
LINE
  5
A8B
330
1F
100
AcDbEntity
  8
TK2
100
AcDbLine
 10
70.94656568460471
 20
182.4152042489333
 30
0.0
 11
70.94656568460471
 21
176.7152042489333
 31
0.0
  0
ARC
  5
A9E
330
1F
100
AcDbEntity
  8
TK2
100
AcDbCircle
 10
37.94656568460465
 20
185.7152042489334
 30
0.0
 40
10.0
100
AcDbArc
 50
180.0
 51
270.0
1001
GENIUS_GENOBJ-N-FIL_13
1002
{
1000
OWNER
1000
GEN
1002
}
1001
GENIUS_GENODEF_13
1002
{
1000
HIER
1070
     0
1002
}
1002
{
1000
MANEDIT
1070
     0
1002
}
1002
{
1000
NOSEL
1070
     0
1002
}
1002
{
1000
BEHIND
1070
     0
1002
}
1002
{
1000
OTHER
1070
     0
1002
}
1002
{
1000
REACTOR
1002
}
  0
LINE
  5
AA1
102
{ACAD_REACTORS
330
2E00
102
}
330
1F
100
AcDbEntity
  8
TK2
100
AcDbLine
 10
109.4465656846046
 20
175.7152042489332
 30
0.0
 11
37.94656568460465
 21
175.7152042489334
 31
0.0
  0
LINE
  5
AA2
330
1F
100
AcDbEntity
  8
TK2
100
AcDbLine
 10
115.5754118384509
 20
79.99708631555265
 30
0.0
 11
116.0441261852607
 21
86.41107211400251
 31
0.0
  0
LINE
  5
AA3
330
1F
100
AcDbEntity
  8
TK2
100
AcDbLine
 10
116.9791450267404
 20
79.99708631555265
 30
0.0
 11
117.4404029252787
 21
86.30903650607805
 31
0.0
  0
LINE
  5
AA4
330
1F
100
AcDbEntity
  8
TK2
100
AcDbLine
 10
120.1697555732385
 20
76.4970863155527
 30
0.0
 11
120.2428324963153
 21
75.49708631555265
 31
0.0
  0
LINE
  5
AA5
330
1F
100
AcDbEntity
  8
TK2
100
AcDbLine
 10
121.5734887615277
 20
76.49708631555265
 30
0.0
 11
121.6465656846047
 21
75.49708631555265
 31
0.0
  0
INSERT
  5
C06
330
1F
100
AcDbEntity
  8
0
370
     0
100
AcDbBlockReference
  2
TK-A3
 10
0.0
 20
0.0
 30
0.0
1001
GENIUS_GENOREF_13
1005
C70
1001
GENIUS_GENODEF_13
1002
{
1000
HIER
1070
     0
1002
}
1002
{
1000
MANEDIT
1070
     0
1002
}
1002
{
1000
NOSEL
1070
     0
1002
}
1002
{
1000
BEHIND
1070
     0
1002
}
1002
{
1000
OTHER
1070
     0
1002
}
1002
{
1000
REACTOR
1002
}
1001
GENIUS_GENOBJ-N-SDF_13
1002
{
1000
OWNER
1000
GEN
1002
}
1001
GENIUS_GENSCREG_15
1040
1.0
1040
1.0
1011
0.0
1021
0.0
1031
0.0
1011
403.0
1021
280.0000000000001
1031
0.0
1070
     3
  0
INSERT
  5
C65
330
1F
100
AcDbEntity
  8
0
370
     0
100
AcDbBlockReference
 66
     1
  2
TK-TITLE
 10
403.0
 20
0.0
 30
0.0
1001
GENIUS_GENOREF_13
1005
C70
  0
ATTRIB
  5
C67
330
C65
100
AcDbEntity
  8
0
100
AcDbText
 10
394.9976908104542
 20
1.705189434395036
 30
0.0
 40
2.5
  1

100
AcDbAttribute
  2
GEN-TITLE-NR2
 70
     0
  0
ATTRIB
  5
C68
330
C65
100
AcDbEntity
  8
0
100
AcDbText
 10
318.8574809841467
 20
12.82790432564377
 30
0.0
 40
3.5
  1
VMA-8
100
AcDbAttribute
  2
GEN-TITLE-DES1
 70
     0
  0
ATTRIB
  5
C69
330
C65
100
AcDbEntity
  8
0
100
AcDbText
 10
319.0
 20
9.149999999999948
 30
0.0
 40
2.5
  1

100
AcDbAttribute
  2
GEN-TITLE-DES2
 70
     0
  0
ATTRIB
  5
C6A
330
C65
100
AcDbEntity
  8
0
100
AcDbText
 10
319.0
 20
1.999999999999957
 30
0.0
 40
3.0
  1

100
AcDbAttribute
  2
GEN-TITLE-NR1
 70
     0
  0
ATTRIB
  5
C6B
330
C65
100
AcDbEntity
  8
0
100
AcDbText
 10
254.0381324164708
 20
43.29999999999991
 30
0.0
 40
3.0
  1
ポリカーボネート
100
AcDbAttribute
  2
GEN-TITLE-MAT1
 70
     0
  0
ATTRIB
  5
C6C
330
C65
100
AcDbEntity
  8
0
100
AcDbText
 10
254.0381324164708
 20
33.29999999999991
 30
0.0
 40
3.0
  1
透明
100
AcDbAttribute
  2
GEN-TITLE-MAT2
 70
     0
  0
ATTRIB
  5
C6D
330
C65
100
AcDbEntity
  8
0
100
AcDbText
 10
226.3372590873905
 20
16.19999999999994
 30
0.0
 40
3.0
  1
1
 72
     2
 11
227.3872590873905
 21
15.79999999999994
 31
0.0
100
AcDbAttribute
  2
GEN-TITLE-QTY
 70
     0
 74
     1
  0
ATTRIB
  5
C6E
330
C65
100
AcDbEntity
  8
0
100
AcDbText
 10
221.7252603855759
 20
28.69999999999997
 30
0.0
 40
3.0
  1
1:1
 72
     2
 11
225.1752603855759
 21
28.29999999999998
 31
0.0
100
AcDbAttribute
  2
GEN-TITLE-SCA
 70
     0
 74
     1
  0
ATTRIB
  5
C6F
330
C65
100
AcDbEntity
  8
0
100
AcDbText
 10
212.4708953849672
 20
3.988342537610664
 30
0.0
 40
3.0
  1
2010/04/07
 72
     1
 11
222.7828048337861
 21
3.588342537610664
 31
0.0
100
AcDbAttribute
  2
GEN-TITLE-DAT
 70
     0
 74
     1
  0
SEQEND
  5
C66
330
C65
100
AcDbEntity
  8
0
370
     0
  0
POINT
  5
C70
330
1F
100
AcDbEntity
  8
0
 60
     1
100
AcDbPoint
 10
0.0
 20
0.0
 30
0.0
1001
GENIUS_GENOENT_13
1002
{
1000
MYREF
1005
C70
1002
}
1002
{
1000
GRP
1005
0
1002
}
1001
GENIUS_GENOBJ-N-TIT_13
1002
{
1000
OWNER
1000
GEN
1002
}
1001
GENIUS_GENOLIS_13
1002
{
1000
ENT
1005
C65
1005
C06
1002
}
1001
GENIUS_GENODEF_13
1002
{
1000
HIER
1070
     1
1002
}
1002
{
1000
MANEDIT
1070
     0
1002
}
1002
{
1000
NOSEL
1070
     0
1002
}
1002
{
1000
BEHIND
1070
     0
1002
}
1002
{
1000
OTHER
1070
     0
1002
}
1002
{
1000
REACTOR
1002
}
1001
GENIUS_GENTITLE_13
1002
{
1000
BORDER
1000
TK-A3
1002
}
1002
{
1000
TITLE
1000
TK-TITLE
1002
}
1002
{
1000
SCALE
1000
1:1
1002
}
1002
{
1000
TITLESTD
1000
ISO
1002
}
1002
{
1000
HRA
1005
C06
1002
}
1002
{
1000
HTIT
1005
C65
1002
}
1002
{
1000
UNCHG
1002
{
1000
GEN-TITLE-SIZ
1000
GEN-TITLE-SCA
1002
}
1002
}
1002
{
1000
GENIUSID
1005
C70
1002
}
  0
LINE
  5
E99
330
1F
100
AcDbEntity
  8
TK2
100
AcDbLine
 10
32.44656568460476
 20
250.7152042489336
 30
0.0
 11
32.44656568460476
 21
246.3152042489335
 31
0.0
  0
ARC
  5
EBE
330
1F
100
AcDbEntity
  8
TK2
100
AcDbCircle
 10
31.44656568460476
 20
246.3152042489335
 30
0.0
 40
1.0
100
AcDbArc
 50
270.0
 51
0.0
1001
GENIUS_GENOBJ-N-FIL_13
1002
{
1000
OWNER
1000
GEN
1002
}
1001
GENIUS_GENODEF_13
1002
{
1000
HIER
1070
     0
1002
}
1002
{
1000
MANEDIT
1070
     0
1002
}
1002
{
1000
NOSEL
1070
     0
1002
}
1002
{
1000
BEHIND
1070
     0
1002
}
1002
{
1000
OTHER
1070
     0
1002
}
1002
{
1000
REACTOR
1002
}
  0
ARC
  5
EC0
330
1F
100
AcDbEntity
  8
TK2
100
AcDbCircle
 10
31.44656568460476
 20
250.7152042489336
 30
0.0
 40
1.0
100
AcDbArc
 50
0.0000000000001018
 51
89.99999999999916
1001
GENIUS_GENODEF_13
1002
{
1000
HIER
1070
     0
1002
}
1002
{
1000
MANEDIT
1070
     0
1002
}
1002
{
1000
NOSEL
1070
     0
1002
}
1002
{
1000
BEHIND
1070
     0
1002
}
1002
{
1000
OTHER
1070
     0
1002
}
1002
{
1000
REACTOR
1002
}
1001
GENIUS_GENOBJ-N-FIL_13
1002
{
1000
OWNER
1000
GEN
1002
}
  0
LINE
  5
EC7
330
1F
100
AcDbEntity
  8
TK2
100
AcDbLine
 10
109.4465656846048
 20
251.7152042489336
 30
0.0
 11
31.44656568460476
 21
251.7152042489336
 31
0.0
  0
LINE
  5
FE3
330
1F
100
AcDbEntity
  8
TK2
100
AcDbLine
 10
36.04656568460473
 20
214.4152042489334
 30
0.0
 11
36.04656568460473
 21
237.1152042489334
 31
0.0
  0
LINE
  5
1067
330
1F
100
AcDbEntity
  8
TK2
100
AcDbLine
 10
38.24656568460478
 20
239.3152042489334
 30
0.0
 11
109.4465656846048
 21
239.3152042489334
 31
0.0
  0
ARC
  5
1078
102
{ACAD_REACTORS
330
3143
102
}
330
1F
100
AcDbEntity
  8
TK2
100
AcDbCircle
 10
38.24656568460478
 20
237.1152042489334
 30
0.0
 40
2.2
100
AcDbArc
 50
90.0
 51
180.0
1001
GENIUS_GENODEF_13
1002
{
1000
HIER
1070
     0
1002
}
1002
{
1000
MANEDIT
1070
     0
1002
}
1002
{
1000
NOSEL
1070
     0
1002
}
1002
{
1000
BEHIND
1070
     0
1002
}
1002
{
1000
OTHER
1070
     0
1002
}
1002
{
1000
REACTOR
1002
}
1001
GENIUS_GENOBJ-N-FIL_13
1002
{
1000
OWNER
1000
GEN
1002
}
  0
LINE
  5
1088
330
1F
100
AcDbEntity
  8
TK2
100
AcDbLine
 10
38.24656568460478
 20
241.1152042489334
 30
0.0
 11
109.4465656846048
 21
241.1152042489334
 31
0.0
  0
ARC
  5
108E
330
1F
100
AcDbEntity
  8
TK2
100
AcDbCircle
 10
38.24656568460478
 20
237.1152042489334
 30
0.0
 40
4.0
100
AcDbArc
 50
90.0
 51
180.0
1001
GENIUS_GENODEF_13
1002
{
1000
HIER
1070
     0
1002
}
1002
{
1000
MANEDIT
1070
     0
1002
}
1002
{
1000
NOSEL
1070
     0
1002
}
1002
{
1000
BEHIND
1070
     0
1002
}
1002
{
1000
OTHER
1070
     0
1002
}
1002
{
1000
REACTOR
1002
}
1001
GENIUS_GENOBJ-N-FIL_13
1002
{
1000
OWNER
1000
GEN
1002
}
  0
LINE
  5
1094
330
1F
100
AcDbEntity
  8
TK2
100
AcDbLine
 10
34.24656568460472
 20
214.4152042489334
 30
0.0
 11
34.24656568460477
 21
237.1152042489334
 31
0.0
  0
LINE
  5
10B8
330
1F
100
AcDbEntity
  8
TK2
100
AcDbLine
 10
38.24656568460478
 20
245.1152042489334
 30
0.0
 11
109.4465656846048
 21
245.1152042489334
 31
0.0
  0
ARC
  5
10BE
330
1F
100
AcDbEntity
  8
TK2
100
AcDbCircle
 10
38.24656568460478
 20
237.1152042489334
 30
0.0
 40
8.0
100
AcDbArc
 50
90.0
 51
180.0
1001
GENIUS_GENODEF_13
1002
{
1000
HIER
1070
     0
1002
}
1002
{
1000
MANEDIT
1070
     0
1002
}
1002
{
1000
NOSEL
1070
     0
1002
}
1002
{
1000
BEHIND
1070
     0
1002
}
1002
{
1000
OTHER
1070
     0
1002
}
1002
{
1000
REACTOR
1002
}
1001
GENIUS_GENOBJ-N-FIL_13
1002
{
1000
OWNER
1000
GEN
1002
}
  0
LINE
  5
10C4
330
1F
100
AcDbEntity
  8
TK2
100
AcDbLine
 10
30.24656568460472
 20
214.4152042489334
 30
0.0
 11
30.24656568460478
 21
237.1152042489334
 31
0.0
  0
LINE
  5
12FE
330
1F
100
AcDbEntity
  8
TK2
100
AcDbLine
 10
52.04656568460484
 20
190.9152042489333
 30
0.0
 11
52.54656568460496
 21
190.9152042489333
 31
0.0
  0
ARC
  5
12FF
330
1F
100
AcDbEntity
  8
TK2
100
AcDbCircle
 10
52.54656568460496
 20
192.4152042489333
 30
0.0
 40
1.5
100
AcDbArc
 50
270.0
 51
0.0
1001
GENIUS_GENODEF_13
1002
{
1000
HIER
1070
     0
1002
}
1002
{
1000
MANEDIT
1070
     0
1002
}
1002
{
1000
NOSEL
1070
     0
1002
}
1002
{
1000
BEHIND
1070
     0
1002
}
1002
{
1000
OTHER
1070
     0
1002
}
1002
{
1000
REACTOR
1002
}
1001
GENIUS_GENOBJ-N-FIL_13
1002
{
1000
OWNER
1000
GEN
1002
}
  0
ARC
  5
1300
330
1F
100
AcDbEntity
  8
TK2
100
AcDbCircle
 10
47.54656568460484
 20
192.4152042489333
 30
0.0
 40
1.5
100
AcDbArc
 50
180.0
 51
270.0
1001
GENIUS_GENODEF_13
1002
{
1000
HIER
1070
     0
1002
}
1002
{
1000
MANEDIT
1070
     0
1002
}
1002
{
1000
NOSEL
1070
     0
1002
}
1002
{
1000
BEHIND
1070
     0
1002
}
1002
{
1000
OTHER
1070
     0
1002
}
1002
{
1000
REACTOR
1002
}
1001
GENIUS_GENOBJ-N-FIL_13
1002
{
1000
OWNER
1000
GEN
1002
}
  0
LINE
  5
1301
330
1F
100
AcDbEntity
  8
TK2
100
AcDbLine
 10
48.04656568460484
 20
189.5152042489334
 30
0.0
 11
48.04656568460484
 21
190.9152042489333
 31
0.0
  0
LINE
  5
1302
330
1F
100
AcDbEntity
  8
TK2
100
AcDbLine
 10
52.04656568460484
 20
190.9152042489333
 30
0.0
 11
52.04656568460484
 21
189.5152042489334
 31
0.0
  0
LINE
  5
1303
330
1F
100
AcDbEntity
  8
TK2
100
AcDbLine
 10
47.54656568460484
 20
190.9152042489333
 30
0.0
 11
48.04656568460472
 21
190.9152042489334
 31
0.0
  0
LINE
  5
1308
330
1F
100
AcDbEntity
  8
TK2
100
AcDbLine
 10
38.54656568460473
 20
190.9152042489333
 30
0.0
 11
39.04656568460462
 21
190.9152042489334
 31
0.0
  0
LINE
  5
1309
330
1F
100
AcDbEntity
  8
TK2
100
AcDbLine
 10
43.04656568460472
 20
190.9152042489333
 30
0.0
 11
43.04656568460472
 21
189.5152042489334
 31
0.0
  0
LINE
  5
130A
330
1F
100
AcDbEntity
  8
TK2
100
AcDbLine
 10
39.04656568460473
 20
189.5152042489334
 30
0.0
 11
39.04656568460473
 21
190.9152042489333
 31
0.0
  0
ARC
  5
130B
330
1F
100
AcDbEntity
  8
TK2
100
AcDbCircle
 10
38.54656568460473
 20
192.4152042489333
 30
0.0
 40
1.5
100
AcDbArc
 50
180.0
 51
270.0
1001
GENIUS_GENODEF_13
1002
{
1000
HIER
1070
     0
1002
}
1002
{
1000
MANEDIT
1070
     0
1002
}
1002
{
1000
NOSEL
1070
     0
1002
}
1002
{
1000
BEHIND
1070
     0
1002
}
1002
{
1000
OTHER
1070
     0
1002
}
1002
{
1000
REACTOR
1002
}
1001
GENIUS_GENOBJ-N-FIL_13
1002
{
1000
OWNER
1000
GEN
1002
}
  0
ARC
  5
130C
330
1F
100
AcDbEntity
  8
TK2
100
AcDbCircle
 10
43.54656568460484
 20
192.4152042489333
 30
0.0
 40
1.5
100
AcDbArc
 50
270.0
 51
0.0
1001
GENIUS_GENODEF_13
1002
{
1000
HIER
1070
     0
1002
}
1002
{
1000
MANEDIT
1070
     0
1002
}
1002
{
1000
NOSEL
1070
     0
1002
}
1002
{
1000
BEHIND
1070
     0
1002
}
1002
{
1000
OTHER
1070
     0
1002
}
1002
{
1000
REACTOR
1002
}
1001
GENIUS_GENOBJ-N-FIL_13
1002
{
1000
OWNER
1000
GEN
1002
}
  0
LINE
  5
130D
330
1F
100
AcDbEntity
  8
TK2
100
AcDbLine
 10
43.04656568460472
 20
190.9152042489333
 30
0.0
 11
43.54656568460484
 21
190.9152042489333
 31
0.0
  0
LINE
  5
130E
330
1F
100
AcDbEntity
  8
TK2
100
AcDbLine
 10
36.04656568460473
 20
214.4152042489334
 30
0.0
 11
36.04656568460473
 21
191.7152042489333
 31
0.0
  0
LINE
  5
130F
330
1F
100
AcDbEntity
  8
TK2
100
AcDbLine
 10
34.24656568460472
 20
214.4152042489334
 30
0.0
 11
34.24656568460477
 21
191.7152042489333
 31
0.0
  0
LINE
  5
1310
330
1F
100
AcDbEntity
  8
TK2
100
AcDbLine
 10
30.24656568460472
 20
214.4152042489334
 30
0.0
 11
30.24656568460478
 21
191.7152042489333
 31
0.0
  0
LINE
  5
1311
102
{ACAD_REACTORS
330
3143
102
}
330
1F
100
AcDbEntity
  8
TK2
100
AcDbLine
 10
38.24656568460478
 20
189.5152042489333
 30
0.0
 11
109.4465656846048
 21
189.5152042489334
 31
0.0
  0
LINE
  5
1312
330
1F
100
AcDbEntity
  8
TK2
100
AcDbLine
 10
38.24656568460478
 20
187.7152042489333
 30
0.0
 11
109.4465656846048
 21
187.7152042489333
 31
0.0
  0
LINE
  5
1313
330
1F
100
AcDbEntity
  8
TK2
100
AcDbLine
 10
38.24656568460478
 20
183.7152042489333
 30
0.0
 11
109.4465656846048
 21
183.7152042489334
 31
0.0
  0
ARC
  5
1314
330
1F
100
AcDbEntity
  8
TK2
100
AcDbCircle
 10
38.24656568460478
 20
191.7152042489333
 30
0.0
 40
2.2
100
AcDbArc
 50
180.0
 51
270.0
1001
GENIUS_GENODEF_13
1002
{
1000
HIER
1070
     0
1002
}
1002
{
1000
MANEDIT
1070
     0
1002
}
1002
{
1000
NOSEL
1070
     0
1002
}
1002
{
1000
BEHIND
1070
     0
1002
}
1002
{
1000
OTHER
1070
     0
1002
}
1002
{
1000
REACTOR
1002
}
1001
GENIUS_GENOBJ-N-FIL_13
1002
{
1000
OWNER
1000
GEN
1002
}
  0
ARC
  5
1315
330
1F
100
AcDbEntity
  8
TK2
100
AcDbCircle
 10
38.24656568460478
 20
191.7152042489333
 30
0.0
 40
4.0
100
AcDbArc
 50
180.0
 51
270.0
1001
GENIUS_GENODEF_13
1002
{
1000
HIER
1070
     0
1002
}
1002
{
1000
MANEDIT
1070
     0
1002
}
1002
{
1000
NOSEL
1070
     0
1002
}
1002
{
1000
BEHIND
1070
     0
1002
}
1002
{
1000
OTHER
1070
     0
1002
}
1002
{
1000
REACTOR
1002
}
1001
GENIUS_GENOBJ-N-FIL_13
1002
{
1000
OWNER
1000
GEN
1002
}
  0
ARC
  5
1316
330
1F
100
AcDbEntity
  8
TK2
100
AcDbCircle
 10
38.24656568460478
 20
191.7152042489333
 30
0.0
 40
8.0
100
AcDbArc
 50
180.0
 51
270.0
1001
GENIUS_GENODEF_13
1002
{
1000
HIER
1070
     0
1002
}
1002
{
1000
MANEDIT
1070
     0
1002
}
1002
{
1000
NOSEL
1070
     0
1002
}
1002
{
1000
BEHIND
1070
     0
1002
}
1002
{
1000
OTHER
1070
     0
1002
}
1002
{
1000
REACTOR
1002
}
1001
GENIUS_GENOBJ-N-FIL_13
1002
{
1000
OWNER
1000
GEN
1002
}
  0
LINE
  5
15A6
330
1F
100
AcDbEntity
  8
TK2
100
AcDbLine
 10
70.94656568460471
 20
182.4152042489333
 30
0.0
 11
81.44656568460471
 21
182.4152042489333
 31
0.0
  0
LINE
  5
15A7
330
1F
100
AcDbEntity
  8
TK2
100
AcDbLine
 10
70.94656568460471
 20
176.7152042489333
 30
0.0
 11
81.44656568460471
 21
176.7152042489333
 31
0.0
  0
CIRCLE
  5
15BE
330
1F
100
AcDbEntity
  8
TK2
100
AcDbCircle
 10
100.9465656846046
 20
179.5652042489333
 30
0.0
 40
2.35
  0
LINE
  5
15E3
330
1F
100
AcDbEntity
  8
TK2
100
AcDbLine
 10
104.1965656846048
 20
251.7152042489336
 30
0.0
 11
104.1965656846048
 21
245.7152042489336
 31
0.0
  0
LINE
  5
15EE
330
1F
100
AcDbEntity
  8
TK2
100
AcDbLine
 10
104.1965656846048
 20
245.7152042489336
 30
0.0
 11
109.4465656846048
 21
245.7152042489336
 31
0.0
  0
LINE
  5
1713
330
1F
100
AcDbEntity
  8
TK1
100
AcDbLine
 10
159.1965656846046
 20
175.7152042489333
 30
0.0
 11
180.9465656846048
 21
175.7152042489334
 31
0.0
  0
LINE
  5
1738
330
1F
100
AcDbEntity
  8
TK1
100
AcDbLine
 10
121.5965656846048
 20
176.7152042489333
 30
0.0
 11
115.2965656846048
 21
176.7152042489333
 31
0.0
  0
LINE
  5
1773
330
1F
100
AcDbEntity
  8
TK1
100
AcDbLine
 10
115.2965656846048
 20
182.4152042489333
 30
0.0
 11
121.5965656846048
 21
182.4152042489333
 31
0.0
  0
LINE
  5
1916
330
1F
100
AcDbEntity
  8
TK1
100
AcDbLine
 10
115.9465656846047
 20
250.3152042489334
 30
0.0
 11
115.9465656846047
 21
244.3152042489334
 31
0.0
  0
LINE
  5
1985
330
1F
100
AcDbEntity
  8
TK1
100
AcDbLine
 10
184.9465656846049
 20
250.2652042489334
 30
0.0
 11
186.4465656846048
 21
250.2652042489334
 31
0.0
  0
LINE
  5
1986
330
1F
100
AcDbEntity
  8
TK1
100
AcDbLine
 10
184.9465656846049
 20
247.4652042489334
 30
0.0
 11
186.4465656846048
 21
247.4652042489334
 31
0.0
  0
LINE
  5
198F
330
1F
100
AcDbEntity
  8
TK1
100
AcDbLine
 10
109.4465656846048
 20
250.2652042489334
 30
0.0
 11
115.9465656846047
 21
250.2652042489334
 31
0.0
  0
LINE
  5
1995
330
1F
100
AcDbEntity
  8
TK1
100
AcDbLine
 10
109.4465656846048
 20
247.4652042489334
 30
0.0
 11
115.9465656846047
 21
247.4652042489334
 31
0.0
  0
LINE
  5
19C5
330
1F
100
AcDbEntity
  8
TK1
100
AcDbLine
 10
115.9465656846047
 20
244.3152042489334
 30
0.0
 11
109.4465656846048
 21
244.3152042489334
 31
0.0
  0
CIRCLE
  5
19CD
330
1F
100
AcDbEntity
  8
TK20
100
AcDbCircle
 10
179.4465656846048
 20
247.9152042489331
 30
0.0
 40
1.199999999999999
  0
LINE
  5
19CE
330
1F
100
AcDbEntity
  8
TK2
100
AcDbLine
 10
187.4465656846048
 20
251.7152042489332
 30
0.0
 11
189.9465656846048
 21
251.7152042489333
 31
0.0
  0
ARC
  5
19CF
330
1F
100
AcDbEntity
  8
TK2
100
AcDbCircle
 10
189.9465656846048
 20
250.7152042489333
 30
0.0
 40
1.0
100
AcDbArc
 50
359.9999999999997
 51
89.99999999999975
1001
GENIUS_GENODEF_13
1002
{
1000
HIER
1070
     0
1002
}
1002
{
1000
MANEDIT
1070
     0
1002
}
1002
{
1000
NOSEL
1070
     0
1002
}
1002
{
1000
BEHIND
1070
     0
1002
}
1002
{
1000
OTHER
1070
     0
1002
}
1002
{
1000
REACTOR
1002
}
1001
GENIUS_GENOBJ-N-FIL_13
1002
{
1000
OWNER
1000
GEN
1002
}
  0
LINE
  5
19D0
330
1F
100
AcDbEntity
  8
TK2
100
AcDbLine
 10
187.4465656846048
 20
245.3152042489332
 30
0.0
 11
189.9465656846049
 21
245.3152042489332
 31
0.0
  0
ARC
  5
19D1
330
1F
100
AcDbEntity
  8
TK2
100
AcDbCircle
 10
189.9465656846049
 20
246.3152042489332
 30
0.0
 40
1.0
100
AcDbArc
 50
269.9999999999998
 51
359.9999999999997
1001
GENIUS_GENODEF_13
1002
{
1000
HIER
1070
     0
1002
}
1002
{
1000
MANEDIT
1070
     0
1002
}
1002
{
1000
NOSEL
1070
     0
1002
}
1002
{
1000
BEHIND
1070
     0
1002
}
1002
{
1000
OTHER
1070
     0
1002
}
1002
{
1000
REACTOR
1002
}
1001
GENIUS_GENOBJ-N-FIL_13
1002
{
1000
OWNER
1000
GEN
1002
}
  0
LINE
  5
19D2
330
1F
100
AcDbEntity
  8
TK2
100
AcDbLine
 10
186.4465656846048
 20
250.7152042489332
 30
0.0
 11
186.4465656846048
 21
246.3152042489332
 31
0.0
  0
ARC
  5
19D3
330
1F
100
AcDbEntity
  8
TK2
100
AcDbCircle
 10
187.4465656846048
 20
250.7152042489332
 30
0.0
 40
1.0
100
AcDbArc
 50
90.00000000000058
 51
179.9999999999996
1001
GENIUS_GENODEF_13
1002
{
1000
HIER
1070
     0
1002
}
1002
{
1000
MANEDIT
1070
     0
1002
}
1002
{
1000
NOSEL
1070
     0
1002
}
1002
{
1000
BEHIND
1070
     0
1002
}
1002
{
1000
OTHER
1070
     0
1002
}
1002
{
1000
REACTOR
1002
}
1001
GENIUS_GENOBJ-N-FIL_13
1002
{
1000
OWNER
1000
GEN
1002
}
  0
ARC
  5
19D4
330
1F
100
AcDbEntity
  8
TK2
100
AcDbCircle
 10
187.4465656846048
 20
246.3152042489332
 30
0.0
 40
1.0
100
AcDbArc
 50
179.9999999999997
 51
269.9999999999998
1001
GENIUS_GENOBJ-N-FIL_13
1002
{
1000
OWNER
1000
GEN
1002
}
1001
GENIUS_GENODEF_13
1002
{
1000
HIER
1070
     0
1002
}
1002
{
1000
MANEDIT
1070
     0
1002
}
1002
{
1000
NOSEL
1070
     0
1002
}
1002
{
1000
BEHIND
1070
     0
1002
}
1002
{
1000
OTHER
1070
     0
1002
}
1002
{
1000
REACTOR
1002
}
  0
LINE
  5
19D5
330
1F
100
AcDbEntity
  8
TK2
100
AcDbLine
 10
109.4465656846048
 20
251.7152042489336
 30
0.0
 11
187.4465656846048
 21
251.7152042489332
 31
0.0
  0
LINE
  5
19D6
330
1F
100
AcDbEntity
  8
TK2
100
AcDbLine
 10
114.6965656846048
 20
251.7152042489336
 30
0.0
 11
114.6965656846048
 21
250.2652042489334
 31
0.0
  0
LINE
  5
19D9
102
{ACAD_REACTORS
330
2DA0
102
}
330
1F
100
AcDbEntity
  8
TK2
100
AcDbLine
 10
190.9465656846048
 20
250.7152042489333
 30
0.0
 11
190.9465656846048
 21
245.2152042489334
 31
0.0
  0
CIRCLE
  5
19DB
330
1F
100
AcDbEntity
  8
TK20
100
AcDbCircle
 10
179.4465656846045
 20
180.9152042489329
 30
0.0
 40
1.199999999999999
  0
ARC
  5
1D4A
330
1F
100
AcDbEntity
  8
TK4
100
AcDbCircle
 10
276.4829493599525
 20
242.9152042489334
 30
0.0
 40
2.0
100
AcDbArc
 50
270.0
 51
90.0
  0
ARC
  5
1D59
330
1F
100
AcDbEntity
  8
TK4
100
AcDbCircle
 10
276.4829493599525
 20
185.9152042489333
 30
0.0
 40
2.0
100
AcDbArc
 50
270.0
 51
90.00000000000003
  0
LINE
  5
1DF9
102
{ACAD_REACTORS
330
31CA
102
}
330
1F
100
AcDbEntity
  8
TK1
100
AcDbLine
 10
251.4829493599525
 20
235.5035474384878
 30
0.0
 11
251.4829493599525
 21
214.4152042489334
 31
0.0
  0
CIRCLE
  5
1E90
330
1F
100
AcDbEntity
  8
TK40
100
AcDbCircle
 10
268.4829493599524
 20
243.1152042489334
 30
0.0
 40
2.0
  0
CIRCLE
  5
1EA2
330
1F
100
AcDbEntity
  8
TK40
100
AcDbCircle
 10
268.4829493599524
 20
185.7152042489333
 30
0.0
 40
2.0
  0
ARC
  5
2028
330
1F
100
AcDbEntity
  8
TK1
100
AcDbCircle
 10
253.4829493599525
 20
178.2985605861611
 30
0.0
 40
2.0
100
AcDbArc
 50
180.0
 51
268.5325853338251
1001
GENIUS_GENODEF_13
1002
{
1000
HIER
1070
     0
1002
}
1002
{
1000
MANEDIT
1070
     0
1002
}
1002
{
1000
NOSEL
1070
     0
1002
}
1002
{
1000
BEHIND
1070
     0
1002
}
1002
{
1000
OTHER
1070
     0
1002
}
1002
{
1000
REACTOR
1002
}
1001
GENIUS_GENOBJ-N-FIL_13
1002
{
1000
OWNER
1000
GEN
1002
}
  0
ARC
  5
202A
330
1F
100
AcDbEntity
  8
TK1
100
AcDbCircle
 10
253.4829493599525
 20
180.8278325112383
 30
0.0
 40
2.0
100
AcDbArc
 50
91.69447708456646
 51
180.0
1001
GENIUS_GENOBJ-N-FIL_13
1002
{
1000
OWNER
1000
GEN
1002
}
1001
GENIUS_GENODEF_13
1002
{
1000
HIER
1070
     0
1002
}
1002
{
1000
MANEDIT
1070
     0
1002
}
1002
{
1000
NOSEL
1070
     0
1002
}
1002
{
1000
BEHIND
1070
     0
1002
}
1002
{
1000
OTHER
1070
     0
1002
}
1002
{
1000
REACTOR
1002
}
  0
LINE
  5
2084
330
1F
100
AcDbEntity
  8
TK1
100
AcDbLine
 10
109.4465656846046
 20
79.99708631555266
 30
0.0
 11
190.9465656846047
 21
79.99708631555265
 31
0.0
  0
LINE
  5
2085
330
1F
100
AcDbEntity
  8
TK1
100
AcDbLine
 10
109.4465656846046
 20
76.49708631555265
 30
0.0
 11
190.9465656846047
 21
76.49708631555265
 31
0.0
  0
LINE
  5
2086
330
1F
100
AcDbEntity
  8
TK2
100
AcDbLine
 10
109.4465656846046
 20
75.49708631555265
 30
0.0
 11
190.9465656846047
 21
75.49708631555265
 31
0.0
  0
LINE
  5
2087
330
1F
100
AcDbEntity
  8
TK2
100
AcDbLine
 10
109.4465656846046
 20
65.49708631555256
 30
0.0
 11
190.9465656846047
 21
65.49708631555254
 31
0.0
  0
LINE
  5
21F1
102
{ACAD_REACTORS
330
31CA
102
}
330
1F
100
AcDbEntity
  8
TK2
100
AcDbLine
 10
263.4829493599525
 20
251.7152042489333
 30
0.0
 11
276.4829493599525
 21
251.7152042489333
 31
0.0
  0
LINE
  5
21F7
330
1F
100
AcDbEntity
  8
TK2
100
AcDbLine
 10
276.4829493599525
 20
175.7152042489333
 30
0.0
 11
266.4829493599525
 21
175.7152042489333
 31
0.0
  0
LINE
  5
2358
330
1F
100
AcDbEntity
  8
TK1
100
AcDbLine
 10
115.2965656846048
 20
182.4152042489333
 30
0.0
 11
115.2965656846048
 21
176.7152042489333
 31
0.0
  0
LINE
  5
2361
330
1F
100
AcDbEntity
  8
TK1
100
AcDbLine
 10
121.5965656846048
 20
182.4152042489333
 30
0.0
 11
121.5965656846048
 21
176.7152042489333
 31
0.0
  0
LINE
  5
23BB
330
1F
100
AcDbEntity
  8
TK1
100
AcDbLine
 10
157.6965656846046
 20
79.99708631555265
 30
0.0
 11
157.6965656846046
 21
76.49708631555265
 31
0.0
  0
LINE
  5
23C1
330
1F
100
AcDbEntity
  8
TK1
100
AcDbLine
 10
159.1965656846046
 20
79.99708631555265
 30
0.0
 11
159.1965656846046
 21
76.49708631555265
 31
0.0
  0
LINE
  5
23C5
330
1F
100
AcDbEntity
  8
TK1
100
AcDbLine
 10
136.1965656846047
 20
76.49708631555265
 30
0.0
 11
136.1965656846047
 21
79.99708631555266
 31
0.0
  0
LINE
  5
23C6
330
1F
100
AcDbEntity
  8
TK1
100
AcDbLine
 10
137.6965656846047
 20
76.49708631555265
 30
0.0
 11
137.6965656846047
 21
79.99708631555266
 31
0.0
  0
LINE
  5
241B
330
1F
100
AcDbEntity
  8
TK1
100
AcDbLine
 10
144.160846441683
 20
89.99708631555265
 30
0.0
 11
137.9465656846046
 21
89.99708631555266
 31
0.0
  0
LINE
  5
24AA
330
1F
100
AcDbEntity
  8
TK1
100
AcDbLine
 10
143.6553274634223
 20
87.69172115712782
 30
0.0
 11
145.5289710473457
 21
79.99708631555266
 31
0.0
  0
ARC
  5
24E1
330
1F
100
AcDbEntity
  8
TK1
100
AcDbCircle
 10
143.2666833501772
 20
87.59708631555266
 30
0.0
 40
0.4
100
AcDbArc
 50
13.685195600223
 51
90.0
1001
GENIUS_GENODEF_13
1002
{
1000
HIER
1070
     0
1002
}
1002
{
1000
MANEDIT
1070
     0
1002
}
1002
{
1000
NOSEL
1070
     0
1002
}
1002
{
1000
BEHIND
1070
     0
1002
}
1002
{
1000
OTHER
1070
     0
1002
}
1002
{
1000
REACTOR
1002
}
1001
GENIUS_GENOBJ-N-FIL_13
1002
{
1000
OWNER
1000
GEN
1002
}
  0
ARC
  5
24FC
330
1F
100
AcDbEntity
  8
TK1
100
AcDbCircle
 10
144.160846441683
 20
88.99708631555265
 30
0.0
 40
1.0
100
AcDbArc
 50
13.68519560022336
 51
90.0
1001
GENIUS_GENODEF_13
1002
{
1000
HIER
1070
     0
1002
}
1002
{
1000
MANEDIT
1070
     0
1002
}
1002
{
1000
NOSEL
1070
     0
1002
}
1002
{
1000
BEHIND
1070
     0
1002
}
1002
{
1000
OTHER
1070
     0
1002
}
1002
{
1000
REACTOR
1002
}
1001
GENIUS_GENOBJ-N-FIL_13
1002
{
1000
OWNER
1000
GEN
1002
}
  0
LINE
  5
24FF
330
1F
100
AcDbEntity
  8
TK1
100
AcDbLine
 10
76.12268126805052
 20
89.99708631555268
 30
0.0
 11
80.94656568460468
 21
89.99708631555268
 31
0.0
  0
ARC
  5
2500
330
1F
100
AcDbEntity
  8
TK1
100
AcDbCircle
 10
80.94656568460468
 20
88.99708631555268
 30
0.0
 40
1.0
100
AcDbArc
 50
0.000000000000007
 51
90.0
1001
GENIUS_GENODEF_13
1002
{
1000
HIER
1070
     0
1002
}
1002
{
1000
MANEDIT
1070
     0
1002
}
1002
{
1000
NOSEL
1070
     0
1002
}
1002
{
1000
BEHIND
1070
     0
1002
}
1002
{
1000
OTHER
1070
     0
1002
}
1002
{
1000
REACTOR
1002
}
1001
GENIUS_GENOBJ-N-FIL_13
1002
{
1000
OWNER
1000
GEN
1002
}
  0
LINE
  5
2501
330
1F
100
AcDbEntity
  8
TK1
100
AcDbLine
 10
75.62644801903203
 20
87.99708631555267
 30
0.0
 11
75.74656568460486
 21
87.99708631555265
 31
0.0
  0
LINE
  5
2502
330
1F
100
AcDbEntity
  8
TK1
100
AcDbLine
 10
81.94656568460468
 20
88.99708631555268
 30
0.0
 11
81.94656568460468
 21
79.99708631555266
 31
0.0
  0
LINE
  5
2503
330
1F
100
AcDbEntity
  8
TK1
100
AcDbLine
 10
71.51156568460473
 20
79.99708631555266
 30
0.0
 11
73.76067464441357
 21
89.23367341949058
 31
0.0
  0
ARC
  5
2504
330
1F
100
AcDbEntity
  8
TK1
100
AcDbCircle
 10
74.73228492752619
 20
88.99708631555265
 30
0.0
 40
1.0
100
AcDbArc
 50
90.0
 51
166.3148043997766
1001
GENIUS_GENODEF_13
1002
{
1000
HIER
1070
     0
1002
}
1002
{
1000
MANEDIT
1070
     0
1002
}
1002
{
1000
NOSEL
1070
     0
1002
}
1002
{
1000
BEHIND
1070
     0
1002
}
1002
{
1000
OTHER
1070
     0
1002
}
1002
{
1000
REACTOR
1002
}
1001
GENIUS_GENOBJ-N-FIL_13
1002
{
1000
OWNER
1000
GEN
1002
}
  0
LINE
  5
2505
330
1F
100
AcDbEntity
  8
TK1
100
AcDbLine
 10
75.74656568460486
 20
87.99708631555265
 30
0.0
 11
75.74656568460486
 21
79.99708631555266
 31
0.0
  0
LINE
  5
2506
330
1F
100
AcDbEntity
  8
TK1
100
AcDbLine
 10
82.69656568460451
 20
76.49708631555265
 30
0.0
 11
82.69656568460451
 21
79.99708631555266
 31
0.0
  0
LINE
  5
2507
330
1F
100
AcDbEntity
  8
TK1
100
AcDbLine
 10
81.19656568460451
 20
76.49708631555265
 30
0.0
 11
81.19656568460451
 21
79.99708631555266
 31
0.0
  0
LINE
  5
2508
330
1F
100
AcDbEntity
  8
TK1
100
AcDbLine
 10
61.19656568460456
 20
79.99708631555265
 30
0.0
 11
61.19656568460456
 21
76.49708631555265
 31
0.0
  0
LINE
  5
2509
330
1F
100
AcDbEntity
  8
TK1
100
AcDbLine
 10
59.69656568460457
 20
79.99708631555265
 30
0.0
 11
59.69656568460457
 21
76.49708631555265
 31
0.0
  0
LINE
  5
250A
330
1F
100
AcDbEntity
  8
TK1
100
AcDbLine
 10
74.73228492752619
 20
89.99708631555265
 30
0.0
 11
80.94656568460468
 21
89.99708631555266
 31
0.0
  0
LINE
  5
250B
330
1F
100
AcDbEntity
  8
TK1
100
AcDbLine
 10
75.23780390578699
 20
87.69172115712782
 30
0.0
 11
73.36416032186352
 21
79.99708631555266
 31
0.0
  0
ARC
  5
250C
330
1F
100
AcDbEntity
  8
TK1
100
AcDbCircle
 10
75.62644801903203
 20
87.59708631555266
 30
0.0
 40
0.4
100
AcDbArc
 50
90.0
 51
166.314804399777
1001
GENIUS_GENODEF_13
1002
{
1000
HIER
1070
     0
1002
}
1002
{
1000
MANEDIT
1070
     0
1002
}
1002
{
1000
NOSEL
1070
     0
1002
}
1002
{
1000
BEHIND
1070
     0
1002
}
1002
{
1000
OTHER
1070
     0
1002
}
1002
{
1000
REACTOR
1002
}
1001
GENIUS_GENOBJ-N-FIL_13
1002
{
1000
OWNER
1000
GEN
1002
}
  0
LINE
  5
25FE
330
1F
100
AcDbEntity
  8
TK1
100
AcDbLine
 10
109.4465656846046
 20
90.49708631555265
 30
0.0
 11
179.5349088741593
 21
90.49708631555265
 31
0.0
  0
LINE
  5
2744
330
1F
100
AcDbEntity
  8
TK1
100
AcDbLine
 10
251.4829493599525
 20
235.5035474384879
 30
0.0
 11
261.9829493599525
 21
238.9152042489334
 31
0.0
  0
ARC
  5
276B
330
1F
100
AcDbEntity
  8
TK1
100
AcDbCircle
 10
253.9829493599525
 20
233.6871911184745
 30
0.0
 40
2.5
100
AcDbArc
 50
108.0
 51
180.0
1001
GENIUS_GENODEF_13
1002
{
1000
HIER
1070
     0
1002
}
1002
{
1000
MANEDIT
1070
     0
1002
}
1002
{
1000
NOSEL
1070
     0
1002
}
1002
{
1000
BEHIND
1070
     0
1002
}
1002
{
1000
OTHER
1070
     0
1002
}
1002
{
1000
REACTOR
1002
}
1001
GENIUS_GENOBJ-N-FIL_13
1002
{
1000
OWNER
1000
GEN
1002
}
  0
LINE
  5
277B
330
1F
100
AcDbEntity
  8
TK10
100
AcDbLine
 10
253.4829493599525
 20
234.5761934945962
 30
0.0
 11
253.4829493599525
 21
194.2542150032705
 31
0.0
  0
LINE
  5
278B
330
1F
100
AcDbEntity
  8
TK10
100
AcDbLine
 10
253.4829493599525
 20
234.5761934945962
 30
0.0
 11
265.4829493599526
 21
238.4752298493912
 31
0.0
  0
LINE
  5
278C
330
1F
100
AcDbEntity
  8
TK1
100
AcDbLine
 10
251.4829493599525
 20
193.326861059379
 30
0.0
 11
251.4829493599525
 21
214.4152042489335
 31
0.0
  0
ARC
  5
278D
330
1F
100
AcDbEntity
  8
TK1
100
AcDbCircle
 10
253.9829493599525
 20
195.1432173793924
 30
0.0
 40
2.5
100
AcDbArc
 50
180.0
 51
252.0
1001
GENIUS_GENODEF_13
1002
{
1000
HIER
1070
     0
1002
}
1002
{
1000
MANEDIT
1070
     0
1002
}
1002
{
1000
NOSEL
1070
     0
1002
}
1002
{
1000
BEHIND
1070
     0
1002
}
1002
{
1000
OTHER
1070
     0
1002
}
1002
{
1000
REACTOR
1002
}
1001
GENIUS_GENOBJ-N-FIL_13
1002
{
1000
OWNER
1000
GEN
1002
}
  0
LINE
  5
278E
330
1F
100
AcDbEntity
  8
TK1
100
AcDbLine
 10
251.4829493599525
 20
193.326861059379
 30
0.0
 11
261.9829493599525
 21
189.9152042489335
 31
0.0
  0
LINE
  5
278F
330
1F
100
AcDbEntity
  8
TK10
100
AcDbLine
 10
253.4829493599525
 20
194.2542150032706
 30
0.0
 11
265.4829493599526
 21
190.3551786484757
 31
0.0
  0
LINE
  5
27FB
330
1F
100
AcDbEntity
  8
TK1
100
AcDbLine
 10
179.5349088741592
 20
90.49708631555267
 30
0.0
 11
182.9465656846048
 21
79.99708631555265
 31
0.0
  0
ARC
  5
280A
330
1F
100
AcDbEntity
  8
TK1
100
AcDbCircle
 10
177.7185525541459
 20
87.99708631555267
 30
0.0
 40
2.5
100
AcDbArc
 50
18.00000000000061
 51
90.0
1001
GENIUS_GENOBJ-N-FIL_13
1002
{
1000
OWNER
1000
GEN
1002
}
1001
GENIUS_GENODEF_13
1002
{
1000
HIER
1070
     0
1002
}
1002
{
1000
MANEDIT
1070
     0
1002
}
1002
{
1000
NOSEL
1070
     0
1002
}
1002
{
1000
BEHIND
1070
     0
1002
}
1002
{
1000
OTHER
1070
     0
1002
}
1002
{
1000
REACTOR
1002
}
  0
LINE
  5
281A
330
1F
100
AcDbEntity
  8
TK10
100
AcDbLine
 10
40.28557643894155
 20
88.49708631555262
 30
0.0
 11
73.58131568460468
 21
88.49708631555264
 31
0.0
  0
LINE
  5
282A
330
1F
100
AcDbEntity
  8
TK10
100
AcDbLine
 10
178.6075549302677
 20
88.49708631555269
 30
0.0
 11
182.5065912850627
 21
76.49708631555265
 31
0.0
  0
LINE
  5
282B
330
1F
100
AcDbEntity
  8
TK1
100
AcDbLine
 10
109.4465656846046
 20
90.49708631555265
 30
0.0
 11
41.17457881506337
 21
90.49708631555267
 31
0.0
  0
LINE
  5
282D
330
1F
100
AcDbEntity
  8
TK1
100
AcDbLine
 10
38.7969375243255
 20
88.76962880149006
 30
0.0
 11
35.94656568460434
 21
79.99708631555265
 31
0.0
  0
LINE
  5
282E
330
1F
100
AcDbEntity
  8
TK10
100
AcDbLine
 10
40.28557643894155
 20
88.49708631555269
 30
0.0
 11
36.38654008414656
 21
76.49708631555265
 31
0.0
  0
ARC
  5
282F
330
1F
100
AcDbEntity
  8
TK1
100
AcDbCircle
 10
41.17457881506337
 20
87.99708631555267
 30
0.0
 40
2.5
100
AcDbArc
 50
90.0
 51
161.9999999999994
1001
GENIUS_GENOBJ-N-FIL_13
1002
{
1000
OWNER
1000
GEN
1002
}
1001
GENIUS_GENODEF_13
1002
{
1000
HIER
1070
     0
1002
}
1002
{
1000
MANEDIT
1070
     0
1002
}
1002
{
1000
NOSEL
1070
     0
1002
}
1002
{
1000
BEHIND
1070
     0
1002
}
1002
{
1000
OTHER
1070
     0
1002
}
1002
{
1000
REACTOR
1002
}
  0
LINE
  5
2884
330
1F
100
AcDbEntity
  8
TK10
100
AcDbLine
 10
81.94656568460468
 20
88.49708631555264
 30
0.0
 11
136.9465656846046
 21
88.49708631555264
 31
0.0
  0
LINE
  5
2885
330
1F
100
AcDbEntity
  8
TK10
100
AcDbLine
 10
145.3118156846046
 20
88.49708631555268
 30
0.0
 11
178.6075549302677
 21
88.49708631555269
 31
0.0
  0
LINE
  5
28B6
330
1F
100
AcDbEntity
  8
TK2
100
AcDbLine
 10
184.4465656846046
 20
65.49708631555254
 30
0.0
 11
184.4465656846046
 21
59.49708631555253
 31
0.0
  0
LINE
  5
28EB
330
1F
100
AcDbEntity
  8
TK2
100
AcDbLine
 10
34.44656568460457
 20
59.49708631555253
 30
0.0
 11
109.4465656846046
 21
59.4970863155525
 31
0.0
  0
LINE
  5
28EC
330
1F
100
AcDbEntity
  8
TK2
100
AcDbLine
 10
34.44656568460462
 20
65.49708631555254
 30
0.0
 11
34.44656568460462
 21
59.49708631555253
 31
0.0
  0
LINE
  5
2930
330
1F
100
AcDbEntity
  8
TK20
100
AcDbLine
 10
36.0465656846047
 20
75.49708631555265
 30
0.0
 11
35.94656568460468
 21
59.49708631555253
 31
0.0
  0
LINE
  5
2963
330
1F
100
AcDbEntity
  8
TK20
100
AcDbLine
 10
182.8465656846045
 20
75.49708631555265
 30
0.0
 11
182.9465656846045
 21
59.49708631555253
 31
0.0
  0
LINE
  5
2971
330
1F
100
AcDbEntity
  8
AM_7
100
AcDbLine
 10
109.4465656846046
 20
93.49708631555264
 30
0.0
 11
109.4465656846046
 21
56.49708631555249
 31
0.0
1001
GENIUS_GENODEF_13
1002
{
1000
HIER
1070
     0
1002
}
1002
{
1000
MANEDIT
1070
     0
1002
}
1002
{
1000
NOSEL
1070
     0
1002
}
1002
{
1000
BEHIND
1070
     0
1002
}
1002
{
1000
OTHER
1070
     0
1002
}
1002
{
1000
REACTOR
1002
}
1001
GENIUS_GENOBJ-N-CEN_13
1002
{
1000
OWNER
1000
GEN
1002
}
1001
GENIUS_GENCEN_19
1002
{
1040
3.0
1002
}
  0
ARC
  5
297D
330
1F
100
AcDbEntity
  8
TK4
100
AcDbCircle
 10
186.4465656846046
 20
65.49708631555254
 30
0.0
 40
2.0
100
AcDbArc
 50
180.0000000000004
 51
359.9999999999996
  0
CIRCLE
  5
2995
330
1F
100
AcDbEntity
  8
TK40
100
AcDbCircle
 10
32.24656568460475
 20
73.49708631555265
 30
0.0
 40
2.0
  0
CIRCLE
  5
299B
330
1F
100
AcDbEntity
  8
TK40
100
AcDbCircle
 10
186.6465656846045
 20
73.49708631555265
 30
0.0
 40
2.0
  0
ARC
  5
299C
330
1F
100
AcDbEntity
  8
TK4
100
AcDbCircle
 10
32.44656568460462
 20
65.49708631555254
 30
0.0
 40
2.0
100
AcDbArc
 50
180.0000000000004
 51
359.9999999999996
  0
ARC
  5
299E
330
1F
100
AcDbEntity
  8
TK3
100
AcDbCircle
 10
205.6436328089577
 20
127.1198519748599
 30
0.0
 40
1.0
100
AcDbArc
 50
90.0
 51
180.0
1001
GENIUS_GENOBJ-N-FIL_13
1002
{
1000
OWNER
1000
GEN
1002
}
1001
GENIUS_GENODEF_13
1002
{
1000
HIER
1070
     0
1002
}
1002
{
1000
MANEDIT
1070
     0
1002
}
1002
{
1000
NOSEL
1070
     0
1002
}
1002
{
1000
BEHIND
1070
     0
1002
}
1002
{
1000
OTHER
1070
     0
1002
}
1002
{
1000
REACTOR
1002
}
  0
ARC
  5
299F
330
1F
100
AcDbEntity
  8
TK3
100
AcDbCircle
 10
205.6436328089577
 20
118.1198519748599
 30
0.0
 40
1.0
100
AcDbArc
 50
180.0
 51
270.0
1001
GENIUS_GENODEF_13
1002
{
1000
HIER
1070
     0
1002
}
1002
{
1000
MANEDIT
1070
     0
1002
}
1002
{
1000
NOSEL
1070
     0
1002
}
1002
{
1000
BEHIND
1070
     0
1002
}
1002
{
1000
OTHER
1070
     0
1002
}
1002
{
1000
REACTOR
1002
}
1001
GENIUS_GENOBJ-N-FIL_13
1002
{
1000
OWNER
1000
GEN
1002
}
  0
LINE
  5
29A0
330
1F
100
AcDbEntity
  8
TK3
100
AcDbLine
 10
208.6436328089577
 20
117.1198519748599
 30
0.0
 11
208.6436328089577
 21
128.1198519748599
 31
0.0
  0
LINE
  5
29A1
102
{ACAD_REACTORS
330
33F3
102
}
330
1F
100
AcDbEntity
  8
TK3
100
AcDbLine
 10
205.6436328089577
 20
128.1198519748599
 30
0.0
 11
208.6436328089577
 21
128.1198519748599
 31
0.0
  0
LINE
  5
29A2
330
1F
100
AcDbEntity
  8
TK3
100
AcDbLine
 10
205.6436328089577
 20
117.1198519748599
 30
0.0
 11
208.6436328089577
 21
117.1198519748599
 31
0.0
  0
LINE
  5
29A3
102
{ACAD_REACTORS
330
33F3
102
}
330
1F
100
AcDbEntity
  8
TK3
100
AcDbLine
 10
204.6436328089577
 20
118.1198519748599
 30
0.0
 11
204.6436328089577
 21
127.1198519748599
 31
0.0
  0
LINE
  5
29A4
330
1F
100
AcDbEntity
  8
AM_7
  6
AM_ISO08W050x2
100
AcDbLine
 10
201.6436328089577
 20
122.6198519748599
 30
0.0
 11
211.6436328089577
 21
122.6198519748599
 31
0.0
1001
GENIUS_GENOBJ-N-CEN_13
1002
{
1000
OWNER
1000
GEN
1002
}
1001
GENIUS_GENODEF_13
1002
{
1000
HIER
1070
     0
1002
}
1002
{
1000
MANEDIT
1070
     0
1002
}
1002
{
1000
NOSEL
1070
     0
1002
}
1002
{
1000
BEHIND
1070
     0
1002
}
1002
{
1000
OTHER
1070
     0
1002
}
1002
{
1000
REACTOR
1002
}
  0
LINE
  5
29CE
102
{ACAD_REACTORS
330
33BD
102
}
330
1F
100
AcDbEntity
  8
TK3
100
AcDbLine
 10
191.1965656846046
 20
120.1198519748599
 30
0.0
 11
191.1965656846046
 21
125.11985197486
 31
0.0
  0
ARC
  5
29E2
330
1F
100
AcDbEntity
  8
TK3
100
AcDbCircle
 10
188.1965656846045
 20
125.11985197486
 30
0.0
 40
3.0
100
AcDbArc
 50
0.0
 51
90.0
1001
GENIUS_GENOBJ-N-FIL_13
1002
{
1000
OWNER
1000
GEN
1002
}
1001
GENIUS_GENODEF_13
1002
{
1000
HIER
1070
     0
1002
}
1002
{
1000
MANEDIT
1070
     0
1002
}
1002
{
1000
NOSEL
1070
     0
1002
}
1002
{
1000
BEHIND
1070
     0
1002
}
1002
{
1000
OTHER
1070
     0
1002
}
1002
{
1000
REACTOR
1002
}
  0
ARC
  5
29E4
330
1F
100
AcDbEntity
  8
TK3
100
AcDbCircle
 10
188.1965656846045
 20
120.1198519748599
 30
0.0
 40
3.0
100
AcDbArc
 50
270.0
 51
0.0
1001
GENIUS_GENOBJ-N-FIL_13
1002
{
1000
OWNER
1000
GEN
1002
}
1001
GENIUS_GENODEF_13
1002
{
1000
HIER
1070
     0
1002
}
1002
{
1000
MANEDIT
1070
     0
1002
}
1002
{
1000
NOSEL
1070
     0
1002
}
1002
{
1000
BEHIND
1070
     0
1002
}
1002
{
1000
OTHER
1070
     0
1002
}
1002
{
1000
REACTOR
1002
}
  0
LWPOLYLINE
  5
2A0B
330
1F
100
AcDbEntity
  8
TK3
100
AcDbPolyline
 90
        8
 70
     1
 43
0.0
 10
178.1465656846045
 20
121.0198519748599
 10
180.7465656846045
 20
121.0198519748599
 42
0.4142135623730951
 10
181.7465656846045
 20
122.0198519748599
 10
181.7465656846045
 20
123.2198519748599
 42
0.4142135623730951
 10
180.7465656846045
 20
124.2198519748599
 10
178.1465656846045
 20
124.2198519748599
 42
0.4142135623730951
 10
177.1465656846045
 20
123.2198519748599
 10
177.1465656846045
 20
122.0198519748599
 42
0.4142135623730989
1001
GENIUS_GENREC_14
1002
{
1000
PYDIR
1011
177.1465656846045
1021
124.2198519748599
1031
0.0
1002
}
1002
{
1000
PXDIR
1011
181.7465656846045
1021
121.0198519748599
1031
0.0
1002
}
1002
{
1000
PORI
1011
177.1465656846045
1021
121.0198519748599
1031
0.0
1002
}
1002
{
1000
PINS
1011
179.4465656846045
1021
122.6198519748599
1031
0.0
1002
}
1002
{
1000
HVAL
1000
3.2
1002
}
1002
{
1000
H
1070
     2
1002
}
1002
{
1000
WVAL
1000
4.6
1002
}
1002
{
1000
W
1070
     2
1002
}
1002
{
1000
C
1070
     4
1002
}
1001
GENIUS_GENODEF_13
1002
{
1000
HIER
1070
     0
1002
}
1002
{
1000
MANEDIT
1070
     0
1002
}
1002
{
1000
NOSEL
1070
     0
1002
}
1002
{
1000
BEHIND
1070
     0
1002
}
1002
{
1000
OTHER
1070
     0
1002
}
1002
{
1000
REACTOR
1002
}
1001
GENIUS_GENOBJ-N-REC_13
1002
{
1000
OWNER
1000
GEN
1002
}
  0
LINE
  5
2A27
330
1F
100
AcDbEntity
  8
AM_7
  6
AM_ISO08W050x2
100
AcDbLine
 10
109.4465656846045
 20
131.11985197486
 30
0.0
 11
109.4465656846047
 21
114.1198519748599
 31
0.0
1001
GENIUS_GENODEF_13
1002
{
1000
HIER
1070
     0
1002
}
1002
{
1000
MANEDIT
1070
     0
1002
}
1002
{
1000
NOSEL
1070
     0
1002
}
1002
{
1000
BEHIND
1070
     0
1002
}
1002
{
1000
OTHER
1070
     0
1002
}
1002
{
1000
REACTOR
1002
}
1001
GENIUS_GENOBJ-N-CEN_13
1002
{
1000
OWNER
1000
GEN
1002
}
1001
GENIUS_GENCEN_19
1002
{
1040
3.0
1002
}
  0
LINE
  5
2A28
330
1F
100
AcDbEntity
  8
TK3
100
AcDbLine
 10
109.4465656846046
 20
128.1198519748599
 30
0.0
 11
188.1965656846045
 21
128.1198519748599
 31
0.0
  0
LINE
  5
2A29
330
1F
100
AcDbEntity
  8
TK3
100
AcDbLine
 10
109.4465656846046
 20
117.1198519748599
 30
0.0
 11
188.1965656846045
 21
117.1198519748599
 31
0.0
  0
LINE
  5
2A31
330
1F
100
AcDbEntity
  8
TK3
100
AcDbLine
 10
109.4465656846045
 20
128.1198519748599
 30
0.0
 11
30.69656568460457
 21
128.1198519748587
 31
0.0
  0
LINE
  5
2A32
102
{ACAD_REACTORS
330
3346
102
}
330
1F
100
AcDbEntity
  8
TK3
100
AcDbLine
 10
109.4465656846046
 20
117.1198519748599
 30
0.0
 11
30.69656568460479
 21
117.1198519748587
 31
0.0
  0
LINE
  5
2A33
330
1F
100
AcDbEntity
  8
TK3
100
AcDbLine
 10
27.69656568460474
 20
120.1198519748586
 30
0.0
 11
27.69656568460468
 21
125.1198519748587
 31
0.0
  0
ARC
  5
2A34
330
1F
100
AcDbEntity
  8
TK3
100
AcDbCircle
 10
30.69656568460473
 20
120.1198519748587
 30
0.0
 40
3.0
100
AcDbArc
 50
180.0000000000009
 51
270.0000000000009
1001
GENIUS_GENOBJ-N-FIL_13
1002
{
1000
OWNER
1000
GEN
1002
}
1001
GENIUS_GENODEF_13
1002
{
1000
HIER
1070
     0
1002
}
1002
{
1000
MANEDIT
1070
     0
1002
}
1002
{
1000
NOSEL
1070
     0
1002
}
1002
{
1000
BEHIND
1070
     0
1002
}
1002
{
1000
OTHER
1070
     0
1002
}
1002
{
1000
REACTOR
1002
}
  0
ARC
  5
2A35
102
{ACAD_REACTORS
330
3346
330
33BD
102
}
330
1F
100
AcDbEntity
  8
TK3
100
AcDbCircle
 10
30.69656568460468
 20
125.1198519748587
 30
0.0
 40
3.0
100
AcDbArc
 50
90.0000000000009
 51
180.0000000000009
1001
GENIUS_GENOBJ-N-FIL_13
1002
{
1000
OWNER
1000
GEN
1002
}
1001
GENIUS_GENODEF_13
1002
{
1000
HIER
1070
     0
1002
}
1002
{
1000
MANEDIT
1070
     0
1002
}
1002
{
1000
NOSEL
1070
     0
1002
}
1002
{
1000
BEHIND
1070
     0
1002
}
1002
{
1000
OTHER
1070
     0
1002
}
1002
{
1000
REACTOR
1002
}
  0
LWPOLYLINE
  5
2A36
102
{ACAD_REACTORS
330
337B
102
}
330
1F
100
AcDbEntity
  8
TK3
100
AcDbPolyline
 90
        8
 70
     1
 43
0.0
 10
40.74656568460477
 20
121.0198519748589
 10
38.14656568460478
 20
121.0198519748588
 42
-0.4142135623730951
 10
37.14656568460478
 20
122.0198519748588
 10
37.14656568460475
 20
123.2198519748588
 42
-0.4142135623730951
 10
38.14656568460473
 20
124.2198519748588
 10
40.74656568460468
 20
124.2198519748588
 42
-0.4142135623730951
 10
41.74656568460472
 20
123.2198519748588
 10
41.74656568460477
 20
122.0198519748588
 42
-0.4142135623730989
1001
GENIUS_GENREC_14
1002
{
1000
PYDIR
1011
41.74656568460472
1021
124.2198519748588
1031
0.0
1002
}
1002
{
1000
PXDIR
1011
37.14656568460478
1021
121.0198519748588
1031
0.0
1002
}
1002
{
1000
PORI
1011
41.74656568460477
1021
121.0198519748589
1031
0.0
1002
}
1002
{
1000
PINS
1011
39.44656568460473
1021
122.6198519748588
1031
0.0
1002
}
1002
{
1000
HVAL
1000
3.2
1002
}
1002
{
1000
H
1070
     2
1002
}
1002
{
1000
WVAL
1000
4.6
1002
}
1002
{
1000
W
1070
     2
1002
}
1002
{
1000
C
1070
     4
1002
}
1001
GENIUS_GENODEF_13
1002
{
1000
HIER
1070
     0
1002
}
1002
{
1000
MANEDIT
1070
     0
1002
}
1002
{
1000
NOSEL
1070
     0
1002
}
1002
{
1000
BEHIND
1070
     0
1002
}
1002
{
1000
OTHER
1070
     0
1002
}
1002
{
1000
REACTOR
1002
}
1001
GENIUS_GENOBJ-N-REC_13
1002
{
1000
OWNER
1000
GEN
1002
}
  0
LINE
  5
2AD0
330
1F
100
AcDbEntity
  8
TK1
100
AcDbLine
 10
109.4465656846047
 20
235.5035474384878
 30
0.0
 11
175.9349088741593
 21
235.5035474384878
 31
0.0
  0
LINE
  5
2AD6
330
1F
100
AcDbEntity
  8
TK1
100
AcDbLine
 10
109.4465656846046
 20
193.326861059379
 30
0.0
 11
175.9349088741593
 21
193.326861059379
 31
0.0
  0
LINE
  5
2ADD
330
1F
100
AcDbEntity
  8
TK1
100
AcDbLine
 10
179.5349088741593
 20
196.926861059379
 30
0.0
 11
179.5349088741593
 21
231.9035474384878
 31
0.0
  0
ARC
  5
2B85
330
1F
100
AcDbEntity
  8
TK1
100
AcDbCircle
 10
175.9349088741593
 20
231.9035474384878
 30
0.0
 40
3.6
100
AcDbArc
 50
0.0
 51
90.0
1001
GENIUS_GENODEF_13
1002
{
1000
HIER
1070
     0
1002
}
1002
{
1000
MANEDIT
1070
     0
1002
}
1002
{
1000
NOSEL
1070
     0
1002
}
1002
{
1000
BEHIND
1070
     0
1002
}
1002
{
1000
OTHER
1070
     0
1002
}
1002
{
1000
REACTOR
1002
}
1001
GENIUS_GENOBJ-N-FIL_13
1002
{
1000
OWNER
1000
GEN
1002
}
  0
ARC
  5
2B87
330
1F
100
AcDbEntity
  8
TK1
100
AcDbCircle
 10
175.9349088741593
 20
196.926861059379
 30
0.0
 40
3.6
100
AcDbArc
 50
270.0
 51
0.0
1001
GENIUS_GENOBJ-N-FIL_13
1002
{
1000
OWNER
1000
GEN
1002
}
1001
GENIUS_GENODEF_13
1002
{
1000
HIER
1070
     0
1002
}
1002
{
1000
MANEDIT
1070
     0
1002
}
1002
{
1000
NOSEL
1070
     0
1002
}
1002
{
1000
BEHIND
1070
     0
1002
}
1002
{
1000
OTHER
1070
     0
1002
}
1002
{
1000
REACTOR
1002
}
  0
LINE
  5
2B95
330
1F
100
AcDbEntity
  8
AM_7
  6
AM_ISO08W050x2
100
AcDbLine
 10
39.44656568460477
 20
247.9152042489334
 30
0.0
 11
42.56624347248828
 21
247.9152042489334
 31
0.0
1001
GENIUS_GENOREF_13
1005
2B99
  0
LINE
  5
2B96
330
1F
100
AcDbEntity
  8
AM_7
  6
AM_ISO08W050x2
100
AcDbLine
 10
39.44656568460477
 20
247.9152042489334
 30
0.0
 11
39.44656568460477
 21
251.0348820368169
 31
0.0
1001
GENIUS_GENOREF_13
1005
2B99
  0
LINE
  5
2B97
330
1F
100
AcDbEntity
  8
AM_7
  6
AM_ISO08W050x2
100
AcDbLine
 10
39.44656568460477
 20
247.9152042489334
 30
0.0
 11
36.32688789672125
 21
247.9152042489334
 31
0.0
1001
GENIUS_GENOREF_13
1005
2B99
  0
LINE
  5
2B98
330
1F
100
AcDbEntity
  8
AM_7
  6
AM_ISO08W050x2
100
AcDbLine
 10
39.44656568460477
 20
247.9152042489334
 30
0.0
 11
39.44656568460477
 21
244.79552646105
 31
0.0
1001
GENIUS_GENOREF_13
1005
2B99
  0
POINT
  5
2B99
330
1F
100
AcDbEntity
  8
0
 60
     1
100
AcDbPoint
 10
0.0
 20
0.0
 30
0.0
1001
GENIUS_GENOLIS_13
1002
{
1000
ENT
1005
2B98
1005
2B97
1005
2B96
1005
2B95
1002
}
1001
GENIUS_GENOBJ-N-CRS_13
1002
{
1000
OWNER
1000
GEN
1002
}
1001
GENIUS_GENOENT_13
1002
{
1000
MYREF
1005
2B99
1002
}
1002
{
1000
GRP
1005
0
1002
}
1001
GENIUS_GENODEF_13
1002
{
1000
HIER
1070
    10
1002
}
1002
{
1000
MANEDIT
1070
     0
1002
}
1002
{
1000
NOSEL
1070
     0
1002
}
1002
{
1000
BEHIND
1070
     0
1002
}
1002
{
1000
OTHER
1070
     0
1002
}
1002
{
1000
REACTOR
1002
}
  0
LINE
  5
2B9A
330
1F
100
AcDbEntity
  8
AM_7
  6
AM_ISO08W050x2
100
AcDbLine
 10
179.4465656846048
 20
247.9152042489331
 30
0.0
 11
182.5662434724883
 21
247.9152042489331
 31
0.0
1001
GENIUS_GENOREF_13
1005
2B9E
  0
LINE
  5
2B9B
330
1F
100
AcDbEntity
  8
AM_7
  6
AM_ISO08W050x2
100
AcDbLine
 10
179.4465656846048
 20
247.9152042489331
 30
0.0
 11
179.4465656846048
 21
251.0348820368166
 31
0.0
1001
GENIUS_GENOREF_13
1005
2B9E
  0
LINE
  5
2B9C
330
1F
100
AcDbEntity
  8
AM_7
  6
AM_ISO08W050x2
100
AcDbLine
 10
179.4465656846048
 20
247.9152042489331
 30
0.0
 11
176.3268878967213
 21
247.9152042489331
 31
0.0
1001
GENIUS_GENOREF_13
1005
2B9E
  0
LINE
  5
2B9D
330
1F
100
AcDbEntity
  8
AM_7
  6
AM_ISO08W050x2
100
AcDbLine
 10
179.4465656846048
 20
247.9152042489331
 30
0.0
 11
179.4465656846048
 21
244.7955264610496
 31
0.0
1001
GENIUS_GENOREF_13
1005
2B9E
  0
POINT
  5
2B9E
330
1F
100
AcDbEntity
  8
0
 60
     1
100
AcDbPoint
 10
140.0
 20
-0.0000000000003126
 30
0.0
1001
GENIUS_GENOLIS_13
1002
{
1000
ENT
1005
2B9D
1005
2B9C
1005
2B9B
1005
2B9A
1002
}
1001
GENIUS_GENOBJ-N-CRS_13
1002
{
1000
OWNER
1000
GEN
1002
}
1001
GENIUS_GENOENT_13
1002
{
1000
MYREF
1005
2B9E
1002
}
1002
{
1000
GRP
1005
0
1002
}
1001
GENIUS_GENODEF_13
1002
{
1000
HIER
1070
    10
1002
}
1002
{
1000
MANEDIT
1070
     0
1002
}
1002
{
1000
NOSEL
1070
     0
1002
}
1002
{
1000
BEHIND
1070
     0
1002
}
1002
{
1000
OTHER
1070
     0
1002
}
1002
{
1000
REACTOR
1002
}
  0
LINE
  5
2B9F
330
1F
100
AcDbEntity
  8
AM_7
  6
AM_ISO08W050x2
100
AcDbLine
 10
179.4465656846045
 20
180.9152042489329
 30
0.0
 11
182.566243472488
 21
180.9152042489329
 31
0.0
1001
GENIUS_GENOREF_13
1005
2BA3
  0
LINE
  5
2BA0
330
1F
100
AcDbEntity
  8
AM_7
  6
AM_ISO08W050x2
100
AcDbLine
 10
179.4465656846045
 20
180.9152042489329
 30
0.0
 11
179.4465656846045
 21
184.0348820368164
 31
0.0
1001
GENIUS_GENOREF_13
1005
2BA3
  0
LINE
  5
2BA1
330
1F
100
AcDbEntity
  8
AM_7
  6
AM_ISO08W050x2
100
AcDbLine
 10
179.4465656846045
 20
180.9152042489329
 30
0.0
 11
176.326887896721
 21
180.9152042489329
 31
0.0
1001
GENIUS_GENOREF_13
1005
2BA3
  0
LINE
  5
2BA2
330
1F
100
AcDbEntity
  8
AM_7
  6
AM_ISO08W050x2
100
AcDbLine
 10
179.4465656846045
 20
180.9152042489329
 30
0.0
 11
179.4465656846045
 21
177.7955264610494
 31
0.0
1001
GENIUS_GENOREF_13
1005
2BA3
  0
POINT
  5
2BA3
330
1F
100
AcDbEntity
  8
0
 60
     1
100
AcDbPoint
 10
139.9999999999997
 20
-67.00000000000054
 30
0.0
1001
GENIUS_GENOLIS_13
1002
{
1000
ENT
1005
2BA2
1005
2BA1
1005
2BA0
1005
2B9F
1002
}
1001
GENIUS_GENOBJ-N-CRS_13
1002
{
1000
OWNER
1000
GEN
1002
}
1001
GENIUS_GENOENT_13
1002
{
1000
MYREF
1005
2BA3
1002
}
1002
{
1000
GRP
1005
0
1002
}
1001
GENIUS_GENODEF_13
1002
{
1000
HIER
1070
    10
1002
}
1002
{
1000
MANEDIT
1070
     0
1002
}
1002
{
1000
NOSEL
1070
     0
1002
}
1002
{
1000
BEHIND
1070
     0
1002
}
1002
{
1000
OTHER
1070
     0
1002
}
1002
{
1000
REACTOR
1002
}
  0
LINE
  5
2BA4
330
1F
100
AcDbEntity
  8
AM_7
  6
AM_ISO08W050x2
100
AcDbLine
 10
39.44656568460477
 20
180.9152042489333
 30
0.0
 11
42.56624347248828
 21
180.9152042489333
 31
0.0
1001
GENIUS_GENOREF_13
1005
2BA8
  0
LINE
  5
2BA5
330
1F
100
AcDbEntity
  8
AM_7
  6
AM_ISO08W050x2
100
AcDbLine
 10
39.44656568460477
 20
180.9152042489333
 30
0.0
 11
39.44656568460477
 21
184.0348820368168
 31
0.0
1001
GENIUS_GENOREF_13
1005
2BA8
  0
LINE
  5
2BA6
330
1F
100
AcDbEntity
  8
AM_7
  6
AM_ISO08W050x2
100
AcDbLine
 10
39.44656568460477
 20
180.9152042489333
 30
0.0
 11
36.32688789672125
 21
180.9152042489333
 31
0.0
1001
GENIUS_GENOREF_13
1005
2BA8
  0
LINE
  5
2BA7
330
1F
100
AcDbEntity
  8
AM_7
  6
AM_ISO08W050x2
100
AcDbLine
 10
39.44656568460477
 20
180.9152042489333
 30
0.0
 11
39.44656568460477
 21
177.7955264610498
 31
0.0
1001
GENIUS_GENOREF_13
1005
2BA8
  0
POINT
  5
2BA8
330
1F
100
AcDbEntity
  8
0
 60
     1
100
AcDbPoint
 10
0.0
 20
-67.00000000000011
 30
0.0
1001
GENIUS_GENOLIS_13
1002
{
1000
ENT
1005
2BA7
1005
2BA6
1005
2BA5
1005
2BA4
1002
}
1001
GENIUS_GENOBJ-N-CRS_13
1002
{
1000
OWNER
1000
GEN
1002
}
1001
GENIUS_GENOENT_13
1002
{
1000
MYREF
1005
2BA8
1002
}
1002
{
1000
GRP
1005
0
1002
}
1001
GENIUS_GENODEF_13
1002
{
1000
HIER
1070
    10
1002
}
1002
{
1000
MANEDIT
1070
     0
1002
}
1002
{
1000
NOSEL
1070
     0
1002
}
1002
{
1000
BEHIND
1070
     0
1002
}
1002
{
1000
OTHER
1070
     0
1002
}
1002
{
1000
REACTOR
1002
}
  0
LINE
  5
2BD1
330
1F
100
AcDbEntity
  8
TK6
100
AcDbLine
 10
318.4087350978423
 20
182.4152042489333
 30
0.0
 11
329.4087350978424
 21
182.4152042489333
 31
0.0
  0
LINE
  5
2BDA
330
1F
100
AcDbEntity
  8
TK6
100
AcDbLine
 10
318.4087350978423
 20
179.4152042489333
 30
0.0
 11
329.4087350978424
 21
179.4152042489333
 31
0.0
  0
LINE
  5
2BF1
330
1F
100
AcDbEntity
  8
TK60
100
AcDbLine
 10
318.4087350978423
 20
182.1652042489333
 30
0.0
 11
329.4087350978424
 21
182.1652042489333
 31
0.0
  0
LINE
  5
2C05
330
1F
100
AcDbEntity
  8
TK60
100
AcDbLine
 10
318.4087350978423
 20
179.6652042489333
 30
0.0
 11
329.4087350978424
 21
179.6652042489333
 31
0.0
  0
LINE
  5
2C14
330
1F
100
AcDbEntity
  8
TK6
100
AcDbLine
 10
329.4087350978424
 20
184.1652042489333
 30
0.0
 11
330.2087350978424
 21
184.1652042489333
 31
0.0
  0
LINE
  5
2C1D
330
1F
100
AcDbEntity
  8
TK6
100
AcDbLine
 10
330.2087350978424
 20
183.4152042489333
 30
0.0
 11
331.9087350978424
 21
183.4152042489333
 31
0.0
  0
LINE
  5
2C30
330
1F
100
AcDbEntity
  8
TK6
100
AcDbLine
 10
330.2087350978424
 20
184.1652042489333
 30
0.0
 11
330.2087350978424
 21
180.9152042489333
 31
0.0
  0
LINE
  5
2C37
330
1F
100
AcDbEntity
  8
TK6
100
AcDbLine
 10
329.4087350978424
 20
184.1652042489333
 30
0.0
 11
329.4087350978424
 21
180.9152042489333
 31
0.0
  0
LINE
  5
2C52
330
1F
100
AcDbEntity
  8
TK6
100
AcDbLine
 10
331.9087350978424
 20
183.4152042489333
 30
0.0
 11
331.9087350978424
 21
180.9152042489333
 31
0.0
  0
LINE
  5
2C5A
330
1F
100
AcDbEntity
  8
TK6
100
AcDbLine
 10
329.4087350978424
 20
177.6652042489333
 30
0.0
 11
330.2087350978424
 21
177.6652042489333
 31
0.0
  0
LINE
  5
2C5B
330
1F
100
AcDbEntity
  8
TK6
100
AcDbLine
 10
330.2087350978424
 20
178.4152042489333
 30
0.0
 11
331.9087350978424
 21
178.4152042489333
 31
0.0
  0
LINE
  5
2C5C
330
1F
100
AcDbEntity
  8
TK6
100
AcDbLine
 10
330.2087350978424
 20
177.6652042489333
 30
0.0
 11
330.2087350978424
 21
180.9152042489333
 31
0.0
  0
LINE
  5
2C5D
330
1F
100
AcDbEntity
  8
TK6
100
AcDbLine
 10
329.4087350978424
 20
177.6652042489333
 30
0.0
 11
329.4087350978424
 21
180.9152042489333
 31
0.0
  0
LINE
  5
2C5E
330
1F
100
AcDbEntity
  8
TK6
100
AcDbLine
 10
331.9087350978424
 20
178.4152042489333
 30
0.0
 11
331.9087350978424
 21
180.9152042489333
 31
0.0
  0
CIRCLE
  5
2C8B
330
1F
100
AcDbEntity
  8
TK6
100
AcDbCircle
 10
342.3321827435783
 20
180.9152042489333
 30
0.0
 40
3.25
  0
LWPOLYLINE
  5
2C96
330
1F
100
AcDbEntity
  8
TK6
100
AcDbPolyline
 90
        6
 70
     1
 43
0.0
 10
341.0821827435783
 20
183.0802677583944
 10
339.8321827435783
 20
180.9152042489333
 10
341.0821827435783
 20
178.7501407394722
 10
343.5821827435783
 20
178.7501407394722
 10
344.8321827435783
 20
180.9152042489333
 10
343.5821827435783
 20
183.0802677583944
  0
LINE
  5
2CAC
330
1F
100
AcDbEntity
  8
TK6
100
AcDbLine
 10
340.0919903647136
 20
181.3652042489333
 30
0.0
 11
344.572375122443
 21
181.3652042489333
 31
0.0
  0
LINE
  5
2CC0
330
1F
100
AcDbEntity
  8
TK6
100
AcDbLine
 10
340.0919903647136
 20
180.4652042489333
 30
0.0
 11
344.572375122443
 21
180.4652042489333
 31
0.0
  0
LINE
  5
2CD8
330
1F
100
AcDbEntity
  8
TK6
100
AcDbLine
 10
331.9087350978424
 20
181.3652042489333
 30
0.0
 11
330.5087350978424
 21
181.3652042489333
 31
0.0
  0
LINE
  5
2CDE
330
1F
100
AcDbEntity
  8
TK6
100
AcDbLine
 10
331.9087350978424
 20
180.4652042489333
 30
0.0
 11
330.5087350978424
 21
180.4652042489333
 31
0.0
  0
LINE
  5
2CF8
330
1F
100
AcDbEntity
  8
TK6
100
AcDbLine
 10
330.5087350978424
 20
181.3652042489333
 30
0.0
 11
330.5087350978424
 21
180.4652042489333
 31
0.0
  0
LINE
  5
2D08
330
1F
100
AcDbEntity
  8
TK6
100
AcDbLine
 10
318.4087350978423
 20
249.4152042489334
 30
0.0
 11
329.4087350978423
 21
249.4152042489334
 31
0.0
  0
LINE
  5
2D09
330
1F
100
AcDbEntity
  8
TK6
100
AcDbLine
 10
318.4087350978423
 20
246.4152042489335
 30
0.0
 11
329.4087350978423
 21
246.4152042489335
 31
0.0
  0
LINE
  5
2D0A
330
1F
100
AcDbEntity
  8
TK60
100
AcDbLine
 10
318.4087350978423
 20
249.1652042489334
 30
0.0
 11
329.4087350978423
 21
249.1652042489334
 31
0.0
  0
LINE
  5
2D0B
330
1F
100
AcDbEntity
  8
TK60
100
AcDbLine
 10
318.4087350978423
 20
246.6652042489335
 30
0.0
 11
329.4087350978423
 21
246.6652042489335
 31
0.0
  0
LINE
  5
2D0C
330
1F
100
AcDbEntity
  8
TK6
100
AcDbLine
 10
329.4087350978423
 20
251.1652042489334
 30
0.0
 11
330.2087350978423
 21
251.1652042489334
 31
0.0
  0
LINE
  5
2D0D
330
1F
100
AcDbEntity
  8
TK6
100
AcDbLine
 10
330.2087350978423
 20
250.4152042489334
 30
0.0
 11
331.9087350978423
 21
250.4152042489334
 31
0.0
  0
LINE
  5
2D0E
330
1F
100
AcDbEntity
  8
TK6
100
AcDbLine
 10
330.2087350978423
 20
251.1652042489334
 30
0.0
 11
330.2087350978423
 21
247.9152042489334
 31
0.0
  0
LINE
  5
2D0F
330
1F
100
AcDbEntity
  8
TK6
100
AcDbLine
 10
329.4087350978423
 20
251.1652042489334
 30
0.0
 11
329.4087350978423
 21
247.9152042489334
 31
0.0
  0
LINE
  5
2D10
330
1F
100
AcDbEntity
  8
TK6
100
AcDbLine
 10
331.9087350978423
 20
250.4152042489334
 30
0.0
 11
331.9087350978423
 21
247.9152042489334
 31
0.0
  0
LINE
  5
2D11
330
1F
100
AcDbEntity
  8
TK6
100
AcDbLine
 10
329.4087350978423
 20
244.6652042489334
 30
0.0
 11
330.2087350978423
 21
244.6652042489334
 31
0.0
  0
LINE
  5
2D12
330
1F
100
AcDbEntity
  8
TK6
100
AcDbLine
 10
330.2087350978423
 20
245.4152042489334
 30
0.0
 11
331.9087350978423
 21
245.4152042489334
 31
0.0
  0
LINE
  5
2D13
330
1F
100
AcDbEntity
  8
TK6
100
AcDbLine
 10
330.2087350978423
 20
244.6652042489334
 30
0.0
 11
330.2087350978423
 21
247.9152042489334
 31
0.0
  0
LINE
  5
2D14
330
1F
100
AcDbEntity
  8
TK6
100
AcDbLine
 10
329.4087350978423
 20
244.6652042489334
 30
0.0
 11
329.4087350978423
 21
247.9152042489334
 31
0.0
  0
LINE
  5
2D15
330
1F
100
AcDbEntity
  8
TK6
100
AcDbLine
 10
331.9087350978423
 20
245.4152042489334
 30
0.0
 11
331.9087350978423
 21
247.9152042489334
 31
0.0
  0
CIRCLE
  5
2D16
330
1F
100
AcDbEntity
  8
TK6
100
AcDbCircle
 10
342.3321827435783
 20
247.9152042489334
 30
0.0
 40
3.25
  0
LWPOLYLINE
  5
2D17
330
1F
100
AcDbEntity
  8
TK6
100
AcDbPolyline
 90
        6
 70
     1
 43
0.0
 10
341.0821827435782
 20
250.0802677583946
 10
339.8321827435783
 20
247.9152042489334
 10
341.0821827435782
 20
245.7501407394723
 10
343.5821827435782
 20
245.7501407394723
 10
344.8321827435782
 20
247.9152042489334
 10
343.5821827435782
 20
250.0802677583946
  0
LINE
  5
2D18
330
1F
100
AcDbEntity
  8
TK6
100
AcDbLine
 10
340.0919903647136
 20
248.3652042489334
 30
0.0
 11
344.5723751224429
 21
248.3652042489334
 31
0.0
  0
LINE
  5
2D19
330
1F
100
AcDbEntity
  8
TK6
100
AcDbLine
 10
340.0919903647136
 20
247.4652042489335
 30
0.0
 11
344.5723751224429
 21
247.4652042489335
 31
0.0
  0
LINE
  5
2D1A
330
1F
100
AcDbEntity
  8
TK6
100
AcDbLine
 10
331.9087350978423
 20
248.3652042489334
 30
0.0
 11
330.5087350978423
 21
248.3652042489334
 31
0.0
  0
LINE
  5
2D1B
330
1F
100
AcDbEntity
  8
TK6
100
AcDbLine
 10
331.9087350978423
 20
247.4652042489334
 30
0.0
 11
330.5087350978423
 21
247.4652042489334
 31
0.0
  0
LINE
  5
2D1C
330
1F
100
AcDbEntity
  8
TK6
100
AcDbLine
 10
330.5087350978423
 20
248.3652042489334
 30
0.0
 11
330.5087350978423
 21
247.4652042489334
 31
0.0
  0
DIMENSION
  5
2D94
102
{ACAD_XDICTIONARY
360
2D9F
102
}
102
{ACAD_REACTORS
330
2DA0
102
}
330
1F
100
AcDbEntity
  8
AM_5
100
AcDbDimension
  2
*D8
 10
190.9465656846048
 20
267.4480562986683
 30
0.0
 11
109.4465656846048
 21
270.6980562986684
 31
0.0
 70
    32
 71
     5
 42
163.0
  3
AM_ISO$0
100
AcDbAlignedDimension
 13
27.94656568460477
 23
250.7152042489336
 33
0.0
 14
190.9465656846048
 24
250.7152042489333
 34
0.0
100
AcDbRotatedDimension
  0
DIMENSION
  5
2DF4
102
{ACAD_XDICTIONARY
360
2DFF
102
}
102
{ACAD_REACTORS
330
2E00
102
}
330
1F
100
AcDbEntity
  8
AM_5
100
AcDbDimension
  2
*D9
 10
12.83305631996222
 20
251.7152042489336
 30
0.0
 11
9.583056319962182
 21
213.7152042489335
 31
0.0
 70
    32
 71
     5
 42
76.00000000000022
  3
AM_ISO$0
100
AcDbAlignedDimension
 13
37.94656568460465
 23
175.7152042489334
 33
0.0
 14
28.94656568460478
 24
251.7152042489336
 34
0.0
 50
89.99999999999989
100
AcDbRotatedDimension
  0
LWPOLYLINE
  5
2E9C
102
{ACAD_REACTORS
330
2F54
330
2F78
102
}
330
1F
100
AcDbEntity
  8
TK1
100
AcDbPolyline
 90
        8
 70
     1
 43
0.0
 10
241.2767073951366
 20
63.64314959805644
 10
386.2767073951366
 20
63.64314959805641
 42
0.4142135623730951
 10
389.2767073951366
 20
66.64314959805641
 10
389.2767073951366
 20
114.6431495980564
 42
0.4142135623730951
 10
386.2767073951366
 20
117.6431495980564
 10
241.2767073951365
 20
117.6431495980564
 42
0.4142135623730951
 10
238.2767073951365
 20
114.6431495980564
 10
238.2767073951366
 20
66.64314959805643
 42
0.414213562373095
1001
GENIUS_GENREC_14
1002
{
1000
PYDIR
1011
238.2767073951366
1021
117.6431495980564
1031
0.0
1002
}
1002
{
1000
PXDIR
1011
389.2767073951366
1021
63.64314959805643
1031
0.0
1002
}
1002
{
1000
PORI
1011
238.2767073951366
1021
63.64314959805643
1031
0.0
1002
}
1002
{
1000
PINS
1011
238.2767073951366
1021
63.64314959805643
1031
0.0
1002
}
1002
{
1000
HVAL
1000
54
1002
}
1002
{
1000
H
1070
     2
1002
}
1002
{
1000
WVAL
1000
151
1002
}
1002
{
1000
W
1070
     2
1002
}
1002
{
1000
C
1070
     1
1002
}
1001
GENIUS_GENOBJ-N-REC_13
1002
{
1000
OWNER
1000
GEN
1002
}
1001
GENIUS_GENODEF_13
1002
{
1000
HIER
1070
     0
1002
}
1002
{
1000
MANEDIT
1070
     0
1002
}
1002
{
1000
NOSEL
1070
     0
1002
}
1002
{
1000
BEHIND
1070
     0
1002
}
1002
{
1000
OTHER
1070
     0
1002
}
1002
{
1000
REACTOR
1002
}
  0
LINE
  5
2EBB
330
1F
100
AcDbEntity
  8
AM_7
100
AcDbLine
 10
235.2767073951365
 20
90.64314959805644
 30
0.0
 11
392.2767073951366
 21
90.64314959805642
 31
0.0
1001
GENIUS_GENOBJ-N-CEN_13
1002
{
1000
OWNER
1000
GEN
1002
}
1001
GENIUS_GENODEF_13
1002
{
1000
HIER
1070
     0
1002
}
1002
{
1000
MANEDIT
1070
     0
1002
}
1002
{
1000
NOSEL
1070
     0
1002
}
1002
{
1000
BEHIND
1070
     0
1002
}
1002
{
1000
OTHER
1070
     0
1002
}
1002
{
1000
REACTOR
1002
}
1001
GENIUS_GENCEN_19
1002
{
1040
3.0
1002
}
  0
LINE
  5
2EC8
330
1F
100
AcDbEntity
  8
AM_7
100
AcDbLine
 10
313.7767073951366
 20
120.6431495980564
 30
0.0
 11
313.7767073951366
 21
60.64314959805642
 31
0.0
1001
GENIUS_GENODEF_13
1002
{
1000
HIER
1070
     0
1002
}
1002
{
1000
MANEDIT
1070
     0
1002
}
1002
{
1000
NOSEL
1070
     0
1002
}
1002
{
1000
BEHIND
1070
     0
1002
}
1002
{
1000
OTHER
1070
     0
1002
}
1002
{
1000
REACTOR
1002
}
1001
GENIUS_GENOBJ-N-CEN_13
1002
{
1000
OWNER
1000
GEN
1002
}
1001
GENIUS_GENCEN_19
1002
{
1040
3.0
1002
}
  0
LINE
  5
2EFC
330
1F
100
AcDbEntity
  8
AM_7
  6
AM_ISO08W050x2
100
AcDbLine
 10
243.7767073951365
 20
124.1431495980564
 30
0.0
 11
246.7767073951366
 21
124.1431495980564
 31
0.0
1001
GENIUS_GENOREF_13
1005
2F00
  0
LINE
  5
2EFD
102
{ACAD_REACTORS
330
2F30
102
}
330
1F
100
AcDbEntity
  8
AM_7
  6
AM_ISO08W050x2
100
AcDbLine
 10
243.7767073951365
 20
124.1431495980564
 30
0.0
 11
243.7767073951365
 21
127.1431495980564
 31
0.0
1001
GENIUS_GENOREF_13
1005
2F00
  0
LINE
  5
2EFE
102
{ACAD_REACTORS
330
2F9C
102
}
330
1F
100
AcDbEntity
  8
AM_7
  6
AM_ISO08W050x2
100
AcDbLine
 10
243.7767073951365
 20
124.1431495980564
 30
0.0
 11
240.7767073951366
 21
124.1431495980564
 31
0.0
1001
GENIUS_GENOREF_13
1005
2F00
  0
LINE
  5
2EFF
330
1F
100
AcDbEntity
  8
AM_7
  6
AM_ISO08W050x2
100
AcDbLine
 10
243.7767073951365
 20
124.1431495980564
 30
0.0
 11
243.7767073951365
 21
121.1431495980564
 31
0.0
1001
GENIUS_GENOREF_13
1005
2F00
  0
POINT
  5
2F00
330
1F
100
AcDbEntity
  8
0
 60
     1
100
AcDbPoint
 10
0.0
 20
0.0
 30
0.0
1001
GENIUS_GENOLIS_13
1002
{
1000
ENT
1005
2EFF
1005
2EFE
1005
2EFD
1005
2EFC
1002
}
1001
GENIUS_GENODEF_13
1002
{
1000
HIER
1070
    10
1002
}
1002
{
1000
MANEDIT
1070
     0
1002
}
1002
{
1000
NOSEL
1070
     0
1002
}
1002
{
1000
BEHIND
1070
     0
1002
}
1002
{
1000
OTHER
1070
     0
1002
}
1002
{
1000
REACTOR
1002
}
1001
GENIUS_GENOENT_13
1002
{
1000
MYREF
1005
2F00
1002
}
1002
{
1000
GRP
1005
0
1002
}
1001
GENIUS_GENOBJ-N-CRS_13
1002
{
1000
OWNER
1000
GEN
1002
}
  0
LINE
  5
2F02
330
1F
100
AcDbEntity
  8
AM_7
  6
AM_ISO08W050x2
100
AcDbLine
 10
243.7767073951365
 20
57.14314959805645
 30
0.0
 11
246.7767073951366
 21
57.14314959805645
 31
0.0
1001
GENIUS_GENOREF_13
1005
2F06
  0
LINE
  5
2F03
330
1F
100
AcDbEntity
  8
AM_7
  6
AM_ISO08W050x2
100
AcDbLine
 10
243.7767073951365
 20
57.14314959805645
 30
0.0
 11
243.7767073951365
 21
54.14314959805645
 31
0.0
1001
GENIUS_GENOREF_13
1005
2F06
  0
LINE
  5
2F04
102
{ACAD_REACTORS
330
2F9C
102
}
330
1F
100
AcDbEntity
  8
AM_7
  6
AM_ISO08W050x2
100
AcDbLine
 10
243.7767073951365
 20
57.14314959805645
 30
0.0
 11
240.7767073951366
 21
57.14314959805645
 31
0.0
1001
GENIUS_GENOREF_13
1005
2F06
  0
LINE
  5
2F05
330
1F
100
AcDbEntity
  8
AM_7
  6
AM_ISO08W050x2
100
AcDbLine
 10
243.7767073951365
 20
57.14314959805645
 30
0.0
 11
243.7767073951365
 21
60.14314959805645
 31
0.0
1001
GENIUS_GENOREF_13
1005
2F06
  0
POINT
  5
2F06
330
1F
100
AcDbEntity
  8
0
 60
     1
100
AcDbPoint
 10
0.0
 20
206.8423465683436
 30
0.0
1001
GENIUS_GENOLIS_13
1002
{
1000
ENT
1005
2F05
1005
2F04
1005
2F03
1005
2F02
1002
}
1001
GENIUS_GENODEF_13
1002
{
1000
HIER
1070
    10
1002
}
1002
{
1000
MANEDIT
1070
     0
1002
}
1002
{
1000
NOSEL
1070
     0
1002
}
1002
{
1000
BEHIND
1070
     0
1002
}
1002
{
1000
OTHER
1070
     0
1002
}
1002
{
1000
REACTOR
1002
}
1001
GENIUS_GENOENT_13
1002
{
1000
MYREF
1005
2F06
1002
}
1002
{
1000
GRP
1005
0
1002
}
1001
GENIUS_GENOBJ-N-CRS_13
1002
{
1000
OWNER
1000
GEN
1002
}
  0
LINE
  5
2F09
330
1F
100
AcDbEntity
  8
AM_7
  6
AM_ISO08W050x2
100
AcDbLine
 10
383.7767073951365
 20
124.1431495980564
 30
0.0
 11
380.7767073951366
 21
124.1431495980564
 31
0.0
1001
GENIUS_GENOREF_13
1005
2F13
  0
LINE
  5
2F0A
102
{ACAD_REACTORS
330
2F30
102
}
330
1F
100
AcDbEntity
  8
AM_7
  6
AM_ISO08W050x2
100
AcDbLine
 10
383.7767073951365
 20
124.1431495980564
 30
0.0
 11
383.7767073951365
 21
127.1431495980564
 31
0.0
1001
GENIUS_GENOREF_13
1005
2F13
  0
LINE
  5
2F0B
330
1F
100
AcDbEntity
  8
AM_7
  6
AM_ISO08W050x2
100
AcDbLine
 10
383.7767073951365
 20
124.1431495980564
 30
0.0
 11
386.7767073951366
 21
124.1431495980564
 31
0.0
1001
GENIUS_GENOREF_13
1005
2F13
  0
LINE
  5
2F0C
330
1F
100
AcDbEntity
  8
AM_7
  6
AM_ISO08W050x2
100
AcDbLine
 10
383.7767073951365
 20
124.1431495980564
 30
0.0
 11
383.7767073951365
 21
121.1431495980564
 31
0.0
1001
GENIUS_GENOREF_13
1005
2F13
  0
LINE
  5
2F0E
330
1F
100
AcDbEntity
  8
AM_7
  6
AM_ISO08W050x2
100
AcDbLine
 10
383.7767073951365
 20
57.14314959805645
 30
0.0
 11
380.7767073951366
 21
57.14314959805645
 31
0.0
1001
GENIUS_GENOREF_13
1005
2F12
  0
LINE
  5
2F0F
330
1F
100
AcDbEntity
  8
AM_7
  6
AM_ISO08W050x2
100
AcDbLine
 10
383.7767073951365
 20
57.14314959805645
 30
0.0
 11
383.7767073951365
 21
54.14314959805645
 31
0.0
1001
GENIUS_GENOREF_13
1005
2F12
  0
LINE
  5
2F10
330
1F
100
AcDbEntity
  8
AM_7
  6
AM_ISO08W050x2
100
AcDbLine
 10
383.7767073951365
 20
57.14314959805645
 30
0.0
 11
386.7767073951366
 21
57.14314959805645
 31
0.0
1001
GENIUS_GENOREF_13
1005
2F12
  0
LINE
  5
2F11
330
1F
100
AcDbEntity
  8
AM_7
  6
AM_ISO08W050x2
100
AcDbLine
 10
383.7767073951365
 20
57.14314959805645
 30
0.0
 11
383.7767073951365
 21
60.14314959805645
 31
0.0
1001
GENIUS_GENOREF_13
1005
2F12
  0
POINT
  5
2F12
330
1F
100
AcDbEntity
  8
0
 60
     1
100
AcDbPoint
 10
627.5534147902731
 20
206.8423465683436
 30
0.0
1001
GENIUS_GENOLIS_13
1002
{
1000
ENT
1005
2F11
1005
2F10
1005
2F0F
1005
2F0E
1002
}
1001
GENIUS_GENODEF_13
1002
{
1000
HIER
1070
    10
1002
}
1002
{
1000
MANEDIT
1070
     0
1002
}
1002
{
1000
NOSEL
1070
     0
1002
}
1002
{
1000
BEHIND
1070
     0
1002
}
1002
{
1000
OTHER
1070
     0
1002
}
1002
{
1000
REACTOR
1002
}
1001
GENIUS_GENOENT_13
1002
{
1000
MYREF
1005
2F12
1002
}
1002
{
1000
GRP
1005
0
1002
}
1001
GENIUS_GENOBJ-N-CRS_13
1002
{
1000
OWNER
1000
GEN
1002
}
  0
POINT
  5
2F13
330
1F
100
AcDbEntity
  8
0
 60
     1
100
AcDbPoint
 10
627.5534147902731
 20
0.0
 30
0.0
1001
GENIUS_GENOLIS_13
1002
{
1000
ENT
1005
2F0C
1005
2F0B
1005
2F0A
1005
2F09
1002
}
1001
GENIUS_GENODEF_13
1002
{
1000
HIER
1070
    10
1002
}
1002
{
1000
MANEDIT
1070
     0
1002
}
1002
{
1000
NOSEL
1070
     0
1002
}
1002
{
1000
BEHIND
1070
     0
1002
}
1002
{
1000
OTHER
1070
     0
1002
}
1002
{
1000
REACTOR
1002
}
1001
GENIUS_GENOENT_13
1002
{
1000
MYREF
1005
2F13
1002
}
1002
{
1000
GRP
1005
0
1002
}
1001
GENIUS_GENOBJ-N-CRS_13
1002
{
1000
OWNER
1000
GEN
1002
}
  0
DIMENSION
  5
2F24
102
{ACAD_XDICTIONARY
360
2F2F
102
}
102
{ACAD_REACTORS
330
2F30
102
}
330
1F
100
AcDbEntity
  8
AM_5
100
AcDbDimension
  2
*D10
 10
383.7767073951365
 20
131.5584021338741
 30
0.0
 11
313.7767073951366
 21
134.8084021338741
 31
0.0
 70
    32
 71
     5
 42
139.9999999999999
  3
AM_ISO$0
100
AcDbAlignedDimension
 13
243.7767073951365
 23
127.1431495980564
 33
0.0
 14
383.7767073951365
 24
127.1431495980564
 34
0.0
100
AcDbRotatedDimension
  0
DIMENSION
  5
2F48
102
{ACAD_XDICTIONARY
360
2F53
102
}
102
{ACAD_REACTORS
330
2F54
102
}
330
1F
100
AcDbEntity
  8
AM_5
100
AcDbDimension
  2
*D11
 10
389.2767073951366
 20
141.5584021338739
 30
0.0
 11
313.7767073951366
 21
144.8084021338739
 31
0.0
 70
    32
 71
     5
 42
151.0
  3
AM_ISO$0
100
AcDbAlignedDimension
 13
238.2767073951365
 23
114.6431495980564
 33
0.0
 14
389.2767073951366
 24
114.6431495980564
 34
0.0
100
AcDbRotatedDimension
  0
DIMENSION
  5
2F6C
102
{ACAD_XDICTIONARY
360
2F77
102
}
102
{ACAD_REACTORS
330
2F78
102
}
330
1F
100
AcDbEntity
  8
AM_5
100
AcDbDimension
  2
*D12
 10
232.0698238330276
 20
63.64314959805644
 30
0.0
 11
228.8198238330276
 21
90.64314959805647
 31
0.0
 70
    32
 71
     5
 42
53.99999999999998
  3
AM_ISO$0
100
AcDbAlignedDimension
 13
241.2767073951366
 23
117.6431495980564
 33
0.0
 14
241.2767073951366
 24
63.64314959805644
 34
0.0
 50
90.00000000000003
100
AcDbRotatedDimension
  0
DIMENSION
  5
2F90
102
{ACAD_XDICTIONARY
360
2F9B
102
}
102
{ACAD_REACTORS
330
2F9C
102
}
330
1F
100
AcDbEntity
  8
AM_5
100
AcDbDimension
  2
*D13
 10
222.0698238330276
 20
57.14314959805645
 30
0.0
 11
218.8198238330276
 21
90.64314959805647
 31
0.0
 70
    32
 71
     5
 42
66.99999999999997
  3
AM_ISO$0
100
AcDbAlignedDimension
 13
240.7767073951366
 23
124.1431495980564
 33
0.0
 14
240.7767073951365
 24
57.14314959805644
 34
0.0
 50
90.00000000000003
100
AcDbRotatedDimension
  0
CIRCLE
  5
2FDA
102
{ACAD_REACTORS
330
2FF5
102
}
330
1F
100
AcDbEntity
  8
TK1
100
AcDbCircle
 10
383.7767073951365
 20
57.14314959805645
 30
0.0
 40
1.75
  0
CIRCLE
  5
2FE3
330
1F
100
AcDbEntity
  8
TK1
100
AcDbCircle
 10
383.7767073951365
 20
124.1431495980564
 30
0.0
 40
1.75
  0
CIRCLE
  5
2FE4
330
1F
100
AcDbEntity
  8
TK1
100
AcDbCircle
 10
243.7767073951365
 20
124.1431495980564
 30
0.0
 40
1.75
  0
CIRCLE
  5
2FE5
330
1F
100
AcDbEntity
  8
TK1
100
AcDbCircle
 10
243.7767073951365
 20
57.14314959805645
 30
0.0
 40
1.75
  0
DIMENSION
  5
2FEA
102
{ACAD_XDICTIONARY
360
2FF4
102
}
102
{ACAD_REACTORS
330
2FF5
102
}
330
1F
100
AcDbEntity
  8
AM_5
100
AcDbDimension
  2
*D14
 10
385.3465074494487
 20
57.91660146435515
 30
0.0
 11
365.1009292364474
 21
51.99273745185784
 31
0.0
 70
   163
  1
4-<>
 71
     5
 42
3.499999999999772
  3
AM_ISO$3
100
AcDbDiametricDimension
 15
382.2069073408243
 25
56.36969773175777
 35
0.0
 40
0.0
  0
MTEXT
  5
304F
330
1F
100
AcDbEntity
  8
0
100
AcDbMText
 10
286.9081114698035
 20
161.3607425528871
 30
0.0
 40
5.0
 41
41.42854838884113
 71
     1
 72
     5
  1
取付穴加工図
 73
     1
 44
1.0
1001
ACAD
1000
MTEXTBEGIN
1070
    73
1070
     1
1070
    44
1040
1.0
1070
    74
1070
     0
1000
MTEXTEND
  0
LINE
  5
3098
330
1F
100
AcDbEntity
  8
TK20
100
AcDbLine
 10
166.8465656846047
 20
237.915204248933
 30
0.0
 11
166.3465656846046
 21
237.915204248933
 31
0.0
  0
ARC
  5
3099
330
1F
100
AcDbEntity
  8
TK20
100
AcDbCircle
 10
166.3465656846046
 20
236.415204248933
 30
0.0
 40
1.5
100
AcDbArc
 50
89.99999999999959
 51
179.9999999999996
1001
GENIUS_GENODEF_13
1002
{
1000
HIER
1070
     0
1002
}
1002
{
1000
MANEDIT
1070
     0
1002
}
1002
{
1000
NOSEL
1070
     0
1002
}
1002
{
1000
BEHIND
1070
     0
1002
}
1002
{
1000
OTHER
1070
     0
1002
}
1002
{
1000
REACTOR
1002
}
1001
GENIUS_GENOBJ-N-FIL_13
1002
{
1000
OWNER
1000
GEN
1002
}
  0
ARC
  5
309A
330
1F
100
AcDbEntity
  8
TK20
100
AcDbCircle
 10
171.3465656846047
 20
236.415204248933
 30
0.0
 40
1.5
100
AcDbArc
 50
359.9999999999996
 51
89.99999999999959
1001
GENIUS_GENODEF_13
1002
{
1000
HIER
1070
     0
1002
}
1002
{
1000
MANEDIT
1070
     0
1002
}
1002
{
1000
NOSEL
1070
     0
1002
}
1002
{
1000
BEHIND
1070
     0
1002
}
1002
{
1000
OTHER
1070
     0
1002
}
1002
{
1000
REACTOR
1002
}
1001
GENIUS_GENOBJ-N-FIL_13
1002
{
1000
OWNER
1000
GEN
1002
}
  0
LINE
  5
309B
330
1F
100
AcDbEntity
  8
TK20
100
AcDbLine
 10
170.8465656846047
 20
239.315204248933
 30
0.0
 11
170.8465656846047
 21
237.915204248933
 31
0.0
  0
LINE
  5
309C
330
1F
100
AcDbEntity
  8
TK20
100
AcDbLine
 10
166.8465656846047
 20
237.915204248933
 30
0.0
 11
166.8465656846047
 21
239.315204248933
 31
0.0
  0
LINE
  5
309D
330
1F
100
AcDbEntity
  8
TK20
100
AcDbLine
 10
171.3465656846047
 20
237.915204248933
 30
0.0
 11
170.8465656846048
 21
237.9152042489329
 31
0.0
  0
LINE
  5
309E
330
1F
100
AcDbEntity
  8
TK20
100
AcDbLine
 10
164.8465656846046
 20
236.415204248933
 30
0.0
 11
164.8465656846043
 21
192.4152042489329
 31
0.0
  0
LINE
  5
309F
330
1F
100
AcDbEntity
  8
TK20
100
AcDbLine
 10
172.8465656846047
 20
236.415204248933
 30
0.0
 11
172.8465656846044
 21
192.4152042489329
 31
0.0
  0
LINE
  5
30A0
330
1F
100
AcDbEntity
  8
TK20
100
AcDbLine
 10
181.8465656846048
 20
236.4152042489329
 30
0.0
 11
181.8465656846045
 21
192.4152042489328
 31
0.0
  0
LINE
  5
30A1
330
1F
100
AcDbEntity
  8
TK20
100
AcDbLine
 10
173.8465656846047
 20
236.415204248933
 30
0.0
 11
173.8465656846044
 21
192.4152042489328
 31
0.0
  0
LINE
  5
30A2
330
1F
100
AcDbEntity
  8
TK20
100
AcDbLine
 10
180.3465656846048
 20
237.915204248933
 30
0.0
 11
179.8465656846049
 21
237.9152042489328
 31
0.0
  0
LINE
  5
30A3
330
1F
100
AcDbEntity
  8
TK20
100
AcDbLine
 10
175.8465656846048
 20
237.915204248933
 30
0.0
 11
175.8465656846048
 21
239.315204248933
 31
0.0
  0
LINE
  5
30A4
330
1F
100
AcDbEntity
  8
TK20
100
AcDbLine
 10
179.8465656846048
 20
239.3152042489329
 30
0.0
 11
179.8465656846048
 21
237.915204248933
 31
0.0
  0
ARC
  5
30A5
330
1F
100
AcDbEntity
  8
TK20
100
AcDbCircle
 10
180.3465656846048
 20
236.415204248933
 30
0.0
 40
1.5
100
AcDbArc
 50
359.9999999999996
 51
89.99999999999959
1001
GENIUS_GENODEF_13
1002
{
1000
HIER
1070
     0
1002
}
1002
{
1000
MANEDIT
1070
     0
1002
}
1002
{
1000
NOSEL
1070
     0
1002
}
1002
{
1000
BEHIND
1070
     0
1002
}
1002
{
1000
OTHER
1070
     0
1002
}
1002
{
1000
REACTOR
1002
}
1001
GENIUS_GENOBJ-N-FIL_13
1002
{
1000
OWNER
1000
GEN
1002
}
  0
ARC
  5
30A6
330
1F
100
AcDbEntity
  8
TK20
100
AcDbCircle
 10
175.3465656846047
 20
236.415204248933
 30
0.0
 40
1.5
100
AcDbArc
 50
89.99999999999959
 51
179.9999999999996
1001
GENIUS_GENODEF_13
1002
{
1000
HIER
1070
     0
1002
}
1002
{
1000
MANEDIT
1070
     0
1002
}
1002
{
1000
NOSEL
1070
     0
1002
}
1002
{
1000
BEHIND
1070
     0
1002
}
1002
{
1000
OTHER
1070
     0
1002
}
1002
{
1000
REACTOR
1002
}
1001
GENIUS_GENOBJ-N-FIL_13
1002
{
1000
OWNER
1000
GEN
1002
}
  0
LINE
  5
30A7
330
1F
100
AcDbEntity
  8
TK20
100
AcDbLine
 10
175.8465656846048
 20
237.915204248933
 30
0.0
 11
175.3465656846047
 21
237.915204248933
 31
0.0
  0
LINE
  5
30A8
330
1F
100
AcDbEntity
  8
TK20
100
AcDbLine
 10
166.8465656846044
 20
190.9152042489329
 30
0.0
 11
166.3465656846043
 21
190.9152042489329
 31
0.0
  0
ARC
  5
30A9
330
1F
100
AcDbEntity
  8
TK20
100
AcDbCircle
 10
166.3465656846043
 20
192.4152042489329
 30
0.0
 40
1.5
100
AcDbArc
 50
179.9999999999996
 51
269.9999999999996
1001
GENIUS_GENODEF_13
1002
{
1000
HIER
1070
     0
1002
}
1002
{
1000
MANEDIT
1070
     0
1002
}
1002
{
1000
NOSEL
1070
     0
1002
}
1002
{
1000
BEHIND
1070
     0
1002
}
1002
{
1000
OTHER
1070
     0
1002
}
1002
{
1000
REACTOR
1002
}
1001
GENIUS_GENOBJ-N-FIL_13
1002
{
1000
OWNER
1000
GEN
1002
}
  0
ARC
  5
30AA
330
1F
100
AcDbEntity
  8
TK20
100
AcDbCircle
 10
171.3465656846044
 20
192.4152042489329
 30
0.0
 40
1.5
100
AcDbArc
 50
269.9999999999996
 51
359.9999999999996
1001
GENIUS_GENODEF_13
1002
{
1000
HIER
1070
     0
1002
}
1002
{
1000
MANEDIT
1070
     0
1002
}
1002
{
1000
NOSEL
1070
     0
1002
}
1002
{
1000
BEHIND
1070
     0
1002
}
1002
{
1000
OTHER
1070
     0
1002
}
1002
{
1000
REACTOR
1002
}
1001
GENIUS_GENOBJ-N-FIL_13
1002
{
1000
OWNER
1000
GEN
1002
}
  0
LINE
  5
30AB
330
1F
100
AcDbEntity
  8
TK20
100
AcDbLine
 10
170.8465656846044
 20
189.5152042489329
 30
0.0
 11
170.8465656846044
 21
190.9152042489329
 31
0.0
  0
LINE
  5
30AC
330
1F
100
AcDbEntity
  8
TK20
100
AcDbLine
 10
166.8465656846044
 20
190.9152042489329
 30
0.0
 11
166.8465656846044
 21
189.5152042489329
 31
0.0
  0
LINE
  5
30AD
330
1F
100
AcDbEntity
  8
TK20
100
AcDbLine
 10
171.3465656846044
 20
190.9152042489329
 30
0.0
 11
170.8465656846045
 21
190.915204248933
 31
0.0
  0
LINE
  5
30AE
330
1F
100
AcDbEntity
  8
TK20
100
AcDbLine
 10
180.3465656846045
 20
190.9152042489328
 30
0.0
 11
179.8465656846046
 21
190.9152042489329
 31
0.0
  0
LINE
  5
30AF
330
1F
100
AcDbEntity
  8
TK20
100
AcDbLine
 10
175.8465656846045
 20
190.9152042489328
 30
0.0
 11
175.8465656846045
 21
189.5152042489329
 31
0.0
  0
LINE
  5
30B0
330
1F
100
AcDbEntity
  8
TK20
100
AcDbLine
 10
179.8465656846045
 20
189.5152042489329
 30
0.0
 11
179.8465656846045
 21
190.9152042489328
 31
0.0
  0
ARC
  5
30B1
330
1F
100
AcDbEntity
  8
TK20
100
AcDbCircle
 10
180.3465656846045
 20
192.4152042489328
 30
0.0
 40
1.5
100
AcDbArc
 50
269.9999999999996
 51
359.9999999999996
1001
GENIUS_GENODEF_13
1002
{
1000
HIER
1070
     0
1002
}
1002
{
1000
MANEDIT
1070
     0
1002
}
1002
{
1000
NOSEL
1070
     0
1002
}
1002
{
1000
BEHIND
1070
     0
1002
}
1002
{
1000
OTHER
1070
     0
1002
}
1002
{
1000
REACTOR
1002
}
1001
GENIUS_GENOBJ-N-FIL_13
1002
{
1000
OWNER
1000
GEN
1002
}
  0
ARC
  5
30B2
330
1F
100
AcDbEntity
  8
TK20
100
AcDbCircle
 10
175.3465656846044
 20
192.4152042489328
 30
0.0
 40
1.5
100
AcDbArc
 50
179.9999999999996
 51
269.9999999999996
1001
GENIUS_GENODEF_13
1002
{
1000
HIER
1070
     0
1002
}
1002
{
1000
MANEDIT
1070
     0
1002
}
1002
{
1000
NOSEL
1070
     0
1002
}
1002
{
1000
BEHIND
1070
     0
1002
}
1002
{
1000
OTHER
1070
     0
1002
}
1002
{
1000
REACTOR
1002
}
1001
GENIUS_GENOBJ-N-FIL_13
1002
{
1000
OWNER
1000
GEN
1002
}
  0
LINE
  5
30B3
330
1F
100
AcDbEntity
  8
TK20
100
AcDbLine
 10
175.8465656846045
 20
190.9152042489328
 30
0.0
 11
175.3465656846044
 21
190.9152042489328
 31
0.0
  0
DIMENSION
  5
3137
102
{ACAD_XDICTIONARY
360
3142
102
}
102
{ACAD_REACTORS
330
3143
102
}
330
1F
100
AcDbEntity
  8
AM_5
100
AcDbDimension
  2
*D15
 10
22.16093524238444
 20
189.5152042489333
 30
0.0
 11
18.91093524238441
 21
214.4152042489334
 31
0.0
 70
    32
  1
50
 71
     5
 42
49.80000000000007
  3
AM_ISO$0
100
AcDbAlignedDimension
 13
38.24656568460478
 23
239.3152042489334
 33
0.0
 14
38.24656568460479
 24
189.5152042489333
 34
0.0
 50
90.00000000000003
100
AcDbRotatedDimension
  0
LINE
  5
319B
330
1F
100
AcDbEntity
  8
AM_5
100
AcDbLine
 10
36.04656568460473
 20
238.1152042489334
 30
0.0
 11
36.04656568460473
 21
260.0952508769629
 31
0.0
  0
LINE
  5
319D
330
1F
100
AcDbEntity
  8
AM_5
100
AcDbLine
 10
38.54656568460473
 20
259.095250876963
 30
0.0
 11
109.4465656846047
 21
259.095250876963
 31
0.0
  0
INSERT
  5
319E
330
1F
100
AcDbEntity
  8
AM_5
100
AcDbBlockReference
  2
_Open30
 10
36.04656568460473
 20
259.095250876963
 30
0.0
 41
2.5
 42
2.5
 43
2.5
 50
180.0
  0
MTEXT
  5
31A0
330
1F
100
AcDbEntity
  8
AM_5
 62
     2
100
AcDbMText
 10
109.4465656846047
 20
262.3452508769629
 30
0.0
 40
3.5
 41
0.0
 71
     5
 72
     1
  1
147
 73
     1
 44
1.0
1001
ACAD
1000
MTEXTBEGIN
1070
    73
1070
     1
1070
    44
1040
1.0
1070
    74
1070
     0
1000
MTEXTEND
  0
DIMENSION
  5
31BE
102
{ACAD_XDICTIONARY
360
31C9
102
}
102
{ACAD_REACTORS
330
31CA
102
}
330
1F
100
AcDbEntity
  8
AM_5
100
AcDbDimension
  2
*D16
 10
276.4829493599525
 20
263.7152042489333
 30
0.0
 11
263.9829493599525
 21
266.9655487371223
 31
0.0
 70
    32
 71
     5
 42
25.00000000000006
  3
AM_ISO$0
100
AcDbAlignedDimension
 13
251.4829493599525
 23
235.4675105379931
 33
0.0
 14
276.4829493599525
 24
251.7152042489333
 34
0.0
100
AcDbRotatedDimension
  0
LINE
  5
3274
330
1F
100
AcDbEntity
  8
TK6
100
AcDbLine
 10
318.4087350978423
 20
249.4152042489334
 30
0.0
 11
318.4087350978423
 21
246.4152042489335
 31
0.0
  0
LINE
  5
3283
330
1F
100
AcDbEntity
  8
TK6
100
AcDbLine
 10
318.4087350978423
 20
182.4152042489333
 30
0.0
 11
318.4087350978423
 21
179.4152042489333
 31
0.0
  0
DIMENSION
  5
32F6
330
1F
100
AcDbEntity
  8
AM_5
100
AcDbDimension
  2
*D17
 10
22.16093524238444
 20
124.2198519748588
 30
0.0
 11
18.91059075419544
 21
133.2749553213155
 31
0.0
 70
    32
 71
     5
 42
3.199999999999988
  3
AM_ISO$0
100
AcDbAlignedDimension
 13
38.1465656846048
 23
121.0198519748588
 33
0.0
 14
38.14656568460472
 24
124.2198519748588
 34
0.0
 50
90.00000000000127
100
AcDbRotatedDimension
  0
DIMENSION
  5
333A
102
{ACAD_XDICTIONARY
360
3345
102
}
102
{ACAD_REACTORS
330
3346
102
}
330
1F
100
AcDbEntity
  8
AM_5
100
AcDbDimension
  2
*D18
 10
12.83305631996221
 20
128.1198519748587
 30
0.0
 11
9.583056319962189
 21
122.6198519748587
 31
0.0
 70
    32
 71
     5
 42
11.00000000000005
  3
AM_ISO$0
100
AcDbAlignedDimension
 13
30.69656568460479
 23
117.1198519748587
 33
0.0
 14
30.69656568460468
 24
128.1198519748587
 34
0.0
 50
90.00000000000094
100
AcDbRotatedDimension
  0
DIMENSION
  5
336D
102
{ACAD_XDICTIONARY
360
337A
102
}
102
{ACAD_REACTORS
330
337B
102
}
330
1F
100
AcDbEntity
  8
AM_5
100
AcDbDimension
  2
*D19
 10
37.14656568460475
 20
143.2571027654979
 30
0.0
 11
39.44656568460473
 21
143.2571027654979
 31
0.0
 70
   160
 71
     5
 42
4.599999999999965
  3
AM_ISO$0
100
AcDbAlignedDimension
 13
41.74656568460472
 23
123.2198519748588
 33
0.0
 14
37.14656568460475
 24
123.2198519748587
 34
0.0
100
AcDbRotatedDimension
  0
DIMENSION
  5
33B1
102
{ACAD_XDICTIONARY
360
33BC
102
}
102
{ACAD_REACTORS
330
33BD
102
}
330
1F
100
AcDbEntity
  8
AM_5
100
AcDbDimension
  2
*D20
 10
191.1965656846046
 20
152.4695272346258
 30
0.0
 11
109.4465656846046
 21
155.7195272346258
 31
0.0
 70
    32
 71
     5
 42
163.4999999999999
  3
AM_ISO$0
100
AcDbAlignedDimension
 13
27.69656568460468
 23
125.1198519748587
 33
0.0
 14
191.1965656846046
 24
125.1198519748587
 34
0.0
100
AcDbRotatedDimension
  0
DIMENSION
  5
33E5
102
{ACAD_XDICTIONARY
360
33F2
102
}
102
{ACAD_REACTORS
330
33F3
102
}
330
1F
100
AcDbEntity
  8
AM_5
100
AcDbDimension
  2
*D21
 10
208.6436328089577
 20
152.4695272346258
 30
0.0
 11
206.6436328089577
 21
152.4695272346258
 31
0.0
 70
   160
 71
     5
 42
4.0
  3
AM_ISO$0
100
AcDbAlignedDimension
 13
204.6436328089577
 23
127.1198519748599
 33
0.0
 14
208.6436328089577
 24
128.1198519748599
 34
0.0
100
AcDbRotatedDimension
  0
DIMENSION
  5
341F
330
1F
100
AcDbEntity
  8
AM_5
100
AcDbDimension
  2
*D22
 10
179.4465656846045
 20
105.1198509748598
 30
0.0
 11
109.4465656846046
 21
108.3698509748598
 31
0.0
 70
    32
 71
     5
 42
139.9999999999997
  3
AM_ISO$0
100
AcDbAlignedDimension
 13
39.44656568460478
 23
121.0198519748588
 33
0.0
 14
179.4465656846045
 24
121.0198519748599
 34
0.0
 50
0.0000000000001132
100
AcDbRotatedDimension
  0
VIEWPORT
  5
17C
102
{ACAD_XDICTIONARY
360
3471
102
}
330
23
100
AcDbEntity
 67
     1
  8
0
100
AcDbViewport
 10
133.3499908447265
 20
101.5999970436096
 30
0.0
 40
370.2266912936524
 41
228.4221935424805
 68
     1
 69
     1
 12
133.3499908447265
 22
101.5999970436096
 13
0.0
 23
0.0
 14
10.0
 24
10.0
 15
10.0
 25
10.0
 16
0.0
 26
0.0
 36
1.0
 17
0.0
 27
0.0
 37
0.0
 42
50.0
 43
0.0
 44
0.0
 45
228.4221935424805
 50
0.0
 51
0.0
 72
   100
 90
    32800
  1

281
     0
 71
     1
 74
     0
110
0.0
120
0.0
130
0.0
111
1.0
121
0.0
131
0.0
112
0.0
122
1.0
132
0.0
 79
     0
146
0.0
  0
ENDSEC
  0
SECTION
  2
OBJECTS
  0
DICTIONARY
  5
C
330
0
100
AcDbDictionary
281
     1
  3
ACAD_COLOR
350
BE
  3
ACAD_GROUP
350
D
  3
ACAD_LAYOUT
350
1A
  3
ACAD_MATERIAL
350
BD
  3
ACAD_MLINESTYLE
350
17
  3
ACAD_PLOTSETTINGS
350
19
  3
ACAD_PLOTSTYLENAME
350
E
  3
ACAD_TABLESTYLE
350
D69
  3
ACDBHEADERROUNDTRIPXREC
350
3468
  3
AcDbVariableDictionary
350
94
  3
AcmDictionary
350
5B
  3
AMG
350
41
  3
AMGSNAPSETTINGS
350
220
  3
DWGPROPS
350
3467
  0
DICTIONARY
  5
35D
330
2
100
AcDbDictionary
280
     1
281
     1
  3
ACAD_LAYERFILTERS
360
451
  3
ACAD_LAYERSTATES
360
35E
  3
AMLAYER_GROUPCOLORS
360
4A4
  0
DICTIONARY
  5
8F
330
1F
100
AcDbDictionary
280
     1
281
     1
  3
ACAD_SORTENTS
360
E9C
  0
DICTIONARY
  5
603
330
5FA
100
AcDbDictionary
280
     1
281
     1
  0
DICTIONARY
  5
668
330
613
100
AcDbDictionary
280
     1
281
     1
  0
DICTIONARY
  5
BFB
330
BF3
100
AcDbDictionary
280
     1
281
     1
  0
DICTIONARY
  5
C61
330
C08
100
AcDbDictionary
280
     1
281
     1
  0
DICTIONARY
  5
346F
330
178
100
AcDbDictionary
280
     1
281
     1
  3
ACAD_XREC_ROUNDTRIP
360
3470
  0
DICTIONARY
  5
2D9F
330
2D94
100
AcDbDictionary
280
     1
281
     1
  3
ACAD_DIMASSOC
360
2DA0
  0
DICTIONARY
  5
2DFF
330
2DF4
100
AcDbDictionary
280
     1
281
     1
  3
ACAD_DIMASSOC
360
2E00
  0
DICTIONARY
  5
2F2F
330
2F24
100
AcDbDictionary
280
     1
281
     1
  3
ACAD_DIMASSOC
360
2F30
  0
DICTIONARY
  5
2F53
330
2F48
100
AcDbDictionary
280
     1
281
     1
  3
ACAD_DIMASSOC
360
2F54
  0
DICTIONARY
  5
2F77
330
2F6C
100
AcDbDictionary
280
     1
281
     1
  3
ACAD_DIMASSOC
360
2F78
  0
DICTIONARY
  5
2F9B
330
2F90
100
AcDbDictionary
280
     1
281
     1
  3
ACAD_DIMASSOC
360
2F9C
  0
DICTIONARY
  5
2FF4
330
2FEA
100
AcDbDictionary
280
     1
281
     1
  3
ACAD_DIMASSOC
360
2FF5
  0
DICTIONARY
  5
3142
330
3137
100
AcDbDictionary
280
     1
281
     1
  3
ACAD_DIMASSOC
360
3143
  0
DICTIONARY
  5
31C9
330
31BE
100
AcDbDictionary
280
     1
281
     1
  3
ACAD_DIMASSOC
360
31CA
  0
DICTIONARY
  5
3345
330
333A
100
AcDbDictionary
280
     1
281
     1
  3
ACAD_DIMASSOC
360
3346
  0
DICTIONARY
  5
337A
330
336D
100
AcDbDictionary
280
     1
281
     1
  3
ACAD_DIMASSOC
360
337B
  0
DICTIONARY
  5
33BC
330
33B1
100
AcDbDictionary
280
     1
281
     1
  3
ACAD_DIMASSOC
360
33BD
  0
DICTIONARY
  5
33F2
330
33E5
100
AcDbDictionary
280
     1
281
     1
  3
ACAD_DIMASSOC
360
33F3
  0
DICTIONARY
  5
3471
330
17C
100
AcDbDictionary
280
     1
281
     1
  3
ACAD_XREC_ROUNDTRIP
360
3472
  0
DICTIONARY
  5
BE
102
{ACAD_REACTORS
330
C
102
}
330
C
100
AcDbDictionary
281
     1
  0
DICTIONARY
  5
D
102
{ACAD_REACTORS
330
C
102
}
330
C
100
AcDbDictionary
281
     1
  0
DICTIONARY
  5
1A
102
{ACAD_REACTORS
330
C
102
}
330
C
100
AcDbDictionary
281
     1
  3
Model
350
22
  3
レイアウト1
350
1E
  3
レイアウト2
350
26
  0
DICTIONARY
  5
BD
102
{ACAD_REACTORS
330
C
102
}
330
C
100
AcDbDictionary
281
     1
  0
DICTIONARY
  5
17
102
{ACAD_REACTORS
330
C
102
}
330
C
100
AcDbDictionary
281
     1
  3
Standard
350
18
  0
DICTIONARY
  5
19
102
{ACAD_REACTORS
330
C
102
}
330
C
100
AcDbDictionary
281
     1
  0
ACDBDICTIONARYWDFLT
  5
E
102
{ACAD_REACTORS
330
C
102
}
330
C
100
AcDbDictionary
281
     1
  3
Normal
350
F
100
AcDbDictionaryWithDefault
340
F
  0
DICTIONARY
  5
D69
102
{ACAD_REACTORS
330
C
102
}
330
C
100
AcDbDictionary
281
     1
  3
Standard
350
D6A
  0
DICTIONARY
  5
3468
102
{ACAD_REACTORS
330
C
102
}
330
C
100
AcDbDictionary
281
     1
  0
DICTIONARY
  5
94
102
{ACAD_REACTORS
330
C
102
}
330
C
100
AcDbDictionary
281
     1
  3
CTABLESTYLE
350
D8E
  3
DIMASSOC
350
96
  3
INDEXCTL
350
95
  3
PROJECTNAME
350
3465
  0
DICTIONARY
  5
5B
102
{ACAD_REACTORS
330
C
102
}
330
C
100
AcDbDictionary
281
     1
  3
AcmStdDictionary
350
61
  3
AMDTSECTSYM_ARROWCOLOR
350
D83
  0
DICTIONARY
  5
41
102
{ACAD_REACTORS
330
C
102
}
330
C
100
AcDbDictionary
281
     1
  0
DICTIONARY
  5
220
102
{ACAD_REACTORS
330
C
102
}
330
C
100
AcDbDictionary
281
     1
  0
XRECORD
  5
3467
102
{ACAD_REACTORS
330
C
102
}
330
C
100
AcDbXrecord
280
     1
  1
DWGPROPS COOKIE
  2

  3

  4

  6

  7

  8

  9

300
AmdtFileType=84
301
=
302
=
303
=
304
=
305
=
306
=
307
=
308
=
309
=
 40
0.1599036226851852
 41
2454594.835300868
 42
2456049.609777558
  1

 90
        1
  0
DICTIONARY
  5
451
102
{ACAD_REACTORS
330
35D
102
}
330
35D
100
AcDbDictionary
281
     1
  0
DICTIONARY
  5
35E
102
{ACAD_REACTORS
330
35D
102
}
330
35D
100
AcDbDictionary
281
     1
  3
takachi1
350
35F
  0
DICTIONARY
  5
4A4
102
{ACAD_REACTORS
330
35D
102
}
330
35D
100
AcDbDictionary
280
     1
281
     1
  0
SORTENTSTABLE
  5
E9C
102
{ACAD_REACTORS
330
8F
102
}
330
8F
100
AcDbSortentsTable
330
1F
331
2F48
  5
2F48
331
2C5C
  5
2C5C
331
2D0B
  5
2D0B
331
2D13
  5
2D13
331
1713
  5
E99
331
2F09
  5
2F09
331
2D1B
  5
2D1B
331
2995
  5
2995
331
19D2
  5
1EA2
331
2A34
  5
2A34
331
1773
  5
19D1
331
28B6
  5
28B6
331
1D4A
  5
1F69
331
21F1
  5
2362
331
278F
  5
281A
331
A22
  5
A4F
331
9E3
  5
9EE
331
A79
  5
ECC
331
9B6
  5
9BB
331
9EB
  5
9FA
331
A2A
  5
A67
331
130C
  5
15E3
331
9F3
  5
A01
331
1314
  5
1985
331
9FB
  5
A05
331
A52
  5
A73
331
30AB
  5
30AB
331
30B3
  5
30B3
331
2CAC
  5
2CAC
331
2C05
  5
2C05
331
2F11
  5
2F11
331
2C1D
  5
2C1D
331
309E
  5
309E
331
2500
  5
2502
331
30A6
  5
30A6
331
2508
  5
250A
331
2361
  5
23C7
331
2B9C
  5
2B9C
331
23C1
  5
24E1
331
2BA4
  5
2BA4
331
282F
  5
2885
331
AA1
  5
106B
331
A03
  5
A0D
331
9DE
  5
9EB
331
957
  5
957
331
A0B
  5
A15
331
A6A
  5
A88
331
EBE
  5
1301
331
95F
  5
95F
331
A13
  5
A1D
331
A1B
  5
A27
331
2F90
  5
2F90
331
2C5D
  5
2C5D
331
2D0C
  5
2D0C
331
2F02
  5
2F02
331
2D14
  5
2D14
331
1EA2
  5
2358
331
2F0A
  5
2F0A
331
2D1C
  5
2D1C
331
19D3
  5
1ECF
331
202A
  5
9F2
331
2A35
  5
2A35
331
19DB
  5
1F68
331
24E1
  5
2500
331
299E
  5
299E
331
2ADD
  5
2AD0
331
29CE
  5
29E0
331
2B85
  5
2ADF
331
9E4
  5
9F1
331
A23
  5
A50
331
9B7
  5
9BC
331
9EC
  5
9FB
331
130D
  5
15EF
331
9F4
  5
A02
331
A4B
  5
A68
331
1315
  5
1986
331
9FC
  5
A06
331
108E
  5
130A
331
30AC
  5
30AC
331
2D94
  5
2D94
331
304F
  5
304F
331
309F
  5
309F
331
2EBB
  5
2EBB
331
30A7
  5
30A7
331
2501
  5
2503
331
2509
  5
250B
331
2B95
  5
2B95
331
2B9D
  5
2B9D
331
2BA5
  5
2BA5
331
9CF
  5
9D4
331
AA2
  5
1088
331
A04
  5
A0E
331
A63
  5
A74
331
958
  5
958
331
A0C
  5
A16
331
10BE
  5
130B
331
A73
  5
AA5
331
EC7
  5
1302
331
A1C
  5
A29
331
12FE
  5
130C
331
319B
  5
319B
331
2DF4
  5
2DF4
331
2C5E
  5
2C5E
331
2D0D
  5
2D0D
331
2F03
  5
2F03
331
2D15
  5
2D15
331
2C96
  5
2C96
331
2F0B
  5
2F0B
331
2A36
  5
2A36
331
19D4
  5
1F29
331
24AA
  5
24FF
331
299F
  5
299F
331
2AD6
  5
2B87
331
2930
  5
2930
331
960
  5
960
331
980
  5
980
331
A24
  5
A51
331
9E5
  5
9F3
331
9B8
  5
9BD
331
1067
  5
1306
331
130E
  5
1689
331
1316
  5
198F
331
A8B
  5
104B
331
A4C
  5
A69
331
9FD
  5
A07
331
15A6
  5
19C5
331
30AD
  5
30AD
331
2E9C
  5
2E9C
331
3098
  5
3098
331
2CDE
  5
2CF9
331
30A0
  5
30A0
331
2C37
  5
2C3B
331
1985
  5
19D5
331
2502
  5
2504
331
250A
  5
250C
331
2B96
  5
2B96
331
1995
  5
19DB
331
23BB
  5
2459
331
19C5
  5
1D4A
331
2A27
  5
2A29
331
2BA6
  5
2BA6
331
9D0
  5
9D5
331
A64
  5
A75
331
A05
  5
A0F
331
AA3
  5
108E
331
EC0
  5
1300
331
959
  5
959
331
A0D
  5
A17
331
A6C
  5
A8B
331
15BE
  5
19CD
331
A74
  5
C06
331
15EE
  5
19D0
331
A1D
  5
A4B
331
12FF
  5
130D
331
2EFC
  5
2EFC
331
2D0E
  5
2D0E
331
2F04
  5
2F04
331
2D16
  5
2D16
331
2F0C
  5
2F0C
331
19CD
  5
1D59
331
241B
  5
24FC
331
19D5
  5
1F36
331
29A0
  5
29A0
331
2084
  5
9E8
331
1916
  5
19D4
331
2B87
  5
2ADD
331
961
  5
961
331
981
  5
981
331
9E6
  5
9F4
331
A25
  5
A63
331
130F
  5
172B
331
1078
  5
1309
331
A84
  5
F03
331
9B9
  5
9BE
331
9EE
  5
9FC
331
1088
  5
1307
331
A4D
  5
A6A
331
E99
  5
12FF
331
9FE
  5
A08
331
15A7
  5
1995
331
30AE
  5
30AE
331
2F24
  5
2F24
331
3099
  5
3099
331
30A1
  5
30A1
331
2C30
  5
2C30
331
2FDA
  5
2FDA
331
1986
  5
19D6
331
2503
  5
2505
331
2971
  5
2971
331
250B
  5
25C9
331
280A
  5
282D
331
2B97
  5
2B97
331
281A
  5
275F
331
2B9F
  5
2B9F
331
282A
  5
282B
331
2A28
  5
29CA
331
2BA7
  5
2BA7
331
9D1
  5
9D6
331
10B8
  5
1308
331
AA4
  5
1094
331
A06
  5
A10
331
A65
  5
A76
331
A6D
  5
AA2
331
A0E
  5
A18
331
95A
  5
95A
331
A75
  5
C65
331
1300
  5
130E
331
319D
  5
319D
331
2BD1
  5
2BDD
331
2FEA
  5
2FEA
331
2EFD
  5
2EFD
331
2D0F
  5
2D0F
331
2F05
  5
2F05
331
2BF1
  5
2BF1
331
2D17
  5
2D17
331
19CE
  5
1DF9
331
276B
  5
2084
331
19D6
  5
1F41
331
2AD0
  5
2B85
331
277B
  5
2080
331
2085
  5
9EC
331
29A1
  5
29A1
331
278B
  5
278D
331
24FC
  5
9D7
331
962
  5
962
331
982
  5
982
331
1308
  5
1316
331
1310
  5
1773
331
9EF
  5
9FD
331
9BA
  5
9BF
331
A4E
  5
A6C
331
9FF
  5
A09
331
30AF
  5
30AF
331
2CC0
  5
2CC1
331
2F6C
  5
2F6C
331
2CD8
  5
2CD8
331
309A
  5
309A
331
30A2
  5
30A2
331
2FE3
  5
2FE3
331
2504
  5
2506
331
27FB
  5
282A
331
198F
  5
19D9
331
250C
  5
25CC
331
2B98
  5
2B98
331
2BA0
  5
2BA0
331
23C5
  5
23CA
331
282B
  5
282E
331
2A29
  5
29DA
331
9CA
  5
9CF
331
9D2
  5
9E4
331
A66
  5
A77
331
A07
  5
A11
331
AA5
  5
10B8
331
A0F
  5
A19
331
95B
  5
95B
331
A76
  5
E9B
331
1301
  5
130F
331
A1F
  5
A4C
331
319E
  5
319E
331
3137
  5
3137
331
2CF8
  5
2CFC
331
2D08
  5
2D08
331
2EFE
  5
2EFE
331
2BDA
  5
2BE0
331
2D10
  5
2D10
331
2D18
  5
2D18
331
2744
  5
278C
331
2F0E
  5
2F0E
331
1738
  5
19D3
331
19CF
  5
1E04
331
2A31
  5
2A31
331
2086
  5
A28
331
28EB
  5
28EB
331
29A2
  5
29A2
331
278C
  5
278F
331
963
  5
963
331
1309
  5
1577
331
A27
  5
A64
331
9B3
  5
9B8
331
1311
  5
1775
331
9F0
  5
9FE
331
9BB
  5
9C0
331
A4F
  5
A6D
331
A9E
  5
1067
331
30A8
  5
30A8
331
30B0
  5
30B0
331
309B
  5
309B
331
30A3
  5
30A3
331
2505
  5
2507
331
2963
  5
2963
331
29E2
  5
29E4
331
2FE4
  5
2FE4
331
2BA1
  5
2BA1
331
23C6
  5
241B
331
9CB
  5
9D0
331
A00
  5
A0A
331
A67
  5
A78
331
9DB
  5
9E5
331
A08
  5
A12
331
A6F
  5
AA3
331
95C
  5
95C
331
A10
  5
A1A
331
A77
  5
EBE
331
A18
  5
A22
331
FE3
  5
1303
331
1302
  5
1310
331
2C52
  5
2C52
331
2C5A
  5
2C5A
331
2D09
  5
2D09
331
2D11
  5
2D11
331
2EFF
  5
2EFF
331
2D19
  5
2D19
331
19D0
  5
1E06
331
2884
  5
276B
331
2A32
  5
2A32
331
2F0F
  5
2F0F
331
299B
  5
299B
331
2087
  5
A25
331
28EC
  5
28EC
331
29A3
  5
29A3
331
21F7
  5
23B5
331
278D
  5
27FB
331
964
  5
964
331
A20
  5
A4D
331
9B4
  5
9B9
331
A28
  5
A65
331
C06
  5
10BE
331
130A
  5
15A7
331
9BC
  5
9C1
331
9F1
  5
9FF
331
1312
  5
1779
331
9F9
  5
A03
331
A50
  5
A6F
331
30A9
  5
30A9
331
30B1
  5
30B1
331
309C
  5
309C
331
30A4
  5
30A4
331
2506
  5
2508
331
2FE5
  5
2FE5
331
1E90
  5
21F7
331
2A0B
  5
2A27
331
2B9A
  5
2B9A
331
25FE
  5
267B
331
2BA2
  5
2BA2
331
282D
  5
282F
331
A01
  5
A0B
331
9DC
  5
9E6
331
A09
  5
A13
331
A68
  5
A79
331
95D
  5
95D
331
A11
  5
A1B
331
C65
  5
12FE
331
A19
  5
A24
331
1303
  5
1311
331
31A0
  5
31A0
331
2EC8
  5
2EC8
331
2C5B
  5
2C5B
331
2D0A
  5
2D0A
331
2C8B
  5
2C8B
331
2D12
  5
2D12
331
2D1A
  5
2D1A
331
19D1
  5
1E90
331
2028
  5
9F9
331
2885
  5
277B
331
2A33
  5
2A33
331
19D9
  5
1F67
331
299C
  5
299C
331
29A4
  5
29A4
331
278E
  5
280A
331
24FF
  5
2501
331
A78
  5
EC7
331
A21
  5
A4E
331
9B5
  5
9BA
331
A29
  5
A66
331
130B
  5
15BB
331
9F2
  5
A00
331
A88
  5
F95
331
1313
  5
1916
331
9FA
  5
A04
331
A51
  5
A71
331
1094
  5
1304
331
30AA
  5
30AA
331
30B2
  5
30B2
331
2F10
  5
2F10
331
2C14
  5
2C14
331
309D
  5
309D
331
1D59
  5
1F6A
331
2358
  5
23C5
331
30A5
  5
30A5
331
1DF9
  5
1FC7
331
2507
  5
2509
331
29E4
  5
29E2
331
2B9B
  5
2B9B
331
297D
  5
297D
331
282E
  5
2884
331
A02
  5
A0C
331
9DD
  5
9E7
331
A0A
  5
A14
331
A69
  5
A84
331
A71
  5
AA4
331
95E
  5
95E
331
A12
  5
A1C
331
10C4
  5
1305
331
15E3
  5
19CE
331
A1A
  5
A26
  0
XRECORD
  5
3470
102
{ACAD_REACTORS
330
346F
102
}
330
346F
100
AcDbXrecord
280
     1
102
SHADEPLOT
 70
     0
  0
DIMASSOC
  5
2DA0
102
{ACAD_REACTORS
330
2D9F
102
}
330
2D9F
100
AcDbDimAssoc
330
2D94
 90
        3
 70
     0
 71
     0
  1
AcDbOsnapPointRef
 72
     1
331
A6F
 73
     0
 91
        0
 40
0.0
 10
0.0
 20
0.0
 30
2.000000000000000E+50
 75
     0
  1
AcDbOsnapPointRef
 72
    13
331
19D9
 73
     0
 91
        0
 40
0.0
 10
0.0
 20
0.0
 30
2.000000000000000E+50
 75
     0
  0
DIMASSOC
  5
2E00
102
{ACAD_REACTORS
330
2DFF
102
}
330
2DFF
100
AcDbDimAssoc
330
2DF4
 90
        3
 70
     0
 71
     0
  1
AcDbOsnapPointRef
 72
     1
331
AA1
 73
     0
 91
        0
 40
0.0
 10
0.0
 20
0.0
 30
2.000000000000000E+50
 75
     0
  1
AcDbOsnapPointRef
 72
    11
331
A6D
 73
     0
 91
        0
 40
0.9999999999999957
 10
0.0
 20
0.0
 30
0.0
332
A6F
 74
     0
 92
        0
 75
     0
  0
DIMASSOC
  5
2F30
102
{ACAD_REACTORS
330
2F2F
102
}
330
2F2F
100
AcDbDimAssoc
330
2F24
 90
        3
 70
     0
 71
     0
  1
AcDbOsnapPointRef
 72
     1
331
2EFD
 73
     0
 91
        0
 40
0.0
 10
0.0
 20
0.0
 30
2.000000000000000E+50
 75
     0
  1
AcDbOsnapPointRef
 72
     8
331
2F0A
 73
     0
 91
        0
 40
1.0
 10
0.0
 20
0.0
 30
0.0
 75
     1
  1
AcDbOsnapPointRef
 72
     1
331
2EFD
 73
     0
 91
        0
 40
0.0
 10
0.0
 20
0.0
 30
2.000000000000000E+50
 75
     0
  0
DIMASSOC
  5
2F54
102
{ACAD_REACTORS
330
2F53
102
}
330
2F53
100
AcDbDimAssoc
330
2F48
 90
        3
 70
     0
 71
     0
  1
AcDbOsnapPointRef
 72
     1
331
2E9C
 73
     2
 91
        6
 40
0.0
 10
0.0
 20
0.0
 30
2.000000000000000E+50
 75
     0
  1
AcDbOsnapPointRef
 72
     1
331
2E9C
 73
     2
 91
        3
 40
0.0
 10
0.0
 20
0.0
 30
2.000000000000000E+50
 75
     0
  0
DIMASSOC
  5
2F78
102
{ACAD_REACTORS
330
2F77
102
}
330
2F77
100
AcDbDimAssoc
330
2F6C
 90
        2
 70
     0
 71
     0
  1
AcDbOsnapPointRef
 72
     1
331
2E9C
 73
     2
 91
        8
 40
0.0
 10
0.0
 20
0.0
 30
2.000000000000000E+50
 75
     0
  0
DIMASSOC
  5
2F9C
102
{ACAD_REACTORS
330
2F9B
102
}
330
2F9B
100
AcDbDimAssoc
330
2F90
 90
        3
 70
     0
 71
     0
  1
AcDbOsnapPointRef
 72
     1
331
2EFE
 73
     0
 91
        0
 40
0.0
 10
0.0
 20
0.0
 30
2.000000000000000E+50
 75
     0
  1
AcDbOsnapPointRef
 72
     8
331
2F04
 73
     0
 91
        0
 40
1.0
 10
0.0
 20
0.0
 30
0.0
 75
     1
  1
AcDbOsnapPointRef
 72
     1
331
2EFE
 73
     0
 91
        0
 40
0.0
 10
0.0
 20
0.0
 30
2.000000000000000E+50
 75
     0
  0
DIMASSOC
  5
2FF5
102
{ACAD_REACTORS
330
2FF4
102
}
330
2FF4
100
AcDbDimAssoc
330
2FEA
 90
        2
 70
     0
 71
     0
  1
AcDbOsnapPointRef
 72
     3
331
2FDA
 73
     2
 91
        0
 40
0.0
 10
0.0
 20
0.0
 30
0.0
 75
     0
  0
DIMASSOC
  5
3143
102
{ACAD_REACTORS
330
3142
102
}
330
3142
100
AcDbDimAssoc
330
3137
 90
        3
 70
     0
 71
     0
  1
AcDbOsnapPointRef
 72
    13
331
1078
 73
     0
 91
        0
 40
0.0
 10
0.0
 20
0.0
 30
2.000000000000000E+50
 75
     0
  1
AcDbOsnapPointRef
 72
     8
331
1311
 73
     0
 91
        0
 40
0.0000000000000002
 10
0.0
 20
0.0
 30
0.0
 75
     1
  1
AcDbOsnapPointRef
 72
    13
331
1078
 73
     0
 91
        0
 40
0.0
 10
0.0
 20
0.0
 30
2.000000000000000E+50
 75
     0
  0
DIMASSOC
  5
31CA
102
{ACAD_REACTORS
330
31C9
102
}
330
31C9
100
AcDbDimAssoc
330
31BE
 90
        3
 70
     0
 71
     0
  1
AcDbOsnapPointRef
 72
    10
331
1DF9
 73
     0
 91
        0
 40
0.0017088540418176
 10
0.0
 20
0.0
 30
0.0
 75
     0
  1
AcDbOsnapPointRef
 72
     1
331
21F1
 73
     0
 91
        0
 40
0.0
 10
0.0
 20
0.0
 30
2.000000000000000E+50
 75
     0
  0
DIMASSOC
  5
3346
102
{ACAD_REACTORS
330
3345
102
}
330
3345
100
AcDbDimAssoc
330
333A
 90
        3
 70
     0
 71
     0
  1
AcDbOsnapPointRef
 72
     1
331
2A32
 73
     0
 91
        0
 40
0.0
 10
0.0
 20
0.0
 30
2.000000000000000E+50
 75
     0
  1
AcDbOsnapPointRef
 72
     5
331
2A35
 73
     0
 91
        0
 40
1.570796326794896
 10
0.0
 20
0.0
 30
0.0
 75
     0
  0
DIMASSOC
  5
337B
102
{ACAD_REACTORS
330
337A
102
}
330
337A
100
AcDbDimAssoc
330
336D
 90
        3
 70
     0
 71
     0
  1
AcDbOsnapPointRef
 72
     5
331
2A36
 73
     2
 91
        6
 40
0.0
 10
0.0
 20
0.0
 30
0.0
 75
     0
  1
AcDbOsnapPointRef
 72
     8
331
2A36
 73
     2
 91
        3
 40
0.9999999999999408
 10
0.0
 20
0.0
 30
0.0
 75
     1
  1
AcDbOsnapPointRef
 72
     5
331
2A36
 73
     2
 91
        6
 40
0.0
 10
0.0
 20
0.0
 30
0.0
 75
     0
  0
DIMASSOC
  5
33BD
102
{ACAD_REACTORS
330
33BC
102
}
330
33BC
100
AcDbDimAssoc
330
33B1
 90
        3
 70
     0
 71
     0
  1
AcDbOsnapPointRef
 72
     1
331
2A35
 73
     0
 91
        0
 40
0.0
 10
0.0
 20
0.0
 30
2.000000000000000E+50
 75
     0
  1
AcDbOsnapPointRef
 72
     8
331
29CE
 73
     0
 91
        0
 40
0.9999999999997413
 10
0.0
 20
0.0
 30
0.0
 75
     1
  1
AcDbOsnapPointRef
 72
     1
331
2A35
 73
     0
 91
        0
 40
0.0
 10
0.0
 20
0.0
 30
2.000000000000000E+50
 75
     0
  0
DIMASSOC
  5
33F3
102
{ACAD_REACTORS
330
33F2
102
}
330
33F2
100
AcDbDimAssoc
330
33E5
 90
        3
 70
     0
 71
     0
  1
AcDbOsnapPointRef
 72
     1
331
29A3
 73
     0
 91
        0
 40
0.0
 10
0.0
 20
0.0
 30
2.000000000000000E+50
 75
     0
  1
AcDbOsnapPointRef
 72
     1
331
29A1
 73
     0
 91
        0
 40
0.0
 10
0.0
 20
0.0
 30
2.000000000000000E+50
 75
     0
  0
XRECORD
  5
3472
102
{ACAD_REACTORS
330
3471
102
}
330
3471
100
AcDbXrecord
280
     1
102
SHADEPLOT
 70
     0
  0
LAYOUT
  5
22
102
{ACAD_XDICTIONARY
360
346B
102
}
102
{ACAD_REACTORS
330
1A
102
}
330
1A
100
AcDbPlotSettings
  1

  2
RICOH IPSiO CX7200 RPCS
  4
A3
  6
AM_VIEW1
 40
5.873749732971191
 41
5.873747825622558
 42
5.873748779296875
 43
5.873748779296875
 44
296.9259948730469
 45
419.9466552734374
 46
2.589999999999999
 47
4.099999999999999
 48
10.0
 49
0.0
140
410.0
141
280.0
142
1.0
143
1.0
 70
 11956
 72
     1
 73
     1
 74
     4
  7
takachi-1.ctb
 75
    16
147
1.0
148
-10.0
149
0.0
100
AcDbLayout
  1
Model
 70
     1
 71
     0
 10
0.0
 20
0.0
 11
12.0
 21
9.0
 12
0.0
 22
0.0
 32
0.0
 14
0.0
 24
0.0
 34
0.0
 15
0.0
 25
0.0
 35
0.0
146
0.0
 13
0.0
 23
0.0
 33
0.0
 16
1.0
 26
0.0
 36
0.0
 17
0.0
 27
1.0
 37
0.0
 76
     0
330
1F
  0
LAYOUT
  5
1E
102
{ACAD_XDICTIONARY
360
3469
102
}
102
{ACAD_REACTORS
330
1A
102
}
330
1A
100
AcDbPlotSettings
  1

  2
none_device
  4
Letter_(8.50_x_11.00_Inches)
  6

 40
6.349999904632568
 41
6.349999904632568
 42
6.350006103515625
 43
6.350006103515625
 44
215.8999938964844
 45
279.3999938964844
 46
0.0
 47
0.0
 48
0.0
 49
0.0
140
0.0
141
0.0
142
1.0
143
1.0
 70
   688
 72
     1
 73
     1
 74
     5
  7
takachi-1.ctb
 75
    16
147
1.0
148
0.0
149
0.0
100
AcDbLayout
  1
レイアウト1
 70
     1
 71
     1
 10
-6.350006103515625
 20
-6.349999904632568
 11
273.0499877929688
 21
209.5499939918518
 12
0.0
 22
0.0
 32
0.0
 14
1.000000000000000E+20
 24
1.000000000000000E+20
 34
1.000000000000000E+20
 15
-1.000000000000000E+20
 25
-1.000000000000000E+20
 35
-1.000000000000000E+20
146
0.0
 13
0.0
 23
0.0
 33
0.0
 16
1.0
 26
0.0
 36
0.0
 17
0.0
 27
1.0
 37
0.0
 76
     0
330
1B
331
178
  0
LAYOUT
  5
26
102
{ACAD_XDICTIONARY
360
346D
102
}
102
{ACAD_REACTORS
330
1A
102
}
330
1A
100
AcDbPlotSettings
  1

  2
none_device
  4
Letter_(8.50_x_11.00_Inches)
  6

 40
6.349999904632568
 41
6.349999904632568
 42
6.350006103515625
 43
6.350006103515625
 44
215.8999938964844
 45
279.3999938964844
 46
0.0
 47
0.0
 48
0.0
 49
0.0
140
0.0
141
0.0
142
1.0
143
1.0
 70
   688
 72
     1
 73
     1
 74
     5
  7
takachi-1.ctb
 75
    16
147
1.0
148
0.0
149
0.0
100
AcDbLayout
  1
レイアウト2
 70
     1
 71
     2
 10
-6.350006103515625
 20
-6.349999904632568
 11
273.0499877929688
 21
209.5499939918518
 12
0.0
 22
0.0
 32
0.0
 14
1.000000000000000E+20
 24
1.000000000000000E+20
 34
1.000000000000000E+20
 15
-1.000000000000000E+20
 25
-1.000000000000000E+20
 35
-1.000000000000000E+20
146
0.0
 13
0.0
 23
0.0
 33
0.0
 16
1.0
 26
0.0
 36
0.0
 17
0.0
 27
1.0
 37
0.0
 76
     0
330
23
331
17C
  0
MLINESTYLE
  5
18
102
{ACAD_REACTORS
330
17
102
}
330
17
100
AcDbMlineStyle
  2
STANDARD
 70
     0
  3

 62
   256
 51
90.0
 52
90.0
 71
     2
 49
0.5
 62
   256
  6
BYLAYER
 49
-0.5
 62
   256
  6
BYLAYER
  0
ACDBPLACEHOLDER
  5
F
102
{ACAD_REACTORS
330
E
102
}
330
E
  0
TABLESTYLE
  5
D6A
102
{ACAD_REACTORS
330
D69
102
}
330
D69
100
AcDbTableStyle
  3
Standard
 70
     0
 71
     0
 40
1.5
 41
1.5
280
     0
281
     0
  7
STANDARD
140
4.5
170
     2
 62
     0
 63
     7
283
     0
274
    -2
284
     1
 64
     0
275
    -2
285
     1
 65
     0
276
    -2
286
     1
 66
     0
277
    -2
287
     1
 67
     0
278
    -2
288
     1
 68
     0
279
    -2
289
     1
 69
     0
  7
STANDARD
140
6.0
170
     5
 62
     0
 63
     7
283
     0
274
    -2
284
     1
 64
     0
275
    -2
285
     1
 65
     0
276
    -2
286
     1
 66
     0
277
    -2
287
     1
 67
     0
278
    -2
288
     1
 68
     0
279
    -2
289
     1
 69
     0
  7
STANDARD
140
4.5
170
     5
 62
     0
 63
     7
283
     0
274
    -2
284
     1
 64
     0
275
    -2
285
     1
 65
     0
276
    -2
286
     1
 66
     0
277
    -2
287
     1
 67
     0
278
    -2
288
     1
 68
     0
279
    -2
289
     1
 69
     0
  0
DICTIONARYVAR
  5
D8E
102
{ACAD_REACTORS
330
94
102
}
330
94
100
DictionaryVariables
280
     0
  1
STANDARD
  0
DICTIONARYVAR
  5
96
102
{ACAD_REACTORS
330
94
102
}
330
94
100
DictionaryVariables
280
     0
  1
2
  0
DICTIONARYVAR
  5
95
102
{ACAD_REACTORS
330
94
102
}
330
94
100
DictionaryVariables
280
     0
  1
0
  0
DICTIONARYVAR
  5
3465
102
{ACAD_REACTORS
330
94
102
}
330
94
100
DictionaryVariables
280
     0
  1

  0
DICTIONARY
  5
61
102
{ACAD_REACTORS
330
5B
102
}
330
5B
100
AcDbDictionary
281
     1
  0
XRECORD
  5
D83
102
{ACAD_REACTORS
330
5B
102
}
330
5B
100
AcDbXrecord
280
     1
 90
-1023410169
  0
XRECORD
  5
35F
102
{ACAD_REACTORS
330
35E
102
}
330
35E
100
AcDbXrecord
280
     1
 91
       16
330
1E1
 90
        0
 62
     7
370
    -3
331
16
  1
色_7
330
10
 90
        8
 62
     7
370
    -3
331
16
  1
色_7
  0
DICTIONARY
  5
346B
330
22
100
AcDbDictionary
280
     1
281
     1
  3
ACAD_XREC_ROUNDTRIP
360
346C
  0
DICTIONARY
  5
3469
330
1E
100
AcDbDictionary
280
     1
281
     1
  3
ACAD_XREC_ROUNDTRIP
360
346A
  0
DICTIONARY
  5
346D
330
26
100
AcDbDictionary
280
     1
281
     1
  3
ACAD_XREC_ROUNDTRIP
360
346E
  0
XRECORD
  5
346C
102
{ACAD_REACTORS
330
346B
102
}
330
346B
100
AcDbXrecord
280
     1
102
SHADEPLOT
 70
     0
102
SHADEPLOTRESLEVEL
 70
     2
102
SHADEPLOTCUSTOMDPI
 70
   300
  0
XRECORD
  5
346A
102
{ACAD_REACTORS
330
3469
102
}
330
3469
100
AcDbXrecord
280
     1
102
SHADEPLOT
 70
     1
102
SHADEPLOTRESLEVEL
 70
     2
102
SHADEPLOTCUSTOMDPI
 70
   300
  0
XRECORD
  5
346E
102
{ACAD_REACTORS
330
346D
102
}
330
346D
100
AcDbXrecord
280
     1
102
SHADEPLOT
 70
     1
102
SHADEPLOTRESLEVEL
 70
     2
102
SHADEPLOTCUSTOMDPI
 70
   300
  0
ENDSEC
  0
EOF
